  0
SECTION
  2
HEADER
  9
$ACADVER
  1
AC1015
  9
$ACADMAINTVER
 70
     6
  9
$DWGCODEPAGE
  3
ANSI_1252
  9
$INSBASE
 10
0.0
 20
0.0
 30
0.0
  9
$EXTMIN
 10
0.0
 20
0.0
 30
0.0
  9
$EXTMAX
 10
80.375
 20
100.0
 30
0.0
  9
$LIMMIN
 10
0.0
 20
0.0
  9
$LIMMAX
 10
80.375
 20
100.0
  9
$ORTHOMODE
 70
     0
  9
$REGENMODE
 70
     1
  9
$FILLMODE
 70
     1
  9
$QTEXTMODE
 70
     0
  9
$MIRRTEXT
 70
     1
  9
$LTSCALE
 40
1.0
  9
$ATTMODE
 70
     1
  9
$TEXTSIZE
 40
0.75
  9
$TRACEWID
 40
0.05
  9
$TEXTSTYLE
  7
STANDARD
  9
$CLAYER
  8
0
  9
$CELTYPE
  6
ByLayer
  9
$CECOLOR
 62
   256
  9
$CELTSCALE
 40
1.0
  9
$DISPSILH
 70
     0
  9
$DIMSCALE
 40
1.0
  9
$DIMASZ
 40
0.75
  9
$DIMEXO
 40
0.1666666667
  9
$DIMDLI
 40
0.38
  9
$DIMRND
 40
0.0
  9
$DIMDLE
 40
0.0
  9
$DIMEXE
 40
0.375
  9
$DIMTP
 40
0.0
  9
$DIMTM
 40
0.0
  9
$DIMTXT
 40
0.75
  9
$DIMCEN
 40
0.09
  9
$DIMTSZ
 40
0.0
  9
$DIMTOL
 70
     0
  9
$DIMLIM
 70
     0
  9
$DIMTIH
 70
     1
  9
$DIMTOH
 70
     1
  9
$DIMSE1
 70
     0
  9
$DIMSE2
 70
     0
  9
$DIMTAD
 70
     0
  9
$DIMZIN
 70
     1
  9
$DIMBLK
  1

  9
$DIMASO
 70
     1
  9
$DIMSHO
 70
     1
  9
$DIMPOST
  1

  9
$DIMAPOST
  1

  9
$DIMALT
 70
     0
  9
$DIMALTD
 70
     2
  9
$DIMALTF
 40
25.4
  9
$DIMLFAC
 40
1.0
  9
$DIMTOFL
 70
     0
  9
$DIMTVP
 40
0.0
  9
$DIMTIX
 70
     0
  9
$DIMSOXD
 70
     0
  9
$DIMSAH
 70
     0
  9
$DIMBLK1
  1

  9
$DIMBLK2
  1

  9
$DIMSTYLE
  2
Standard
  9
$DIMCLRD
 70
     0
  9
$DIMCLRE
 70
     0
  9
$DIMCLRT
 70
     0
  9
$DIMTFAC
 40
1.0
  9
$DIMGAP
 40
0.125
  9
$DIMJUST
 70
     0
  9
$DIMSD1
 70
     0
  9
$DIMSD2
 70
     0
  9
$DIMTOLJ
 70
     1
  9
$DIMTZIN
 70
     1
  9
$DIMALTZ
 70
     0
  9
$DIMALTTZ
 70
     0
  9
$DIMUPT
 70
     0
  9
$DIMDEC
 70
     2
  9
$DIMTDEC
 70
     2
  9
$DIMALTU
 70
     2
  9
$DIMALTTD
 70
     2
  9
$DIMTXSTY
  7
STANDARD
  9
$DIMAUNIT
 70
     0
  9
$DIMADEC
 70
     2
  9
$DIMALTRND
 40
0.0
  9
$DIMAZIN
 70
     0
  9
$DIMDSEP
 70
    46
  9
$DIMATFIT
 70
     3
  9
$DIMFRAC
 70
     0
  9
$DIMLDRBLK
  1

  9
$DIMLUNIT
 70
     2
  9
$DIMLWD
 70
    -2
  9
$DIMLWE
 70
    -2
  9
$DIMTMOVE
 70
     0
  9
$LUNITS
 70
     2
  9
$LUPREC
 70
     4
  9
$SKETCHINC
 40
0.1
  9
$FILLETRAD
 40
0.5
  9
$AUNITS
 70
     0
  9
$AUPREC
 70
     2
  9
$MENU
  1
.
  9
$ELEVATION
 40
0.0
  9
$PELEVATION
 40
0.0
  9
$THICKNESS
 40
0.0
  9
$LIMCHECK
 70
     0
  9
$CHAMFERA
 40
0.0
  9
$CHAMFERB
 40
0.0
  9
$CHAMFERC
 40
0.0
  9
$CHAMFERD
 40
0.0
  9
$SKPOLY
 70
     0
  9
$TDCREATE
 40
2459363.618873322
  9
$TDUCREATE
 40
2459363.785539988
  9
$TDUPDATE
 40
2459363.618879468
  9
$TDUUPDATE
 40
2459363.785546134
  9
$TDINDWG
 40
0.0000000116
  9
$TDUSRTIMER
 40
0.0000000116
  9
$USRTIMER
 70
     1
  9
$ANGBASE
 50
0.0
  9
$ANGDIR
 70
     0
  9
$PDMODE
 70
     0
  9
$PDSIZE
 40
-1.0
  9
$PLINEWID
 40
0.0
  9
$SPLFRAME
 70
     0
  9
$SPLINETYPE
 70
     6
  9
$SPLINESEGS
 70
     8
  9
$HANDSEED
  5
508
  9
$SURFTAB1
 70
     6
  9
$SURFTAB2
 70
     6
  9
$SURFTYPE
 70
     6
  9
$SURFU
 70
     6
  9
$SURFV
 70
     6
  9
$UCSBASE
  2

  9
$UCSNAME
  2

  9
$UCSORG
 10
0.0
 20
0.0
 30
0.0
  9
$UCSXDIR
 10
1.0
 20
0.0
 30
0.0
  9
$UCSYDIR
 10
0.0
 20
1.0
 30
0.0
  9
$UCSORTHOREF
  2

  9
$UCSORTHOVIEW
 70
     0
  9
$UCSORGTOP
 10
0.0
 20
0.0
 30
0.0
  9
$UCSORGBOTTOM
 10
0.0
 20
0.0
 30
0.0
  9
$UCSORGLEFT
 10
0.0
 20
0.0
 30
0.0
  9
$UCSORGRIGHT
 10
0.0
 20
0.0
 30
0.0
  9
$UCSORGFRONT
 10
0.0
 20
0.0
 30
0.0
  9
$UCSORGBACK
 10
0.0
 20
0.0
 30
0.0
  9
$PUCSBASE
  2

  9
$PUCSNAME
  2

  9
$PUCSORG
 10
0.0
 20
0.0
 30
0.0
  9
$PUCSXDIR
 10
1.0
 20
0.0
 30
0.0
  9
$PUCSYDIR
 10
0.0
 20
1.0
 30
0.0
  9
$PUCSORTHOREF
  2

  9
$PUCSORTHOVIEW
 70
     0
  9
$PUCSORGTOP
 10
0.0
 20
0.0
 30
0.0
  9
$PUCSORGBOTTOM
 10
0.0
 20
0.0
 30
0.0
  9
$PUCSORGLEFT
 10
0.0
 20
0.0
 30
0.0
  9
$PUCSORGRIGHT
 10
0.0
 20
0.0
 30
0.0
  9
$PUCSORGFRONT
 10
0.0
 20
0.0
 30
0.0
  9
$PUCSORGBACK
 10
0.0
 20
0.0
 30
0.0
  9
$USERI1
 70
     0
  9
$USERI2
 70
     0
  9
$USERI3
 70
     0
  9
$USERI4
 70
     0
  9
$USERI5
 70
     0
  9
$USERR1
 40
0.0
  9
$USERR2
 40
0.0
  9
$USERR3
 40
0.0
  9
$USERR4
 40
0.0
  9
$USERR5
 40
0.0
  9
$WORLDVIEW
 70
     1
  9
$SHADEDGE
 70
     3
  9
$SHADEDIF
 70
    70
  9
$TILEMODE
 70
     1
  9
$MAXACTVP
 70
    64
  9
$PINSBASE
 10
0.0
 20
0.0
 30
0.0
  9
$PLIMCHECK
 70
     0
  9
$PEXTMIN
 10
1.0000000000E+20
 20
1.0000000000E+20
 30
1.0000000000E+20
  9
$PEXTMAX
 10
-1.0000000000E+20
 20
-1.0000000000E+20
 30
-1.0000000000E+20
  9
$PLIMMIN
 10
0.0
 20
0.0
  9
$PLIMMAX
 10
12.0
 20
9.0
  9
$UNITMODE
 70
     0
  9
$VISRETAIN
 70
     1
  9
$PLINEGEN
 70
     0
  9
$PSLTSCALE
 70
     1
  9
$TREEDEPTH
 70
  3020
  9
$CMLSTYLE
  2
Standard
  9
$CMLJUST
 70
     0
  9
$CMLSCALE
 40
1.0
  9
$PROXYGRAPHICS
 70
     1
  9
$MEASUREMENT
 70
     0
  9
$CELWEIGHT
370
    -1
  9
$ENDCAPS
280
     0
  9
$JOINSTYLE
280
     0
  9
$LWDISPLAY
290
     1
  9
$INSUNITS
 70
     1
  9
$HYPERLINKBASE
  1

  9
$STYLESHEET
  1

  9
$XEDIT
290
     1
  9
$CEPSNTYPE
380
     0
  9
$PSTYLEMODE
290
     1
  9
$FINGERPRINTGUID
  2
{2227f15e-33e8-4d40-a6e3-bda2554fff90}
  9
$VERSIONGUID
  2
{FAEB1C32-E019-11D5-929B-00C0DF256EC4}
  9
$EXTNAMES
290
     1
  9
$PSVPSCALE
 40
0.0
  9
$OLESTARTUP
290
     0
  0
ENDSEC
  0
SECTION
  2
CLASSES
  0
CLASS
  1
ACDBDICTIONARYWDFLT
  2
AcDbDictionaryWithDefault
  3
ObjectDBX Classes
 90
        0
280
     0
281
     0
  0
CLASS
  1
VISUALSTYLE
  2
AcDbVisualStyle
  3
ObjectDBX Classes
 90
     4095
280
     0
281
     0
  0
CLASS
  1
MATERIAL
  2
AcDbMaterial
  3
ObjectDBX Classes
 90
     1153
280
     0
281
     0
  0
CLASS
  1
SCALE
  2
AcDbScale
  3
ObjectDBX Classes
 90
     1153
280
     0
281
     0
  0
CLASS
  1
TABLESTYLE
  2
AcDbTableStyle
  3
ObjectDBX Classes
 90
     4095
280
     0
281
     0
  0
CLASS
  1
MLEADERSTYLE
  2
AcDbMLeaderStyle
  3
ACDB_MLEADERSTYLE_CLASS
 90
     4095
280
     0
281
     0
  0
CLASS
  1
SUN
  2
AcDbSun
  3
SCENEOE
 90
     1153
280
     0
281
     0
  0
CLASS
  1
ACDBPLACEHOLDER
  2
AcDbPlaceHolder
  3
ObjectDBX Classes
 90
        0
280
     0
281
     0
  0
CLASS
  1
LAYOUT
  2
AcDbLayout
  3
ObjectDBX Classes
 90
        0
280
     0
281
     0
  0
ENDSEC
  0
SECTION
  2
TABLES
  0
TABLE
  2
VPORT
  5
8
330
0
100
AcDbSymbolTable
 70
     1
  0
VPORT
  5
29
330
8
100
AcDbSymbolTableRecord
100
AcDbViewportTableRecord
  2
*Active
 70
     0
 10
0.0
 20
0.0
 11
1.0
 21
1.0
 12
40.1875
 22
50.0
 13
0.0
 23
0.0
 14
0.5
 24
0.5
 15
0.5
 25
0.5
 16
0.0
 26
0.0
 36
1.0
 17
0.0
 27
0.0
 37
0.0
 40
100.0
 41
0.80375
 42
50.0
 43
0.0
 44
0.0
 50
0.0
 51
0.0
 71
     0
 72
  2000
 73
     1
 74
     3
 75
     0
 76
     0
 77
     0
 78
     0
281
     0
 65
     1
110
0.0
120
0.0
130
0.0
111
1.0
121
0.0
131
0.0
112
0.0
122
1.0
132
0.0
 79
     0
146
0.0
  0
ENDTAB
  0
TABLE
  2
LTYPE
  5
5
330
0
100
AcDbSymbolTable
 70
     8
  0
LTYPE
  5
14
330
5
100
AcDbSymbolTableRecord
100
AcDbLinetypeTableRecord
  2
ByBlock
 70
     0
  3

 72
    65
 73
     0
 40
0.0
  0
LTYPE
  5
15
330
5
100
AcDbSymbolTableRecord
100
AcDbLinetypeTableRecord
  2
ByLayer
 70
     0
  3

 72
    65
 73
     0
 40
0.0
  0
LTYPE
  5
16
330
5
100
AcDbSymbolTableRecord
100
AcDbLinetypeTableRecord
  2
Continuous
 70
     0
  3
Solid line
 72
    65
 73
     0
 40
0.0
  0
LTYPE
  5
6E
330
5
100
AcDbSymbolTableRecord
100
AcDbLinetypeTableRecord
  2
SLD-Solid
 70
     0
  3
SolidWorks Line Style
 72
    65
 73
     0
 40
0.0
  0
LTYPE
  5
6F
330
5
100
AcDbSymbolTableRecord
100
AcDbLinetypeTableRecord
  2
SLD-Dashed
 70
     0
  3
SolidWorks Line Style
 72
    65
 73
     2
 40
0.075
 49
0.05
 74
     0
 49
-0.025
 74
     0
  0
LTYPE
  5
70
330
5
100
AcDbSymbolTableRecord
100
AcDbLinetypeTableRecord
  2
SLD-Phantom
 70
     0
  3
SolidWorks Line Style
 72
    65
 73
     6
 40
0.5
 49
0.25
 74
     0
 49
-0.05
 74
     0
 49
0.05
 74
     0
 49
-0.05
 74
     0
 49
0.05
 74
     0
 49
-0.05
 74
     0
  0
LTYPE
  5
71
330
5
100
AcDbSymbolTableRecord
100
AcDbLinetypeTableRecord
  2
SLD-Chain
 70
     0
  3
SolidWorks Line Style
 72
    65
 73
     4
 40
0.4
 49
0.25
 74
     0
 49
-0.05
 74
     0
 49
0.05
 74
     0
 49
-0.05
 74
     0
  0
LTYPE
  5
72
330
5
100
AcDbSymbolTableRecord
100
AcDbLinetypeTableRecord
  2
SLD-Center
 70
     0
  3
SolidWorks Line Style
 72
    65
 73
     4
 40
0.75
 49
0.6
 74
     0
 49
-0.05
 74
     0
 49
0.05
 74
     0
 49
-0.05
 74
     0
  0
LTYPE
  5
73
330
5
100
AcDbSymbolTableRecord
100
AcDbLinetypeTableRecord
  2
SLD-Stitch
 70
     0
  3
SolidWorks Line Style
 72
    65
 73
     2
 40
0.025
 49
0.0
 74
     0
 49
-0.025
 74
     0
  0
LTYPE
  5
74
330
5
100
AcDbSymbolTableRecord
100
AcDbLinetypeTableRecord
  2
SLD-Thin-Thick-Chain
 70
     0
  3
SolidWorks Line Style
 72
    65
 73
     4
 40
0.4
 49
0.25
 74
     0
 49
-0.05
 74
     0
 49
0.05
 74
     0
 49
-0.05
 74
     0
  0
ENDTAB
  0
TABLE
  2
LAYER
  5
2
330
0
100
AcDbSymbolTable
 70
     6
  0
LAYER
  5
10
330
2
100
AcDbSymbolTableRecord
100
AcDbLayerTableRecord
  2
0
 70
     0
 62
     7
  6
Continuous
370
    -3
390
F
  0
LAYER
  5
75
330
2
100
AcDbSymbolTableRecord
100
AcDbLayerTableRecord
  2
FORMAT
 70
     0
 62
     7
  6
SLD-Solid
370
    -3
390
F
  0
LAYER
  5
76
330
2
100
AcDbSymbolTableRecord
100
AcDbLayerTableRecord
  2
NOTES
 70
     0
 62
     1
  6
SLD-Solid
370
    -3
390
F
  0
LAYER
  5
77
330
2
100
AcDbSymbolTableRecord
100
AcDbLayerTableRecord
  2
OBJECT
 70
     0
 62
     7
  6
SLD-Solid
370
    -3
390
F
  0
LAYER
  5
78
330
2
100
AcDbSymbolTableRecord
100
AcDbLayerTableRecord
  2
DIMS
 70
     0
 62
     5
  6
SLD-Solid
370
    -3
390
F
  0
LAYER
  5
79
330
2
100
AcDbSymbolTableRecord
100
AcDbLayerTableRecord
  2
TITLE
 70
     0
 62
     8
  6
SLD-Solid
370
    -3
390
F
  0
ENDTAB
  0
TABLE
  2
STYLE
  5
3
330
0
100
AcDbSymbolTable
 70
     5
  0
STYLE
  5
11
330
3
100
AcDbSymbolTableRecord
100
AcDbTextStyleTableRecord
  2
STANDARD
 70
     0
 40
0.0
 41
1.0
 50
0.0
 71
     0
 42
0.75
  3
GOTHIC.TTF
  4

1001
ACAD
1000
CENTURY GOTHIC
1071
       34
  0
STYLE
  5
13D
330
3
100
AcDbSymbolTableRecord
100
AcDbTextStyleTableRecord
  2
SLDTEXTSTYLE0
 70
     0
 40
0.0
 41
0.948
 50
0.0
 71
     0
 42
0.75
  3
ARIAL.TTF
  4

1001
ACAD
1000
Arial
1071
      290
  0
STYLE
  5
141
330
3
100
AcDbSymbolTableRecord
100
AcDbTextStyleTableRecord
  2
SLDTEXTSTYLE1
 70
     0
 40
0.0
 41
0.913
 50
0.0
 71
     0
 42
0.75
  3
GOTHIC.TTF
  4

1001
ACAD
1000
Century Gothic
1071
      290
  0
STYLE
  5
150
330
3
100
AcDbSymbolTableRecord
100
AcDbTextStyleTableRecord
  2
SLDTEXTSTYLE2
 70
     0
 40
0.0
 41
0.87
 50
0.0
 71
     0
 42
0.75
  3
ARIALNB.TTF
  4

1001
ACAD
1000
Arial Narrow
1071
 33554722
  0
STYLE
  5
152
330
3
100
AcDbSymbolTableRecord
100
AcDbTextStyleTableRecord
  2
SLDTEXTSTYLE3
 70
     0
 40
0.0
 41
0.87
 50
0.0
 71
     0
 42
0.75
  3
ARIALN.TTF
  4

1001
ACAD
1000
Arial Narrow
1071
      290
  0
ENDTAB
  0
TABLE
  2
VIEW
  5
6
330
0
100
AcDbSymbolTable
 70
     0
  0
ENDTAB
  0
TABLE
  2
UCS
  5
7
330
0
100
AcDbSymbolTable
 70
     0
  0
ENDTAB
  0
TABLE
  2
APPID
  5
9
330
0
100
AcDbSymbolTable
 70
     1
  0
APPID
  5
12
330
9
100
AcDbSymbolTableRecord
100
AcDbRegAppTableRecord
  2
ACAD
 70
     0
  0
ENDTAB
  0
TABLE
  2
DIMSTYLE
  5
A
330
0
100
AcDbSymbolTable
 70
     6
100
AcDbDimStyleTable
  0
DIMSTYLE
105
27
330
A
100
AcDbSymbolTableRecord
100
AcDbDimStyleTableRecord
  2
Standard
 70
     0
178
     0
340
11
  0
DIMSTYLE
105
275
102
{ACAD_REACTORS
330
274
102
}
330
A
100
AcDbSymbolTableRecord
100
AcDbDimStyleTableRecord
  2
SLDDIMSTYLE0
 70
     0
 41
0.75
 44
0.0
 45
0.000000001
 73
     0
 74
     0
 78
    12
 79
     3
140
0.75
147
0.1875
173
     1
178
     0
271
     2
272
     2
276
     2
277
     5
284
    12
340
141
341
276
343
276
344
276
  0
DIMSTYLE
105
287
102
{ACAD_REACTORS
330
286
330
296
330
305
330
454
330
46F
102
}
330
A
100
AcDbSymbolTableRecord
100
AcDbDimStyleTableRecord
  2
SLDDIMSTYLE1
 70
     0
 41
0.75
 44
0.0
 45
0.000000001
 78
    12
 79
     3
140
0.75
147
0.1875
173
     1
178
     0
271
     6
272
     2
276
     2
277
     5
284
    12
340
141
341
276
343
276
344
276
  0
DIMSTYLE
105
448
102
{ACAD_REACTORS
330
447
102
}
330
A
100
AcDbSymbolTableRecord
100
AcDbDimStyleTableRecord
  2
SLDDIMSTYLE2
 70
     0
 41
0.75
 44
0.0
 45
0.000000001
 78
    12
 79
     3
140
0.75
141
0.0
147
0.1875
173
     1
178
     0
271
     2
272
     2
276
     2
277
     5
284
    12
340
141
341
276
343
276
344
276
  0
DIMSTYLE
105
464
102
{ACAD_REACTORS
330
463
330
4FB
102
}
330
A
100
AcDbSymbolTableRecord
100
AcDbDimStyleTableRecord
  2
SLDDIMSTYLE3
 70
     0
 41
0.75
 44
0.0
 45
0.000000001
 78
    12
 79
     3
140
0.75
147
0.1875
173
     1
178
     0
271
     2
272
     2
276
     2
277
     5
284
    12
340
141
341
276
343
276
344
276
  0
DIMSTYLE
105
480
330
A
100
AcDbSymbolTableRecord
100
AcDbDimStyleTableRecord
  2
SLDDIMSTYLE4
 70
     0
 41
0.75
 44
0.0
 45
0.000000001
146
0.75
147
0.0
173
     1
178
     0
271
     0
272
     0
276
     2
277
     5
340
11
341
276
343
276
344
276
  0
ENDTAB
  0
TABLE
  2
BLOCK_RECORD
  5
1
330
0
100
AcDbSymbolTable
 70
    13
  0
BLOCK_RECORD
  5
1F
330
1
100
AcDbSymbolTableRecord
100
AcDbBlockTableRecord
  2
*Model_Space
340
22
  0
BLOCK_RECORD
  5
1B
330
1
100
AcDbSymbolTableRecord
100
AcDbBlockTableRecord
  2
*Paper_Space
340
1E
  0
BLOCK_RECORD
  5
23
330
1
100
AcDbSymbolTableRecord
100
AcDbBlockTableRecord
  2
*Paper_Space0
340
26
  0
BLOCK_RECORD
  5
147
330
1
100
AcDbSymbolTableRecord
100
AcDbBlockTableRecord
  2
SW_NOTE_0
340
0
102
{BLKREFS
331
14C
102
}
  0
BLOCK_RECORD
  5
14D
330
1
100
AcDbSymbolTableRecord
100
AcDbBlockTableRecord
  2
SW_NOTE_0_1
340
0
102
{BLKREFS
331
156
102
}
  0
BLOCK_RECORD
  5
276
330
1
100
AcDbSymbolTableRecord
100
AcDbBlockTableRecord
  2
_Open90
340
0
102
{BLKREFS
331
27F
331
280
331
28B
331
28C
331
29A
331
29B
331
309
331
30A
331
44C
331
458
331
459
331
468
331
469
331
473
331
474
331
4FF
331
500
102
}
  0
BLOCK_RECORD
  5
27C
330
1
100
AcDbSymbolTableRecord
100
AcDbBlockTableRecord
  2
_D
340
0
  0
BLOCK_RECORD
  5
288
330
1
100
AcDbSymbolTableRecord
100
AcDbBlockTableRecord
  2
_D_1
340
0
  0
BLOCK_RECORD
  5
297
330
1
100
AcDbSymbolTableRecord
100
AcDbBlockTableRecord
  2
_D_2
340
0
  0
BLOCK_RECORD
  5
306
330
1
100
AcDbSymbolTableRecord
100
AcDbBlockTableRecord
  2
_D_3
340
0
  0
BLOCK_RECORD
  5
449
330
1
100
AcDbSymbolTableRecord
100
AcDbBlockTableRecord
  2
_D_4
340
0
  0
BLOCK_RECORD
  5
455
330
1
100
AcDbSymbolTableRecord
100
AcDbBlockTableRecord
  2
_D_5
340
0
  0
BLOCK_RECORD
  5
465
330
1
100
AcDbSymbolTableRecord
100
AcDbBlockTableRecord
  2
_D_6
340
0
  0
BLOCK_RECORD
  5
470
330
1
100
AcDbSymbolTableRecord
100
AcDbBlockTableRecord
  2
_D_7
340
0
  0
BLOCK_RECORD
  5
4FC
330
1
100
AcDbSymbolTableRecord
100
AcDbBlockTableRecord
  2
_D_8
340
0
  0
ENDTAB
  0
ENDSEC
  0
SECTION
  2
BLOCKS
  0
BLOCK
  5
20
330
1F
100
AcDbEntity
  8
0
100
AcDbBlockBegin
  2
*Model_Space
 70
     0
 10
0.0
 20
0.0
 30
0.0
  3
*Model_Space
  1

  0
ENDBLK
  5
21
330
1F
100
AcDbEntity
  8
0
100
AcDbBlockEnd
  0
BLOCK
  5
1C
330
1B
100
AcDbEntity
 67
     1
  8
0
100
AcDbBlockBegin
  2
*Paper_Space
 70
     0
 10
0.0
 20
0.0
 30
0.0
  3
*Paper_Space
  1

  0
ENDBLK
  5
1D
330
1B
100
AcDbEntity
 67
     1
  8
0
100
AcDbBlockEnd
  0
BLOCK
  5
24
330
23
100
AcDbEntity
  8
0
100
AcDbBlockBegin
  2
*Paper_Space0
 70
     0
 10
0.0
 20
0.0
 30
0.0
  3
*Paper_Space0
  1

  0
ENDBLK
  5
25
330
23
100
AcDbEntity
  8
0
100
AcDbBlockEnd
  0
BLOCK
  5
148
330
147
100
AcDbEntity
  8
0
100
AcDbBlockBegin
  2
SW_NOTE_0
 70
     0
 10
0.0
 20
0.0
 30
0.0
  3
SW_NOTE_0
  1

  0
MTEXT
  5
14A
330
147
100
AcDbEntity
  8
NOTES
 62
     0
100
AcDbMText
 10
0.0
 20
0.3759780908
 30
0.0
 40
0.2916666667
 41
0.0
 71
     1
 72
     1
  1
FROST PRODUCTS LTD.
  7
SLDTEXTSTYLE0
 73
     1
 44
1.0
  0
MTEXT
  5
14B
330
147
100
AcDbEntity
  8
NOTES
 62
     0
100
AcDbMText
 10
0.0
 20
-0.0495142709
 30
0.0
 40
0.2291666667
 41
0.0
 71
     1
 72
     1
  1
5280 JOHN LUCUS DRIVE, BURLINGTON, ON, L7L 5Z9
  7
SLDTEXTSTYLE0
 73
     1
 44
1.0
  0
ENDBLK
  5
149
330
147
100
AcDbEntity
  8
0
100
AcDbBlockEnd
  0
BLOCK
  5
14E
330
14D
100
AcDbEntity
  8
0
100
AcDbBlockBegin
  2
SW_NOTE_0_1
 70
     0
 10
0.0
 20
0.0
 30
0.0
  3
SW_NOTE_0_1
  1

  0
MTEXT
  5
151
330
14D
100
AcDbEntity
  8
NOTES
 62
     0
100
AcDbMText
 10
0.0
 20
0.2381282771
 30
0.0
 40
0.184729064
 41
0.0
 71
     1
 72
     1
  1
PROPRIETARY AND CONFIDENTIAL
  7
SLDTEXTSTYLE2
 73
     1
 44
1.0
  0
MTEXT
  5
153
330
14D
100
AcDbEntity
  8
NOTES
 62
     0
100
AcDbMText
 10
0.0
 20
-0.0504364796
 30
0.0
 40
0.25
 41
0.0
 71
     1
 72
     1
  1
THE INFORMATION CONTAINED IN THIS DRAWING IS THE SOLE PROPERTY OF 
  7
SLDTEXTSTYLE3
 73
     1
 44
1.0
  0
MTEXT
  5
154
330
14D
100
AcDbEntity
  8
NOTES
 62
     0
100
AcDbMText
 10
0.0
 20
-0.4231398941
 30
0.0
 40
0.25
 41
0.0
 71
     1
 72
     1
  1
FROST PRODUCTS LTD.  ANY REPRODUCTION IN PART OR AS A WHOLE WITHOUT 
  7
SLDTEXTSTYLE3
 73
     1
 44
1.0
  0
MTEXT
  5
155
330
14D
100
AcDbEntity
  8
NOTES
 62
     0
100
AcDbMText
 10
0.0
 20
-0.7958433086
 30
0.0
 40
0.25
 41
0.0
 71
     1
 72
     1
  1
THE WRITTEN PERMISSION OF FROST PRODUCTS LTD. IS PROHIBITED.
  7
SLDTEXTSTYLE3
 73
     1
 44
1.0
  0
ENDBLK
  5
14F
330
14D
100
AcDbEntity
  8
0
100
AcDbBlockEnd
  0
BLOCK
  5
277
330
276
100
AcDbEntity
  8
0
100
AcDbBlockBegin
  2
_Open90
 70
     0
 10
0.0
 20
0.0
 30
0.0
  3
_Open90
  1

  0
LINE
  5
279
330
276
100
AcDbEntity
  8
0
  6
ByBlock
 62
     0
370
    -2
100
AcDbLine
 10
-0.5
 20
0.5
 30
0.0
 11
0.0
 21
0.0
 31
0.0
  0
LINE
  5
27A
330
276
100
AcDbEntity
  8
0
  6
ByBlock
 62
     0
370
    -2
100
AcDbLine
 10
0.0
 20
0.0
 30
0.0
 11
-0.5
 21
-0.5
 31
0.0
  0
LINE
  5
27B
330
276
100
AcDbEntity
  8
0
  6
ByBlock
 62
     0
370
    -2
100
AcDbLine
 10
0.0
 20
0.0
 30
0.0
 11
-1.0
 21
0.0
 31
0.0
  0
ENDBLK
  5
278
330
276
100
AcDbEntity
  8
0
100
AcDbBlockEnd
  0
BLOCK
  5
27D
330
27C
100
AcDbEntity
  8
0
100
AcDbBlockBegin
  2
_D
 70
     0
 10
0.0
 20
0.0
 30
0.0
  3
_D
  1

  0
INSERT
  5
27F
330
27C
100
AcDbEntity
  8
DIMS
100
AcDbBlockReference
  2
_Open90
 10
6.5377830503
 20
48.9559238906
 30
0.0
 41
0.75
 42
0.75
 50
90.0
  0
INSERT
  5
280
330
27C
100
AcDbEntity
  8
DIMS
100
AcDbBlockReference
  2
_Open90
 10
6.5377830503
 20
6.9559238906
 30
0.0
 41
0.75
 42
0.75
 50
270.0
  0
LINE
  5
281
330
27C
100
AcDbEntity
  8
DIMS
100
AcDbLine
 10
12.6446809505
 20
48.9559238906
 30
0.0
 11
6.1627830503
 21
48.9559238906
 31
0.0
  0
LINE
  5
282
330
27C
100
AcDbEntity
  8
DIMS
100
AcDbLine
 10
6.5377830503
 20
48.9559238906
 30
0.0
 11
6.5377830503
 21
39.8646749588
 31
0.0
  0
LINE
  5
283
330
27C
100
AcDbEntity
  8
DIMS
100
AcDbLine
 10
6.5377830503
 20
6.9559238906
 30
0.0
 11
6.5377830503
 21
16.4219616643
 31
0.0
  0
MTEXT
  5
284
330
27C
100
AcDbEntity
  8
DIMS
100
AcDbMText
 10
5.5797752378
 20
16.4219616643
 30
0.0
 40
0.75
 41
0.0
 71
     1
 72
     1
  1
48" (1220mm) Max. height above floor to center 
  7
SLDTEXTSTYLE1
 11
-7.044195017643634E-15
 21
1.0
 31
0.0
 73
     1
 44
1.0
  0
MTEXT
  5
285
330
27C
100
AcDbEntity
  8
DIMS
100
AcDbMText
 10
6.7704002369
 20
16.4219616643
 30
0.0
 40
0.75
 41
0.0
 71
     1
 72
     1
  1
of inlet door for barrier free mounting
  7
SLDTEXTSTYLE1
 11
-7.044195017643634E-15
 21
1.0
 31
0.0
 73
     1
 44
1.0
  0
ENDBLK
  5
27E
330
27C
100
AcDbEntity
  8
0
100
AcDbBlockEnd
  0
BLOCK
  5
289
330
288
100
AcDbEntity
  8
0
100
AcDbBlockBegin
  2
_D_1
 70
     0
 10
0.0
 20
0.0
 30
0.0
  3
_D_1
  1

  0
INSERT
  5
28B
330
288
100
AcDbEntity
  8
DIMS
100
AcDbBlockReference
  2
_Open90
 10
6.5377830503
 20
48.9559238906
 30
0.0
 41
0.75
 42
0.75
 50
270.0
  0
INSERT
  5
28C
330
288
100
AcDbEntity
  8
DIMS
100
AcDbBlockReference
  2
_Open90
 10
6.5377830503
 20
52.0984288525
 30
0.0
 41
0.75
 42
0.75
 50
90.0
  0
LINE
  5
28D
330
288
100
AcDbEntity
  8
DIMS
100
AcDbLine
 10
6.2731996967
 20
50.4890968759
 30
0.0
 11
7.0471580892
 21
50.4890968759
 31
0.0
  0
LINE
  5
28E
330
288
100
AcDbEntity
  8
DIMS
100
AcDbLine
 10
12.6446809505
 20
48.9559238906
 30
0.0
 11
6.1627830503
 21
48.9559238906
 31
0.0
  0
LINE
  5
28F
330
288
100
AcDbEntity
  8
DIMS
100
AcDbLine
 10
8.5016148923
 20
52.0984288525
 30
0.0
 11
6.1627830503
 21
52.0984288525
 31
0.0
  0
LINE
  5
290
330
288
100
AcDbEntity
  8
DIMS
100
AcDbLine
 10
6.5377830503
 20
48.9559238906
 30
0.0
 11
6.5377830503
 21
49.4313884563
 31
0.0
  0
LINE
  5
291
330
288
100
AcDbEntity
  8
DIMS
100
AcDbLine
 10
6.5377830503
 20
52.0984288525
 30
0.0
 11
6.5377830503
 21
51.3929510628
 31
0.0
  0
MTEXT
  5
292
330
288
100
AcDbEntity
  8
DIMS
100
AcDbMText
 10
5.6091371847
 20
50.833198462
 30
0.0
 40
0.75
 41
0.0
 71
     1
 72
     1
  1
3
  7
SLDTEXTSTYLE1
 73
     1
 44
1.0
  0
MTEXT
  5
293
330
288
100
AcDbEntity
  8
DIMS
100
AcDbMText
 10
6.3830955589
 20
51.3811671968
 30
0.0
 40
0.75
 41
0.0
 71
     1
 72
     1
  1
1
  7
SLDTEXTSTYLE1
 73
     1
 44
1.0
  0
MTEXT
  5
294
330
288
100
AcDbEntity
  8
DIMS
100
AcDbMText
 10
6.3830955589
 20
50.3893963307
 30
0.0
 40
0.75
 41
0.0
 71
     1
 72
     1
  1
8
  7
SLDTEXTSTYLE1
 73
     1
 44
1.0
  0
MTEXT
  5
295
330
288
100
AcDbEntity
  8
DIMS
100
AcDbMText
 10
7.1570539697
 20
50.833198462
 30
0.0
 40
0.75
 41
0.0
 71
     1
 72
     1
  1
"
  7
SLDTEXTSTYLE1
 73
     1
 44
1.0
  0
ENDBLK
  5
28A
330
288
100
AcDbEntity
  8
0
100
AcDbBlockEnd
  0
BLOCK
  5
298
330
297
100
AcDbEntity
  8
0
100
AcDbBlockBegin
  2
_D_2
 70
     0
 10
0.0
 20
0.0
 30
0.0
  3
_D_2
  1

  0
INSERT
  5
29A
330
297
100
AcDbEntity
  8
DIMS
100
AcDbBlockReference
  2
_Open90
 10
8.4314382453
 20
54.5860197403
 30
5.1618606141
 41
0.75
 42
0.75
 50
180.0
  0
INSERT
  5
29B
330
297
100
AcDbEntity
  8
DIMS
100
AcDbBlockReference
  2
_Open90
 10
30.1114382453
 20
54.5860197403
 30
5.1618606141
 41
0.75
 42
0.75
 50
0.0
  0
LINE
  5
29C
330
297
100
AcDbEntity
  8
DIMS
100
AcDbLine
 10
18.9218152318
 20
54.6629468566
 30
0.0
 11
20.2499403291
 21
54.6629468566
 31
0.0
  0
LINE
  5
29D
330
297
100
AcDbEntity
  8
DIMS
100
AcDbLine
 10
8.4314382453
 20
44.8152145009
 30
0.0
 11
8.4314382453
 21
54.9610197403
 31
0.0
  0
LINE
  5
29E
330
297
100
AcDbEntity
  8
DIMS
100
AcDbLine
 10
30.1114382453
 20
44.8152145009
 30
0.0
 11
30.1114382453
 21
54.9610197403
 31
0.0
  0
LINE
  5
29F
330
297
100
AcDbEntity
  8
DIMS
100
AcDbLine
 10
8.4314382453
 20
54.5860197403
 30
0.0
 11
17.7035860515
 21
54.5860197403
 31
0.0
  0
LINE
  5
2A0
330
297
100
AcDbEntity
  8
DIMS
100
AcDbLine
 10
30.1114382453
 20
54.5860197403
 30
0.0
 11
20.669211339
 21
54.5860197403
 31
0.0
  0
MTEXT
  5
2A1
330
297
100
AcDbEntity
  8
DIMS
100
AcDbMText
 10
17.7035860515
 20
55.0070484427
 30
0.0
 40
0.75
 41
0.0
 71
     1
 72
     1
  1
21
  7
SLDTEXTSTYLE1
 73
     1
 44
1.0
  0
MTEXT
  5
2A2
330
297
100
AcDbEntity
  8
DIMS
100
AcDbMText
 10
19.0317111122
 20
55.5550171775
 30
0.0
 40
0.75
 41
0.0
 71
     1
 72
     1
  1
11
  7
SLDTEXTSTYLE1
 73
     1
 44
1.0
  0
MTEXT
  5
2A3
330
297
100
AcDbEntity
  8
DIMS
100
AcDbMText
 10
19.0317111122
 20
54.5632463114
 30
0.0
 40
0.75
 41
0.0
 71
     1
 72
     1
  1
16
  7
SLDTEXTSTYLE1
 73
     1
 44
1.0
  0
MTEXT
  5
2A4
330
297
100
AcDbEntity
  8
DIMS
100
AcDbMText
 10
20.3598362463
 20
55.0070484427
 30
0.0
 40
0.75
 41
0.0
 71
     1
 72
     1
  1
"
  7
SLDTEXTSTYLE1
 73
     1
 44
1.0
  0
ENDBLK
  5
299
330
297
100
AcDbEntity
  8
0
100
AcDbBlockEnd
  0
BLOCK
  5
307
330
306
100
AcDbEntity
  8
0
100
AcDbBlockBegin
  2
_D_3
 70
     0
 10
0.0
 20
0.0
 30
0.0
  3
_D_3
  1

  0
INSERT
  5
309
330
306
100
AcDbEntity
  8
DIMS
100
AcDbBlockReference
  2
_Open90
 10
37.4731495106
 20
52.1174376224
 30
0.04255
 41
0.75
 42
0.75
 50
90.0
  0
INSERT
  5
30A
330
306
100
AcDbEntity
  8
DIMS
100
AcDbBlockReference
  2
_Open90
 10
37.4731495106
 20
13.5751473947
 30
0.04255
 41
0.75
 42
0.75
 50
270.0
  0
LINE
  5
30B
330
306
100
AcDbEntity
  8
DIMS
100
AcDbLine
 10
37.2085660471
 20
32.9929331446
 30
0.0
 11
38.5366911445
 21
32.9929331446
 31
0.0
  0
LINE
  5
30C
330
306
100
AcDbEntity
  8
DIMS
100
AcDbLine
 10
45.0575006453
 20
52.1174376224
 30
0.0
 11
37.0981495106
 21
52.1174376224
 31
0.0
  0
LINE
  5
30D
330
306
100
AcDbEntity
  8
DIMS
100
AcDbLine
 10
39.6368114152
 20
13.5751473947
 30
0.0
 11
37.0981495106
 21
13.5751473947
 31
0.0
  0
LINE
  5
30E
330
306
100
AcDbEntity
  8
DIMS
100
AcDbLine
 10
37.4731495106
 20
52.1174376224
 30
0.0
 11
37.4731495106
 21
33.8967873316
 31
0.0
  0
LINE
  5
30F
330
306
100
AcDbEntity
  8
DIMS
100
AcDbLine
 10
37.4731495106
 20
13.5751473947
 30
0.0
 11
37.4731495106
 21
31.935224725
 31
0.0
  0
MTEXT
  5
310
330
306
100
AcDbEntity
  8
DIMS
100
AcDbMText
 10
35.9903368668
 20
33.3370347307
 30
0.0
 40
0.75
 41
0.0
 71
     1
 72
     1
  1
38
  7
SLDTEXTSTYLE1
 73
     1
 44
1.0
  0
MTEXT
  5
311
330
306
100
AcDbEntity
  8
DIMS
100
AcDbMText
 10
37.5955452617
 20
33.8850034655
 30
0.0
 40
0.75
 41
0.0
 71
     1
 72
     1
  1
9
  7
SLDTEXTSTYLE1
 73
     1
 44
1.0
  0
MTEXT
  5
312
330
306
100
AcDbEntity
  8
DIMS
100
AcDbMText
 10
37.3184619276
 20
32.8932325994
 30
0.0
 40
0.75
 41
0.0
 71
     1
 72
     1
  1
16
  7
SLDTEXTSTYLE1
 73
     1
 44
1.0
  0
MTEXT
  5
313
330
306
100
AcDbEntity
  8
DIMS
100
AcDbMText
 10
38.6465870616
 20
33.3370347307
 30
0.0
 40
0.75
 41
0.0
 71
     1
 72
     1
  1
"
  7
SLDTEXTSTYLE1
 73
     1
 44
1.0
  0
ENDBLK
  5
308
330
306
100
AcDbEntity
  8
0
100
AcDbBlockEnd
  0
BLOCK
  5
44A
330
449
100
AcDbEntity
  8
0
100
AcDbBlockBegin
  2
_D_4
 70
     0
 10
0.0
 20
0.0
 30
0.0
  3
_D_4
  1

  0
INSERT
  5
44C
330
449
100
AcDbEntity
  8
DIMS
100
AcDbBlockReference
  2
_Open90
 10
71.7449750067
 20
27.5829552516
 30
-5.1618606141
 41
0.75
 42
0.75
 50
75.0
  0
LINE
  5
44D
330
449
100
AcDbEntity
  8
DIMS
100
AcDbLine
 10
64.6978199931
 20
10.4500256258
 30
0.0
 11
66.0259450905
 21
10.4500256258
 31
0.0
  0
LINE
  5
44E
330
449
100
AcDbEntity
  8
DIMS
100
AcDbLine
 10
71.7449750067
 20
27.5829552516
 30
0.0
 11
67.1336077908
 21
10.3730985094
 31
0.0
  0
LINE
  5
44F
330
449
100
AcDbEntity
  8
DIMS
100
AcDbLine
 10
67.1336077908
 20
10.3730985094
 30
0.0
 11
66.4452160271
 21
10.3730985094
 31
0.0
  0
MTEXT
  5
450
330
449
100
AcDbEntity
  8
DIMS
100
AcDbMText
 10
63.4568303891
 20
10.7826688825
 30
0.0
 40
0.75
 41
0.0
 71
     1
 72
     1
  1
%%c
  7
SLDTEXTSTYLE1
 73
     1
 44
1.0
  0
MTEXT
  5
451
330
449
100
AcDbEntity
  8
DIMS
100
AcDbMText
 10
65.0847992077
 20
11.3420959466
 30
0.0
 40
0.75
 41
0.0
 71
     1
 72
     1
  1
3
  7
SLDTEXTSTYLE1
 73
     1
 44
1.0
  0
MTEXT
  5
452
330
449
100
AcDbEntity
  8
DIMS
100
AcDbMText
 10
64.8077158736
 20
10.3503250805
 30
0.0
 40
0.75
 41
0.0
 71
     1
 72
     1
  1
16
  7
SLDTEXTSTYLE1
 73
     1
 44
1.0
  0
MTEXT
  5
453
330
449
100
AcDbEntity
  8
DIMS
100
AcDbMText
 10
66.1358409343
 20
10.7941272118
 30
0.0
 40
0.75
 41
0.0
 71
     1
 72
     1
  1
"
  7
SLDTEXTSTYLE1
 73
     1
 44
1.0
  0
ENDBLK
  5
44B
330
449
100
AcDbEntity
  8
0
100
AcDbBlockEnd
  0
BLOCK
  5
456
330
455
100
AcDbEntity
  8
0
100
AcDbBlockBegin
  2
_D_5
 70
     0
 10
0.0
 20
0.0
 30
0.0
  3
_D_5
  1

  0
INSERT
  5
458
330
455
100
AcDbEntity
  8
DIMS
100
AcDbBlockReference
  2
_Open90
 10
51.4262128168
 20
38.8045478342
 30
-5.1618606141
 41
0.75
 42
0.75
 50
270.0
  0
INSERT
  5
459
330
455
100
AcDbEntity
  8
DIMS
100
AcDbBlockReference
  2
_Open90
 10
51.4262128168
 20
52.1174376224
 30
-5.1618606141
 41
0.75
 42
0.75
 50
90.0
  0
LINE
  5
45A
330
455
100
AcDbEntity
  8
DIMS
100
AcDbLine
 10
51.1616293533
 20
45.0341967376
 30
0.0
 11
52.4897544506
 21
45.0341967376
 31
0.0
  0
LINE
  5
45B
330
455
100
AcDbEntity
  8
DIMS
100
AcDbLine
 10
56.6041902446
 20
38.8045478342
 30
0.0
 11
51.0512128168
 21
38.8045478342
 31
0.0
  0
LINE
  5
45C
330
455
100
AcDbEntity
  8
DIMS
100
AcDbLine
 10
53.4585902446
 20
52.1174376224
 30
0.0
 11
51.0512128168
 21
52.1174376224
 31
0.0
  0
LINE
  5
45D
330
455
100
AcDbEntity
  8
DIMS
100
AcDbLine
 10
51.4262128168
 20
38.8045478342
 30
0.0
 11
51.4262128168
 21
43.976488318
 31
0.0
  0
LINE
  5
45E
330
455
100
AcDbEntity
  8
DIMS
100
AcDbLine
 10
51.4262128168
 20
52.1174376224
 30
0.0
 11
51.4262128168
 21
45.9380509246
 31
0.0
  0
MTEXT
  5
45F
330
455
100
AcDbEntity
  8
DIMS
100
AcDbMText
 10
49.943400173
 20
45.3782983237
 30
0.0
 40
0.75
 41
0.0
 71
     1
 72
     1
  1
13
  7
SLDTEXTSTYLE1
 73
     1
 44
1.0
  0
MTEXT
  5
460
330
455
100
AcDbEntity
  8
DIMS
100
AcDbMText
 10
51.5486085678
 20
45.9262670585
 30
0.0
 40
0.75
 41
0.0
 71
     1
 72
     1
  1
5
  7
SLDTEXTSTYLE1
 73
     1
 44
1.0
  0
MTEXT
  5
461
330
455
100
AcDbEntity
  8
DIMS
100
AcDbMText
 10
51.2715252337
 20
44.9344961924
 30
0.0
 40
0.75
 41
0.0
 71
     1
 72
     1
  1
16
  7
SLDTEXTSTYLE1
 73
     1
 44
1.0
  0
MTEXT
  5
462
330
455
100
AcDbEntity
  8
DIMS
100
AcDbMText
 10
52.5996503678
 20
45.3782983237
 30
0.0
 40
0.75
 41
0.0
 71
     1
 72
     1
  1
"
  7
SLDTEXTSTYLE1
 73
     1
 44
1.0
  0
ENDBLK
  5
457
330
455
100
AcDbEntity
  8
0
100
AcDbBlockEnd
  0
BLOCK
  5
466
330
465
100
AcDbEntity
  8
0
100
AcDbBlockBegin
  2
_D_6
 70
     0
 10
0.0
 20
0.0
 30
0.0
  3
_D_6
  1

  0
INSERT
  5
468
330
465
100
AcDbEntity
  8
DIMS
100
AcDbBlockReference
  2
_Open90
 10
71.7708569113
 20
53.4049173781
 30
-5.1618606141
 41
0.75
 42
0.75
 50
0.0
  0
INSERT
  5
469
330
465
100
AcDbEntity
  8
DIMS
100
AcDbBlockReference
  2
_Open90
 10
56.7708569113
 20
53.4049173781
 30
-5.1618606141
 41
0.75
 42
0.75
 50
180.0
  0
LINE
  5
46A
330
465
100
AcDbEntity
  8
DIMS
100
AcDbLine
 10
71.7708569113
 20
38.9712145009
 30
0.0
 11
71.7708569113
 21
53.7799173781
 31
0.0
  0
LINE
  5
46B
330
465
100
AcDbEntity
  8
DIMS
100
AcDbLine
 10
56.7708569113
 20
38.9712145009
 30
0.0
 11
56.7708569113
 21
53.7799173781
 31
0.0
  0
LINE
  5
46C
330
465
100
AcDbEntity
  8
DIMS
100
AcDbLine
 10
71.7708569113
 20
53.4049173781
 30
0.0
 11
64.7421988028
 21
53.4049173781
 31
0.0
  0
LINE
  5
46D
330
465
100
AcDbEntity
  8
DIMS
100
AcDbLine
 10
56.7708569113
 20
53.4049173781
 30
0.0
 11
63.3244904469
 21
53.4049173781
 31
0.0
  0
MTEXT
  5
46E
330
465
100
AcDbEntity
  8
DIMS
100
AcDbMText
 10
63.3244904469
 20
53.767612691
 30
0.0
 40
0.75
 41
0.0
 71
     1
 72
     1
  1
15"
  7
SLDTEXTSTYLE1
 73
     1
 44
1.0
  0
ENDBLK
  5
467
330
465
100
AcDbEntity
  8
0
100
AcDbBlockEnd
  0
BLOCK
  5
471
330
470
100
AcDbEntity
  8
0
100
AcDbBlockBegin
  2
_D_7
 70
     0
 10
0.0
 20
0.0
 30
0.0
  3
_D_7
  1

  0
INSERT
  5
473
330
470
100
AcDbEntity
  8
DIMS
100
AcDbBlockReference
  2
_Open90
 10
51.4262128168
 20
38.8045478342
 30
-5.1618606141
 41
0.75
 42
0.75
 50
90.0
  0
INSERT
  5
474
330
470
100
AcDbEntity
  8
DIMS
100
AcDbBlockReference
  2
_Open90
 10
51.4262128168
 20
27.6795478342
 30
-5.1618606141
 41
0.75
 42
0.75
 50
270.0
  0
LINE
  5
475
330
470
100
AcDbEntity
  8
DIMS
100
AcDbLine
 10
51.4387128524
 20
33.3189749505
 30
0.0
 11
52.2126712449
 21
33.3189749505
 31
0.0
  0
LINE
  5
476
330
470
100
AcDbEntity
  8
DIMS
100
AcDbLine
 10
56.6041902446
 20
38.8045478342
 30
0.0
 11
51.0512128168
 21
38.8045478342
 31
0.0
  0
LINE
  5
477
330
470
100
AcDbEntity
  8
DIMS
100
AcDbLine
 10
56.6041902446
 20
27.6795478342
 30
0.0
 11
51.0512128168
 21
27.6795478342
 31
0.0
  0
LINE
  5
478
330
470
100
AcDbEntity
  8
DIMS
100
AcDbLine
 10
51.4262128168
 20
38.8045478342
 30
0.0
 11
51.4262128168
 21
34.2228291375
 31
0.0
  0
LINE
  5
479
330
470
100
AcDbEntity
  8
DIMS
100
AcDbLine
 10
51.4262128168
 20
27.6795478342
 30
0.0
 11
51.4262128168
 21
32.2612665309
 31
0.0
  0
MTEXT
  5
47A
330
470
100
AcDbEntity
  8
DIMS
100
AcDbMText
 10
50.2204836721
 20
33.6630765366
 30
0.0
 40
0.75
 41
0.0
 71
     1
 72
     1
  1
11
  7
SLDTEXTSTYLE1
 73
     1
 44
1.0
  0
MTEXT
  5
47B
330
470
100
AcDbEntity
  8
DIMS
100
AcDbMText
 10
51.5486087145
 20
34.2110452714
 30
0.0
 40
0.75
 41
0.0
 71
     1
 72
     1
  1
1
  7
SLDTEXTSTYLE1
 73
     1
 44
1.0
  0
MTEXT
  5
47C
330
470
100
AcDbEntity
  8
DIMS
100
AcDbMText
 10
51.5486087145
 20
33.2192744053
 30
0.0
 40
0.75
 41
0.0
 71
     1
 72
     1
  1
8
  7
SLDTEXTSTYLE1
 73
     1
 44
1.0
  0
MTEXT
  5
47D
330
470
100
AcDbEntity
  8
DIMS
100
AcDbMText
 10
52.3225670153
 20
33.6630765366
 30
0.0
 40
0.75
 41
0.0
 71
     1
 72
     1
  1
"
  7
SLDTEXTSTYLE1
 73
     1
 44
1.0
  0
ENDBLK
  5
472
330
470
100
AcDbEntity
  8
0
100
AcDbBlockEnd
  0
BLOCK
  5
4FD
330
4FC
100
AcDbEntity
  8
0
100
AcDbBlockBegin
  2
_D_8
 70
     0
 10
0.0
 20
0.0
 30
0.0
  3
_D_8
  1

  0
INSERT
  5
4FF
330
4FC
100
AcDbEntity
  8
DIMS
100
AcDbBlockReference
  2
_Open90
 10
31.6862413949
 20
61.5438296901
 30
-25.7482749541
 41
0.75
 42
0.75
 50
270.0
  0
INSERT
  5
500
330
4FC
100
AcDbEntity
  8
DIMS
100
AcDbBlockReference
  2
_Open90
 10
31.6862413949
 20
69.557080851
 30
-25.7482749541
 41
0.75
 42
0.75
 50
90.0
  0
LINE
  5
501
330
4FC
100
AcDbEntity
  8
DIMS
100
AcDbLine
 10
30.199104912
 20
61.5438296901
 30
0.0
 11
32.0612413949
 21
61.5438296901
 31
0.0
  0
LINE
  5
502
330
4FC
100
AcDbEntity
  8
DIMS
100
AcDbLine
 10
29.993204912
 20
69.557080851
 30
0.0
 11
32.0612413949
 21
69.557080851
 31
0.0
  0
LINE
  5
503
330
4FC
100
AcDbEntity
  8
DIMS
100
AcDbLine
 10
31.6862413949
 20
61.5438296901
 30
0.0
 11
31.6862413949
 21
64.8568848814
 31
0.0
  0
LINE
  5
504
330
4FC
100
AcDbEntity
  8
DIMS
100
AcDbLine
 10
31.6862413949
 20
69.557080851
 30
0.0
 11
31.6862413949
 21
66.0475098805
 31
0.0
  0
MTEXT
  5
505
330
4FC
100
AcDbEntity
  8
DIMS
100
AcDbMText
 10
31.2544705695
 20
65.8148926939
 30
0.0
 40
0.75
 41
0.0
 71
     1
 72
     1
  1
8"
  7
SLDTEXTSTYLE1
 73
     1
 44
1.0
  0
ENDBLK
  5
4FE
330
4FC
100
AcDbEntity
  8
0
100
AcDbBlockEnd
  0
ENDSEC
  0
SECTION
  2
ENTITIES
  0
LINE
  5
7A
330
1F
100
AcDbEntity
  8
TITLE
370
    50
100
AcDbLine
 10
62.893223024
 20
1.4876117645
 30
0.0
 11
79.8749864512
 21
1.4876117645
 31
0.0
  0
LINE
  5
7B
330
1F
100
AcDbEntity
  8
TITLE
370
    50
100
AcDbLine
 10
79.8749317442
 20
5.4753603936
 30
0.0
 11
69.6855350723
 21
5.4753603936
 31
0.0
  0
LINE
  5
7C
330
1F
100
AcDbEntity
  8
TITLE
  6
SLD-Solid
370
    18
100
AcDbLine
 10
0.5
 20
0.5
 30
0.0
 11
0.5
 21
99.5
 31
0.0
  0
LINE
  5
7D
330
1F
100
AcDbEntity
  8
TITLE
  6
SLD-Solid
370
    18
100
AcDbLine
 10
0.5
 20
99.5
 30
0.0
 11
79.875
 21
99.5
 31
0.0
  0
LINE
  5
7E
330
1F
100
AcDbEntity
  8
TITLE
370
    50
100
AcDbLine
 10
62.893223024
 20
2.5427877231
 30
0.0
 11
55.8809791203
 21
2.5427877231
 31
0.0
  0
LINE
  5
7F
330
1F
100
AcDbEntity
  8
TITLE
370
    50
100
AcDbLine
 10
62.893223024
 20
1.4876117645
 30
0.0
 11
55.8809791203
 21
1.4876117645
 31
0.0
  0
LINE
  5
80
330
1F
100
AcDbEntity
  8
TITLE
  6
SLD-Solid
370
    18
100
AcDbLine
 10
79.875
 20
99.5
 30
0.0
 11
79.875
 21
0.5
 31
0.0
  0
LINE
  5
81
330
1F
100
AcDbEntity
  8
TITLE
  6
SLD-Solid
370
    18
100
AcDbLine
 10
79.875
 20
0.5
 30
0.0
 11
0.5
 21
0.5
 31
0.0
  0
LINE
  5
82
330
1F
100
AcDbEntity
  8
TITLE
370
    50
100
AcDbLine
 10
62.893223024
 20
1.4876117645
 30
0.0
 11
62.893223024
 21
3.5979636817
 31
0.0
  0
LINE
  5
83
330
1F
100
AcDbEntity
  8
TITLE
370
    50
100
AcDbLine
 10
55.8809791203
 20
3.5979636817
 30
0.0
 11
55.8809791203
 21
0.5
 31
0.0
  0
LINE
  5
84
330
1F
100
AcDbEntity
  8
TITLE
370
    50
100
AcDbLine
 10
55.8809791203
 20
0.5
 30
0.0
 11
79.875
 21
0.5
 31
0.0
  0
LINE
  5
85
330
1F
100
AcDbEntity
  8
TITLE
370
    50
100
AcDbLine
 10
79.8749317442
 20
5.4753603936
 30
0.0
 11
79.875
 21
0.5
 31
0.0
  0
LINE
  5
86
330
1F
100
AcDbEntity
  8
TITLE
  6
SLD-Solid
370
    18
100
AcDbLine
 10
0.4999606299
 20
50.0
 30
0.0
 11
0.5000393701
 21
50.0
 31
0.0
  0
LINE
  5
87
330
1F
100
AcDbEntity
  8
TITLE
370
    50
100
AcDbLine
 10
62.893223024
 20
3.5979636817
 30
0.0
 11
55.8809791203
 21
3.5979636817
 31
0.0
  0
LINE
  5
88
330
1F
100
AcDbEntity
  8
TITLE
370
    50
100
AcDbLine
 10
62.893223024
 20
3.5979636817
 30
0.0
 11
79.8747615643
 21
3.5979648343
 31
0.0
  0
LINE
  5
89
330
1F
100
AcDbEntity
  8
TITLE
370
    50
100
AcDbLine
 10
69.6855350723
 20
5.4753603936
 30
0.0
 11
69.6855350723
 21
0.4636772425
 31
0.0
  0
LINE
  5
8A
330
1F
100
AcDbEntity
  8
TITLE
  6
SLD-Solid
370
    18
100
AcDbLine
 10
40.1875
 20
99.5000393701
 30
0.0
 11
40.1875
 21
99.4999606299
 31
0.0
  0
LINE
  5
8B
330
1F
100
AcDbEntity
  8
TITLE
  6
SLD-Solid
370
    18
100
AcDbLine
 10
79.8750393701
 20
50.0
 30
0.0
 11
79.8749606299
 21
50.0
 31
0.0
  0
LINE
  5
8C
330
1F
100
AcDbEntity
  8
TITLE
  6
SLD-Solid
370
    18
100
AcDbLine
 10
40.1875
 20
0.4999606299
 30
0.0
 11
40.1875
 21
0.5000393701
 31
0.0
  0
LINE
  5
8D
330
1F
100
AcDbEntity
  8
TITLE
  6
SLD-Solid
370
    18
100
AcDbLine
 10
0.5
 20
2.7559055118
 30
0.0
 11
0.1653543307
 21
2.7559055118
 31
0.0
  0
LINE
  5
8E
330
1F
100
AcDbEntity
  8
TITLE
  6
SLD-Solid
370
    18
100
AcDbLine
 10
79.875
 20
2.7559055118
 30
0.0
 11
80.2096456693
 21
2.7559055118
 31
0.0
  0
LINE
  5
8F
330
1F
100
AcDbEntity
  8
TITLE
  6
SLD-Solid
370
    18
100
AcDbLine
 10
0.5
 20
4.7244094488
 30
0.0
 11
0.1653543307
 21
4.7244094488
 31
0.0
  0
LINE
  5
90
330
1F
100
AcDbEntity
  8
TITLE
  6
SLD-Solid
370
    18
100
AcDbLine
 10
79.875
 20
4.7244094488
 30
0.0
 11
80.2096456693
 21
4.7244094488
 31
0.0
  0
LINE
  5
91
330
1F
100
AcDbEntity
  8
TITLE
  6
SLD-Solid
370
    18
100
AcDbLine
 10
0.5
 20
6.6929133858
 30
0.0
 11
0.1653543307
 21
6.6929133858
 31
0.0
  0
LINE
  5
92
330
1F
100
AcDbEntity
  8
TITLE
  6
SLD-Solid
370
    18
100
AcDbLine
 10
79.875
 20
6.6929133858
 30
0.0
 11
80.2096456693
 21
6.6929133858
 31
0.0
  0
LINE
  5
93
330
1F
100
AcDbEntity
  8
TITLE
  6
SLD-Solid
370
    18
100
AcDbLine
 10
0.5
 20
8.6614173228
 30
0.0
 11
0.1653543307
 21
8.6614173228
 31
0.0
  0
LINE
  5
94
330
1F
100
AcDbEntity
  8
TITLE
  6
SLD-Solid
370
    18
100
AcDbLine
 10
79.875
 20
8.6614173228
 30
0.0
 11
80.2096456693
 21
8.6614173228
 31
0.0
  0
LINE
  5
95
330
1F
100
AcDbEntity
  8
TITLE
  6
SLD-Solid
370
    18
100
AcDbLine
 10
0.5
 20
10.6299212598
 30
0.0
 11
0.1653543307
 21
10.6299212598
 31
0.0
  0
LINE
  5
96
330
1F
100
AcDbEntity
  8
TITLE
  6
SLD-Solid
370
    18
100
AcDbLine
 10
79.875
 20
10.6299212598
 30
0.0
 11
80.2096456693
 21
10.6299212598
 31
0.0
  0
LINE
  5
97
330
1F
100
AcDbEntity
  8
TITLE
  6
SLD-Solid
370
    18
100
AcDbLine
 10
0.5
 20
12.5984251969
 30
0.0
 11
0.1653543307
 21
12.5984251969
 31
0.0
  0
LINE
  5
98
330
1F
100
AcDbEntity
  8
TITLE
  6
SLD-Solid
370
    18
100
AcDbLine
 10
79.875
 20
12.5984251969
 30
0.0
 11
80.2096456693
 21
12.5984251969
 31
0.0
  0
LINE
  5
99
330
1F
100
AcDbEntity
  8
TITLE
  6
SLD-Solid
370
    18
100
AcDbLine
 10
0.5
 20
14.5669291339
 30
0.0
 11
0.1653543307
 21
14.5669291339
 31
0.0
  0
LINE
  5
9A
330
1F
100
AcDbEntity
  8
TITLE
  6
SLD-Solid
370
    18
100
AcDbLine
 10
79.875
 20
14.5669291339
 30
0.0
 11
80.2096456693
 21
14.5669291339
 31
0.0
  0
LINE
  5
9B
330
1F
100
AcDbEntity
  8
TITLE
  6
SLD-Solid
370
    18
100
AcDbLine
 10
0.5
 20
16.5354330709
 30
0.0
 11
0.1653543307
 21
16.5354330709
 31
0.0
  0
LINE
  5
9C
330
1F
100
AcDbEntity
  8
TITLE
  6
SLD-Solid
370
    18
100
AcDbLine
 10
79.875
 20
16.5354330709
 30
0.0
 11
80.2096456693
 21
16.5354330709
 31
0.0
  0
LINE
  5
9D
330
1F
100
AcDbEntity
  8
TITLE
  6
SLD-Solid
370
    18
100
AcDbLine
 10
0.5
 20
18.5039370079
 30
0.0
 11
0.1653543307
 21
18.5039370079
 31
0.0
  0
LINE
  5
9E
330
1F
100
AcDbEntity
  8
TITLE
  6
SLD-Solid
370
    18
100
AcDbLine
 10
79.875
 20
18.5039370079
 30
0.0
 11
80.2096456693
 21
18.5039370079
 31
0.0
  0
LINE
  5
9F
330
1F
100
AcDbEntity
  8
TITLE
  6
SLD-Solid
370
    18
100
AcDbLine
 10
0.5
 20
20.4724409449
 30
0.0
 11
0.1653543307
 21
20.4724409449
 31
0.0
  0
LINE
  5
A0
330
1F
100
AcDbEntity
  8
TITLE
  6
SLD-Solid
370
    18
100
AcDbLine
 10
79.875
 20
20.4724409449
 30
0.0
 11
80.2096456693
 21
20.4724409449
 31
0.0
  0
LINE
  5
A1
330
1F
100
AcDbEntity
  8
TITLE
  6
SLD-Solid
370
    18
100
AcDbLine
 10
0.5
 20
22.4409448819
 30
0.0
 11
0.1653543307
 21
22.4409448819
 31
0.0
  0
LINE
  5
A2
330
1F
100
AcDbEntity
  8
TITLE
  6
SLD-Solid
370
    18
100
AcDbLine
 10
79.875
 20
22.4409448819
 30
0.0
 11
80.2096456693
 21
22.4409448819
 31
0.0
  0
LINE
  5
A3
330
1F
100
AcDbEntity
  8
TITLE
  6
SLD-Solid
370
    18
100
AcDbLine
 10
0.5
 20
24.4094488189
 30
0.0
 11
0.1653543307
 21
24.4094488189
 31
0.0
  0
LINE
  5
A4
330
1F
100
AcDbEntity
  8
TITLE
  6
SLD-Solid
370
    18
100
AcDbLine
 10
79.875
 20
24.4094488189
 30
0.0
 11
80.2096456693
 21
24.4094488189
 31
0.0
  0
LINE
  5
A5
330
1F
100
AcDbEntity
  8
TITLE
  6
SLD-Solid
370
    18
100
AcDbLine
 10
0.5
 20
26.3779527559
 30
0.0
 11
0.1653543307
 21
26.3779527559
 31
0.0
  0
LINE
  5
A6
330
1F
100
AcDbEntity
  8
TITLE
  6
SLD-Solid
370
    18
100
AcDbLine
 10
79.875
 20
26.3779527559
 30
0.0
 11
80.2096456693
 21
26.3779527559
 31
0.0
  0
LINE
  5
A7
330
1F
100
AcDbEntity
  8
TITLE
  6
SLD-Solid
370
    18
100
AcDbLine
 10
0.5
 20
28.3464566929
 30
0.0
 11
0.1653543307
 21
28.3464566929
 31
0.0
  0
LINE
  5
A8
330
1F
100
AcDbEntity
  8
TITLE
  6
SLD-Solid
370
    18
100
AcDbLine
 10
79.875
 20
28.3464566929
 30
0.0
 11
80.2096456693
 21
28.3464566929
 31
0.0
  0
LINE
  5
A9
330
1F
100
AcDbEntity
  8
TITLE
  6
SLD-Solid
370
    18
100
AcDbLine
 10
0.5
 20
30.3149606299
 30
0.0
 11
0.1653543307
 21
30.3149606299
 31
0.0
  0
LINE
  5
AA
330
1F
100
AcDbEntity
  8
TITLE
  6
SLD-Solid
370
    18
100
AcDbLine
 10
79.875
 20
30.3149606299
 30
0.0
 11
80.2096456693
 21
30.3149606299
 31
0.0
  0
LINE
  5
AB
330
1F
100
AcDbEntity
  8
TITLE
  6
SLD-Solid
370
    18
100
AcDbLine
 10
0.5
 20
32.2834645669
 30
0.0
 11
0.1653543307
 21
32.2834645669
 31
0.0
  0
LINE
  5
AC
330
1F
100
AcDbEntity
  8
TITLE
  6
SLD-Solid
370
    18
100
AcDbLine
 10
79.875
 20
32.2834645669
 30
0.0
 11
80.2096456693
 21
32.2834645669
 31
0.0
  0
LINE
  5
AD
330
1F
100
AcDbEntity
  8
TITLE
  6
SLD-Solid
370
    18
100
AcDbLine
 10
0.5
 20
34.2519685039
 30
0.0
 11
0.1653543307
 21
34.2519685039
 31
0.0
  0
LINE
  5
AE
330
1F
100
AcDbEntity
  8
TITLE
  6
SLD-Solid
370
    18
100
AcDbLine
 10
79.875
 20
34.2519685039
 30
0.0
 11
80.2096456693
 21
34.2519685039
 31
0.0
  0
LINE
  5
AF
330
1F
100
AcDbEntity
  8
TITLE
  6
SLD-Solid
370
    18
100
AcDbLine
 10
0.5
 20
36.2204724409
 30
0.0
 11
0.1653543307
 21
36.2204724409
 31
0.0
  0
LINE
  5
B0
330
1F
100
AcDbEntity
  8
TITLE
  6
SLD-Solid
370
    18
100
AcDbLine
 10
79.875
 20
36.2204724409
 30
0.0
 11
80.2096456693
 21
36.2204724409
 31
0.0
  0
LINE
  5
B1
330
1F
100
AcDbEntity
  8
TITLE
  6
SLD-Solid
370
    18
100
AcDbLine
 10
0.5
 20
38.188976378
 30
0.0
 11
0.1653543307
 21
38.188976378
 31
0.0
  0
LINE
  5
B2
330
1F
100
AcDbEntity
  8
TITLE
  6
SLD-Solid
370
    18
100
AcDbLine
 10
79.875
 20
38.188976378
 30
0.0
 11
80.2096456693
 21
38.188976378
 31
0.0
  0
LINE
  5
B3
330
1F
100
AcDbEntity
  8
TITLE
  6
SLD-Solid
370
    18
100
AcDbLine
 10
0.5
 20
40.157480315
 30
0.0
 11
0.1653543307
 21
40.157480315
 31
0.0
  0
LINE
  5
B4
330
1F
100
AcDbEntity
  8
TITLE
  6
SLD-Solid
370
    18
100
AcDbLine
 10
79.875
 20
40.157480315
 30
0.0
 11
80.2096456693
 21
40.157480315
 31
0.0
  0
LINE
  5
B5
330
1F
100
AcDbEntity
  8
TITLE
  6
SLD-Solid
370
    18
100
AcDbLine
 10
0.5
 20
42.125984252
 30
0.0
 11
0.1653543307
 21
42.125984252
 31
0.0
  0
LINE
  5
B6
330
1F
100
AcDbEntity
  8
TITLE
  6
SLD-Solid
370
    18
100
AcDbLine
 10
79.875
 20
42.125984252
 30
0.0
 11
80.2096456693
 21
42.125984252
 31
0.0
  0
LINE
  5
B7
330
1F
100
AcDbEntity
  8
TITLE
  6
SLD-Solid
370
    18
100
AcDbLine
 10
0.5
 20
44.094488189
 30
0.0
 11
0.1653543307
 21
44.094488189
 31
0.0
  0
LINE
  5
B8
330
1F
100
AcDbEntity
  8
TITLE
  6
SLD-Solid
370
    18
100
AcDbLine
 10
79.875
 20
44.094488189
 30
0.0
 11
80.2096456693
 21
44.094488189
 31
0.0
  0
LINE
  5
B9
330
1F
100
AcDbEntity
  8
TITLE
  6
SLD-Solid
370
    18
100
AcDbLine
 10
0.5
 20
46.062992126
 30
0.0
 11
0.1653543307
 21
46.062992126
 31
0.0
  0
LINE
  5
BA
330
1F
100
AcDbEntity
  8
TITLE
  6
SLD-Solid
370
    18
100
AcDbLine
 10
79.875
 20
46.062992126
 30
0.0
 11
80.2096456693
 21
46.062992126
 31
0.0
  0
LINE
  5
BB
330
1F
100
AcDbEntity
  8
TITLE
  6
SLD-Solid
370
    18
100
AcDbLine
 10
0.5
 20
48.031496063
 30
0.0
 11
0.1653543307
 21
48.031496063
 31
0.0
  0
LINE
  5
BC
330
1F
100
AcDbEntity
  8
TITLE
  6
SLD-Solid
370
    18
100
AcDbLine
 10
79.875
 20
48.031496063
 30
0.0
 11
80.2096456693
 21
48.031496063
 31
0.0
  0
LINE
  5
BD
330
1F
100
AcDbEntity
  8
TITLE
  6
SLD-Solid
370
    18
100
AcDbLine
 10
0.5
 20
50.0
 30
0.0
 11
0.1653543307
 21
50.0
 31
0.0
  0
LINE
  5
BE
330
1F
100
AcDbEntity
  8
TITLE
  6
SLD-Solid
370
    18
100
AcDbLine
 10
79.875
 20
50.0
 30
0.0
 11
80.2096456693
 21
50.0
 31
0.0
  0
LINE
  5
BF
330
1F
100
AcDbEntity
  8
TITLE
  6
SLD-Solid
370
    18
100
AcDbLine
 10
0.5
 20
51.968503937
 30
0.0
 11
0.1653543307
 21
51.968503937
 31
0.0
  0
LINE
  5
C0
330
1F
100
AcDbEntity
  8
TITLE
  6
SLD-Solid
370
    18
100
AcDbLine
 10
79.875
 20
51.968503937
 30
0.0
 11
80.2096456693
 21
51.968503937
 31
0.0
  0
LINE
  5
C1
330
1F
100
AcDbEntity
  8
TITLE
  6
SLD-Solid
370
    18
100
AcDbLine
 10
0.5
 20
53.937007874
 30
0.0
 11
0.1653543307
 21
53.937007874
 31
0.0
  0
LINE
  5
C2
330
1F
100
AcDbEntity
  8
TITLE
  6
SLD-Solid
370
    18
100
AcDbLine
 10
79.875
 20
53.937007874
 30
0.0
 11
80.2096456693
 21
53.937007874
 31
0.0
  0
LINE
  5
C3
330
1F
100
AcDbEntity
  8
TITLE
  6
SLD-Solid
370
    18
100
AcDbLine
 10
0.5
 20
55.905511811
 30
0.0
 11
0.1653543307
 21
55.905511811
 31
0.0
  0
LINE
  5
C4
330
1F
100
AcDbEntity
  8
TITLE
  6
SLD-Solid
370
    18
100
AcDbLine
 10
79.875
 20
55.905511811
 30
0.0
 11
80.2096456693
 21
55.905511811
 31
0.0
  0
LINE
  5
C5
330
1F
100
AcDbEntity
  8
TITLE
  6
SLD-Solid
370
    18
100
AcDbLine
 10
0.5
 20
57.874015748
 30
0.0
 11
0.1653543307
 21
57.874015748
 31
0.0
  0
LINE
  5
C6
330
1F
100
AcDbEntity
  8
TITLE
  6
SLD-Solid
370
    18
100
AcDbLine
 10
79.875
 20
57.874015748
 30
0.0
 11
80.2096456693
 21
57.874015748
 31
0.0
  0
LINE
  5
C7
330
1F
100
AcDbEntity
  8
TITLE
  6
SLD-Solid
370
    18
100
AcDbLine
 10
0.5
 20
59.842519685
 30
0.0
 11
0.1653543307
 21
59.842519685
 31
0.0
  0
LINE
  5
C8
330
1F
100
AcDbEntity
  8
TITLE
  6
SLD-Solid
370
    18
100
AcDbLine
 10
79.875
 20
59.842519685
 30
0.0
 11
80.2096456693
 21
59.842519685
 31
0.0
  0
LINE
  5
C9
330
1F
100
AcDbEntity
  8
TITLE
  6
SLD-Solid
370
    18
100
AcDbLine
 10
0.5
 20
61.811023622
 30
0.0
 11
0.1653543307
 21
61.811023622
 31
0.0
  0
LINE
  5
CA
330
1F
100
AcDbEntity
  8
TITLE
  6
SLD-Solid
370
    18
100
AcDbLine
 10
79.875
 20
61.811023622
 30
0.0
 11
80.2096456693
 21
61.811023622
 31
0.0
  0
LINE
  5
CB
330
1F
100
AcDbEntity
  8
TITLE
  6
SLD-Solid
370
    18
100
AcDbLine
 10
0.5
 20
63.7795275591
 30
0.0
 11
0.1653543307
 21
63.7795275591
 31
0.0
  0
LINE
  5
CC
330
1F
100
AcDbEntity
  8
TITLE
  6
SLD-Solid
370
    18
100
AcDbLine
 10
79.875
 20
63.7795275591
 30
0.0
 11
80.2096456693
 21
63.7795275591
 31
0.0
  0
LINE
  5
CD
330
1F
100
AcDbEntity
  8
TITLE
  6
SLD-Solid
370
    18
100
AcDbLine
 10
0.5
 20
65.7480314961
 30
0.0
 11
0.1653543307
 21
65.7480314961
 31
0.0
  0
LINE
  5
CE
330
1F
100
AcDbEntity
  8
TITLE
  6
SLD-Solid
370
    18
100
AcDbLine
 10
79.875
 20
65.7480314961
 30
0.0
 11
80.2096456693
 21
65.7480314961
 31
0.0
  0
LINE
  5
CF
330
1F
100
AcDbEntity
  8
TITLE
  6
SLD-Solid
370
    18
100
AcDbLine
 10
0.5
 20
67.7165354331
 30
0.0
 11
0.1653543307
 21
67.7165354331
 31
0.0
  0
LINE
  5
D0
330
1F
100
AcDbEntity
  8
TITLE
  6
SLD-Solid
370
    18
100
AcDbLine
 10
79.875
 20
67.7165354331
 30
0.0
 11
80.2096456693
 21
67.7165354331
 31
0.0
  0
LINE
  5
D1
330
1F
100
AcDbEntity
  8
TITLE
  6
SLD-Solid
370
    18
100
AcDbLine
 10
0.5
 20
69.6850393701
 30
0.0
 11
0.1653543307
 21
69.6850393701
 31
0.0
  0
LINE
  5
D2
330
1F
100
AcDbEntity
  8
TITLE
  6
SLD-Solid
370
    18
100
AcDbLine
 10
79.875
 20
69.6850393701
 30
0.0
 11
80.2096456693
 21
69.6850393701
 31
0.0
  0
LINE
  5
D3
330
1F
100
AcDbEntity
  8
TITLE
  6
SLD-Solid
370
    18
100
AcDbLine
 10
0.5
 20
71.6535433071
 30
0.0
 11
0.1653543307
 21
71.6535433071
 31
0.0
  0
LINE
  5
D4
330
1F
100
AcDbEntity
  8
TITLE
  6
SLD-Solid
370
    18
100
AcDbLine
 10
79.875
 20
71.6535433071
 30
0.0
 11
80.2096456693
 21
71.6535433071
 31
0.0
  0
LINE
  5
D5
330
1F
100
AcDbEntity
  8
TITLE
  6
SLD-Solid
370
    18
100
AcDbLine
 10
0.5
 20
73.6220472441
 30
0.0
 11
0.1653543307
 21
73.6220472441
 31
0.0
  0
LINE
  5
D6
330
1F
100
AcDbEntity
  8
TITLE
  6
SLD-Solid
370
    18
100
AcDbLine
 10
79.875
 20
73.6220472441
 30
0.0
 11
80.2096456693
 21
73.6220472441
 31
0.0
  0
LINE
  5
D7
330
1F
100
AcDbEntity
  8
TITLE
  6
SLD-Solid
370
    18
100
AcDbLine
 10
0.5
 20
75.5905511811
 30
0.0
 11
0.1653543307
 21
75.5905511811
 31
0.0
  0
LINE
  5
D8
330
1F
100
AcDbEntity
  8
TITLE
  6
SLD-Solid
370
    18
100
AcDbLine
 10
79.875
 20
75.5905511811
 30
0.0
 11
80.2096456693
 21
75.5905511811
 31
0.0
  0
LINE
  5
D9
330
1F
100
AcDbEntity
  8
TITLE
  6
SLD-Solid
370
    18
100
AcDbLine
 10
0.5
 20
77.5590551181
 30
0.0
 11
0.1653543307
 21
77.5590551181
 31
0.0
  0
LINE
  5
DA
330
1F
100
AcDbEntity
  8
TITLE
  6
SLD-Solid
370
    18
100
AcDbLine
 10
79.875
 20
77.5590551181
 30
0.0
 11
80.2096456693
 21
77.5590551181
 31
0.0
  0
LINE
  5
DB
330
1F
100
AcDbEntity
  8
TITLE
  6
SLD-Solid
370
    18
100
AcDbLine
 10
0.5
 20
79.5275590551
 30
0.0
 11
0.1653543307
 21
79.5275590551
 31
0.0
  0
LINE
  5
DC
330
1F
100
AcDbEntity
  8
TITLE
  6
SLD-Solid
370
    18
100
AcDbLine
 10
79.875
 20
79.5275590551
 30
0.0
 11
80.2096456693
 21
79.5275590551
 31
0.0
  0
LINE
  5
DD
330
1F
100
AcDbEntity
  8
TITLE
  6
SLD-Solid
370
    18
100
AcDbLine
 10
0.5
 20
81.4960629921
 30
0.0
 11
0.1653543307
 21
81.4960629921
 31
0.0
  0
LINE
  5
DE
330
1F
100
AcDbEntity
  8
TITLE
  6
SLD-Solid
370
    18
100
AcDbLine
 10
79.875
 20
81.4960629921
 30
0.0
 11
80.2096456693
 21
81.4960629921
 31
0.0
  0
LINE
  5
DF
330
1F
100
AcDbEntity
  8
TITLE
  6
SLD-Solid
370
    18
100
AcDbLine
 10
0.5
 20
83.4645669291
 30
0.0
 11
0.1653543307
 21
83.4645669291
 31
0.0
  0
LINE
  5
E0
330
1F
100
AcDbEntity
  8
TITLE
  6
SLD-Solid
370
    18
100
AcDbLine
 10
79.875
 20
83.4645669291
 30
0.0
 11
80.2096456693
 21
83.4645669291
 31
0.0
  0
LINE
  5
E1
330
1F
100
AcDbEntity
  8
TITLE
  6
SLD-Solid
370
    18
100
AcDbLine
 10
0.5
 20
85.4330708661
 30
0.0
 11
0.1653543307
 21
85.4330708661
 31
0.0
  0
LINE
  5
E2
330
1F
100
AcDbEntity
  8
TITLE
  6
SLD-Solid
370
    18
100
AcDbLine
 10
79.875
 20
85.4330708661
 30
0.0
 11
80.2096456693
 21
85.4330708661
 31
0.0
  0
LINE
  5
E3
330
1F
100
AcDbEntity
  8
TITLE
  6
SLD-Solid
370
    18
100
AcDbLine
 10
0.5
 20
87.4015748031
 30
0.0
 11
0.1653543307
 21
87.4015748031
 31
0.0
  0
LINE
  5
E4
330
1F
100
AcDbEntity
  8
TITLE
  6
SLD-Solid
370
    18
100
AcDbLine
 10
79.875
 20
87.4015748031
 30
0.0
 11
80.2096456693
 21
87.4015748031
 31
0.0
  0
LINE
  5
E5
330
1F
100
AcDbEntity
  8
TITLE
  6
SLD-Solid
370
    18
100
AcDbLine
 10
0.5
 20
89.3700787402
 30
0.0
 11
0.1653543307
 21
89.3700787402
 31
0.0
  0
LINE
  5
E6
330
1F
100
AcDbEntity
  8
TITLE
  6
SLD-Solid
370
    18
100
AcDbLine
 10
79.875
 20
89.3700787402
 30
0.0
 11
80.2096456693
 21
89.3700787402
 31
0.0
  0
LINE
  5
E7
330
1F
100
AcDbEntity
  8
TITLE
  6
SLD-Solid
370
    18
100
AcDbLine
 10
0.5
 20
91.3385826772
 30
0.0
 11
0.1653543307
 21
91.3385826772
 31
0.0
  0
LINE
  5
E8
330
1F
100
AcDbEntity
  8
TITLE
  6
SLD-Solid
370
    18
100
AcDbLine
 10
79.875
 20
91.3385826772
 30
0.0
 11
80.2096456693
 21
91.3385826772
 31
0.0
  0
LINE
  5
E9
330
1F
100
AcDbEntity
  8
TITLE
  6
SLD-Solid
370
    18
100
AcDbLine
 10
0.5
 20
93.3070866142
 30
0.0
 11
0.1653543307
 21
93.3070866142
 31
0.0
  0
LINE
  5
EA
330
1F
100
AcDbEntity
  8
TITLE
  6
SLD-Solid
370
    18
100
AcDbLine
 10
79.875
 20
93.3070866142
 30
0.0
 11
80.2096456693
 21
93.3070866142
 31
0.0
  0
LINE
  5
EB
330
1F
100
AcDbEntity
  8
TITLE
  6
SLD-Solid
370
    18
100
AcDbLine
 10
0.5
 20
95.2755905512
 30
0.0
 11
0.1653543307
 21
95.2755905512
 31
0.0
  0
LINE
  5
EC
330
1F
100
AcDbEntity
  8
TITLE
  6
SLD-Solid
370
    18
100
AcDbLine
 10
79.875
 20
95.2755905512
 30
0.0
 11
80.2096456693
 21
95.2755905512
 31
0.0
  0
LINE
  5
ED
330
1F
100
AcDbEntity
  8
TITLE
  6
SLD-Solid
370
    18
100
AcDbLine
 10
0.5
 20
97.2440944882
 30
0.0
 11
0.1653543307
 21
97.2440944882
 31
0.0
  0
LINE
  5
EE
330
1F
100
AcDbEntity
  8
TITLE
  6
SLD-Solid
370
    18
100
AcDbLine
 10
79.875
 20
97.2440944882
 30
0.0
 11
80.2096456693
 21
97.2440944882
 31
0.0
  0
LINE
  5
EF
330
1F
100
AcDbEntity
  8
TITLE
  6
SLD-Solid
370
    18
100
AcDbLine
 10
2.7859251969
 20
99.5
 30
0.0
 11
2.7859251969
 21
99.8346456693
 31
0.0
  0
LINE
  5
F0
330
1F
100
AcDbEntity
  8
TITLE
  6
SLD-Solid
370
    18
100
AcDbLine
 10
2.7859251969
 20
0.5
 30
0.0
 11
2.7859251969
 21
0.1653543307
 31
0.0
  0
LINE
  5
F1
330
1F
100
AcDbEntity
  8
TITLE
  6
SLD-Solid
370
    18
100
AcDbLine
 10
4.7544291339
 20
99.5
 30
0.0
 11
4.7544291339
 21
99.8346456693
 31
0.0
  0
LINE
  5
F2
330
1F
100
AcDbEntity
  8
TITLE
  6
SLD-Solid
370
    18
100
AcDbLine
 10
4.7544291339
 20
0.5
 30
0.0
 11
4.7544291339
 21
0.1653543307
 31
0.0
  0
LINE
  5
F3
330
1F
100
AcDbEntity
  8
TITLE
  6
SLD-Solid
370
    18
100
AcDbLine
 10
6.7229330709
 20
99.5
 30
0.0
 11
6.7229330709
 21
99.8346456693
 31
0.0
  0
LINE
  5
F4
330
1F
100
AcDbEntity
  8
TITLE
  6
SLD-Solid
370
    18
100
AcDbLine
 10
6.7229330709
 20
0.5
 30
0.0
 11
6.7229330709
 21
0.1653543307
 31
0.0
  0
LINE
  5
F5
330
1F
100
AcDbEntity
  8
TITLE
  6
SLD-Solid
370
    18
100
AcDbLine
 10
8.6914370079
 20
99.5
 30
0.0
 11
8.6914370079
 21
99.8346456693
 31
0.0
  0
LINE
  5
F6
330
1F
100
AcDbEntity
  8
TITLE
  6
SLD-Solid
370
    18
100
AcDbLine
 10
8.6914370079
 20
0.5
 30
0.0
 11
8.6914370079
 21
0.1653543307
 31
0.0
  0
LINE
  5
F7
330
1F
100
AcDbEntity
  8
TITLE
  6
SLD-Solid
370
    18
100
AcDbLine
 10
10.6599409449
 20
99.5
 30
0.0
 11
10.6599409449
 21
99.8346456693
 31
0.0
  0
LINE
  5
F8
330
1F
100
AcDbEntity
  8
TITLE
  6
SLD-Solid
370
    18
100
AcDbLine
 10
10.6599409449
 20
0.5
 30
0.0
 11
10.6599409449
 21
0.1653543307
 31
0.0
  0
LINE
  5
F9
330
1F
100
AcDbEntity
  8
TITLE
  6
SLD-Solid
370
    18
100
AcDbLine
 10
12.6284448819
 20
99.5
 30
0.0
 11
12.6284448819
 21
99.8346456693
 31
0.0
  0
LINE
  5
FA
330
1F
100
AcDbEntity
  8
TITLE
  6
SLD-Solid
370
    18
100
AcDbLine
 10
12.6284448819
 20
0.5
 30
0.0
 11
12.6284448819
 21
0.1653543307
 31
0.0
  0
LINE
  5
FB
330
1F
100
AcDbEntity
  8
TITLE
  6
SLD-Solid
370
    18
100
AcDbLine
 10
14.5969488189
 20
99.5
 30
0.0
 11
14.5969488189
 21
99.8346456693
 31
0.0
  0
LINE
  5
FC
330
1F
100
AcDbEntity
  8
TITLE
  6
SLD-Solid
370
    18
100
AcDbLine
 10
14.5969488189
 20
0.5
 30
0.0
 11
14.5969488189
 21
0.1653543307
 31
0.0
  0
LINE
  5
FD
330
1F
100
AcDbEntity
  8
TITLE
  6
SLD-Solid
370
    18
100
AcDbLine
 10
16.5654527559
 20
99.5
 30
0.0
 11
16.5654527559
 21
99.8346456693
 31
0.0
  0
LINE
  5
FE
330
1F
100
AcDbEntity
  8
TITLE
  6
SLD-Solid
370
    18
100
AcDbLine
 10
16.5654527559
 20
0.5
 30
0.0
 11
16.5654527559
 21
0.1653543307
 31
0.0
  0
LINE
  5
FF
330
1F
100
AcDbEntity
  8
TITLE
  6
SLD-Solid
370
    18
100
AcDbLine
 10
18.5339566929
 20
99.5
 30
0.0
 11
18.5339566929
 21
99.8346456693
 31
0.0
  0
LINE
  5
100
330
1F
100
AcDbEntity
  8
TITLE
  6
SLD-Solid
370
    18
100
AcDbLine
 10
18.5339566929
 20
0.5
 30
0.0
 11
18.5339566929
 21
0.1653543307
 31
0.0
  0
LINE
  5
101
330
1F
100
AcDbEntity
  8
TITLE
  6
SLD-Solid
370
    18
100
AcDbLine
 10
20.5024606299
 20
99.5
 30
0.0
 11
20.5024606299
 21
99.8346456693
 31
0.0
  0
LINE
  5
102
330
1F
100
AcDbEntity
  8
TITLE
  6
SLD-Solid
370
    18
100
AcDbLine
 10
20.5024606299
 20
0.5
 30
0.0
 11
20.5024606299
 21
0.1653543307
 31
0.0
  0
LINE
  5
103
330
1F
100
AcDbEntity
  8
TITLE
  6
SLD-Solid
370
    18
100
AcDbLine
 10
22.4709645669
 20
99.5
 30
0.0
 11
22.4709645669
 21
99.8346456693
 31
0.0
  0
LINE
  5
104
330
1F
100
AcDbEntity
  8
TITLE
  6
SLD-Solid
370
    18
100
AcDbLine
 10
22.4709645669
 20
0.5
 30
0.0
 11
22.4709645669
 21
0.1653543307
 31
0.0
  0
LINE
  5
105
330
1F
100
AcDbEntity
  8
TITLE
  6
SLD-Solid
370
    18
100
AcDbLine
 10
24.4394685039
 20
99.5
 30
0.0
 11
24.4394685039
 21
99.8346456693
 31
0.0
  0
LINE
  5
106
330
1F
100
AcDbEntity
  8
TITLE
  6
SLD-Solid
370
    18
100
AcDbLine
 10
24.4394685039
 20
0.5
 30
0.0
 11
24.4394685039
 21
0.1653543307
 31
0.0
  0
LINE
  5
107
330
1F
100
AcDbEntity
  8
TITLE
  6
SLD-Solid
370
    18
100
AcDbLine
 10
26.4079724409
 20
99.5
 30
0.0
 11
26.4079724409
 21
99.8346456693
 31
0.0
  0
LINE
  5
108
330
1F
100
AcDbEntity
  8
TITLE
  6
SLD-Solid
370
    18
100
AcDbLine
 10
26.4079724409
 20
0.5
 30
0.0
 11
26.4079724409
 21
0.1653543307
 31
0.0
  0
LINE
  5
109
330
1F
100
AcDbEntity
  8
TITLE
  6
SLD-Solid
370
    18
100
AcDbLine
 10
28.376476378
 20
99.5
 30
0.0
 11
28.376476378
 21
99.8346456693
 31
0.0
  0
LINE
  5
10A
330
1F
100
AcDbEntity
  8
TITLE
  6
SLD-Solid
370
    18
100
AcDbLine
 10
28.376476378
 20
0.5
 30
0.0
 11
28.376476378
 21
0.1653543307
 31
0.0
  0
LINE
  5
10B
330
1F
100
AcDbEntity
  8
TITLE
  6
SLD-Solid
370
    18
100
AcDbLine
 10
30.344980315
 20
99.5
 30
0.0
 11
30.344980315
 21
99.8346456693
 31
0.0
  0
LINE
  5
10C
330
1F
100
AcDbEntity
  8
TITLE
  6
SLD-Solid
370
    18
100
AcDbLine
 10
30.344980315
 20
0.5
 30
0.0
 11
30.344980315
 21
0.1653543307
 31
0.0
  0
LINE
  5
10D
330
1F
100
AcDbEntity
  8
TITLE
  6
SLD-Solid
370
    18
100
AcDbLine
 10
32.313484252
 20
99.5
 30
0.0
 11
32.313484252
 21
99.8346456693
 31
0.0
  0
LINE
  5
10E
330
1F
100
AcDbEntity
  8
TITLE
  6
SLD-Solid
370
    18
100
AcDbLine
 10
32.313484252
 20
0.5
 30
0.0
 11
32.313484252
 21
0.1653543307
 31
0.0
  0
LINE
  5
10F
330
1F
100
AcDbEntity
  8
TITLE
  6
SLD-Solid
370
    18
100
AcDbLine
 10
34.281988189
 20
99.5
 30
0.0
 11
34.281988189
 21
99.8346456693
 31
0.0
  0
LINE
  5
110
330
1F
100
AcDbEntity
  8
TITLE
  6
SLD-Solid
370
    18
100
AcDbLine
 10
34.281988189
 20
0.5
 30
0.0
 11
34.281988189
 21
0.1653543307
 31
0.0
  0
LINE
  5
111
330
1F
100
AcDbEntity
  8
TITLE
  6
SLD-Solid
370
    18
100
AcDbLine
 10
36.250492126
 20
99.5
 30
0.0
 11
36.250492126
 21
99.8346456693
 31
0.0
  0
LINE
  5
112
330
1F
100
AcDbEntity
  8
TITLE
  6
SLD-Solid
370
    18
100
AcDbLine
 10
36.250492126
 20
0.5
 30
0.0
 11
36.250492126
 21
0.1653543307
 31
0.0
  0
LINE
  5
113
330
1F
100
AcDbEntity
  8
TITLE
  6
SLD-Solid
370
    18
100
AcDbLine
 10
38.218996063
 20
99.5
 30
0.0
 11
38.218996063
 21
99.8346456693
 31
0.0
  0
LINE
  5
114
330
1F
100
AcDbEntity
  8
TITLE
  6
SLD-Solid
370
    18
100
AcDbLine
 10
38.218996063
 20
0.5
 30
0.0
 11
38.218996063
 21
0.1653543307
 31
0.0
  0
LINE
  5
115
330
1F
100
AcDbEntity
  8
TITLE
  6
SLD-Solid
370
    18
100
AcDbLine
 10
40.1875
 20
99.5
 30
0.0
 11
40.1875
 21
99.8346456693
 31
0.0
  0
LINE
  5
116
330
1F
100
AcDbEntity
  8
TITLE
  6
SLD-Solid
370
    18
100
AcDbLine
 10
40.1875
 20
0.5
 30
0.0
 11
40.1875
 21
0.1653543307
 31
0.0
  0
LINE
  5
117
330
1F
100
AcDbEntity
  8
TITLE
  6
SLD-Solid
370
    18
100
AcDbLine
 10
42.156003937
 20
99.5
 30
0.0
 11
42.156003937
 21
99.8346456693
 31
0.0
  0
LINE
  5
118
330
1F
100
AcDbEntity
  8
TITLE
  6
SLD-Solid
370
    18
100
AcDbLine
 10
42.156003937
 20
0.5
 30
0.0
 11
42.156003937
 21
0.1653543307
 31
0.0
  0
LINE
  5
119
330
1F
100
AcDbEntity
  8
TITLE
  6
SLD-Solid
370
    18
100
AcDbLine
 10
44.124507874
 20
99.5
 30
0.0
 11
44.124507874
 21
99.8346456693
 31
0.0
  0
LINE
  5
11A
330
1F
100
AcDbEntity
  8
TITLE
  6
SLD-Solid
370
    18
100
AcDbLine
 10
44.124507874
 20
0.5
 30
0.0
 11
44.124507874
 21
0.1653543307
 31
0.0
  0
LINE
  5
11B
330
1F
100
AcDbEntity
  8
TITLE
  6
SLD-Solid
370
    18
100
AcDbLine
 10
46.093011811
 20
99.5
 30
0.0
 11
46.093011811
 21
99.8346456693
 31
0.0
  0
LINE
  5
11C
330
1F
100
AcDbEntity
  8
TITLE
  6
SLD-Solid
370
    18
100
AcDbLine
 10
46.093011811
 20
0.5
 30
0.0
 11
46.093011811
 21
0.1653543307
 31
0.0
  0
LINE
  5
11D
330
1F
100
AcDbEntity
  8
TITLE
  6
SLD-Solid
370
    18
100
AcDbLine
 10
48.061515748
 20
99.5
 30
0.0
 11
48.061515748
 21
99.8346456693
 31
0.0
  0
LINE
  5
11E
330
1F
100
AcDbEntity
  8
TITLE
  6
SLD-Solid
370
    18
100
AcDbLine
 10
48.061515748
 20
0.5
 30
0.0
 11
48.061515748
 21
0.1653543307
 31
0.0
  0
LINE
  5
11F
330
1F
100
AcDbEntity
  8
TITLE
  6
SLD-Solid
370
    18
100
AcDbLine
 10
50.030019685
 20
99.5
 30
0.0
 11
50.030019685
 21
99.8346456693
 31
0.0
  0
LINE
  5
120
330
1F
100
AcDbEntity
  8
TITLE
  6
SLD-Solid
370
    18
100
AcDbLine
 10
50.030019685
 20
0.5
 30
0.0
 11
50.030019685
 21
0.1653543307
 31
0.0
  0
LINE
  5
121
330
1F
100
AcDbEntity
  8
TITLE
  6
SLD-Solid
370
    18
100
AcDbLine
 10
51.998523622
 20
99.5
 30
0.0
 11
51.998523622
 21
99.8346456693
 31
0.0
  0
LINE
  5
122
330
1F
100
AcDbEntity
  8
TITLE
  6
SLD-Solid
370
    18
100
AcDbLine
 10
51.998523622
 20
0.5
 30
0.0
 11
51.998523622
 21
0.1653543307
 31
0.0
  0
LINE
  5
123
330
1F
100
AcDbEntity
  8
TITLE
  6
SLD-Solid
370
    18
100
AcDbLine
 10
53.9670275591
 20
99.5
 30
0.0
 11
53.9670275591
 21
99.8346456693
 31
0.0
  0
LINE
  5
124
330
1F
100
AcDbEntity
  8
TITLE
  6
SLD-Solid
370
    18
100
AcDbLine
 10
53.9670275591
 20
0.5
 30
0.0
 11
53.9670275591
 21
0.1653543307
 31
0.0
  0
LINE
  5
125
330
1F
100
AcDbEntity
  8
TITLE
  6
SLD-Solid
370
    18
100
AcDbLine
 10
55.9355314961
 20
99.5
 30
0.0
 11
55.9355314961
 21
99.8346456693
 31
0.0
  0
LINE
  5
126
330
1F
100
AcDbEntity
  8
TITLE
  6
SLD-Solid
370
    18
100
AcDbLine
 10
55.9355314961
 20
0.5
 30
0.0
 11
55.9355314961
 21
0.1653543307
 31
0.0
  0
LINE
  5
127
330
1F
100
AcDbEntity
  8
TITLE
  6
SLD-Solid
370
    18
100
AcDbLine
 10
57.9040354331
 20
99.5
 30
0.0
 11
57.9040354331
 21
99.8346456693
 31
0.0
  0
LINE
  5
128
330
1F
100
AcDbEntity
  8
TITLE
  6
SLD-Solid
370
    18
100
AcDbLine
 10
57.9040354331
 20
0.5
 30
0.0
 11
57.9040354331
 21
0.1653543307
 31
0.0
  0
LINE
  5
129
330
1F
100
AcDbEntity
  8
TITLE
  6
SLD-Solid
370
    18
100
AcDbLine
 10
59.8725393701
 20
99.5
 30
0.0
 11
59.8725393701
 21
99.8346456693
 31
0.0
  0
LINE
  5
12A
330
1F
100
AcDbEntity
  8
TITLE
  6
SLD-Solid
370
    18
100
AcDbLine
 10
59.8725393701
 20
0.5
 30
0.0
 11
59.8725393701
 21
0.1653543307
 31
0.0
  0
LINE
  5
12B
330
1F
100
AcDbEntity
  8
TITLE
  6
SLD-Solid
370
    18
100
AcDbLine
 10
61.8410433071
 20
99.5
 30
0.0
 11
61.8410433071
 21
99.8346456693
 31
0.0
  0
LINE
  5
12C
330
1F
100
AcDbEntity
  8
TITLE
  6
SLD-Solid
370
    18
100
AcDbLine
 10
61.8410433071
 20
0.5
 30
0.0
 11
61.8410433071
 21
0.1653543307
 31
0.0
  0
LINE
  5
12D
330
1F
100
AcDbEntity
  8
TITLE
  6
SLD-Solid
370
    18
100
AcDbLine
 10
63.8095472441
 20
99.5
 30
0.0
 11
63.8095472441
 21
99.8346456693
 31
0.0
  0
LINE
  5
12E
330
1F
100
AcDbEntity
  8
TITLE
  6
SLD-Solid
370
    18
100
AcDbLine
 10
63.8095472441
 20
0.5
 30
0.0
 11
63.8095472441
 21
0.1653543307
 31
0.0
  0
LINE
  5
12F
330
1F
100
AcDbEntity
  8
TITLE
  6
SLD-Solid
370
    18
100
AcDbLine
 10
65.7780511811
 20
99.5
 30
0.0
 11
65.7780511811
 21
99.8346456693
 31
0.0
  0
LINE
  5
130
330
1F
100
AcDbEntity
  8
TITLE
  6
SLD-Solid
370
    18
100
AcDbLine
 10
65.7780511811
 20
0.5
 30
0.0
 11
65.7780511811
 21
0.1653543307
 31
0.0
  0
LINE
  5
131
330
1F
100
AcDbEntity
  8
TITLE
  6
SLD-Solid
370
    18
100
AcDbLine
 10
67.7465551181
 20
99.5
 30
0.0
 11
67.7465551181
 21
99.8346456693
 31
0.0
  0
LINE
  5
132
330
1F
100
AcDbEntity
  8
TITLE
  6
SLD-Solid
370
    18
100
AcDbLine
 10
67.7465551181
 20
0.5
 30
0.0
 11
67.7465551181
 21
0.1653543307
 31
0.0
  0
LINE
  5
133
330
1F
100
AcDbEntity
  8
TITLE
  6
SLD-Solid
370
    18
100
AcDbLine
 10
69.7150590551
 20
99.5
 30
0.0
 11
69.7150590551
 21
99.8346456693
 31
0.0
  0
LINE
  5
134
330
1F
100
AcDbEntity
  8
TITLE
  6
SLD-Solid
370
    18
100
AcDbLine
 10
69.7150590551
 20
0.5
 30
0.0
 11
69.7150590551
 21
0.1653543307
 31
0.0
  0
LINE
  5
135
330
1F
100
AcDbEntity
  8
TITLE
  6
SLD-Solid
370
    18
100
AcDbLine
 10
71.6835629921
 20
99.5
 30
0.0
 11
71.6835629921
 21
99.8346456693
 31
0.0
  0
LINE
  5
136
330
1F
100
AcDbEntity
  8
TITLE
  6
SLD-Solid
370
    18
100
AcDbLine
 10
71.6835629921
 20
0.5
 30
0.0
 11
71.6835629921
 21
0.1653543307
 31
0.0
  0
LINE
  5
137
330
1F
100
AcDbEntity
  8
TITLE
  6
SLD-Solid
370
    18
100
AcDbLine
 10
73.6520669291
 20
99.5
 30
0.0
 11
73.6520669291
 21
99.8346456693
 31
0.0
  0
LINE
  5
138
330
1F
100
AcDbEntity
  8
TITLE
  6
SLD-Solid
370
    18
100
AcDbLine
 10
73.6520669291
 20
0.5
 30
0.0
 11
73.6520669291
 21
0.1653543307
 31
0.0
  0
LINE
  5
139
330
1F
100
AcDbEntity
  8
TITLE
  6
SLD-Solid
370
    18
100
AcDbLine
 10
75.6205708661
 20
99.5
 30
0.0
 11
75.6205708661
 21
99.8346456693
 31
0.0
  0
LINE
  5
13A
330
1F
100
AcDbEntity
  8
TITLE
  6
SLD-Solid
370
    18
100
AcDbLine
 10
75.6205708661
 20
0.5
 30
0.0
 11
75.6205708661
 21
0.1653543307
 31
0.0
  0
LINE
  5
13B
330
1F
100
AcDbEntity
  8
TITLE
  6
SLD-Solid
370
    18
100
AcDbLine
 10
77.5890748031
 20
99.5
 30
0.0
 11
77.5890748031
 21
99.8346456693
 31
0.0
  0
LINE
  5
13C
330
1F
100
AcDbEntity
  8
TITLE
  6
SLD-Solid
370
    18
100
AcDbLine
 10
77.5890748031
 20
0.5
 30
0.0
 11
77.5890748031
 21
0.1653543307
 31
0.0
  0
MTEXT
  5
13E
330
1F
100
AcDbEntity
  8
NOTES
100
AcDbMText
 10
56.783297803
 20
1.0702903347
 30
0.0
 40
0.25
 41
0.0
 71
     1
 72
     1
  1
UNLESS OTHERWISE SPECIFIED DIMENSIONS ARE IN INCHES.
  7
SLDTEXTSTYLE0
 73
     1
 44
1.0
  0
MTEXT
  5
13F
330
1F
100
AcDbEntity
  8
NOTES
100
AcDbMText
 10
56.8050699279
 20
3.0830627776
 30
0.0
 40
0.25
 41
0.0
 71
     1
 72
     1
  1
DATE:
  7
SLDTEXTSTYLE0
 73
     1
 44
1.0
  0
MTEXT
  5
140
330
1F
100
AcDbEntity
  8
NOTES
100
AcDbMText
 10
58.913701188
 20
2.1930329637
 30
0.0
 40
0.25
 41
0.0
 71
     2
 72
     1
  1
DO NOT SCALE DRAWING
  7
SLDTEXTSTYLE0
 73
     1
 44
1.0
  0
MTEXT
  5
142
330
1F
100
AcDbEntity
  8
NOTES
100
AcDbMText
 10
63.2057373075
 20
3.2682755553
 30
0.0
 40
0.25
 41
0.0
 71
     1
 72
     1
  1
TITLE:
  7
SLDTEXTSTYLE1
 73
     1
 44
1.0
  0
MTEXT
  5
143
330
1F
100
AcDbEntity
  8
NOTES
100
AcDbMText
 10
70.5311831052
 20
3.2682755553
 30
0.0
 40
0.25
 41
0.0
 71
     1
 72
     1
  1
DWG NO.
  7
SLDTEXTSTYLE1
 73
     1
 44
1.0
  0
MTEXT
  5
144
330
1F
100
AcDbEntity
  8
NOTES
100
AcDbMText
 10
70.5581753203
 20
1.0645815577
 30
0.0
 40
0.25
 41
0.0
 71
     1
 72
     1
  1
SCALE:     1:1
  7
SLDTEXTSTYLE1
 73
     1
 44
1.0
  0
MTEXT
  5
145
330
1F
100
AcDbEntity
  8
NOTES
100
AcDbMText
 10
74.5468877414
 20
2.6510344295
 30
0.0
 40
0.25
 41
0.0
 71
     2
 72
     1
  1
304 - Assembly CAD
  7
SLDTEXTSTYLE1
 73
     1
 44
1.0
  0
MTEXT
  5
146
330
1F
100
AcDbEntity
  8
NOTES
100
AcDbMText
 10
66.8019957762
 20
2.6510344295
 30
0.0
 40
0.25
 41
0.0
 71
     2
 72
     1
  1
304 Assembly
  7
SLDTEXTSTYLE1
 73
     1
 44
1.0
  0
INSERT
  5
14C
330
1F
100
AcDbEntity
  8
NOTES
100
AcDbBlockReference
  2
SW_NOTE_0
 10
70.641131557
 20
4.6105227838
 30
0.0
  0
INSERT
  5
156
330
1F
100
AcDbEntity
  8
NOTES
100
AcDbBlockReference
  2
SW_NOTE_0_1
 10
56.9909726246
 20
5.1481526848
 30
0.0
  0
MTEXT
  5
157
330
1F
100
AcDbEntity
  8
NOTES
100
AcDbMText
 10
59.8669444333
 20
3.0864733268
 30
0.0
 40
0.25
 41
0.0
 71
     2
 72
     1
  1
May 28, 2021
  7
SLDTEXTSTYLE1
 73
     1
 44
1.0
  0
MTEXT
  5
158
330
1F
100
AcDbEntity
  8
TITLE
100
AcDbMText
 10
0.3276279776
 20
1.7078307004
 30
0.0
 40
0.125
 41
0.0
 71
     2
 72
     1
  1
A
  7
SLDTEXTSTYLE1
 73
     1
 44
1.0
  0
MTEXT
  5
159
330
1F
100
AcDbEntity
  8
TITLE
100
AcDbMText
 10
80.0372736469
 20
1.7078307004
 30
0.0
 40
0.125
 41
0.0
 71
     2
 72
     1
  1
A
  7
SLDTEXTSTYLE1
 73
     1
 44
1.0
  0
MTEXT
  5
15A
330
1F
100
AcDbEntity
  8
TITLE
100
AcDbMText
 10
0.3317512413
 20
3.8200354248
 30
0.0
 40
0.125
 41
0.0
 71
     2
 72
     1
  1
B
  7
SLDTEXTSTYLE1
 73
     1
 44
1.0
  0
MTEXT
  5
15B
330
1F
100
AcDbEntity
  8
TITLE
100
AcDbMText
 10
80.0413969106
 20
3.8200354248
 30
0.0
 40
0.125
 41
0.0
 71
     2
 72
     1
  1
B
  7
SLDTEXTSTYLE1
 73
     1
 44
1.0
  0
MTEXT
  5
15C
330
1F
100
AcDbEntity
  8
TITLE
100
AcDbMText
 10
0.3313750817
 20
5.7885393618
 30
0.0
 40
0.125
 41
0.0
 71
     2
 72
     1
  1
C
  7
SLDTEXTSTYLE1
 73
     1
 44
1.0
  0
MTEXT
  5
15D
330
1F
100
AcDbEntity
  8
TITLE
100
AcDbMText
 10
80.041020751
 20
5.7885393618
 30
0.0
 40
0.125
 41
0.0
 71
     2
 72
     1
  1
C
  7
SLDTEXTSTYLE1
 73
     1
 44
1.0
  0
MTEXT
  5
15E
330
1F
100
AcDbEntity
  8
TITLE
100
AcDbMText
 10
0.3311870028
 20
7.7570432988
 30
0.0
 40
0.125
 41
0.0
 71
     2
 72
     1
  1
D
  7
SLDTEXTSTYLE1
 73
     1
 44
1.0
  0
MTEXT
  5
15F
330
1F
100
AcDbEntity
  8
TITLE
100
AcDbMText
 10
80.0408326721
 20
7.7570432988
 30
0.0
 40
0.125
 41
0.0
 71
     2
 72
     1
  1
D
  7
SLDTEXTSTYLE1
 73
     1
 44
1.0
  0
MTEXT
  5
160
330
1F
100
AcDbEntity
  8
TITLE
100
AcDbMText
 10
0.332923116
 20
9.7255472359
 30
0.0
 40
0.125
 41
0.0
 71
     2
 72
     1
  1
E
  7
SLDTEXTSTYLE1
 73
     1
 44
1.0
  0
MTEXT
  5
161
330
1F
100
AcDbEntity
  8
TITLE
100
AcDbMText
 10
80.0425687853
 20
9.7255472359
 30
0.0
 40
0.125
 41
0.0
 71
     2
 72
     1
  1
E
  7
SLDTEXTSTYLE1
 73
     1
 44
1.0
  0
MTEXT
  5
162
330
1F
100
AcDbEntity
  8
TITLE
100
AcDbMText
 10
0.3313461474
 20
11.6940511729
 30
0.0
 40
0.125
 41
0.0
 71
     2
 72
     1
  1
F
  7
SLDTEXTSTYLE1
 73
     1
 44
1.0
  0
MTEXT
  5
163
330
1F
100
AcDbEntity
  8
TITLE
100
AcDbMText
 10
80.0409918167
 20
11.6940511729
 30
0.0
 40
0.125
 41
0.0
 71
     2
 72
     1
  1
F
  7
SLDTEXTSTYLE1
 73
     1
 44
1.0
  0
MTEXT
  5
164
330
1F
100
AcDbEntity
  8
TITLE
100
AcDbMText
 10
0.3322576054
 20
13.6625551099
 30
0.0
 40
0.125
 41
0.0
 71
     2
 72
     1
  1
G
  7
SLDTEXTSTYLE1
 73
     1
 44
1.0
  0
MTEXT
  5
165
330
1F
100
AcDbEntity
  8
TITLE
100
AcDbMText
 10
80.0419032747
 20
13.6625551099
 30
0.0
 40
0.125
 41
0.0
 71
     2
 72
     1
  1
G
  7
SLDTEXTSTYLE1
 73
     1
 44
1.0
  0
MTEXT
  5
166
330
1F
100
AcDbEntity
  8
TITLE
100
AcDbMText
 10
0.3323733457
 20
15.6310590469
 30
0.0
 40
0.125
 41
0.0
 71
     2
 72
     1
  1
H
  7
SLDTEXTSTYLE1
 73
     1
 44
1.0
  0
MTEXT
  5
167
330
1F
100
AcDbEntity
  8
TITLE
100
AcDbMText
 10
80.042019015
 20
15.6310590469
 30
0.0
 40
0.125
 41
0.0
 71
     2
 72
     1
  1
H
  7
SLDTEXTSTYLE1
 73
     1
 44
1.0
  0
MTEXT
  5
168
330
1F
100
AcDbEntity
  8
TITLE
100
AcDbMText
 10
0.3315776306
 20
17.5995629839
 30
0.0
 40
0.125
 41
0.0
 71
     2
 72
     1
  1
J
  7
SLDTEXTSTYLE1
 73
     1
 44
1.0
  0
MTEXT
  5
169
330
1F
100
AcDbEntity
  8
TITLE
100
AcDbMText
 10
80.0412232999
 20
17.5995629839
 30
0.0
 40
0.125
 41
0.0
 71
     2
 72
     1
  1
J
  7
SLDTEXTSTYLE1
 73
     1
 44
1.0
  0
MTEXT
  5
16A
330
1F
100
AcDbEntity
  8
TITLE
100
AcDbMText
 10
0.3323154765
 20
19.5680669209
 30
0.0
 40
0.125
 41
0.0
 71
     2
 72
     1
  1
K
  7
SLDTEXTSTYLE1
 73
     1
 44
1.0
  0
MTEXT
  5
16B
330
1F
100
AcDbEntity
  8
TITLE
100
AcDbMText
 10
80.0419611458
 20
19.5680669209
 30
0.0
 40
0.125
 41
0.0
 71
     2
 72
     1
  1
K
  7
SLDTEXTSTYLE1
 73
     1
 44
1.0
  0
MTEXT
  5
16C
330
1F
100
AcDbEntity
  8
TITLE
100
AcDbMText
 10
0.3312448739
 20
21.5365708579
 30
0.0
 40
0.125
 41
0.0
 71
     2
 72
     1
  1
L
  7
SLDTEXTSTYLE1
 73
     1
 44
1.0
  0
MTEXT
  5
16D
330
1F
100
AcDbEntity
  8
TITLE
100
AcDbMText
 10
80.0408905432
 20
21.5365708579
 30
0.0
 40
0.125
 41
0.0
 71
     2
 72
     1
  1
L
  7
SLDTEXTSTYLE1
 73
     1
 44
1.0
  0
MTEXT
  5
16E
330
1F
100
AcDbEntity
  8
TITLE
100
AcDbMText
 10
0.3283224192
 20
23.5050747949
 30
0.0
 40
0.125
 41
0.0
 71
     2
 72
     1
  1
M
  7
SLDTEXTSTYLE1
 73
     1
 44
1.0
  0
MTEXT
  5
16F
330
1F
100
AcDbEntity
  8
TITLE
100
AcDbMText
 10
80.0379680885
 20
23.5050747949
 30
0.0
 40
0.125
 41
0.0
 71
     2
 72
     1
  1
M
  7
SLDTEXTSTYLE1
 73
     1
 44
1.0
  0
MTEXT
  5
170
330
1F
100
AcDbEntity
  8
TITLE
100
AcDbMText
 10
0.3315342276
 20
25.4735787319
 30
0.0
 40
0.125
 41
0.0
 71
     2
 72
     1
  1
N
  7
SLDTEXTSTYLE1
 73
     1
 44
1.0
  0
MTEXT
  5
171
330
1F
100
AcDbEntity
  8
TITLE
100
AcDbMText
 10
80.0411798969
 20
25.4735787319
 30
0.0
 40
0.125
 41
0.0
 71
     2
 72
     1
  1
N
  7
SLDTEXTSTYLE1
 73
     1
 44
1.0
  0
MTEXT
  5
172
330
1F
100
AcDbEntity
  8
TITLE
100
AcDbMText
 10
0.3321997349
 20
27.4420826689
 30
0.0
 40
0.125
 41
0.0
 71
     2
 72
     1
  1
P
  7
SLDTEXTSTYLE1
 73
     1
 44
1.0
  0
MTEXT
  5
173
330
1F
100
AcDbEntity
  8
TITLE
100
AcDbMText
 10
80.0418454042
 20
27.4420826689
 30
0.0
 40
0.125
 41
0.0
 71
     2
 72
     1
  1
P
  7
SLDTEXTSTYLE1
 73
     1
 44
1.0
  0
MTEXT
  5
174
330
1F
100
AcDbEntity
  8
TITLE
100
AcDbMText
 10
0.3309265867
 20
29.4105866059
 30
0.0
 40
0.125
 41
0.0
 71
     2
 72
     1
  1
R
  7
SLDTEXTSTYLE1
 73
     1
 44
1.0
  0
MTEXT
  5
175
330
1F
100
AcDbEntity
  8
TITLE
100
AcDbMText
 10
80.040572256
 20
29.4105866059
 30
0.0
 40
0.125
 41
0.0
 71
     2
 72
     1
  1
R
  7
SLDTEXTSTYLE1
 73
     1
 44
1.0
  0
MTEXT
  5
176
330
1F
100
AcDbEntity
  8
TITLE
100
AcDbMText
 10
0.3323010071
 20
31.3790905429
 30
0.0
 40
0.125
 41
0.0
 71
     2
 72
     1
  1
T
  7
SLDTEXTSTYLE1
 73
     1
 44
1.0
  0
MTEXT
  5
177
330
1F
100
AcDbEntity
  8
TITLE
100
AcDbMText
 10
80.0419466764
 20
31.3790905429
 30
0.0
 40
0.125
 41
0.0
 71
     2
 72
     1
  1
T
  7
SLDTEXTSTYLE1
 73
     1
 44
1.0
  0
MTEXT
  5
178
330
1F
100
AcDbEntity
  8
TITLE
100
AcDbMText
 10
0.3328507755
 20
33.34759448
 30
0.0
 40
0.125
 41
0.0
 71
     2
 72
     1
  1
U
  7
SLDTEXTSTYLE1
 73
     1
 44
1.0
  0
MTEXT
  5
179
330
1F
100
AcDbEntity
  8
TITLE
100
AcDbMText
 10
80.0424964448
 20
33.34759448
 30
0.0
 40
0.125
 41
0.0
 71
     2
 72
     1
  1
U
  7
SLDTEXTSTYLE1
 73
     1
 44
1.0
  0
MTEXT
  5
17A
330
1F
100
AcDbEntity
  8
TITLE
100
AcDbMText
 10
0.3307529773
 20
35.316098417
 30
0.0
 40
0.125
 41
0.0
 71
     2
 72
     1
  1
V
  7
SLDTEXTSTYLE1
 73
     1
 44
1.0
  0
MTEXT
  5
17B
330
1F
100
AcDbEntity
  8
TITLE
100
AcDbMText
 10
80.0403986466
 20
35.316098417
 30
0.0
 40
0.125
 41
0.0
 71
     2
 72
     1
  1
V
  7
SLDTEXTSTYLE1
 73
     1
 44
1.0
  0
MTEXT
  5
17C
330
1F
100
AcDbEntity
  8
TITLE
100
AcDbMText
 10
0.3327784409
 20
37.284602354
 30
0.0
 40
0.125
 41
0.0
 71
     2
 72
     1
  1
W
  7
SLDTEXTSTYLE1
 73
     1
 44
1.0
  0
MTEXT
  5
17D
330
1F
100
AcDbEntity
  8
TITLE
100
AcDbMText
 10
80.0424241102
 20
37.284602354
 30
0.0
 40
0.125
 41
0.0
 71
     2
 72
     1
  1
W
  7
SLDTEXTSTYLE1
 73
     1
 44
1.0
  0
MTEXT
  5
17E
330
1F
100
AcDbEntity
  8
TITLE
100
AcDbMText
 10
0.3321997349
 20
39.253106291
 30
0.0
 40
0.125
 41
0.0
 71
     2
 72
     1
  1
Y
  7
SLDTEXTSTYLE1
 73
     1
 44
1.0
  0
MTEXT
  5
17F
330
1F
100
AcDbEntity
  8
TITLE
100
AcDbMText
 10
80.0418454042
 20
39.253106291
 30
0.0
 40
0.125
 41
0.0
 71
     2
 72
     1
  1
Y
  7
SLDTEXTSTYLE1
 73
     1
 44
1.0
  0
MTEXT
  5
180
330
1F
100
AcDbEntity
  8
TITLE
100
AcDbMText
 10
0.3225787898
 20
41.221610228
 30
0.0
 40
0.125
 41
0.0
 71
     2
 72
     1
  1
AA
  7
SLDTEXTSTYLE1
 73
     1
 44
1.0
  0
MTEXT
  5
181
330
1F
100
AcDbEntity
  8
TITLE
100
AcDbMText
 10
80.0322244591
 20
41.221610228
 30
0.0
 40
0.125
 41
0.0
 71
     2
 72
     1
  1
AA
  7
SLDTEXTSTYLE1
 73
     1
 44
1.0
  0
MTEXT
  5
182
330
1F
100
AcDbEntity
  8
TITLE
100
AcDbMText
 10
0.3267020535
 20
43.190114165
 30
0.0
 40
0.125
 41
0.0
 71
     2
 72
     1
  1
AB
  7
SLDTEXTSTYLE1
 73
     1
 44
1.0
  0
MTEXT
  5
183
330
1F
100
AcDbEntity
  8
TITLE
100
AcDbMText
 10
80.0363477228
 20
43.190114165
 30
0.0
 40
0.125
 41
0.0
 71
     2
 72
     1
  1
AB
  7
SLDTEXTSTYLE1
 73
     1
 44
1.0
  0
MTEXT
  5
184
330
1F
100
AcDbEntity
  8
TITLE
100
AcDbMText
 10
0.3263258985
 20
45.158618102
 30
0.0
 40
0.125
 41
0.0
 71
     2
 72
     1
  1
AC
  7
SLDTEXTSTYLE1
 73
     1
 44
1.0
  0
MTEXT
  5
185
330
1F
100
AcDbEntity
  8
TITLE
100
AcDbMText
 10
80.0359715678
 20
45.158618102
 30
0.0
 40
0.125
 41
0.0
 71
     2
 72
     1
  1
AC
  7
SLDTEXTSTYLE1
 73
     1
 44
1.0
  0
MTEXT
  5
186
330
1F
100
AcDbEntity
  8
TITLE
100
AcDbMText
 10
0.3261378197
 20
47.127122039
 30
0.0
 40
0.125
 41
0.0
 71
     2
 72
     1
  1
AD
  7
SLDTEXTSTYLE1
 73
     1
 44
1.0
  0
MTEXT
  5
187
330
1F
100
AcDbEntity
  8
TITLE
100
AcDbMText
 10
80.0357834889
 20
47.127122039
 30
0.0
 40
0.125
 41
0.0
 71
     2
 72
     1
  1
AD
  7
SLDTEXTSTYLE1
 73
     1
 44
1.0
  0
MTEXT
  5
188
330
1F
100
AcDbEntity
  8
TITLE
100
AcDbMText
 10
0.3278739283
 20
49.095625976
 30
0.0
 40
0.125
 41
0.0
 71
     2
 72
     1
  1
AE
  7
SLDTEXTSTYLE1
 73
     1
 44
1.0
  0
MTEXT
  5
189
330
1F
100
AcDbEntity
  8
TITLE
100
AcDbMText
 10
80.0375195976
 20
49.095625976
 30
0.0
 40
0.125
 41
0.0
 71
     2
 72
     1
  1
AE
  7
SLDTEXTSTYLE1
 73
     1
 44
1.0
  0
MTEXT
  5
18A
330
1F
100
AcDbEntity
  8
TITLE
100
AcDbMText
 10
0.3262969596
 20
51.064129913
 30
0.0
 40
0.125
 41
0.0
 71
     2
 72
     1
  1
AF
  7
SLDTEXTSTYLE1
 73
     1
 44
1.0
  0
MTEXT
  5
18B
330
1F
100
AcDbEntity
  8
TITLE
100
AcDbMText
 10
80.0359426289
 20
51.064129913
 30
0.0
 40
0.125
 41
0.0
 71
     2
 72
     1
  1
AF
  7
SLDTEXTSTYLE1
 73
     1
 44
1.0
  0
MTEXT
  5
18C
330
1F
100
AcDbEntity
  8
TITLE
100
AcDbMText
 10
0.3272084177
 20
53.03263385
 30
0.0
 40
0.125
 41
0.0
 71
     2
 72
     1
  1
AG
  7
SLDTEXTSTYLE1
 73
     1
 44
1.0
  0
MTEXT
  5
18D
330
1F
100
AcDbEntity
  8
TITLE
100
AcDbMText
 10
80.036854087
 20
53.03263385
 30
0.0
 40
0.125
 41
0.0
 71
     2
 72
     1
  1
AG
  7
SLDTEXTSTYLE1
 73
     1
 44
1.0
  0
MTEXT
  5
18E
330
1F
100
AcDbEntity
  8
TITLE
100
AcDbMText
 10
0.3273241625
 20
55.001137787
 30
0.0
 40
0.125
 41
0.0
 71
     2
 72
     1
  1
AH
  7
SLDTEXTSTYLE1
 73
     1
 44
1.0
  0
MTEXT
  5
18F
330
1F
100
AcDbEntity
  8
TITLE
100
AcDbMText
 10
80.0369698318
 20
55.001137787
 30
0.0
 40
0.125
 41
0.0
 71
     2
 72
     1
  1
AH
  7
SLDTEXTSTYLE1
 73
     1
 44
1.0
  0
MTEXT
  5
190
330
1F
100
AcDbEntity
  8
TITLE
100
AcDbMText
 10
0.3265284428
 20
56.969641724
 30
0.0
 40
0.125
 41
0.0
 71
     2
 72
     1
  1
AJ
  7
SLDTEXTSTYLE1
 73
     1
 44
1.0
  0
MTEXT
  5
191
330
1F
100
AcDbEntity
  8
TITLE
100
AcDbMText
 10
80.0361741121
 20
56.969641724
 30
0.0
 40
0.125
 41
0.0
 71
     2
 72
     1
  1
AJ
  7
SLDTEXTSTYLE1
 73
     1
 44
1.0
  0
MTEXT
  5
192
330
1F
100
AcDbEntity
  8
TITLE
100
AcDbMText
 10
0.3272662887
 20
58.9381456611
 30
0.0
 40
0.125
 41
0.0
 71
     2
 72
     1
  1
AK
  7
SLDTEXTSTYLE1
 73
     1
 44
1.0
  0
MTEXT
  5
193
330
1F
100
AcDbEntity
  8
TITLE
100
AcDbMText
 10
80.036911958
 20
58.9381456611
 30
0.0
 40
0.125
 41
0.0
 71
     2
 72
     1
  1
AK
  7
SLDTEXTSTYLE1
 73
     1
 44
1.0
  0
MTEXT
  5
194
330
1F
100
AcDbEntity
  8
TITLE
100
AcDbMText
 10
0.3261956816
 20
60.9066495981
 30
0.0
 40
0.125
 41
0.0
 71
     2
 72
     1
  1
AL
  7
SLDTEXTSTYLE1
 73
     1
 44
1.0
  0
MTEXT
  5
195
330
1F
100
AcDbEntity
  8
TITLE
100
AcDbMText
 10
80.0358413509
 20
60.9066495981
 30
0.0
 40
0.125
 41
0.0
 71
     2
 72
     1
  1
AL
  7
SLDTEXTSTYLE1
 73
     1
 44
1.0
  0
MTEXT
  5
196
330
1F
100
AcDbEntity
  8
TITLE
100
AcDbMText
 10
0.3232732315
 20
62.8751535351
 30
0.0
 40
0.125
 41
0.0
 71
     2
 72
     1
  1
AM
  7
SLDTEXTSTYLE1
 73
     1
 44
1.0
  0
MTEXT
  5
197
330
1F
100
AcDbEntity
  8
TITLE
100
AcDbMText
 10
80.0329189008
 20
62.8751535351
 30
0.0
 40
0.125
 41
0.0
 71
     2
 72
     1
  1
AM
  7
SLDTEXTSTYLE1
 73
     1
 44
1.0
  0
MTEXT
  5
198
330
1F
100
AcDbEntity
  8
TITLE
100
AcDbMText
 10
0.3264850398
 20
64.8436574721
 30
0.0
 40
0.125
 41
0.0
 71
     2
 72
     1
  1
AN
  7
SLDTEXTSTYLE1
 73
     1
 44
1.0
  0
MTEXT
  5
199
330
1F
100
AcDbEntity
  8
TITLE
100
AcDbMText
 10
80.0361307091
 20
64.8436574721
 30
0.0
 40
0.125
 41
0.0
 71
     2
 72
     1
  1
AN
  7
SLDTEXTSTYLE1
 73
     1
 44
1.0
  0
MTEXT
  5
19A
330
1F
100
AcDbEntity
  8
TITLE
100
AcDbMText
 10
0.3271505426
 20
66.8121614091
 30
0.0
 40
0.125
 41
0.0
 71
     2
 72
     1
  1
AP
  7
SLDTEXTSTYLE1
 73
     1
 44
1.0
  0
MTEXT
  5
19B
330
1F
100
AcDbEntity
  8
TITLE
100
AcDbMText
 10
80.0367962119
 20
66.8121614091
 30
0.0
 40
0.125
 41
0.0
 71
     2
 72
     1
  1
AP
  7
SLDTEXTSTYLE1
 73
     1
 44
1.0
  0
MTEXT
  5
19C
330
1F
100
AcDbEntity
  8
TITLE
100
AcDbMText
 10
0.325877399
 20
68.7806653461
 30
0.0
 40
0.125
 41
0.0
 71
     2
 72
     1
  1
AR
  7
SLDTEXTSTYLE1
 73
     1
 44
1.0
  0
MTEXT
  5
19D
330
1F
100
AcDbEntity
  8
TITLE
100
AcDbMText
 10
80.0355230682
 20
68.7806653461
 30
0.0
 40
0.125
 41
0.0
 71
     2
 72
     1
  1
AR
  7
SLDTEXTSTYLE1
 73
     1
 44
1.0
  0
MTEXT
  5
19E
330
1F
100
AcDbEntity
  8
TITLE
100
AcDbMText
 10
0.3272518193
 20
70.7491692831
 30
0.0
 40
0.125
 41
0.0
 71
     2
 72
     1
  1
AT
  7
SLDTEXTSTYLE1
 73
     1
 44
1.0
  0
MTEXT
  5
19F
330
1F
100
AcDbEntity
  8
TITLE
100
AcDbMText
 10
80.0368974886
 20
70.7491692831
 30
0.0
 40
0.125
 41
0.0
 71
     2
 72
     1
  1
AT
  7
SLDTEXTSTYLE1
 73
     1
 44
1.0
  0
MTEXT
  5
1A0
330
1F
100
AcDbEntity
  8
TITLE
100
AcDbMText
 10
0.3278015877
 20
72.7176732201
 30
0.0
 40
0.125
 41
0.0
 71
     2
 72
     1
  1
AU
  7
SLDTEXTSTYLE1
 73
     1
 44
1.0
  0
MTEXT
  5
1A1
330
1F
100
AcDbEntity
  8
TITLE
100
AcDbMText
 10
80.037447257
 20
72.7176732201
 30
0.0
 40
0.125
 41
0.0
 71
     2
 72
     1
  1
AU
  7
SLDTEXTSTYLE1
 73
     1
 44
1.0
  0
MTEXT
  5
1A2
330
1F
100
AcDbEntity
  8
TITLE
100
AcDbMText
 10
0.3257037895
 20
74.6861771571
 30
0.0
 40
0.125
 41
0.0
 71
     2
 72
     1
  1
AV
  7
SLDTEXTSTYLE1
 73
     1
 44
1.0
  0
MTEXT
  5
1A3
330
1F
100
AcDbEntity
  8
TITLE
100
AcDbMText
 10
80.0353494588
 20
74.6861771571
 30
0.0
 40
0.125
 41
0.0
 71
     2
 72
     1
  1
AV
  7
SLDTEXTSTYLE1
 73
     1
 44
1.0
  0
MTEXT
  5
1A4
330
1F
100
AcDbEntity
  8
TITLE
100
AcDbMText
 10
0.3277292486
 20
76.6546810941
 30
0.0
 40
0.125
 41
0.0
 71
     2
 72
     1
  1
AW
  7
SLDTEXTSTYLE1
 73
     1
 44
1.0
  0
MTEXT
  5
1A5
330
1F
100
AcDbEntity
  8
TITLE
100
AcDbMText
 10
80.0373749179
 20
76.6546810941
 30
0.0
 40
0.125
 41
0.0
 71
     2
 72
     1
  1
AW
  7
SLDTEXTSTYLE1
 73
     1
 44
1.0
  0
MTEXT
  5
1A6
330
1F
100
AcDbEntity
  8
TITLE
100
AcDbMText
 10
0.3271505426
 20
78.6231850311
 30
0.0
 40
0.125
 41
0.0
 71
     2
 72
     1
  1
AY
  7
SLDTEXTSTYLE1
 73
     1
 44
1.0
  0
MTEXT
  5
1A7
330
1F
100
AcDbEntity
  8
TITLE
100
AcDbMText
 10
80.0367962119
 20
78.6231850311
 30
0.0
 40
0.125
 41
0.0
 71
     2
 72
     1
  1
AY
  7
SLDTEXTSTYLE1
 73
     1
 44
1.0
  0
MTEXT
  5
1A8
330
1F
100
AcDbEntity
  8
TITLE
100
AcDbMText
 10
0.3267020535
 20
80.5916889681
 30
0.0
 40
0.125
 41
0.0
 71
     2
 72
     1
  1
BA
  7
SLDTEXTSTYLE1
 73
     1
 44
1.0
  0
MTEXT
  5
1A9
330
1F
100
AcDbEntity
  8
TITLE
100
AcDbMText
 10
80.0363477228
 20
80.5916889681
 30
0.0
 40
0.125
 41
0.0
 71
     2
 72
     1
  1
BA
  7
SLDTEXTSTYLE1
 73
     1
 44
1.0
  0
MTEXT
  5
1AA
330
1F
100
AcDbEntity
  8
TITLE
100
AcDbMText
 10
0.3308253173
 20
82.5601929051
 30
0.0
 40
0.125
 41
0.0
 71
     2
 72
     1
  1
BB
  7
SLDTEXTSTYLE1
 73
     1
 44
1.0
  0
MTEXT
  5
1AB
330
1F
100
AcDbEntity
  8
TITLE
100
AcDbMText
 10
80.0404709865
 20
82.5601929051
 30
0.0
 40
0.125
 41
0.0
 71
     2
 72
     1
  1
BB
  7
SLDTEXTSTYLE1
 73
     1
 44
1.0
  0
MTEXT
  5
1AC
330
1F
100
AcDbEntity
  8
TITLE
100
AcDbMText
 10
0.3304491531
 20
84.5286968422
 30
0.0
 40
0.125
 41
0.0
 71
     2
 72
     1
  1
BC
  7
SLDTEXTSTYLE1
 73
     1
 44
1.0
  0
MTEXT
  5
1AD
330
1F
100
AcDbEntity
  8
TITLE
100
AcDbMText
 10
80.0400948224
 20
84.5286968422
 30
0.0
 40
0.125
 41
0.0
 71
     2
 72
     1
  1
BC
  7
SLDTEXTSTYLE1
 73
     1
 44
1.0
  0
MTEXT
  5
1AE
330
1F
100
AcDbEntity
  8
TITLE
100
AcDbMText
 10
0.3302610742
 20
86.4972007792
 30
0.0
 40
0.125
 41
0.0
 71
     2
 72
     1
  1
BD
  7
SLDTEXTSTYLE1
 73
     1
 44
1.0
  0
MTEXT
  5
1AF
330
1F
100
AcDbEntity
  8
TITLE
100
AcDbMText
 10
80.0399067435
 20
86.4972007792
 30
0.0
 40
0.125
 41
0.0
 71
     2
 72
     1
  1
BD
  7
SLDTEXTSTYLE1
 73
     1
 44
1.0
  0
MTEXT
  5
1B0
330
1F
100
AcDbEntity
  8
TITLE
100
AcDbMText
 10
0.331997192
 20
88.4657047162
 30
0.0
 40
0.125
 41
0.0
 71
     2
 72
     1
  1
BE
  7
SLDTEXTSTYLE1
 73
     1
 44
1.0
  0
MTEXT
  5
1B1
330
1F
100
AcDbEntity
  8
TITLE
100
AcDbMText
 10
80.0416428613
 20
88.4657047162
 30
0.0
 40
0.125
 41
0.0
 71
     2
 72
     1
  1
BE
  7
SLDTEXTSTYLE1
 73
     1
 44
1.0
  0
MTEXT
  5
1B2
330
1F
100
AcDbEntity
  8
TITLE
100
AcDbMText
 10
0.3304202234
 20
90.4342086532
 30
0.0
 40
0.125
 41
0.0
 71
     2
 72
     1
  1
BF
  7
SLDTEXTSTYLE1
 73
     1
 44
1.0
  0
MTEXT
  5
1B3
330
1F
100
AcDbEntity
  8
TITLE
100
AcDbMText
 10
80.0400658926
 20
90.4342086532
 30
0.0
 40
0.125
 41
0.0
 71
     2
 72
     1
  1
BF
  7
SLDTEXTSTYLE1
 73
     1
 44
1.0
  0
MTEXT
  5
1B4
330
1F
100
AcDbEntity
  8
TITLE
100
AcDbMText
 10
0.3313316814
 20
92.4027125902
 30
0.0
 40
0.125
 41
0.0
 71
     2
 72
     1
  1
BG
  7
SLDTEXTSTYLE1
 73
     1
 44
1.0
  0
MTEXT
  5
1B5
330
1F
100
AcDbEntity
  8
TITLE
100
AcDbMText
 10
80.0409773507
 20
92.4027125902
 30
0.0
 40
0.125
 41
0.0
 71
     2
 72
     1
  1
BG
  7
SLDTEXTSTYLE1
 73
     1
 44
1.0
  0
MTEXT
  5
1B6
330
1F
100
AcDbEntity
  8
TITLE
100
AcDbMText
 10
0.331447417
 20
94.3712165272
 30
0.0
 40
0.125
 41
0.0
 71
     2
 72
     1
  1
BH
  7
SLDTEXTSTYLE1
 73
     1
 44
1.0
  0
MTEXT
  5
1B7
330
1F
100
AcDbEntity
  8
TITLE
100
AcDbMText
 10
80.0410930863
 20
94.3712165272
 30
0.0
 40
0.125
 41
0.0
 71
     2
 72
     1
  1
BH
  7
SLDTEXTSTYLE1
 73
     1
 44
1.0
  0
MTEXT
  5
1B8
330
1F
100
AcDbEntity
  8
TITLE
100
AcDbMText
 10
0.3306517065
 20
96.3397204642
 30
0.0
 40
0.125
 41
0.0
 71
     2
 72
     1
  1
BJ
  7
SLDTEXTSTYLE1
 73
     1
 44
1.0
  0
MTEXT
  5
1B9
330
1F
100
AcDbEntity
  8
TITLE
100
AcDbMText
 10
80.0402973758
 20
96.3397204642
 30
0.0
 40
0.125
 41
0.0
 71
     2
 72
     1
  1
BJ
  7
SLDTEXTSTYLE1
 73
     1
 44
1.0
  0
MTEXT
  5
1BA
330
1F
100
AcDbEntity
  8
TITLE
100
AcDbMText
 10
0.3313895525
 20
98.4519251886
 30
0.0
 40
0.125
 41
0.0
 71
     2
 72
     1
  1
BK
  7
SLDTEXTSTYLE1
 73
     1
 44
1.0
  0
MTEXT
  5
1BB
330
1F
100
AcDbEntity
  8
TITLE
100
AcDbMText
 10
80.0410352218
 20
98.4519251886
 30
0.0
 40
0.125
 41
0.0
 71
     2
 72
     1
  1
BK
  7
SLDTEXTSTYLE1
 73
     1
 44
1.0
  0
MTEXT
  5
1BC
330
1F
100
AcDbEntity
  8
TITLE
100
AcDbMText
 10
1.6404452371
 20
0.4125551099
 30
0.0
 40
0.125
 41
0.0
 71
     2
 72
     1
  1
40
  7
SLDTEXTSTYLE1
 73
     1
 44
1.0
  0
MTEXT
  5
1BD
330
1F
100
AcDbEntity
  8
TITLE
100
AcDbMText
 10
1.6404452371
 20
99.7472007792
 30
0.0
 40
0.125
 41
0.0
 71
     2
 72
     1
  1
40
  7
SLDTEXTSTYLE1
 73
     1
 44
1.0
  0
MTEXT
  5
1BE
330
1F
100
AcDbEntity
  8
TITLE
100
AcDbMText
 10
3.767659804
 20
0.4125551099
 30
0.0
 40
0.125
 41
0.0
 71
     2
 72
     1
  1
39
  7
SLDTEXTSTYLE1
 73
     1
 44
1.0
  0
MTEXT
  5
1BF
330
1F
100
AcDbEntity
  8
TITLE
100
AcDbMText
 10
3.767659804
 20
99.7472007792
 30
0.0
 40
0.125
 41
0.0
 71
     2
 72
     1
  1
39
  7
SLDTEXTSTYLE1
 73
     1
 44
1.0
  0
MTEXT
  5
1C0
330
1F
100
AcDbEntity
  8
TITLE
100
AcDbMText
 10
5.736163741
 20
0.4125551099
 30
0.0
 40
0.125
 41
0.0
 71
     2
 72
     1
  1
38
  7
SLDTEXTSTYLE1
 73
     1
 44
1.0
  0
MTEXT
  5
1C1
330
1F
100
AcDbEntity
  8
TITLE
100
AcDbMText
 10
5.736163741
 20
99.7472007792
 30
0.0
 40
0.125
 41
0.0
 71
     2
 72
     1
  1
38
  7
SLDTEXTSTYLE1
 73
     1
 44
1.0
  0
MTEXT
  5
1C2
330
1F
100
AcDbEntity
  8
TITLE
100
AcDbMText
 10
7.704667678
 20
0.4125551099
 30
0.0
 40
0.125
 41
0.0
 71
     2
 72
     1
  1
37
  7
SLDTEXTSTYLE1
 73
     1
 44
1.0
  0
MTEXT
  5
1C3
330
1F
100
AcDbEntity
  8
TITLE
100
AcDbMText
 10
7.704667678
 20
99.7472007792
 30
0.0
 40
0.125
 41
0.0
 71
     2
 72
     1
  1
37
  7
SLDTEXTSTYLE1
 73
     1
 44
1.0
  0
MTEXT
  5
1C4
330
1F
100
AcDbEntity
  8
TITLE
100
AcDbMText
 10
9.673171615
 20
0.4125551099
 30
0.0
 40
0.125
 41
0.0
 71
     2
 72
     1
  1
36
  7
SLDTEXTSTYLE1
 73
     1
 44
1.0
  0
MTEXT
  5
1C5
330
1F
100
AcDbEntity
  8
TITLE
100
AcDbMText
 10
9.673171615
 20
99.7472007792
 30
0.0
 40
0.125
 41
0.0
 71
     2
 72
     1
  1
36
  7
SLDTEXTSTYLE1
 73
     1
 44
1.0
  0
MTEXT
  5
1C6
330
1F
100
AcDbEntity
  8
TITLE
100
AcDbMText
 10
11.641675552
 20
0.4125551099
 30
0.0
 40
0.125
 41
0.0
 71
     2
 72
     1
  1
35
  7
SLDTEXTSTYLE1
 73
     1
 44
1.0
  0
MTEXT
  5
1C7
330
1F
100
AcDbEntity
  8
TITLE
100
AcDbMText
 10
11.641675552
 20
99.7472007792
 30
0.0
 40
0.125
 41
0.0
 71
     2
 72
     1
  1
35
  7
SLDTEXTSTYLE1
 73
     1
 44
1.0
  0
MTEXT
  5
1C8
330
1F
100
AcDbEntity
  8
TITLE
100
AcDbMText
 10
13.610179489
 20
0.4125551099
 30
0.0
 40
0.125
 41
0.0
 71
     2
 72
     1
  1
34
  7
SLDTEXTSTYLE1
 73
     1
 44
1.0
  0
MTEXT
  5
1C9
330
1F
100
AcDbEntity
  8
TITLE
100
AcDbMText
 10
13.610179489
 20
99.7472007792
 30
0.0
 40
0.125
 41
0.0
 71
     2
 72
     1
  1
34
  7
SLDTEXTSTYLE1
 73
     1
 44
1.0
  0
MTEXT
  5
1CA
330
1F
100
AcDbEntity
  8
TITLE
100
AcDbMText
 10
15.578683426
 20
0.4125551099
 30
0.0
 40
0.125
 41
0.0
 71
     2
 72
     1
  1
33
  7
SLDTEXTSTYLE1
 73
     1
 44
1.0
  0
MTEXT
  5
1CB
330
1F
100
AcDbEntity
  8
TITLE
100
AcDbMText
 10
15.578683426
 20
99.7472007792
 30
0.0
 40
0.125
 41
0.0
 71
     2
 72
     1
  1
33
  7
SLDTEXTSTYLE1
 73
     1
 44
1.0
  0
MTEXT
  5
1CC
330
1F
100
AcDbEntity
  8
TITLE
100
AcDbMText
 10
17.547187363
 20
0.4125551099
 30
0.0
 40
0.125
 41
0.0
 71
     2
 72
     1
  1
32
  7
SLDTEXTSTYLE1
 73
     1
 44
1.0
  0
MTEXT
  5
1CD
330
1F
100
AcDbEntity
  8
TITLE
100
AcDbMText
 10
17.547187363
 20
99.7472007792
 30
0.0
 40
0.125
 41
0.0
 71
     2
 72
     1
  1
32
  7
SLDTEXTSTYLE1
 73
     1
 44
1.0
  0
MTEXT
  5
1CE
330
1F
100
AcDbEntity
  8
TITLE
100
AcDbMText
 10
19.5156913
 20
0.4125551099
 30
0.0
 40
0.125
 41
0.0
 71
     2
 72
     1
  1
31
  7
SLDTEXTSTYLE1
 73
     1
 44
1.0
  0
MTEXT
  5
1CF
330
1F
100
AcDbEntity
  8
TITLE
100
AcDbMText
 10
19.5156913
 20
99.7472007792
 30
0.0
 40
0.125
 41
0.0
 71
     2
 72
     1
  1
31
  7
SLDTEXTSTYLE1
 73
     1
 44
1.0
  0
MTEXT
  5
1D0
330
1F
100
AcDbEntity
  8
TITLE
100
AcDbMText
 10
21.4841952371
 20
0.4125551099
 30
0.0
 40
0.125
 41
0.0
 71
     2
 72
     1
  1
30
  7
SLDTEXTSTYLE1
 73
     1
 44
1.0
  0
MTEXT
  5
1D1
330
1F
100
AcDbEntity
  8
TITLE
100
AcDbMText
 10
21.4841952371
 20
99.7472007792
 30
0.0
 40
0.125
 41
0.0
 71
     2
 72
     1
  1
30
  7
SLDTEXTSTYLE1
 73
     1
 44
1.0
  0
MTEXT
  5
1D2
330
1F
100
AcDbEntity
  8
TITLE
100
AcDbMText
 10
23.4526991741
 20
0.4125551099
 30
0.0
 40
0.125
 41
0.0
 71
     2
 72
     1
  1
29
  7
SLDTEXTSTYLE1
 73
     1
 44
1.0
  0
MTEXT
  5
1D3
330
1F
100
AcDbEntity
  8
TITLE
100
AcDbMText
 10
23.4526991741
 20
99.7472007792
 30
0.0
 40
0.125
 41
0.0
 71
     2
 72
     1
  1
29
  7
SLDTEXTSTYLE1
 73
     1
 44
1.0
  0
MTEXT
  5
1D4
330
1F
100
AcDbEntity
  8
TITLE
100
AcDbMText
 10
25.4212031111
 20
0.4125551099
 30
0.0
 40
0.125
 41
0.0
 71
     2
 72
     1
  1
28
  7
SLDTEXTSTYLE1
 73
     1
 44
1.0
  0
MTEXT
  5
1D5
330
1F
100
AcDbEntity
  8
TITLE
100
AcDbMText
 10
25.4212031111
 20
99.7472007792
 30
0.0
 40
0.125
 41
0.0
 71
     2
 72
     1
  1
28
  7
SLDTEXTSTYLE1
 73
     1
 44
1.0
  0
MTEXT
  5
1D6
330
1F
100
AcDbEntity
  8
TITLE
100
AcDbMText
 10
27.3897070481
 20
0.4125551099
 30
0.0
 40
0.125
 41
0.0
 71
     2
 72
     1
  1
27
  7
SLDTEXTSTYLE1
 73
     1
 44
1.0
  0
MTEXT
  5
1D7
330
1F
100
AcDbEntity
  8
TITLE
100
AcDbMText
 10
27.3897070481
 20
99.7472007792
 30
0.0
 40
0.125
 41
0.0
 71
     2
 72
     1
  1
27
  7
SLDTEXTSTYLE1
 73
     1
 44
1.0
  0
MTEXT
  5
1D8
330
1F
100
AcDbEntity
  8
TITLE
100
AcDbMText
 10
29.3582109851
 20
0.4125551099
 30
0.0
 40
0.125
 41
0.0
 71
     2
 72
     1
  1
26
  7
SLDTEXTSTYLE1
 73
     1
 44
1.0
  0
MTEXT
  5
1D9
330
1F
100
AcDbEntity
  8
TITLE
100
AcDbMText
 10
29.3582109851
 20
99.7472007792
 30
0.0
 40
0.125
 41
0.0
 71
     2
 72
     1
  1
26
  7
SLDTEXTSTYLE1
 73
     1
 44
1.0
  0
MTEXT
  5
1DA
330
1F
100
AcDbEntity
  8
TITLE
100
AcDbMText
 10
31.3267149221
 20
0.4125551099
 30
0.0
 40
0.125
 41
0.0
 71
     2
 72
     1
  1
25
  7
SLDTEXTSTYLE1
 73
     1
 44
1.0
  0
MTEXT
  5
1DB
330
1F
100
AcDbEntity
  8
TITLE
100
AcDbMText
 10
31.3267149221
 20
99.7472007792
 30
0.0
 40
0.125
 41
0.0
 71
     2
 72
     1
  1
25
  7
SLDTEXTSTYLE1
 73
     1
 44
1.0
  0
MTEXT
  5
1DC
330
1F
100
AcDbEntity
  8
TITLE
100
AcDbMText
 10
33.2952188591
 20
0.4125551099
 30
0.0
 40
0.125
 41
0.0
 71
     2
 72
     1
  1
24
  7
SLDTEXTSTYLE1
 73
     1
 44
1.0
  0
MTEXT
  5
1DD
330
1F
100
AcDbEntity
  8
TITLE
100
AcDbMText
 10
33.2952188591
 20
99.7472007792
 30
0.0
 40
0.125
 41
0.0
 71
     2
 72
     1
  1
24
  7
SLDTEXTSTYLE1
 73
     1
 44
1.0
  0
MTEXT
  5
1DE
330
1F
100
AcDbEntity
  8
TITLE
100
AcDbMText
 10
35.2637227961
 20
0.4125551099
 30
0.0
 40
0.125
 41
0.0
 71
     2
 72
     1
  1
23
  7
SLDTEXTSTYLE1
 73
     1
 44
1.0
  0
MTEXT
  5
1DF
330
1F
100
AcDbEntity
  8
TITLE
100
AcDbMText
 10
35.2637227961
 20
99.7472007792
 30
0.0
 40
0.125
 41
0.0
 71
     2
 72
     1
  1
23
  7
SLDTEXTSTYLE1
 73
     1
 44
1.0
  0
MTEXT
  5
1E0
330
1F
100
AcDbEntity
  8
TITLE
100
AcDbMText
 10
37.2322267331
 20
0.4125551099
 30
0.0
 40
0.125
 41
0.0
 71
     2
 72
     1
  1
22
  7
SLDTEXTSTYLE1
 73
     1
 44
1.0
  0
MTEXT
  5
1E1
330
1F
100
AcDbEntity
  8
TITLE
100
AcDbMText
 10
37.2322267331
 20
99.7472007792
 30
0.0
 40
0.125
 41
0.0
 71
     2
 72
     1
  1
22
  7
SLDTEXTSTYLE1
 73
     1
 44
1.0
  0
MTEXT
  5
1E2
330
1F
100
AcDbEntity
  8
TITLE
100
AcDbMText
 10
39.2007306701
 20
0.4125551099
 30
0.0
 40
0.125
 41
0.0
 71
     2
 72
     1
  1
21
  7
SLDTEXTSTYLE1
 73
     1
 44
1.0
  0
MTEXT
  5
1E3
330
1F
100
AcDbEntity
  8
TITLE
100
AcDbMText
 10
39.2007306701
 20
99.7472007792
 30
0.0
 40
0.125
 41
0.0
 71
     2
 72
     1
  1
21
  7
SLDTEXTSTYLE1
 73
     1
 44
1.0
  0
MTEXT
  5
1E4
330
1F
100
AcDbEntity
  8
TITLE
100
AcDbMText
 10
41.1692346071
 20
0.4125551099
 30
0.0
 40
0.125
 41
0.0
 71
     2
 72
     1
  1
20
  7
SLDTEXTSTYLE1
 73
     1
 44
1.0
  0
MTEXT
  5
1E5
330
1F
100
AcDbEntity
  8
TITLE
100
AcDbMText
 10
41.1692346071
 20
99.7472007792
 30
0.0
 40
0.125
 41
0.0
 71
     2
 72
     1
  1
20
  7
SLDTEXTSTYLE1
 73
     1
 44
1.0
  0
MTEXT
  5
1E6
330
1F
100
AcDbEntity
  8
TITLE
100
AcDbMText
 10
43.1377385441
 20
0.4125551099
 30
0.0
 40
0.125
 41
0.0
 71
     2
 72
     1
  1
19
  7
SLDTEXTSTYLE1
 73
     1
 44
1.0
  0
MTEXT
  5
1E7
330
1F
100
AcDbEntity
  8
TITLE
100
AcDbMText
 10
43.1377385441
 20
99.7472007792
 30
0.0
 40
0.125
 41
0.0
 71
     2
 72
     1
  1
19
  7
SLDTEXTSTYLE1
 73
     1
 44
1.0
  0
MTEXT
  5
1E8
330
1F
100
AcDbEntity
  8
TITLE
100
AcDbMText
 10
45.1062424811
 20
0.4125551099
 30
0.0
 40
0.125
 41
0.0
 71
     2
 72
     1
  1
18
  7
SLDTEXTSTYLE1
 73
     1
 44
1.0
  0
MTEXT
  5
1E9
330
1F
100
AcDbEntity
  8
TITLE
100
AcDbMText
 10
45.1062424811
 20
99.7472007792
 30
0.0
 40
0.125
 41
0.0
 71
     2
 72
     1
  1
18
  7
SLDTEXTSTYLE1
 73
     1
 44
1.0
  0
MTEXT
  5
1EA
330
1F
100
AcDbEntity
  8
TITLE
100
AcDbMText
 10
47.0747464182
 20
0.4125551099
 30
0.0
 40
0.125
 41
0.0
 71
     2
 72
     1
  1
17
  7
SLDTEXTSTYLE1
 73
     1
 44
1.0
  0
MTEXT
  5
1EB
330
1F
100
AcDbEntity
  8
TITLE
100
AcDbMText
 10
47.0747464182
 20
99.7472007792
 30
0.0
 40
0.125
 41
0.0
 71
     2
 72
     1
  1
17
  7
SLDTEXTSTYLE1
 73
     1
 44
1.0
  0
MTEXT
  5
1EC
330
1F
100
AcDbEntity
  8
TITLE
100
AcDbMText
 10
49.0432503552
 20
0.4125551099
 30
0.0
 40
0.125
 41
0.0
 71
     2
 72
     1
  1
16
  7
SLDTEXTSTYLE1
 73
     1
 44
1.0
  0
MTEXT
  5
1ED
330
1F
100
AcDbEntity
  8
TITLE
100
AcDbMText
 10
49.0432503552
 20
99.7472007792
 30
0.0
 40
0.125
 41
0.0
 71
     2
 72
     1
  1
16
  7
SLDTEXTSTYLE1
 73
     1
 44
1.0
  0
MTEXT
  5
1EE
330
1F
100
AcDbEntity
  8
TITLE
100
AcDbMText
 10
51.0117542922
 20
0.4125551099
 30
0.0
 40
0.125
 41
0.0
 71
     2
 72
     1
  1
15
  7
SLDTEXTSTYLE1
 73
     1
 44
1.0
  0
MTEXT
  5
1EF
330
1F
100
AcDbEntity
  8
TITLE
100
AcDbMText
 10
51.0117542922
 20
99.7472007792
 30
0.0
 40
0.125
 41
0.0
 71
     2
 72
     1
  1
15
  7
SLDTEXTSTYLE1
 73
     1
 44
1.0
  0
MTEXT
  5
1F0
330
1F
100
AcDbEntity
  8
TITLE
100
AcDbMText
 10
52.9802582292
 20
0.4125551099
 30
0.0
 40
0.125
 41
0.0
 71
     2
 72
     1
  1
14
  7
SLDTEXTSTYLE1
 73
     1
 44
1.0
  0
MTEXT
  5
1F1
330
1F
100
AcDbEntity
  8
TITLE
100
AcDbMText
 10
52.9802582292
 20
99.7472007792
 30
0.0
 40
0.125
 41
0.0
 71
     2
 72
     1
  1
14
  7
SLDTEXTSTYLE1
 73
     1
 44
1.0
  0
MTEXT
  5
1F2
330
1F
100
AcDbEntity
  8
TITLE
100
AcDbMText
 10
54.9487621662
 20
0.4125551099
 30
0.0
 40
0.125
 41
0.0
 71
     2
 72
     1
  1
13
  7
SLDTEXTSTYLE1
 73
     1
 44
1.0
  0
MTEXT
  5
1F3
330
1F
100
AcDbEntity
  8
TITLE
100
AcDbMText
 10
54.9487621662
 20
99.7472007792
 30
0.0
 40
0.125
 41
0.0
 71
     2
 72
     1
  1
13
  7
SLDTEXTSTYLE1
 73
     1
 44
1.0
  0
MTEXT
  5
1F4
330
1F
100
AcDbEntity
  8
TITLE
100
AcDbMText
 10
56.9172661032
 20
0.4125551099
 30
0.0
 40
0.125
 41
0.0
 71
     2
 72
     1
  1
12
  7
SLDTEXTSTYLE1
 73
     1
 44
1.0
  0
MTEXT
  5
1F5
330
1F
100
AcDbEntity
  8
TITLE
100
AcDbMText
 10
56.9172661032
 20
99.7472007792
 30
0.0
 40
0.125
 41
0.0
 71
     2
 72
     1
  1
12
  7
SLDTEXTSTYLE1
 73
     1
 44
1.0
  0
MTEXT
  5
1F6
330
1F
100
AcDbEntity
  8
TITLE
100
AcDbMText
 10
58.8857700402
 20
0.4125551099
 30
0.0
 40
0.125
 41
0.0
 71
     2
 72
     1
  1
11
  7
SLDTEXTSTYLE1
 73
     1
 44
1.0
  0
MTEXT
  5
1F7
330
1F
100
AcDbEntity
  8
TITLE
100
AcDbMText
 10
58.8857700402
 20
99.7472007792
 30
0.0
 40
0.125
 41
0.0
 71
     2
 72
     1
  1
11
  7
SLDTEXTSTYLE1
 73
     1
 44
1.0
  0
MTEXT
  5
1F8
330
1F
100
AcDbEntity
  8
TITLE
100
AcDbMText
 10
60.8542739772
 20
0.4125551099
 30
0.0
 40
0.125
 41
0.0
 71
     2
 72
     1
  1
10
  7
SLDTEXTSTYLE1
 73
     1
 44
1.0
  0
MTEXT
  5
1F9
330
1F
100
AcDbEntity
  8
TITLE
100
AcDbMText
 10
60.8542739772
 20
99.7472007792
 30
0.0
 40
0.125
 41
0.0
 71
     2
 72
     1
  1
10
  7
SLDTEXTSTYLE1
 73
     1
 44
1.0
  0
MTEXT
  5
1FA
330
1F
100
AcDbEntity
  8
TITLE
100
AcDbMText
 10
62.8240365949
 20
0.4125551099
 30
0.0
 40
0.125
 41
0.0
 71
     2
 72
     1
  1
9
  7
SLDTEXTSTYLE1
 73
     1
 44
1.0
  0
MTEXT
  5
1FB
330
1F
100
AcDbEntity
  8
TITLE
100
AcDbMText
 10
62.8240365949
 20
99.7472007792
 30
0.0
 40
0.125
 41
0.0
 71
     2
 72
     1
  1
9
  7
SLDTEXTSTYLE1
 73
     1
 44
1.0
  0
MTEXT
  5
1FC
330
1F
100
AcDbEntity
  8
TITLE
100
AcDbMText
 10
64.7925405319
 20
0.4125551099
 30
0.0
 40
0.125
 41
0.0
 71
     2
 72
     1
  1
8
  7
SLDTEXTSTYLE1
 73
     1
 44
1.0
  0
MTEXT
  5
1FD
330
1F
100
AcDbEntity
  8
TITLE
100
AcDbMText
 10
64.7925405319
 20
99.7472007792
 30
0.0
 40
0.125
 41
0.0
 71
     2
 72
     1
  1
8
  7
SLDTEXTSTYLE1
 73
     1
 44
1.0
  0
MTEXT
  5
1FE
330
1F
100
AcDbEntity
  8
TITLE
100
AcDbMText
 10
66.7610444689
 20
0.4125551099
 30
0.0
 40
0.125
 41
0.0
 71
     2
 72
     1
  1
7
  7
SLDTEXTSTYLE1
 73
     1
 44
1.0
  0
MTEXT
  5
1FF
330
1F
100
AcDbEntity
  8
TITLE
100
AcDbMText
 10
66.7610444689
 20
99.7472007792
 30
0.0
 40
0.125
 41
0.0
 71
     2
 72
     1
  1
7
  7
SLDTEXTSTYLE1
 73
     1
 44
1.0
  0
MTEXT
  5
200
330
1F
100
AcDbEntity
  8
TITLE
100
AcDbMText
 10
68.7295484059
 20
0.4125551099
 30
0.0
 40
0.125
 41
0.0
 71
     2
 72
     1
  1
6
  7
SLDTEXTSTYLE1
 73
     1
 44
1.0
  0
MTEXT
  5
201
330
1F
100
AcDbEntity
  8
TITLE
100
AcDbMText
 10
68.7295484059
 20
99.7472007792
 30
0.0
 40
0.125
 41
0.0
 71
     2
 72
     1
  1
6
  7
SLDTEXTSTYLE1
 73
     1
 44
1.0
  0
MTEXT
  5
202
330
1F
100
AcDbEntity
  8
TITLE
100
AcDbMText
 10
70.6980523429
 20
0.4125551099
 30
0.0
 40
0.125
 41
0.0
 71
     2
 72
     1
  1
5
  7
SLDTEXTSTYLE1
 73
     1
 44
1.0
  0
MTEXT
  5
203
330
1F
100
AcDbEntity
  8
TITLE
100
AcDbMText
 10
70.6980523429
 20
99.7472007792
 30
0.0
 40
0.125
 41
0.0
 71
     2
 72
     1
  1
5
  7
SLDTEXTSTYLE1
 73
     1
 44
1.0
  0
MTEXT
  5
204
330
1F
100
AcDbEntity
  8
TITLE
100
AcDbMText
 10
72.6665562799
 20
0.4125551099
 30
0.0
 40
0.125
 41
0.0
 71
     2
 72
     1
  1
4
  7
SLDTEXTSTYLE1
 73
     1
 44
1.0
  0
MTEXT
  5
205
330
1F
100
AcDbEntity
  8
TITLE
100
AcDbMText
 10
72.6665562799
 20
99.7472007792
 30
0.0
 40
0.125
 41
0.0
 71
     2
 72
     1
  1
4
  7
SLDTEXTSTYLE1
 73
     1
 44
1.0
  0
MTEXT
  5
206
330
1F
100
AcDbEntity
  8
TITLE
100
AcDbMText
 10
74.635060217
 20
0.4125551099
 30
0.0
 40
0.125
 41
0.0
 71
     2
 72
     1
  1
3
  7
SLDTEXTSTYLE1
 73
     1
 44
1.0
  0
MTEXT
  5
207
330
1F
100
AcDbEntity
  8
TITLE
100
AcDbMText
 10
74.635060217
 20
99.7472007792
 30
0.0
 40
0.125
 41
0.0
 71
     2
 72
     1
  1
3
  7
SLDTEXTSTYLE1
 73
     1
 44
1.0
  0
MTEXT
  5
208
330
1F
100
AcDbEntity
  8
TITLE
100
AcDbMText
 10
76.603564154
 20
0.4125551099
 30
0.0
 40
0.125
 41
0.0
 71
     2
 72
     1
  1
2
  7
SLDTEXTSTYLE1
 73
     1
 44
1.0
  0
MTEXT
  5
209
330
1F
100
AcDbEntity
  8
TITLE
100
AcDbMText
 10
76.603564154
 20
99.7472007792
 30
0.0
 40
0.125
 41
0.0
 71
     2
 72
     1
  1
2
  7
SLDTEXTSTYLE1
 73
     1
 44
1.0
  0
MTEXT
  5
20A
330
1F
100
AcDbEntity
  8
TITLE
100
AcDbMText
 10
78.7307787209
 20
0.4125551099
 30
0.0
 40
0.125
 41
0.0
 71
     2
 72
     1
  1
1
  7
SLDTEXTSTYLE1
 73
     1
 44
1.0
  0
MTEXT
  5
20B
330
1F
100
AcDbEntity
  8
TITLE
100
AcDbMText
 10
78.7307787209
 20
99.7472007792
 30
0.0
 40
0.125
 41
0.0
 71
     2
 72
     1
  1
1
  7
SLDTEXTSTYLE1
 73
     1
 44
1.0
  0
LINE
  5
20C
330
1F
100
AcDbEntity
  8
0
  6
SLD-Solid
 62
     7
370
    25
100
AcDbLine
 10
8.5663502919
 20
43.701019351
 30
0.0
 11
29.9765261988
 21
43.701019351
 31
0.0
  0
SPLINE
  5
20D
330
1F
100
AcDbEntity
  8
0
  6
SLD-Solid
 62
     7
370
    25
100
AcDbSpline
210
0.0
220
0.0
230
1.0
 70
     8
 71
     3
 72
    12
 73
     8
 74
     0
 42
0.00000001
 43
0.00000001
 40
0.0
 40
0.0
 40
0.0
 40
0.0
 40
0.2357348826315907
 40
0.4715275342014754
 40
0.7073202912751422
 40
0.9431130742660918
 40
1.0
 40
1.0
 40
1.0
 40
1.0
 10
30.03243824532622
 20
43.78001935099018
 30
0.0
 10
30.0280447827371
 20
43.7702840209073
 30
0.0
 10
30.01925678090162
 20
43.75081097501194
 30
0.0
 10
30.00607418809245
 20
43.72534484184959
 30
0.0
 10
29.99289052947962
 20
43.70814187406236
 30
0.0
 10
29.98304119766333
 20
43.70017658275182
 30
0.0
 10
29.97758642082884
 20
43.70170803433298
 30
0.0
 10
29.97652619876551
 20
43.70200569614475
 30
0.0
  0
SPLINE
  5
20E
330
1F
100
AcDbEntity
  8
0
  6
SLD-Solid
 62
     7
370
    25
100
AcDbSpline
210
0.0
220
0.0
230
1.0
 70
     8
 71
     3
 72
    12
 73
     8
 74
     0
 42
0.00000001
 43
0.00000001
 40
0.0
 40
0.0
 40
0.0
 40
0.0
 40
0.2357348826315829
 40
0.4715275342014593
 40
0.7073202912751001
 40
0.9431130742660498
 40
1.0
 40
1.0
 40
1.0
 40
1.0
 10
8.510438245326215
 20
43.78001935099007
 30
0.0
 10
8.514831707915334
 20
43.77028402090718
 30
0.0
 10
8.523619709750811
 20
43.75081097501182
 30
0.0
 10
8.536802302559984
 20
43.72534484184946
 30
0.0
 10
8.54998596117281
 20
43.70814187406227
 30
0.0
 10
8.559835292989108
 20
43.70017658275167
 30
0.0
 10
8.565290069823593
 20
43.70170803433287
 30
0.0
 10
8.566350291886925
 20
43.70200569614463
 30
0.0
  0
LINE
  5
20F
330
1F
100
AcDbEntity
  8
0
  6
SLD-Solid
 62
     7
370
    25
100
AcDbLine
 10
30.0324382453
 20
43.780019351
 30
0.0
 11
30.0324382453
 21
44.6485478342
 31
0.0
  0
LINE
  5
210
330
1F
100
AcDbEntity
  8
0
  6
SLD-Solid
 62
     7
370
    25
100
AcDbLine
 10
30.0324382453
 20
44.6485478342
 30
0.0
 11
30.1114382453
 21
44.6485478342
 31
0.0
  0
LINE
  5
211
330
1F
100
AcDbEntity
  8
0
  6
SLD-Solid
 62
     7
370
    25
100
AcDbLine
 10
30.1114382453
 20
43.780019351
 30
0.0
 11
30.1114382453
 21
44.6485478342
 31
0.0
  0
LINE
  5
212
330
1F
100
AcDbEntity
  8
0
  6
SLD-Solid
 62
     7
370
    25
100
AcDbLine
 10
30.1114382453
 20
43.7485478342
 30
0.0
 11
30.1114382453
 21
43.780019351
 31
0.0
  0
LINE
  5
213
330
1F
100
AcDbEntity
  8
0
  6
SLD-Solid
 62
     7
370
    25
100
AcDbLine
 10
30.0324382453
 20
43.7485478342
 30
0.0
 11
30.0324382453
 21
43.780019351
 31
0.0
  0
LINE
  5
214
330
1F
100
AcDbEntity
  8
0
  6
SLD-Solid
 62
     7
370
    25
100
AcDbLine
 10
30.0324382453
 20
43.7485478342
 30
0.0
 11
30.1114382453
 21
43.7485478342
 31
0.0
  0
LINE
  5
215
330
1F
100
AcDbEntity
  8
0
  6
SLD-Solid
 62
     7
370
    25
100
AcDbLine
 10
8.5104382453
 20
43.780019351
 30
0.0
 11
8.5104382453
 21
44.6485478342
 31
0.0
  0
LINE
  5
216
330
1F
100
AcDbEntity
  8
0
  6
SLD-Solid
 62
     7
370
    25
100
AcDbLine
 10
30.0324382453
 20
44.6485478342
 30
0.0
 11
8.5104382453
 21
44.6485478342
 31
0.0
  0
LINE
  5
217
330
1F
100
AcDbEntity
  8
0
  6
SLD-Solid
 62
     7
370
    25
100
AcDbLine
 10
8.4314382453
 20
43.7485478342
 30
0.0
 11
8.4314382453
 21
43.780019351
 31
0.0
  0
LINE
  5
218
330
1F
100
AcDbEntity
  8
0
  6
SLD-Solid
 62
     7
370
    25
100
AcDbLine
 10
8.4314382453
 20
43.780019351
 30
0.0
 11
8.4314382453
 21
44.6485478342
 31
0.0
  0
LINE
  5
219
330
1F
100
AcDbEntity
  8
0
  6
SLD-Solid
 62
     7
370
    25
100
AcDbLine
 10
8.5104382453
 20
44.6485478342
 30
0.0
 11
8.4314382453
 21
44.6485478342
 31
0.0
  0
LINE
  5
21A
330
1F
100
AcDbEntity
  8
0
  6
SLD-Solid
 62
     7
370
    25
100
AcDbLine
 10
8.5104382453
 20
43.7485478342
 30
0.0
 11
8.5104382453
 21
43.780019351
 31
0.0
  0
LINE
  5
21B
330
1F
100
AcDbEntity
  8
0
  6
SLD-Solid
 62
     7
370
    25
100
AcDbLine
 10
8.5104382453
 20
43.7485478342
 30
0.0
 11
8.4314382453
 21
43.7485478342
 31
0.0
  0
SPLINE
  5
21C
330
1F
100
AcDbEntity
  8
0
  6
SLD-Solid
 62
     7
370
    25
100
AcDbSpline
210
0.0
220
0.0
230
1.0
 70
     8
 71
     3
 72
    13
 73
     9
 74
     0
 42
0.00000001
 43
0.00000001
 40
0.0
 40
0.0
 40
0.0
 40
0.0
 40
0.1259220494261003
 40
0.3401722731188955
 40
0.5544225194287364
 40
0.7686727879052534
 40
0.9829230781025956
 40
1.0
 40
1.0
 40
1.0
 40
1.0
 10
29.9949533050426
 20
43.71196868223899
 30
0.0
 10
29.99991382030524
 20
43.70906804622456
 30
0.0
 10
30.01331441027678
 20
43.70123211954603
 30
0.0
 10
30.03937372726337
 20
43.69976323495181
 30
0.0
 10
30.06811706914422
 20
43.7073001344471
 30
0.0
 10
30.09112844580024
 20
43.72539414245689
 30
0.0
 10
30.10441464557368
 20
43.74226669581507
 30
0.0
 10
30.10624180756166
 20
43.75258936537526
 30
0.0
 10
30.10637669140122
 20
43.7533514003311
 30
0.0
  0
SPLINE
  5
21D
330
1F
100
AcDbEntity
  8
0
  6
SLD-Solid
 62
     7
370
    25
100
AcDbSpline
210
0.0
220
0.0
230
1.0
 70
     8
 71
     3
 72
    13
 73
     9
 74
     0
 42
0.00000001
 43
0.00000001
 40
0.0
 40
0.0
 40
0.0
 40
0.0
 40
0.1259220494260762
 40
0.3401722731188769
 40
0.5544225194287301
 40
0.7686727879052739
 40
0.9829230781026219
 40
1.0
 40
1.0
 40
1.0
 40
1.0
 10
8.54792318560983
 20
43.71196868223886
 30
0.0
 10
8.54296267034719
 20
43.70906804622444
 30
0.0
 10
8.529562080375658
 20
43.70123211954589
 30
0.0
 10
8.503502763389058
 20
43.69976323495169
 30
0.0
 10
8.474759421508212
 20
43.707300134447
 30
0.0
 10
8.451748044852186
 20
43.72539414245679
 30
0.0
 10
8.438461845078756
 20
43.74226669581493
 30
0.0
 10
8.436634683090771
 20
43.75258936537515
 30
0.0
 10
8.436499799251207
 20
43.75335140033098
 30
0.0
  0
LINE
  5
21E
330
1F
100
AcDbEntity
  8
0
  6
SLD-Solid
 62
     7
370
    25
100
AcDbLine
 10
29.6265382453
 20
13.6051473947
 30
0.0
 11
29.3297352158
 21
13.6051473947
 31
0.0
  0
LINE
  5
21F
330
1F
100
AcDbEntity
  8
0
  6
SLD-Solid
 62
     7
370
    25
100
AcDbLine
 10
9.2982412749
 20
13.6051473947
 30
0.0
 11
9.0015382453
 21
13.6051473947
 31
0.0
  0
LINE
  5
220
330
1F
100
AcDbEntity
  8
0
  6
SLD-Solid
 62
     7
370
    25
100
AcDbLine
 10
8.7515382453
 20
13.6051473947
 30
0.0
 11
8.7515382453
 21
13.6351473947
 31
0.0
  0
LINE
  5
221
330
1F
100
AcDbEntity
  8
0
  6
SLD-Solid
 62
     7
370
    25
100
AcDbLine
 10
9.0015382453
 20
13.6051473947
 30
0.0
 11
8.7515382453
 21
13.6051473947
 31
0.0
  0
LINE
  5
222
330
1F
100
AcDbEntity
  8
0
  6
SLD-Solid
 62
     7
370
    25
100
AcDbLine
 10
29.8765382453
 20
13.6351473947
 30
0.0
 11
29.8765382453
 21
13.6051473947
 31
0.0
  0
LINE
  5
223
330
1F
100
AcDbEntity
  8
0
  6
SLD-Solid
 62
     7
370
    25
100
AcDbLine
 10
29.8765382453
 20
13.6051473947
 30
0.0
 11
29.6265382453
 21
13.6051473947
 31
0.0
  0
LINE
  5
224
330
1F
100
AcDbEntity
  8
0
  6
SLD-Solid
 62
     7
370
    25
100
AcDbLine
 10
29.8765382453
 20
13.6535478342
 30
0.0
 11
29.8765382453
 21
13.6351473947
 31
0.0
  0
LINE
  5
225
330
1F
100
AcDbEntity
  8
0
  6
SLD-Solid
 62
     7
370
    25
100
AcDbLine
 10
8.7515382453
 20
13.6351473947
 30
0.0
 11
8.7515382453
 21
13.6535478342
 31
0.0
  0
LINE
  5
226
330
1F
100
AcDbEntity
  8
0
  6
SLD-Solid
 62
     7
370
    25
100
AcDbLine
 10
9.2982679198
 20
13.5751473947
 30
0.0
 11
29.3297085708
 21
13.5751473947
 31
0.0
  0
SPLINE
  5
227
330
1F
100
AcDbEntity
  8
0
  6
SLD-Solid
 62
     7
370
    25
100
AcDbSpline
210
0.0
220
0.0
230
1.0
 70
     8
 71
     3
 72
    11
 73
     7
 74
     0
 42
0.00000001
 43
0.00000001
 40
0.0
 40
0.0
 40
0.0
 40
0.0
 40
0.250000000000004
 40
0.4999999999999981
 40
0.7499999999999999
 40
1.0
 40
1.0
 40
1.0
 40
1.0
 10
9.298223846084344
 20
13.64514739465253
 30
0.0
 10
9.298227518896503
 20
13.6359748015861
 30
0.0
 10
9.298234864520827
 20
13.61762961545322
 30
0.0
 10
9.298245882957312
 20
13.59449146985644
 30
0.0
 10
9.298256901393797
 20
13.57830402493787
 30
0.0
 10
9.29826424701812
 20
13.57619960474764
 30
0.0
 10
9.298267919830279
 20
13.57514739465253
 30
0.0
  0
LINE
  5
228
330
1F
100
AcDbEntity
  8
0
  6
SLD-Solid
 62
     7
370
    25
100
AcDbLine
 10
9.2982238461
 20
13.6451473947
 30
0.0
 11
29.3297526446
 21
13.6451473947
 31
0.0
  0
SPLINE
  5
229
330
1F
100
AcDbEntity
  8
0
  6
SLD-Solid
 62
     7
370
    25
100
AcDbSpline
210
0.0
220
0.0
230
1.0
 70
     8
 71
     3
 72
    11
 73
     7
 74
     0
 42
0.00000001
 43
0.00000001
 40
0.0
 40
0.0
 40
0.0
 40
0.0
 40
0.2500000000000001
 40
0.5000000000000019
 40
0.749999999999996
 40
1.0
 40
1.0
 40
1.0
 40
1.0
 10
29.32970857082215
 20
13.57514739465246
 30
0.0
 10
29.32971224363431
 20
13.57619960474758
 30
0.0
 10
29.32971958925863
 20
13.5783040249378
 30
0.0
 10
29.32973060769512
 20
13.59449146985637
 30
0.0
 10
29.3297416261316
 20
13.61762961545315
 30
0.0
 10
29.32974897175592
 20
13.63597480158603
 30
0.0
 10
29.32975264456809
 20
13.64514739465246
 30
0.0
  0
LINE
  5
22A
330
1F
100
AcDbEntity
  8
0
  6
SLD-Solid
 62
     7
370
    25
100
AcDbLine
 10
29.633427251
 20
13.6535478342
 30
0.0
 11
29.3297573398
 21
13.6535478342
 31
0.0
  0
LINE
  5
22B
330
1F
100
AcDbEntity
  8
0
  6
SLD-Solid
 62
     7
370
    25
100
AcDbLine
 10
9.2982238461
 20
13.6451473947
 30
0.0
 11
9.2982191508
 21
13.6535478342
 31
0.0
  0
LINE
  5
22C
330
1F
100
AcDbEntity
  8
0
  6
SLD-Solid
 62
     7
370
    25
100
AcDbLine
 10
9.2982191508
 20
13.6535478342
 30
0.0
 11
8.9946492397
 21
13.6535478342
 31
0.0
  0
LINE
  5
22D
330
1F
100
AcDbEntity
  8
0
  6
SLD-Solid
 62
     7
370
    25
100
AcDbLine
 10
29.3297573398
 20
13.6535478342
 30
0.0
 11
29.3297526446
 21
13.6451473947
 31
0.0
  0
LINE
  5
22E
330
1F
100
AcDbEntity
  8
0
  6
SLD-Solid
 62
     7
370
    25
100
AcDbLine
 10
8.7146492397
 20
43.701019351
 30
0.0
 11
8.7146492397
 21
13.6535478342
 31
0.0
  0
LINE
  5
22F
330
1F
100
AcDbEntity
  8
0
  6
SLD-Solid
 62
     7
370
    25
100
AcDbLine
 10
8.7146492397
 20
13.6535478342
 30
0.0
 11
8.9946492397
 21
13.6535478342
 31
0.0
  0
LINE
  5
230
330
1F
100
AcDbEntity
  8
0
  6
SLD-Solid
 62
     7
370
    25
100
AcDbLine
 10
29.913427251
 20
43.701019351
 30
0.0
 11
29.913427251
 21
13.6535478342
 31
0.0
  0
LINE
  5
231
330
1F
100
AcDbEntity
  8
0
  6
SLD-Solid
 62
     7
370
    25
100
AcDbLine
 10
29.633427251
 20
13.6535478342
 30
0.0
 11
29.913427251
 21
13.6535478342
 31
0.0
  0
SPLINE
  5
232
330
1F
100
AcDbEntity
  8
0
  6
SLD-Solid
 62
     7
370
    25
100
AcDbSpline
210
0.0
220
0.0
230
1.0
 70
     8
 71
     3
 72
    11
 73
     7
 74
     0
 42
0.00000001
 43
0.00000001
 40
0.0
 40
0.0
 40
0.0
 40
0.0
 40
0.2499999999999557
 40
0.4999999999999875
 40
0.7499999999999777
 40
1.0
 40
1.0
 40
1.0
 40
1.0
 10
8.784649239653724
 20
13.57514739465253
 30
0.0
 10
8.77547664658729
 20
13.57619960474765
 30
0.0
 10
8.75713146045442
 20
13.57830402493787
 30
0.0
 10
8.733993314857631
 20
13.59449146985644
 30
0.0
 10
8.717805869939072
 20
13.61762961545322
 30
0.0
 10
8.715701449748842
 20
13.6359748015861
 30
0.0
 10
8.714649239653726
 20
13.64514739465253
 30
0.0
  0
LINE
  5
233
330
1F
100
AcDbEntity
  8
0
  6
SLD-Solid
 62
     7
370
    25
100
AcDbLine
 10
8.7146492397
 20
13.6535478342
 30
0.0
 11
8.7146492397
 21
13.6451473947
 31
0.0
  0
LINE
  5
234
330
1F
100
AcDbEntity
  8
0
  6
SLD-Solid
 62
     7
370
    25
100
AcDbLine
 10
8.7846492397
 20
13.5751473947
 30
0.0
 11
9.0552222518
 21
13.5751473947
 31
0.0
  0
LINE
  5
235
330
1F
100
AcDbEntity
  8
0
  6
SLD-Solid
 62
     7
370
    25
100
AcDbLine
 10
29.4228542388
 20
13.5751473947
 30
0.0
 11
29.4228542388
 21
13.6051473947
 31
0.0
  0
LINE
  5
236
330
1F
100
AcDbEntity
  8
0
  6
SLD-Solid
 62
     7
370
    25
100
AcDbLine
 10
29.4228542388
 20
13.5751473947
 30
0.0
 11
29.5728542388
 21
13.5751473947
 31
0.0
  0
LINE
  5
237
330
1F
100
AcDbEntity
  8
0
  6
SLD-Solid
 62
     7
370
    25
100
AcDbLine
 10
29.5728542388
 20
13.5751473947
 30
0.0
 11
29.843427251
 21
13.5751473947
 31
0.0
  0
ARC
  5
238
330
1F
100
AcDbEntity
  8
0
  6
SLD-Solid
 62
     7
370
    25
100
AcDbCircle
 10
29.843427251
 20
13.6451473947
 30
0.0
 40
0.0700000000000038
100
AcDbArc
 50
270.0
 51
0.0
  0
LINE
  5
239
330
1F
100
AcDbEntity
  8
0
  6
SLD-Solid
 62
     7
370
    25
100
AcDbLine
 10
29.913427251
 20
13.6451473947
 30
0.0
 11
29.913427251
 21
13.6535478342
 31
0.0
  0
LINE
  5
23A
330
1F
100
AcDbEntity
  8
0
  6
SLD-Solid
 62
     7
370
    25
100
AcDbLine
 10
9.2052222518
 20
13.5751473947
 30
0.0
 11
9.2052222518
 21
13.6051473947
 31
0.0
  0
LINE
  5
23B
330
1F
100
AcDbEntity
  8
0
  6
SLD-Solid
 62
     7
370
    25
100
AcDbLine
 10
9.0552222518
 20
13.5751473947
 30
0.0
 11
9.2052222518
 21
13.5751473947
 31
0.0
  0
LINE
  5
23C
330
1F
100
AcDbEntity
  8
0
  6
SLD-Solid
 62
     7
370
    25
100
AcDbLine
 10
29.9594382453
 20
45.7675557419
 30
0.0
 11
29.9594382453
 21
45.7425557419
 31
0.0
  0
LINE
  5
23D
330
1F
100
AcDbEntity
  8
0
  6
SLD-Solid
 62
     7
370
    25
100
AcDbLine
 10
29.9594382453
 20
45.7425557419
 30
0.0
 11
29.9596382453
 21
45.7425557419
 31
0.0
  0
LINE
  5
23E
330
1F
100
AcDbEntity
  8
0
  6
SLD-Solid
 62
     7
370
    25
100
AcDbLine
 10
8.6686382453
 20
45.7425557419
 30
0.0
 11
8.6684382453
 21
45.7425557419
 31
0.0
  0
LINE
  5
23F
330
1F
100
AcDbEntity
  8
0
  6
SLD-Solid
 62
     7
370
    25
100
AcDbLine
 10
8.6686382453
 20
45.7675557419
 30
0.0
 11
8.6686382453
 21
45.7425557419
 31
0.0
  0
LINE
  5
240
330
1F
100
AcDbEntity
  8
0
  6
SLD-Solid
 62
     7
370
    25
100
AcDbLine
 10
29.9594382453
 20
45.7675557419
 30
0.0
 11
8.6686382453
 21
45.7675557419
 31
0.0
  0
LINE
  5
241
330
1F
100
AcDbEntity
  8
0
  6
SLD-Solid
 62
     7
370
    25
100
AcDbLine
 10
8.6035382453
 20
44.6485478342
 30
0.0
 11
8.6035382453
 21
45.7425557419
 31
0.0
  0
LINE
  5
242
330
1F
100
AcDbEntity
  8
0
  6
SLD-Solid
 62
     7
370
    25
100
AcDbLine
 10
30.0614382453
 20
45.7468450638
 30
0.0
 11
30.0614382453
 21
44.6485478342
 31
0.0
  0
LINE
  5
243
330
1F
100
AcDbEntity
  8
0
  6
SLD-Solid
 62
     7
370
    25
100
AcDbLine
 10
8.6025382453
 20
45.7468450638
 30
0.0
 11
8.6025382453
 21
44.6485478342
 31
0.0
  0
LINE
  5
244
330
1F
100
AcDbEntity
  8
0
  6
SLD-Solid
 62
     7
370
    25
100
AcDbLine
 10
8.5666382453
 20
45.7468450638
 30
0.0
 11
8.5666382453
 21
44.6485478342
 31
0.0
  0
LINE
  5
245
330
1F
100
AcDbEntity
  8
0
  6
SLD-Solid
 62
     7
370
    25
100
AcDbLine
 10
8.6686382453
 20
45.8088891471
 30
0.0
 11
8.6686382453
 21
45.7675557419
 31
0.0
  0
LINE
  5
246
330
1F
100
AcDbEntity
  8
0
  6
SLD-Solid
 62
     7
370
    25
100
AcDbLine
 10
8.6686382453
 20
45.8088891471
 30
0.0
 11
8.6680003986
 21
45.813446972
 31
0.0
  0
LINE
  5
247
330
1F
100
AcDbEntity
  8
0
  6
SLD-Solid
 62
     7
370
    25
100
AcDbLine
 10
8.6680003986
 20
45.813446972
 30
0.0
 11
29.960076092
 21
45.813446972
 31
0.0
  0
LINE
  5
248
330
1F
100
AcDbEntity
  8
0
  6
SLD-Solid
 62
     7
370
    25
100
AcDbLine
 10
29.9594382453
 20
45.8088891471
 30
0.0
 11
29.960076092
 21
45.813446972
 31
0.0
  0
LINE
  5
249
330
1F
100
AcDbEntity
  8
0
  6
SLD-Solid
 62
     7
370
    25
100
AcDbLine
 10
29.9594382453
 20
45.8088891471
 30
0.0
 11
29.9594382453
 21
45.7675557419
 31
0.0
  0
ARC
  5
24A
330
1F
100
AcDbEntity
  8
0
  6
SLD-Solid
 62
     7
370
    25
100
AcDbCircle
 10
29.9867005561
 20
45.8010808998
 30
0.0
 40
0.029356120853035
100
AcDbArc
 50
84.6489422496
 51
155.0868863731
  0
ARC
  5
24B
330
1F
100
AcDbEntity
  8
0
  6
SLD-Solid
 62
     7
370
    25
100
AcDbCircle
 10
8.6413759345
 20
45.8010808998
 30
0.0
 40
0.0293561208530912
100
AcDbArc
 50
24.913113627
 51
95.3510577503
  0
LINE
  5
24C
330
1F
100
AcDbEntity
  8
0
  6
SLD-Solid
 62
     7
370
    25
100
AcDbLine
 10
29.9894382453
 20
45.8303090863
 30
0.0
 11
29.9965382453
 21
45.8303090863
 31
0.0
  0
LINE
  5
24D
330
1F
100
AcDbEntity
  8
0
  6
SLD-Solid
 62
     7
370
    25
100
AcDbLine
 10
8.6386382453
 20
45.8303090863
 30
0.0
 11
8.6315382453
 21
45.8303090863
 31
0.0
  0
LINE
  5
24E
330
1F
100
AcDbEntity
  8
0
  6
SLD-Solid
 62
     7
370
    25
100
AcDbLine
 10
12.8113476172
 20
46.5694385041
 30
0.0
 11
12.8113476172
 21
51.3424092771
 31
0.0
  0
ARC
  5
24F
330
1F
100
AcDbEntity
  8
0
  6
SLD-Solid
 62
     7
370
    25
100
AcDbCircle
 10
12.9207226172
 20
46.591535591
 30
0.0
 40
0.1115848191959797
100
AcDbArc
 50
191.421753659
 51
278.0494669755
  0
LINE
  5
250
330
1F
100
AcDbEntity
  8
0
  6
SLD-Solid
 62
     7
370
    25
100
AcDbLine
 10
12.9363476172
 20
46.4810501565
 30
0.0
 11
25.6917288735
 21
46.4810501565
 31
0.0
  0
ARC
  5
251
330
1F
100
AcDbEntity
  8
0
  6
SLD-Solid
 62
     7
370
    25
100
AcDbCircle
 10
25.7073538735
 20
46.591535591
 30
0.0
 40
0.1115848191959794
100
AcDbArc
 50
261.9505330245
 51
348.578246341
  0
LINE
  5
252
330
1F
100
AcDbEntity
  8
0
  6
SLD-Solid
 62
     7
370
    25
100
AcDbLine
 10
25.8167288735
 20
46.5694385041
 30
0.0
 11
25.8167288735
 21
51.3424092771
 31
0.0
  0
ARC
  5
253
330
1F
100
AcDbEntity
  8
0
  6
SLD-Solid
 62
     7
370
    25
100
AcDbCircle
 10
25.7073538735
 20
51.3203121902
 30
0.0
 40
0.111584819195999
100
AcDbArc
 50
11.421753659
 51
98.0494669755
  0
LINE
  5
254
330
1F
100
AcDbEntity
  8
0
  6
SLD-Solid
 62
     7
370
    25
100
AcDbLine
 10
25.6917288735
 20
51.4307976248
 30
0.0
 11
12.9363476172
 21
51.4307976248
 31
0.0
  0
ARC
  5
255
330
1F
100
AcDbEntity
  8
0
  6
SLD-Solid
 62
     7
370
    25
100
AcDbCircle
 10
12.9207226172
 20
51.3203121902
 30
0.0
 40
0.1115848191959615
100
AcDbArc
 50
81.9505330245
 51
168.578246341
  0
ARC
  5
256
330
1F
100
AcDbEntity
  8
0
  6
SLD-Solid
 62
     7
370
    25
100
AcDbCircle
 10
30.0046507453
 20
45.7729450487
 30
0.0
 40
0.0579348381265544
100
AcDbArc
 50
11.421753659
 51
98.0494669755
  0
ARC
  5
257
330
1F
100
AcDbEntity
  8
0
  6
SLD-Solid
 62
     7
370
    25
100
AcDbCircle
 10
30.0046507453
 20
52.0231130497
 30
0.0
 40
0.0579348381265502
100
AcDbArc
 50
11.421753659
 51
98.0494669755
  0
LINE
  5
258
330
1F
100
AcDbEntity
  8
0
  6
SLD-Solid
 62
     7
370
    25
100
AcDbLine
 10
30.0614382453
 20
45.7844178562
 30
0.0
 11
30.0614382453
 21
52.0345858572
 31
0.0
  0
ARC
  5
259
330
1F
100
AcDbEntity
  8
0
  6
SLD-Solid
 62
     7
370
    25
100
AcDbCircle
 10
8.6234257453
 20
52.0231130497
 30
0.0
 40
0.0579348381265456
100
AcDbArc
 50
81.9505330245
 51
168.578246341
  0
ARC
  5
25A
330
1F
100
AcDbEntity
  8
0
  6
SLD-Solid
 62
     7
370
    25
100
AcDbCircle
 10
8.6234257453
 20
45.7729450487
 30
0.0
 40
0.0579348381265519
100
AcDbArc
 50
81.9505330245
 51
168.578246341
  0
LINE
  5
25B
330
1F
100
AcDbEntity
  8
0
  6
SLD-Solid
 62
     7
370
    25
100
AcDbLine
 10
8.5666382453
 20
45.7844178562
 30
0.0
 11
8.5666382453
 21
52.0345858572
 31
0.0
  0
LINE
  5
25C
330
1F
100
AcDbEntity
  8
0
  6
SLD-Solid
 62
     7
370
    25
100
AcDbLine
 10
30.0614382453
 20
45.7822004029
 30
0.0
 11
30.0614382453
 21
45.7468450638
 31
0.0
  0
LINE
  5
25D
330
1F
100
AcDbEntity
  8
0
  6
SLD-Solid
 62
     7
370
    25
100
AcDbLine
 10
8.5666382453
 20
45.7822004029
 30
0.0
 11
8.5666382453
 21
45.7468450638
 31
0.0
  0
LINE
  5
25E
330
1F
100
AcDbEntity
  8
0
  6
SLD-Solid
 62
     7
370
    25
100
AcDbLine
 10
30.0614382453
 20
45.7822004029
 30
0.0
 11
30.0614382453
 21
45.7844178562
 31
0.0
  0
LINE
  5
25F
330
1F
100
AcDbEntity
  8
0
  6
SLD-Solid
 62
     7
370
    25
100
AcDbLine
 10
8.5666382453
 20
45.7822004029
 30
0.0
 11
8.5666382453
 21
45.7844178562
 31
0.0
  0
ARC
  5
260
330
1F
100
AcDbEntity
  8
0
  6
SLD-Solid
 62
     7
370
    25
100
AcDbCircle
 10
25.7073538735
 20
51.2949270568
 30
0.0
 40
0.1115848191960093
100
AcDbArc
 50
11.421753659
 51
98.0494669755
  0
ARC
  5
261
330
1F
100
AcDbEntity
  8
0
  6
SLD-Solid
 62
     7
370
    25
100
AcDbCircle
 10
12.9207226172
 20
51.2949270568
 30
0.0
 40
0.1115848191959993
100
AcDbArc
 50
81.9505330245
 51
168.578246341
  0
LINE
  5
262
330
1F
100
AcDbEntity
  8
0
  6
SLD-Solid
 62
     7
370
    25
100
AcDbLine
 10
25.6917288735
 20
51.4054124913
 30
0.0
 11
12.9363476172
 21
51.4054124913
 31
0.0
  0
LINE
  5
263
330
1F
100
AcDbEntity
  8
0
  6
SLD-Solid
 62
     7
370
    25
100
AcDbLine
 10
8.6686382453
 20
52.1174376224
 30
0.0
 11
29.9594382453
 21
52.1174376224
 31
0.0
  0
LINE
  5
264
330
1F
100
AcDbEntity
  8
0
  6
SLD-Solid
 62
     7
370
    25
100
AcDbLine
 10
30.0614382453
 20
52.0378929615
 30
0.0
 11
30.0614382453
 21
52.0345858572
 31
0.0
  0
LINE
  5
265
330
1F
100
AcDbEntity
  8
0
  6
SLD-Solid
 62
     7
370
    25
100
AcDbLine
 10
8.5666382453
 20
52.0378929615
 30
0.0
 11
8.5666382453
 21
52.0345858572
 31
0.0
  0
LINE
  5
266
330
1F
100
AcDbEntity
  8
0
  6
SLD-Solid
 62
     7
370
    25
100
AcDbLine
 10
30.0562666159
 20
52.0525376224
 30
0.0
 11
30.0614382453
 21
52.0525376224
 31
0.0
  0
LINE
  5
267
330
1F
100
AcDbEntity
  8
0
  6
SLD-Solid
 62
     7
370
    25
100
AcDbLine
 10
30.0614382453
 20
52.0525376224
 30
0.0
 11
30.0614382453
 21
52.0378929615
 31
0.0
  0
LINE
  5
268
330
1F
100
AcDbEntity
  8
0
  6
SLD-Solid
 62
     7
370
    25
100
AcDbLine
 10
8.5718098748
 20
52.0525376224
 30
0.0
 11
8.5666382453
 21
52.0525376224
 31
0.0
  0
LINE
  5
269
330
1F
100
AcDbEntity
  8
0
  6
SLD-Solid
 62
     7
370
    25
100
AcDbLine
 10
8.5666382453
 20
52.0525376224
 30
0.0
 11
8.5666382453
 21
52.0378929615
 31
0.0
  0
ARC
  5
26A
330
1F
100
AcDbEntity
  8
0
  6
SLD-Solid
 62
     7
370
    25
100
AcDbCircle
 10
29.9596382453
 20
52.0525376224
 30
0.0
 40
0.064899999999997
100
AcDbArc
 50
22.6170601229
 51
90.0
  0
ARC
  5
26B
330
1F
100
AcDbEntity
  8
0
  6
SLD-Solid
 62
     7
370
    25
100
AcDbCircle
 10
8.6684382453
 20
52.0525376224
 30
0.0
 40
0.0649000000000086
100
AcDbArc
 50
90.0
 51
157.3829398724
  0
LINE
  5
26C
330
1F
100
AcDbEntity
  8
0
  6
SLD-Solid
 62
     7
370
    25
100
AcDbLine
 10
29.9596382453
 20
52.1174376224
 30
0.0
 11
29.9594382453
 21
52.1174376224
 31
0.0
  0
LINE
  5
26D
330
1F
100
AcDbEntity
  8
0
  6
SLD-Solid
 62
     7
370
    25
100
AcDbLine
 10
8.6684382453
 20
52.1174376224
 30
0.0
 11
8.6686382453
 21
52.1174376224
 31
0.0
  0
LINE
  5
26E
330
1F
100
AcDbEntity
  8
0
  6
SLD-Solid
 62
     8
370
    25
100
AcDbLine
 10
29.633427251
 20
43.701019351
 30
0.0
 11
29.633427251
 21
13.6535478342
 31
0.0
  0
LINE
  5
26F
330
1F
100
AcDbEntity
  8
0
  6
SLD-Solid
 62
     8
370
    25
100
AcDbLine
 10
8.9946492397
 20
43.701019351
 30
0.0
 11
8.9946492397
 21
13.6535478342
 31
0.0
  0
LINE
  5
270
330
1F
100
AcDbEntity
  8
0
  6
SLD-Solid
 62
     8
370
    25
100
AcDbLine
 10
29.9596382453
 20
44.6485478342
 30
0.0
 11
29.9596382453
 21
45.7425557419
 31
0.0
  0
LINE
  5
271
330
1F
100
AcDbEntity
  8
0
  6
SLD-Solid
 62
     8
370
    25
100
AcDbLine
 10
30.0614382453
 20
52.0378929615
 30
0.0
 11
30.0612695061
 21
52.0378929615
 31
0.0
  0
LINE
  5
272
330
1F
100
AcDbEntity
  8
0
  6
SLD-Solid
 62
     8
370
    25
100
AcDbLine
 10
8.5666382453
 20
52.0378929615
 30
0.0
 11
8.5668069845
 21
52.0378929615
 31
0.0
  0
LINE
  5
273
330
1F
100
AcDbEntity
  8
NOTES
100
AcDbLine
 10
3.0136010037
 20
6.9559238906
 30
0.0
 11
76.9756710377
 21
6.9559238906
 31
0.0
  0
DIMENSION
  5
274
330
1F
100
AcDbEntity
  8
DIMS
100
AcDbDimension
  2
_D
 10
6.5377830503
 20
6.9559238906
 30
0.0
 11
6.5377830503
 21
28.1433183115
 31
0.0
 70
   160
  1
48" (1220mm) Max. height above floor to center \Pof inlet door for barrier free mounting
 71
     1
 42
-1.0
  3
SLDDIMSTYLE0
100
AcDbAlignedDimension
 13
12.8113476172
 23
48.9559238906
 33
0.0
 14
3.0136010037
 24
6.9559238906
 34
0.0
 50
90.0
100
AcDbRotatedDimension
  0
DIMENSION
  5
286
330
1F
100
AcDbEntity
  8
DIMS
100
AcDbDimension
  2
_D_1
 10
6.5377830503
 20
52.0984288525
 30
0.0
 11
6.5377830503
 21
50.4121697596
 31
0.0
 70
   160
  1
<>
 71
     2
 42
-1.0
  3
SLDDIMSTYLE1
100
AcDbAlignedDimension
 13
12.8113476172
 23
48.9559238906
 33
0.0
 14
8.6682815589
 24
52.0984288525
 34
0.0
 50
90.0
100
AcDbRotatedDimension
  0
DIMENSION
  5
296
330
1F
100
AcDbEntity
  8
DIMS
100
AcDbDimension
  2
_D_2
 10
30.1114382453
 20
54.5860197403
 30
0.0
 11
19.1863986953
 21
54.5860197403
 31
0.0
 70
   160
  1
<>
 71
     2
 42
-1.0
  3
SLDDIMSTYLE1
100
AcDbAlignedDimension
 13
8.4314382453
 23
44.6485478342
 33
0.0
 14
30.1114382453
 24
44.6485478342
 34
0.0
 50
0.0
100
AcDbRotatedDimension
  0
MTEXT
  5
2A5
330
1F
100
AcDbEntity
  8
NOTES
100
AcDbMText
 10
3.1669095924
 20
8.0308597858
 30
0.0
 40
0.75
 41
0.0
 71
     1
 72
     1
  1
Floor
  7
SLDTEXTSTYLE1
 73
     1
 44
1.0
  0
LINE
  5
2A6
330
1F
100
AcDbEntity
  8
0
  6
SLD-Solid
 62
     7
370
    25
100
AcDbLine
 10
38.9591973163
 20
43.701019351
 30
0.0
 11
46.6442854314
 21
43.701019351
 31
0.0
  0
LINE
  5
2A7
330
1F
100
AcDbEntity
  8
0
  6
SLD-Solid
 62
     7
370
    25
100
AcDbLine
 10
46.8075365923
 20
38.1970214273
 30
0.0
 11
46.8985360873
 21
38.2880209223
 31
0.0
  0
LINE
  5
2A8
330
1F
100
AcDbEntity
  8
0
  6
SLD-Solid
 62
     7
370
    25
100
AcDbLine
 10
46.8985360873
 20
39.0710747461
 30
0.0
 11
46.8075365923
 21
39.1620742411
 31
0.0
  0
LINE
  5
2A9
330
1F
100
AcDbEntity
  8
0
  6
SLD-Solid
 62
     7
370
    25
100
AcDbLine
 10
46.8075365923
 20
27.0720214273
 30
0.0
 11
46.8985360873
 21
27.1630209223
 31
0.0
  0
LINE
  5
2AA
330
1F
100
AcDbEntity
  8
0
  6
SLD-Solid
 62
     7
370
    25
100
AcDbLine
 10
46.8985360873
 20
27.9460747461
 30
0.0
 11
46.8075365923
 21
28.0370742411
 31
0.0
  0
ARC
  5
2AB
330
1F
100
AcDbEntity
  8
0
  6
SLD-Solid
 62
     7
370
    25
100
AcDbCircle
 10
46.8886365923
 20
39.0611752512
 30
0.0
 40
0.0139999999999958
100
AcDbArc
 50
0.0
 51
45.0
  0
ARC
  5
2AC
330
1F
100
AcDbEntity
  8
0
  6
SLD-Solid
 62
     7
370
    25
100
AcDbCircle
 10
46.8886365923
 20
38.2979204172
 30
0.0
 40
0.0139999999999958
100
AcDbArc
 50
315.0
 51
0.0
  0
ARC
  5
2AD
330
1F
100
AcDbEntity
  8
0
  6
SLD-Solid
 62
     7
370
    25
100
AcDbCircle
 10
46.8886365923
 20
27.9361752512
 30
0.0
 40
0.0139999999999958
100
AcDbArc
 50
0.0
 51
45.0
  0
ARC
  5
2AE
330
1F
100
AcDbEntity
  8
0
  6
SLD-Solid
 62
     7
370
    25
100
AcDbCircle
 10
46.8886365923
 20
27.1729204172
 30
0.0
 40
0.0139999999999958
100
AcDbArc
 50
315.0
 51
0.0
  0
LINE
  5
2AF
330
1F
100
AcDbEntity
  8
0
  6
SLD-Solid
 62
     7
370
    25
100
AcDbLine
 10
46.6442854314
 20
43.780019351
 30
0.0
 11
46.6442854314
 21
43.701019351
 31
0.0
  0
SPLINE
  5
2B0
330
1F
100
AcDbEntity
  8
0
  6
SLD-Solid
 62
     7
370
    25
100
AcDbSpline
210
0.0
220
0.0
230
1.0
 70
     8
 71
     3
 72
    12
 73
     8
 74
     0
 42
0.00000001
 43
0.00000001
 40
0.0
 40
0.0
 40
0.0
 40
0.0
 40
0.0537397903251601
 40
0.289540465107595
 40
0.525341164286348
 40
0.7611418873707225
 40
0.9999999999999999
 40
0.9999999999999999
 40
0.9999999999999999
 40
0.9999999999999999
 10
38.95919731631183
 20
43.70196726888518
 30
0.0
 10
38.95819578171955
 20
43.70167831506822
 30
0.0
 10
38.95279969085436
 20
43.70012148311835
 30
0.0
 10
38.94300907987821
 20
43.70797782522875
 30
0.0
 10
38.92982526180278
 20
43.72504780484887
 30
0.0
 10
38.91658517401093
 20
43.75055041008245
 30
0.0
 10
38.9077376752429
 20
43.77015427963799
 30
0.0
 10
38.90328543144543
 20
43.78001935099018
 30
0.0
  0
LINE
  5
2B1
330
1F
100
AcDbEntity
  8
0
  6
SLD-Solid
 62
     7
370
    25
100
AcDbLine
 10
46.6442854314
 20
44.6485478342
 30
0.0
 11
38.9032854314
 21
44.6485478342
 31
0.0
  0
LINE
  5
2B2
330
1F
100
AcDbEntity
  8
0
  6
SLD-Solid
 62
     7
370
    25
100
AcDbLine
 10
46.6442854314
 20
43.780019351
 30
0.0
 11
46.6442854314
 21
44.6485478342
 31
0.0
  0
LINE
  5
2B3
330
1F
100
AcDbEntity
  8
0
  6
SLD-Solid
 62
     7
370
    25
100
AcDbLine
 10
38.8242854314
 20
43.780019351
 30
0.0
 11
38.8242854314
 21
44.6485478342
 31
0.0
  0
LINE
  5
2B4
330
1F
100
AcDbEntity
  8
0
  6
SLD-Solid
 62
     7
370
    25
100
AcDbLine
 10
38.8242854314
 20
44.6485478342
 30
0.0
 11
38.9032854314
 21
44.6485478342
 31
0.0
  0
LINE
  5
2B5
330
1F
100
AcDbEntity
  8
0
  6
SLD-Solid
 62
     7
370
    25
100
AcDbLine
 10
38.8242854314
 20
43.7485478342
 30
0.0
 11
38.9032854314
 21
43.7485478342
 31
0.0
  0
LINE
  5
2B6
330
1F
100
AcDbEntity
  8
0
  6
SLD-Solid
 62
     7
370
    25
100
AcDbLine
 10
38.8242854314
 20
43.7485478342
 30
0.0
 11
38.8242854314
 21
43.780019351
 31
0.0
  0
SPLINE
  5
2B7
330
1F
100
AcDbEntity
  8
0
  6
SLD-Solid
 62
     7
370
    25
100
AcDbSpline
210
0.0
220
0.0
230
1.0
 70
     8
 71
     3
 72
    12
 73
     8
 74
     0
 42
0.00000001
 43
0.00000001
 40
0.0
 40
0.0
 40
0.0
 40
0.0
 40
0.1968993711813305
 40
0.419866192103677
 40
0.642833037533537
 40
0.8657999065005965
 40
1.0
 40
1.0
 40
1.0
 40
1.0
 10
38.8314300136177
 20
43.74854783420999
 30
0.0
 10
38.83544122204561
 20
43.740886751592
 30
0.0
 10
38.84399468160343
 20
43.72455033788533
 30
0.0
 10
38.86759262972996
 20
43.70759894496828
 30
0.0
 10
38.89586244891539
 20
43.69975889035457
 30
0.0
 10
38.92216712931354
 20
43.7011725046277
 30
0.0
 10
38.93571212454524
 20
43.70902040344654
 30
0.0
 10
38.94080145199588
 20
43.71196913293705
 30
0.0
  0
LINE
  5
2B8
330
1F
100
AcDbEntity
  8
0
  6
SLD-Solid
 62
     7
370
    25
100
AcDbLine
 10
46.9026365923
 20
39.0611752512
 30
0.0
 11
46.9026365923
 21
38.2979204172
 31
0.0
  0
LINE
  5
2B9
330
1F
100
AcDbEntity
  8
0
  6
SLD-Solid
 62
     7
370
    25
100
AcDbLine
 10
46.9026365923
 20
27.9361752512
 30
0.0
 11
46.9026365923
 21
27.1729204172
 31
0.0
  0
LINE
  5
2BA
330
1F
100
AcDbEntity
  8
0
  6
SLD-Solid
 62
     7
370
    25
100
AcDbLine
 10
39.5184921041
 20
13.6051473947
 30
0.0
 11
39.2684921041
 21
13.6051473947
 31
0.0
  0
LINE
  5
2BB
330
1F
100
AcDbEntity
  8
0
  6
SLD-Solid
 62
     7
370
    25
100
AcDbLine
 10
39.5184921041
 20
13.6051473947
 30
0.0
 11
39.8034780819
 21
13.6051473947
 31
0.0
  0
LINE
  5
2BC
330
1F
100
AcDbEntity
  8
0
  6
SLD-Solid
 62
     7
370
    25
100
AcDbLine
 10
46.6730916646
 20
13.6051473947
 30
0.0
 11
46.7755365923
 21
13.6051473947
 31
0.0
  0
LINE
  5
2BD
330
1F
100
AcDbEntity
  8
0
  6
SLD-Solid
 62
     7
370
    25
100
AcDbLine
 10
46.8075365923
 20
14.3991918828
 30
0.0
 11
46.8375365923
 21
14.3991918828
 31
0.0
  0
LINE
  5
2BE
330
1F
100
AcDbEntity
  8
0
  6
SLD-Solid
 62
     7
370
    25
100
AcDbLine
 10
46.8375365923
 20
14.3991918828
 30
0.0
 11
46.8375365923
 21
14.3491918828
 31
0.0
  0
LINE
  5
2BF
330
1F
100
AcDbEntity
  8
0
  6
SLD-Solid
 62
     7
370
    25
100
AcDbLine
 10
46.8375365923
 20
13.6671473947
 30
0.0
 11
46.8375365923
 21
14.3491918828
 31
0.0
  0
ARC
  5
2C0
330
1F
100
AcDbEntity
  8
0
  6
SLD-Solid
 62
     7
370
    25
100
AcDbCircle
 10
46.7755365923
 20
13.6671473947
 30
0.0
 40
0.0620000000000012
100
AcDbArc
 50
270.0
 51
0.0
  0
LINE
  5
2C1
330
1F
100
AcDbEntity
  8
0
  6
SLD-Solid
 62
     7
370
    25
100
AcDbLine
 10
46.7375365923
 20
13.7785478342
 30
0.0
 11
46.7375365923
 21
43.7785478342
 31
0.0
  0
LINE
  5
2C2
330
1F
100
AcDbEntity
  8
0
  6
SLD-Solid
 62
     7
370
    25
100
AcDbLine
 10
46.7375365923
 20
13.7785478342
 30
0.0
 11
46.6930916646
 21
13.7785478342
 31
0.0
  0
ARC
  5
2C3
330
1F
100
AcDbEntity
  8
0
  6
SLD-Solid
 62
     7
370
    25
100
AcDbCircle
 10
46.6930916646
 20
13.7585478342
 30
0.0
 40
0.0199999999999978
100
AcDbArc
 50
90.0
 51
180.0
  0
LINE
  5
2C4
330
1F
100
AcDbEntity
  8
0
  6
SLD-Solid
 62
     7
370
    25
100
AcDbLine
 10
46.6730916646
 20
13.7585478342
 30
0.0
 11
46.6730916646
 21
13.6451473947
 31
0.0
  0
LINE
  5
2C5
330
1F
100
AcDbEntity
  8
0
  6
SLD-Solid
 62
     7
370
    25
100
AcDbLine
 10
39.8034780819
 20
13.6451473947
 30
0.0
 11
39.8034780819
 21
13.6535478342
 31
0.0
  0
LINE
  5
2C6
330
1F
100
AcDbEntity
  8
0
  6
SLD-Solid
 62
     7
370
    25
100
AcDbLine
 10
39.8034780819
 20
13.6535478342
 30
0.0
 11
39.4998081707
 21
13.6535478342
 31
0.0
  0
LINE
  5
2C7
330
1F
100
AcDbEntity
  8
0
  6
SLD-Solid
 62
     7
370
    25
100
AcDbLine
 10
39.2198081707
 20
43.701019351
 30
0.0
 11
39.2198081707
 21
13.6535478342
 31
0.0
  0
LINE
  5
2C8
330
1F
100
AcDbEntity
  8
0
  6
SLD-Solid
 62
     7
370
    25
100
AcDbLine
 10
39.2198081707
 20
13.6535478342
 30
0.0
 11
39.4998081707
 21
13.6535478342
 31
0.0
  0
LINE
  5
2C9
330
1F
100
AcDbEntity
  8
0
  6
SLD-Solid
 62
     7
370
    25
100
AcDbLine
 10
46.8075365923
 20
14.3962531353
 30
0.0
 11
46.8075365923
 21
43.7785478342
 31
0.0
  0
LINE
  5
2CA
330
1F
100
AcDbEntity
  8
0
  6
SLD-Solid
 62
     7
370
    25
100
AcDbLine
 10
46.7375365923
 20
13.7785478342
 30
0.0
 11
46.8075365923
 21
13.7785478342
 31
0.0
  0
LINE
  5
2CB
330
1F
100
AcDbEntity
  8
0
  6
SLD-Solid
 62
     7
370
    25
100
AcDbLine
 10
46.8075365923
 20
43.7785478342
 30
0.0
 11
46.7460471764
 21
43.7785478342
 31
0.0
  0
LINE
  5
2CC
330
1F
100
AcDbEntity
  8
0
  6
SLD-Solid
 62
     7
370
    25
100
AcDbLine
 10
39.8034780819
 20
13.5751473947
 30
0.0
 11
46.6730916646
 21
13.5751473947
 31
0.0
  0
LINE
  5
2CD
330
1F
100
AcDbEntity
  8
0
  6
SLD-Solid
 62
     7
370
    25
100
AcDbLine
 10
39.8034780819
 20
13.6451473947
 30
0.0
 11
39.8034780819
 21
13.5751473947
 31
0.0
  0
LINE
  5
2CE
330
1F
100
AcDbEntity
  8
0
  6
SLD-Solid
 62
     7
370
    25
100
AcDbLine
 10
46.6730916646
 20
13.5751473947
 30
0.0
 11
46.6730916646
 21
13.6451473947
 31
0.0
  0
SPLINE
  5
2CF
330
1F
100
AcDbEntity
  8
0
  6
SLD-Solid
 62
     7
370
    25
100
AcDbSpline
210
0.0
220
0.0
230
1.0
 70
     8
 71
     3
 72
    11
 73
     7
 74
     0
 42
0.00000001
 43
0.00000001
 40
0.0
 40
0.0
 40
0.0
 40
0.0
 40
0.2500000000000001
 40
0.5000000000000019
 40
0.749999999999996
 40
1.0
 40
1.0
 40
1.0
 40
1.0
 10
39.28980817071901
 20
13.57514739465246
 30
0.0
 10
39.28063557765258
 20
13.57619960474758
 30
0.0
 10
39.26229039151971
 20
13.5783040249378
 30
0.0
 10
39.23915224592292
 20
13.59449146985637
 30
0.0
 10
39.22296480100436
 20
13.61762961545315
 30
0.0
 10
39.22086038081412
 20
13.63597480158603
 30
0.0
 10
39.21980817071901
 20
13.64514739465246
 30
0.0
  0
LINE
  5
2D0
330
1F
100
AcDbEntity
  8
0
  6
SLD-Solid
 62
     7
370
    25
100
AcDbLine
 10
39.2198081707
 20
13.6535478342
 30
0.0
 11
39.2198081707
 21
13.6451473947
 31
0.0
  0
LINE
  5
2D1
330
1F
100
AcDbEntity
  8
0
  6
SLD-Solid
 62
     7
370
    25
100
AcDbLine
 10
39.2898081707
 20
13.5751473947
 30
0.0
 11
39.5603811829
 21
13.5751473947
 31
0.0
  0
LINE
  5
2D2
330
1F
100
AcDbEntity
  8
0
  6
SLD-Solid
 62
     7
370
    25
100
AcDbLine
 10
39.7103811829
 20
13.5751473947
 30
0.0
 11
39.7103811829
 21
13.6051473947
 31
0.0
  0
LINE
  5
2D3
330
1F
100
AcDbEntity
  8
0
  6
SLD-Solid
 62
     7
370
    25
100
AcDbLine
 10
39.5603811829
 20
13.5751473947
 30
0.0
 11
39.7103811829
 21
13.5751473947
 31
0.0
  0
LINE
  5
2D4
330
1F
100
AcDbEntity
  8
0
  6
SLD-Solid
 62
     7
370
    25
100
AcDbLine
 10
46.8076365923
 20
14.3991918828
 30
0.0
 11
46.8076365923
 21
27.0721214273
 31
0.0
  0
LINE
  5
2D5
330
1F
100
AcDbEntity
  8
0
  6
SLD-Solid
 62
     7
370
    25
100
AcDbLine
 10
46.8076365923
 20
28.0369742411
 30
0.0
 11
46.8076365923
 21
38.1971214273
 31
0.0
  0
LINE
  5
2D6
330
1F
100
AcDbEntity
  8
0
  6
SLD-Solid
 62
     7
370
    25
100
AcDbLine
 10
46.8076365923
 20
39.1619742411
 30
0.0
 11
46.8076365923
 21
43.6285478342
 31
0.0
  0
LINE
  5
2D7
330
1F
100
AcDbEntity
  8
0
  6
SLD-Solid
 62
     7
370
    25
100
AcDbLine
 10
46.8076365923
 20
43.7785478342
 30
0.0
 11
46.8075365923
 21
43.7785478342
 31
0.0
  0
LINE
  5
2D8
330
1F
100
AcDbEntity
  8
0
  6
SLD-Solid
 62
     7
370
    25
100
AcDbLine
 10
46.8076365923
 20
43.6285478342
 30
0.0
 11
46.8076365923
 21
43.7785478342
 31
0.0
  0
LINE
  5
2D9
330
1F
100
AcDbEntity
  8
0
  6
SLD-Solid
 62
     7
370
    25
100
AcDbLine
 10
46.6731916646
 20
13.5751473947
 30
0.0
 11
46.6731916646
 21
13.6051473947
 31
0.0
  0
LINE
  5
2DA
330
1F
100
AcDbEntity
  8
0
  6
SLD-Solid
 62
     7
370
    25
100
AcDbLine
 10
46.6730916646
 20
13.5751473947
 30
0.0
 11
46.6731916646
 21
13.5751473947
 31
0.0
  0
LINE
  5
2DB
330
1F
100
AcDbEntity
  8
0
  6
SLD-Solid
 62
     7
370
    25
100
AcDbLine
 10
39.8034268509
 20
13.5751473947
 30
0.0
 11
39.8034780819
 21
13.5751473947
 31
0.0
  0
LINE
  5
2DC
330
1F
100
AcDbEntity
  8
0
  6
SLD-Solid
 62
     7
370
    25
100
AcDbLine
 10
46.6731916646
 20
13.6451473947
 30
0.0
 11
46.6731916646
 21
13.6351473947
 31
0.0
  0
LINE
  5
2DD
330
1F
100
AcDbEntity
  8
0
  6
SLD-Solid
 62
     7
370
    25
100
AcDbLine
 10
39.8033899753
 20
13.6351473947
 30
0.0
 11
39.8033827771
 21
13.6451473947
 31
0.0
  0
SPLINE
  5
2DE
330
1F
100
AcDbEntity
  8
0
  6
SLD-Solid
 62
     7
370
    25
100
AcDbSpline
210
0.0
220
0.0
230
1.0
 70
     8
 71
     3
 72
    10
 73
     6
 74
     0
 42
0.00000001
 43
0.00000001
 40
0.0
 40
0.0
 40
0.0
 40
0.0
 40
0.4135284243507527
 40
0.8270568487016314
 40
1.0
 40
1.0
 40
1.0
 40
1.0
 10
39.80342685089557
 20
13.57514739465253
 30
0.0
 10
39.80342317808341
 20
13.57626655297332
 30
0.0
 10
39.80341583245909
 20
13.57850486961488
 30
0.0
 10
39.80340695081531
 20
13.59074362648498
 30
0.0
 10
39.80340174198368
 20
13.60186719350674
 30
0.0
 10
39.80340020596422
 20
13.60514739465254
 30
0.0
  0
LINE
  5
2DF
330
1F
100
AcDbEntity
  8
0
  6
SLD-Solid
 62
     7
370
    25
100
AcDbLine
 10
39.8033868904
 20
13.6351473947
 30
0.0
 11
39.8033827771
 21
13.6451473947
 31
0.0
  0
ARC
  5
2E0
330
1F
100
AcDbEntity
  8
0
  6
SLD-Solid
 62
     7
370
    25
100
AcDbCircle
 10
46.6931916646
 20
13.7585478342
 30
0.0
 40
0.0200000000000102
100
AcDbArc
 50
90.0
 51
180.0
  0
LINE
  5
2E1
330
1F
100
AcDbEntity
  8
0
  6
SLD-Solid
 62
     7
370
    25
100
AcDbLine
 10
46.6731916646
 20
13.6451473947
 30
0.0
 11
46.6731916646
 21
13.7585478342
 31
0.0
  0
LINE
  5
2E2
330
1F
100
AcDbEntity
  8
0
  6
SLD-Solid
 62
     7
370
    25
100
AcDbLine
 10
39.8033780819
 20
13.6535478342
 30
0.0
 11
39.8033827771
 21
13.6451473947
 31
0.0
  0
LINE
  5
2E3
330
1F
100
AcDbEntity
  8
0
  6
SLD-Solid
 62
     7
370
    25
100
AcDbLine
 10
38.9560475458
 20
45.7844178562
 30
0.0
 11
45.2062155467
 21
52.0345858572
 31
0.0
  0
LINE
  5
2E4
330
1F
100
AcDbEntity
  8
0
  6
SLD-Solid
 62
     7
370
    25
100
AcDbLine
 10
45.209522651
 20
52.0378929615
 30
0.0
 11
45.2062155467
 21
52.0345858572
 31
0.0
  0
ARC
  5
2E5
330
1F
100
AcDbEntity
  8
0
  6
SLD-Solid
 62
     7
370
    25
100
AcDbCircle
 10
45.2448779901
 20
52.0025376224
 30
0.0
 40
0.0499999999999972
100
AcDbArc
 50
90.0
 51
135.0
  0
LINE
  5
2E6
330
1F
100
AcDbEntity
  8
0
  6
SLD-Solid
 62
     7
370
    25
100
AcDbLine
 10
46.6811471764
 20
52.0525376224
 30
0.0
 11
45.2448779901
 21
52.0525376224
 31
0.0
  0
LINE
  5
2E7
330
1F
100
AcDbEntity
  8
0
  6
SLD-Solid
 62
     7
370
    25
100
AcDbLine
 10
46.6811471764
 20
52.0525376224
 30
0.0
 11
46.6811471764
 21
43.7785478342
 31
0.0
  0
LINE
  5
2E8
330
1F
100
AcDbEntity
  8
0
  6
SLD-Solid
 62
     7
370
    25
100
AcDbLine
 10
46.6811471764
 20
43.7785478342
 30
0.0
 11
46.6442854314
 21
43.7785478342
 31
0.0
  0
LINE
  5
2E9
330
1F
100
AcDbEntity
  8
0
  6
SLD-Solid
 62
     7
370
    25
100
AcDbLine
 10
38.9391854314
 20
45.7468450638
 30
0.0
 11
38.9391854314
 21
44.6485478342
 31
0.0
  0
ARC
  5
2EA
330
1F
100
AcDbEntity
  8
0
  6
SLD-Solid
 62
     7
370
    25
100
AcDbCircle
 10
38.9891854314
 20
45.7468450638
 30
0.0
 40
0.0500000000000043
100
AcDbArc
 50
135.0
 51
180.0
  0
LINE
  5
2EB
330
1F
100
AcDbEntity
  8
0
  6
SLD-Solid
 62
     7
370
    25
100
AcDbLine
 10
38.9538300924
 20
45.7822004029
 30
0.0
 11
38.9560475458
 21
45.7844178562
 31
0.0
  0
LINE
  5
2EC
330
1F
100
AcDbEntity
  8
0
  6
SLD-Solid
 62
     7
370
    25
100
AcDbLine
 10
46.7460471764
 20
43.7785478342
 30
0.0
 11
46.7460471764
 21
52.0508270721
 31
0.0
  0
LINE
  5
2ED
330
1F
100
AcDbEntity
  8
0
  6
SLD-Solid
 62
     7
370
    25
100
AcDbLine
 10
46.7460471764
 20
43.7785478342
 30
0.0
 11
46.6811471764
 21
43.7785478342
 31
0.0
  0
LINE
  5
2EE
330
1F
100
AcDbEntity
  8
0
  6
SLD-Solid
 62
     7
370
    25
100
AcDbLine
 10
38.9101563157
 20
45.8303090863
 30
0.0
 11
45.1603243166
 21
52.0804770873
 31
0.0
  0
LINE
  5
2EF
330
1F
100
AcDbEntity
  8
0
  6
SLD-Solid
 62
     7
370
    25
100
AcDbLine
 10
45.2541673119
 20
52.1174376224
 30
0.0
 11
46.6511551186
 21
52.1174376224
 31
0.0
  0
LINE
  5
2F0
330
1F
100
AcDbEntity
  8
0
  6
SLD-Solid
 62
     7
370
    25
100
AcDbLine
 10
38.8742854314
 20
44.6485478342
 30
0.0
 11
38.8742854314
 21
45.7425557419
 31
0.0
  0
LINE
  5
2F1
330
1F
100
AcDbEntity
  8
0
  6
SLD-Solid
 62
     7
370
    25
100
AcDbLine
 10
45.1782760818
 20
52.0984288525
 30
0.0
 11
45.1816535602
 21
52.1015742506
 31
0.0
  0
LINE
  5
2F2
330
1F
100
AcDbEntity
  8
0
  6
SLD-Solid
 62
     7
370
    25
100
AcDbLine
 10
45.1603243166
 20
52.0804770873
 30
0.0
 11
45.1782760818
 21
52.0984288525
 31
0.0
  0
LINE
  5
2F3
330
1F
100
AcDbEntity
  8
0
  6
SLD-Solid
 62
     7
370
    25
100
AcDbLine
 10
38.889149848
 20
45.8088891471
 30
0.0
 11
38.8932942013
 21
45.813446972
 31
0.0
  0
LINE
  5
2F4
330
1F
100
AcDbEntity
  8
0
  6
SLD-Solid
 62
     7
370
    25
100
AcDbLine
 10
38.8932942013
 20
45.813446972
 30
0.0
 11
38.9101563157
 21
45.8303090863
 31
0.0
  0
LINE
  5
2F5
330
1F
100
AcDbEntity
  8
0
  6
SLD-Solid
 62
     7
370
    25
100
AcDbLine
 10
46.7460551186
 20
52.0315376224
 30
0.0
 11
46.7460551186
 21
52.0525376224
 31
0.0
  0
LINE
  5
2F6
330
1F
100
AcDbEntity
  8
0
  6
SLD-Solid
 62
     7
370
    25
100
AcDbLine
 10
46.7460471764
 20
52.0315376224
 30
0.0
 11
46.7460551186
 21
52.0315376224
 31
0.0
  0
LINE
  5
2F7
330
1F
100
AcDbEntity
  8
0
  6
SLD-Solid
 62
     7
370
    25
100
AcDbLine
 10
46.7460551186
 20
51.5315376224
 30
0.0
 11
46.7460471764
 21
51.5315376224
 31
0.0
  0
LINE
  5
2F8
330
1F
100
AcDbEntity
  8
0
  6
SLD-Solid
 62
     7
370
    25
100
AcDbLine
 10
46.7460551186
 20
52.0315376224
 30
0.0
 11
46.7460551186
 21
51.5315376224
 31
0.0
  0
LINE
  5
2F9
330
1F
100
AcDbEntity
  8
0
  6
SLD-Solid
 62
     7
370
    25
100
AcDbLine
 10
46.6811551186
 20
52.1174376224
 30
0.0
 11
46.6511551186
 21
52.1174376224
 31
0.0
  0
ARC
  5
2FA
330
1F
100
AcDbEntity
  8
0
  6
SLD-Solid
 62
     7
370
    25
100
AcDbCircle
 10
46.6811551186
 20
52.0525376224
 30
0.0
 40
0.0649000000000015
100
AcDbArc
 50
0.0
 51
90.0
  0
ARC
  5
2FB
330
1F
100
AcDbEntity
  8
0
  6
SLD-Solid
 62
     7
370
    25
100
AcDbCircle
 10
45.2241673119
 20
52.0525376224
 30
0.0
 40
0.0648999999999997
100
AcDbArc
 50
90.0
 51
130.9246176833
  0
LINE
  5
2FC
330
1F
100
AcDbEntity
  8
0
  6
SLD-Solid
 62
     7
370
    25
100
AcDbLine
 10
45.2241673119
 20
52.1174376224
 30
0.0
 11
45.2541673119
 21
52.1174376224
 31
0.0
  0
LINE
  5
2FD
330
1F
100
AcDbEntity
  8
0
  6
SLD-Solid
 62
     7
370
    25
100
AcDbLine
 10
38.8742854314
 20
45.7675557419
 30
0.0
 11
38.8742854314
 21
45.7425557419
 31
0.0
  0
ARC
  5
2FE
330
1F
100
AcDbEntity
  8
0
  6
SLD-Solid
 62
     7
370
    25
100
AcDbCircle
 10
38.9391854314
 20
45.7675557419
 30
0.0
 40
0.0649000000000015
100
AcDbArc
 50
140.4405618421
 51
180.0
  0
LINE
  5
2FF
330
1F
100
AcDbEntity
  8
0
  6
SLD-Solid
 62
     8
370
    25
100
AcDbLine
 10
46.8985360873
 20
38.2880209223
 30
0.0
 11
46.8985360873
 21
39.0710747461
 31
0.0
  0
LINE
  5
300
330
1F
100
AcDbEntity
  8
0
  6
SLD-Solid
 62
     8
370
    25
100
AcDbLine
 10
46.8985360873
 20
27.1630209223
 30
0.0
 11
46.8985360873
 21
27.9460747461
 31
0.0
  0
LINE
  5
301
330
1F
100
AcDbEntity
  8
0
  6
SLD-Solid
 62
     8
370
    25
100
AcDbLine
 10
39.4998081707
 20
43.701019351
 30
0.0
 11
39.4998081707
 21
13.6535478342
 31
0.0
  0
LINE
  5
302
330
1F
100
AcDbEntity
  8
0
  6
SLD-Solid
 62
     8
370
    25
100
AcDbLine
 10
46.8076365923
 20
43.6285478342
 30
0.0
 11
46.8075365923
 21
43.6285478342
 31
0.0
  0
LINE
  5
303
330
1F
100
AcDbEntity
  8
0
  6
SLD-Solid
 62
     8
370
    25
100
AcDbLine
 10
46.6731916646
 20
13.6451473947
 30
0.0
 11
46.6730916646
 21
13.6451473947
 31
0.0
  0
LINE
  5
304
330
1F
100
AcDbEntity
  8
0
  6
SLD-Solid
 62
     8
370
    25
100
AcDbLine
 10
39.8034780819
 20
13.6451473947
 30
0.0
 11
39.8033827771
 21
13.6451473947
 31
0.0
  0
DIMENSION
  5
305
330
1F
100
AcDbEntity
  8
DIMS
100
AcDbDimension
  2
_D_3
 10
37.4731495106
 20
13.5751473947
 30
0.0
 11
37.4731495106
 21
32.9160060283
 31
0.0
 70
   160
  1
<>
 71
     2
 42
-1.0
  3
SLDDIMSTYLE1
100
AcDbAlignedDimension
 13
45.2241673119
 23
52.1174376224
 33
0.0
 14
39.8034780819
 24
13.5751473947
 34
0.0
 50
90.0
100
AcDbRotatedDimension
  0
MTEXT
  5
314
330
1F
100
AcDbEntity
  8
NOTES
100
AcDbMText
 10
40.8547482595
 20
12.8886776439
 30
0.0
 40
0.75
 41
0.0
 71
     1
 72
     1
  1
Side view
  7
SLDTEXTSTYLE1
 73
     1
 44
1.0
  0
LINE
  5
315
330
1F
100
AcDbEntity
  8
0
  6
SLD-Solid
 62
     7
370
    25
100
AcDbLine
 10
68.4210317317
 20
79.14053262
 30
0.0
 11
73.8749784044
 21
82.2890290165
 31
0.0
  0
LINE
  5
316
330
1F
100
AcDbEntity
  8
0
  6
SLD-Solid
 62
     7
370
    25
100
AcDbLine
 10
53.1236854501
 20
87.9030782323
 30
0.0
 11
68.3025048679
 21
79.1405322984
 31
0.0
  0
LINE
  5
317
330
1F
100
AcDbEntity
  8
0
  6
SLD-Solid
 62
     7
370
    25
100
AcDbLine
 10
53.0644158766
 20
88.692095924
 30
0.0
 11
53.0644158766
 21
87.9572091933
 31
0.0
  0
LINE
  5
318
330
1F
100
AcDbEntity
  8
0
  6
SLD-Solid
 62
     7
370
    25
100
AcDbLine
 10
73.8377691869
 20
57.9752415232
 30
0.0
 11
73.8377691869
 21
82.2675485925
 31
0.0
  0
LINE
  5
319
330
1F
100
AcDbEntity
  8
0
  6
SLD-Solid
 62
     7
370
    25
100
AcDbLine
 10
53.6276100283
 20
87.6121687655
 30
0.0
 11
53.6276100283
 21
63.4292595694
 31
0.0
  0
LINE
  5
31A
330
1F
100
AcDbEntity
  8
0
  6
SLD-Solid
 62
     7
370
    25
100
AcDbLine
 10
53.9387098183
 20
63.1521741893
 30
0.0
 11
68.1032802554
 21
54.975141729
 31
0.0
  0
LINE
  5
31B
330
1F
100
AcDbEntity
  8
0
  6
SLD-Solid
 62
     7
370
    25
100
AcDbLine
 10
68.8996465486
 20
54.9751803917
 30
0.0
 11
73.7571968971
 21
57.7793845187
 31
0.0
  0
LINE
  5
31C
330
1F
100
AcDbEntity
  8
0
  6
SLD-Solid
 62
     7
370
    25
100
AcDbLine
 10
73.9010616708
 20
82.3859469626
 30
0.0
 11
73.9010616708
 21
89.1412989347
 31
0.0
  0
LINE
  5
31D
330
1F
100
AcDbEntity
  8
0
  6
SLD-Solid
 62
     7
370
    25
100
AcDbLine
 10
73.8425224095
 20
89.2132698446
 30
0.0
 11
58.7873705099
 21
97.9044240399
 31
0.0
  0
LINE
  5
31E
330
1F
100
AcDbEntity
  8
0
  6
SLD-Solid
 62
     7
370
    25
100
AcDbLine
 10
57.629686085
 20
97.278995534
 30
0.0
 11
53.210149908
 21
89.6241343519
 31
0.0
  0
LINE
  5
31F
330
1F
100
AcDbEntity
  8
0
  6
SLD-Solid
 62
     7
370
    25
100
AcDbLine
 10
68.3059065856
 20
79.1652911594
 30
0.0
 11
68.3059065856
 21
79.8744801123
 31
0.0
  0
ARC
  5
320
330
1F
100
AcDbEntity
  8
0
  6
SLD-Solid
 62
     7
370
    25
100
AcDbCircle
 10
68.3617680213
 20
79.982292288
 30
0.0
 40
0.1214247307250114
100
AcDbArc
 50
242.6096722366
 51
297.3903277634
  0
LINE
  5
321
330
1F
100
AcDbEntity
  8
0
  6
SLD-Solid
 62
     7
370
    25
100
AcDbLine
 10
68.417629457
 20
79.1652911594
 30
0.0
 11
68.417629457
 21
79.8744801123
 31
0.0
  0
LINE
  5
322
330
1F
100
AcDbEntity
  8
0
  6
SLD-Solid
 62
     7
370
    25
100
AcDbLine
 10
68.417629457
 20
79.1395933816
 30
0.0
 11
68.417629457
 21
79.1652911594
 31
0.0
  0
ARC
  5
323
330
1F
100
AcDbEntity
  8
0
  6
SLD-Solid
 62
     7
370
    25
100
AcDbCircle
 10
68.3617680213
 20
79.2474055573
 30
0.0
 40
0.1214247307250431
100
AcDbArc
 50
242.6096722366
 51
297.3903277634
  0
LINE
  5
324
330
1F
100
AcDbEntity
  8
0
  6
SLD-Solid
 62
     7
370
    25
100
AcDbLine
 10
68.3059065856
 20
79.1395933816
 30
0.0
 11
68.3059065856
 21
79.1652911594
 31
0.0
  0
ARC
  5
325
330
1F
100
AcDbEntity
  8
0
  6
SLD-Solid
 62
     7
370
    25
100
AcDbCircle
 10
68.3617680213
 20
79.9344669365
 30
0.0
 40
0.0445736353295163
100
AcDbArc
 50
242.6096722366
 51
297.3903277634
  0
LINE
  5
326
330
1F
100
AcDbEntity
  8
0
  6
SLD-Solid
 62
     7
370
    25
100
AcDbLine
 10
73.8559877111
 20
83.0547979119
 30
0.0
 11
68.3822741179
 21
79.8948903151
 31
0.0
  0
LINE
  5
327
330
1F
100
AcDbEntity
  8
0
  6
SLD-Solid
 62
     7
370
    25
100
AcDbLine
 10
73.8913430502
 20
83.0343877091
 30
0.0
 11
73.8559877111
 21
83.0547979119
 31
0.0
  0
LINE
  5
328
330
1F
100
AcDbEntity
  8
0
  6
SLD-Solid
 62
     7
370
    25
100
AcDbLine
 10
73.8913430502
 20
83.0343877091
 30
0.0
 11
68.417629457
 21
79.8744801123
 31
0.0
  0
LINE
  5
329
330
1F
100
AcDbEntity
  8
0
  6
SLD-Solid
 62
     7
370
    25
100
AcDbLine
 10
73.8913430502
 20
82.3251987562
 30
0.0
 11
73.8913430502
 21
83.0343877091
 31
0.0
  0
LINE
  5
32A
330
1F
100
AcDbEntity
  8
0
  6
SLD-Solid
 62
     7
370
    25
100
AcDbLine
 10
68.417629457
 20
79.1652911594
 30
0.0
 11
73.8913430502
 21
82.3251987562
 31
0.0
  0
LINE
  5
32B
330
1F
100
AcDbEntity
  8
0
  6
SLD-Solid
 62
     7
370
    25
100
AcDbLine
 10
68.3059065856
 20
79.8744801123
 30
0.0
 11
53.0875544409
 21
88.6598478036
 31
0.0
  0
LINE
  5
32C
330
1F
100
AcDbEntity
  8
0
  6
SLD-Solid
 62
     7
370
    25
100
AcDbLine
 10
53.0875544409
 20
87.9506588508
 30
0.0
 11
68.3059065856
 21
79.1652911594
 31
0.0
  0
LINE
  5
32D
330
1F
100
AcDbEntity
  8
0
  6
SLD-Solid
 62
     7
370
    25
100
AcDbLine
 10
68.3412619246
 20
79.8948903151
 30
0.0
 11
53.1229097799
 21
88.6802580064
 31
0.0
  0
ARC
  5
32E
330
1F
100
AcDbEntity
  8
0
  6
SLD-Solid
 62
     7
370
    25
100
AcDbCircle
 10
73.8545442313
 20
82.3200611408
 30
0.0
 40
0.0371557285817688
100
AcDbArc
 50
303.3642848183
 51
7.947895575
  0
SPLINE
  5
32F
330
1F
100
AcDbEntity
  8
0
  6
SLD-Solid
 62
     7
370
    25
100
AcDbSpline
210
0.0
220
0.0
230
1.0
 70
     8
 71
     3
 72
    10
 73
     6
 74
     0
 42
0.00000001
 43
0.00000001
 40
0.0
 40
0.0
 40
0.0
 40
0.0
 40
0.4715060020271067
 40
0.9431275508109431
 40
1.0
 40
1.0
 40
1.0
 40
1.0
 10
53.08755444088232
 20
87.95065885075617
 30
0.0
 10
53.09149453625756
 20
87.94151727655061
 30
0.0
 10
53.09937569256359
 20
87.92323188791507
 30
0.0
 10
53.1131787853699
 20
87.90762205841519
 30
0.0
 10
53.12288560719742
 20
87.9039862692489
 30
0.0
 10
53.12393018051952
 20
87.90359501365202
 30
0.0
  0
ARC
  5
330
330
1F
100
AcDbEntity
  8
0
  6
SLD-Solid
 62
     7
370
    25
100
AcDbCircle
 10
53.1039519845
 20
87.9611517971
 30
0.0
 40
0.0397322030009111
100
AcDbArc
 50
185.6947992511
 51
245.6253417065
  0
ARC
  5
331
330
1F
100
AcDbEntity
  8
0
  6
SLD-Solid
 62
     7
370
    25
100
AcDbCircle
 10
53.099793676
 20
88.692095924
 30
0.0
 40
0.0344926100299179
100
AcDbArc
 50
110.7834207995
 51
249.2165792005
  0
LINE
  5
332
330
1F
100
AcDbEntity
  8
0
  6
SLD-Solid
 62
     7
370
    25
100
AcDbLine
 10
53.0875544409
 20
87.9249610729
 30
0.0
 11
53.0875544409
 21
87.9506588508
 31
0.0
  0
ARC
  5
333
330
1F
100
AcDbEntity
  8
0
  6
SLD-Solid
 62
     7
370
    25
100
AcDbCircle
 10
53.1274026637
 20
88.692095924
 30
0.0
 40
0.0126618441881972
100
AcDbArc
 50
110.7834207994
 51
249.2165792005
  0
LINE
  5
334
330
1F
100
AcDbEntity
  8
0
  6
SLD-Solid
 62
     7
370
    25
100
AcDbLine
 10
53.2085404111
 20
88.7533673528
 30
0.0
 11
53.1229097799
 21
88.7039338416
 31
0.0
  0
LINE
  5
335
330
1F
100
AcDbEntity
  8
0
  6
SLD-Solid
 62
     7
370
    25
100
AcDbLine
 10
53.2085404111
 20
88.7941877584
 30
0.0
 11
53.0875544409
 21
88.7243440444
 31
0.0
  0
LINE
  5
336
330
1F
100
AcDbEntity
  8
0
  6
SLD-Solid
 62
     7
370
    25
100
AcDbLine
 10
53.0875544409
 20
87.9249610729
 30
0.0
 11
53.0974300628
 21
87.930662148
 31
0.0
  0
LINE
  5
337
330
1F
100
AcDbEntity
  8
0
  6
SLD-Solid
 62
     7
370
    25
100
AcDbLine
 10
73.7716972161
 20
57.8333847305
 30
0.0
 11
73.8180522532
 21
57.8601449238
 31
0.0
  0
ARC
  5
338
330
1F
100
AcDbEntity
  8
0
  6
SLD-Solid
 62
     7
370
    25
100
AcDbCircle
 10
68.5097701889
 20
55.2144714766
 30
0.0
 40
0.3842554769779555
100
AcDbArc
 50
242.6096722366
 51
297.3903277634
  0
LINE
  5
339
330
1F
100
AcDbEntity
  8
0
  6
SLD-Solid
 62
     7
370
    25
100
AcDbLine
 10
73.8180522532
 20
57.8601449238
 30
0.0
 11
73.8180522532
 21
57.8356486994
 31
0.0
  0
LINE
  5
33A
330
1F
100
AcDbEntity
  8
0
  6
SLD-Solid
 62
     7
370
    25
100
AcDbLine
 10
68.6865468842
 20
54.8732937054
 30
0.0
 11
68.8880624016
 21
54.9896261374
 31
0.0
  0
LINE
  5
33B
330
1F
100
AcDbEntity
  8
0
  6
SLD-Solid
 62
     7
370
    25
100
AcDbLine
 10
73.7716458024
 20
57.8088588256
 30
0.0
 11
73.8180522532
 21
57.8356486994
 31
0.0
  0
LINE
  5
33C
330
1F
100
AcDbEntity
  8
0
  6
SLD-Solid
 62
     7
370
    25
100
AcDbLine
 10
68.3329934936
 20
54.8732937054
 30
0.0
 11
68.3124177109
 21
54.8851718519
 31
0.0
  0
ARC
  5
33D
330
1F
100
AcDbEntity
  8
0
  6
SLD-Solid
 62
     7
370
    25
100
AcDbCircle
 10
73.7772119829
 20
58.4551226818
 30
0.0
 40
0.0634777679544059
100
AcDbArc
 50
1.0211226879
 51
17.4477539026
  0
LINE
  5
33E
330
1F
100
AcDbEntity
  8
0
  6
SLD-Solid
 62
     7
370
    25
100
AcDbLine
 10
73.8406796702
 20
58.4562539197
 30
0.0
 11
73.8406796702
 21
57.8993367595
 31
0.0
  0
LINE
  5
33F
330
1F
100
AcDbEntity
  8
0
  6
SLD-Solid
 62
     7
370
    25
100
AcDbLine
 10
73.8618928736
 20
58.4685000413
 30
0.0
 11
73.8406796702
 21
58.4562539197
 31
0.0
  0
ARC
  5
340
330
1F
100
AcDbEntity
  8
0
  6
SLD-Solid
 62
     7
370
    25
100
AcDbCircle
 10
73.7844704535
 20
58.4648651403
 30
0.0
 40
0.0775077005479364
100
AcDbArc
 50
2.6880026373
 51
46.5550539812
  0
LINE
  5
341
330
1F
100
AcDbEntity
  8
0
  6
SLD-Solid
 62
     7
370
    25
100
AcDbLine
 10
73.8406796702
 20
57.8993367595
 30
0.0
 11
73.8618928736
 21
57.9115828812
 31
0.0
  0
LINE
  5
342
330
1F
100
AcDbEntity
  8
0
  6
SLD-Solid
 62
     7
370
    25
100
AcDbLine
 10
73.8618928736
 20
57.9115828812
 30
0.0
 11
73.8618928736
 21
58.4685000413
 31
0.0
  0
ARC
  5
343
330
1F
100
AcDbEntity
  8
0
  6
SLD-Solid
 62
     7
370
    25
100
AcDbCircle
 10
73.7915527549
 20
57.9015723068
 30
0.0
 40
0.0491777538423068
100
AcDbArc
 50
302.60547834
 51
357.3945215144
  0
ARC
  5
344
330
1F
100
AcDbEntity
  8
0
  6
SLD-Solid
 62
     7
370
    25
100
AcDbCircle
 10
73.7667094753
 20
57.9159142541
 30
0.0
 40
0.0952818980695328
100
AcDbArc
 50
302.60547834
 51
357.3945215143
  0
ARC
  5
345
330
1F
100
AcDbEntity
  8
0
  6
SLD-Solid
 62
     7
370
    25
100
AcDbCircle
 10
68.5014299155
 20
55.2722486443
 30
0.0
 40
0.4303661342153144
100
AcDbArc
 50
242.6096722366
 51
297.3903277634
  0
LINE
  5
346
330
1F
100
AcDbEntity
  8
0
  6
SLD-Solid
 62
     7
370
    25
100
AcDbLine
 10
68.3034400168
 20
54.8901295405
 30
0.0
 11
68.0887129633
 21
55.0140888299
 31
0.0
  0
LINE
  5
347
330
1F
100
AcDbEntity
  8
0
  6
SLD-Solid
 62
     7
370
    25
100
AcDbLine
 10
68.0887129633
 20
55.0140888299
 30
0.0
 11
68.0887096433
 21
55.0072314448
 31
0.0
  0
LINE
  5
348
330
1F
100
AcDbEntity
  8
0
  6
SLD-Solid
 62
     7
370
    25
100
AcDbLine
 10
53.9242797924
 20
63.1841827464
 30
0.0
 11
68.0887096433
 21
55.0072314448
 31
0.0
  0
LINE
  5
349
330
1F
100
AcDbEntity
  8
0
  6
SLD-Solid
 62
     7
370
    25
100
AcDbLine
 10
53.9242797924
 20
63.1841827464
 30
0.0
 11
53.9242764723
 21
63.1910439648
 31
0.0
  0
LINE
  5
34A
330
1F
100
AcDbEntity
  8
0
  6
SLD-Solid
 62
     7
370
    25
100
AcDbLine
 10
53.9242764723
 20
63.1910439648
 30
0.0
 11
53.7096201296
 21
63.3149624338
 31
0.0
  0
LINE
  5
34B
330
1F
100
AcDbEntity
  8
0
  6
SLD-Solid
 62
     7
370
    25
100
AcDbLine
 10
73.8172666615
 20
57.9466672393
 30
0.0
 11
73.7858393517
 21
57.9285246395
 31
0.0
  0
ARC
  5
34C
330
1F
100
AcDbEntity
  8
0
  6
SLD-Solid
 62
     7
370
    25
100
AcDbCircle
 10
73.8024015382
 20
57.9026325251
 30
0.0
 40
0.0307360961514821
100
AcDbArc
 50
122.6054783401
 51
177.3945215143
  0
LINE
  5
34D
330
1F
100
AcDbEntity
  8
0
  6
SLD-Solid
 62
     7
370
    25
100
AcDbLine
 10
73.7716972161
 20
57.9040297421
 30
0.0
 11
73.7716972161
 21
57.8114336551
 31
0.0
  0
LINE
  5
34E
330
1F
100
AcDbEntity
  8
0
  6
SLD-Solid
 62
     7
370
    25
100
AcDbLine
 10
68.9141468677
 20
55.0072295281
 30
0.0
 11
73.7716972161
 21
57.8114336551
 31
0.0
  0
LINE
  5
34F
330
1F
100
AcDbEntity
  8
0
  6
SLD-Solid
 62
     7
370
    25
100
AcDbLine
 10
68.9141468677
 20
55.0072295281
 30
0.0
 11
68.9141468677
 21
55.0140888299
 31
0.0
  0
LINE
  5
350
330
1F
100
AcDbEntity
  8
0
  6
SLD-Solid
 62
     7
370
    25
100
AcDbLine
 10
68.9141468677
 20
55.0140888299
 30
0.0
 11
68.6994198142
 21
54.8901295405
 31
0.0
  0
ARC
  5
351
330
1F
100
AcDbEntity
  8
0
  6
SLD-Solid
 62
     7
370
    25
100
AcDbCircle
 10
73.8027371925
 20
57.9787349695
 30
0.0
 40
0.0352057494945531
100
AcDbArc
 50
294.3746582936
 51
354.3052007488
  0
ARC
  5
352
330
1F
100
AcDbEntity
  8
0
  6
SLD-Solid
 62
     7
370
    25
100
AcDbCircle
 10
53.7677380058
 20
63.443233355
 30
0.0
 40
0.1408229979782648
100
AcDbArc
 50
185.6947992512
 51
245.6253417064
  0
SPLINE
  5
353
330
1F
100
AcDbEntity
  8
0
  6
SLD-Solid
 62
     7
370
    25
100
AcDbSpline
210
0.0
220
0.0
230
1.0
 70
     8
 71
     3
 72
    11
 73
     7
 74
     0
 42
0.00000001
 43
0.00000001
 40
0.0
 40
0.0
 40
0.0
 40
0.0
 40
0.2500000000000001
 40
0.5000000000000019
 40
0.749999999999996
 40
1.0
 40
1.0
 40
1.0
 40
1.0
 10
68.13817595313319
 20
54.97866586293122
 30
0.0
 10
68.13169254744523
 20
54.97577924646679
 30
0.0
 10
68.11872573606931
 20
54.97000601353793
 30
0.0
 10
68.10237238762491
 20
54.97377414030476
 30
0.0
 10
68.09093392676405
 20
54.98605510205482
 30
0.0
 10
68.08945107111786
 20
55.00017266386332
 30
0.0
 10
68.08870964329475
 20
55.00723144476758
 30
0.0
  0
SPLINE
  5
354
330
1F
100
AcDbEntity
  8
0
  6
SLD-Solid
 62
     7
370
    25
100
AcDbSpline
210
0.0
220
0.0
230
1.0
 70
     8
 71
     3
 72
    10
 73
     6
 74
     0
 42
0.00000001
 43
0.00000001
 40
0.0
 40
0.0
 40
0.0
 40
0.0
 40
0.499948937049121
 40
0.9998978740982221
 40
1.0
 40
1.0
 40
1.0
 40
1.0
 10
53.92427979235331
 20
63.18418274641381
 30
0.0
 10
53.92512896685006
 20
63.1773546439381
 30
0.0
 10
53.92682731584356
 20
63.16369843898669
 30
0.0
 10
53.93343849454279
 20
63.15316728920101
 30
0.0
 10
53.93879503731674
 20
63.15212583112753
 30
0.0
 10
53.93879613128855
 20
63.15212561842957
 30
0.0
  0
ARC
  5
355
330
1F
100
AcDbEntity
  8
0
  6
SLD-Solid
 62
     7
370
    25
100
AcDbCircle
 10
68.8843284602
 20
55.002131308
 30
0.0
 40
0.0302511037201284
100
AcDbArc
 50
234.8140445553
 51
9.7023642882
  0
ARC
  5
356
330
1F
100
AcDbEntity
  8
0
  6
SLD-Solid
 62
     7
370
    25
100
AcDbCircle
 10
73.7373970829
 20
57.8076475835
 30
0.0
 40
0.0345084551347773
100
AcDbArc
 50
305.013332909
 51
6.2988474844
  0
LINE
  5
357
330
1F
100
AcDbEntity
  8
0
  6
SLD-Solid
 62
     7
370
    25
100
AcDbLine
 10
68.1381759531
 20
54.9786658629
 30
0.0
 11
68.1441216467
 21
54.9821020778
 31
0.0
  0
LINE
  5
358
330
1F
100
AcDbEntity
  8
0
  6
SLD-Solid
 62
     7
370
    25
100
AcDbLine
 10
68.3412413367
 20
80.8891437734
 30
0.0
 11
72.7607775137
 21
88.5440049554
 31
0.0
  0
LINE
  5
359
330
1F
100
AcDbEntity
  8
0
  6
SLD-Solid
 62
     7
370
    25
100
AcDbLine
 10
68.4195825668
 20
80.8439122541
 30
0.0
 11
72.8391187438
 21
88.4987734362
 31
0.0
  0
LINE
  5
35A
330
1F
100
AcDbEntity
  8
0
  6
SLD-Solid
 62
     7
370
    25
100
AcDbLine
 10
68.3362208785
 20
80.8920420221
 30
0.0
 11
68.3412413367
 21
80.8891437734
 31
0.0
  0
LINE
  5
35B
330
1F
100
AcDbEntity
  8
0
  6
SLD-Solid
 62
     7
370
    25
100
AcDbLine
 10
53.2477642771
 20
89.5748876411
 30
0.0
 11
68.3035353854
 21
80.8833759843
 31
0.0
  0
LINE
  5
35C
330
1F
100
AcDbEntity
  8
0
  6
SLD-Solid
 62
     7
370
    25
100
AcDbLine
 10
53.2389254148
 20
89.6075251791
 30
0.0
 11
53.2339049566
 21
89.6104234279
 31
0.0
  0
LINE
  5
35D
330
1F
100
AcDbEntity
  8
0
  6
SLD-Solid
 62
     7
370
    25
100
AcDbLine
 10
53.2339049566
 20
89.6104234279
 30
0.0
 11
57.6534411337
 21
97.26528461
 31
0.0
  0
LINE
  5
35E
330
1F
100
AcDbEntity
  8
0
  6
SLD-Solid
 62
     7
370
    25
100
AcDbLine
 10
57.6534411337
 20
97.26528461
 30
0.0
 11
57.6584615918
 21
97.2623863612
 31
0.0
  0
ARC
  5
35F
330
1F
100
AcDbEntity
  8
0
  6
SLD-Solid
 62
     7
370
    25
100
AcDbCircle
 10
57.6696267779
 20
97.2866054532
 30
0.0
 40
0.0266688169899847
100
AcDbArc
 50
245.2499380809
 51
327.4894644297
  0
LINE
  5
360
330
1F
100
AcDbEntity
  8
0
  6
SLD-Solid
 62
     7
370
    25
100
AcDbLine
 10
72.7474898824
 20
88.5809900574
 30
0.0
 11
57.6921163948
 21
97.2722721726
 31
0.0
  0
ARC
  5
361
330
1F
100
AcDbEntity
  8
0
  6
SLD-Solid
 62
     7
370
    25
100
AcDbCircle
 10
72.7711447881
 20
88.5686811871
 30
0.0
 40
0.0266657617835568
100
AcDbArc
 50
152.5097090031
 51
234.7560081437
  0
LINE
  5
362
330
1F
100
AcDbEntity
  8
0
  6
SLD-Solid
 62
     7
370
    25
100
AcDbLine
 10
72.7607775137
 20
88.5440049554
 30
0.0
 11
72.7557570556
 21
88.5469032042
 31
0.0
  0
LINE
  5
363
330
1F
100
AcDbEntity
  8
0
  6
SLD-Solid
 62
     7
370
    25
100
AcDbLine
 10
56.712119931
 20
88.8094532505
 30
0.0
 11
60.087119931
 21
94.6551247089
 31
0.0
  0
ARC
  5
364
330
1F
100
AcDbEntity
  8
0
  6
SLD-Solid
 62
     7
370
    25
100
AcDbCircle
 10
56.8063410911
 20
88.7430242577
 30
0.0
 40
0.1152841622817081
100
AcDbArc
 50
144.8149143564
 51
233.6487565512
  0
LINE
  5
365
330
1F
100
AcDbEntity
  8
0
  6
SLD-Solid
 62
     7
370
    25
100
AcDbLine
 10
56.7380082787
 20
88.6501745683
 30
0.0
 11
65.7574248616
 21
83.4433762048
 31
0.0
  0
ARC
  5
366
330
1F
100
AcDbEntity
  8
0
  6
SLD-Solid
 62
     7
370
    25
100
AcDbCircle
 10
65.8036632028
 20
83.5489950957
 30
0.0
 40
0.1152967228407782
100
AcDbArc
 50
246.3569291845
 51
335.1837008195
  0
LINE
  5
367
330
1F
100
AcDbEntity
  8
0
  6
SLD-Solid
 62
     7
370
    25
100
AcDbLine
 10
65.9083132093
 20
83.500603873
 30
0.0
 11
69.2833132093
 21
89.3462753314
 31
0.0
  0
ARC
  5
368
330
1F
100
AcDbEntity
  8
0
  6
SLD-Solid
 62
     7
370
    25
100
AcDbCircle
 10
69.1890920492
 20
89.4127043241
 30
0.0
 40
0.1152841622816756
100
AcDbArc
 50
324.8149143564
 51
53.6487565512
  0
LINE
  5
369
330
1F
100
AcDbEntity
  8
0
  6
SLD-Solid
 62
     7
370
    25
100
AcDbLine
 10
69.2574248616
 20
89.5055540135
 30
0.0
 11
60.2380082787
 21
94.712352377
 31
0.0
  0
ARC
  5
36A
330
1F
100
AcDbEntity
  8
0
  6
SLD-Solid
 62
     7
370
    25
100
AcDbCircle
 10
60.1917699375
 20
94.6067334862
 30
0.0
 40
0.1152967228407782
100
AcDbArc
 50
66.3569291845
 51
155.1837008195
  0
LINE
  5
36B
330
1F
100
AcDbEntity
  8
0
  6
SLD-Solid
 62
     7
370
    25
100
AcDbLine
 10
72.7474898824
 20
88.5809900574
 30
0.0
 11
72.7496259049
 21
88.5850827045
 31
0.0
  0
LINE
  5
36C
330
1F
100
AcDbEntity
  8
0
  6
SLD-Solid
 62
     7
370
    25
100
AcDbLine
 10
72.8414572197
 20
88.5028237951
 30
0.0
 11
72.8391187438
 21
88.4987734362
 31
0.0
  0
ARC
  5
36D
330
1F
100
AcDbEntity
  8
0
  6
SLD-Solid
 62
     7
370
    25
100
AcDbCircle
 10
72.9046325419
 20
88.4680129785
 30
0.0
 40
0.0721312296773026
100
AcDbArc
 50
121.9546716495
 51
151.1443911209
  0
LINE
  5
36E
330
1F
100
AcDbEntity
  8
0
  6
SLD-Solid
 62
     7
370
    25
100
AcDbLine
 10
73.8820529009
 20
89.1155048585
 30
0.0
 11
72.8664572197
 21
88.5292139513
 31
0.0
  0
LINE
  5
36F
330
1F
100
AcDbEntity
  8
0
  6
SLD-Solid
 62
     7
370
    25
100
AcDbLine
 10
68.4076592514
 20
80.8063493522
 30
0.0
 11
68.4076592514
 21
79.9095448407
 31
0.0
  0
ARC
  5
370
330
1F
100
AcDbEntity
  8
0
  6
SLD-Solid
 62
     7
370
    25
100
AcDbCircle
 10
68.4797575089
 20
80.8038864309
 30
0.0
 40
0.072140312699708
100
AcDbArc
 50
148.8562722006
 51
178.043501357
  0
LINE
  5
371
330
1F
100
AcDbEntity
  8
0
  6
SLD-Solid
 62
     7
370
    25
100
AcDbLine
 10
68.4180145905
 20
80.8411964395
 30
0.0
 11
68.4195825668
 21
80.8439122541
 31
0.0
  0
LINE
  5
372
330
1F
100
AcDbEntity
  8
0
  6
SLD-Solid
 62
     7
370
    25
100
AcDbLine
 10
72.8010422918
 20
88.6275545617
 30
0.0
 11
73.7888618432
 21
89.1978106505
 31
0.0
  0
ARC
  5
373
330
1F
100
AcDbEntity
  8
0
  6
SLD-Solid
 62
     7
370
    25
100
AcDbCircle
 10
53.3253733671
 20
89.5267767083
 30
0.0
 40
0.090637142038596
100
AcDbArc
 50
152.0818672774
 51
178.3441563467
  0
LINE
  5
374
330
1F
100
AcDbEntity
  8
0
  6
SLD-Solid
 62
     7
370
    25
100
AcDbLine
 10
53.2452848025
 20
89.5692138776
 30
0.0
 11
53.2477642771
 21
89.5748876411
 31
0.0
  0
LINE
  5
375
330
1F
100
AcDbEntity
  8
0
  6
SLD-Solid
 62
     7
370
    25
100
AcDbLine
 10
68.2896431296
 20
80.8384048366
 30
0.0
 11
53.2347740727
 21
89.5293957502
 31
0.0
  0
LINE
  5
376
330
1F
100
AcDbEntity
  8
0
  6
SLD-Solid
 62
     7
370
    25
100
AcDbLine
 10
57.6921163948
 20
97.2722721726
 30
0.0
 11
57.694756848
 21
97.2760736181
 31
0.0
  0
ARC
  5
377
330
1F
100
AcDbEntity
  8
0
  6
SLD-Solid
 62
     7
370
    25
100
AcDbCircle
 10
57.7728962396
 20
97.2286302338
 30
0.0
 40
0.0914146554651681
100
AcDbArc
 50
121.730812329
 51
148.7354053152
  0
LINE
  5
378
330
1F
100
AcDbEntity
  8
0
  6
SLD-Solid
 62
     7
370
    25
100
AcDbLine
 10
57.7248186102
 20
97.3063809945
 30
0.0
 11
72.779687667
 21
88.6153900809
 31
0.0
  0
ARC
  5
379
330
1F
100
AcDbEntity
  8
0
  6
SLD-Solid
 62
     7
370
    25
100
AcDbCircle
 10
72.8277652965
 20
88.5376393202
 30
0.0
 40
0.0914146554646166
100
AcDbArc
 50
121.730812329
 51
148.7354053153
  0
LINE
  5
37A
330
1F
100
AcDbEntity
  8
0
  6
SLD-Solid
 62
     7
370
    25
100
AcDbLine
 10
68.2896431296
 20
80.8384048366
 30
0.0
 11
68.2896431296
 21
80.8179913163
 31
0.0
  0
LINE
  5
37B
330
1F
100
AcDbEntity
  8
0
  6
SLD-Solid
 62
     7
370
    25
100
AcDbLine
 10
68.2896431296
 20
80.8179913163
 30
0.0
 11
68.289784551
 21
80.8179096755
 31
0.0
  0
LINE
  5
37C
330
1F
100
AcDbEntity
  8
0
  6
SLD-Solid
 62
     7
370
    25
100
AcDbLine
 10
53.2347740727
 20
89.5089822299
 30
0.0
 11
53.2346326514
 21
89.5090638707
 31
0.0
  0
LINE
  5
37D
330
1F
100
AcDbEntity
  8
0
  6
SLD-Solid
 62
     7
370
    25
100
AcDbLine
 10
53.2347740727
 20
89.5293957502
 30
0.0
 11
53.2347740727
 21
89.5089822299
 31
0.0
  0
LINE
  5
37E
330
1F
100
AcDbEntity
  8
0
  6
SLD-Solid
 62
     7
370
    25
100
AcDbLine
 10
57.7248186102
 20
97.3063809945
 30
0.0
 11
57.7460318136
 21
97.3186271161
 31
0.0
  0
LINE
  5
37F
330
1F
100
AcDbEntity
  8
0
  6
SLD-Solid
 62
     7
370
    25
100
AcDbLine
 10
57.7458903922
 20
97.318708757
 30
0.0
 11
57.7460318136
 21
97.3186271161
 31
0.0
  0
LINE
  5
380
330
1F
100
AcDbEntity
  8
0
  6
SLD-Solid
 62
     7
370
    25
100
AcDbLine
 10
57.7458903922
 20
97.318708757
 30
0.0
 11
58.7337099436
 21
97.8889648457
 31
0.0
  0
LINE
  5
381
330
1F
100
AcDbEntity
  8
0
  6
SLD-Solid
 62
     7
370
    25
100
AcDbLine
 10
58.754923147
 20
97.9012109674
 30
0.0
 11
58.7337099436
 21
97.8889648457
 31
0.0
  0
LINE
  5
382
330
1F
100
AcDbEntity
  8
0
  6
SLD-Solid
 62
     7
370
    25
100
AcDbLine
 10
58.754923147
 20
97.9012109674
 30
0.0
 11
73.8100750466
 21
89.2100567722
 31
0.0
  0
LINE
  5
383
330
1F
100
AcDbEntity
  8
0
  6
SLD-Solid
 62
     7
370
    25
100
AcDbLine
 10
73.8100750466
 20
89.2100567722
 30
0.0
 11
73.7888618432
 21
89.1978106505
 31
0.0
  0
LINE
  5
384
330
1F
100
AcDbEntity
  8
0
  6
SLD-Solid
 62
     7
370
    25
100
AcDbLine
 10
72.8010422918
 20
88.6275545617
 30
0.0
 11
72.8009008705
 21
88.6276362025
 31
0.0
  0
LINE
  5
385
330
1F
100
AcDbEntity
  8
0
  6
SLD-Solid
 62
     7
370
    25
100
AcDbLine
 10
72.779687667
 20
88.6153900809
 30
0.0
 11
72.8009008705
 21
88.6276362025
 31
0.0
  0
LINE
  5
386
330
1F
100
AcDbEntity
  8
0
  6
SLD-Solid
 62
     7
370
    25
100
AcDbLine
 10
68.3815670112
 20
80.8179096755
 30
0.0
 11
68.3822741179
 21
80.8183178796
 31
0.0
  0
LINE
  5
387
330
1F
100
AcDbEntity
  8
0
  6
SLD-Solid
 62
     7
370
    25
100
AcDbLine
 10
72.8469335219
 20
88.5480686198
 30
0.0
 11
72.8469335219
 21
88.5472522117
 31
0.0
  0
SPLINE
  5
388
330
1F
100
AcDbEntity
  8
0
  6
SLD-Solid
 62
     7
370
    25
100
AcDbSpline
210
0.0
220
0.0
230
1.0
 70
     8
 71
     3
 72
    11
 73
     7
 74
     0
 42
0.00000001
 43
0.00000001
 40
0.0
 40
0.0
 40
0.0
 40
0.0
 40
0.2500000000000347
 40
0.5000000000000331
 40
0.7500000000000314
 40
1.0
 40
1.0
 40
1.0
 40
1.0
 10
73.88205290093023
 20
89.1155048585207
 30
0.0
 10
73.88737653469352
 20
89.11925817854025
 30
0.0
 10
73.89802380222005
 20
89.12676481857933
 30
0.0
 10
73.90258060513682
 20
89.14129893467107
 30
0.0
 10
73.89802380222005
 20
89.15583305076282
 30
0.0
 10
73.88737653469352
 20
89.1633396908019
 30
0.0
 10
73.88205290093023
 20
89.16709301082145
 30
0.0
  0
ARC
  5
389
330
1F
100
AcDbEntity
  8
0
  6
SLD-Solid
 62
     7
370
    25
100
AcDbCircle
 10
73.8735940404
 20
82.3872278002
 30
0.0
 40
0.0274974774582139
100
AcDbArc
 50
310.2015046754
 51
357.330185727
  0
LINE
  5
38A
330
1F
100
AcDbEntity
  8
0
  6
SLD-Solid
 62
     7
370
    25
100
AcDbLine
 10
73.8566677675
 20
89.1524384852
 30
0.0
 11
73.8820529009
 21
89.1670930108
 31
0.0
  0
LINE
  5
38B
330
1F
100
AcDbEntity
  8
0
  6
SLD-Solid
 62
     7
370
    25
100
AcDbLine
 10
73.8100750466
 20
89.180742957
 30
0.0
 11
73.8093986386
 21
89.180352475
 31
0.0
  0
ARC
  5
38C
330
1F
100
AcDbEntity
  8
0
  6
SLD-Solid
 62
     7
370
    25
100
AcDbCircle
 10
73.8279895503
 20
89.1880939918
 30
0.0
 40
0.0283424269131077
100
AcDbArc
 50
350.7859630095
 51
129.2032852357
  0
LINE
  5
38D
330
1F
100
AcDbEntity
  8
0
  6
SLD-Solid
 62
     7
370
    25
100
AcDbLine
 10
73.8305811433
 20
89.1689011911
 30
0.0
 11
73.8559662767
 21
89.1835557167
 31
0.0
  0
ARC
  5
38E
330
1F
100
AcDbEntity
  8
0
  6
SLD-Solid
 62
     7
370
    25
100
AcDbCircle
 10
58.7739336586
 20
97.8746745691
 30
0.0
 40
0.0326432226099855
100
AcDbArc
 50
65.6928809538
 51
125.6175774752
  0
LINE
  5
38F
330
1F
100
AcDbEntity
  8
0
  6
SLD-Solid
 62
     7
370
    25
100
AcDbLine
 10
73.831953568
 20
89.1381666435
 30
0.0
 11
73.8566677675
 21
89.1524384852
 31
0.0
  0
LINE
  5
390
330
1F
100
AcDbEntity
  8
0
  6
SLD-Solid
 62
     7
370
    25
100
AcDbLine
 10
73.8278782565
 20
89.1501929835
 30
0.0
 11
73.8305811433
 21
89.151753834
 31
0.0
  0
LINE
  5
391
330
1F
100
AcDbEntity
  8
0
  6
SLD-Solid
 62
     7
370
    25
100
AcDbLine
 10
73.8559662767
 20
89.1664083596
 30
0.0
 11
73.8559662767
 21
89.1835557167
 31
0.0
  0
LINE
  5
392
330
1F
100
AcDbEntity
  8
0
  6
SLD-Solid
 62
     7
370
    25
100
AcDbLine
 10
73.8305811433
 20
89.151753834
 30
0.0
 11
73.8559662767
 21
89.1664083596
 31
0.0
  0
LINE
  5
393
330
1F
100
AcDbEntity
  8
0
  6
SLD-Solid
 62
     7
370
    25
100
AcDbLine
 10
73.8559662767
 20
89.1664083596
 30
0.0
 11
73.8278798341
 21
89.1501891306
 31
0.0
  0
LINE
  5
394
330
1F
100
AcDbEntity
  8
0
  6
SLD-Solid
 62
     7
370
    25
100
AcDbLine
 10
60.2559582787
 20
94.701986694
 30
0.0
 11
60.2380082787
 21
94.712352377
 31
0.0
  0
LINE
  5
395
330
1F
100
AcDbEntity
  8
0
  6
SLD-Solid
 62
     7
370
    25
100
AcDbLine
 10
69.2580272806
 20
89.5052028758
 30
0.0
 11
60.2559582787
 21
94.701986694
 31
0.0
  0
LWPOLYLINE
  5
396
330
1F
100
AcDbEntity
  8
0
  6
SLD-Solid
 62
     7
370
    25
100
AcDbPolyline
 90
        6
 70
   128
 43
0.0
 10
57.6534411337
 20
97.26528461
 10
57.6451117165
 20
97.2700929631
 10
57.6383494294
 20
97.2739964018
 10
57.6334141433
 20
97.2768449191
 10
57.6304955186
 20
97.2785290479
 10
57.629686085
 20
97.278995534
  0
LWPOLYLINE
  5
397
330
1F
100
AcDbEntity
  8
0
  6
SLD-Solid
 62
     7
370
    25
100
AcDbPolyline
 90
        9
 70
   128
 43
0.0
 10
53.2204637265
 20
89.6181767951
 10
53.2150148327
 20
89.6213235626
 10
53.211538911
 20
89.6233313119
 10
53.2101695393
 20
89.6241228862
 10
53.2109593416
 20
89.6236678659
 10
53.2138779663
 20
89.621983737
 10
53.2188132523
 20
89.6191352198
 10
53.2255755394
 20
89.6152317811
 10
53.2339049566
 20
89.6104234279
  0
LINE
  5
398
330
1F
100
AcDbEntity
  8
0
  6
SLD-Solid
 62
     7
370
    25
100
AcDbLine
 10
53.2393205305
 20
89.6072909939
 30
0.0
 11
53.2204637265
 21
89.6181767951
 31
0.0
  0
ARC
  5
399
330
1F
100
AcDbEntity
  8
0
  6
SLD-Solid
 62
     7
370
    25
100
AcDbCircle
 10
53.2806386686
 20
89.5781509719
 30
0.0
 40
0.0721403127000185
100
AcDbArc
 50
148.8562722006
 51
178.043501357
  0
LINE
  5
39A
330
1F
100
AcDbEntity
  8
0
  6
SLD-Solid
 62
     7
370
    25
100
AcDbLine
 10
53.2188957502
 20
89.6154609805
 30
0.0
 11
53.2204637265
 21
89.6181767951
 31
0.0
  0
LINE
  5
39B
330
1F
100
AcDbEntity
  8
0
  6
SLD-Solid
 62
     7
370
    25
100
AcDbLine
 10
57.6423383794
 20
97.2770883361
 30
0.0
 11
57.6400023898
 21
97.2730422835
 31
0.0
  0
ARC
  5
39C
330
1F
100
AcDbEntity
  8
0
  6
SLD-Solid
 62
     7
370
    25
100
AcDbCircle
 10
57.7055137017
 20
97.2422775195
 30
0.0
 40
0.0721312296771086
100
AcDbArc
 50
121.9546716494
 51
151.1443911209
  0
LINE
  5
39D
330
1F
100
AcDbEntity
  8
0
  6
SLD-Solid
 62
     7
370
    25
100
AcDbLine
 10
53.2085404111
 20
89.5806138932
 30
0.0
 11
53.2085404111
 21
88.6308244952
 31
0.0
  0
LINE
  5
39E
330
1F
100
AcDbEntity
  8
0
  6
SLD-Solid
 62
     7
370
    25
100
AcDbLine
 10
58.6829340607
 20
97.8897693995
 30
0.0
 11
57.6673383794
 21
97.3034784923
 31
0.0
  0
SPLINE
  5
39F
330
1F
100
AcDbEntity
  8
0
  6
SLD-Solid
 62
     7
370
    25
100
AcDbSpline
210
0.0
220
0.0
230
1.0
 70
     8
 71
     3
 72
    10
 73
     6
 74
     0
 42
0.00000001
 43
0.00000001
 40
0.0
 40
0.0
 40
0.0
 40
0.0
 40
0.3581010926178107
 40
0.7162021852355828
 40
1.0
 40
1.0
 40
1.0
 40
1.0
 10
58.68293406068169
 20
97.88976939952407
 30
0.0
 10
58.68961370934636
 20
97.89268973960627
 30
0.0
 10
58.70297300667572
 20
97.89853041977065
 30
0.0
 10
58.72730107361896
 20
97.9011641352666
 30
0.0
 10
58.74200652345446
 20
97.89862865123708
 30
0.0
 10
58.74850813060856
 20
97.89750765723215
 30
0.0
  0
LINE
  5
3A0
330
1F
100
AcDbEntity
  8
0
  6
SLD-Solid
 62
     8
370
    25
100
AcDbLine
 10
73.8180522532
 20
57.8601449238
 30
0.0
 11
73.7716972161
 21
57.886905117
 31
0.0
  0
LINE
  5
3A1
330
1F
100
AcDbEntity
  8
0
  6
SLD-Solid
 62
     8
370
    25
100
AcDbLine
 10
68.6865468842
 20
54.8831526821
 30
0.0
 11
68.6865468842
 21
54.8732937054
 31
0.0
  0
LINE
  5
3A2
330
1F
100
AcDbEntity
  8
0
  6
SLD-Solid
 62
     8
370
    25
100
AcDbLine
 10
68.3329934936
 20
54.8732937054
 30
0.0
 11
68.3329934936
 21
54.8753035684
 31
0.0
  0
LINE
  5
3A3
330
1F
100
AcDbEntity
  8
0
  6
SLD-Solid
 62
     8
370
    25
100
AcDbLine
 10
73.8406796702
 20
57.8993367595
 30
0.0
 11
73.7879793263
 21
57.9297600205
 31
0.0
  0
LINE
  5
3A4
330
1F
100
AcDbEntity
  8
0
  6
SLD-Solid
 62
     8
370
    25
100
AcDbLine
 10
68.3034400168
 20
79.141106033
 30
0.0
 11
68.3034400168
 21
54.8901295405
 31
0.0
  0
LINE
  5
3A5
330
1F
100
AcDbEntity
  8
0
  6
SLD-Solid
 62
     8
370
    25
100
AcDbLine
 10
68.6994198142
 20
79.3012426393
 30
0.0
 11
68.6994198142
 21
54.8901295405
 31
0.0
  0
LINE
  5
3A6
330
1F
100
AcDbEntity
  8
0
  6
SLD-Solid
 62
     8
370
    25
100
AcDbLine
 10
53.7096201296
 20
87.5648253418
 30
0.0
 11
53.7096201296
 21
63.3149624338
 31
0.0
  0
LINE
  5
3A7
330
1F
100
AcDbEntity
  8
0
  6
SLD-Solid
 62
     8
370
    25
100
AcDbLine
 10
73.8172666615
 20
57.9466672393
 30
0.0
 11
73.8172666615
 21
82.2557127365
 31
0.0
  0
LINE
  5
3A8
330
1F
100
AcDbEntity
  8
0
  6
SLD-Solid
 62
     8
370
    25
100
AcDbLine
 10
68.9141468677
 20
55.0072295281
 30
0.0
 11
68.9082058944
 21
55.010659179
 31
0.0
  0
LINE
  5
3A9
330
1F
100
AcDbEntity
  8
0
  6
SLD-Solid
 62
     8
370
    25
100
AcDbLine
 10
68.1381759531
 20
54.9857594776
 30
0.0
 11
68.1381759531
 21
54.9786658629
 31
0.0
  0
LINE
  5
3AA
330
1F
100
AcDbEntity
  8
0
  6
SLD-Solid
 62
     8
370
    25
100
AcDbLine
 10
68.289784551
 20
79.9246075703
 30
0.0
 11
68.289784551
 21
80.8179096755
 31
0.0
  0
LINE
  5
3AB
330
1F
100
AcDbEntity
  8
0
  6
SLD-Solid
 62
     8
370
    25
100
AcDbLine
 10
73.8820529009
 20
89.1155048585
 30
0.0
 11
73.8820529009
 21
83.0397507981
 31
0.0
  0
LINE
  5
3AC
330
1F
100
AcDbEntity
  8
0
  6
SLD-Solid
 62
     8
370
    25
100
AcDbLine
 10
53.2346326514
 20
88.6157617656
 30
0.0
 11
53.2346326514
 21
89.5090638707
 31
0.0
  0
LINE
  5
3AD
330
1F
100
AcDbEntity
  8
0
  6
SLD-Solid
 62
     8
370
    25
100
AcDbLine
 10
73.8100717135
 20
89.1807410329
 30
0.0
 11
73.8305811433
 21
89.1689011911
 31
0.0
  0
LINE
  5
3AE
330
1F
100
AcDbEntity
  8
0
  6
SLD-Solid
 62
     8
370
    25
100
AcDbLine
 10
56.7173515839
 20
88.8064320997
 30
0.0
 11
56.712119931
 21
88.8094532505
 31
0.0
  0
LINE
  5
3AF
330
1F
100
AcDbEntity
  8
0
  6
SLD-Solid
 62
     8
370
    25
100
AcDbLine
 10
53.2390839007
 20
89.6074327152
 30
0.0
 11
53.2339049566
 21
89.6104234279
 31
0.0
  0
LINE
  5
3B0
330
1F
100
AcDbEntity
  8
0
  6
SLD-Solid
 62
     8
370
    25
100
AcDbLine
 10
53.2346326514
 20
89.5090638707
 30
0.0
 11
53.2347740727
 21
89.5091455115
 31
0.0
  0
LINE
  5
3B1
330
1F
100
AcDbEntity
  8
0
  6
SLD-Solid
 62
     8
370
    25
100
AcDbLine
 10
57.7458903922
 20
97.3185454753
 30
0.0
 11
57.7458903922
 21
97.318708757
 31
0.0
  0
MTEXT
  5
3B2
330
1F
100
AcDbEntity
  8
NOTES
100
AcDbMText
 10
60.2668214974
 20
55.9097717826
 30
0.0
 40
0.75
 41
0.0
 71
     1
 72
     1
  1
3D view
  7
SLDTEXTSTYLE1
 73
     1
 44
1.0
  0
LINE
  5
3B3
330
1F
100
AcDbEntity
  8
0
  6
SLD-Solid
 62
     7
370
    25
100
AcDbLine
 10
70.7946301345
 20
47.9901146253
 30
0.0
 11
70.8218569113
 21
47.9862165657
 31
0.0
  0
LINE
  5
3B4
330
1F
100
AcDbEntity
  8
0
  6
SLD-Solid
 62
     7
370
    25
100
AcDbLine
 10
53.6083689578
 20
43.701019351
 30
0.0
 11
53.6714679056
 21
43.701019351
 31
0.0
  0
LINE
  5
3B5
330
1F
100
AcDbEntity
  8
0
  6
SLD-Solid
 62
     7
370
    25
100
AcDbLine
 10
74.8702459169
 20
43.701019351
 30
0.0
 11
75.0185448647
 21
43.701019351
 31
0.0
  0
LINE
  5
3B6
330
1F
100
AcDbEntity
  8
0
  6
SLD-Solid
 62
     7
370
    25
100
AcDbLine
 10
75.1034569113
 20
43.780019351
 30
0.0
 11
75.1034569113
 21
44.6485478342
 31
0.0
  0
LINE
  5
3B7
330
1F
100
AcDbEntity
  8
0
  6
SLD-Solid
 62
     7
370
    25
100
AcDbLine
 10
75.1034569113
 20
43.780019351
 30
0.0
 11
75.1534569113
 21
43.780019351
 31
0.0
  0
LINE
  5
3B8
330
1F
100
AcDbEntity
  8
0
  6
SLD-Solid
 62
     7
370
    25
100
AcDbLine
 10
75.1534569113
 20
43.780019351
 30
0.0
 11
75.1534569113
 21
44.6485478342
 31
0.0
  0
LINE
  5
3B9
330
1F
100
AcDbEntity
  8
0
  6
SLD-Solid
 62
     7
370
    25
100
AcDbLine
 10
75.1534569113
 20
44.6485478342
 30
0.0
 11
75.1034569113
 21
44.6485478342
 31
0.0
  0
LINE
  5
3BA
330
1F
100
AcDbEntity
  8
0
  6
SLD-Solid
 62
     7
370
    25
100
AcDbLine
 10
75.0458974864
 20
43.7749835538
 30
0.0
 11
74.9966570988
 21
43.766301145
 31
0.0
  0
LINE
  5
3BB
330
1F
100
AcDbEntity
  8
0
  6
SLD-Solid
 62
     7
370
    25
100
AcDbLine
 10
75.0182569113
 20
43.9317410452
 30
0.0
 11
75.0458974864
 21
43.7749835538
 31
0.0
  0
LINE
  5
3BC
330
1F
100
AcDbEntity
  8
0
  6
SLD-Solid
 62
     7
370
    25
100
AcDbLine
 10
74.994497677
 20
43.7785478342
 30
0.0
 11
74.9966570988
 21
43.766301145
 31
0.0
  0
ARC
  5
3BD
330
1F
100
AcDbEntity
  8
0
  6
SLD-Solid
 62
     7
370
    25
100
AcDbCircle
 10
75.0744569113
 20
43.780019351
 30
0.0
 40
0.0290000000000248
100
AcDbArc
 50
190.0
 51
0.0
  0
ARC
  5
3BE
330
1F
100
AcDbEntity
  8
0
  6
SLD-Solid
 62
     7
370
    25
100
AcDbCircle
 10
75.0744569113
 20
43.780019351
 30
0.0
 40
0.0790000000000219
100
AcDbArc
 50
190.0
 51
0.0
  0
LINE
  5
3BF
330
1F
100
AcDbEntity
  8
0
  6
SLD-Solid
 62
     7
370
    25
100
AcDbLine
 10
53.5234569113
 20
43.780019351
 30
0.0
 11
53.4734569113
 21
43.780019351
 31
0.0
  0
LINE
  5
3C0
330
1F
100
AcDbEntity
  8
0
  6
SLD-Solid
 62
     7
370
    25
100
AcDbLine
 10
53.4734569113
 20
43.780019351
 30
0.0
 11
53.4734569113
 21
44.6485478342
 31
0.0
  0
LINE
  5
3C1
330
1F
100
AcDbEntity
  8
0
  6
SLD-Solid
 62
     7
370
    25
100
AcDbLine
 10
53.4734569113
 20
44.6485478342
 30
0.0
 11
53.5234569113
 21
44.6485478342
 31
0.0
  0
ARC
  5
3C2
330
1F
100
AcDbEntity
  8
0
  6
SLD-Solid
 62
     7
370
    25
100
AcDbCircle
 10
53.5524569113
 20
43.780019351
 30
0.0
 40
0.0790000000000148
100
AcDbArc
 50
180.0
 51
341.7619283103
  0
ARC
  5
3C3
330
1F
100
AcDbEntity
  8
0
  6
SLD-Solid
 62
     7
370
    25
100
AcDbCircle
 10
53.5524569113
 20
43.780019351
 30
0.0
 40
0.0289999999999905
100
AcDbArc
 50
182.9085490749
 51
305.9319261411
  0
SPLINE
  5
3C4
330
1F
100
AcDbEntity
  8
0
  6
SLD-Solid
 62
     7
370
    25
100
AcDbSpline
210
0.0
220
0.0
230
1.0
 70
     8
 71
     3
 72
     9
 73
     5
 74
     0
 42
0.00000001
 43
0.00000001
 40
0.0
 40
0.0
 40
0.0
 40
0.0
 40
0.8294160911371573
 40
0.9999999999999999
 40
0.9999999999999999
 40
0.9999999999999999
 40
0.9999999999999999
 10
75.07445691125197
 20
43.78001935099007
 30
0.0
 10
75.06810700470237
 20
43.77451772299825
 30
0.0
 10
75.06045112893933
 20
43.76788458909765
 30
0.0
 10
75.05279492468867
 20
43.76374906260312
 30
0.0
 10
75.05148889944054
 20
43.76304360832847
 30
0.0
  0
SPLINE
  5
3C5
330
1F
100
AcDbEntity
  8
0
  6
SLD-Solid
 62
     7
370
    25
100
AcDbSpline
210
0.0
220
0.0
230
1.0
 70
     8
 71
     3
 72
     9
 73
     5
 74
     0
 42
0.00000001
 43
0.00000001
 40
0.0
 40
0.0
 40
0.0
 40
0.0
 40
0.1364074130074831
 40
1.0
 40
1.0
 40
1.0
 40
1.0
 10
74.99952703369776
 20
43.75532384327911
 30
0.0
 10
74.99904187485883
 20
43.75542969413619
 30
0.0
 10
74.995485185173
 20
43.75620568463955
 30
0.0
 10
74.991928466839
 20
43.75889310690621
 30
0.0
 10
74.98885691125173
 20
43.76121394485382
 30
0.0
  0
LINE
  5
3C6
330
1F
100
AcDbEntity
  8
0
  6
SLD-Solid
 62
     7
370
    25
100
AcDbLine
 10
75.0744569113
 20
43.780019351
 30
0.0
 11
75.0623139873
 21
43.7536870755
 31
0.0
  0
SPLINE
  5
3C7
330
1F
100
AcDbEntity
  8
0
  6
SLD-Solid
 62
     7
370
    25
100
AcDbSpline
210
0.0
220
0.0
230
1.0
 70
     8
 71
     3
 72
    13
 73
     9
 74
     0
 42
0.00000001
 43
0.00000001
 40
0.0
 40
0.0
 40
0.0
 40
0.0
 40
0.0290443783064904
 40
0.2376724699990629
 40
0.4463005837151777
 40
0.6549287190163535
 40
0.8635568754683355
 40
1.0
 40
1.0
 40
1.0
 40
1.0
 10
75.03674457291767
 20
43.7116670009495
 30
0.0
 10
75.03613278040038
 20
43.71083175671097
 30
0.0
 10
75.03112643331384
 20
43.70399688632308
 30
0.0
 10
75.02172551943963
 20
43.7000648814422
 30
0.0
 10
75.00854190381851
 20
43.70218472653002
 30
0.0
 10
74.99535805197664
 20
43.71584432004318
 30
0.0
 10
74.98369550318257
 20
43.7349592665398
 30
0.0
 10
74.9764257945163
 20
43.75042312560151
 30
0.0
 10
74.97355131083852
 20
43.75653762241411
 30
0.0
  0
SPLINE
  5
3C8
330
1F
100
AcDbEntity
  8
0
  6
SLD-Solid
 62
     7
370
    25
100
AcDbSpline
210
0.0
220
0.0
230
1.0
 70
     8
 71
     3
 72
    13
 73
     9
 74
     0
 42
0.00000001
 43
0.00000001
 40
0.0
 40
0.0
 40
0.0
 40
0.0
 40
0.0290443783073575
 40
0.2376724699999267
 40
0.4463005837160437
 40
0.6549287190172238
 40
0.8635568754692291
 40
1.0
 40
1.0
 40
1.0
 40
1.0
 10
53.59016924958622
 20
43.71166700094968
 30
0.0
 10
53.59078104210355
 20
43.71083175671112
 30
0.0
 10
53.5957873891901
 20
43.70399688632317
 30
0.0
 10
53.60518830306432
 20
43.70006488144234
 30
0.0
 10
53.61837191868544
 20
43.70218472653011
 30
0.0
 10
53.63155577052731
 20
43.7158443200433
 30
0.0
 10
53.64321831932136
 20
43.73495926653988
 30
0.0
 10
53.65048802798761
 20
43.75042312560155
 30
0.0
 10
53.65336251166538
 20
43.75653762241411
 30
0.0
  0
SPLINE
  5
3C9
330
1F
100
AcDbEntity
  8
0
  6
SLD-Solid
 62
     7
370
    25
100
AcDbSpline
210
0.0
220
0.0
230
1.0
 70
     8
 71
     3
 72
    11
 73
     7
 74
     0
 42
0.00000001
 43
0.00000001
 40
0.0
 40
0.0
 40
0.0
 40
0.0
 40
0.0821307641421112
 40
0.5244868035887188
 40
0.9668484963983744
 40
1.0
 40
1.0
 40
1.0
 40
1.0
 10
53.5870696984105
 20
43.75653762241411
 30
0.0
 10
53.58825251294291
 20
43.75584509862546
 30
0.0
 10
53.59580596285687
 20
43.75142264387167
 30
0.0
 10
53.60973026088761
 20
43.75041495156096
 30
0.0
 10
53.62294895354839
 20
43.75205259666279
 30
0.0
 10
53.62979713977084
 20
43.75624531719352
 30
0.0
 10
53.63027457693121
 20
43.75653762241411
 30
0.0
  0
LINE
  5
3CA
330
1F
100
AcDbEntity
  8
0
  6
SLD-Solid
 62
     7
370
    25
100
AcDbLine
 10
75.1534569113
 20
43.7485478342
 30
0.0
 11
75.1534569113
 21
43.780019351
 31
0.0
  0
LINE
  5
3CB
330
1F
100
AcDbEntity
  8
0
  6
SLD-Solid
 62
     7
370
    25
100
AcDbLine
 10
75.0744569113
 20
43.751019351
 30
0.0
 11
75.0744569113
 21
43.780019351
 31
0.0
  0
LINE
  5
3CC
330
1F
100
AcDbEntity
  8
0
  6
SLD-Solid
 62
     7
370
    25
100
AcDbLine
 10
75.0744569113
 20
43.780019351
 30
0.0
 11
75.0744569113
 21
44.6485478342
 31
0.0
  0
LINE
  5
3CD
330
1F
100
AcDbEntity
  8
0
  6
SLD-Solid
 62
     7
370
    25
100
AcDbLine
 10
75.0744569113
 20
44.6485478342
 30
0.0
 11
75.1034569113
 21
44.6485478342
 31
0.0
  0
LINE
  5
3CE
330
1F
100
AcDbEntity
  8
0
  6
SLD-Solid
 62
     7
370
    25
100
AcDbLine
 10
75.1469175463
 20
43.7485478342
 30
0.0
 11
75.1534569113
 21
43.7485478342
 31
0.0
  0
LINE
  5
3CF
330
1F
100
AcDbEntity
  8
0
  6
SLD-Solid
 62
     7
370
    25
100
AcDbLine
 10
53.4734569113
 20
43.7485478342
 30
0.0
 11
53.4734569113
 21
43.780019351
 31
0.0
  0
LINE
  5
3D0
330
1F
100
AcDbEntity
  8
0
  6
SLD-Solid
 62
     7
370
    25
100
AcDbLine
 10
53.5524569113
 20
43.751019351
 30
0.0
 11
53.5524569113
 21
43.7785478342
 31
0.0
  0
LINE
  5
3D1
330
1F
100
AcDbEntity
  8
0
  6
SLD-Solid
 62
     7
370
    25
100
AcDbLine
 10
53.4799962762
 20
43.7485478342
 30
0.0
 11
53.4734569113
 21
43.7485478342
 31
0.0
  0
LINE
  5
3D2
330
1F
100
AcDbEntity
  8
0
  6
SLD-Solid
 62
     7
370
    25
100
AcDbLine
 10
75.0182569113
 20
44.6485478342
 30
0.0
 11
75.0744569113
 21
44.6485478342
 31
0.0
  0
ARC
  5
3D3
330
1F
100
AcDbEntity
  8
0
  6
SLD-Solid
 62
     7
370
    25
100
AcDbCircle
 10
71.7708569113
 20
38.8045478342
 30
0.0
 40
0.1000000000000085
100
AcDbArc
 50
0.0
 51
180.0
  0
LINE
  5
3D4
330
1F
100
AcDbEntity
  8
0
  6
SLD-Solid
 62
     7
370
    25
100
AcDbLine
 10
71.6708569113
 20
38.6742808706
 30
0.0
 11
71.6708569113
 21
38.8045478342
 31
0.0
  0
ARC
  5
3D5
330
1F
100
AcDbEntity
  8
0
  6
SLD-Solid
 62
     7
370
    25
100
AcDbCircle
 10
71.7708569113
 20
38.5545478342
 30
0.0
 40
0.1560000000000044
100
AcDbArc
 50
129.86834155
 51
50.13165845
  0
LINE
  5
3D6
330
1F
100
AcDbEntity
  8
0
  6
SLD-Solid
 62
     7
370
    25
100
AcDbLine
 10
71.8708569113
 20
38.8045478342
 30
0.0
 11
71.8708569113
 21
38.6742808706
 31
0.0
  0
ARC
  5
3D7
330
1F
100
AcDbEntity
  8
0
  6
SLD-Solid
 62
     7
370
    25
100
AcDbCircle
 10
71.7708569113
 20
27.6795478342
 30
0.0
 40
0.1000000000000085
100
AcDbArc
 50
0.0
 51
180.0
  0
LINE
  5
3D8
330
1F
100
AcDbEntity
  8
0
  6
SLD-Solid
 62
     7
370
    25
100
AcDbLine
 10
71.6708569113
 20
27.5492808706
 30
0.0
 11
71.6708569113
 21
27.6795478342
 31
0.0
  0
ARC
  5
3D9
330
1F
100
AcDbEntity
  8
0
  6
SLD-Solid
 62
     7
370
    25
100
AcDbCircle
 10
71.7708569113
 20
27.4295478342
 30
0.0
 40
0.1560000000000072
100
AcDbArc
 50
129.86834155
 51
50.13165845
  0
LINE
  5
3DA
330
1F
100
AcDbEntity
  8
0
  6
SLD-Solid
 62
     7
370
    25
100
AcDbLine
 10
71.8708569113
 20
27.6795478342
 30
0.0
 11
71.8708569113
 21
27.5492808706
 31
0.0
  0
ARC
  5
3DB
330
1F
100
AcDbEntity
  8
0
  6
SLD-Solid
 62
     7
370
    25
100
AcDbCircle
 10
56.7708569113
 20
27.6795478342
 30
0.0
 40
0.1000000000000014
100
AcDbArc
 50
0.0
 51
180.0
  0
LINE
  5
3DC
330
1F
100
AcDbEntity
  8
0
  6
SLD-Solid
 62
     7
370
    25
100
AcDbLine
 10
56.6708569113
 20
27.5492808706
 30
0.0
 11
56.6708569113
 21
27.6795478342
 31
0.0
  0
ARC
  5
3DD
330
1F
100
AcDbEntity
  8
0
  6
SLD-Solid
 62
     7
370
    25
100
AcDbCircle
 10
56.7708569113
 20
27.4295478342
 30
0.0
 40
0.1559999999999999
100
AcDbArc
 50
129.86834155
 51
50.13165845
  0
LINE
  5
3DE
330
1F
100
AcDbEntity
  8
0
  6
SLD-Solid
 62
     7
370
    25
100
AcDbLine
 10
56.8708569113
 20
27.6795478342
 30
0.0
 11
56.8708569113
 21
27.5492808706
 31
0.0
  0
ARC
  5
3DF
330
1F
100
AcDbEntity
  8
0
  6
SLD-Solid
 62
     7
370
    25
100
AcDbCircle
 10
56.7708569113
 20
38.8045478342
 30
0.0
 40
0.1000000000000014
100
AcDbArc
 50
0.0
 51
180.0
  0
LINE
  5
3E0
330
1F
100
AcDbEntity
  8
0
  6
SLD-Solid
 62
     7
370
    25
100
AcDbLine
 10
56.6708569113
 20
38.6742808706
 30
0.0
 11
56.6708569113
 21
38.8045478342
 31
0.0
  0
ARC
  5
3E1
330
1F
100
AcDbEntity
  8
0
  6
SLD-Solid
 62
     7
370
    25
100
AcDbCircle
 10
56.7708569113
 20
38.5545478342
 30
0.0
 40
0.1559999999999999
100
AcDbArc
 50
129.86834155
 51
50.13165845
  0
LINE
  5
3E2
330
1F
100
AcDbEntity
  8
0
  6
SLD-Solid
 62
     7
370
    25
100
AcDbLine
 10
56.8708569113
 20
38.8045478342
 30
0.0
 11
56.8708569113
 21
38.6742808706
 31
0.0
  0
LINE
  5
3E3
330
1F
100
AcDbEntity
  8
0
  6
SLD-Solid
 62
     7
370
    25
100
AcDbLine
 10
54.0520409178
 20
43.7785478342
 30
0.0
 11
74.4896729047
 21
43.7785478342
 31
0.0
  0
LINE
  5
3E4
330
1F
100
AcDbEntity
  8
0
  6
SLD-Solid
 62
     7
370
    25
100
AcDbLine
 10
74.8333569113
 20
13.6671473947
 30
0.0
 11
53.7083569113
 21
13.6671473947
 31
0.0
  0
LINE
  5
3E5
330
1F
100
AcDbEntity
  8
0
  6
SLD-Solid
 62
     7
370
    25
100
AcDbLine
 10
74.8333569113
 20
13.6671473947
 30
0.0
 11
74.8333569113
 21
13.6051473947
 31
0.0
  0
LINE
  5
3E6
330
1F
100
AcDbEntity
  8
0
  6
SLD-Solid
 62
     7
370
    25
100
AcDbLine
 10
53.7083569113
 20
13.6051473947
 30
0.0
 11
74.8333569113
 21
13.6051473947
 31
0.0
  0
LINE
  5
3E7
330
1F
100
AcDbEntity
  8
0
  6
SLD-Solid
 62
     7
370
    25
100
AcDbLine
 10
53.7083569113
 20
13.6671473947
 30
0.0
 11
53.7083569113
 21
13.6051473947
 31
0.0
  0
ARC
  5
3E8
330
1F
100
AcDbEntity
  8
0
  6
SLD-Solid
 62
     7
370
    25
100
AcDbCircle
 10
53.7583569113
 20
14.3491918828
 30
0.0
 40
0.0500000000000025
100
AcDbArc
 50
90.0
 51
180.0
  0
LINE
  5
3E9
330
1F
100
AcDbEntity
  8
0
  6
SLD-Solid
 62
     7
370
    25
100
AcDbLine
 10
74.8333569113
 20
14.3991918828
 30
0.0
 11
53.7583569113
 21
14.3991918828
 31
0.0
  0
LINE
  5
3EA
330
1F
100
AcDbEntity
  8
0
  6
SLD-Solid
 62
     7
370
    25
100
AcDbLine
 10
74.8333569113
 20
14.3991918828
 30
0.0
 11
74.8333569113
 21
13.6671473947
 31
0.0
  0
LINE
  5
3EB
330
1F
100
AcDbEntity
  8
0
  6
SLD-Solid
 62
     7
370
    25
100
AcDbLine
 10
53.7083569113
 20
13.6671473947
 30
0.0
 11
53.7083569113
 21
14.3491918828
 31
0.0
  0
LINE
  5
3EC
330
1F
100
AcDbEntity
  8
0
  6
SLD-Solid
 62
     7
370
    25
100
AcDbLine
 10
74.8702459169
 20
13.7785478342
 30
0.0
 11
74.8702459169
 21
43.7785478342
 31
0.0
  0
LINE
  5
3ED
330
1F
100
AcDbEntity
  8
0
  6
SLD-Solid
 62
     7
370
    25
100
AcDbLine
 10
74.8333569113
 20
13.7785478342
 30
0.0
 11
74.8702459169
 21
13.7785478342
 31
0.0
  0
LINE
  5
3EE
330
1F
100
AcDbEntity
  8
0
  6
SLD-Solid
 62
     7
370
    25
100
AcDbLine
 10
74.8697388092
 20
43.7785478342
 30
0.0
 11
74.8002459169
 21
43.7785478342
 31
0.0
  0
LINE
  5
3EF
330
1F
100
AcDbEntity
  8
0
  6
SLD-Solid
 62
     7
370
    25
100
AcDbLine
 10
74.3396729047
 20
14.3991918828
 30
0.0
 11
74.3396729047
 21
43.6285478342
 31
0.0
  0
ARC
  5
3F0
330
1F
100
AcDbEntity
  8
0
  6
SLD-Solid
 62
     7
370
    25
100
AcDbCircle
 10
74.4896729047
 20
43.6285478342
 30
0.0
 40
0.1500000000000057
100
AcDbArc
 50
90.0
 51
180.0
  0
LINE
  5
3F1
330
1F
100
AcDbEntity
  8
0
  6
SLD-Solid
 62
     7
370
    25
100
AcDbLine
 10
74.4896729047
 20
43.7785478342
 30
0.0
 11
74.8002459169
 21
43.7785478342
 31
0.0
  0
LINE
  5
3F2
330
1F
100
AcDbEntity
  8
0
  6
SLD-Solid
 62
     7
370
    25
100
AcDbLine
 10
53.7414679056
 20
43.7785478342
 30
0.0
 11
54.0520409178
 21
43.7785478342
 31
0.0
  0
ARC
  5
3F3
330
1F
100
AcDbEntity
  8
0
  6
SLD-Solid
 62
     7
370
    25
100
AcDbCircle
 10
54.0520409178
 20
43.6285478342
 30
0.0
 40
0.1499999999999986
100
AcDbArc
 50
0.0
 51
90.0
  0
LINE
  5
3F4
330
1F
100
AcDbEntity
  8
0
  6
SLD-Solid
 62
     7
370
    25
100
AcDbLine
 10
54.2020409178
 20
43.6285478342
 30
0.0
 11
54.2020409178
 21
14.3991918828
 31
0.0
  0
LINE
  5
3F5
330
1F
100
AcDbEntity
  8
0
  6
SLD-Solid
 62
     7
370
    25
100
AcDbLine
 10
53.6714679056
 20
13.7785478342
 30
0.0
 11
53.7083569113
 21
13.7785478342
 31
0.0
  0
LINE
  5
3F6
330
1F
100
AcDbEntity
  8
0
  6
SLD-Solid
 62
     7
370
    25
100
AcDbLine
 10
53.6714679056
 20
13.7785478342
 30
0.0
 11
53.6714679056
 21
43.7785478342
 31
0.0
  0
LINE
  5
3F7
330
1F
100
AcDbEntity
  8
0
  6
SLD-Solid
 62
     7
370
    25
100
AcDbLine
 10
53.7414679056
 20
43.7785478342
 30
0.0
 11
53.6719871891
 21
43.7785478342
 31
0.0
  0
LINE
  5
3F8
330
1F
100
AcDbEntity
  8
0
  6
SLD-Solid
 62
     7
370
    25
100
AcDbLine
 10
74.8702459169
 20
13.7585478342
 30
0.0
 11
74.8402459169
 21
13.7585478342
 31
0.0
  0
LINE
  5
3F9
330
1F
100
AcDbEntity
  8
0
  6
SLD-Solid
 62
     7
370
    25
100
AcDbLine
 10
74.8702459169
 20
13.7585478342
 30
0.0
 11
74.8702459169
 21
13.7785478342
 31
0.0
  0
LINE
  5
3FA
330
1F
100
AcDbEntity
  8
0
  6
SLD-Solid
 62
     7
370
    25
100
AcDbLine
 10
74.8402459169
 20
13.7585478342
 30
0.0
 11
74.8402459169
 21
13.7785478342
 31
0.0
  0
LINE
  5
3FB
330
1F
100
AcDbEntity
  8
0
  6
SLD-Solid
 62
     7
370
    25
100
AcDbLine
 10
53.6714679056
 20
13.7585478342
 30
0.0
 11
53.7014679056
 21
13.7585478342
 31
0.0
  0
LINE
  5
3FC
330
1F
100
AcDbEntity
  8
0
  6
SLD-Solid
 62
     7
370
    25
100
AcDbLine
 10
53.6714679056
 20
13.7785478342
 30
0.0
 11
53.6714679056
 21
13.7585478342
 31
0.0
  0
LINE
  5
3FD
330
1F
100
AcDbEntity
  8
0
  6
SLD-Solid
 62
     7
370
    25
100
AcDbLine
 10
53.7014679056
 20
13.7785478342
 30
0.0
 11
53.7014679056
 21
13.7585478342
 31
0.0
  0
LINE
  5
3FE
330
1F
100
AcDbEntity
  8
0
  6
SLD-Solid
 62
     7
370
    25
100
AcDbLine
 10
74.8702459169
 20
13.6451473947
 30
0.0
 11
74.8402459169
 21
13.6451473947
 31
0.0
  0
LINE
  5
3FF
330
1F
100
AcDbEntity
  8
0
  6
SLD-Solid
 62
     7
370
    25
100
AcDbLine
 10
74.8702459169
 20
13.6451473947
 30
0.0
 11
74.8702459169
 21
13.7585478342
 31
0.0
  0
LINE
  5
400
330
1F
100
AcDbEntity
  8
0
  6
SLD-Solid
 62
     7
370
    25
100
AcDbLine
 10
74.8402459169
 20
13.6451473947
 30
0.0
 11
74.8402459169
 21
13.7585478342
 31
0.0
  0
LINE
  5
401
330
1F
100
AcDbEntity
  8
0
  6
SLD-Solid
 62
     7
370
    25
100
AcDbLine
 10
74.8002459169
 20
13.5751473947
 30
0.0
 11
74.8002459169
 21
13.6051473947
 31
0.0
  0
ARC
  5
402
330
1F
100
AcDbEntity
  8
0
  6
SLD-Solid
 62
     7
370
    25
100
AcDbCircle
 10
74.8002459169
 20
13.6451473947
 30
0.0
 40
0.0399999999999963
100
AcDbArc
 50
325.8708360472
 51
0.0
  0
ARC
  5
403
330
1F
100
AcDbEntity
  8
0
  6
SLD-Solid
 62
     7
370
    25
100
AcDbCircle
 10
74.8002459169
 20
13.6451473947
 30
0.0
 40
0.0700000000000074
100
AcDbArc
 50
270.0
 51
0.0
  0
LINE
  5
404
330
1F
100
AcDbEntity
  8
0
  6
SLD-Solid
 62
     7
370
    25
100
AcDbLine
 10
74.5296729047
 20
13.5751473947
 30
0.0
 11
74.5296729047
 21
13.6051473947
 31
0.0
  0
LINE
  5
405
330
1F
100
AcDbEntity
  8
0
  6
SLD-Solid
 62
     7
370
    25
100
AcDbLine
 10
74.5296729047
 20
13.5751473947
 30
0.0
 11
74.8002459169
 21
13.5751473947
 31
0.0
  0
LINE
  5
406
330
1F
100
AcDbEntity
  8
0
  6
SLD-Solid
 62
     7
370
    25
100
AcDbLine
 10
74.3796729047
 20
13.5751473947
 30
0.0
 11
74.3796729047
 21
13.6051473947
 31
0.0
  0
LINE
  5
407
330
1F
100
AcDbEntity
  8
0
  6
SLD-Solid
 62
     7
370
    25
100
AcDbLine
 10
74.3796729047
 20
13.5751473947
 30
0.0
 11
74.5296729047
 21
13.5751473947
 31
0.0
  0
LINE
  5
408
330
1F
100
AcDbEntity
  8
0
  6
SLD-Solid
 62
     7
370
    25
100
AcDbLine
 10
54.0120409178
 20
13.5751473947
 30
0.0
 11
54.0120409178
 21
13.6051473947
 31
0.0
  0
LINE
  5
409
330
1F
100
AcDbEntity
  8
0
  6
SLD-Solid
 62
     7
370
    25
100
AcDbLine
 10
53.7414679056
 20
13.6051473947
 30
0.0
 11
53.7414679056
 21
13.5751473947
 31
0.0
  0
LINE
  5
40A
330
1F
100
AcDbEntity
  8
0
  6
SLD-Solid
 62
     7
370
    25
100
AcDbLine
 10
53.7414679056
 20
13.5751473947
 30
0.0
 11
54.0120409178
 21
13.5751473947
 31
0.0
  0
LINE
  5
40B
330
1F
100
AcDbEntity
  8
0
  6
SLD-Solid
 62
     7
370
    25
100
AcDbLine
 10
53.7014679056
 20
13.6451473947
 30
0.0
 11
53.6714679056
 21
13.6451473947
 31
0.0
  0
ARC
  5
40C
330
1F
100
AcDbEntity
  8
0
  6
SLD-Solid
 62
     7
370
    25
100
AcDbCircle
 10
53.7414679056
 20
13.6451473947
 30
0.0
 40
0.0399999999999962
100
AcDbArc
 50
180.0
 51
214.1291639536
  0
ARC
  5
40D
330
1F
100
AcDbEntity
  8
0
  6
SLD-Solid
 62
     7
370
    25
100
AcDbCircle
 10
53.7414679056
 20
13.6451473947
 30
0.0
 40
0.0700000000000038
100
AcDbArc
 50
180.0
 51
270.0
  0
LINE
  5
40E
330
1F
100
AcDbEntity
  8
0
  6
SLD-Solid
 62
     7
370
    25
100
AcDbLine
 10
54.1620409178
 20
13.5751473947
 30
0.0
 11
54.1620409178
 21
13.6051473947
 31
0.0
  0
LINE
  5
40F
330
1F
100
AcDbEntity
  8
0
  6
SLD-Solid
 62
     7
370
    25
100
AcDbLine
 10
54.0120409178
 20
13.5751473947
 30
0.0
 11
54.1620409178
 21
13.5751473947
 31
0.0
  0
LINE
  5
410
330
1F
100
AcDbEntity
  8
0
  6
SLD-Solid
 62
     7
370
    25
100
AcDbLine
 10
53.6714679056
 20
13.7585478342
 30
0.0
 11
53.6714679056
 21
13.6451473947
 31
0.0
  0
LINE
  5
411
330
1F
100
AcDbEntity
  8
0
  6
SLD-Solid
 62
     7
370
    25
100
AcDbLine
 10
53.7014679056
 20
13.7585478342
 30
0.0
 11
53.7014679056
 21
13.6451473947
 31
0.0
  0
LINE
  5
412
330
1F
100
AcDbEntity
  8
0
  6
SLD-Solid
 62
     7
370
    25
100
AcDbLine
 10
74.2864760057
 20
13.5751473947
 30
0.0
 11
74.2864760057
 21
13.6051473947
 31
0.0
  0
LINE
  5
413
330
1F
100
AcDbEntity
  8
0
  6
SLD-Solid
 62
     7
370
    25
100
AcDbLine
 10
74.1364760057
 20
13.5751473947
 30
0.0
 11
74.1364760057
 21
13.6051473947
 31
0.0
  0
LINE
  5
414
330
1F
100
AcDbEntity
  8
0
  6
SLD-Solid
 62
     7
370
    25
100
AcDbLine
 10
74.1364760057
 20
13.5751473947
 30
0.0
 11
74.2864760057
 21
13.5751473947
 31
0.0
  0
LINE
  5
415
330
1F
100
AcDbEntity
  8
0
  6
SLD-Solid
 62
     7
370
    25
100
AcDbLine
 10
54.4053378168
 20
13.5751473947
 30
0.0
 11
54.4053378168
 21
13.6051473947
 31
0.0
  0
LINE
  5
416
330
1F
100
AcDbEntity
  8
0
  6
SLD-Solid
 62
     7
370
    25
100
AcDbLine
 10
54.4053378168
 20
13.5751473947
 30
0.0
 11
74.1364760057
 21
13.5751473947
 31
0.0
  0
LINE
  5
417
330
1F
100
AcDbEntity
  8
0
  6
SLD-Solid
 62
     7
370
    25
100
AcDbLine
 10
54.2553378168
 20
13.5751473947
 30
0.0
 11
54.2553378168
 21
13.6051473947
 31
0.0
  0
LINE
  5
418
330
1F
100
AcDbEntity
  8
0
  6
SLD-Solid
 62
     7
370
    25
100
AcDbLine
 10
54.2553378168
 20
13.5751473947
 30
0.0
 11
54.4053378168
 21
13.5751473947
 31
0.0
  0
LINE
  5
419
330
1F
100
AcDbEntity
  8
0
  6
SLD-Solid
 62
     7
370
    25
100
AcDbLine
 10
74.2866272367
 20
13.5751473947
 30
0.0
 11
74.2866272367
 21
13.6051473947
 31
0.0
  0
LINE
  5
41A
330
1F
100
AcDbEntity
  8
0
  6
SLD-Solid
 62
     7
370
    25
100
AcDbLine
 10
74.2864760057
 20
13.5751473947
 30
0.0
 11
74.2866272367
 21
13.5751473947
 31
0.0
  0
LINE
  5
41B
330
1F
100
AcDbEntity
  8
0
  6
SLD-Solid
 62
     7
370
    25
100
AcDbLine
 10
54.2551865858
 20
13.6051473947
 30
0.0
 11
54.2551865858
 21
13.5751473947
 31
0.0
  0
LINE
  5
41C
330
1F
100
AcDbEntity
  8
0
  6
SLD-Solid
 62
     7
370
    25
100
AcDbLine
 10
54.2551865858
 20
13.5751473947
 30
0.0
 11
54.2553378168
 21
13.5751473947
 31
0.0
  0
LINE
  5
41D
330
1F
100
AcDbEntity
  8
0
  6
SLD-Solid
 62
     7
370
    25
100
AcDbLine
 10
74.8402459169
 20
13.6535478342
 30
0.0
 11
74.8333569113
 21
13.6535478342
 31
0.0
  0
LINE
  5
41E
330
1F
100
AcDbEntity
  8
0
  6
SLD-Solid
 62
     7
370
    25
100
AcDbLine
 10
53.7083569113
 20
13.6535478342
 30
0.0
 11
53.7014679056
 21
13.6535478342
 31
0.0
  0
SPLINE
  5
41F
330
1F
100
AcDbEntity
  8
0
  6
SLD-Solid
 62
     7
370
    25
100
AcDbSpline
210
0.0
220
0.0
230
1.0
 70
     8
 71
     3
 72
    10
 73
     6
 74
     0
 42
0.00000001
 43
0.00000001
 40
0.0
 40
0.0
 40
0.0
 40
0.0
 40
0.1729431512983488
 40
0.5864715756491758
 40
0.9999999999999999
 40
0.9999999999999999
 40
0.9999999999999999
 40
0.9999999999999999
 10
74.28665388167929
 20
13.60514739465253
 30
0.0
 10
74.28665234565982
 20
13.60186719350673
 30
0.0
 10
74.28664713682818
 20
13.59074362648498
 30
0.0
 10
74.2866382551844
 20
13.57850486961488
 30
0.0
 10
74.28663090956007
 20
13.57626655297332
 30
0.0
 10
74.2866272367479
 20
13.57514739465253
 30
0.0
  0
SPLINE
  5
420
330
1F
100
AcDbEntity
  8
0
  6
SLD-Solid
 62
     7
370
    25
100
AcDbSpline
210
0.0
220
0.0
230
1.0
 70
     8
 71
     3
 72
    10
 73
     6
 74
     0
 42
0.00000001
 43
0.00000001
 40
0.0
 40
0.0
 40
0.0
 40
0.0
 40
0.4135284243508242
 40
0.8270568487016513
 40
1.0
 40
1.0
 40
1.0
 40
1.0
 10
54.25518658575604
 20
13.57514739465246
 30
0.0
 10
54.25518291294387
 20
13.57626655297325
 30
0.0
 10
54.25517556731955
 20
13.57850486961481
 30
0.0
 10
54.25516668567577
 20
13.59074362648491
 30
0.0
 10
54.25516147684414
 20
13.60186719350667
 30
0.0
 10
54.25515994082467
 20
13.60514739465246
 30
0.0
  0
LINE
  5
421
330
1F
100
AcDbEntity
  8
0
  6
SLD-Solid
 62
     7
370
    25
100
AcDbLine
 10
53.5528569113
 20
43.7565376224
 30
0.0
 11
53.6714679056
 21
43.7565376224
 31
0.0
  0
LINE
  5
422
330
1F
100
AcDbEntity
  8
0
  6
SLD-Solid
 62
     7
370
    25
100
AcDbLine
 10
74.8702459169
 20
43.7565376224
 30
0.0
 11
74.9888569113
 21
43.7565376224
 31
0.0
  0
LINE
  5
423
330
1F
100
AcDbEntity
  8
0
  6
SLD-Solid
 62
     7
370
    25
100
AcDbLine
 10
53.5528569113
 20
43.7785478342
 30
0.0
 11
53.5528569113
 21
43.7565376224
 31
0.0
  0
LINE
  5
424
330
1F
100
AcDbEntity
  8
0
  6
SLD-Solid
 62
     7
370
    25
100
AcDbLine
 10
74.9888569113
 20
43.7565376224
 30
0.0
 11
74.9888569113
 21
43.7785478342
 31
0.0
  0
LINE
  5
425
330
1F
100
AcDbEntity
  8
0
  6
SLD-Solid
 62
     7
370
    25
100
AcDbLine
 10
74.9533569113
 20
43.7785478342
 30
0.0
 11
75.0182569113
 21
43.7785478342
 31
0.0
  0
LINE
  5
426
330
1F
100
AcDbEntity
  8
0
  6
SLD-Solid
 62
     7
370
    25
100
AcDbLine
 10
74.9533569113
 20
43.7785478342
 30
0.0
 11
74.9533569113
 21
52.0508270721
 31
0.0
  0
SPLINE
  5
427
330
1F
100
AcDbEntity
  8
0
  6
SLD-Solid
 62
     7
370
    25
100
AcDbSpline
210
0.0
220
0.0
230
1.0
 70
     8
 71
     3
 72
    11
 73
     7
 74
     0
 42
0.00000001
 43
0.00000001
 40
0.0
 40
0.0
 40
0.0
 40
0.0
 40
0.2500000000000217
 40
0.5000000000000164
 40
0.7500000000000052
 40
1.0
 40
1.0
 40
1.0
 40
1.0
 10
75.01825691125192
 20
52.05253762241416
 30
0.0
 10
75.01728136217803
 20
52.05239507655319
 30
0.0
 10
75.01533026403023
 20
52.05210998483125
 30
0.0
 10
75.00032219009859
 20
52.05168234724834
 30
0.0
 10
74.978869823681
 20
52.05125470966546
 30
0.0
 10
74.96186121539495
 20
52.05096961794351
 30
0.0
 10
74.95335691125193
 20
52.05082707208255
 30
0.0
  0
LINE
  5
428
330
1F
100
AcDbEntity
  8
0
  6
SLD-Solid
 62
     7
370
    25
100
AcDbLine
 10
75.0182569113
 20
52.0525376224
 30
0.0
 11
75.0182569113
 21
43.7785478342
 31
0.0
  0
SPLINE
  5
429
330
1F
100
AcDbEntity
  8
0
  6
SLD-Solid
 62
     7
370
    25
100
AcDbSpline
210
0.0
220
0.0
230
1.0
 70
     8
 71
     3
 72
    11
 73
     7
 74
     0
 42
0.00000001
 43
0.00000001
 40
0.0
 40
0.0
 40
0.0
 40
0.0
 40
0.2500000000000347
 40
0.5000000000000331
 40
0.7500000000000314
 40
1.0
 40
1.0
 40
1.0
 40
1.0
 10
53.52345691125192
 20
52.05253762241422
 30
0.0
 10
53.52443246032581
 20
52.05239507655326
 30
0.0
 10
53.5263835584736
 20
52.05210998483133
 30
0.0
 10
53.54139163240525
 20
52.05168234724841
 30
0.0
 10
53.56284399882284
 20
52.05125470966551
 30
0.0
 10
53.57985260710889
 20
52.05096961794358
 30
0.0
 10
53.58835691125191
 20
52.0508270720826
 30
0.0
  0
LINE
  5
42A
330
1F
100
AcDbEntity
  8
0
  6
SLD-Solid
 62
     7
370
    25
100
AcDbLine
 10
53.5883569113
 20
43.7785478342
 30
0.0
 11
53.5883569113
 21
52.0508270721
 31
0.0
  0
LINE
  5
42B
330
1F
100
AcDbEntity
  8
0
  6
SLD-Solid
 62
     7
370
    25
100
AcDbLine
 10
53.5883569113
 20
43.7785478342
 30
0.0
 11
53.5234569113
 21
43.7785478342
 31
0.0
  0
LINE
  5
42C
330
1F
100
AcDbEntity
  8
0
  6
SLD-Solid
 62
     7
370
    25
100
AcDbLine
 10
53.5234569113
 20
52.0525376224
 30
0.0
 11
53.5234569113
 21
43.7785478342
 31
0.0
  0
ARC
  5
42D
330
1F
100
AcDbEntity
  8
0
  6
SLD-Solid
 62
     7
370
    25
100
AcDbCircle
 10
74.5323569113
 20
43.8785478342
 30
0.0
 40
0.0999999999999943
100
AcDbArc
 50
180.0
 51
270.0
  0
LINE
  5
42E
330
1F
100
AcDbEntity
  8
0
  6
SLD-Solid
 62
     7
370
    25
100
AcDbLine
 10
74.4323569113
 20
43.8785478342
 30
0.0
 11
74.4323569113
 21
51.5298270721
 31
0.0
  0
LINE
  5
42F
330
1F
100
AcDbEntity
  8
0
  6
SLD-Solid
 62
     7
370
    25
100
AcDbLine
 10
74.4323569113
 20
51.5298270721
 30
0.0
 11
74.9533569113
 21
52.0508270721
 31
0.0
  0
LINE
  5
430
330
1F
100
AcDbEntity
  8
0
  6
SLD-Solid
 62
     7
370
    25
100
AcDbLine
 10
74.9533569113
 20
43.7785478342
 30
0.0
 11
74.8697388092
 21
43.7785478342
 31
0.0
  0
LINE
  5
431
330
1F
100
AcDbEntity
  8
0
  6
SLD-Solid
 62
     7
370
    25
100
AcDbLine
 10
54.1093569113
 20
51.5298270721
 30
0.0
 11
53.5883569113
 21
52.0508270721
 31
0.0
  0
LINE
  5
432
330
1F
100
AcDbEntity
  8
0
  6
SLD-Solid
 62
     7
370
    25
100
AcDbLine
 10
54.1093569113
 20
43.8785478342
 30
0.0
 11
54.1093569113
 21
51.5298270721
 31
0.0
  0
ARC
  5
433
330
1F
100
AcDbEntity
  8
0
  6
SLD-Solid
 62
     7
370
    25
100
AcDbCircle
 10
54.0093569113
 20
43.8785478342
 30
0.0
 40
0.1000000000000014
100
AcDbArc
 50
270.0
 51
0.0
  0
LINE
  5
434
330
1F
100
AcDbEntity
  8
0
  6
SLD-Solid
 62
     7
370
    25
100
AcDbLine
 10
53.5883569113
 20
43.7785478342
 30
0.0
 11
53.6719871891
 21
43.7785478342
 31
0.0
  0
LINE
  5
435
330
1F
100
AcDbEntity
  8
0
  6
SLD-Solid
 62
     7
370
    25
100
AcDbLine
 10
74.9164569113
 20
52.0525376224
 30
0.0
 11
53.6252569113
 21
52.0525376224
 31
0.0
  0
LINE
  5
436
330
1F
100
AcDbEntity
  8
0
  6
SLD-Solid
 62
     7
370
    25
100
AcDbLine
 10
74.9164569113
 20
52.0315376224
 30
0.0
 11
74.9164569113
 21
52.0525376224
 31
0.0
  0
LINE
  5
437
330
1F
100
AcDbEntity
  8
0
  6
SLD-Solid
 62
     7
370
    25
100
AcDbLine
 10
74.9164569113
 20
52.0315376224
 30
0.0
 11
74.4164569113
 21
51.5315376224
 31
0.0
  0
LINE
  5
438
330
1F
100
AcDbEntity
  8
0
  6
SLD-Solid
 62
     7
370
    25
100
AcDbLine
 10
74.4164569113
 20
51.5315376224
 30
0.0
 11
54.1252569113
 21
51.5315376224
 31
0.0
  0
LINE
  5
439
330
1F
100
AcDbEntity
  8
0
  6
SLD-Solid
 62
     7
370
    25
100
AcDbLine
 10
53.6252569113
 20
52.0315376224
 30
0.0
 11
54.1252569113
 21
51.5315376224
 31
0.0
  0
LINE
  5
43A
330
1F
100
AcDbEntity
  8
0
  6
SLD-Solid
 62
     7
370
    25
100
AcDbLine
 10
53.6252569113
 20
52.0315376224
 30
0.0
 11
53.6252569113
 21
52.0525376224
 31
0.0
  0
LINE
  5
43B
330
1F
100
AcDbEntity
  8
0
  6
SLD-Solid
 62
     7
370
    25
100
AcDbLine
 10
53.6252569113
 20
52.0525376224
 30
0.0
 11
53.6252569113
 21
52.1174376224
 31
0.0
  0
LINE
  5
43C
330
1F
100
AcDbEntity
  8
0
  6
SLD-Solid
 62
     7
370
    25
100
AcDbLine
 10
74.9164569113
 20
52.1174376224
 30
0.0
 11
53.6252569113
 21
52.1174376224
 31
0.0
  0
LINE
  5
43D
330
1F
100
AcDbEntity
  8
0
  6
SLD-Solid
 62
     7
370
    25
100
AcDbLine
 10
74.9164569113
 20
52.0525376224
 30
0.0
 11
74.9164569113
 21
52.1174376224
 31
0.0
  0
ARC
  5
43E
330
1F
100
AcDbEntity
  8
0
  6
SLD-Solid
 62
     7
370
    25
100
AcDbCircle
 10
74.9164569113
 20
52.0525376224
 30
0.0
 40
0.0649000000000086
100
AcDbArc
 50
0.0
 51
90.0
  0
ARC
  5
43F
330
1F
100
AcDbEntity
  8
0
  6
SLD-Solid
 62
     7
370
    25
100
AcDbCircle
 10
53.6252569113
 20
52.0525376224
 30
0.0
 40
0.0648999999999944
100
AcDbArc
 50
90.0
 51
180.0
  0
ARC
  5
440
330
1F
100
AcDbEntity
  8
0
  6
SLD-Solid
 62
     7
370
    25
100
AcDbCircle
 10
74.9627810913
 20
52.0180197772
 30
0.0
 40
0.0610081406032358
100
AcDbArc
 50
34.4572245533
 51
77.1340469586
  0
ARC
  5
441
330
1F
100
AcDbEntity
  8
0
  6
SLD-Solid
 62
     7
370
    25
100
AcDbCircle
 10
53.5789327311
 20
52.0180197772
 30
0.0
 40
0.061008140593287
100
AcDbArc
 50
102.8659530695
 51
145.5427754486
  0
LINE
  5
442
330
1F
100
AcDbEntity
  8
0
  6
SLD-Solid
 62
     8
370
    25
100
AcDbLine
 10
75.0744569113
 20
43.780019351
 30
0.0
 11
75.0450095395
 21
43.780019351
 31
0.0
  0
LINE
  5
443
330
1F
100
AcDbEntity
  8
0
  6
SLD-Solid
 62
     8
370
    25
100
AcDbLine
 10
74.8002459169
 20
14.3991918828
 30
0.0
 11
74.8002459169
 21
43.7785478342
 31
0.0
  0
LINE
  5
444
330
1F
100
AcDbEntity
  8
0
  6
SLD-Solid
 62
     8
370
    25
100
AcDbLine
 10
53.7414679056
 20
14.3962531353
 30
0.0
 11
53.7414679056
 21
43.7785478342
 31
0.0
  0
LINE
  5
445
330
1F
100
AcDbEntity
  8
0
  6
SLD-Solid
 62
     8
370
    25
100
AcDbLine
 10
53.6251002249
 20
52.0730437191
 30
0.0
 11
53.6252569113
 21
52.0730437191
 31
0.0
  0
LINE
  5
446
330
1F
100
AcDbEntity
  8
0
  6
SLD-Solid
 62
     8
370
    25
100
AcDbLine
 10
74.9164569113
 20
52.0730437191
 30
0.0
 11
74.9166135976
 21
52.0730437191
 31
0.0
  0
DIMENSION
  5
447
330
1F
100
AcDbEntity
  8
DIMS
100
AcDbDimension
  2
_D_4
 10
71.7967388158
 20
27.7761404168
 30
0.0
 11
64.9510232081
 21
10.3730985094
 31
0.0
 70
   163
  1
<>
 71
     1
 42
-1.0
  3
SLDDIMSTYLE2
100
AcDbDiametricDimension
 15
71.7449750067
 25
27.5829552516
 35
0.0
 40
0.0
  0
DIMENSION
  5
454
330
1F
100
AcDbEntity
  8
DIMS
100
AcDbDimension
  2
_D_5
 10
51.4262128168
 20
52.1174376224
 30
0.0
 11
51.4262128168
 21
44.9572696213
 31
0.0
 70
   160
  1
<>
 71
     2
 42
-1.0
  3
SLDDIMSTYLE1
100
AcDbAlignedDimension
 13
56.7708569113
 23
38.8045478342
 33
0.0
 14
53.6252569113
 24
52.1174376224
 34
0.0
 50
90.0
100
AcDbRotatedDimension
  0
DIMENSION
  5
463
330
1F
100
AcDbEntity
  8
DIMS
100
AcDbDimension
  2
_D_6
 10
56.7708569113
 20
53.4049173781
 30
0.0
 11
64.0333446248
 21
53.4049173781
 31
0.0
 70
   160
  1
<>
 71
     2
 42
-1.0
  3
SLDDIMSTYLE3
100
AcDbAlignedDimension
 13
71.7708569113
 23
38.8045478342
 33
0.0
 14
56.7708569113
 24
38.8045478342
 34
0.0
 50
0.0
100
AcDbRotatedDimension
  0
DIMENSION
  5
46F
330
1F
100
AcDbEntity
  8
DIMS
100
AcDbDimension
  2
_D_7
 10
51.4262128168
 20
27.6795478342
 30
0.0
 11
51.4262128168
 21
33.2420478342
 31
0.0
 70
   160
  1
<>
 71
     2
 42
-1.0
  3
SLDDIMSTYLE1
100
AcDbAlignedDimension
 13
56.7708569113
 23
38.8045478342
 33
0.0
 14
56.7708569113
 24
27.6795478342
 34
0.0
 50
90.0
100
AcDbRotatedDimension
  0
MTEXT
  5
47E
330
1F
100
AcDbEntity
  8
NOTES
100
AcDbMText
 10
61.4087056733
 20
13.0695097561
 30
0.0
 40
0.75
 41
0.0
 71
     1
 72
     1
  1
Back view
  7
SLDTEXTSTYLE1
 73
     1
 44
1.0
  0
MTEXT
  5
47F
330
1F
100
AcDbEntity
  8
NOTES
100
AcDbMText
 10
45.5366155204
 20
54.1431335213
 30
0.0
 40
0.75
 41
0.0
 71
     1
 72
     1
  1
mounting hole (4)
  7
SLDTEXTSTYLE1
 73
     1
 44
1.0
  0
LEADER
  5
481
330
1F
100
AcDbEntity
  8
NOTES
100
AcDbLeader
  3
SLDDIMSTYLE4
 76
     3
 10
56.7983208564
 20
38.9007025622
 30
0.0
 10
54.6468878505
 20
53.7789450379
 30
0.0
 10
54.1468878505
 20
53.7789450379
 30
0.0
  0
SPLINE
  5
482
330
1F
100
AcDbEntity
  8
0
  6
SLD-Solid
 62
     7
370
    25
100
AcDbSpline
210
0.0
220
0.0
230
1.0
 70
     8
 71
     3
 72
     9
 73
     5
 74
     0
 42
0.00000001
 43
0.00000001
 40
0.0
 40
0.0
 40
0.0
 40
0.0
 40
0.4524793894705412
 40
1.0
 40
1.0
 40
1.0
 40
1.0
 10
8.510462737085547
 20
61.67878649778168
 30
0.0
 10
8.510474584167666
 20
61.67879078892774
 30
0.0
 10
8.510500766757184
 20
61.67880027255542
 30
0.0
 10
8.510530367435996
 20
61.67880316485101
 30
0.0
 10
8.510546574417727
 20
61.67880474844245
 30
0.0
  0
SPLINE
  5
483
330
1F
100
AcDbEntity
  8
0
  6
SLD-Solid
 62
     7
370
    25
100
AcDbSpline
210
0.0
220
0.0
230
1.0
 70
     8
 71
     3
 72
     9
 73
     5
 74
     0
 42
0.00000001
 43
0.00000001
 40
0.0
 40
0.0
 40
0.0
 40
0.0
 40
0.4524792920166646
 40
1.0
 40
1.0
 40
1.0
 40
1.0
 10
8.566413303633166
 20
61.6229380192267
 30
0.0
 10
8.566412026767134
 20
61.62292468510678
 30
0.0
 10
8.566409204834605
 20
61.62289521608987
 30
0.0
 10
8.566400059973196
 20
61.62286870000182
 30
0.0
 10
8.566395052972203
 20
61.62285418189451
 30
0.0
  0
ARC
  5
484
330
1F
100
AcDbEntity
  8
0
  6
SLD-Solid
 62
     7
370
    25
100
AcDbCircle
 10
27.3322636421
 20
69.511180851
 30
0.0
 40
0.01400000000001
100
AcDbArc
 50
225.0
 51
270.0
  0
ARC
  5
485
330
1F
100
AcDbEntity
  8
0
  6
SLD-Solid
 62
     7
370
    25
100
AcDbCircle
 10
26.2958128486
 20
69.511180851
 30
0.0
 40
0.01400000000001
100
AcDbArc
 50
270.0
 51
315.0
  0
ARC
  5
486
330
1F
100
AcDbEntity
  8
0
  6
SLD-Solid
 62
     7
370
    25
100
AcDbCircle
 10
12.3322636421
 20
69.511180851
 30
0.0
 40
0.01400000000001
100
AcDbArc
 50
225.0
 51
270.0
  0
ARC
  5
487
330
1F
100
AcDbEntity
  8
0
  6
SLD-Solid
 62
     7
370
    25
100
AcDbCircle
 10
11.2958128486
 20
69.511180851
 30
0.0
 40
0.01400000000001
100
AcDbArc
 50
270.0
 51
315.0
  0
LINE
  5
488
330
1F
100
AcDbEntity
  8
0
  6
SLD-Solid
 62
     7
370
    25
100
AcDbLine
 10
12.3223641471
 20
69.5012813561
 30
0.0
 11
12.2055651573
 21
69.618080346
 31
0.0
  0
LINE
  5
489
330
1F
100
AcDbEntity
  8
0
  6
SLD-Solid
 62
     7
370
    25
100
AcDbLine
 10
11.4225113334
 20
69.618080346
 30
0.0
 11
11.3057123435
 21
69.5012813561
 31
0.0
  0
LINE
  5
48A
330
1F
100
AcDbEntity
  8
0
  6
SLD-Solid
 62
     7
370
    25
100
AcDbLine
 10
27.3223641471
 20
69.5012813561
 30
0.0
 11
27.2055651573
 21
69.618080346
 31
0.0
  0
LINE
  5
48B
330
1F
100
AcDbEntity
  8
0
  6
SLD-Solid
 62
     7
370
    25
100
AcDbLine
 10
26.4225113334
 20
69.618080346
 30
0.0
 11
26.3057123435
 21
69.5012813561
 31
0.0
  0
ARC
  5
48C
330
1F
100
AcDbEntity
  8
0
  6
SLD-Solid
 62
     7
370
    25
100
AcDbCircle
 10
26.4324108283
 20
69.608180851
 30
0.0
 40
0.0139999999999974
100
AcDbArc
 50
90.0
 51
135.0
  0
ARC
  5
48D
330
1F
100
AcDbEntity
  8
0
  6
SLD-Solid
 62
     7
370
    25
100
AcDbCircle
 10
27.1956656623
 20
69.608180851
 30
0.0
 40
0.0139999999999958
100
AcDbArc
 50
45.0
 51
90.0
  0
ARC
  5
48E
330
1F
100
AcDbEntity
  8
0
  6
SLD-Solid
 62
     7
370
    25
100
AcDbCircle
 10
11.4324108283
 20
69.608180851
 30
0.0
 40
0.0139999999999961
100
AcDbArc
 50
90.0
 51
135.0
  0
ARC
  5
48F
330
1F
100
AcDbEntity
  8
0
  6
SLD-Solid
 62
     7
370
    25
100
AcDbCircle
 10
12.1956656623
 20
69.608180851
 30
0.0
 40
0.0139999999999961
100
AcDbArc
 50
45.0
 51
90.0
  0
LINE
  5
490
330
1F
100
AcDbEntity
  8
0
  6
SLD-Solid
 62
     7
370
    25
100
AcDbLine
 10
30.0324382453
 20
61.5438296901
 30
0.0
 11
8.5104382453
 21
61.5438296901
 31
0.0
  0
ARC
  5
491
330
1F
100
AcDbEntity
  8
0
  6
SLD-Solid
 62
     7
370
    25
100
AcDbCircle
 10
30.0324382453
 20
61.6228296901
 30
0.0
 40
0.0790000000000077
100
AcDbArc
 50
270.0
 51
0.0
  0
LINE
  5
492
330
1F
100
AcDbEntity
  8
0
  6
SLD-Solid
 62
     7
370
    25
100
AcDbLine
 10
30.1114382453
 20
69.3638296901
 30
0.0
 11
30.0614382453
 21
69.3638296901
 31
0.0
  0
LINE
  5
493
330
1F
100
AcDbEntity
  8
0
  6
SLD-Solid
 62
     7
370
    25
100
AcDbLine
 10
30.1114382453
 20
69.3638296901
 30
0.0
 11
30.1114382453
 21
61.6228296901
 31
0.0
  0
ARC
  5
494
330
1F
100
AcDbEntity
  8
0
  6
SLD-Solid
 62
     7
370
    25
100
AcDbCircle
 10
8.5104382453
 20
61.6228296901
 30
0.0
 40
0.0789999999999988
100
AcDbArc
 50
180.0
 51
270.0
  0
LINE
  5
495
330
1F
100
AcDbEntity
  8
0
  6
SLD-Solid
 62
     7
370
    25
100
AcDbLine
 10
8.4314382453
 20
69.3638296901
 30
0.0
 11
8.4314382453
 21
61.6228296901
 31
0.0
  0
LINE
  5
496
330
1F
100
AcDbEntity
  8
0
  6
SLD-Solid
 62
     7
370
    25
100
AcDbLine
 10
8.4314382453
 20
69.3638296901
 30
0.0
 11
8.4814382453
 21
69.3638296901
 31
0.0
  0
LINE
  5
497
330
1F
100
AcDbEntity
  8
0
  6
SLD-Solid
 62
     7
370
    25
100
AcDbLine
 10
8.5389976702
 20
69.3638296901
 30
0.0
 11
8.5389976702
 21
61.7284683523
 31
0.0
  0
LINE
  5
498
330
1F
100
AcDbEntity
  8
0
  6
SLD-Solid
 62
     7
370
    25
100
AcDbLine
 10
8.6035382453
 20
69.3638296901
 30
0.0
 11
8.6025382453
 21
69.3638296901
 31
0.0
  0
LINE
  5
499
330
1F
100
AcDbEntity
  8
0
  6
SLD-Solid
 62
     7
370
    25
100
AcDbLine
 10
8.5666382453
 20
69.3638296901
 30
0.0
 11
8.5389976702
 21
69.3638296901
 31
0.0
  0
LINE
  5
49A
330
1F
100
AcDbEntity
  8
0
  6
SLD-Solid
 62
     7
370
    25
100
AcDbLine
 10
8.4814382453
 20
69.3638296901
 30
0.0
 11
8.5389976702
 21
69.3638296901
 31
0.0
  0
LINE
  5
49B
330
1F
100
AcDbEntity
  8
0
  6
SLD-Solid
 62
     7
370
    25
100
AcDbLine
 10
21.1602221702
 20
69.467180851
 30
0.0
 11
17.4678543204
 21
69.467180851
 31
0.0
  0
LINE
  5
49C
330
1F
100
AcDbEntity
  8
0
  6
SLD-Solid
 62
     7
370
    25
100
AcDbLine
 10
28.433427251
 20
69.467180851
 30
0.0
 11
21.333427251
 21
69.467180851
 31
0.0
  0
LINE
  5
49D
330
1F
100
AcDbEntity
  8
0
  6
SLD-Solid
 62
     7
370
    25
100
AcDbLine
 10
17.2946492397
 20
69.467180851
 30
0.0
 11
10.1946492397
 21
69.467180851
 31
0.0
  0
LINE
  5
49E
330
1F
100
AcDbEntity
  8
0
  6
SLD-Solid
 62
     7
370
    25
100
AcDbLine
 10
26.4324108283
 20
69.622180851
 30
0.0
 11
27.1956656271
 21
69.622180851
 31
0.0
  0
LINE
  5
49F
330
1F
100
AcDbEntity
  8
0
  6
SLD-Solid
 62
     7
370
    25
100
AcDbLine
 10
11.4324108283
 20
69.622180851
 30
0.0
 11
12.1956656271
 21
69.622180851
 31
0.0
  0
LINE
  5
4A0
330
1F
100
AcDbEntity
  8
0
  6
SLD-Solid
 62
     7
370
    25
100
AcDbLine
 10
29.8765382453
 20
69.557080851
 30
0.0
 11
29.8765382453
 21
69.527080851
 31
0.0
  0
LINE
  5
4A1
330
1F
100
AcDbEntity
  8
0
  6
SLD-Solid
 62
     7
370
    25
100
AcDbLine
 10
29.8265382453
 20
69.557080851
 30
0.0
 11
29.8765382453
 21
69.557080851
 31
0.0
  0
LINE
  5
4A2
330
1F
100
AcDbEntity
  8
0
  6
SLD-Solid
 62
     7
370
    25
100
AcDbLine
 10
8.7515382453
 20
69.527080851
 30
0.0
 11
8.7515382453
 21
69.557080851
 31
0.0
  0
LINE
  5
4A3
330
1F
100
AcDbEntity
  8
0
  6
SLD-Solid
 62
     7
370
    25
100
AcDbLine
 10
8.7515382453
 20
69.557080851
 30
0.0
 11
11.3615118385
 21
69.557080851
 31
0.0
  0
LINE
  5
4A4
330
1F
100
AcDbEntity
  8
0
  6
SLD-Solid
 62
     7
370
    25
100
AcDbLine
 10
12.2665646522
 20
69.557080851
 30
0.0
 11
26.3615118385
 21
69.557080851
 31
0.0
  0
LINE
  5
4A5
330
1F
100
AcDbEntity
  8
0
  6
SLD-Solid
 62
     7
370
    25
100
AcDbLine
 10
27.2665646522
 20
69.557080851
 30
0.0
 11
29.8265382453
 21
69.557080851
 31
0.0
  0
LINE
  5
4A6
330
1F
100
AcDbEntity
  8
0
  6
SLD-Solid
 62
     7
370
    25
100
AcDbLine
 10
8.7515382453
 20
69.527080851
 30
0.0
 11
8.7809089188
 21
69.527080851
 31
0.0
  0
LINE
  5
4A7
330
1F
100
AcDbEntity
  8
0
  6
SLD-Solid
 62
     7
370
    25
100
AcDbLine
 10
9.2452222519
 20
69.527080851
 30
0.0
 11
11.3315118385
 21
69.527080851
 31
0.0
  0
LINE
  5
4A8
330
1F
100
AcDbEntity
  8
0
  6
SLD-Solid
 62
     7
370
    25
100
AcDbLine
 10
12.2965646522
 20
69.527080851
 30
0.0
 11
26.3315118385
 21
69.527080851
 31
0.0
  0
LINE
  5
4A9
330
1F
100
AcDbEntity
  8
0
  6
SLD-Solid
 62
     7
370
    25
100
AcDbLine
 10
27.2965646522
 20
69.527080851
 30
0.0
 11
29.3828542388
 21
69.527080851
 31
0.0
  0
LINE
  5
4AA
330
1F
100
AcDbEntity
  8
0
  6
SLD-Solid
 62
     7
370
    25
100
AcDbLine
 10
29.8765382453
 20
69.527080851
 30
0.0
 11
29.8765382453
 21
69.5187546871
 31
0.0
  0
LINE
  5
4AB
330
1F
100
AcDbEntity
  8
0
  6
SLD-Solid
 62
     7
370
    25
100
AcDbLine
 10
8.7515382453
 20
69.5188546871
 30
0.0
 11
8.7515382453
 21
69.527080851
 31
0.0
  0
LINE
  5
4AC
330
1F
100
AcDbEntity
  8
0
  6
SLD-Solid
 62
     7
370
    25
100
AcDbLine
 10
29.8765382453
 20
69.4655993773
 30
0.0
 11
29.8765382453
 21
69.4795232674
 31
0.0
  0
LINE
  5
4AD
330
1F
100
AcDbEntity
  8
0
  6
SLD-Solid
 62
     7
370
    25
100
AcDbLine
 10
8.7515382453
 20
69.4655993773
 30
0.0
 11
8.7515382453
 21
69.4796232674
 31
0.0
  0
LINE
  5
4AE
330
1F
100
AcDbEntity
  8
0
  6
SLD-Solid
 62
     7
370
    25
100
AcDbLine
 10
9.2452222519
 20
69.527180851
 30
0.0
 11
9.0952222519
 21
69.527180851
 31
0.0
  0
LINE
  5
4AF
330
1F
100
AcDbEntity
  8
0
  6
SLD-Solid
 62
     7
370
    25
100
AcDbLine
 10
9.0952222519
 20
69.527180851
 30
0.0
 11
8.7846492397
 21
69.527180851
 31
0.0
  0
LINE
  5
4B0
330
1F
100
AcDbEntity
  8
0
  6
SLD-Solid
 62
     7
370
    25
100
AcDbLine
 10
9.0952222519
 20
69.497180851
 30
0.0
 11
8.7846492397
 21
69.497180851
 31
0.0
  0
ARC
  5
4B1
330
1F
100
AcDbEntity
  8
0
  6
SLD-Solid
 62
     7
370
    25
100
AcDbCircle
 10
8.7846492397
 20
69.457180851
 30
0.0
 40
0.0700000000000074
100
AcDbArc
 50
90.0
 51
173.0991711082
  0
ARC
  5
4B2
330
1F
100
AcDbEntity
  8
0
  6
SLD-Solid
 62
     7
370
    25
100
AcDbCircle
 10
8.7846492397
 20
69.457180851
 30
0.0
 40
0.0399999999999991
100
AcDbArc
 50
90.0
 51
167.8621409778
  0
LINE
  5
4B3
330
1F
100
AcDbEntity
  8
0
  6
SLD-Solid
 62
     7
370
    25
100
AcDbLine
 10
29.843427251
 20
69.527080851
 30
0.0
 11
29.5328542388
 21
69.527080851
 31
0.0
  0
LINE
  5
4B4
330
1F
100
AcDbEntity
  8
0
  6
SLD-Solid
 62
     7
370
    25
100
AcDbLine
 10
29.5328542388
 20
69.527080851
 30
0.0
 11
29.3828542388
 21
69.527080851
 31
0.0
  0
ARC
  5
4B5
330
1F
100
AcDbEntity
  8
0
  6
SLD-Solid
 62
     7
370
    25
100
AcDbCircle
 10
29.843427251
 20
69.457080851
 30
0.0
 40
0.0700000000000074
100
AcDbArc
 50
6.9832845035
 51
90.0
  0
LINE
  5
4B6
330
1F
100
AcDbEntity
  8
0
  6
SLD-Solid
 62
     7
370
    25
100
AcDbLine
 10
8.6686382453
 20
67.9437115706
 30
0.0
 11
8.6686382453
 21
67.9737115706
 31
0.0
  0
LINE
  5
4B7
330
1F
100
AcDbEntity
  8
0
  6
SLD-Solid
 62
     7
370
    25
100
AcDbLine
 10
8.6684382453
 20
67.9737115706
 30
0.0
 11
8.6686382453
 21
67.9737115706
 31
0.0
  0
LINE
  5
4B8
330
1F
100
AcDbEntity
  8
0
  6
SLD-Solid
 62
     7
370
    25
100
AcDbLine
 10
8.6684382453
 20
67.9737115706
 30
0.0
 11
8.6684382453
 21
69.3706993773
 31
0.0
  0
LINE
  5
4B9
330
1F
100
AcDbEntity
  8
0
  6
SLD-Solid
 62
     7
370
    25
100
AcDbLine
 10
8.6684382453
 20
69.4006993773
 30
0.0
 11
8.6684382453
 21
69.3706993773
 31
0.0
  0
LINE
  5
4BA
330
1F
100
AcDbEntity
  8
0
  6
SLD-Solid
 62
     7
370
    25
100
AcDbLine
 10
29.9596382453
 20
69.4006993773
 30
0.0
 11
29.9596382453
 21
69.3706993773
 31
0.0
  0
LINE
  5
4BB
330
1F
100
AcDbEntity
  8
0
  6
SLD-Solid
 62
     7
370
    25
100
AcDbLine
 10
29.9596382453
 20
67.9737115706
 30
0.0
 11
29.9596382453
 21
69.3706993773
 31
0.0
  0
LINE
  5
4BC
330
1F
100
AcDbEntity
  8
0
  6
SLD-Solid
 62
     7
370
    25
100
AcDbLine
 10
29.9596382453
 20
67.9737115706
 30
0.0
 11
29.9594382453
 21
67.9737115706
 31
0.0
  0
LINE
  5
4BD
330
1F
100
AcDbEntity
  8
0
  6
SLD-Solid
 62
     7
370
    25
100
AcDbLine
 10
29.9594382453
 20
67.9437115706
 30
0.0
 11
29.9594382453
 21
67.9737115706
 31
0.0
  0
LINE
  5
4BE
330
1F
100
AcDbEntity
  8
0
  6
SLD-Solid
 62
     7
370
    25
100
AcDbLine
 10
30.0614382453
 20
69.4006914351
 30
0.0
 11
30.0614382453
 21
67.9644222488
 31
0.0
  0
LINE
  5
4BF
330
1F
100
AcDbEntity
  8
0
  6
SLD-Solid
 62
     7
370
    25
100
AcDbLine
 10
8.5666382453
 20
69.4006914351
 30
0.0
 11
8.5666382453
 21
67.9644222488
 31
0.0
  0
LINE
  5
4C0
330
1F
100
AcDbEntity
  8
0
  6
SLD-Solid
 62
     7
370
    25
100
AcDbLine
 10
8.6684382453
 20
69.4655993773
 30
0.0
 11
8.6684382453
 21
69.4006993773
 31
0.0
  0
LINE
  5
4C1
330
1F
100
AcDbEntity
  8
0
  6
SLD-Solid
 62
     7
370
    25
100
AcDbLine
 10
8.6684382453
 20
69.4655993773
 30
0.0
 11
29.9596382453
 21
69.4655993773
 31
0.0
  0
LINE
  5
4C2
330
1F
100
AcDbEntity
  8
0
  6
SLD-Solid
 62
     7
370
    25
100
AcDbLine
 10
29.9596382453
 20
69.4655993773
 30
0.0
 11
29.9596382453
 21
69.4006993773
 31
0.0
  0
LINE
  5
4C3
330
1F
100
AcDbEntity
  8
0
  6
SLD-Solid
 62
     7
370
    25
100
AcDbLine
 10
8.6682815589
 20
67.8978203405
 30
0.0
 11
8.6686382453
 21
67.9011978188
 31
0.0
  0
LINE
  5
4C4
330
1F
100
AcDbEntity
  8
0
  6
SLD-Solid
 62
     7
370
    25
100
AcDbLine
 10
8.6686382453
 20
67.9011978188
 30
0.0
 11
8.6686382453
 21
67.9437115706
 31
0.0
  0
LINE
  5
4C5
330
1F
100
AcDbEntity
  8
0
  6
SLD-Solid
 62
     7
370
    25
100
AcDbLine
 10
29.9594382453
 20
67.9011978188
 30
0.0
 11
29.9594382453
 21
67.9437115706
 31
0.0
  0
LINE
  5
4C6
330
1F
100
AcDbEntity
  8
0
  6
SLD-Solid
 62
     7
370
    25
100
AcDbLine
 10
29.9597949317
 20
67.8978203405
 30
0.0
 11
29.9594382453
 21
67.9011978188
 31
0.0
  0
LINE
  5
4C7
330
1F
100
AcDbEntity
  8
0
  6
SLD-Solid
 62
     7
370
    25
100
AcDbLine
 10
29.9597949317
 20
67.8978203405
 30
0.0
 11
8.6682815589
 21
67.8978203405
 31
0.0
  0
ARC
  5
4C8
330
1F
100
AcDbEntity
  8
0
  6
SLD-Solid
 62
     7
370
    25
100
AcDbCircle
 10
29.9864518724
 20
67.9083877746
 30
0.0
 40
0.0286751312180087
100
AcDbArc
 50
201.6245313361
 51
275.9779113284
  0
LINE
  5
4C9
330
1F
100
AcDbEntity
  8
0
  6
SLD-Solid
 62
     7
370
    25
100
AcDbLine
 10
29.9965382453
 20
61.6297005743
 30
0.0
 11
29.9965382453
 21
67.8798685753
 31
0.0
  0
LINE
  5
4CA
330
1F
100
AcDbEntity
  8
0
  6
SLD-Solid
 62
     7
370
    25
100
AcDbLine
 10
29.9894382453
 20
61.6297005743
 30
0.0
 11
29.9965382453
 21
61.6297005743
 31
0.0
  0
ARC
  5
4CB
330
1F
100
AcDbEntity
  8
0
  6
SLD-Solid
 62
     7
370
    25
100
AcDbCircle
 10
29.9867005561
 20
61.6004723878
 30
0.0
 40
0.0293561208530911
100
AcDbArc
 50
84.6489422496
 51
155.086886373
  0
LINE
  5
4CC
330
1F
100
AcDbEntity
  8
0
  6
SLD-Solid
 62
     7
370
    25
100
AcDbLine
 10
8.6680003986
 20
61.61283846
 30
0.0
 11
29.960076092
 21
61.61283846
 31
0.0
  0
ARC
  5
4CD
330
1F
100
AcDbEntity
  8
0
  6
SLD-Solid
 62
     7
370
    25
100
AcDbCircle
 10
8.6413759345
 20
61.6004723878
 30
0.0
 40
0.0293561208531112
100
AcDbArc
 50
24.913113627
 51
95.3510577503
  0
LINE
  5
4CE
330
1F
100
AcDbEntity
  8
0
  6
SLD-Solid
 62
     7
370
    25
100
AcDbLine
 10
8.6386382453
 20
61.6297005743
 30
0.0
 11
8.6315382453
 21
61.6297005743
 31
0.0
  0
LINE
  5
4CF
330
1F
100
AcDbEntity
  8
0
  6
SLD-Solid
 62
     7
370
    25
100
AcDbLine
 10
29.9965382453
 20
67.8798685753
 30
0.0
 11
29.9894382453
 21
67.8798685753
 31
0.0
  0
LINE
  5
4D0
330
1F
100
AcDbEntity
  8
0
  6
SLD-Solid
 62
     7
370
    25
100
AcDbLine
 10
12.8113476172
 20
62.3688299922
 30
0.0
 11
12.8113476172
 21
67.1418007652
 31
0.0
  0
ARC
  5
4D1
330
1F
100
AcDbEntity
  8
0
  6
SLD-Solid
 62
     7
370
    25
100
AcDbCircle
 10
12.9207226172
 20
62.3909270791
 30
0.0
 40
0.1115848191959867
100
AcDbArc
 50
191.421753659
 51
278.0494669755
  0
LINE
  5
4D2
330
1F
100
AcDbEntity
  8
0
  6
SLD-Solid
 62
     7
370
    25
100
AcDbLine
 10
12.9363476172
 20
62.2804416445
 30
0.0
 11
25.6917288735
 21
62.2804416445
 31
0.0
  0
ARC
  5
4D3
330
1F
100
AcDbEntity
  8
0
  6
SLD-Solid
 62
     7
370
    25
100
AcDbCircle
 10
25.7073538735
 20
62.3909270791
 30
0.0
 40
0.1115848191959864
100
AcDbArc
 50
261.9505330245
 51
348.578246341
  0
LINE
  5
4D4
330
1F
100
AcDbEntity
  8
0
  6
SLD-Solid
 62
     7
370
    25
100
AcDbLine
 10
25.8167288735
 20
62.3688299922
 30
0.0
 11
25.8167288735
 21
67.1418007652
 31
0.0
  0
ARC
  5
4D5
330
1F
100
AcDbEntity
  8
0
  6
SLD-Solid
 62
     7
370
    25
100
AcDbCircle
 10
25.7073538735
 20
67.1197036783
 30
0.0
 40
0.1115848191959897
100
AcDbArc
 50
11.421753659
 51
98.0494669755
  0
LINE
  5
4D6
330
1F
100
AcDbEntity
  8
0
  6
SLD-Solid
 62
     7
370
    25
100
AcDbLine
 10
25.6917288735
 20
67.2301891128
 30
0.0
 11
12.9363476172
 21
67.2301891128
 31
0.0
  0
ARC
  5
4D7
330
1F
100
AcDbEntity
  8
0
  6
SLD-Solid
 62
     7
370
    25
100
AcDbCircle
 10
12.9207226172
 20
67.1197036783
 30
0.0
 40
0.111584819195961
100
AcDbArc
 50
81.9505330245
 51
168.578246341
  0
SPLINE
  5
4D8
330
1F
100
AcDbEntity
  8
0
  6
SLD-Solid
 62
     7
370
    25
100
AcDbSpline
210
0.0
220
0.0
230
1.0
 70
     8
 71
     3
 72
    11
 73
     7
 74
     0
 42
0.00000001
 43
0.00000001
 40
0.0
 40
0.0
 40
0.0
 40
0.0
 40
0.2500000000000347
 40
0.5000000000000331
 40
0.7500000000000314
 40
1.0
 40
1.0
 40
1.0
 40
1.0
 10
30.06143824532628
 20
69.40069143508157
 30
0.0
 10
30.06046269625238
 20
69.4091957392246
 30
0.0
 10
30.05851159810458
 20
69.42620434751065
 30
0.0
 10
30.04350352417294
 20
69.44765671392824
 30
0.0
 10
30.02205115775535
 20
69.46266478785988
 30
0.0
 10
30.0050425494693
 20
69.46461588600768
 30
0.0
 10
29.99653824532628
 20
69.46559143508158
 30
0.0
  0
SPLINE
  5
4D9
330
1F
100
AcDbEntity
  8
0
  6
SLD-Solid
 62
     7
370
    25
100
AcDbSpline
210
0.0
220
0.0
230
1.0
 70
     8
 71
     3
 72
    11
 73
     7
 74
     0
 42
0.00000001
 43
0.00000001
 40
0.0
 40
0.0
 40
0.0
 40
0.0
 40
0.2500000000000217
 40
0.5000000000000164
 40
0.7500000000000052
 40
1.0
 40
1.0
 40
1.0
 40
1.0
 10
8.566638245326262
 20
69.40069143508163
 30
0.0
 10
8.56761379440016
 20
69.40919573922466
 30
0.0
 10
8.569564892547959
 20
69.4262043475107
 30
0.0
 10
8.5845729664796
 20
69.4476567139283
 30
0.0
 10
8.606025332897188
 20
69.46266478785992
 30
0.0
 10
8.623033941183234
 20
69.46461588600773
 30
0.0
 10
8.631538245326261
 20
69.46559143508162
 30
0.0
  0
ARC
  5
4DA
330
1F
100
AcDbEntity
  8
0
  6
SLD-Solid
 62
     7
370
    25
100
AcDbCircle
 10
30.0046507453
 20
61.687064612
 30
0.0
 40
0.0579348381265614
100
AcDbArc
 50
261.9505330245
 51
348.578246341
  0
LINE
  5
4DB
330
1F
100
AcDbEntity
  8
0
  6
SLD-Solid
 62
     7
370
    25
100
AcDbLine
 10
30.0614382453
 20
61.6755918044
 30
0.0
 11
30.0614382453
 21
67.9257598054
 31
0.0
  0
ARC
  5
4DC
330
1F
100
AcDbEntity
  8
0
  6
SLD-Solid
 62
     7
370
    25
100
AcDbCircle
 10
8.6234257453
 20
61.687064612
 30
0.0
 40
0.057934838126545
100
AcDbArc
 50
191.421753659
 51
278.0494669755
  0
LINE
  5
4DD
330
1F
100
AcDbEntity
  8
0
  6
SLD-Solid
 62
     7
370
    25
100
AcDbLine
 10
8.5666382453
 20
61.6755918044
 30
0.0
 11
8.5666382453
 21
67.9257598054
 31
0.0
  0
LINE
  5
4DE
330
1F
100
AcDbEntity
  8
0
  6
SLD-Solid
 62
     7
370
    25
100
AcDbLine
 10
29.9596382453
 20
69.4655914351
 30
0.0
 11
29.9965382453
 21
69.4655914351
 31
0.0
  0
LINE
  5
4DF
330
1F
100
AcDbEntity
  8
0
  6
SLD-Solid
 62
     7
370
    25
100
AcDbLine
 10
8.6684382453
 20
69.4655914351
 30
0.0
 11
8.6315382453
 21
69.4655914351
 31
0.0
  0
LINE
  5
4E0
330
1F
100
AcDbEntity
  8
0
  6
SLD-Solid
 62
     7
370
    25
100
AcDbLine
 10
30.0614382453
 20
67.9644222488
 30
0.0
 11
30.0614382453
 21
67.9290669097
 31
0.0
  0
LINE
  5
4E1
330
1F
100
AcDbEntity
  8
0
  6
SLD-Solid
 62
     7
370
    25
100
AcDbLine
 10
8.5666382453
 20
67.9644222488
 30
0.0
 11
8.5666382453
 21
67.9290669097
 31
0.0
  0
LINE
  5
4E2
330
1F
100
AcDbEntity
  8
0
  6
SLD-Solid
 62
     7
370
    25
100
AcDbLine
 10
8.5666382453
 20
67.9290669097
 30
0.0
 11
8.5666382453
 21
67.9257598054
 31
0.0
  0
LINE
  5
4E3
330
1F
100
AcDbEntity
  8
0
  6
SLD-Solid
 62
     7
370
    25
100
AcDbLine
 10
30.0614382453
 20
61.6733743511
 30
0.0
 11
30.0614382453
 21
61.6755918044
 31
0.0
  0
LINE
  5
4E4
330
1F
100
AcDbEntity
  8
0
  6
SLD-Solid
 62
     7
370
    25
100
AcDbLine
 10
29.9594382453
 20
61.5938296901
 30
0.0
 11
29.9596382453
 21
61.5938296901
 31
0.0
  0
LINE
  5
4E5
330
1F
100
AcDbEntity
  8
0
  6
SLD-Solid
 62
     7
370
    25
100
AcDbLine
 10
8.6686382453
 20
61.5938296901
 30
0.0
 11
8.6684382453
 21
61.5938296901
 31
0.0
  0
LINE
  5
4E6
330
1F
100
AcDbEntity
  8
0
  6
SLD-Solid
 62
     8
370
    25
100
AcDbLine
 10
28.6066323318
 20
69.467180851
 30
0.0
 11
28.6066323318
 21
69.4655993773
 31
0.0
  0
LINE
  5
4E7
330
1F
100
AcDbEntity
  8
0
  6
SLD-Solid
 62
     8
370
    25
100
AcDbLine
 10
28.5633310616
 20
69.467180851
 30
0.0
 11
28.5633310616
 21
69.4655993773
 31
0.0
  0
LINE
  5
4E8
330
1F
100
AcDbEntity
  8
0
  6
SLD-Solid
 62
     8
370
    25
100
AcDbLine
 10
17.4678543204
 20
69.467180851
 30
0.0
 11
17.4678543204
 21
69.4655993773
 31
0.0
  0
LINE
  5
4E9
330
1F
100
AcDbEntity
  8
0
  6
SLD-Solid
 62
     8
370
    25
100
AcDbLine
 10
17.4245530502
 20
69.467180851
 30
0.0
 11
17.4245530502
 21
69.4655993773
 31
0.0
  0
LINE
  5
4EA
330
1F
100
AcDbEntity
  8
0
  6
SLD-Solid
 62
     8
370
    25
100
AcDbLine
 10
10.0647454291
 20
69.467180851
 30
0.0
 11
10.0647454291
 21
69.4655993773
 31
0.0
  0
LINE
  5
4EB
330
1F
100
AcDbEntity
  8
0
  6
SLD-Solid
 62
     8
370
    25
100
AcDbLine
 10
10.0214441589
 20
69.467180851
 30
0.0
 11
10.0214441589
 21
69.4655993773
 31
0.0
  0
LINE
  5
4EC
330
1F
100
AcDbEntity
  8
0
  6
SLD-Solid
 62
     8
370
    25
100
AcDbLine
 10
10.1946492397
 20
69.467180851
 30
0.0
 11
10.1946492397
 21
69.4655993773
 31
0.0
  0
LINE
  5
4ED
330
1F
100
AcDbEntity
  8
0
  6
SLD-Solid
 62
     8
370
    25
100
AcDbLine
 10
10.1513479695
 20
69.467180851
 30
0.0
 11
10.1513479695
 21
69.4655993773
 31
0.0
  0
LINE
  5
4EE
330
1F
100
AcDbEntity
  8
0
  6
SLD-Solid
 62
     8
370
    25
100
AcDbLine
 10
21.1602221702
 20
69.467180851
 30
0.0
 11
21.1602221702
 21
69.4655993773
 31
0.0
  0
LINE
  5
4EF
330
1F
100
AcDbEntity
  8
0
  6
SLD-Solid
 62
     8
370
    25
100
AcDbLine
 10
21.333427251
 20
69.467180851
 30
0.0
 11
21.333427251
 21
69.4655993773
 31
0.0
  0
LINE
  5
4F0
330
1F
100
AcDbEntity
  8
0
  6
SLD-Solid
 62
     8
370
    25
100
AcDbLine
 10
21.2901259808
 20
69.467180851
 30
0.0
 11
21.2901259808
 21
69.4655993773
 31
0.0
  0
LINE
  5
4F1
330
1F
100
AcDbEntity
  8
0
  6
SLD-Solid
 62
     8
370
    25
100
AcDbLine
 10
28.4767285212
 20
69.467180851
 30
0.0
 11
28.4767285212
 21
69.4655993773
 31
0.0
  0
LINE
  5
4F2
330
1F
100
AcDbEntity
  8
0
  6
SLD-Solid
 62
     8
370
    25
100
AcDbLine
 10
28.433427251
 20
69.467180851
 30
0.0
 11
28.433427251
 21
69.4655993773
 31
0.0
  0
LINE
  5
4F3
330
1F
100
AcDbEntity
  8
0
  6
SLD-Solid
 62
     8
370
    25
100
AcDbLine
 10
21.2035234404
 20
69.467180851
 30
0.0
 11
21.2035234404
 21
69.4655993773
 31
0.0
  0
LINE
  5
4F4
330
1F
100
AcDbEntity
  8
0
  6
SLD-Solid
 62
     8
370
    25
100
AcDbLine
 10
17.3379505098
 20
69.467180851
 30
0.0
 11
17.3379505098
 21
69.4655993773
 31
0.0
  0
LINE
  5
4F5
330
1F
100
AcDbEntity
  8
0
  6
SLD-Solid
 62
     8
370
    25
100
AcDbLine
 10
17.2946492397
 20
69.467180851
 30
0.0
 11
17.2946492397
 21
69.4655993773
 31
0.0
  0
LINE
  5
4F6
330
1F
100
AcDbEntity
  8
0
  6
SLD-Solid
 62
     8
370
    25
100
AcDbLine
 10
12.2055651573
 20
69.618080346
 30
0.0
 11
11.4225113334
 21
69.618080346
 31
0.0
  0
LINE
  5
4F7
330
1F
100
AcDbEntity
  8
0
  6
SLD-Solid
 62
     8
370
    25
100
AcDbLine
 10
27.2055651573
 20
69.618080346
 30
0.0
 11
26.4225113334
 21
69.618080346
 31
0.0
  0
LINE
  5
4F8
330
1F
100
AcDbEntity
  8
0
  6
SLD-Solid
 62
     8
370
    25
100
AcDbLine
 10
25.6917288735
 20
62.2804416445
 30
0.0
 11
25.6917288735
 21
62.2857110258
 31
0.0
  0
LINE
  5
4F9
330
1F
100
AcDbEntity
  8
0
  6
SLD-Solid
 62
     8
370
    25
100
AcDbLine
 10
12.9363476172
 20
62.2804416445
 30
0.0
 11
12.9363476172
 21
62.2857110258
 31
0.0
  0
LINE
  5
4FA
330
1F
100
AcDbEntity
  8
0
  6
SLD-Solid
 62
     8
370
    25
100
AcDbLine
 10
30.0613624368
 20
61.6733743511
 30
0.0
 11
30.0614382453
 21
61.6733743511
 31
0.0
  0
DIMENSION
  5
4FB
330
1F
100
AcDbEntity
  8
DIMS
100
AcDbDimension
  2
_D_8
 10
31.6862413949
 20
69.557080851
 30
0.0
 11
31.6862413949
 21
65.452197381
 31
0.0
 70
   160
  1
<>
 71
     2
 42
-1.0
  3
SLDDIMSTYLE3
100
AcDbAlignedDimension
 13
30.0324382453
 23
61.5438296901
 33
0.0
 14
29.8265382453
 24
69.557080851
 34
0.0
 50
90.0
100
AcDbRotatedDimension
  0
MTEXT
  5
506
330
1F
100
AcDbEntity
  8
NOTES
100
AcDbMText
 10
17.0333722262
 20
60.5964971489
 30
0.0
 40
0.75
 41
0.0
 71
     1
 72
     1
  1
Top view
  7
SLDTEXTSTYLE1
 73
     1
 44
1.0
  0
ENDSEC
  0
SECTION
  2
OBJECTS
  0
DICTIONARY
  5
C
330
0
100
AcDbDictionary
281
     1
  3
ACAD_GROUP
350
D
  3
ACAD_LAYOUT
350
1A
  3
ACAD_MLINESTYLE
350
17
  3
ACAD_PLOTSETTINGS
350
19
  3
ACAD_PLOTSTYLENAME
350
E
  3
ACAD_SCALELIST
350
47
  3
DWGPROPS
350
507
  0
DICTIONARY
  5
D
102
{ACAD_REACTORS
330
C
102
}
330
C
100
AcDbDictionary
281
     1
  0
DICTIONARY
  5
1A
102
{ACAD_REACTORS
330
C
102
}
330
C
100
AcDbDictionary
281
     1
  3
Layout1
350
1E
  3
Layout2
350
26
  3
Model
350
22
  0
DICTIONARY
  5
17
102
{ACAD_REACTORS
330
C
102
}
330
C
100
AcDbDictionary
281
     1
  3
Standard
350
18
  0
DICTIONARY
  5
19
102
{ACAD_REACTORS
330
C
102
}
330
C
100
AcDbDictionary
281
     1
  0
ACDBDICTIONARYWDFLT
  5
E
102
{ACAD_REACTORS
330
C
102
}
330
C
100
AcDbDictionary
281
     1
  3
Normal
350
F
100
AcDbDictionaryWithDefault
340
F
  0
DICTIONARY
  5
47
102
{ACAD_REACTORS
330
C
102
}
330
C
100
AcDbDictionary
281
     1
  3
A0
350
48
  3
A1
350
49
  3
A2
350
4A
  3
A3
350
4B
  3
A4
350
4C
  3
A5
350
4D
  3
A6
350
4E
  3
A7
350
4F
  3
A8
350
50
  3
A9
350
51
  3
B0
350
52
  3
B1
350
53
  3
B2
350
54
  3
B3
350
55
  3
B4
350
56
  3
B5
350
57
  3
B6
350
58
  3
B7
350
59
  3
B8
350
5A
  3
B9
350
5B
  3
C0
350
5C
  3
C1
350
5D
  3
C2
350
5E
  3
C3
350
5F
  3
C4
350
60
  3
C5
350
61
  3
C6
350
62
  3
C7
350
63
  3
C8
350
64
  3
C9
350
65
  3
D0
350
66
  3
D1
350
67
  3
D2
350
68
  0
XRECORD
  5
507
102
{ACAD_REACTORS
330
C
102
}
330
C
100
AcDbXrecord
280
     1
  1
DWGPROPS COOKIE
  2

  3

  4

  6

  7

  8
carl
  9

300
=
301
=
302
=
303
=
304
=
305
=
306
=
307
=
308
=
309
=
 40
0.0
 41
2459363.785539988
 42
2459363.785546134
  1

 90
        0
  0
LAYOUT
  5
1E
102
{ACAD_REACTORS
330
1A
102
}
330
1A
100
AcDbPlotSettings
  1

  2
none_device
  4

  6

 40
0.0
 41
0.0
 42
0.0
 43
0.0
 44
0.0
 45
0.0
 46
0.0
 47
0.0
 48
0.0
 49
0.0
140
0.0
141
0.0
142
1.0
143
1.0
 70
   688
 72
     0
 73
     0
 74
     5
  7

 75
    16
147
1.0
148
0.0
149
0.0
100
AcDbLayout
  1
Layout1
 70
     1
 71
     1
 10
0.0
 20
0.0
 11
12.0
 21
9.0
 12
0.0
 22
0.0
 32
0.0
 14
1.0000000000E+20
 24
1.0000000000E+20
 34
1.0000000000E+20
 15
-1.0000000000E+20
 25
-1.0000000000E+20
 35
-1.0000000000E+20
146
0.0
 13
0.0
 23
0.0
 33
0.0
 16
1.0
 26
0.0
 36
0.0
 17
0.0
 27
1.0
 37
0.0
 76
     0
330
1B
  0
LAYOUT
  5
26
102
{ACAD_REACTORS
330
1A
102
}
330
1A
100
AcDbPlotSettings
  1

  2
none_device
  4

  6

 40
0.0
 41
0.0
 42
0.0
 43
0.0
 44
0.0
 45
0.0
 46
0.0
 47
0.0
 48
0.0
 49
0.0
140
0.0
141
0.0
142
1.0
143
1.0
 70
   688
 72
     0
 73
     0
 74
     5
  7

 75
    16
147
1.0
148
0.0
149
0.0
100
AcDbLayout
  1
Layout2
 70
     1
 71
     2
 10
0.0
 20
0.0
 11
0.0
 21
0.0
 12
0.0
 22
0.0
 32
0.0
 14
0.0
 24
0.0
 34
0.0
 15
0.0
 25
0.0
 35
0.0
146
0.0
 13
0.0
 23
0.0
 33
0.0
 16
1.0
 26
0.0
 36
0.0
 17
0.0
 27
1.0
 37
0.0
 76
     0
330
23
  0
LAYOUT
  5
22
102
{ACAD_REACTORS
330
1A
102
}
330
1A
100
AcDbPlotSettings
  1

  2
none_device
  4
Letter_(8.50_x_11.00_Inches)
  6

 40
6.35
 41
6.35
 42
6.35000508
 43
6.35000508
 44
215.9
 45
279.4
 46
0.0
 47
0.0
 48
0.0
 49
0.0
140
0.0
141
0.0
142
1.0
143
1.0
 70
  1712
 72
     0
 73
     0
 74
     0
  7

 75
     0
147
1.0
148
0.0
149
0.0
100
AcDbLayout
  1
Model
 70
     1
 71
     0
 10
0.0
 20
0.0
 11
80.375
 21
100.0
 12
0.0
 22
0.0
 32
0.0
 14
0.0
 24
0.0
 34
0.0
 15
80.375
 25
100.0
 35
0.0
146
0.0
 13
0.0
 23
0.0
 33
0.0
 16
1.0
 26
0.0
 36
0.0
 17
0.0
 27
1.0
 37
0.0
 76
     0
330
1F
331
29
  0
MLINESTYLE
  5
18
102
{ACAD_REACTORS
330
17
102
}
330
17
100
AcDbMlineStyle
  2
Standard
 70
     0
  3

 62
   256
 51
90.0
 52
90.0
 71
     2
 49
0.5
 62
   256
  6
BYLAYER
 49
-0.5
 62
   256
  6
BYLAYER
  0
ACDBPLACEHOLDER
  5
F
102
{ACAD_REACTORS
330
E
102
}
330
E
  0
SCALE
  5
48
102
{ACAD_REACTORS
330
47
102
}
330
47
100
AcDbScale
 70
     0
300
1:1
140
1.0
141
1.0
290
     1
  0
SCALE
  5
49
102
{ACAD_REACTORS
330
47
102
}
330
47
100
AcDbScale
 70
     0
300
1:2
140
1.0
141
2.0
290
     0
  0
SCALE
  5
4A
102
{ACAD_REACTORS
330
47
102
}
330
47
100
AcDbScale
 70
     0
300
1:4
140
1.0
141
4.0
290
     0
  0
SCALE
  5
4B
102
{ACAD_REACTORS
330
47
102
}
330
47
100
AcDbScale
 70
     0
300
1:5
140
1.0
141
5.0
290
     0
  0
SCALE
  5
4C
102
{ACAD_REACTORS
330
47
102
}
330
47
100
AcDbScale
 70
     0
300
1:8
140
1.0
141
8.0
290
     0
  0
SCALE
  5
4D
102
{ACAD_REACTORS
330
47
102
}
330
47
100
AcDbScale
 70
     0
300
1:10
140
1.0
141
10.0
290
     0
  0
SCALE
  5
4E
102
{ACAD_REACTORS
330
47
102
}
330
47
100
AcDbScale
 70
     0
300
1:16
140
1.0
141
16.0
290
     0
  0
SCALE
  5
4F
102
{ACAD_REACTORS
330
47
102
}
330
47
100
AcDbScale
 70
     0
300
1:20
140
1.0
141
20.0
290
     0
  0
SCALE
  5
50
102
{ACAD_REACTORS
330
47
102
}
330
47
100
AcDbScale
 70
     0
300
1:30
140
1.0
141
30.0
290
     0
  0
SCALE
  5
51
102
{ACAD_REACTORS
330
47
102
}
330
47
100
AcDbScale
 70
     0
300
1:40
140
1.0
141
40.0
290
     0
  0
SCALE
  5
52
102
{ACAD_REACTORS
330
47
102
}
330
47
100
AcDbScale
 70
     0
300
1:50
140
1.0
141
50.0
290
     0
  0
SCALE
  5
53
102
{ACAD_REACTORS
330
47
102
}
330
47
100
AcDbScale
 70
     0
300
1:100
140
1.0
141
100.0
290
     0
  0
SCALE
  5
54
102
{ACAD_REACTORS
330
47
102
}
330
47
100
AcDbScale
 70
     0
300
2:1
140
2.0
141
1.0
290
     0
  0
SCALE
  5
55
102
{ACAD_REACTORS
330
47
102
}
330
47
100
AcDbScale
 70
     0
300
4:1
140
4.0
141
1.0
290
     0
  0
SCALE
  5
56
102
{ACAD_REACTORS
330
47
102
}
330
47
100
AcDbScale
 70
     0
300
8:1
140
8.0
141
1.0
290
     0
  0
SCALE
  5
57
102
{ACAD_REACTORS
330
47
102
}
330
47
100
AcDbScale
 70
     0
300
10:1
140
10.0
141
1.0
290
     0
  0
SCALE
  5
58
102
{ACAD_REACTORS
330
47
102
}
330
47
100
AcDbScale
 70
     0
300
100:1
140
100.0
141
1.0
290
     0
  0
SCALE
  5
59
102
{ACAD_REACTORS
330
47
102
}
330
47
100
AcDbScale
 70
     0
300
1/128" = 1'-0"
140
0.0078125
141
12.0
290
     0
  0
SCALE
  5
5A
102
{ACAD_REACTORS
330
47
102
}
330
47
100
AcDbScale
 70
     0
300
1/64" = 1'-0"
140
0.015625
141
12.0
290
     0
  0
SCALE
  5
5B
102
{ACAD_REACTORS
330
47
102
}
330
47
100
AcDbScale
 70
     0
300
1/32" = 1'-0"
140
0.03125
141
12.0
290
     0
  0
SCALE
  5
5C
102
{ACAD_REACTORS
330
47
102
}
330
47
100
AcDbScale
 70
     0
300
1/16" = 1'-0"
140
0.0625
141
12.0
290
     0
  0
SCALE
  5
5D
102
{ACAD_REACTORS
330
47
102
}
330
47
100
AcDbScale
 70
     0
300
3/32" = 1'-0"
140
0.09375
141
12.0
290
     0
  0
SCALE
  5
5E
102
{ACAD_REACTORS
330
47
102
}
330
47
100
AcDbScale
 70
     0
300
1/8" = 1'-0"
140
0.125
141
12.0
290
     0
  0
SCALE
  5
5F
102
{ACAD_REACTORS
330
47
102
}
330
47
100
AcDbScale
 70
     0
300
3/16" = 1'-0"
140
0.1875
141
12.0
290
     0
  0
SCALE
  5
60
102
{ACAD_REACTORS
330
47
102
}
330
47
100
AcDbScale
 70
     0
300
1/4" = 1'-0"
140
0.25
141
12.0
290
     0
  0
SCALE
  5
61
102
{ACAD_REACTORS
330
47
102
}
330
47
100
AcDbScale
 70
     0
300
3/8" = 1'-0"
140
0.375
141
12.0
290
     0
  0
SCALE
  5
62
102
{ACAD_REACTORS
330
47
102
}
330
47
100
AcDbScale
 70
     0
300
1/2" = 1'-0"
140
0.5
141
12.0
290
     0
  0
SCALE
  5
63
102
{ACAD_REACTORS
330
47
102
}
330
47
100
AcDbScale
 70
     0
300
3/4" = 1'-0"
140
0.75
141
12.0
290
     0
  0
SCALE
  5
64
102
{ACAD_REACTORS
330
47
102
}
330
47
100
AcDbScale
 70
     0
300
1" = 1'-0"
140
1.0
141
12.0
290
     0
  0
SCALE
  5
65
102
{ACAD_REACTORS
330
47
102
}
330
47
100
AcDbScale
 70
     0
300
1-1/2" = 1'-0"
140
1.5
141
12.0
290
     0
  0
SCALE
  5
66
102
{ACAD_REACTORS
330
47
102
}
330
47
100
AcDbScale
 70
     0
300
3" = 1'-0"
140
3.0
141
12.0
290
     0
  0
SCALE
  5
67
102
{ACAD_REACTORS
330
47
102
}
330
47
100
AcDbScale
 70
     0
300
6" = 1'-0"
140
6.0
141
12.0
290
     0
  0
SCALE
  5
68
102
{ACAD_REACTORS
330
47
102
}
330
47
100
AcDbScale
 70
     0
300
1'-0" = 1'-0"
140
12.0
141
12.0
290
     0
  0
ENDSEC
  0
EOF
