  0
SECTION
  2
HEADER
  9
$ACADVER
  1
AC1018
  9
$ACADMAINTVER
 70
    39
  9
$DWGCODEPAGE
  3
ANSI_1252
  9
$LASTSAVEDBY
  1
fottrem
  9
$INSBASE
 10
0.0
 20
0.0
 30
0.0
  9
$EXTMIN
 10
1.571907943364172
 20
0.3573773641115476
 30
-9.778058050444226
  9
$EXTMAX
 10
82.0
 20
59.99038150796288
 30
2.221782264413462
  9
$LIMMIN
 10
0.0
 20
0.0
  9
$LIMMAX
 10
82.375
 20
62.0
  9
$ORTHOMODE
 70
     0
  9
$REGENMODE
 70
     1
  9
$FILLMODE
 70
     1
  9
$QTEXTMODE
 70
     0
  9
$MIRRTEXT
 70
     1
  9
$LTSCALE
 40
1.0
  9
$ATTMODE
 70
     1
  9
$TEXTSIZE
 40
0.5
  9
$TRACEWID
 40
0.05
  9
$TEXTSTYLE
  7
Standard
  9
$CLAYER
  8
0
  9
$CELTYPE
  6
ByLayer
  9
$CECOLOR
 62
   256
  9
$CELTSCALE
 40
1.0
  9
$DISPSILH
 70
     0
  9
$DIMSCALE
 40
1.0
  9
$DIMASZ
 40
0.5
  9
$DIMEXO
 40
0.1666666666666667
  9
$DIMDLI
 40
0.38
  9
$DIMRND
 40
0.0
  9
$DIMDLE
 40
0.0
  9
$DIMEXE
 40
0.3750000000000001
  9
$DIMTP
 40
0.0
  9
$DIMTM
 40
0.0
  9
$DIMTXT
 40
0.5
  9
$DIMCEN
 40
0.09
  9
$DIMTSZ
 40
0.0
  9
$DIMTOL
 70
     0
  9
$DIMLIM
 70
     0
  9
$DIMTIH
 70
     1
  9
$DIMTOH
 70
     1
  9
$DIMSE1
 70
     0
  9
$DIMSE2
 70
     0
  9
$DIMTAD
 70
     0
  9
$DIMZIN
 70
     1
  9
$DIMBLK
  1

  9
$DIMASO
 70
     1
  9
$DIMSHO
 70
     1
  9
$DIMPOST
  1

  9
$DIMAPOST
  1

  9
$DIMALT
 70
     0
  9
$DIMALTD
 70
     2
  9
$DIMALTF
 40
25.4
  9
$DIMLFAC
 40
1.0
  9
$DIMTOFL
 70
     0
  9
$DIMTVP
 40
0.0
  9
$DIMTIX
 70
     0
  9
$DIMSOXD
 70
     0
  9
$DIMSAH
 70
     0
  9
$DIMBLK1
  1

  9
$DIMBLK2
  1

  9
$DIMSTYLE
  2
Standard
  9
$DIMCLRD
 70
     0
  9
$DIMCLRE
 70
     0
  9
$DIMCLRT
 70
     0
  9
$DIMTFAC
 40
1.0
  9
$DIMGAP
 40
0.125
  9
$DIMJUST
 70
     0
  9
$DIMSD1
 70
     0
  9
$DIMSD2
 70
     0
  9
$DIMTOLJ
 70
     1
  9
$DIMTZIN
 70
     1
  9
$DIMALTZ
 70
     0
  9
$DIMALTTZ
 70
     0
  9
$DIMUPT
 70
     0
  9
$DIMDEC
 70
     2
  9
$DIMTDEC
 70
     2
  9
$DIMALTU
 70
     2
  9
$DIMALTTD
 70
     2
  9
$DIMTXSTY
  7
Standard
  9
$DIMAUNIT
 70
     0
  9
$DIMADEC
 70
     2
  9
$DIMALTRND
 40
0.0
  9
$DIMAZIN
 70
     0
  9
$DIMDSEP
 70
    46
  9
$DIMATFIT
 70
     3
  9
$DIMFRAC
 70
     0
  9
$DIMLDRBLK
  1

  9
$DIMLUNIT
 70
     2
  9
$DIMLWD
 70
    -2
  9
$DIMLWE
 70
    -2
  9
$DIMTMOVE
 70
     0
  9
$LUNITS
 70
     2
  9
$LUPREC
 70
     3
  9
$SKETCHINC
 40
0.1
  9
$FILLETRAD
 40
0.5
  9
$AUNITS
 70
     0
  9
$AUPREC
 70
     2
  9
$MENU
  1
.
  9
$ELEVATION
 40
0.0
  9
$PELEVATION
 40
0.0
  9
$THICKNESS
 40
0.0
  9
$LIMCHECK
 70
     0
  9
$CHAMFERA
 40
0.0
  9
$CHAMFERB
 40
0.0
  9
$CHAMFERC
 40
0.0
  9
$CHAMFERD
 40
0.0
  9
$SKPOLY
 70
     0
  9
$TDCREATE
 40
2453353.550459155
  9
$TDUCREATE
 40
2453353.717125822
  9
$TDUPDATE
 40
2459452.606367558
  9
$TDUUPDATE
 40
2459452.773034225
  9
$TDINDWG
 40
0.0471179745
  9
$TDUSRTIMER
 40
0.0471179745
  9
$USRTIMER
 70
     1
  9
$ANGBASE
 50
0.0
  9
$ANGDIR
 70
     0
  9
$PDMODE
 70
     0
  9
$PDSIZE
 40
-1.0
  9
$PLINEWID
 40
0.0
  9
$SPLFRAME
 70
     0
  9
$SPLINETYPE
 70
     6
  9
$SPLINESEGS
 70
     8
  9
$HANDSEED
  5
602
  9
$SURFTAB1
 70
     6
  9
$SURFTAB2
 70
     6
  9
$SURFTYPE
 70
     6
  9
$SURFU
 70
     6
  9
$SURFV
 70
     6
  9
$UCSBASE
  2

  9
$UCSNAME
  2

  9
$UCSORG
 10
0.0
 20
0.0
 30
0.0
  9
$UCSXDIR
 10
1.0
 20
0.0
 30
0.0
  9
$UCSYDIR
 10
0.0
 20
1.0
 30
0.0
  9
$UCSORTHOREF
  2

  9
$UCSORTHOVIEW
 70
     0
  9
$UCSORGTOP
 10
0.0
 20
0.0
 30
0.0
  9
$UCSORGBOTTOM
 10
0.0
 20
0.0
 30
0.0
  9
$UCSORGLEFT
 10
0.0
 20
0.0
 30
0.0
  9
$UCSORGRIGHT
 10
0.0
 20
0.0
 30
0.0
  9
$UCSORGFRONT
 10
0.0
 20
0.0
 30
0.0
  9
$UCSORGBACK
 10
0.0
 20
0.0
 30
0.0
  9
$PUCSBASE
  2

  9
$PUCSNAME
  2

  9
$PUCSORG
 10
0.0
 20
0.0
 30
0.0
  9
$PUCSXDIR
 10
1.0
 20
0.0
 30
0.0
  9
$PUCSYDIR
 10
0.0
 20
1.0
 30
0.0
  9
$PUCSORTHOREF
  2

  9
$PUCSORTHOVIEW
 70
     0
  9
$PUCSORGTOP
 10
0.0
 20
0.0
 30
0.0
  9
$PUCSORGBOTTOM
 10
0.0
 20
0.0
 30
0.0
  9
$PUCSORGLEFT
 10
0.0
 20
0.0
 30
0.0
  9
$PUCSORGRIGHT
 10
0.0
 20
0.0
 30
0.0
  9
$PUCSORGFRONT
 10
0.0
 20
0.0
 30
0.0
  9
$PUCSORGBACK
 10
0.0
 20
0.0
 30
0.0
  9
$USERI1
 70
     0
  9
$USERI2
 70
     0
  9
$USERI3
 70
     0
  9
$USERI4
 70
     0
  9
$USERI5
 70
     0
  9
$USERR1
 40
0.0
  9
$USERR2
 40
0.0
  9
$USERR3
 40
0.0
  9
$USERR4
 40
0.0
  9
$USERR5
 40
0.0
  9
$WORLDVIEW
 70
     1
  9
$SHADEDGE
 70
     3
  9
$SHADEDIF
 70
    70
  9
$TILEMODE
 70
     1
  9
$MAXACTVP
 70
    64
  9
$PINSBASE
 10
0.0
 20
0.0
 30
0.0
  9
$PLIMCHECK
 70
     0
  9
$PEXTMIN
 10
1.000000000000000E+20
 20
1.000000000000000E+20
 30
1.000000000000000E+20
  9
$PEXTMAX
 10
-1.000000000000000E+20
 20
-1.000000000000000E+20
 30
-1.000000000000000E+20
  9
$PLIMMIN
 10
0.0
 20
0.0
  9
$PLIMMAX
 10
12.0
 20
9.0
  9
$UNITMODE
 70
     0
  9
$VISRETAIN
 70
     1
  9
$PLINEGEN
 70
     0
  9
$PSLTSCALE
 70
     1
  9
$TREEDEPTH
 70
  3020
  9
$CMLSTYLE
  2
Standard
  9
$CMLJUST
 70
     0
  9
$CMLSCALE
 40
1.0
  9
$PROXYGRAPHICS
 70
     1
  9
$MEASUREMENT
 70
     0
  9
$CELWEIGHT
370
    -1
  9
$ENDCAPS
280
     0
  9
$JOINSTYLE
280
     0
  9
$LWDISPLAY
290
     1
  9
$INSUNITS
 70
     1
  9
$HYPERLINKBASE
  1

  9
$STYLESHEET
  1

  9
$XEDIT
290
     0
  9
$CEPSNTYPE
380
     0
  9
$PSTYLEMODE
290
     1
  9
$FINGERPRINTGUID
  2
{2e0daaef-c84b-40b4-a79c-9d14cf79cb09}
  9
$VERSIONGUID
  2
{FAEB1C32-E019-11D5-929B-00C0DF256EC4}
  9
$EXTNAMES
290
     1
  9
$PSVPSCALE
 40
0.0
  9
$OLESTARTUP
290
     0
  9
$SORTENTS
280
   127
  9
$INDEXCTL
280
     0
  9
$HIDETEXT
280
     1
  9
$XCLIPFRAME
290
     0
  9
$HALOGAP
280
     0
  9
$OBSCOLOR
 70
   257
  9
$OBSLTYPE
280
     0
  9
$INTERSECTIONDISPLAY
280
     0
  9
$INTERSECTIONCOLOR
 70
   257
  9
$DIMASSOC
280
     2
  9
$PROJECTNAME
  1

  0
ENDSEC
  0
SECTION
  2
CLASSES
  0
CLASS
  1
ACDBDICTIONARYWDFLT
  2
AcDbDictionaryWithDefault
  3
ObjectDBX Classes
 90
        0
 91
        3
280
     0
281
     0
  0
CLASS
  1
ACDBPLACEHOLDER
  2
AcDbPlaceHolder
  3
ObjectDBX Classes
 90
        0
 91
        1
280
     0
281
     0
  0
CLASS
  1
LAYOUT
  2
AcDbLayout
  3
ObjectDBX Classes
 90
        0
 91
        1
280
     0
281
     0
  0
CLASS
  1
DICTIONARYVAR
  2
AcDbDictionaryVar
  3
ObjectDBX Classes
 90
        0
 91
        3
280
     0
281
     0
  0
CLASS
  1
TABLESTYLE
  2
AcDbTableStyle
  3
ObjectDBX Classes
 90
     2047
 91
        3
280
     0
281
     0
  0
CLASS
  1
SCALE
  2
AcDbScale
  3
ObjectDBX Classes
 90
     1153
 91
       67
280
     1
281
     0
  0
ENDSEC
  0
SECTION
  2
TABLES
  0
TABLE
  2
VPORT
  5
8
330
0
100
AcDbSymbolTable
 70
     2
  0
VPORT
  5
97
330
8
100
AcDbSymbolTableRecord
100
AcDbViewportTableRecord
  2
*Active
 70
     0
 10
0.0
 20
0.0
 11
1.0
 21
1.0
 12
60.75418959235721
 22
7.904878814101659
 13
0.0
 23
0.0
 14
0.5
 24
0.5
 15
0.5
 25
0.5
 16
0.0
 26
0.0
 36
1.0
 17
0.0
 27
0.0
 37
0.0
 40
16.51157199658181
 41
1.328629032258065
 42
50.0
 43
0.0
 44
0.0
 50
0.0
 51
0.0
 71
    16
 72
  2000
 73
     1
 74
     1
 75
     0
 76
     0
 77
     0
 78
     0
281
     0
 65
     0
110
0.0
120
0.0
130
0.0
111
1.0
121
0.0
131
0.0
112
0.0
122
1.0
132
0.0
 79
     0
146
0.0
  0
ENDTAB
  0
TABLE
  2
LTYPE
  5
5
330
0
100
AcDbSymbolTable
 70
     8
  0
LTYPE
  5
14
330
5
100
AcDbSymbolTableRecord
100
AcDbLinetypeTableRecord
  2
ByBlock
 70
     0
  3

 72
    65
 73
     0
 40
0.0
  0
LTYPE
  5
15
330
5
100
AcDbSymbolTableRecord
100
AcDbLinetypeTableRecord
  2
ByLayer
 70
     0
  3

 72
    65
 73
     0
 40
0.0
  0
LTYPE
  5
16
330
5
100
AcDbSymbolTableRecord
100
AcDbLinetypeTableRecord
  2
Continuous
 70
     0
  3
Solid line
 72
    65
 73
     0
 40
0.0
  0
LTYPE
  5
5DD
330
5
100
AcDbSymbolTableRecord
100
AcDbLinetypeTableRecord
  2
SLD-Solid
 70
     0
  3
SolidWorks Line Style
 72
    65
 73
     0
 40
0.0
  0
LTYPE
  5
5DE
330
5
100
AcDbSymbolTableRecord
100
AcDbLinetypeTableRecord
  2
SLD-Dashed
 70
     0
  3
SolidWorks Line Style
 72
    65
 73
     2
 40
0.075
 49
0.05
 74
     4
 75
     0
340
0
 46
1.0
 50
0.0
 44
0.0
 45
0.0
 49
-0.025
 74
     4
 75
     0
340
0
 46
1.0
 50
0.0
 44
0.0
 45
0.0
  0
LTYPE
  5
5DF
330
5
100
AcDbSymbolTableRecord
100
AcDbLinetypeTableRecord
  2
SLD-Phantom
 70
     0
  3
SolidWorks Line Style
 72
    65
 73
     6
 40
0.4999999999999999
 49
0.25
 74
     4
 75
     0
340
0
 46
1.0
 50
0.0
 44
0.0
 45
0.0
 49
-0.05
 74
     4
 75
     0
340
0
 46
1.0
 50
0.0
 44
0.0
 45
0.0
 49
0.05
 74
     4
 75
     0
340
0
 46
1.0
 50
0.0
 44
0.0
 45
0.0
 49
-0.05
 74
     4
 75
     0
340
0
 46
1.0
 50
0.0
 44
0.0
 45
0.0
 49
0.05
 74
     4
 75
     0
340
0
 46
1.0
 50
0.0
 44
0.0
 45
0.0
 49
-0.05
 74
     4
 75
     0
340
0
 46
1.0
 50
0.0
 44
0.0
 45
0.0
  0
LTYPE
  5
5E0
330
5
100
AcDbSymbolTableRecord
100
AcDbLinetypeTableRecord
  2
SLD-Chain
 70
     0
  3
SolidWorks Line Style
 72
    65
 73
     4
 40
0.4
 49
0.25
 74
     4
 75
     0
340
0
 46
1.0
 50
0.0
 44
0.0
 45
0.0
 49
-0.05
 74
     4
 75
     0
340
0
 46
1.0
 50
0.0
 44
0.0
 45
0.0
 49
0.05
 74
     4
 75
     0
340
0
 46
1.0
 50
0.0
 44
0.0
 45
0.0
 49
-0.05
 74
     4
 75
     0
340
0
 46
1.0
 50
0.0
 44
0.0
 45
0.0
  0
LTYPE
  5
5E1
330
5
100
AcDbSymbolTableRecord
100
AcDbLinetypeTableRecord
  2
SLD-Center
 70
     0
  3
SolidWorks Line Style
 72
    65
 73
     4
 40
0.7500000000000002
 49
0.6000000000000001
 74
     4
 75
     0
340
0
 46
1.0
 50
0.0
 44
0.0
 45
0.0
 49
-0.05
 74
     4
 75
     0
340
0
 46
1.0
 50
0.0
 44
0.0
 45
0.0
 49
0.05
 74
     4
 75
     0
340
0
 46
1.0
 50
0.0
 44
0.0
 45
0.0
 49
-0.05
 74
     4
 75
     0
340
0
 46
1.0
 50
0.0
 44
0.0
 45
0.0
  0
LTYPE
  5
5E2
330
5
100
AcDbSymbolTableRecord
100
AcDbLinetypeTableRecord
  2
SLD-Stitch
 70
     0
  3
SolidWorks Line Style
 72
    65
 73
     2
 40
0.025
 49
0.0
 74
     4
 75
     0
340
0
 46
1.0
 50
0.0
 44
0.0
 45
0.0
 49
-0.025
 74
     4
 75
     0
340
0
 46
1.0
 50
0.0
 44
0.0
 45
0.0
  0
LTYPE
  5
5E3
330
5
100
AcDbSymbolTableRecord
100
AcDbLinetypeTableRecord
  2
SLD-Thin-Thick-Chain
 70
     0
  3
SolidWorks Line Style
 72
    65
 73
     4
 40
0.4
 49
0.25
 74
     4
 75
     0
340
0
 46
1.0
 50
0.0
 44
0.0
 45
0.0
 49
-0.05
 74
     4
 75
     0
340
0
 46
1.0
 50
0.0
 44
0.0
 45
0.0
 49
0.05
 74
     4
 75
     0
340
0
 46
1.0
 50
0.0
 44
0.0
 45
0.0
 49
-0.05
 74
     4
 75
     0
340
0
 46
1.0
 50
0.0
 44
0.0
 45
0.0
  0
ENDTAB
  0
TABLE
  2
LAYER
  5
2
330
0
100
AcDbSymbolTable
 70
     6
  0
LAYER
  5
10
330
2
100
AcDbSymbolTableRecord
100
AcDbLayerTableRecord
  2
0
 70
     0
 62
     7
  6
Continuous
370
    -3
390
F
  0
LAYER
  5
53D
330
2
100
AcDbSymbolTableRecord
100
AcDbLayerTableRecord
  2
FORMAT
 70
     0
 62
     7
  6
SLD-Solid
370
    -3
390
F
  0
LAYER
  5
53E
330
2
100
AcDbSymbolTableRecord
100
AcDbLayerTableRecord
  2
NOTES
 70
     0
 62
     1
  6
SLD-Solid
370
    -3
390
F
  0
LAYER
  5
77
330
2
100
AcDbSymbolTableRecord
100
AcDbLayerTableRecord
  2
OBJECT
 70
     0
 62
     7
  6
SLD-Solid
370
    -3
390
F
  0
LAYER
  5
78
330
2
100
AcDbSymbolTableRecord
100
AcDbLayerTableRecord
  2
DIMS
 70
     0
 62
     5
  6
SLD-Solid
370
    -3
390
F
  0
LAYER
  5
79
330
2
100
AcDbSymbolTableRecord
100
AcDbLayerTableRecord
  2
TITLE
 70
     0
 62
     8
  6
SLD-Solid
370
    -3
390
F
  0
ENDTAB
  0
TABLE
  2
STYLE
  5
3
330
0
100
AcDbSymbolTable
 70
     5
  0
STYLE
  5
11
330
3
100
AcDbSymbolTableRecord
100
AcDbTextStyleTableRecord
  2
Standard
 70
     0
 40
0.0
 41
1.0
 50
0.0
 71
     0
 42
0.5
  3
GOTHIC.TTF
  4

1001
ACAD
1000
CENTURY GOTHIC
1071
       34
  0
STYLE
  5
85
330
3
100
AcDbSymbolTableRecord
100
AcDbTextStyleTableRecord
  2
SLDTEXTSTYLE0
 70
     0
 40
0.0
 41
0.948
 50
0.0
 71
     0
 42
0.5
  3
ARIAL.TTF
  4

1001
ACAD
1000
Arial
1071
      290
  0
STYLE
  5
89
330
3
100
AcDbSymbolTableRecord
100
AcDbTextStyleTableRecord
  2
SLDTEXTSTYLE1
 70
     0
 40
0.0
 41
0.913
 50
0.0
 71
     0
 42
0.5
  3
GOTHIC.TTF
  4

1001
ACAD
1000
Century Gothic
1071
      290
  0
STYLE
  5
9E
330
3
100
AcDbSymbolTableRecord
100
AcDbTextStyleTableRecord
  2
SLDTEXTSTYLE2
 70
     0
 40
0.0
 41
0.87
 50
0.0
 71
     0
 42
0.5
  3
ARIALNB.TTF
  4

1001
ACAD
1000
Arial Narrow
1071
 33554722
  0
STYLE
  5
A0
330
3
100
AcDbSymbolTableRecord
100
AcDbTextStyleTableRecord
  2
SLDTEXTSTYLE3
 70
     0
 40
0.0
 41
0.87
 50
0.0
 71
     0
 42
0.5
  3
ARIALN.TTF
  4

1001
ACAD
1000
Arial Narrow
1071
      290
  0
ENDTAB
  0
TABLE
  2
VIEW
  5
6
330
0
100
AcDbSymbolTable
 70
     0
  0
ENDTAB
  0
TABLE
  2
UCS
  5
7
330
0
100
AcDbSymbolTable
 70
     0
  0
ENDTAB
  0
TABLE
  2
APPID
  5
9
330
0
100
AcDbSymbolTable
 70
     1
  0
APPID
  5
12
330
9
100
AcDbSymbolTableRecord
100
AcDbRegAppTableRecord
  2
ACAD
 70
     0
  0
ENDTAB
  0
TABLE
  2
DIMSTYLE
  5
A
330
0
100
AcDbSymbolTable
 70
     3
100
AcDbDimStyleTable
  0
DIMSTYLE
105
27
330
A
100
AcDbSymbolTableRecord
100
AcDbDimStyleTableRecord
  2
Standard
 70
     0
340
11
  0
DIMSTYLE
105
13D
102
{ACAD_REACTORS
330
13C
102
}
330
A
100
AcDbSymbolTableRecord
100
AcDbDimStyleTableRecord
  2
SLDDIMSTYLE0
 70
     0
 41
0.5
 44
0.0
 45
0.000000001
 78
    12
 79
     3
140
0.5
147
0.125
173
     1
271
     2
272
     2
276
     2
277
     5
284
    12
340
89
341
5E4
343
5E4
344
5E4
  0
DIMSTYLE
105
14F
102
{ACAD_REACTORS
330
14E
330
15E
330
237
330
246
330
502
330
511
330
520
102
}
330
A
100
AcDbSymbolTableRecord
100
AcDbDimStyleTableRecord
  2
SLDDIMSTYLE1
 70
     0
 41
0.5
 44
0.0
 45
0.000000001
 78
    12
 79
     3
140
0.5
147
0.125
173
     1
271
     6
272
     2
276
     2
277
     5
284
    12
340
89
341
5E4
343
5E4
344
5E4
  0
ENDTAB
  0
TABLE
  2
BLOCK_RECORD
  5
1
330
0
100
AcDbSymbolTable
 70
    13
  0
BLOCK_RECORD
  5
1F
330
1
100
AcDbSymbolTableRecord
100
AcDbBlockTableRecord
  2
*Model_Space
340
22
  0
BLOCK_RECORD
  5
73
330
1
100
AcDbSymbolTableRecord
100
AcDbBlockTableRecord
  2
*Paper_Space
340
74
  0
BLOCK_RECORD
  5
5E4
330
1
100
AcDbSymbolTableRecord
100
AcDbBlockTableRecord
  2
_Open90
340
0
102
{BLKREFS
331
147
331
148
331
153
331
154
331
162
331
163
331
23B
331
23C
331
24A
331
24B
331
506
331
507
331
515
331
516
331
524
331
525
102
}
  0
BLOCK_RECORD
  5
23
330
1
100
AcDbSymbolTableRecord
100
AcDbBlockTableRecord
  2
*Paper_Space1
340
26
  0
BLOCK_RECORD
  5
8F
330
1
100
AcDbSymbolTableRecord
100
AcDbBlockTableRecord
  2
SW_NOTE_0
340
0
  0
BLOCK_RECORD
  5
95
330
1
100
AcDbSymbolTableRecord
100
AcDbBlockTableRecord
  2
SW_NOTE_0_1
340
0
  0
BLOCK_RECORD
  5
9B
330
1
100
AcDbSymbolTableRecord
100
AcDbBlockTableRecord
  2
SW_NOTE_0_2
340
0
102
{BLKREFS
331
A4
102
}
  0
BLOCK_RECORD
  5
144
330
1
100
AcDbSymbolTableRecord
100
AcDbBlockTableRecord
  2
_D
340
0
  0
BLOCK_RECORD
  5
150
330
1
100
AcDbSymbolTableRecord
100
AcDbBlockTableRecord
  2
_D_1
340
0
  0
BLOCK_RECORD
  5
15F
330
1
100
AcDbSymbolTableRecord
100
AcDbBlockTableRecord
  2
_D_2
340
0
  0
BLOCK_RECORD
  5
238
330
1
100
AcDbSymbolTableRecord
100
AcDbBlockTableRecord
  2
_D_3
340
0
  0
BLOCK_RECORD
  5
247
330
1
100
AcDbSymbolTableRecord
100
AcDbBlockTableRecord
  2
_D_4
340
0
  0
BLOCK_RECORD
  5
503
330
1
100
AcDbSymbolTableRecord
100
AcDbBlockTableRecord
  2
_D_5
340
0
  0
BLOCK_RECORD
  5
512
330
1
100
AcDbSymbolTableRecord
100
AcDbBlockTableRecord
  2
_D_6
340
0
  0
BLOCK_RECORD
  5
521
330
1
100
AcDbSymbolTableRecord
100
AcDbBlockTableRecord
  2
_D_7
340
0
  0
ENDTAB
  0
ENDSEC
  0
SECTION
  2
BLOCKS
  0
BLOCK
  5
20
330
1F
100
AcDbEntity
  8
0
100
AcDbBlockBegin
  2
*Model_Space
 70
     0
 71
     0
 10
0.0
 20
0.0
 30
0.0
  3
*Model_Space
  1

  0
ENDBLK
  5
21
330
1F
100
AcDbEntity
  8
0
100
AcDbBlockEnd
  0
BLOCK
  5
75
330
73
100
AcDbEntity
 67
     1
  8
0
100
AcDbBlockBegin
  2
*Paper_Space
 70
     0
 71
     0
 10
0.0
 20
0.0
 30
0.0
  3
*Paper_Space
  1

  0
ENDBLK
  5
76
330
73
100
AcDbEntity
 67
     1
  8
0
100
AcDbBlockEnd
  0
BLOCK
  5
5E5
330
5E4
100
AcDbEntity
  8
0
100
AcDbBlockBegin
  2
_Open90
 70
     0
 71
     0
 10
0.0
 20
0.0
 30
0.0
  3
_Open90
  1

  0
LINE
  5
141
330
5E4
100
AcDbEntity
  8
0
  6
ByBlock
 62
     0
370
    -2
100
AcDbLine
 10
-0.5
 20
0.5
 30
0.0
 11
0.0
 21
0.0
 31
0.0
  0
LINE
  5
142
330
5E4
100
AcDbEntity
  8
0
  6
ByBlock
 62
     0
370
    -2
100
AcDbLine
 10
0.0
 20
0.0
 30
0.0
 11
-0.5
 21
-0.5
 31
0.0
  0
LINE
  5
143
330
5E4
100
AcDbEntity
  8
0
  6
ByBlock
 62
     0
370
    -2
100
AcDbLine
 10
0.0
 20
0.0
 30
0.0
 11
-1.0
 21
0.0
 31
0.0
  0
ENDBLK
  5
5E6
330
5E4
100
AcDbEntity
  8
0
100
AcDbBlockEnd
  0
BLOCK
  5
5EA
330
23
100
AcDbEntity
  8
0
100
AcDbBlockBegin
  2
*Paper_Space1
 70
     0
 71
     0
 10
0.0
 20
0.0
 30
0.0
  3
*Paper_Space1
  1

  0
ENDBLK
  5
5EB
330
23
100
AcDbEntity
  8
0
100
AcDbBlockEnd
  0
BLOCK
  5
5EC
330
8F
100
AcDbEntity
  8
0
100
AcDbBlockBegin
  2
SW_NOTE_0
 70
     0
 71
     0
 10
0.0
 20
0.0
 30
0.0
  3
SW_NOTE_0
  1

  0
MTEXT
  5
560
330
8F
100
AcDbEntity
  8
NOTES
 62
     0
100
AcDbMText
 10
1.376953125000003
 20
0.4790039062499998
 30
0.0
 40
0.3749999999999999
 41
0.0
 71
     2
 72
     1
  1
303_303-NL 
  7
SLDTEXTSTYLE1
 73
     1
 44
1.0
  0
MTEXT
  5
561
330
8F
100
AcDbEntity
  8
NOTES
 62
     0
100
AcDbMText
 10
1.31015639030558
 20
-0.0209960877074031
 30
0.0
 40
0.3749999999999999
 41
0.0
 71
     2
 72
     1
  1
Assembly
  7
SLDTEXTSTYLE1
 73
     1
 44
1.0
  0
ENDBLK
  5
5ED
330
8F
100
AcDbEntity
  8
0
100
AcDbBlockEnd
  0
BLOCK
  5
5EE
330
95
100
AcDbEntity
  8
0
100
AcDbBlockBegin
  2
SW_NOTE_0_1
 70
     0
 71
     0
 10
0.0
 20
0.0
 30
0.0
  3
SW_NOTE_0_1
  1

  0
MTEXT
  5
562
330
95
100
AcDbEntity
  8
NOTES
 62
     0
100
AcDbMText
 10
0.0
 20
0.3759780907668229
 30
0.0
 40
0.2916666666666666
 41
0.0
 71
     1
 72
     1
  1
FROST PRODUCTS LTD.
  7
SLDTEXTSTYLE0
 73
     1
 44
1.0
  0
MTEXT
  5
99
330
95
100
AcDbEntity
  8
NOTES
 62
     0
100
AcDbMText
 10
0.0
 20
-0.0495142708586375
 30
0.0
 40
0.2291666666666666
 41
0.0
 71
     1
 72
     1
  1
5280 JOHN LUCUS DRIVE, BURLINGTON, ON, L7L 5Z9
  7
SLDTEXTSTYLE0
 73
     1
 44
1.0
  0
ENDBLK
  5
5EF
330
95
100
AcDbEntity
  8
0
100
AcDbBlockEnd
  0
BLOCK
  5
5F0
330
9B
100
AcDbEntity
  8
0
100
AcDbBlockBegin
  2
SW_NOTE_0_2
 70
     0
 71
     0
 10
0.0
 20
0.0
 30
0.0
  3
SW_NOTE_0_2
  1

  0
MTEXT
  5
9F
330
9B
100
AcDbEntity
  8
NOTES
 62
     0
100
AcDbMText
 10
0.0
 20
0.2381282770514712
 30
0.0
 40
0.1847290640394089
 41
0.0
 71
     1
 72
     1
  1
PROPRIETARY AND CONFIDENTIAL
  7
SLDTEXTSTYLE2
 73
     1
 44
1.0
  0
MTEXT
  5
A1
330
9B
100
AcDbEntity
  8
NOTES
 62
     0
100
AcDbMText
 10
0.0
 20
-0.0504364795553608
 30
0.0
 40
0.25
 41
0.0
 71
     1
 72
     1
  1
THE INFORMATION CONTAINED IN THIS DRAWING IS THE SOLE PROPERTY OF 
  7
SLDTEXTSTYLE3
 73
     1
 44
1.0
  0
MTEXT
  5
A2
330
9B
100
AcDbEntity
  8
NOTES
 62
     0
100
AcDbMText
 10
0.0
 20
-0.4231398940537119
 30
0.0
 40
0.25
 41
0.0
 71
     1
 72
     1
  1
FROST PRODUCTS LTD.  ANY REPRODUCTION IN PART OR AS A WHOLE WITHOUT 
  7
SLDTEXTSTYLE3
 73
     1
 44
1.0
  0
MTEXT
  5
A3
330
9B
100
AcDbEntity
  8
NOTES
 62
     0
100
AcDbMText
 10
0.0
 20
-0.7958433085520636
 30
0.0
 40
0.25
 41
0.0
 71
     1
 72
     1
  1
THE WRITTEN PERMISSION OF FROST PRODUCTS LTD. IS PROHIBITED.
  7
SLDTEXTSTYLE3
 73
     1
 44
1.0
  0
ENDBLK
  5
5F1
330
9B
100
AcDbEntity
  8
0
100
AcDbBlockEnd
  0
BLOCK
  5
5F2
330
144
100
AcDbEntity
  8
0
100
AcDbBlockBegin
  2
_D
 70
     0
 71
     0
 10
0.0
 20
0.0
 30
0.0
  3
_D
  1

  0
INSERT
  5
147
330
144
100
AcDbEntity
  8
DIMS
100
AcDbBlockReference
  2
_Open90
 10
4.498261575070808
 20
41.510698692451
 30
0.0
 41
0.5
 42
0.5
 50
90.00000000000041
  0
INSERT
  5
148
330
144
100
AcDbEntity
  8
DIMS
100
AcDbBlockReference
  2
_Open90
 10
4.498261575070811
 20
6.730898860417661
 30
0.0
 41
0.5
 42
0.5
 50
270.0000000000004
  0
LINE
  5
149
330
144
100
AcDbEntity
  8
DIMS
100
AcDbLine
 10
8.76960083025109
 20
41.510698692451
 30
0.0
 11
4.123261575070808
 21
41.510698692451
 31
0.0
  0
LINE
  5
14A
330
144
100
AcDbEntity
  8
DIMS
100
AcDbLine
 10
6.985737026472767
 20
6.730898860417661
 30
0.0
 11
4.12326157507081
 21
6.730898860417661
 31
0.0
  0
LINE
  5
14B
330
144
100
AcDbEntity
  8
DIMS
100
AcDbLine
 10
4.498261575070808
 20
41.510698692451
 30
0.0
 11
4.498261575070809
 21
23.46964183369774
 31
0.0
  0
LINE
  5
14C
330
144
100
AcDbEntity
  8
DIMS
100
AcDbLine
 10
4.498261575070811
 20
6.730898860417661
 30
0.0
 11
4.498261575070809
 21
22.67589180983241
 31
0.0
  0
MTEXT
  5
14D
330
144
100
AcDbEntity
  8
DIMS
100
AcDbMText
 10
1.537150635410399
 20
23.31456373983178
 30
0.0
 40
0.5
 41
0.0
 71
     1
 72
     1
  1
Max 48" (1220mm)
  7
SLDTEXTSTYLE1
 73
     1
 44
1.0
  0
ENDBLK
  5
5F3
330
144
100
AcDbEntity
  8
0
100
AcDbBlockEnd
  0
BLOCK
  5
5F4
330
150
100
AcDbEntity
  8
0
100
AcDbBlockBegin
  2
_D_1
 70
     0
 71
     0
 10
0.0
 20
0.0
 30
0.0
  3
_D_1
  1

  0
INSERT
  5
153
330
150
100
AcDbEntity
  8
DIMS
100
AcDbBlockReference
  2
_Open90
 10
23.03452721955095
 20
10.53104940768103
 30
2.221782264413462
 41
0.5
 42
0.5
 50
0.0000000000004071
  0
INSERT
  5
154
330
150
100
AcDbEntity
  8
DIMS
100
AcDbBlockReference
  2
_Open90
 10
7.873389030574566
 20
10.53104940768103
 30
2.221782264413462
 41
0.5
 42
0.5
 50
180.0000000000004
  0
LINE
  5
155
330
150
100
AcDbEntity
  8
DIMS
100
AcDbLine
 10
15.31051155053325
 20
10.58233410606915
 30
0.0
 11
16.19592824545737
 21
10.58233410606915
 31
0.0
  0
LINE
  5
156
330
150
100
AcDbEntity
  8
DIMS
100
AcDbLine
 10
23.03452721955095
 20
11.9666559693608
 30
0.0
 11
23.03452721955095
 21
10.15604940768103
 31
0.0
  0
LINE
  5
157
330
150
100
AcDbEntity
  8
DIMS
100
AcDbLine
 10
7.873389030574566
 20
11.9666559693608
 30
0.0
 11
7.873389030574566
 21
10.15604940768103
 31
0.0
  0
LINE
  5
158
330
150
100
AcDbEntity
  8
DIMS
100
AcDbLine
 10
23.03452721955095
 20
10.53104940768103
 30
0.0
 11
16.47544218482182
 21
10.53104940768103
 31
0.0
  0
LINE
  5
159
330
150
100
AcDbEntity
  8
DIMS
100
AcDbLine
 10
7.873389030574566
 20
10.53104940768103
 30
0.0
 11
14.49835875759162
 21
10.53104940768103
 31
0.0
  0
MTEXT
  5
15A
330
150
100
AcDbEntity
  8
DIMS
100
AcDbMText
 10
14.49835875759162
 20
10.81173516650052
 30
0.0
 40
0.5
 41
0.0
 71
     1
 72
     1
  1
15
  7
SLDTEXTSTYLE1
 73
     1
 44
1.0
  0
MTEXT
  5
15B
330
150
100
AcDbEntity
  8
DIMS
100
AcDbMText
 10
15.56849767525553
 20
11.17704766554603
 30
0.0
 40
0.5
 41
0.0
 71
     1
 72
     1
  1
3
  7
SLDTEXTSTYLE1
 73
     1
 44
1.0
  0
MTEXT
  5
15C
330
150
100
AcDbEntity
  8
DIMS
100
AcDbMText
 10
15.38377545251574
 20
10.51586708699799
 30
0.0
 40
0.5
 41
0.0
 71
     1
 72
     1
  1
16
  7
SLDTEXTSTYLE1
 73
     1
 44
1.0
  0
MTEXT
  5
15D
330
150
100
AcDbEntity
  8
DIMS
100
AcDbMText
 10
16.26919222077234
 20
10.81173516650052
 30
0.0
 40
0.5
 41
0.0
 71
     1
 72
     1
  1
"
  7
SLDTEXTSTYLE1
 73
     1
 44
1.0
  0
ENDBLK
  5
5F5
330
150
100
AcDbEntity
  8
0
100
AcDbBlockEnd
  0
BLOCK
  5
5F6
330
15F
100
AcDbEntity
  8
0
100
AcDbBlockBegin
  2
_D_2
 70
     0
 71
     0
 10
0.0
 20
0.0
 30
0.0
  3
_D_2
  1

  0
INSERT
  5
162
330
15F
100
AcDbEntity
  8
DIMS
100
AcDbBlockReference
  2
_Open90
 10
25.45702741807384
 20
12.13332263602748
 30
2.221782264413462
 41
0.5
 42
0.5
 50
270.0000000000006
  0
INSERT
  5
163
330
15F
100
AcDbEntity
  8
DIMS
100
AcDbBlockReference
  2
_Open90
 10
25.45702741807378
 20
44.70756308601049
 30
2.221782264413462
 41
0.5
 42
0.5
 50
90.00000000000054
  0
LINE
  5
164
330
15F
100
AcDbEntity
  8
DIMS
100
AcDbLine
 10
25.28063849740034
 20
29.24543897964519
 30
0.0
 11
26.16605519232446
 21
29.24543897964519
 31
0.0
  0
LINE
  5
165
330
15F
100
AcDbEntity
  8
DIMS
100
AcDbLine
 10
23.63985569724123
 20
12.13332263602747
 30
0.0
 11
25.83202741807384
 21
12.13332263602748
 31
0.0
  0
LINE
  5
166
330
15F
100
AcDbEntity
  8
DIMS
100
AcDbLine
 10
23.29152479172991
 20
44.70756308601048
 30
0.0
 11
25.83202741807378
 21
44.70756308601049
 31
0.0
  0
LINE
  5
167
330
15F
100
AcDbEntity
  8
DIMS
100
AcDbLine
 10
25.45702741807384
 20
12.13332263602748
 30
0.0
 11
25.45702741807381
 21
28.5403001279694
 31
0.0
  0
LINE
  5
168
330
15F
100
AcDbEntity
  8
DIMS
100
AcDbLine
 10
25.45702741807378
 20
44.70756308601049
 30
0.0
 11
25.45702741807381
 21
29.84800843454478
 31
0.0
  0
MTEXT
  5
169
330
15F
100
AcDbEntity
  8
DIMS
100
AcDbMText
 10
24.46848570445871
 20
29.47484004007656
 30
0.0
 40
0.5
 41
0.0
 71
     1
 72
     1
  1
32
  7
SLDTEXTSTYLE1
 73
     1
 44
1.0
  0
MTEXT
  5
16A
330
15F
100
AcDbEntity
  8
DIMS
100
AcDbMText
 10
25.53862462212262
 20
29.84015253912207
 30
0.0
 40
0.5
 41
0.0
 71
     1
 72
     1
  1
9
  7
SLDTEXTSTYLE1
 73
     1
 44
1.0
  0
MTEXT
  5
16B
330
15F
100
AcDbEntity
  8
DIMS
100
AcDbMText
 10
25.35390239938283
 20
29.17897196057403
 30
0.0
 40
0.5
 41
0.0
 71
     1
 72
     1
  1
16
  7
SLDTEXTSTYLE1
 73
     1
 44
1.0
  0
MTEXT
  5
16C
330
15F
100
AcDbEntity
  8
DIMS
100
AcDbMText
 10
26.23931916763943
 20
29.47484004007656
 30
0.0
 40
0.5
 41
0.0
 71
     1
 72
     1
  1
"
  7
SLDTEXTSTYLE1
 73
     1
 44
1.0
  0
ENDBLK
  5
5F7
330
15F
100
AcDbEntity
  8
0
100
AcDbBlockEnd
  0
BLOCK
  5
5F8
330
238
100
AcDbEntity
  8
0
100
AcDbBlockBegin
  2
_D_3
 70
     0
 71
     0
 10
0.0
 20
0.0
 30
0.0
  3
_D_3
  1

  0
INSERT
  5
23B
330
238
100
AcDbEntity
  8
DIMS
100
AcDbBlockReference
  2
_Open90
 10
25.64828234044481
 20
50.09165957338764
 30
-9.778058050444226
 41
0.5
 42
0.5
 50
270.0000000000003
  0
INSERT
  5
23C
330
238
100
AcDbEntity
  8
DIMS
100
AcDbBlockReference
  2
_Open90
 10
25.64828234044483
 20
58.16842131833387
 30
-9.778058050444226
 41
0.5
 42
0.5
 50
90.00000000000027
  0
LINE
  5
23D
330
238
100
AcDbEntity
  8
DIMS
100
AcDbLine
 10
25.2871712336978
 20
54.18422714771803
 30
0.0
 11
26.17258792862192
 21
54.18422714771803
 31
0.0
  0
LINE
  5
23E
330
238
100
AcDbEntity
  8
DIMS
100
AcDbLine
 10
23.39352479172989
 20
50.09165957338765
 30
0.0
 11
26.02328234044481
 21
50.09165957338764
 31
0.0
  0
LINE
  5
23F
330
238
100
AcDbEntity
  8
DIMS
100
AcDbLine
 10
21.04719388621823
 20
58.16842131833388
 30
0.0
 11
26.02328234044483
 21
58.16842131833387
 31
0.0
  0
LINE
  5
240
330
238
100
AcDbEntity
  8
DIMS
100
AcDbLine
 10
25.64828234044481
 20
50.09165957338764
 30
0.0
 11
25.64828234044482
 21
53.47908829604214
 31
0.0
  0
LINE
  5
241
330
238
100
AcDbEntity
  8
DIMS
100
AcDbLine
 10
25.64828234044483
 20
58.16842131833387
 30
0.0
 11
25.64828234044482
 21
54.78679660261752
 31
0.0
  0
MTEXT
  5
242
330
238
100
AcDbEntity
  8
DIMS
100
AcDbMText
 10
24.84446288623575
 20
54.4136282081494
 30
0.0
 40
0.5
 41
0.0
 71
     1
 72
     1
  1
8
  7
SLDTEXTSTYLE1
 73
     1
 44
1.0
  0
MTEXT
  5
243
330
238
100
AcDbEntity
  8
DIMS
100
AcDbMText
 10
25.54515735842008
 20
54.77894070719491
 30
0.0
 40
0.5
 41
0.0
 71
     1
 72
     1
  1
1
  7
SLDTEXTSTYLE1
 73
     1
 44
1.0
  0
MTEXT
  5
244
330
238
100
AcDbEntity
  8
DIMS
100
AcDbMText
 10
25.36043513568029
 20
54.11776012864687
 30
0.0
 40
0.5
 41
0.0
 71
     1
 72
     1
  1
16
  7
SLDTEXTSTYLE1
 73
     1
 44
1.0
  0
MTEXT
  5
245
330
238
100
AcDbEntity
  8
DIMS
100
AcDbMText
 10
26.24585183060441
 20
54.4136282081494
 30
0.0
 40
0.5
 41
0.0
 71
     1
 72
     1
  1
"
  7
SLDTEXTSTYLE1
 73
     1
 44
1.0
  0
ENDBLK
  5
5F9
330
238
100
AcDbEntity
  8
0
100
AcDbBlockEnd
  0
BLOCK
  5
5FA
330
247
100
AcDbEntity
  8
0
100
AcDbBlockBegin
  2
_D_4
 70
     0
 71
     0
 10
0.0
 20
0.0
 30
0.0
  3
_D_4
  1

  0
INSERT
  5
24A
330
247
100
AcDbEntity
  8
DIMS
100
AcDbBlockReference
  2
_Open90
 10
23.27685812506322
 20
48.40430318010049
 30
-9.778058050444226
 41
0.5
 42
0.5
 50
0.0000000000003053
  0
INSERT
  5
24B
330
247
100
AcDbEntity
  8
DIMS
100
AcDbBlockReference
  2
_Open90
 10
7.611858125063223
 20
48.40430318010053
 30
-9.778058050444226
 41
0.5
 42
0.5
 50
180.0000000000003
  0
LINE
  5
24C
330
247
100
AcDbEntity
  8
DIMS
100
AcDbLine
 10
15.26796920438978
 20
48.45558787848864
 30
0.0
 11
16.15338589931389
 21
48.45558787848864
 31
0.0
  0
LINE
  5
24D
330
247
100
AcDbEntity
  8
DIMS
100
AcDbLine
 10
23.27685812506323
 20
49.97499290672098
 30
0.0
 11
23.27685812506322
 21
48.02930318010049
 31
0.0
  0
LINE
  5
24E
330
247
100
AcDbEntity
  8
DIMS
100
AcDbLine
 10
7.611858125063227
 20
49.97499290672102
 30
0.0
 11
7.611858125063222
 21
48.02930318010053
 31
0.0
  0
LINE
  5
24F
330
247
100
AcDbEntity
  8
DIMS
100
AcDbLine
 10
23.27685812506322
 20
48.40430318010049
 30
0.0
 11
16.43289983867835
 21
48.40430318010051
 31
0.0
  0
LINE
  5
250
330
247
100
AcDbEntity
  8
DIMS
100
AcDbLine
 10
7.611858125063223
 20
48.40430318010053
 30
0.0
 11
14.45581641144814
 21
48.40430318010051
 31
0.0
  0
MTEXT
  5
251
330
247
100
AcDbEntity
  8
DIMS
100
AcDbMText
 10
14.45581641144814
 20
48.68498893892001
 30
0.0
 40
0.5
 41
0.0
 71
     1
 72
     1
  1
15
  7
SLDTEXTSTYLE1
 73
     1
 44
1.0
  0
MTEXT
  5
252
330
247
100
AcDbEntity
  8
DIMS
100
AcDbMText
 10
15.34123310637226
 20
49.05030143796552
 30
0.0
 40
0.5
 41
0.0
 71
     1
 72
     1
  1
11
  7
SLDTEXTSTYLE1
 73
     1
 44
1.0
  0
MTEXT
  5
253
330
247
100
AcDbEntity
  8
DIMS
100
AcDbMText
 10
15.34123310637226
 20
48.38912085941748
 30
0.0
 40
0.5
 41
0.0
 71
     1
 72
     1
  1
16
  7
SLDTEXTSTYLE1
 73
     1
 44
1.0
  0
MTEXT
  5
254
330
247
100
AcDbEntity
  8
DIMS
100
AcDbMText
 10
16.22664987462887
 20
48.68498893892001
 30
0.0
 40
0.5
 41
0.0
 71
     1
 72
     1
  1
"
  7
SLDTEXTSTYLE1
 73
     1
 44
1.0
  0
ENDBLK
  5
5FB
330
247
100
AcDbEntity
  8
0
100
AcDbBlockEnd
  0
BLOCK
  5
5FC
330
503
100
AcDbEntity
  8
0
100
AcDbBlockBegin
  2
_D_5
 70
     0
 71
     0
 10
0.0
 20
0.0
 30
0.0
  3
_D_5
  1

  0
INSERT
  5
506
330
503
100
AcDbEntity
  8
DIMS
100
AcDbBlockReference
  2
_Open90
 10
47.95818176655438
 20
46.54780165427851
 30
-2.221782264413462
 41
0.5
 42
0.5
 50
180.0000000000004
  0
INSERT
  5
507
330
503
100
AcDbEntity
  8
DIMS
100
AcDbBlockReference
  2
_Open90
 10
58.58318176655438
 20
46.54780165427851
 30
-2.221782264413462
 41
0.5
 42
0.5
 50
0.0000000000004071
  0
LINE
  5
508
330
503
100
AcDbEntity
  8
DIMS
100
AcDbLine
 10
53.17002164240596
 20
46.59908635266664
 30
0.0
 11
53.68599389185051
 21
46.59908635266664
 31
0.0
  0
LINE
  5
509
330
503
100
AcDbEntity
  8
DIMS
100
AcDbLine
 10
47.95818176655438
 20
34.54998930269429
 30
0.0
 11
47.95818176655438
 21
46.92280165427851
 31
0.0
  0
LINE
  5
50A
330
503
100
AcDbEntity
  8
DIMS
100
AcDbLine
 10
58.58318176655438
 20
34.54998930269429
 30
0.0
 11
58.58318176655438
 21
46.92280165427851
 31
0.0
  0
LINE
  5
50B
330
503
100
AcDbEntity
  8
DIMS
100
AcDbLine
 10
47.95818176655438
 20
46.54780165427851
 30
0.0
 11
52.35786884946433
 21
46.54780165427851
 31
0.0
  0
LINE
  5
50C
330
503
100
AcDbEntity
  8
DIMS
100
AcDbLine
 10
58.58318176655438
 20
46.54780165427851
 30
0.0
 11
53.96550775788247
 21
46.54780165427851
 31
0.0
  0
MTEXT
  5
50D
330
503
100
AcDbEntity
  8
DIMS
100
AcDbMText
 10
52.35786884946433
 20
46.82848741309801
 30
0.0
 40
0.5
 41
0.0
 71
     1
 72
     1
  1
10
  7
SLDTEXTSTYLE1
 73
     1
 44
1.0
  0
MTEXT
  5
50E
330
503
100
AcDbEntity
  8
DIMS
100
AcDbMText
 10
53.24328554438845
 20
47.19379991214352
 30
0.0
 40
0.5
 41
0.0
 71
     1
 72
     1
  1
5
  7
SLDTEXTSTYLE1
 73
     1
 44
1.0
  0
MTEXT
  5
50F
330
503
100
AcDbEntity
  8
DIMS
100
AcDbMText
 10
53.24328554438845
 20
46.53261933359548
 30
0.0
 40
0.5
 41
0.0
 71
     1
 72
     1
  1
8
  7
SLDTEXTSTYLE1
 73
     1
 44
1.0
  0
MTEXT
  5
510
330
503
100
AcDbEntity
  8
DIMS
100
AcDbMText
 10
53.75925779383299
 20
46.82848741309801
 30
0.0
 40
0.5
 41
0.0
 71
     1
 72
     1
  1
"
  7
SLDTEXTSTYLE1
 73
     1
 44
1.0
  0
ENDBLK
  5
5FD
330
503
100
AcDbEntity
  8
0
100
AcDbBlockEnd
  0
BLOCK
  5
5FE
330
512
100
AcDbEntity
  8
0
100
AcDbBlockBegin
  2
_D_6
 70
     0
 71
     0
 10
0.0
 20
0.0
 30
0.0
  3
_D_6
  1

  0
INSERT
  5
515
330
512
100
AcDbEntity
  8
DIMS
100
AcDbBlockReference
  2
_Open90
 10
43.78621416758234
 20
34.38332263602762
 30
-2.221782264413462
 41
0.5
 42
0.5
 50
90.00000000000041
  0
INSERT
  5
516
330
512
100
AcDbEntity
  8
DIMS
100
AcDbBlockReference
  2
_Open90
 10
43.78621416758234
 20
23.13332263602762
 30
-2.221782264413462
 41
0.5
 42
0.5
 50
270.0000000000004
  0
LINE
  5
517
330
512
100
AcDbEntity
  8
DIMS
100
AcDbLine
 10
43.7945475063149
 20
29.00376020156965
 30
0.0
 11
44.31051975575944
 21
29.00376020156965
 31
0.0
  0
LINE
  5
518
330
512
100
AcDbEntity
  8
DIMS
100
AcDbLine
 10
47.79151509988771
 20
34.38332263602762
 30
0.0
 11
43.41121416758234
 21
34.38332263602762
 31
0.0
  0
LINE
  5
519
330
512
100
AcDbEntity
  8
DIMS
100
AcDbLine
 10
47.79151509988771
 20
23.13332263602762
 30
0.0
 11
43.41121416758234
 21
23.13332263602762
 31
0.0
  0
LINE
  5
51A
330
512
100
AcDbEntity
  8
DIMS
100
AcDbLine
 10
43.78621416758234
 20
34.38332263602762
 30
0.0
 11
43.78621416758234
 21
29.60632965646921
 31
0.0
  0
LINE
  5
51B
330
512
100
AcDbEntity
  8
DIMS
100
AcDbLine
 10
43.78621416758234
 20
23.13332263602762
 30
0.0
 11
43.78621416758234
 21
28.29862134989382
 31
0.0
  0
MTEXT
  5
51C
330
512
100
AcDbEntity
  8
DIMS
100
AcDbMText
 10
42.98239471337327
 20
29.23316126200103
 30
0.0
 40
0.5
 41
0.0
 71
     1
 72
     1
  1
11
  7
SLDTEXTSTYLE1
 73
     1
 44
1.0
  0
MTEXT
  5
51D
330
512
100
AcDbEntity
  8
DIMS
100
AcDbMText
 10
43.86781140829738
 20
29.59847376104653
 30
0.0
 40
0.5
 41
0.0
 71
     1
 72
     1
  1
1
  7
SLDTEXTSTYLE1
 73
     1
 44
1.0
  0
MTEXT
  5
51E
330
512
100
AcDbEntity
  8
DIMS
100
AcDbMText
 10
43.86781140829738
 20
28.93729318249849
 30
0.0
 40
0.5
 41
0.0
 71
     1
 72
     1
  1
4
  7
SLDTEXTSTYLE1
 73
     1
 44
1.0
  0
MTEXT
  5
51F
330
512
100
AcDbEntity
  8
DIMS
100
AcDbMText
 10
44.38378365774193
 20
29.23316126200103
 30
0.0
 40
0.5
 41
0.0
 71
     1
 72
     1
  1
"
  7
SLDTEXTSTYLE1
 73
     1
 44
1.0
  0
ENDBLK
  5
5FF
330
512
100
AcDbEntity
  8
0
100
AcDbBlockEnd
  0
BLOCK
  5
600
330
521
100
AcDbEntity
  8
0
100
AcDbBlockBegin
  2
_D_7
 70
     0
 71
     0
 10
0.0
 20
0.0
 30
0.0
  3
_D_7
  1

  0
INSERT
  5
524
330
521
100
AcDbEntity
  8
DIMS
100
AcDbBlockReference
  2
_Open90
 10
43.78621416758234
 20
44.64266308601049
 30
-2.221782264413462
 41
0.5
 42
0.5
 50
90.00000000000027
  0
INSERT
  5
525
330
521
100
AcDbEntity
  8
DIMS
100
AcDbBlockReference
  2
_Open90
 10
43.78621416758232
 20
34.38332263602763
 30
-2.221782264413462
 41
0.5
 42
0.5
 50
270.0000000000003
  0
LINE
  5
526
330
521
100
AcDbEntity
  8
DIMS
100
AcDbLine
 10
43.79454750631489
 20
38.99886916816029
 30
0.0
 11
44.31051975575944
 21
38.99886916816029
 31
0.0
  0
LINE
  5
527
330
521
100
AcDbEntity
  8
DIMS
100
AcDbLine
 10
45.39098419437603
 20
44.64266308601049
 30
0.0
 11
43.41121416758234
 21
44.64266308601049
 31
0.0
  0
LINE
  5
528
330
521
100
AcDbEntity
  8
DIMS
100
AcDbLine
 10
47.79151509988771
 20
34.38332263602762
 30
0.0
 11
43.41121416758232
 21
34.38332263602763
 31
0.0
  0
LINE
  5
529
330
521
100
AcDbEntity
  8
DIMS
100
AcDbLine
 10
43.78621416758234
 20
44.64266308601049
 30
0.0
 11
43.78621416758233
 21
39.60143862305983
 31
0.0
  0
LINE
  5
52A
330
521
100
AcDbEntity
  8
DIMS
100
AcDbLine
 10
43.78621416758232
 20
34.38332263602763
 30
0.0
 11
43.78621416758233
 21
38.29373031648446
 31
0.0
  0
MTEXT
  5
52B
330
521
100
AcDbEntity
  8
DIMS
100
AcDbMText
 10
42.98239471337325
 20
39.22827022859166
 30
0.0
 40
0.5
 41
0.0
 71
     1
 72
     1
  1
10
  7
SLDTEXTSTYLE1
 73
     1
 44
1.0
  0
MTEXT
  5
52C
330
521
100
AcDbEntity
  8
DIMS
100
AcDbMText
 10
43.86781140829738
 20
39.59358272763717
 30
0.0
 40
0.5
 41
0.0
 71
     1
 72
     1
  1
1
  7
SLDTEXTSTYLE1
 73
     1
 44
1.0
  0
MTEXT
  5
52D
330
521
100
AcDbEntity
  8
DIMS
100
AcDbMText
 10
43.86781140829738
 20
38.93240214908913
 30
0.0
 40
0.5
 41
0.0
 71
     1
 72
     1
  1
4
  7
SLDTEXTSTYLE1
 73
     1
 44
1.0
  0
MTEXT
  5
52E
330
521
100
AcDbEntity
  8
DIMS
100
AcDbMText
 10
44.38378365774192
 20
39.22827022859166
 30
0.0
 40
0.5
 41
0.0
 71
     1
 72
     1
  1
"
  7
SLDTEXTSTYLE1
 73
     1
 44
1.0
  0
ENDBLK
  5
601
330
521
100
AcDbEntity
  8
0
100
AcDbBlockEnd
  0
ENDSEC
  0
SECTION
  2
ENTITIES
  0
LINE
  5
7A
330
1F
100
AcDbEntity
  8
TITLE
370
    50
100
AcDbLine
 10
65.01822302401258
 20
1.381311886050946
 30
0.0
 11
81.99998645119503
 21
1.381311886050946
 31
0.0
  0
LINE
  5
7B
330
1F
100
AcDbEntity
  8
TITLE
370
    50
100
AcDbLine
 10
81.99993174424401
 20
5.369060515145104
 30
0.0
 11
71.81053507231782
 21
5.369060515145101
 31
0.0
  0
LINE
  5
7C
330
1F
100
AcDbEntity
  8
TITLE
370
    50
100
AcDbLine
 10
65.01822302401258
 20
2.436487844692757
 30
0.0
 11
58.00597912026432
 21
2.436487844692757
 31
0.0
  0
LINE
  5
7D
330
1F
100
AcDbEntity
  8
TITLE
370
    50
100
AcDbLine
 10
65.01822302401258
 20
1.381311886050946
 30
0.0
 11
58.00597912026432
 21
1.381311886050944
 31
0.0
  0
LINE
  5
7E
330
1F
100
AcDbEntity
  8
TITLE
370
    50
100
AcDbLine
 10
65.01822302401258
 20
1.381311886050946
 30
0.0
 11
65.01822302401258
 21
3.491663803334568
 31
0.0
  0
LINE
  5
7F
330
1F
100
AcDbEntity
  8
TITLE
370
    50
100
AcDbLine
 10
58.00597912026432
 20
3.491663803334568
 30
0.0
 11
58.00597912026432
 21
0.3937001215893176
 31
0.0
  0
LINE
  5
80
330
1F
100
AcDbEntity
  8
TITLE
370
    50
100
AcDbLine
 10
58.00597912026432
 20
0.3937001215893176
 30
0.0
 11
82.0
 21
0.3937001215893176
 31
0.0
  0
LINE
  5
81
330
1F
100
AcDbEntity
  8
TITLE
370
    50
100
AcDbLine
 10
81.99993174424401
 20
5.369060515145104
 30
0.0
 11
82.0
 21
0.3937001215893176
 31
0.0
  0
LINE
  5
82
330
1F
100
AcDbEntity
  8
TITLE
370
    50
100
AcDbLine
 10
65.01822302401258
 20
3.491663803334568
 30
0.0
 11
58.00597912026432
 21
3.491663803334568
 31
0.0
  0
LINE
  5
83
330
1F
100
AcDbEntity
  8
TITLE
370
    50
100
AcDbLine
 10
65.01822302401258
 20
3.491663803334568
 30
0.0
 11
81.99976156426072
 21
3.491664955913943
 31
0.0
  0
LINE
  5
84
330
1F
100
AcDbEntity
  8
TITLE
370
    50
100
AcDbLine
 10
71.81053507231782
 20
5.369060515145101
 30
0.0
 11
71.81053507231782
 21
0.3573773641115476
 31
0.0
  0
MTEXT
  5
86
330
1F
100
AcDbEntity
  8
NOTES
100
AcDbMText
 10
58.90829780303407
 20
0.9639904562836579
 30
0.0
 40
0.25
 41
0.0
 71
     1
 72
     1
  1
UNLESS OTHERWISE SPECIFIED DIMENSIONS ARE IN INCHES.
  7
SLDTEXTSTYLE0
 73
     1
 44
1.0
  0
MTEXT
  5
87
330
1F
100
AcDbEntity
  8
NOTES
100
AcDbMText
 10
58.9300699278903
 20
2.97676289916974
 30
0.0
 40
0.25
 41
0.0
 71
     1
 72
     1
  1
DATE:
  7
SLDTEXTSTYLE0
 73
     1
 44
1.0
  0
MTEXT
  5
88
330
1F
100
AcDbEntity
  8
NOTES
100
AcDbMText
 10
61.03870118800531
 20
2.086733085252027
 30
0.0
 40
0.25
 41
0.0
 71
     2
 72
     1
  1
DO NOT SCALE DRAWING
  7
SLDTEXTSTYLE0
 73
     1
 44
1.0
  0
MTEXT
  5
8A
330
1F
100
AcDbEntity
  8
NOTES
100
AcDbMText
 10
65.33073730750537
 20
3.16197567688692
 30
0.0
 40
0.25
 41
0.0
 71
     1
 72
     1
  1
TITLE:
  7
SLDTEXTSTYLE1
 73
     1
 44
1.0
  0
MTEXT
  5
8B
330
1F
100
AcDbEntity
  8
NOTES
100
AcDbMText
 10
72.65618310516095
 20
3.161975676886919
 30
0.0
 40
0.25
 41
0.0
 71
     1
 72
     1
  1
DWG NO.
  7
SLDTEXTSTYLE1
 73
     1
 44
1.0
  0
MTEXT
  5
8C
330
1F
100
AcDbEntity
  8
NOTES
100
AcDbMText
 10
72.68317532028493
 20
0.9582816792631484
 30
0.0
 40
0.25
 41
0.0
 71
     1
 72
     1
  1
SCALE:     1:1
  7
SLDTEXTSTYLE1
 73
     1
 44
1.0
  0
MTEXT
  5
8D
330
1F
100
AcDbEntity
  8
NOTES
100
AcDbMText
 10
62.1285315260194
 20
2.971054122149229
 30
0.0
 40
0.25
 41
0.0
 71
     2
 72
     1
  1
May 5, 2021
  7
SLDTEXTSTYLE1
 73
     1
 44
1.0
  0
MTEXT
  5
8E
330
1F
100
AcDbEntity
  8
NOTES
100
AcDbMText
 10
76.58101907736464
 20
2.694128868215925
 30
0.0
 40
0.25
 41
0.0
 71
     2
 72
     1
  1
303-3  Stainless Steel Finish
  7
SLDTEXTSTYLE1
 73
     1
 44
1.0
  0
INSERT
  5
A4
330
1F
100
AcDbEntity
  8
NOTES
100
AcDbBlockReference
  2
SW_NOTE_0_2
 10
59.1159726245908
 20
5.041852806368019
 30
0.0
  0
LINE
  5
A5
330
1F
100
AcDbEntity
  8
0
  6
SLD-Solid
 62
     7
370
    25
100
AcDbLine
 10
7.961858125063232
 20
36.23332263602678
 30
0.0
 11
22.92685812506323
 21
36.23332263602685
 31
0.0
  0
LINE
  5
A6
330
1F
100
AcDbEntity
  8
0
  6
SLD-Solid
 62
     7
370
    25
100
AcDbLine
 10
23.22685812506324
 20
40.28707263602707
 30
0.0
 11
23.26795812506314
 21
40.28707263602707
 31
0.0
  0
LINE
  5
A7
330
1F
100
AcDbEntity
  8
0
  6
SLD-Solid
 62
     7
370
    25
100
AcDbLine
 10
23.26795812506314
 20
40.34957263602707
 30
0.0
 11
23.22685812506324
 21
40.34957263602707
 31
0.0
  0
LINE
  5
A8
330
1F
100
AcDbEntity
  8
0
  6
SLD-Solid
 62
     7
370
    25
100
AcDbLine
 10
7.609958125063169
 20
40.28707263602708
 30
0.0
 11
7.651058125063238
 21
40.28707263602708
 31
0.0
  0
LINE
  5
A9
330
1F
100
AcDbEntity
  8
0
  6
SLD-Solid
 62
     7
370
    25
100
AcDbLine
 10
7.651058125063238
 20
40.34957263602708
 30
0.0
 11
7.609958125063169
 21
40.34957263602708
 31
0.0
  0
ELLIPSE
  5
AA
330
1F
100
AcDbEntity
  8
0
  6
SLD-Solid
 62
     7
370
    25
100
AcDbEllipse
 10
23.17685812506323
 20
36.33332263602685
 30
0.0
 11
0.0
 21
0.1000000000000014
 31
0.0
210
0.0
220
0.0
230
1.0
 40
0.5000000000000355
 41
3.66519142918812
 42
4.712388980384697
  0
LINE
  5
AB
330
1F
100
AcDbEntity
  8
0
  6
SLD-Solid
 62
     7
370
    25
100
AcDbLine
 10
23.20185812506323
 20
36.24672009564841
 30
0.0
 11
22.92685812506323
 21
36.2467200956484
 31
0.0
  0
LINE
  5
AC
330
1F
100
AcDbEntity
  8
0
  6
SLD-Solid
 62
     7
370
    25
100
AcDbLine
 10
22.92685812506323
 20
36.2467200956484
 30
0.0
 11
22.92685812506323
 21
36.23332263602685
 31
0.0
  0
LINE
  5
AD
330
1F
100
AcDbEntity
  8
0
  6
SLD-Solid
 62
     7
370
    25
100
AcDbLine
 10
7.961858125063232
 20
36.24672009564833
 30
0.0
 11
7.961858125063232
 21
36.23332263602678
 31
0.0
  0
LINE
  5
AE
330
1F
100
AcDbEntity
  8
0
  6
SLD-Solid
 62
     7
370
    25
100
AcDbLine
 10
7.686858125063231
 20
36.24672009564833
 30
0.0
 11
7.961858125063232
 21
36.24672009564833
 31
0.0
  0
ELLIPSE
  5
AF
330
1F
100
AcDbEntity
  8
0
  6
SLD-Solid
 62
     7
370
    25
100
AcDbEllipse
 10
7.711858125063231
 20
36.33332263602678
 30
0.0
 11
0.0
 21
0.1000000000000014
 31
0.0
210
0.0
220
0.0
230
1.0
 40
0.5000000000000178
 41
1.570796326794897
 42
2.617993877991537
  0
LINE
  5
B0
330
1F
100
AcDbEntity
  8
0
  6
SLD-Solid
 62
     7
370
    25
100
AcDbLine
 10
7.661858125063231
 20
36.33332263602678
 30
0.0
 11
23.22685812506323
 21
36.33332263602685
 31
0.0
  0
LINE
  5
B1
330
1F
100
AcDbEntity
  8
0
  6
SLD-Solid
 62
     7
370
    25
100
AcDbLine
 10
23.22685812506323
 20
37.13332263602685
 30
0.0
 11
23.22685812506323
 21
36.33332263602685
 31
0.0
  0
LINE
  5
B2
330
1F
100
AcDbEntity
  8
0
  6
SLD-Solid
 62
     7
370
    25
100
AcDbLine
 10
7.661858125063227
 20
37.13332263602678
 30
0.0
 11
7.661858125063231
 21
36.33332263602678
 31
0.0
  0
LINE
  5
B3
330
1F
100
AcDbEntity
  8
0
  6
SLD-Solid
 62
     7
370
    25
100
AcDbLine
 10
7.661858125063227
 20
37.13332263602678
 30
0.0
 11
23.22685812506323
 21
37.13332263602685
 31
0.0
  0
LINE
  5
B4
330
1F
100
AcDbEntity
  8
0
  6
SLD-Solid
 62
     7
370
    25
100
AcDbLine
 10
23.27685812506323
 20
36.33332263602685
 30
0.0
 11
23.27685812506323
 21
37.13332263602685
 31
0.0
  0
LINE
  5
B5
330
1F
100
AcDbEntity
  8
0
  6
SLD-Solid
 62
     7
370
    25
100
AcDbLine
 10
23.22685812506323
 20
36.33332263602685
 30
0.0
 11
23.27685812506323
 21
36.33332263602685
 31
0.0
  0
LINE
  5
B6
330
1F
100
AcDbEntity
  8
0
  6
SLD-Solid
 62
     7
370
    25
100
AcDbLine
 10
23.26221346412256
 20
37.13332263602685
 30
0.0
 11
23.22685812506323
 21
37.13332263602685
 31
0.0
  0
LINE
  5
B7
330
1F
100
AcDbEntity
  8
0
  6
SLD-Solid
 62
     7
370
    25
100
AcDbLine
 10
23.27685812506323
 20
37.13332263602685
 30
0.0
 11
23.26221346412256
 21
37.13332263602685
 31
0.0
  0
ARC
  5
B8
330
1F
100
AcDbEntity
  8
0
  6
SLD-Solid
 62
     7
370
    25
100
AcDbCircle
 10
23.17685812506323
 20
36.33332263602685
 30
0.0
 40
0.1000000000000061
100
AcDbArc
 50
299.9999999999993
 51
0.0
  0
LINE
  5
B9
330
1F
100
AcDbEntity
  8
0
  6
SLD-Solid
 62
     7
370
    25
100
AcDbLine
 10
23.22685812506323
 20
36.24856791389273
 30
0.0
 11
23.22685812506323
 21
36.2467200956484
 31
0.0
  0
SPLINE
  5
BA
330
1F
100
AcDbEntity
  8
0
  6
SLD-Solid
 62
     7
370
    25
100
AcDbSpline
210
0.0
220
0.0
230
1.0
 70
    12
 71
     3
 72
    12
 73
     8
 74
     0
 42
0.00000001
 43
0.00000001
 40
0.0
 40
0.0
 40
0.0
 40
0.0
 40
0.2091599146726296
 40
0.4185333254297564
 40
0.623463122803312
 40
0.8265760479760289
 40
1.0
 40
1.0
 40
1.0
 40
1.0
 10
23.22685812506323
 20
36.24856791389273
 30
0.0
 41
1.0
 10
23.22675708415358
 20
36.24880252151464
 30
0.0
 41
1.0
 10
23.22655489919866
 20
36.24927197622981
 30
0.0
 41
1.0
 10
23.22492749055444
 20
36.24955937038109
 30
0.0
 41
1.0
 10
23.22252337113111
 20
36.24952559836439
 30
0.0
 41
1.0
 10
23.21969348492193
 20
36.24919644231134
 30
0.0
 41
1.0
 10
23.21775222385351
 20
36.24876611324898
 30
0.0
 41
1.0
 10
23.21685812506324
 20
36.24856791389273
 30
0.0
 41
1.0
  0
LINE
  5
BB
330
1F
100
AcDbEntity
  8
0
  6
SLD-Solid
 62
     7
370
    25
100
AcDbLine
 10
23.20185812506323
 20
36.24672009564841
 30
0.0
 11
23.21685812506324
 21
36.24856791389273
 31
0.0
  0
SPLINE
  5
BC
330
1F
100
AcDbEntity
  8
0
  6
SLD-Solid
 62
     7
370
    25
100
AcDbSpline
210
0.0
220
0.0
230
1.0
 70
    12
 71
     3
 72
    12
 73
     8
 74
     0
 42
0.00000001
 43
0.00000001
 40
0.0
 40
0.0
 40
0.0
 40
0.0
 40
0.2091599146726531
 40
0.4185333254297957
 40
0.6234631228033773
 40
0.8265760479760328
 40
1.0
 40
1.0
 40
1.0
 40
1.0
 10
7.661858125063231
 20
36.24856791389266
 30
0.0
 41
1.0
 10
7.661959165972879
 20
36.24880252151456
 30
0.0
 41
1.0
 10
7.6621613509278
 20
36.24927197622974
 30
0.0
 41
1.0
 10
7.663788759572022
 20
36.24955937038101
 30
0.0
 41
1.0
 10
7.666192878995346
 20
36.24952559836431
 30
0.0
 41
1.0
 10
7.669022765204533
 20
36.24919644231127
 30
0.0
 41
1.0
 10
7.67096402627295
 20
36.24876611324891
 30
0.0
 41
1.0
 10
7.671858125063221
 20
36.24856791389266
 30
0.0
 41
1.0
  0
LINE
  5
BD
330
1F
100
AcDbEntity
  8
0
  6
SLD-Solid
 62
     7
370
    25
100
AcDbLine
 10
7.661858125063231
 20
36.24856791389266
 30
0.0
 11
7.661858125063231
 21
36.24672009564833
 31
0.0
  0
ARC
  5
BE
330
1F
100
AcDbEntity
  8
0
  6
SLD-Solid
 62
     7
370
    25
100
AcDbCircle
 10
7.711858125063231
 20
36.33332263602678
 30
0.0
 40
0.1000000000000057
100
AcDbArc
 50
180.0
 51
240.0000000000028
  0
LINE
  5
BF
330
1F
100
AcDbEntity
  8
0
  6
SLD-Solid
 62
     7
370
    25
100
AcDbLine
 10
7.661858125063231
 20
36.33332263602678
 30
0.0
 11
7.611858125063232
 21
36.33332263602678
 31
0.0
  0
LINE
  5
C0
330
1F
100
AcDbEntity
  8
0
  6
SLD-Solid
 62
     7
370
    25
100
AcDbLine
 10
7.686858125063231
 20
36.24672009564833
 30
0.0
 11
7.671858125063221
 21
36.24856791389266
 31
0.0
  0
LINE
  5
C1
330
1F
100
AcDbEntity
  8
0
  6
SLD-Solid
 62
     7
370
    25
100
AcDbLine
 10
7.611858125063232
 20
36.33332263602678
 30
0.0
 11
7.611858125063227
 21
37.13332263602678
 31
0.0
  0
LINE
  5
C2
330
1F
100
AcDbEntity
  8
0
  6
SLD-Solid
 62
     7
370
    25
100
AcDbLine
 10
7.611858125063227
 20
37.13332263602678
 30
0.0
 11
7.626502786003901
 21
37.13332263602678
 31
0.0
  0
LINE
  5
C3
330
1F
100
AcDbEntity
  8
0
  6
SLD-Solid
 62
     7
370
    25
100
AcDbLine
 10
7.626502786003901
 20
37.13332263602678
 30
0.0
 11
7.661858125063227
 21
37.13332263602678
 31
0.0
  0
ARC
  5
C4
330
1F
100
AcDbEntity
  8
0
  6
SLD-Solid
 62
     7
370
    25
100
AcDbCircle
 10
23.17685812506323
 20
36.33332263602685
 30
0.0
 40
0.1000000000000079
100
AcDbArc
 50
240.0000000000006
 51
299.9999999999995
  0
ARC
  5
C5
330
1F
100
AcDbEntity
  8
0
  6
SLD-Solid
 62
     7
370
    25
100
AcDbCircle
 10
7.711858125063233
 20
36.33332263602678
 30
0.0
 40
0.1000000000000066
100
AcDbArc
 50
240.0000000000019
 51
299.9999999999989
  0
LINE
  5
C6
330
1F
100
AcDbEntity
  8
0
  6
SLD-Solid
 62
     7
370
    25
100
AcDbLine
 10
23.26795812506314
 20
40.34776858157824
 30
0.0
 11
23.26795812506314
 21
40.30785846904646
 31
0.0
  0
LINE
  5
C7
330
1F
100
AcDbEntity
  8
0
  6
SLD-Solid
 62
     7
370
    25
100
AcDbLine
 10
23.26795812506314
 20
40.30785846904646
 30
0.0
 11
23.26795812506314
 21
40.28707263602707
 31
0.0
  0
LINE
  5
C8
330
1F
100
AcDbEntity
  8
0
  6
SLD-Solid
 62
     7
370
    25
100
AcDbLine
 10
23.26795812506314
 20
40.34957263602707
 30
0.0
 11
23.26795812506314
 21
40.34776858157824
 31
0.0
  0
LINE
  5
C9
330
1F
100
AcDbEntity
  8
0
  6
SLD-Solid
 62
     7
370
    25
100
AcDbLine
 10
7.609958125063169
 20
40.30785846904647
 30
0.0
 11
7.609958125063169
 21
40.34776858157824
 31
0.0
  0
LINE
  5
CA
330
1F
100
AcDbEntity
  8
0
  6
SLD-Solid
 62
     7
370
    25
100
AcDbLine
 10
7.609958125063169
 20
40.28707263602708
 30
0.0
 11
7.609958125063169
 21
40.30785846904647
 31
0.0
  0
LINE
  5
CB
330
1F
100
AcDbEntity
  8
0
  6
SLD-Solid
 62
     7
370
    25
100
AcDbLine
 10
7.609958125063169
 20
40.34776858157824
 30
0.0
 11
7.609958125063169
 21
40.34957263602708
 31
0.0
  0
LINE
  5
CC
330
1F
100
AcDbEntity
  8
0
  6
SLD-Solid
 62
     7
370
    25
100
AcDbLine
 10
22.45472721955095
 20
12.16332263602762
 30
0.0
 11
22.45452721955096
 21
12.16332263602762
 31
0.0
  0
LINE
  5
CD
330
1F
100
AcDbEntity
  8
0
  6
SLD-Solid
 62
     7
370
    25
100
AcDbLine
 10
8.423389030574583
 20
12.16332263602762
 30
0.0
 11
8.423189030574568
 21
12.16332263602762
 31
0.0
  0
LINE
  5
CE
330
1F
100
AcDbEntity
  8
0
  6
SLD-Solid
 62
     7
370
    25
100
AcDbLine
 10
22.45472721955095
 20
12.19332263602762
 30
0.0
 11
22.45452721955096
 21
12.19332263602762
 31
0.0
  0
LINE
  5
CF
330
1F
100
AcDbEntity
  8
0
  6
SLD-Solid
 62
     7
370
    25
100
AcDbLine
 10
8.423389030574583
 20
12.19332263602762
 30
0.0
 11
8.423189030574568
 21
12.19332263602762
 31
0.0
  0
LINE
  5
D0
330
1F
100
AcDbEntity
  8
0
  6
SLD-Solid
 62
     7
370
    25
100
AcDbLine
 10
8.423189030574568
 20
12.13332263602747
 30
0.0
 11
8.423189030574568
 21
12.19552263602748
 31
0.0
  0
LINE
  5
D1
330
1F
100
AcDbEntity
  8
0
  6
SLD-Solid
 62
     7
370
    25
100
AcDbLine
 10
8.123389030574565
 20
12.13332263602746
 30
0.0
 11
8.423189030574568
 21
12.13332263602747
 31
0.0
  0
LINE
  5
D2
330
1F
100
AcDbEntity
  8
0
  6
SLD-Solid
 62
     7
370
    25
100
AcDbLine
 10
22.45472721955095
 20
12.13332263602747
 30
0.0
 11
22.75452721955094
 21
12.13332263602747
 31
0.0
  0
LINE
  5
D3
330
1F
100
AcDbEntity
  8
0
  6
SLD-Solid
 62
     7
370
    25
100
AcDbLine
 10
22.45472721955095
 20
12.13332263602747
 30
0.0
 11
22.45472721955095
 21
12.19552263602747
 31
0.0
  0
LINE
  5
D4
330
1F
100
AcDbEntity
  8
0
  6
SLD-Solid
 62
     7
370
    25
100
AcDbLine
 10
22.45472721955095
 20
12.19552263602747
 30
0.0
 11
22.45452721955095
 21
12.19552263602747
 31
0.0
  0
LINE
  5
D5
330
1F
100
AcDbEntity
  8
0
  6
SLD-Solid
 62
     7
370
    25
100
AcDbLine
 10
22.45452721955095
 20
12.19552263602747
 30
0.0
 11
22.45452721955096
 21
12.19532263602747
 31
0.0
  0
LINE
  5
D6
330
1F
100
AcDbEntity
  8
0
  6
SLD-Solid
 62
     7
370
    25
100
AcDbLine
 10
22.45452721955096
 20
12.19532263602747
 30
0.0
 11
8.423389030574562
 21
12.19532263602747
 31
0.0
  0
LINE
  5
D7
330
1F
100
AcDbEntity
  8
0
  6
SLD-Solid
 62
     7
370
    25
100
AcDbLine
 10
8.423389030574562
 20
12.19532263602747
 30
0.0
 11
8.423389030574562
 21
12.19552263602748
 31
0.0
  0
LINE
  5
D8
330
1F
100
AcDbEntity
  8
0
  6
SLD-Solid
 62
     7
370
    25
100
AcDbLine
 10
8.423389030574562
 20
12.19552263602748
 30
0.0
 11
8.423189030574568
 21
12.19552263602748
 31
0.0
  0
LINE
  5
D9
330
1F
100
AcDbEntity
  8
0
  6
SLD-Solid
 62
     7
370
    25
100
AcDbLine
 10
23.03452721955095
 20
12.13332263602747
 30
0.0
 11
23.03452721955095
 21
36.24672009564841
 31
0.0
  0
LINE
  5
DA
330
1F
100
AcDbEntity
  8
0
  6
SLD-Solid
 62
     7
370
    25
100
AcDbLine
 10
22.75452721955094
 20
12.13332263602747
 30
0.0
 11
23.03452721955095
 21
12.13332263602747
 31
0.0
  0
LINE
  5
DB
330
1F
100
AcDbEntity
  8
0
  6
SLD-Solid
 62
     7
370
    25
100
AcDbLine
 10
7.843389030574572
 20
36.24672009564833
 30
0.0
 11
7.843389030574568
 21
12.13332263602746
 31
0.0
  0
LINE
  5
DC
330
1F
100
AcDbEntity
  8
0
  6
SLD-Solid
 62
     7
370
    25
100
AcDbLine
 10
7.843389030574568
 20
12.13332263602746
 30
0.0
 11
8.123389030574565
 21
12.13332263602746
 31
0.0
  0
LINE
  5
DD
330
1F
100
AcDbEntity
  8
0
  6
SLD-Solid
 62
     7
370
    25
100
AcDbLine
 10
8.423389030574562
 20
12.13332263602747
 30
0.0
 11
22.45452721955096
 21
12.13332263602747
 31
0.0
  0
LINE
  5
DE
330
1F
100
AcDbEntity
  8
0
  6
SLD-Solid
 62
     7
370
    25
100
AcDbLine
 10
22.45452721955096
 20
12.13332263602747
 30
0.0
 11
22.45452721955096
 21
12.19532263602747
 31
0.0
  0
LINE
  5
DF
330
1F
100
AcDbEntity
  8
0
  6
SLD-Solid
 62
     7
370
    25
100
AcDbLine
 10
8.423389030574562
 20
12.19532263602747
 30
0.0
 11
8.423389030574562
 21
12.13332263602747
 31
0.0
  0
LINE
  5
E0
330
1F
100
AcDbEntity
  8
0
  6
SLD-Solid
 62
     7
370
    25
100
AcDbLine
 10
7.720208125062383
 20
38.30733054373069
 30
0.0
 11
7.720208125062383
 21
38.36051430991476
 31
0.0
  0
LINE
  5
E1
330
1F
100
AcDbEntity
  8
0
  6
SLD-Solid
 62
     7
370
    25
100
AcDbLine
 10
23.15770812506239
 20
38.3605143099148
 30
0.0
 11
23.15770812506239
 21
38.30733054373073
 31
0.0
  0
LINE
  5
E2
330
1F
100
AcDbEntity
  8
0
  6
SLD-Solid
 62
     7
370
    25
100
AcDbLine
 10
23.12485812506323
 20
38.32233054373072
 30
0.0
 11
23.12485812506323
 21
38.30733054373073
 31
0.0
  0
LINE
  5
E3
330
1F
100
AcDbEntity
  8
0
  6
SLD-Solid
 62
     7
370
    25
100
AcDbLine
 10
23.12485812506323
 20
38.30733054373073
 30
0.0
 11
23.12505812506323
 21
38.30733054373073
 31
0.0
  0
LINE
  5
E4
330
1F
100
AcDbEntity
  8
0
  6
SLD-Solid
 62
     7
370
    25
100
AcDbLine
 10
7.753058125063238
 20
38.30733054373069
 30
0.0
 11
7.752858125063236
 21
38.30733054373069
 31
0.0
  0
LINE
  5
E5
330
1F
100
AcDbEntity
  8
0
  6
SLD-Solid
 62
     7
370
    25
100
AcDbLine
 10
7.753058125063238
 20
38.32233054373069
 30
0.0
 11
7.753058125063238
 21
38.30733054373069
 31
0.0
  0
LINE
  5
E6
330
1F
100
AcDbEntity
  8
0
  6
SLD-Solid
 62
     7
370
    25
100
AcDbLine
 10
23.12485812506323
 20
38.32233054373072
 30
0.0
 11
7.753058125063238
 21
38.32233054373069
 31
0.0
  0
LINE
  5
E7
330
1F
100
AcDbEntity
  8
0
  6
SLD-Solid
 62
     7
370
    25
100
AcDbLine
 10
23.12505812506323
 20
38.30733054373073
 30
0.0
 11
23.18995812506323
 21
38.30733054373073
 31
0.0
  0
LINE
  5
E8
330
1F
100
AcDbEntity
  8
0
  6
SLD-Solid
 62
     7
370
    25
100
AcDbLine
 10
23.18995812506323
 20
37.13332263602685
 30
0.0
 11
23.18995812506323
 21
38.30733054373073
 31
0.0
  0
LINE
  5
E9
330
1F
100
AcDbEntity
  8
0
  6
SLD-Solid
 62
     7
370
    25
100
AcDbLine
 10
7.68795812506324
 20
37.13332263602678
 30
0.0
 11
7.687958125063238
 21
38.30733054373069
 31
0.0
  0
LINE
  5
EA
330
1F
100
AcDbEntity
  8
0
  6
SLD-Solid
 62
     7
370
    25
100
AcDbLine
 10
7.752858125063236
 20
38.30733054373069
 30
0.0
 11
7.687958125063238
 21
38.30733054373069
 31
0.0
  0
LINE
  5
EB
330
1F
100
AcDbEntity
  8
0
  6
SLD-Solid
 62
     7
370
    25
100
AcDbLine
 10
23.22685812506323
 20
38.31404627248327
 30
0.0
 11
23.19095812506323
 21
38.31404627248327
 31
0.0
  0
LINE
  5
EC
330
1F
100
AcDbEntity
  8
0
  6
SLD-Solid
 62
     7
370
    25
100
AcDbLine
 10
23.19095812506323
 20
38.31404627248327
 30
0.0
 11
23.19095812506324
 21
37.13332263602685
 31
0.0
  0
LINE
  5
ED
330
1F
100
AcDbEntity
  8
0
  6
SLD-Solid
 62
     7
370
    25
100
AcDbLine
 10
23.22685812506323
 20
38.31404627248327
 30
0.0
 11
23.22685812506324
 21
37.13332263602685
 31
0.0
  0
LINE
  5
EE
330
1F
100
AcDbEntity
  8
0
  6
SLD-Solid
 62
     7
370
    25
100
AcDbLine
 10
7.651058125063238
 20
38.31404627248324
 30
0.0
 11
7.686958125063238
 21
38.31404627248324
 31
0.0
  0
LINE
  5
EF
330
1F
100
AcDbEntity
  8
0
  6
SLD-Solid
 62
     7
370
    25
100
AcDbLine
 10
7.651058125063238
 20
38.31404627248324
 30
0.0
 11
7.651058125063238
 21
37.13332263602678
 31
0.0
  0
LINE
  5
F0
330
1F
100
AcDbEntity
  8
0
  6
SLD-Solid
 62
     7
370
    25
100
AcDbLine
 10
7.686958125063238
 20
38.31404627248324
 30
0.0
 11
7.686958125063238
 21
37.13332263602678
 31
0.0
  0
LINE
  5
F1
330
1F
100
AcDbEntity
  8
0
  6
SLD-Solid
 62
     7
370
    25
100
AcDbLine
 10
7.753058125063238
 20
38.3682217738297
 30
0.0
 11
7.753058125063238
 21
38.32233054373069
 31
0.0
  0
LINE
  5
F2
330
1F
100
AcDbEntity
  8
0
  6
SLD-Solid
 62
     7
370
    25
100
AcDbLine
 10
7.753058125063238
 20
38.3682217738297
 30
0.0
 11
23.12485812506323
 21
38.36822177382974
 31
0.0
  0
LINE
  5
F3
330
1F
100
AcDbEntity
  8
0
  6
SLD-Solid
 62
     7
370
    25
100
AcDbLine
 10
23.12485812506323
 20
38.36822177382974
 30
0.0
 11
23.12485812506323
 21
38.32233054373072
 31
0.0
  0
LINE
  5
F4
330
1F
100
AcDbEntity
  8
0
  6
SLD-Solid
 62
     7
370
    25
100
AcDbLine
 10
7.753058125063238
 20
38.3682217738297
 30
0.0
 11
7.753058125063238
 21
38.37175730773563
 31
0.0
  0
ARC
  5
F5
330
1F
100
AcDbEntity
  8
0
  6
SLD-Solid
 62
     7
370
    25
100
AcDbCircle
 10
7.73555812506326
 20
38.36822177382972
 30
0.0
 40
0.0178535710713311
100
AcDbArc
 50
11.42175365890761
 51
98.04946697561418
  0
LINE
  5
F6
330
1F
100
AcDbEntity
  8
0
  6
SLD-Solid
 62
     7
370
    25
100
AcDbLine
 10
7.733058125063238
 20
38.38589944335936
 30
0.0
 11
7.715958125063237
 21
38.38589944335936
 31
0.0
  0
LINE
  5
F7
330
1F
100
AcDbEntity
  8
0
  6
SLD-Solid
 62
     7
370
    25
100
AcDbLine
 10
7.715958125063237
 20
38.38589944335936
 30
0.0
 11
7.715958125063237
 21
44.68855431610945
 31
0.0
  0
LINE
  5
F8
330
1F
100
AcDbEntity
  8
0
  6
SLD-Solid
 62
     7
370
    25
100
AcDbLine
 10
7.715958125063237
 20
44.68855431610945
 30
0.0
 11
7.753058125063238
 21
44.68855431610945
 31
0.0
  0
LINE
  5
F9
330
1F
100
AcDbEntity
  8
0
  6
SLD-Solid
 62
     7
370
    25
100
AcDbLine
 10
23.12485812506324
 20
44.68855431610948
 30
0.0
 11
7.753058125063238
 21
44.68855431610945
 31
0.0
  0
LINE
  5
FA
330
1F
100
AcDbEntity
  8
0
  6
SLD-Solid
 62
     7
370
    25
100
AcDbLine
 10
23.16195812506325
 20
44.68855431610948
 30
0.0
 11
23.12485812506324
 21
44.68855431610948
 31
0.0
  0
LINE
  5
FB
330
1F
100
AcDbEntity
  8
0
  6
SLD-Solid
 62
     7
370
    25
100
AcDbLine
 10
23.16195812506323
 20
38.3858994433594
 30
0.0
 11
23.16195812506325
 21
44.68855431610948
 31
0.0
  0
LINE
  5
FC
330
1F
100
AcDbEntity
  8
0
  6
SLD-Solid
 62
     7
370
    25
100
AcDbLine
 10
23.14485812506323
 20
38.3858994433594
 30
0.0
 11
23.16195812506323
 21
38.3858994433594
 31
0.0
  0
ARC
  5
FD
330
1F
100
AcDbEntity
  8
0
  6
SLD-Solid
 62
     7
370
    25
100
AcDbCircle
 10
23.14235812506323
 20
38.36822177382974
 30
0.0
 40
0.0178535710713546
100
AcDbArc
 50
81.95053302446632
 51
168.5782463410607
  0
LINE
  5
FE
330
1F
100
AcDbEntity
  8
0
  6
SLD-Solid
 62
     7
370
    25
100
AcDbLine
 10
23.12485812506323
 20
38.36822177382974
 30
0.0
 11
23.12485812506323
 21
38.37175730773566
 31
0.0
  0
LINE
  5
FF
330
1F
100
AcDbEntity
  8
0
  6
SLD-Solid
 62
     7
370
    25
100
AcDbLine
 10
8.936267496917765
 20
39.12421330594639
 30
0.0
 11
8.936267496917766
 21
43.89718407895562
 31
0.0
  0
ARC
  5
100
330
1F
100
AcDbEntity
  8
0
  6
SLD-Solid
 62
     7
370
    25
100
AcDbCircle
 10
9.045642496917775
 20
39.14631039285847
 30
0.0
 40
0.1115848191959932
100
AcDbArc
 50
191.4217536589639
 51
278.049466975523
  0
LINE
  5
101
330
1F
100
AcDbEntity
  8
0
  6
SLD-Solid
 62
     7
370
    25
100
AcDbLine
 10
9.061267496917765
 20
39.03582495829806
 30
0.0
 11
21.8166487532087
 21
39.0358249582981
 31
0.0
  0
ARC
  5
102
330
1F
100
AcDbEntity
  8
0
  6
SLD-Solid
 62
     7
370
    25
100
AcDbCircle
 10
21.83227375320869
 20
39.14631039285852
 30
0.0
 40
0.1115848191959995
100
AcDbArc
 50
261.9505330244774
 51
348.5782463410342
  0
LINE
  5
103
330
1F
100
AcDbEntity
  8
0
  6
SLD-Solid
 62
     7
370
    25
100
AcDbLine
 10
21.9416487532087
 20
39.12421330594643
 30
0.0
 11
21.9416487532087
 21
43.89718407895565
 31
0.0
  0
ARC
  5
104
330
1F
100
AcDbEntity
  8
0
  6
SLD-Solid
 62
     7
370
    25
100
AcDbCircle
 10
21.83227375320871
 20
43.87508699204358
 30
0.0
 40
0.1115848191959739
100
AcDbArc
 50
11.42175365895774
 51
98.04946697553453
  0
LINE
  5
105
330
1F
100
AcDbEntity
  8
0
  6
SLD-Solid
 62
     7
370
    25
100
AcDbLine
 10
21.8166487532087
 20
43.98557242660397
 30
0.0
 11
9.061267496917765
 21
43.98557242660393
 31
0.0
  0
ARC
  5
106
330
1F
100
AcDbEntity
  8
0
  6
SLD-Solid
 62
     7
370
    25
100
AcDbCircle
 10
9.045642496917752
 20
43.87508699204355
 30
0.0
 40
0.1115848191959671
100
AcDbArc
 50
81.95053302446408
 51
168.5782463410415
  0
LINE
  5
107
330
1F
100
AcDbEntity
  8
0
  6
SLD-Solid
 62
     7
370
    25
100
AcDbLine
 10
23.14485812506323
 20
38.3858994433594
 30
0.0
 11
23.14485812506323
 21
38.3605143099148
 31
0.0
  0
ARC
  5
108
330
1F
100
AcDbEntity
  8
0
  6
SLD-Solid
 62
     7
370
    25
100
AcDbCircle
 10
23.14235812506324
 20
38.34283664038512
 30
0.0
 40
0.0178535710713686
100
AcDbArc
 50
81.95053302450658
 51
168.5782463410004
  0
LINE
  5
109
330
1F
100
AcDbEntity
  8
0
  6
SLD-Solid
 62
     7
370
    25
100
AcDbLine
 10
7.733058125063238
 20
38.38589944335936
 30
0.0
 11
7.733058125063238
 21
38.36051430991477
 31
0.0
  0
ARC
  5
10A
330
1F
100
AcDbEntity
  8
0
  6
SLD-Solid
 62
     7
370
    25
100
AcDbCircle
 10
7.735558125063227
 20
38.34283664038509
 30
0.0
 40
0.0178535710713741
100
AcDbArc
 50
11.42175365899848
 51
98.04946697548742
  0
ARC
  5
10B
330
1F
100
AcDbEntity
  8
0
  6
SLD-Solid
 62
     7
370
    25
100
AcDbCircle
 10
23.17007062506322
 20
38.32853540573564
 30
0.0
 40
0.05793483812656
100
AcDbArc
 50
11.42175365896346
 51
98.04946697552009
  0
LINE
  5
10C
330
1F
100
AcDbEntity
  8
0
  6
SLD-Solid
 62
     7
370
    25
100
AcDbLine
 10
23.19095812506323
 20
38.34000821326039
 30
0.0
 11
23.22685812506323
 21
38.34000821326039
 31
0.0
  0
ARC
  5
10D
330
1F
100
AcDbEntity
  8
0
  6
SLD-Solid
 62
     7
370
    25
100
AcDbCircle
 10
23.16558312506323
 20
38.33488168909679
 30
0.0
 40
0.0258876780534644
100
AcDbArc
 50
11.42175365895891
 51
98.0494669755364
  0
LINE
  5
10E
330
1F
100
AcDbEntity
  8
0
  6
SLD-Solid
 62
     7
370
    25
100
AcDbLine
 10
23.16195812506323
 20
38.3605143099148
 30
0.0
 11
23.16195812506323
 21
38.3858994433594
 31
0.0
  0
LINE
  5
10F
330
1F
100
AcDbEntity
  8
0
  6
SLD-Solid
 62
     7
370
    25
100
AcDbLine
 10
23.14485812506323
 20
38.3605143099148
 30
0.0
 11
23.16195812506323
 21
38.3605143099148
 31
0.0
  0
ARC
  5
110
330
1F
100
AcDbEntity
  8
0
  6
SLD-Solid
 62
     7
370
    25
100
AcDbCircle
 10
23.17007062506322
 20
44.63119027848569
 30
0.0
 40
0.0579348381265844
100
AcDbArc
 50
11.42175365899442
 51
98.04946697549877
  0
LINE
  5
111
330
1F
100
AcDbEntity
  8
0
  6
SLD-Solid
 62
     7
370
    25
100
AcDbLine
 10
23.22685812506325
 20
44.64266308601048
 30
0.0
 11
23.22685812506323
 21
38.34000821326039
 31
0.0
  0
ARC
  5
112
330
1F
100
AcDbEntity
  8
0
  6
SLD-Solid
 62
     7
370
    25
100
AcDbCircle
 10
7.707845625063232
 20
38.3285354057356
 30
0.0
 40
0.0579348381265522
100
AcDbArc
 50
81.95053302446675
 51
168.5782463410274
  0
ARC
  5
113
330
1F
100
AcDbEntity
  8
0
  6
SLD-Solid
 62
     7
370
    25
100
AcDbCircle
 10
7.707845625063231
 20
44.6311902784857
 30
0.0
 40
0.0579348381265523
100
AcDbArc
 50
81.95053302446587
 51
168.578246341041
  0
LINE
  5
114
330
1F
100
AcDbEntity
  8
0
  6
SLD-Solid
 62
     7
370
    25
100
AcDbLine
 10
7.651058125063238
 20
44.64266308601044
 30
0.0
 11
7.651058125063238
 21
38.34000821326036
 31
0.0
  0
ARC
  5
115
330
1F
100
AcDbEntity
  8
0
  6
SLD-Solid
 62
     7
370
    25
100
AcDbCircle
 10
7.712333125063243
 20
38.33488168909675
 30
0.0
 40
0.0258876780534771
100
AcDbArc
 50
81.95053302448942
 51
168.5782463410142
  0
LINE
  5
116
330
1F
100
AcDbEntity
  8
0
  6
SLD-Solid
 62
     7
370
    25
100
AcDbLine
 10
7.686958125063238
 20
38.34000821326036
 30
0.0
 11
7.651058125063238
 21
38.34000821326036
 31
0.0
  0
LINE
  5
117
330
1F
100
AcDbEntity
  8
0
  6
SLD-Solid
 62
     7
370
    25
100
AcDbLine
 10
7.715958125063237
 20
38.36051430991477
 30
0.0
 11
7.715958125063237
 21
38.38589944335936
 31
0.0
  0
LINE
  5
118
330
1F
100
AcDbEntity
  8
0
  6
SLD-Solid
 62
     7
370
    25
100
AcDbLine
 10
7.733058125063238
 20
38.36051430991477
 30
0.0
 11
7.715958125063237
 21
38.36051430991477
 31
0.0
  0
LINE
  5
119
330
1F
100
AcDbEntity
  8
0
  6
SLD-Solid
 62
     7
370
    25
100
AcDbLine
 10
23.19095812506323
 20
38.32818840810701
 30
0.0
 11
23.22685812506323
 21
38.32818840810701
 31
0.0
  0
LINE
  5
11A
330
1F
100
AcDbEntity
  8
0
  6
SLD-Solid
 62
     7
370
    25
100
AcDbLine
 10
23.19095812506323
 20
38.31404627248327
 30
0.0
 11
23.19095812506323
 21
38.32818840810701
 31
0.0
  0
LINE
  5
11B
330
1F
100
AcDbEntity
  8
0
  6
SLD-Solid
 62
     7
370
    25
100
AcDbLine
 10
23.22685812506323
 20
38.32818840810701
 30
0.0
 11
23.22685812506323
 21
38.31404627248327
 31
0.0
  0
LINE
  5
11C
330
1F
100
AcDbEntity
  8
0
  6
SLD-Solid
 62
     7
370
    25
100
AcDbLine
 10
7.686958125063238
 20
38.32818840810697
 30
0.0
 11
7.651058125063238
 21
38.32818840810697
 31
0.0
  0
LINE
  5
11D
330
1F
100
AcDbEntity
  8
0
  6
SLD-Solid
 62
     7
370
    25
100
AcDbLine
 10
7.651058125063238
 20
38.32818840810697
 30
0.0
 11
7.651058125063238
 21
38.31404627248324
 31
0.0
  0
LINE
  5
11E
330
1F
100
AcDbEntity
  8
0
  6
SLD-Solid
 62
     7
370
    25
100
AcDbLine
 10
7.686958125063238
 20
38.31404627248324
 30
0.0
 11
7.686958125063238
 21
38.32818840810697
 31
0.0
  0
LINE
  5
11F
330
1F
100
AcDbEntity
  8
0
  6
SLD-Solid
 62
     7
370
    25
100
AcDbLine
 10
23.19095812506323
 20
38.32818840810701
 30
0.0
 11
23.19095812506323
 21
38.34000821326039
 31
0.0
  0
LINE
  5
120
330
1F
100
AcDbEntity
  8
0
  6
SLD-Solid
 62
     7
370
    25
100
AcDbLine
 10
23.22685812506323
 20
38.32818840810701
 30
0.0
 11
23.22685812506323
 21
38.34000821326039
 31
0.0
  0
LINE
  5
121
330
1F
100
AcDbEntity
  8
0
  6
SLD-Solid
 62
     7
370
    25
100
AcDbLine
 10
7.651058125063238
 20
38.32818840810697
 30
0.0
 11
7.651058125063238
 21
38.34000821326036
 31
0.0
  0
LINE
  5
122
330
1F
100
AcDbEntity
  8
0
  6
SLD-Solid
 62
     7
370
    25
100
AcDbLine
 10
7.686958125063238
 20
38.32818840810697
 30
0.0
 11
7.686958125063238
 21
38.34000821326036
 31
0.0
  0
LINE
  5
123
330
1F
100
AcDbEntity
  8
0
  6
SLD-Solid
 62
     7
370
    25
100
AcDbLine
 10
21.8166487532087
 20
43.96018729315937
 30
0.0
 11
21.8166487532087
 21
43.98557242660397
 31
0.0
  0
ARC
  5
124
330
1F
100
AcDbEntity
  8
0
  6
SLD-Solid
 62
     7
370
    25
100
AcDbCircle
 10
21.83227375320869
 20
43.84970185859896
 30
0.0
 40
0.1115848191959932
100
AcDbArc
 50
11.42175365896309
 51
98.04946697552396
  0
LINE
  5
125
330
1F
100
AcDbEntity
  8
0
  6
SLD-Solid
 62
     7
370
    25
100
AcDbLine
 10
9.061267496917742
 20
43.96018729315934
 30
0.0
 11
9.061267496917765
 21
43.98557242660393
 31
0.0
  0
ARC
  5
126
330
1F
100
AcDbEntity
  8
0
  6
SLD-Solid
 62
     7
370
    25
100
AcDbCircle
 10
9.04564249691775
 20
43.84970185859893
 30
0.0
 40
0.1115848191959922
100
AcDbArc
 50
81.95053302447695
 51
168.5782463410292
  0
LINE
  5
127
330
1F
100
AcDbEntity
  8
0
  6
SLD-Solid
 62
     7
370
    25
100
AcDbLine
 10
21.8166487532087
 20
43.96018729315937
 30
0.0
 11
9.061267496917742
 21
43.96018729315934
 31
0.0
  0
LINE
  5
128
330
1F
100
AcDbEntity
  8
0
  6
SLD-Solid
 62
     7
370
    25
100
AcDbLine
 10
7.753058125063238
 20
44.68855431610945
 30
0.0
 11
7.753058125063238
 21
44.70756308601045
 31
0.0
  0
LINE
  5
129
330
1F
100
AcDbEntity
  8
0
  6
SLD-Solid
 62
     7
370
    25
100
AcDbLine
 10
7.753058125063238
 20
44.70756308601045
 30
0.0
 11
23.12485812506324
 21
44.70756308601048
 31
0.0
  0
LINE
  5
12A
330
1F
100
AcDbEntity
  8
0
  6
SLD-Solid
 62
     7
370
    25
100
AcDbLine
 10
23.12485812506324
 20
44.68855431610948
 30
0.0
 11
23.12485812506324
 21
44.70756308601048
 31
0.0
  0
ARC
  5
12B
330
1F
100
AcDbEntity
  8
0
  6
SLD-Solid
 62
     7
370
    25
100
AcDbCircle
 10
23.12505812506324
 20
44.64266308601048
 30
0.0
 40
0.0649000000000015
100
AcDbArc
 50
44.38895638775962
 51
90.0
  0
ARC
  5
12C
330
1F
100
AcDbEntity
  8
0
  6
SLD-Solid
 62
     7
370
    25
100
AcDbCircle
 10
7.752858125063239
 20
44.64266308601044
 30
0.0
 40
0.0649000000000041
100
AcDbArc
 50
90.0
 51
135.6110435690683
  0
LINE
  5
12D
330
1F
100
AcDbEntity
  8
0
  6
SLD-Solid
 62
     7
370
    25
100
AcDbLine
 10
23.12505812506324
 20
44.70756308601048
 30
0.0
 11
23.12485812506324
 21
44.70756308601048
 31
0.0
  0
LINE
  5
12E
330
1F
100
AcDbEntity
  8
0
  6
SLD-Solid
 62
     7
370
    25
100
AcDbLine
 10
7.752858125063239
 20
44.70756308601045
 30
0.0
 11
7.753058125063238
 21
44.70756308601045
 31
0.0
  0
LINE
  5
12F
330
1F
100
AcDbEntity
  8
0
  6
SLD-Solid
 62
     8
370
    25
100
AcDbLine
 10
23.26795812506314
 20
40.30785846904646
 30
0.0
 11
23.22685812506324
 21
40.30785846904646
 31
0.0
  0
LINE
  5
130
330
1F
100
AcDbEntity
  8
0
  6
SLD-Solid
 62
     8
370
    25
100
AcDbLine
 10
23.26795812506314
 20
40.34776858157824
 30
0.0
 11
23.22685812506324
 21
40.34776858157824
 31
0.0
  0
LINE
  5
131
330
1F
100
AcDbEntity
  8
0
  6
SLD-Solid
 62
     8
370
    25
100
AcDbLine
 10
7.651058125063238
 20
40.30785846904647
 30
0.0
 11
7.609958125063169
 21
40.30785846904647
 31
0.0
  0
LINE
  5
132
330
1F
100
AcDbEntity
  8
0
  6
SLD-Solid
 62
     8
370
    25
100
AcDbLine
 10
7.651058125063238
 20
40.34776858157824
 30
0.0
 11
7.609958125063169
 21
40.34776858157824
 31
0.0
  0
LINE
  5
133
330
1F
100
AcDbEntity
  8
0
  6
SLD-Solid
 62
     8
370
    25
100
AcDbLine
 10
8.123389030574565
 20
12.13332263602746
 30
0.0
 11
8.123389030574568
 21
36.23332263602677
 31
0.0
  0
LINE
  5
134
330
1F
100
AcDbEntity
  8
0
  6
SLD-Solid
 62
     8
370
    25
100
AcDbLine
 10
22.75452721955095
 20
36.23332263602685
 30
0.0
 11
22.75452721955094
 21
12.13332263602747
 31
0.0
  0
LINE
  5
135
330
1F
100
AcDbEntity
  8
0
  6
SLD-Solid
 62
     8
370
    25
100
AcDbLine
 10
23.12505812506323
 20
37.13332263602685
 30
0.0
 11
23.12505812506323
 21
38.30733054373073
 31
0.0
  0
LINE
  5
136
330
1F
100
AcDbEntity
  8
0
  6
SLD-Solid
 62
     8
370
    25
100
AcDbLine
 10
7.752858125063239
 20
37.13332263602678
 30
0.0
 11
7.752858125063236
 21
38.30733054373069
 31
0.0
  0
LINE
  5
137
330
1F
100
AcDbEntity
  8
0
  6
SLD-Solid
 62
     8
370
    25
100
AcDbLine
 10
23.16195812506326
 20
38.3605143099148
 30
0.0
 11
23.16195812506326
 21
38.30733054373073
 31
0.0
  0
LINE
  5
138
330
1F
100
AcDbEntity
  8
0
  6
SLD-Solid
 62
     8
370
    25
100
AcDbLine
 10
7.715958125063252
 20
38.36051430991477
 30
0.0
 11
7.715958125063252
 21
38.30733054373069
 31
0.0
  0
LINE
  5
139
330
1F
100
AcDbEntity
  8
0
  6
SLD-Solid
 62
     8
370
    25
100
AcDbLine
 10
23.12505812506324
 20
44.68855431610948
 30
0.0
 11
23.12505812506324
 21
44.70756308601048
 31
0.0
  0
LINE
  5
13A
330
1F
100
AcDbEntity
  8
0
  6
SLD-Solid
 62
     8
370
    25
100
AcDbLine
 10
7.752858125063239
 20
44.68855431610945
 30
0.0
 11
7.752858125063239
 21
44.70756308601045
 31
0.0
  0
LINE
  5
13B
330
1F
100
AcDbEntity
  8
NOTES
100
AcDbLine
 10
7.152403693139433
 20
6.730898860417661
 30
0.0
 11
80.62868118283691
 21
6.730898860417661
 31
0.0
  0
DIMENSION
  5
13C
330
1F
100
AcDbEntity
  8
DIMS
100
AcDbDimension
  2
_D
 10
4.498261575070813
 20
6.730898860417661
 30
0.0
 11
4.498261575070812
 21
23.07276682176507
 31
0.0
 70
    32
  1
Max 48" (1220mm)
 71
     2
 42
-1.0
  3
SLDDIMSTYLE0
100
AcDbAlignedDimension
 13
8.936267496917756
 23
41.510698692451
 33
0.0
 14
7.152403693139433
 24
6.730898860417661
 34
0.0
 50
90.0000000000002
100
AcDbRotatedDimension
  0
DIMENSION
  5
14E
330
1F
100
AcDbEntity
  8
DIMS
100
AcDbDimension
  2
_D_1
 10
7.873389030574566
 20
10.53104940768103
 30
0.0
 11
15.48690047120672
 21
10.53104940768103
 31
0.0
 70
    32
  1
<>
 71
     2
 42
-1.0
  3
SLDDIMSTYLE1
100
AcDbAlignedDimension
 13
23.03452721955095
 23
12.13332263602747
 33
0.0
 14
7.873389030574566
 24
12.13332263602747
 34
0.0
100
AcDbRotatedDimension
  0
DIMENSION
  5
15E
330
1F
100
AcDbEntity
  8
DIMS
100
AcDbDimension
  2
_D_2
 10
25.45702741807377
 20
44.70756308601049
 30
0.0
 11
25.4570274180738
 21
29.19415428125707
 31
0.0
 70
    32
  1
<>
 71
     2
 42
-1.0
  3
SLDDIMSTYLE1
100
AcDbAlignedDimension
 13
23.47318903057456
 23
12.13332263602747
 33
0.0
 14
23.12485812506324
 24
44.70756308601048
 34
0.0
 50
90.0000000000002
100
AcDbRotatedDimension
  0
MTEXT
  5
16D
330
1F
100
AcDbEntity
  8
NOTES
100
AcDbMText
 10
7.411795909154018
 20
7.49641769073493
 30
0.0
 40
0.5
 41
0.0
 71
     1
 72
     1
  1
Floor
  7
SLDTEXTSTYLE1
 73
     1
 44
1.0
  0
MTEXT
  5
16E
330
1F
100
AcDbEntity
  8
NOTES
100
AcDbMText
 10
13.72541226359222
 20
11.76851838231061
 30
0.0
 40
0.5
 41
0.0
 71
     1
 72
     1
  1
Front view
  7
SLDTEXTSTYLE1
 73
     1
 44
1.0
  0
LINE
  5
16F
330
1F
100
AcDbEntity
  8
0
  6
SLD-Solid
 62
     7
370
    25
100
AcDbLine
 10
23.18995812506325
 20
57.88282886682617
 30
0.0
 11
23.19095812506325
 21
57.88282886682617
 31
0.0
  0
LINE
  5
170
330
1F
100
AcDbEntity
  8
0
  6
SLD-Solid
 62
     7
370
    25
100
AcDbLine
 10
23.22685812506325
 20
57.88282886682617
 30
0.0
 11
23.26795812506314
 21
57.88282886682617
 31
0.0
  0
LINE
  5
171
330
1F
100
AcDbEntity
  8
0
  6
SLD-Solid
 62
     7
370
    25
100
AcDbLine
 10
23.26795812506314
 20
57.94532886682616
 30
0.0
 11
23.22685812506325
 21
57.94532886682616
 31
0.0
  0
LINE
  5
172
330
1F
100
AcDbEntity
  8
0
  6
SLD-Solid
 62
     7
370
    25
100
AcDbLine
 10
23.19095812506325
 20
57.94532886682616
 30
0.0
 11
23.18995812506325
 21
57.94532886682616
 31
0.0
  0
LINE
  5
173
330
1F
100
AcDbEntity
  8
0
  6
SLD-Solid
 62
     7
370
    25
100
AcDbLine
 10
7.609958125063169
 20
57.88282886682609
 30
0.0
 11
7.651058125063227
 21
57.88282886682609
 31
0.0
  0
LINE
  5
174
330
1F
100
AcDbEntity
  8
0
  6
SLD-Solid
 62
     7
370
    25
100
AcDbLine
 10
7.686958125063226
 20
57.88282886682609
 30
0.0
 11
7.687958125063231
 21
57.88282886682609
 31
0.0
  0
LINE
  5
175
330
1F
100
AcDbEntity
  8
0
  6
SLD-Solid
 62
     7
370
    25
100
AcDbLine
 10
7.687958125063231
 20
57.94532886682609
 30
0.0
 11
7.686958125063226
 21
57.94532886682609
 31
0.0
  0
LINE
  5
176
330
1F
100
AcDbEntity
  8
0
  6
SLD-Solid
 62
     7
370
    25
100
AcDbLine
 10
7.651058125063229
 20
57.94532886682609
 30
0.0
 11
7.609958125063169
 21
57.94532886682609
 31
0.0
  0
ARC
  5
177
330
1F
100
AcDbEntity
  8
0
  6
SLD-Solid
 62
     7
370
    25
100
AcDbCircle
 10
21.23074042298716
 20
58.05842131833393
 30
0.0
 40
0.0150000000000006
100
AcDbArc
 50
225.0000000000008
 51
270.0000000000008
  0
ARC
  5
178
330
1F
100
AcDbEntity
  8
0
  6
SLD-Solid
 62
     7
370
    25
100
AcDbCircle
 10
20.21831401611597
 20
58.05842131833393
 30
0.0
 40
0.0150000000000006
100
AcDbArc
 50
270.0000000000008
 51
315.0000000000105
  0
ARC
  5
179
330
1F
100
AcDbEntity
  8
0
  6
SLD-Solid
 62
     7
370
    25
100
AcDbCircle
 10
10.60574042298716
 20
58.05842131833393
 30
0.0
 40
0.0150000000000006
100
AcDbArc
 50
224.999999999996
 51
270.0000000000008
  0
ARC
  5
17A
330
1F
100
AcDbEntity
  8
0
  6
SLD-Solid
 62
     7
370
    25
100
AcDbCircle
 10
9.593314016115974
 20
58.05842131833393
 30
0.0
 40
0.0150000000000006
100
AcDbArc
 50
269.9999999999872
 51
315.0000000000056
  0
LINE
  5
17B
330
1F
100
AcDbEntity
  8
0
  6
SLD-Solid
 62
     7
370
    25
100
AcDbLine
 10
21.22013382126936
 20
58.04781471661614
 30
0.0
 11
21.10392061783377
 21
58.16402792005174
 31
0.0
  0
LINE
  5
17C
330
1F
100
AcDbEntity
  8
0
  6
SLD-Solid
 62
     7
370
    25
100
AcDbLine
 10
20.34513382126936
 20
58.16402792005174
 30
0.0
 11
20.22892061783377
 21
58.04781471661614
 31
0.0
  0
LINE
  5
17D
330
1F
100
AcDbEntity
  8
0
  6
SLD-Solid
 62
     7
370
    25
100
AcDbLine
 10
10.59513382126937
 20
58.04781471661614
 30
0.0
 11
10.47892061783377
 21
58.16402792005173
 31
0.0
  0
LINE
  5
17E
330
1F
100
AcDbEntity
  8
0
  6
SLD-Solid
 62
     7
370
    25
100
AcDbLine
 10
9.720133821269364
 20
58.16402792005173
 30
0.0
 11
9.60392061783377
 21
58.04781471661614
 31
0.0
  0
ARC
  5
17F
330
1F
100
AcDbEntity
  8
0
  6
SLD-Solid
 62
     7
370
    25
100
AcDbCircle
 10
21.09331401611597
 20
58.15342131833393
 30
0.0
 40
0.0150000000000077
100
AcDbArc
 50
45.00000000001919
 51
90.0
  0
ARC
  5
180
330
1F
100
AcDbEntity
  8
0
  6
SLD-Solid
 62
     7
370
    25
100
AcDbCircle
 10
20.35574042298716
 20
58.15342131833393
 30
0.0
 40
0.0150000000000077
100
AcDbArc
 50
90.0
 51
134.9999999999904
  0
ARC
  5
181
330
1F
100
AcDbEntity
  8
0
  6
SLD-Solid
 62
     7
370
    25
100
AcDbCircle
 10
10.46831401611597
 20
58.15342131833393
 30
0.0
 40
0.0150000000000077
100
AcDbArc
 50
44.99999999999041
 51
90.0
  0
ARC
  5
182
330
1F
100
AcDbEntity
  8
0
  6
SLD-Solid
 62
     7
370
    25
100
AcDbCircle
 10
9.730740422987166
 20
58.15342131833393
 30
0.0
 40
0.0150000000000077
100
AcDbArc
 50
90.00000000000679
 51
135.0000000000096
  0
ARC
  5
183
330
1F
100
AcDbEntity
  8
0
  6
SLD-Solid
 62
     7
370
    25
100
AcDbCircle
 10
23.22685812506323
 20
50.14165957338771
 30
0.0
 40
0.0500000000000007
100
AcDbArc
 50
315.0000000000065
 51
0.0
  0
LINE
  5
184
330
1F
100
AcDbEntity
  8
0
  6
SLD-Solid
 62
     7
370
    25
100
AcDbLine
 10
23.26221346412256
 20
50.10630423432839
 30
0.0
 11
23.22392919287509
 21
50.14458850557585
 31
0.0
  0
ARC
  5
185
330
1F
100
AcDbEntity
  8
0
  6
SLD-Solid
 62
     7
370
    25
100
AcDbCircle
 10
23.21685812506323
 20
50.15165957338772
 30
0.0
 40
0.009999999999998
100
AcDbArc
 50
314.9999999999864
 51
0.0
  0
LINE
  5
186
330
1F
100
AcDbEntity
  8
0
  6
SLD-Solid
 62
     7
370
    25
100
AcDbLine
 10
23.22685812506323
 20
50.20655957338772
 30
0.0
 11
23.22685812506323
 21
50.15165957338772
 31
0.0
  0
LINE
  5
187
330
1F
100
AcDbEntity
  8
0
  6
SLD-Solid
 62
     7
370
    25
100
AcDbLine
 10
23.27685812506325
 20
57.89865957338772
 30
0.0
 11
23.27685812506323
 21
50.14165957338771
 31
0.0
  0
LINE
  5
188
330
1F
100
AcDbEntity
  8
0
  6
SLD-Solid
 62
     7
370
    25
100
AcDbLine
 10
23.26795812506314
 20
57.89865957338772
 30
0.0
 11
23.27685812506325
 21
57.89865957338772
 31
0.0
  0
ARC
  5
189
330
1F
100
AcDbEntity
  8
0
  6
SLD-Solid
 62
     7
370
    25
100
AcDbCircle
 10
7.671858125063228
 20
50.15165957338775
 30
0.0
 40
0.0099999999999991
100
AcDbArc
 50
224.9999999999972
 51
270.0000000000008
  0
ARC
  5
18A
330
1F
100
AcDbEntity
  8
0
  6
SLD-Solid
 62
     7
370
    25
100
AcDbCircle
 10
23.21685812506323
 20
50.15165957338772
 30
0.0
 40
0.0100000000000051
100
AcDbArc
 50
270.0000000000008
 51
314.9999999999864
  0
ARC
  5
18B
330
1F
100
AcDbEntity
  8
0
  6
SLD-Solid
 62
     7
370
    25
100
AcDbCircle
 10
23.22685812506323
 20
50.14165957338771
 30
0.0
 40
0.0499999999999974
100
AcDbArc
 50
270.0000000000008
 51
315.0000000000065
  0
LINE
  5
18C
330
1F
100
AcDbEntity
  8
0
  6
SLD-Solid
 62
     7
370
    25
100
AcDbLine
 10
7.661858125063227
 20
50.09165957338775
 30
0.0
 11
23.22685812506323
 21
50.09165957338772
 31
0.0
  0
ARC
  5
18D
330
1F
100
AcDbEntity
  8
0
  6
SLD-Solid
 62
     7
370
    25
100
AcDbCircle
 10
7.661858125063227
 20
50.14165957338776
 30
0.0
 40
0.0500000000000043
100
AcDbArc
 50
225.000000000003
 51
270.0000000000008
  0
LINE
  5
18E
330
1F
100
AcDbEntity
  8
0
  6
SLD-Solid
 62
     7
370
    25
100
AcDbLine
 10
7.626502786003901
 20
50.10630423432843
 30
0.0
 11
7.664787057251362
 21
50.14458850557589
 31
0.0
  0
LINE
  5
18F
330
1F
100
AcDbEntity
  8
0
  6
SLD-Solid
 62
     7
370
    25
100
AcDbLine
 10
7.671858125063228
 20
50.14165957338776
 30
0.0
 11
7.752858125063236
 21
50.14165957338776
 31
0.0
  0
LINE
  5
190
330
1F
100
AcDbEntity
  8
0
  6
SLD-Solid
 62
     7
370
    25
100
AcDbLine
 10
23.12505812506323
 20
50.14165957338771
 30
0.0
 11
23.21685812506323
 21
50.14165957338771
 31
0.0
  0
ARC
  5
191
330
1F
100
AcDbEntity
  8
0
  6
SLD-Solid
 62
     7
370
    25
100
AcDbCircle
 10
7.671858125063228
 20
50.15165957338775
 30
0.0
 40
0.0100000000000007
100
AcDbArc
 50
180.0
 51
224.9999999999972
  0
ARC
  5
192
330
1F
100
AcDbEntity
  8
0
  6
SLD-Solid
 62
     7
370
    25
100
AcDbCircle
 10
7.661858125063227
 20
50.14165957338776
 30
0.0
 40
0.0500000000000005
100
AcDbArc
 50
180.0
 51
225.000000000003
  0
LINE
  5
193
330
1F
100
AcDbEntity
  8
0
  6
SLD-Solid
 62
     7
370
    25
100
AcDbLine
 10
7.661858125063229
 20
50.19888768670829
 30
0.0
 11
7.661858125063227
 21
50.15165957338775
 31
0.0
  0
LINE
  5
194
330
1F
100
AcDbEntity
  8
0
  6
SLD-Solid
 62
     7
370
    25
100
AcDbLine
 10
7.611858125063247
 20
57.88282886682608
 30
0.0
 11
7.611858125063227
 21
50.14165957338776
 31
0.0
  0
LINE
  5
195
330
1F
100
AcDbEntity
  8
0
  6
SLD-Solid
 62
     7
370
    25
100
AcDbLine
 10
23.26795812506314
 20
57.94352481237732
 30
0.0
 11
23.26795812506314
 21
57.90361469984555
 31
0.0
  0
LINE
  5
196
330
1F
100
AcDbEntity
  8
0
  6
SLD-Solid
 62
     7
370
    25
100
AcDbLine
 10
23.26795812506314
 20
57.90361469984555
 30
0.0
 11
23.26795812506314
 21
57.88282886682617
 31
0.0
  0
LINE
  5
197
330
1F
100
AcDbEntity
  8
0
  6
SLD-Solid
 62
     7
370
    25
100
AcDbLine
 10
23.26795812506314
 20
57.94532886682616
 30
0.0
 11
23.26795812506314
 21
57.94352481237732
 31
0.0
  0
LINE
  5
198
330
1F
100
AcDbEntity
  8
0
  6
SLD-Solid
 62
     7
370
    25
100
AcDbLine
 10
7.609958125063169
 20
57.90361469984548
 30
0.0
 11
7.609958125063169
 21
57.94352481237724
 31
0.0
  0
LINE
  5
199
330
1F
100
AcDbEntity
  8
0
  6
SLD-Solid
 62
     7
370
    25
100
AcDbLine
 10
7.609958125063169
 20
57.88282886682609
 30
0.0
 11
7.609958125063169
 21
57.90361469984548
 31
0.0
  0
LINE
  5
19A
330
1F
100
AcDbEntity
  8
0
  6
SLD-Solid
 62
     7
370
    25
100
AcDbLine
 10
7.609958125063169
 20
57.94352481237724
 30
0.0
 11
7.609958125063169
 21
57.94532886682609
 31
0.0
  0
LINE
  5
19B
330
1F
100
AcDbEntity
  8
0
  6
SLD-Solid
 62
     7
370
    25
100
AcDbLine
 10
7.849527219551562
 20
58.0383184941937
 30
0.0
 11
7.849527219551562
 21
58.04342131833393
 31
0.0
  0
LINE
  5
19C
330
1F
100
AcDbEntity
  8
0
  6
SLD-Solid
 62
     7
370
    25
100
AcDbLine
 10
7.849527219551562
 20
58.04342131833393
 30
0.0
 11
7.852285358385145
 21
58.04342131833393
 31
0.0
  0
LINE
  5
19D
330
1F
100
AcDbEntity
  8
0
  6
SLD-Solid
 62
     7
370
    25
100
AcDbLine
 10
22.93452721955157
 20
58.04342131833393
 30
0.0
 11
7.889527219551563
 21
58.04342131833393
 31
0.0
  0
LINE
  5
19E
330
1F
100
AcDbEntity
  8
0
  6
SLD-Solid
 62
     7
370
    25
100
AcDbLine
 10
22.97452721955156
 20
58.04335875717928
 30
0.0
 11
22.97452721955156
 21
58.01377992235856
 31
0.0
  0
SPLINE
  5
19F
330
1F
100
AcDbEntity
  8
0
  6
SLD-Solid
 62
     7
370
    25
100
AcDbSpline
210
0.0
220
0.0
230
1.0
 70
    28
 71
     3
 72
    13
 73
     9
 74
     0
 42
0.00000001
 43
0.00000001
 40
0.0
 40
0.0
 40
0.0
 40
0.0
 40
0.1747906150902616
 40
0.3600511198332362
 40
0.5530136346533528
 40
0.7500710908928536
 40
0.9471285471323696
 40
0.9999999999999999
 40
0.9999999999999999
 40
0.9999999999999999
 40
0.9999999999999999
 10
20.54013382126936
 20
58.16842131833393
 30
0.0
 41
1.0
 10
20.52124892210559
 20
58.16842131833393
 30
0.0
 41
1.0
 10
20.48234792568571
 20
58.16842131833393
 30
0.0
 41
1.0
 10
20.43314324068821
 20
58.16842131833393
 30
0.0
 41
1.0
 10
20.39267280706252
 20
58.16842131833393
 30
0.0
 41
1.0
 10
20.36651691892857
 20
58.16842131833394
 30
0.0
 41
1.0
 10
20.35472122587095
 20
58.16842131833394
 30
0.0
 41
1.0
 10
20.35679696289131
 20
58.16842131833393
 30
0.0
 41
1.0
 10
20.35723607668742
 20
58.16842131833393
 30
0.0
 41
1.0
  0
SPLINE
  5
1A0
330
1F
100
AcDbEntity
  8
0
  6
SLD-Solid
 62
     7
370
    25
100
AcDbSpline
210
0.0
220
0.0
230
1.0
 70
    28
 71
     3
 72
    18
 73
    14
 74
     0
 42
0.00000001
 43
0.00000001
 40
0.0
 40
0.0
 40
0.0
 40
0.0
 40
0.0700355731933868
 40
0.1626526571024907
 40
0.2500355403932323
 40
0.3374184236839711
 40
0.4300355075930928
 40
0.5265030490758364
 40
0.6250177701966178
 40
0.7235324913174012
 40
0.8200000328001447
 40
0.9126171167092562
 40
1.0
 40
1.0
 40
1.0
 40
1.0
 10
21.09181836241571
 20
58.16842131833393
 30
0.0
 41
1.0
 10
21.09165448045643
 20
58.16842131833393
 30
0.0
 41
1.0
 10
21.09127387621615
 20
58.16842131833393
 30
0.0
 41
1.0
 10
21.07434942363558
 20
58.16842131833394
 30
0.0
 41
1.0
 10
21.04576812534858
 20
58.16842131833393
 30
0.0
 41
1.0
 10
21.00579071203004
 20
58.16842131833394
 30
0.0
 41
1.0
 10
20.95434000542315
 20
58.16842131833394
 30
0.0
 41
1.0
 10
20.8916316986899
 20
58.16842131833393
 30
0.0
 41
1.0
 10
20.82066309231175
 20
58.16842131833394
 30
0.0
 41
1.0
 10
20.74560207367956
 20
58.16842131833393
 30
0.0
 41
1.0
 10
20.67135263146464
 20
58.16842131833393
 30
0.0
 41
1.0
 10
20.60156939673069
 20
58.16842131833393
 30
0.0
 41
1.0
 10
20.56021146540618
 20
58.16842131833393
 30
0.0
 41
1.0
 10
20.54013382126936
 20
58.16842131833393
 30
0.0
 41
1.0
  0
SPLINE
  5
1A1
330
1F
100
AcDbEntity
  8
0
  6
SLD-Solid
 62
     7
370
    25
100
AcDbSpline
210
0.0
220
0.0
230
1.0
 70
    28
 71
     3
 72
    13
 73
     9
 74
     0
 42
0.00000001
 43
0.00000001
 40
0.0
 40
0.0
 40
0.0
 40
0.0
 40
0.1747906150902572
 40
0.360051119833239
 40
0.5530136346533471
 40
0.7500710908928557
 40
0.9471285471323592
 40
1.0
 40
1.0
 40
1.0
 40
1.0
 10
9.915133821269363
 20
58.16842131833393
 30
0.0
 41
1.0
 10
9.896248922105594
 20
58.16842131833393
 30
0.0
 41
1.0
 10
9.857347925685714
 20
58.16842131833393
 30
0.0
 41
1.0
 10
9.808143240688201
 20
58.16842131833394
 30
0.0
 41
1.0
 10
9.767672807062521
 20
58.16842131833393
 30
0.0
 41
1.0
 10
9.74151691892857
 20
58.16842131833394
 30
0.0
 41
1.0
 10
9.729721225870957
 20
58.16842131833393
 30
0.0
 41
1.0
 10
9.731796962891305
 20
58.16842131833393
 30
0.0
 41
1.0
 10
9.732236076687423
 20
58.16842131833393
 30
0.0
 41
1.0
  0
SPLINE
  5
1A2
330
1F
100
AcDbEntity
  8
0
  6
SLD-Solid
 62
     7
370
    25
100
AcDbSpline
210
0.0
220
0.0
230
1.0
 70
    28
 71
     3
 72
    18
 73
    14
 74
     0
 42
0.00000001
 43
0.00000001
 40
0.0
 40
0.0
 40
0.0
 40
0.0
 40
0.070035573193381
 40
0.1626526571024895
 40
0.2500355403932311
 40
0.3374184236839745
 40
0.4300355075930934
 40
0.5265030490758325
 40
0.6250177701966209
 40
0.723532491317399
 40
0.8200000328001492
 40
0.912617116709257
 40
1.0
 40
1.0
 40
1.0
 40
1.0
 10
10.46681836241571
 20
58.16842131833393
 30
0.0
 41
1.0
 10
10.46665448045643
 20
58.16842131833393
 30
0.0
 41
1.0
 10
10.46627387621615
 20
58.16842131833393
 30
0.0
 41
1.0
 10
10.44934942363559
 20
58.16842131833394
 30
0.0
 41
1.0
 10
10.42076812534858
 20
58.16842131833393
 30
0.0
 41
1.0
 10
10.38079071203004
 20
58.16842131833394
 30
0.0
 41
1.0
 10
10.32934000542315
 20
58.16842131833393
 30
0.0
 41
1.0
 10
10.2666316986899
 20
58.16842131833394
 30
0.0
 41
1.0
 10
10.19566309231175
 20
58.16842131833393
 30
0.0
 41
1.0
 10
10.12060207367956
 20
58.16842131833393
 30
0.0
 41
1.0
 10
10.04635263146464
 20
58.16842131833393
 30
0.0
 41
1.0
 10
9.976569396730689
 20
58.16842131833393
 30
0.0
 41
1.0
 10
9.935211465406177
 20
58.16842131833393
 30
0.0
 41
1.0
 10
9.915133821269363
 20
58.16842131833393
 30
0.0
 41
1.0
  0
LINE
  5
1A3
330
1F
100
AcDbEntity
  8
0
  6
SLD-Solid
 62
     7
370
    25
100
AcDbLine
 10
7.923389030575184
 20
58.10342131833394
 30
0.0
 11
7.923389030575184
 21
58.07342131833394
 31
0.0
  0
LINE
  5
1A4
330
1F
100
AcDbEntity
  8
0
  6
SLD-Solid
 62
     7
370
    25
100
AcDbLine
 10
7.905389030574576
 20
58.07342131833394
 30
0.0
 11
7.873389030575184
 21
58.07342131833393
 31
0.0
  0
LINE
  5
1A5
330
1F
100
AcDbEntity
  8
0
  6
SLD-Solid
 62
     7
370
    25
100
AcDbLine
 10
7.873389030575184
 20
58.07342131833393
 30
0.0
 11
7.873389030575184
 21
58.10342131833394
 31
0.0
  0
LINE
  5
1A6
330
1F
100
AcDbEntity
  8
0
  6
SLD-Solid
 62
     7
370
    25
100
AcDbLine
 10
7.873389030575184
 20
58.10342131833394
 30
0.0
 11
7.923389030575184
 21
58.10342131833394
 31
0.0
  0
LINE
  5
1A7
330
1F
100
AcDbEntity
  8
0
  6
SLD-Solid
 62
     7
370
    25
100
AcDbLine
 10
7.923389030575184
 20
58.10342131833394
 30
0.0
 11
9.659527219551602
 21
58.10342131833394
 31
0.0
  0
LINE
  5
1A8
330
1F
100
AcDbEntity
  8
0
  6
SLD-Solid
 62
     7
370
    25
100
AcDbLine
 10
10.53952721955153
 20
58.10342131833394
 30
0.0
 11
20.2845272195516
 21
58.10342131833394
 31
0.0
  0
LINE
  5
1A9
330
1F
100
AcDbEntity
  8
0
  6
SLD-Solid
 62
     7
370
    25
100
AcDbLine
 10
21.16452721955153
 20
58.10342131833394
 30
0.0
 11
22.94838903057519
 21
58.10342131833394
 31
0.0
  0
LINE
  5
1AA
330
1F
100
AcDbEntity
  8
0
  6
SLD-Solid
 62
     7
370
    25
100
AcDbLine
 10
22.94838903057519
 20
58.07342131833394
 30
0.0
 11
22.94838903057519
 21
58.10342131833394
 31
0.0
  0
LINE
  5
1AB
330
1F
100
AcDbEntity
  8
0
  6
SLD-Solid
 62
     7
370
    25
100
AcDbLine
 10
8.372433518763552
 20
58.07342131833394
 30
0.0
 11
9.629527219551603
 21
58.07342131833393
 31
0.0
  0
LINE
  5
1AC
330
1F
100
AcDbEntity
  8
0
  6
SLD-Solid
 62
     7
370
    25
100
AcDbLine
 10
10.56952721955153
 20
58.07342131833394
 30
0.0
 11
20.2545272195516
 21
58.07342131833394
 31
0.0
  0
LINE
  5
1AD
330
1F
100
AcDbEntity
  8
0
  6
SLD-Solid
 62
     7
370
    25
100
AcDbLine
 10
21.19452721955153
 20
58.07342131833394
 30
0.0
 11
22.50548273136196
 21
58.07342131833394
 31
0.0
  0
LINE
  5
1AE
330
1F
100
AcDbEntity
  8
0
  6
SLD-Solid
 62
     7
370
    25
100
AcDbLine
 10
22.99838903057519
 20
58.10342131833394
 30
0.0
 11
22.99838903057519
 21
58.07342131833394
 31
0.0
  0
LINE
  5
1AF
330
1F
100
AcDbEntity
  8
0
  6
SLD-Solid
 62
     7
370
    25
100
AcDbLine
 10
22.99838903057519
 20
58.07342131833394
 30
0.0
 11
22.97252721955095
 21
58.07342131833393
 31
0.0
  0
LINE
  5
1B0
330
1F
100
AcDbEntity
  8
0
  6
SLD-Solid
 62
     7
370
    25
100
AcDbLine
 10
22.94838903057519
 20
58.10342131833394
 30
0.0
 11
22.99838903057519
 21
58.10342131833394
 31
0.0
  0
LINE
  5
1B1
330
1F
100
AcDbEntity
  8
0
  6
SLD-Solid
 62
     7
370
    25
100
AcDbLine
 10
7.873389030575184
 20
58.06452499052366
 30
0.0
 11
7.873389030575186
 21
58.07342131833393
 31
0.0
  0
LINE
  5
1B2
330
1F
100
AcDbEntity
  8
0
  6
SLD-Solid
 62
     7
370
    25
100
AcDbLine
 10
22.99838903057519
 20
58.07342131833393
 30
0.0
 11
22.99838903057519
 21
58.06776993615675
 31
0.0
  0
LINE
  5
1B3
330
1F
100
AcDbEntity
  8
0
  6
SLD-Solid
 62
     7
370
    25
100
AcDbLine
 10
22.99838903057519
 20
58.01377992235847
 30
0.0
 11
22.99838903057519
 21
58.03026718606521
 31
0.0
  0
ARC
  5
1B4
330
1F
100
AcDbEntity
  8
0
  6
SLD-Solid
 62
     7
370
    25
100
AcDbCircle
 10
7.905389030574568
 20
58.01142131833397
 30
0.0
 40
0.0619999999999976
100
AcDbArc
 50
89.99999999999262
 51
178.1514283550187
  0
LINE
  5
1B5
330
1F
100
AcDbEntity
  8
0
  6
SLD-Solid
 62
     7
370
    25
100
AcDbLine
 10
7.905389030574568
 20
58.04342131833397
 30
0.0
 11
7.905389030574576
 21
58.07342131833396
 31
0.0
  0
ARC
  5
1B6
330
1F
100
AcDbEntity
  8
0
  6
SLD-Solid
 62
     7
370
    25
100
AcDbCircle
 10
7.905389030574568
 20
58.01142131833397
 30
0.0
 40
0.0320000000000036
100
AcDbArc
 50
90.0
 51
176.4166783020076
  0
LINE
  5
1B7
330
1F
100
AcDbEntity
  8
0
  6
SLD-Solid
 62
     7
370
    25
100
AcDbLine
 10
8.222433518763546
 20
58.04342131833397
 30
0.0
 11
8.222433518763546
 21
58.07342131833396
 31
0.0
  0
LINE
  5
1B8
330
1F
100
AcDbEntity
  8
0
  6
SLD-Solid
 62
     7
370
    25
100
AcDbLine
 10
7.905389030574576
 20
58.07342131833396
 30
0.0
 11
8.222433518763546
 21
58.07342131833396
 31
0.0
  0
LINE
  5
1B9
330
1F
100
AcDbEntity
  8
0
  6
SLD-Solid
 62
     7
370
    25
100
AcDbLine
 10
8.222433518763546
 20
58.04342131833397
 30
0.0
 11
7.905389030574568
 21
58.04342131833397
 31
0.0
  0
LINE
  5
1BA
330
1F
100
AcDbEntity
  8
0
  6
SLD-Solid
 62
     7
370
    25
100
AcDbLine
 10
8.37243351876355
 20
58.07342131833398
 30
0.0
 11
8.37243351876355
 21
58.04342131833397
 31
0.0
  0
LINE
  5
1BB
330
1F
100
AcDbEntity
  8
0
  6
SLD-Solid
 62
     7
370
    25
100
AcDbLine
 10
8.222433518763546
 20
58.07342131833396
 30
0.0
 11
8.37243351876355
 21
58.07342131833398
 31
0.0
  0
LINE
  5
1BC
330
1F
100
AcDbEntity
  8
0
  6
SLD-Solid
 62
     7
370
    25
100
AcDbLine
 10
22.97252721955095
 20
58.04342131833397
 30
0.0
 11
22.97252721955095
 21
58.07342131833398
 31
0.0
  0
ARC
  5
1BD
330
1F
100
AcDbEntity
  8
0
  6
SLD-Solid
 62
     7
370
    25
100
AcDbCircle
 10
22.97252721955094
 20
58.01142131833397
 30
0.0
 40
0.0620000000000047
100
AcDbArc
 50
1.848571644941722
 51
89.99999999999672
  0
ARC
  5
1BE
330
1F
100
AcDbEntity
  8
0
  6
SLD-Solid
 62
     7
370
    25
100
AcDbCircle
 10
22.97252721955094
 20
58.01142131833397
 30
0.0
 40
0.031999999999999
100
AcDbArc
 50
3.583321697915597
 51
89.99999999999363
  0
LINE
  5
1BF
330
1F
100
AcDbEntity
  8
0
  6
SLD-Solid
 62
     7
370
    25
100
AcDbLine
 10
22.50548273136197
 20
58.04342131833398
 30
0.0
 11
22.50548273136197
 21
58.07342131833398
 31
0.0
  0
LINE
  5
1C0
330
1F
100
AcDbEntity
  8
0
  6
SLD-Solid
 62
     7
370
    25
100
AcDbLine
 10
22.65548273136197
 20
58.07342131833398
 30
0.0
 11
22.65548273136197
 21
58.04342131833398
 31
0.0
  0
LINE
  5
1C1
330
1F
100
AcDbEntity
  8
0
  6
SLD-Solid
 62
     7
370
    25
100
AcDbLine
 10
22.50548273136197
 20
58.07342131833398
 30
0.0
 11
22.65548273136197
 21
58.07342131833398
 31
0.0
  0
LINE
  5
1C2
330
1F
100
AcDbEntity
  8
0
  6
SLD-Solid
 62
     7
370
    25
100
AcDbLine
 10
22.97252721955095
 20
58.04342131833397
 30
0.0
 11
22.65548273136197
 21
58.04342131833398
 31
0.0
  0
LINE
  5
1C3
330
1F
100
AcDbEntity
  8
0
  6
SLD-Solid
 62
     7
370
    25
100
AcDbLine
 10
22.65548273136197
 20
58.07342131833398
 30
0.0
 11
22.97252721955095
 21
58.07342131833398
 31
0.0
  0
LINE
  5
1C4
330
1F
100
AcDbEntity
  8
0
  6
SLD-Solid
 62
     7
370
    25
100
AcDbLine
 10
23.15770812506236
 20
57.94887992235858
 30
0.0
 11
23.15770812506236
 21
57.97752131833398
 31
0.0
  0
LINE
  5
1C5
330
1F
100
AcDbEntity
  8
0
  6
SLD-Solid
 62
     7
370
    25
100
AcDbLine
 10
7.720208125062356
 20
57.94887992235861
 30
0.0
 11
7.720208125062356
 21
57.97752131833401
 31
0.0
  0
LINE
  5
1C6
330
1F
100
AcDbEntity
  8
0
  6
SLD-Solid
 62
     7
370
    25
100
AcDbLine
 10
7.753058125063238
 20
56.52689211566744
 30
0.0
 11
7.753058125063238
 21
56.53189211566743
 31
0.0
  0
LINE
  5
1C7
330
1F
100
AcDbEntity
  8
0
  6
SLD-Solid
 62
     7
370
    25
100
AcDbLine
 10
7.752858125063239
 20
56.53189211566743
 30
0.0
 11
7.753058125063238
 21
56.53189211566743
 31
0.0
  0
LINE
  5
1C8
330
1F
100
AcDbEntity
  8
0
  6
SLD-Solid
 62
     7
370
    25
100
AcDbLine
 10
7.752858125063239
 20
56.53189211566743
 30
0.0
 11
7.752858125063232
 21
57.94887992235862
 31
0.0
  0
LINE
  5
1C9
330
1F
100
AcDbEntity
  8
0
  6
SLD-Solid
 62
     7
370
    25
100
AcDbLine
 10
7.752858125063232
 20
57.94887992235862
 30
0.0
 11
23.12505812506323
 21
57.94887992235859
 31
0.0
  0
LINE
  5
1CA
330
1F
100
AcDbEntity
  8
0
  6
SLD-Solid
 62
     7
370
    25
100
AcDbLine
 10
23.12505812506324
 20
56.5318921156674
 30
0.0
 11
23.12505812506323
 21
57.94887992235859
 31
0.0
  0
LINE
  5
1CB
330
1F
100
AcDbEntity
  8
0
  6
SLD-Solid
 62
     7
370
    25
100
AcDbLine
 10
23.12505812506324
 20
56.5318921156674
 30
0.0
 11
23.12485812506324
 21
56.5318921156674
 31
0.0
  0
LINE
  5
1CC
330
1F
100
AcDbEntity
  8
0
  6
SLD-Solid
 62
     7
370
    25
100
AcDbLine
 10
23.12485812506324
 20
56.5268921156674
 30
0.0
 11
23.12485812506324
 21
56.5318921156674
 31
0.0
  0
LINE
  5
1CD
330
1F
100
AcDbEntity
  8
0
  6
SLD-Solid
 62
     7
370
    25
100
AcDbLine
 10
7.753058125063238
 20
56.52689211566744
 30
0.0
 11
23.12485812506324
 21
56.5268921156674
 31
0.0
  0
LINE
  5
1CE
330
1F
100
AcDbEntity
  8
0
  6
SLD-Solid
 62
     7
370
    25
100
AcDbLine
 10
23.12505812506323
 20
57.94887992235859
 30
0.0
 11
23.18995812506325
 21
57.94887992235858
 31
0.0
  0
LINE
  5
1CF
330
1F
100
AcDbEntity
  8
0
  6
SLD-Solid
 62
     7
370
    25
100
AcDbLine
 10
23.18995812506325
 20
57.94887992235858
 30
0.0
 11
23.18995812506324
 21
56.53189211566739
 31
0.0
  0
LINE
  5
1D0
330
1F
100
AcDbEntity
  8
0
  6
SLD-Solid
 62
     7
370
    25
100
AcDbLine
 10
23.18995812506324
 20
56.53189211566739
 30
0.0
 11
23.12505812506324
 21
56.5318921156674
 31
0.0
  0
LINE
  5
1D1
330
1F
100
AcDbEntity
  8
0
  6
SLD-Solid
 62
     7
370
    25
100
AcDbLine
 10
7.68795812506324
 20
56.53189211566744
 30
0.0
 11
7.752858125063239
 21
56.53189211566743
 31
0.0
  0
LINE
  5
1D2
330
1F
100
AcDbEntity
  8
0
  6
SLD-Solid
 62
     7
370
    25
100
AcDbLine
 10
7.687958125063231
 20
57.94887992235862
 30
0.0
 11
7.68795812506324
 21
56.53189211566744
 31
0.0
  0
LINE
  5
1D3
330
1F
100
AcDbEntity
  8
0
  6
SLD-Solid
 62
     7
370
    25
100
AcDbLine
 10
7.752858125063232
 20
57.94887992235862
 30
0.0
 11
7.687958125063231
 21
57.94887992235862
 31
0.0
  0
LINE
  5
1D4
330
1F
100
AcDbEntity
  8
0
  6
SLD-Solid
 62
     7
370
    25
100
AcDbLine
 10
23.19095812506325
 20
56.52689211566739
 30
0.0
 11
23.22685812506325
 21
56.52689211566739
 31
0.0
  0
LINE
  5
1D5
330
1F
100
AcDbEntity
  8
0
  6
SLD-Solid
 62
     7
370
    25
100
AcDbLine
 10
23.22685812506325
 20
57.96852131833369
 30
0.0
 11
23.19095812506325
 21
57.96852131833369
 31
0.0
  0
LINE
  5
1D6
330
1F
100
AcDbEntity
  8
0
  6
SLD-Solid
 62
     7
370
    25
100
AcDbLine
 10
23.19095812506325
 20
57.96852131833369
 30
0.0
 11
23.19095812506325
 21
56.52689211566739
 31
0.0
  0
LINE
  5
1D7
330
1F
100
AcDbEntity
  8
0
  6
SLD-Solid
 62
     7
370
    25
100
AcDbLine
 10
23.22685812506325
 20
57.96852131833369
 30
0.0
 11
23.22685812506325
 21
56.52689211566739
 31
0.0
  0
LINE
  5
1D8
330
1F
100
AcDbEntity
  8
0
  6
SLD-Solid
 62
     7
370
    25
100
AcDbLine
 10
7.651058125063227
 20
57.96852131833373
 30
0.0
 11
7.686958125063226
 21
57.96852131833372
 31
0.0
  0
LINE
  5
1D9
330
1F
100
AcDbEntity
  8
0
  6
SLD-Solid
 62
     7
370
    25
100
AcDbLine
 10
7.686958125063238
 20
56.52689211566743
 30
0.0
 11
7.651058125063238
 21
56.52689211566744
 31
0.0
  0
LINE
  5
1DA
330
1F
100
AcDbEntity
  8
0
  6
SLD-Solid
 62
     7
370
    25
100
AcDbLine
 10
7.686958125063226
 20
57.96852131833372
 30
0.0
 11
7.686958125063238
 21
56.52689211566743
 31
0.0
  0
LINE
  5
1DB
330
1F
100
AcDbEntity
  8
0
  6
SLD-Solid
 62
     7
370
    25
100
AcDbLine
 10
7.651058125063227
 20
57.96852131833373
 30
0.0
 11
7.651058125063238
 21
56.52689211566744
 31
0.0
  0
LINE
  5
1DC
330
1F
100
AcDbEntity
  8
0
  6
SLD-Solid
 62
     7
370
    25
100
AcDbLine
 10
7.752858125063232
 20
58.01377992235862
 30
0.0
 11
7.752858125063232
 21
57.94887992235862
 31
0.0
  0
LINE
  5
1DD
330
1F
100
AcDbEntity
  8
0
  6
SLD-Solid
 62
     7
370
    25
100
AcDbLine
 10
7.752858125063232
 20
58.01377992235862
 30
0.0
 11
23.12505812506325
 21
58.01377992235858
 31
0.0
  0
LINE
  5
1DE
330
1F
100
AcDbEntity
  8
0
  6
SLD-Solid
 62
     7
370
    25
100
AcDbLine
 10
23.12505812506325
 20
58.01377992235858
 30
0.0
 11
23.12505812506323
 21
57.94887992235859
 31
0.0
  0
LINE
  5
1DF
330
1F
100
AcDbEntity
  8
0
  6
SLD-Solid
 62
     7
370
    25
100
AcDbLine
 10
7.753058125063238
 20
56.48100088556843
 30
0.0
 11
7.753058125063238
 21
56.52689211566744
 31
0.0
  0
LINE
  5
1E0
330
1F
100
AcDbEntity
  8
0
  6
SLD-Solid
 62
     7
370
    25
100
AcDbLine
 10
23.12485812506324
 20
56.48100088556839
 30
0.0
 11
7.753058125063238
 21
56.48100088556843
 31
0.0
  0
LINE
  5
1E1
330
1F
100
AcDbEntity
  8
0
  6
SLD-Solid
 62
     7
370
    25
100
AcDbLine
 10
23.12485812506324
 20
56.48100088556839
 30
0.0
 11
23.12485812506324
 21
56.5268921156674
 31
0.0
  0
LINE
  5
1E2
330
1F
100
AcDbEntity
  8
0
  6
SLD-Solid
 62
     7
370
    25
100
AcDbLine
 10
7.753058125063238
 20
50.16066834328875
 30
0.0
 11
23.12485812506323
 21
50.16066834328871
 31
0.0
  0
LINE
  5
1E3
330
1F
100
AcDbEntity
  8
0
  6
SLD-Solid
 62
     7
370
    25
100
AcDbLine
 10
7.753058125063238
 20
50.16066834328875
 30
0.0
 11
7.753058125063238
 21
50.16420387719469
 31
0.0
  0
ARC
  5
1E4
330
1F
100
AcDbEntity
  8
0
  6
SLD-Solid
 62
     7
370
    25
100
AcDbCircle
 10
7.735558125063235
 20
50.16066834328874
 30
0.0
 40
0.0178535710713682
100
AcDbArc
 50
11.42175365900356
 51
98.049466975516
  0
LINE
  5
1E5
330
1F
100
AcDbEntity
  8
0
  6
SLD-Solid
 62
     7
370
    25
100
AcDbLine
 10
7.733058125063238
 20
50.17834601281842
 30
0.0
 11
7.715958125063237
 21
50.17834601281842
 31
0.0
  0
LINE
  5
1E6
330
1F
100
AcDbEntity
  8
0
  6
SLD-Solid
 62
     7
370
    25
100
AcDbLine
 10
7.715958125063237
 20
50.17834601281842
 30
0.0
 11
7.715958125063237
 21
56.48100088556843
 31
0.0
  0
LINE
  5
1E7
330
1F
100
AcDbEntity
  8
0
  6
SLD-Solid
 62
     7
370
    25
100
AcDbLine
 10
7.715958125063237
 20
56.48100088556843
 30
0.0
 11
7.753058125063238
 21
56.48100088556843
 31
0.0
  0
LINE
  5
1E8
330
1F
100
AcDbEntity
  8
0
  6
SLD-Solid
 62
     7
370
    25
100
AcDbLine
 10
23.16195812506325
 20
56.48100088556839
 30
0.0
 11
23.12485812506324
 21
56.48100088556839
 31
0.0
  0
LINE
  5
1E9
330
1F
100
AcDbEntity
  8
0
  6
SLD-Solid
 62
     7
370
    25
100
AcDbLine
 10
23.16195812506323
 20
50.17834601281839
 30
0.0
 11
23.16195812506325
 21
56.48100088556839
 31
0.0
  0
LINE
  5
1EA
330
1F
100
AcDbEntity
  8
0
  6
SLD-Solid
 62
     7
370
    25
100
AcDbLine
 10
23.14485812506323
 20
50.17834601281839
 30
0.0
 11
23.16195812506323
 21
50.17834601281839
 31
0.0
  0
ARC
  5
1EB
330
1F
100
AcDbEntity
  8
0
  6
SLD-Solid
 62
     7
370
    25
100
AcDbCircle
 10
23.14235812506323
 20
50.16066834328872
 30
0.0
 40
0.0178535710713622
100
AcDbArc
 50
81.95053302445824
 51
168.5782463410361
  0
LINE
  5
1EC
330
1F
100
AcDbEntity
  8
0
  6
SLD-Solid
 62
     7
370
    25
100
AcDbLine
 10
23.12485812506323
 20
50.16066834328871
 30
0.0
 11
23.12485812506323
 21
50.16420387719465
 31
0.0
  0
LINE
  5
1ED
330
1F
100
AcDbEntity
  8
0
  6
SLD-Solid
 62
     7
370
    25
100
AcDbLine
 10
8.936267496917765
 20
50.91665987540544
 30
0.0
 11
8.936267496917766
 21
55.6896306484146
 31
0.0
  0
ARC
  5
1EE
330
1F
100
AcDbEntity
  8
0
  6
SLD-Solid
 62
     7
370
    25
100
AcDbCircle
 10
9.045642496917775
 20
50.93875696231752
 30
0.0
 40
0.111584819195992
100
AcDbArc
 50
191.4217536589603
 51
278.049466975523
  0
LINE
  5
1EF
330
1F
100
AcDbEntity
  8
0
  6
SLD-Solid
 62
     7
370
    25
100
AcDbLine
 10
9.061267496917765
 20
50.82827152775711
 30
0.0
 11
21.8166487532087
 21
50.82827152775707
 31
0.0
  0
ARC
  5
1F0
330
1F
100
AcDbEntity
  8
0
  6
SLD-Solid
 62
     7
370
    25
100
AcDbCircle
 10
21.83227375320867
 20
50.93875696231751
 30
0.0
 40
0.1115848191960218
100
AcDbArc
 50
261.9505330244915
 51
348.5782463410295
  0
LINE
  5
1F1
330
1F
100
AcDbEntity
  8
0
  6
SLD-Solid
 62
     7
370
    25
100
AcDbLine
 10
21.9416487532087
 20
50.91665987540541
 30
0.0
 11
21.9416487532087
 21
55.68963064841456
 31
0.0
  0
ARC
  5
1F2
330
1F
100
AcDbEntity
  8
0
  6
SLD-Solid
 62
     7
370
    25
100
AcDbCircle
 10
21.83227375320869
 20
55.66753356150247
 30
0.0
 40
0.1115848191959932
100
AcDbArc
 50
11.42175365896309
 51
98.04946697552396
  0
LINE
  5
1F3
330
1F
100
AcDbEntity
  8
0
  6
SLD-Solid
 62
     7
370
    25
100
AcDbLine
 10
21.8166487532087
 20
55.77801899606288
 30
0.0
 11
9.061267496917765
 21
55.7780189960629
 31
0.0
  0
ARC
  5
1F4
330
1F
100
AcDbEntity
  8
0
  6
SLD-Solid
 62
     7
370
    25
100
AcDbCircle
 10
9.045642496917763
 20
55.6675335615025
 30
0.0
 40
0.1115848191959867
100
AcDbArc
 50
81.95053302447103
 51
168.5782463410283
  0
ARC
  5
1F5
330
1F
100
AcDbEntity
  8
0
  6
SLD-Solid
 62
     7
370
    25
100
AcDbCircle
 10
23.17007062506322
 20
56.53836492319218
 30
0.0
 40
0.0579348381265844
100
AcDbArc
 50
261.9505330245021
 51
348.5782463410064
  0
ARC
  5
1F6
330
1F
100
AcDbEntity
  8
0
  6
SLD-Solid
 62
     7
370
    25
100
AcDbCircle
 10
23.17007062506324
 20
50.23571005044212
 30
0.0
 40
0.0579348381265335
100
AcDbArc
 50
261.9505330244559
 51
348.5782463410607
  0
LINE
  5
1F7
330
1F
100
AcDbEntity
  8
0
  6
SLD-Solid
 62
     7
370
    25
100
AcDbLine
 10
23.22685812506325
 20
56.52689211566739
 30
0.0
 11
23.22685812506323
 21
50.2242372429174
 31
0.0
  0
LINE
  5
1F8
330
1F
100
AcDbEntity
  8
0
  6
SLD-Solid
 62
     7
370
    25
100
AcDbLine
 10
23.16195812506325
 20
56.48100088556839
 30
0.0
 11
23.16195812506325
 21
56.50638601901299
 31
0.0
  0
ARC
  5
1F9
330
1F
100
AcDbEntity
  8
0
  6
SLD-Solid
 62
     7
370
    25
100
AcDbCircle
 10
23.16558312506325
 20
56.53201863983099
 30
0.0
 40
0.0258876780534678
100
AcDbArc
 50
261.9505330244722
 51
348.5782463410435
  0
LINE
  5
1FA
330
1F
100
AcDbEntity
  8
0
  6
SLD-Solid
 62
     7
370
    25
100
AcDbLine
 10
23.16195812506325
 20
56.50638601901299
 30
0.0
 11
23.12485812506324
 21
56.50638601901299
 31
0.0
  0
LINE
  5
1FB
330
1F
100
AcDbEntity
  8
0
  6
SLD-Solid
 62
     7
370
    25
100
AcDbLine
 10
7.715958125063237
 20
56.48100088556843
 30
0.0
 11
7.715958125063237
 21
56.50638601901302
 31
0.0
  0
LINE
  5
1FC
330
1F
100
AcDbEntity
  8
0
  6
SLD-Solid
 62
     7
370
    25
100
AcDbLine
 10
7.715958125063237
 20
56.50638601901302
 30
0.0
 11
7.753058125063238
 21
56.50638601901302
 31
0.0
  0
ARC
  5
1FD
330
1F
100
AcDbEntity
  8
0
  6
SLD-Solid
 62
     7
370
    25
100
AcDbCircle
 10
7.71233312506324
 20
56.53201863983103
 30
0.0
 40
0.0258876780534695
100
AcDbArc
 50
191.4217536589574
 51
278.0494669755236
  0
ARC
  5
1FE
330
1F
100
AcDbEntity
  8
0
  6
SLD-Solid
 62
     7
370
    25
100
AcDbCircle
 10
7.707845625063231
 20
56.53836492319218
 30
0.0
 40
0.0579348381265453
100
AcDbArc
 50
191.4217536589529
 51
278.0494669755359
  0
ARC
  5
1FF
330
1F
100
AcDbEntity
  8
0
  6
SLD-Solid
 62
     7
370
    25
100
AcDbCircle
 10
7.707845625063228
 20
50.23571005044217
 30
0.0
 40
0.0579348381265458
100
AcDbArc
 50
191.4217536589674
 51
278.0494669755394
  0
LINE
  5
200
330
1F
100
AcDbEntity
  8
0
  6
SLD-Solid
 62
     7
370
    25
100
AcDbLine
 10
7.651058125063238
 20
56.52689211566744
 30
0.0
 11
7.651058125063238
 21
50.22423724291741
 31
0.0
  0
LINE
  5
201
330
1F
100
AcDbEntity
  8
0
  6
SLD-Solid
 62
     7
370
    25
100
AcDbLine
 10
23.19095812506325
 20
57.99852131833368
 30
0.0
 11
23.22685812506325
 21
57.99852131833368
 31
0.0
  0
LINE
  5
202
330
1F
100
AcDbEntity
  8
0
  6
SLD-Solid
 62
     7
370
    25
100
AcDbLine
 10
23.19095812506325
 20
57.96852131833369
 30
0.0
 11
23.19095812506325
 21
57.99852131833368
 31
0.0
  0
LINE
  5
203
330
1F
100
AcDbEntity
  8
0
  6
SLD-Solid
 62
     7
370
    25
100
AcDbLine
 10
23.22685812506325
 20
57.99852131833368
 30
0.0
 11
23.22685812506325
 21
57.96852131833369
 31
0.0
  0
LINE
  5
204
330
1F
100
AcDbEntity
  8
0
  6
SLD-Solid
 62
     7
370
    25
100
AcDbLine
 10
7.686958125063226
 20
57.99852131833372
 30
0.0
 11
7.651058125063227
 21
57.99852131833373
 31
0.0
  0
LINE
  5
205
330
1F
100
AcDbEntity
  8
0
  6
SLD-Solid
 62
     7
370
    25
100
AcDbLine
 10
7.686958125063226
 20
57.96852131833372
 30
0.0
 11
7.686958125063226
 21
57.99852131833372
 31
0.0
  0
LINE
  5
206
330
1F
100
AcDbEntity
  8
0
  6
SLD-Solid
 62
     7
370
    25
100
AcDbLine
 10
7.651058125063227
 20
57.99852131833373
 30
0.0
 11
7.651058125063227
 21
57.96852131833373
 31
0.0
  0
ARC
  5
207
330
1F
100
AcDbEntity
  8
0
  6
SLD-Solid
 62
     7
370
    25
100
AcDbCircle
 10
23.16195812506325
 20
57.9485213183337
 30
0.0
 40
0.0648999999999883
100
AcDbArc
 50
50.39126221343288
 51
90.0
  0
ARC
  5
208
330
1F
100
AcDbEntity
  8
0
  6
SLD-Solid
 62
     7
370
    25
100
AcDbCircle
 10
23.16195812506325
 20
57.9485213183337
 30
0.0
 40
0.0289999999999928
100
AcDbArc
 50
359.9999999999868
 51
90.0
  0
LINE
  5
209
330
1F
100
AcDbEntity
  8
0
  6
SLD-Solid
 62
     7
370
    25
100
AcDbLine
 10
23.16195812506325
 20
57.97752131833369
 30
0.0
 11
23.16195812506325
 21
58.01342131833369
 31
0.0
  0
ARC
  5
20A
330
1F
100
AcDbEntity
  8
0
  6
SLD-Solid
 62
     7
370
    25
100
AcDbCircle
 10
7.715958125063237
 20
57.94852131833374
 30
0.0
 40
0.028999999999991
100
AcDbArc
 50
90.0
 51
180.0000000000308
  0
ARC
  5
20B
330
1F
100
AcDbEntity
  8
0
  6
SLD-Solid
 62
     7
370
    25
100
AcDbCircle
 10
7.715958125063237
 20
57.94852131833374
 30
0.0
 40
0.0648999999999932
100
AcDbArc
 50
90.0
 51
129.6087377865625
  0
LINE
  5
20C
330
1F
100
AcDbEntity
  8
0
  6
SLD-Solid
 62
     7
370
    25
100
AcDbLine
 10
7.715958125063237
 20
57.97752131833373
 30
0.0
 11
7.715958125063237
 21
58.01342131833373
 31
0.0
  0
LINE
  5
20D
330
1F
100
AcDbEntity
  8
0
  6
SLD-Solid
 62
     7
370
    25
100
AcDbLine
 10
23.12505812506325
 20
57.97752131833369
 30
0.0
 11
23.16195812506325
 21
57.97752131833369
 31
0.0
  0
LINE
  5
20E
330
1F
100
AcDbEntity
  8
0
  6
SLD-Solid
 62
     7
370
    25
100
AcDbLine
 10
23.12505812506325
 20
58.01342131833369
 30
0.0
 11
23.16195812506325
 21
58.01342131833369
 31
0.0
  0
LINE
  5
20F
330
1F
100
AcDbEntity
  8
0
  6
SLD-Solid
 62
     7
370
    25
100
AcDbLine
 10
7.752858125063232
 20
57.97752131833373
 30
0.0
 11
7.715958125063237
 21
57.97752131833373
 31
0.0
  0
LINE
  5
210
330
1F
100
AcDbEntity
  8
0
  6
SLD-Solid
 62
     7
370
    25
100
AcDbLine
 10
7.752858125063232
 20
58.01342131833373
 30
0.0
 11
7.715958125063237
 21
58.01342131833373
 31
0.0
  0
LINE
  5
211
330
1F
100
AcDbEntity
  8
0
  6
SLD-Solid
 62
     7
370
    25
100
AcDbLine
 10
21.8166487532087
 20
50.82827152775707
 30
0.0
 11
21.8166487532087
 21
50.85365666120168
 31
0.0
  0
ARC
  5
212
330
1F
100
AcDbEntity
  8
0
  6
SLD-Solid
 62
     7
370
    25
100
AcDbCircle
 10
21.83227375320869
 20
50.96414209576208
 30
0.0
 40
0.1115848191959918
100
AcDbArc
 50
261.9505330244763
 51
348.5782463410413
  0
LINE
  5
213
330
1F
100
AcDbEntity
  8
0
  6
SLD-Solid
 62
     7
370
    25
100
AcDbLine
 10
9.061267496917765
 20
50.82827152775711
 30
0.0
 11
9.061267496917754
 21
50.85365666120172
 31
0.0
  0
ARC
  5
214
330
1F
100
AcDbEntity
  8
0
  6
SLD-Solid
 62
     7
370
    25
100
AcDbCircle
 10
9.045642496917765
 20
50.96414209576212
 30
0.0
 40
0.1115848191959856
100
AcDbArc
 50
191.4217536589721
 51
278.0494669755235
  0
LINE
  5
215
330
1F
100
AcDbEntity
  8
0
  6
SLD-Solid
 62
     7
370
    25
100
AcDbLine
 10
9.061267496917754
 20
50.85365666120172
 30
0.0
 11
21.8166487532087
 21
50.85365666120168
 31
0.0
  0
LINE
  5
216
330
1F
100
AcDbEntity
  8
0
  6
SLD-Solid
 62
     7
370
    25
100
AcDbLine
 10
7.753058125063238
 20
50.16066834328875
 30
0.0
 11
7.753058125063238
 21
50.14165957338776
 31
0.0
  0
LINE
  5
217
330
1F
100
AcDbEntity
  8
0
  6
SLD-Solid
 62
     7
370
    25
100
AcDbLine
 10
23.12485812506323
 20
50.16066834328871
 30
0.0
 11
23.12485812506323
 21
50.14165957338771
 31
0.0
  0
LINE
  5
218
330
1F
100
AcDbEntity
  8
0
  6
SLD-Solid
 62
     7
370
    25
100
AcDbLine
 10
23.12485812506323
 20
50.14165957338771
 30
0.0
 11
7.753058125063238
 21
50.14165957338776
 31
0.0
  0
LINE
  5
219
330
1F
100
AcDbEntity
  8
0
  6
SLD-Solid
 62
     7
370
    25
100
AcDbLine
 10
23.22685812506323
 20
50.212417437764
 30
0.0
 11
23.22685812506323
 21
50.2242372429174
 31
0.0
  0
LINE
  5
21A
330
1F
100
AcDbEntity
  8
0
  6
SLD-Solid
 62
     7
370
    25
100
AcDbLine
 10
7.651058125063238
 20
50.21241743776405
 30
0.0
 11
7.651058125063238
 21
50.22423724291741
 31
0.0
  0
ARC
  5
21B
330
1F
100
AcDbEntity
  8
0
  6
SLD-Solid
 62
     7
370
    25
100
AcDbCircle
 10
23.12505812506323
 20
50.20655957338773
 30
0.0
 40
0.0648999999999997
100
AcDbArc
 50
270.0000000000008
 51
337.0873699394921
  0
ARC
  5
21C
330
1F
100
AcDbEntity
  8
0
  6
SLD-Solid
 62
     7
370
    25
100
AcDbCircle
 10
7.752858125063236
 20
50.20655957338776
 30
0.0
 40
0.0649000000000086
100
AcDbArc
 50
202.9126300601763
 51
270.0000000000008
  0
LINE
  5
21D
330
1F
100
AcDbEntity
  8
0
  6
SLD-Solid
 62
     7
370
    25
100
AcDbLine
 10
23.22685812506323
 20
50.20655957338772
 30
0.0
 11
23.22184977723613
 21
50.20655957338772
 31
0.0
  0
LINE
  5
21E
330
1F
100
AcDbEntity
  8
0
  6
SLD-Solid
 62
     7
370
    25
100
AcDbLine
 10
23.22685812506323
 20
50.212417437764
 30
0.0
 11
23.22685812506323
 21
50.20655957338772
 31
0.0
  0
LINE
  5
21F
330
1F
100
AcDbEntity
  8
0
  6
SLD-Solid
 62
     7
370
    25
100
AcDbLine
 10
7.651058125063238
 20
50.20655957338777
 30
0.0
 11
7.656066472890319
 21
50.20655957338777
 31
0.0
  0
LINE
  5
220
330
1F
100
AcDbEntity
  8
0
  6
SLD-Solid
 62
     7
370
    25
100
AcDbLine
 10
7.651058125063238
 20
50.21241743776405
 30
0.0
 11
7.651058125063238
 21
50.20655957338777
 31
0.0
  0
LINE
  5
221
330
1F
100
AcDbEntity
  8
0
  6
SLD-Solid
 62
     7
370
    25
100
AcDbLine
 10
23.12485812506323
 20
50.14165957338773
 30
0.0
 11
23.12505812506323
 21
50.14165957338773
 31
0.0
  0
LINE
  5
222
330
1F
100
AcDbEntity
  8
0
  6
SLD-Solid
 62
     7
370
    25
100
AcDbLine
 10
7.753058125063238
 20
50.14165957338776
 30
0.0
 11
7.752858125063236
 21
50.14165957338776
 31
0.0
  0
LINE
  5
223
330
1F
100
AcDbEntity
  8
0
  6
SLD-Solid
 62
     8
370
    25
100
AcDbLine
 10
23.18995812506325
 20
57.94352481237732
 30
0.0
 11
23.19095812506325
 21
57.94352481237732
 31
0.0
  0
LINE
  5
224
330
1F
100
AcDbEntity
  8
0
  6
SLD-Solid
 62
     8
370
    25
100
AcDbLine
 10
23.22685812506325
 20
57.94352481237732
 30
0.0
 11
23.26795812506314
 21
57.94352481237732
 31
0.0
  0
LINE
  5
225
330
1F
100
AcDbEntity
  8
0
  6
SLD-Solid
 62
     8
370
    25
100
AcDbLine
 10
23.26795812506314
 20
57.90361469984555
 30
0.0
 11
23.22685812506325
 21
57.90361469984555
 31
0.0
  0
LINE
  5
226
330
1F
100
AcDbEntity
  8
0
  6
SLD-Solid
 62
     8
370
    25
100
AcDbLine
 10
23.19095812506325
 20
57.90361469984555
 30
0.0
 11
23.18995812506325
 21
57.90361469984555
 31
0.0
  0
LINE
  5
227
330
1F
100
AcDbEntity
  8
0
  6
SLD-Solid
 62
     8
370
    25
100
AcDbLine
 10
7.687958125063231
 20
57.90361469984548
 30
0.0
 11
7.686958125063226
 21
57.90361469984548
 31
0.0
  0
LINE
  5
228
330
1F
100
AcDbEntity
  8
0
  6
SLD-Solid
 62
     8
370
    25
100
AcDbLine
 10
7.651058125063229
 20
57.90361469984548
 30
0.0
 11
7.609958125063169
 21
57.90361469984548
 31
0.0
  0
LINE
  5
229
330
1F
100
AcDbEntity
  8
0
  6
SLD-Solid
 62
     8
370
    25
100
AcDbLine
 10
7.609958125063169
 20
57.94352481237724
 30
0.0
 11
7.651058125063227
 21
57.94352481237724
 31
0.0
  0
LINE
  5
22A
330
1F
100
AcDbEntity
  8
0
  6
SLD-Solid
 62
     8
370
    25
100
AcDbLine
 10
7.686958125063229
 20
57.94352481237724
 30
0.0
 11
7.687958125063231
 21
57.94352481237724
 31
0.0
  0
LINE
  5
22B
330
1F
100
AcDbEntity
  8
0
  6
SLD-Solid
 62
     8
370
    25
100
AcDbLine
 10
7.889527219551563
 20
58.04342131833393
 30
0.0
 11
7.889527219551563
 21
58.01377992235858
 31
0.0
  0
LINE
  5
22C
330
1F
100
AcDbEntity
  8
0
  6
SLD-Solid
 62
     8
370
    25
100
AcDbLine
 10
22.93452721955157
 20
58.01377992235856
 30
0.0
 11
22.93452721955157
 21
58.04342131833393
 31
0.0
  0
LINE
  5
22D
330
1F
100
AcDbEntity
  8
0
  6
SLD-Solid
 62
     8
370
    25
100
AcDbLine
 10
21.22013382126936
 20
58.04781471661614
 30
0.0
 11
20.22892061783377
 21
58.04781471661614
 31
0.0
  0
LINE
  5
22E
330
1F
100
AcDbEntity
  8
0
  6
SLD-Solid
 62
     8
370
    25
100
AcDbLine
 10
10.59513382126937
 20
58.04781471661614
 30
0.0
 11
9.603920617833772
 21
58.04781471661614
 31
0.0
  0
LINE
  5
22F
330
1F
100
AcDbEntity
  8
0
  6
SLD-Solid
 62
     8
370
    25
100
AcDbLine
 10
21.10392061783377
 20
58.16402792005174
 30
0.0
 11
20.34513382126936
 21
58.16402792005174
 31
0.0
  0
LINE
  5
230
330
1F
100
AcDbEntity
  8
0
  6
SLD-Solid
 62
     8
370
    25
100
AcDbLine
 10
10.47892061783377
 20
58.16402792005173
 30
0.0
 11
9.720133821269364
 21
58.16402792005173
 31
0.0
  0
LINE
  5
231
330
1F
100
AcDbEntity
  8
0
  6
SLD-Solid
 62
     8
370
    25
100
AcDbLine
 10
22.98366274827648
 20
58.04142131833394
 30
0.0
 11
22.97452721955156
 21
58.04142131833394
 31
0.0
  0
LINE
  5
232
330
1F
100
AcDbEntity
  8
0
  6
SLD-Solid
 62
     8
370
    25
100
AcDbLine
 10
8.99073099438267
 20
50.8690737754422
 30
0.0
 11
21.88718525574397
 21
50.86907377544227
 31
0.0
  0
LINE
  5
233
330
1F
100
AcDbEntity
  8
0
  6
SLD-Solid
 62
     8
370
    25
100
AcDbLine
 10
23.22466852621226
 20
50.212417437764
 30
0.0
 11
23.22685812506323
 21
50.212417437764
 31
0.0
  0
LINE
  5
234
330
1F
100
AcDbEntity
  8
0
  6
SLD-Solid
 62
     8
370
    25
100
AcDbLine
 10
7.653247723914208
 20
50.21241743776404
 30
0.0
 11
7.651058125063238
 21
50.21241743776405
 31
0.0
  0
LINE
  5
235
330
1F
100
AcDbEntity
  8
0
  6
SLD-Solid
 62
     8
370
    25
100
AcDbLine
 10
23.12505812506323
 20
50.14165957338773
 30
0.0
 11
23.12505812506323
 21
50.16619887092898
 31
0.0
  0
LINE
  5
236
330
1F
100
AcDbEntity
  8
0
  6
SLD-Solid
 62
     8
370
    25
100
AcDbLine
 10
7.752858125063236
 20
50.14165957338776
 30
0.0
 11
7.752858125063236
 21
50.16619887092902
 31
0.0
  0
DIMENSION
  5
237
330
1F
100
AcDbEntity
  8
DIMS
100
AcDbDimension
  2
_D_3
 10
25.64828234044483
 20
58.16842131833386
 30
0.0
 11
25.64828234044482
 21
54.13294244932989
 31
0.0
 70
    32
  1
<>
 71
     2
 42
-1.0
  3
SLDDIMSTYLE1
100
AcDbAlignedDimension
 13
23.22685812506323
 23
50.09165957338765
 33
0.0
 14
20.88052721955157
 24
58.16842131833388
 34
0.0
 50
90.0000000000002
100
AcDbRotatedDimension
  0
DIMENSION
  5
246
330
1F
100
AcDbEntity
  8
DIMS
100
AcDbDimension
  2
_D_4
 10
7.611858125063223
 20
48.40430318010053
 30
0.0
 11
15.44435812506324
 21
48.40430318010051
 31
0.0
 70
    32
  1
<>
 71
     2
 42
-1.0
  3
SLDDIMSTYLE1
100
AcDbAlignedDimension
 13
23.27685812506323
 23
50.14165957338766
 33
0.0
 14
7.611858125063227
 24
50.14165957338768
 34
0.0
 50
-0.0000000000001559
100
AcDbRotatedDimension
  0
MTEXT
  5
255
330
1F
100
AcDbEntity
  8
NOTES
100
AcDbMText
 10
8.305166912820187
 20
49.44707780458712
 30
0.0
 40
0.5
 41
0.0
 71
     1
 72
     1
  1
Top view
  7
SLDTEXTSTYLE1
 73
     1
 44
1.0
  0
LINE
  5
256
330
1F
100
AcDbEntity
  8
0
  6
SLD-Solid
 62
     7
370
    25
100
AcDbLine
 10
31.82808824499958
 20
36.23332263602685
 30
0.0
 11
39.28508824499958
 21
36.23332263602685
 31
0.0
  0
LINE
  5
257
330
1F
100
AcDbEntity
  8
0
  6
SLD-Solid
 62
     7
370
    25
100
AcDbLine
 10
39.45984998994587
 20
33.7883226360277
 30
0.0
 11
39.5504565916636
 21
33.87892923774542
 31
0.0
  0
LINE
  5
258
330
1F
100
AcDbEntity
  8
0
  6
SLD-Solid
 62
     7
370
    25
100
AcDbLine
 10
39.5504565916636
 20
34.63771603430983
 30
0.0
 11
39.45984998994587
 21
34.72832263602754
 31
0.0
  0
LINE
  5
259
330
1F
100
AcDbEntity
  8
0
  6
SLD-Solid
 62
     7
370
    25
100
AcDbLine
 10
39.45984998994587
 20
22.5383226360277
 30
0.0
 11
39.5504565916636
 21
22.62892923774542
 31
0.0
  0
LINE
  5
25A
330
1F
100
AcDbEntity
  8
0
  6
SLD-Solid
 62
     7
370
    25
100
AcDbLine
 10
39.5504565916636
 20
23.38771603430982
 30
0.0
 11
39.45984998994587
 21
23.47832263602754
 31
0.0
  0
ARC
  5
25B
330
1F
100
AcDbEntity
  8
0
  6
SLD-Solid
 62
     7
370
    25
100
AcDbCircle
 10
39.5398499899458
 20
33.88953583946322
 30
0.0
 40
0.0149999999999977
100
AcDbArc
 50
315.0000000000008
 51
359.9999999999737
  0
ARC
  5
25C
330
1F
100
AcDbEntity
  8
0
  6
SLD-Solid
 62
     7
370
    25
100
AcDbCircle
 10
39.5398499899458
 20
34.62710943259202
 30
0.0
 40
0.0149999999999977
100
AcDbArc
 50
0.0000000000271407
 51
45.0
  0
ARC
  5
25D
330
1F
100
AcDbEntity
  8
0
  6
SLD-Solid
 62
     7
370
    25
100
AcDbCircle
 10
39.5398499899458
 20
22.63953583946321
 30
0.0
 40
0.0149999999999977
100
AcDbArc
 50
315.0000000000008
 51
0.0
  0
ARC
  5
25E
330
1F
100
AcDbEntity
  8
0
  6
SLD-Solid
 62
     7
370
    25
100
AcDbCircle
 10
39.5398499899458
 20
23.37710943259202
 30
0.0
 40
0.0150000000000002
100
AcDbArc
 50
0.0000000000135704
 51
45.0000000000096
  0
LINE
  5
25F
330
1F
100
AcDbEntity
  8
0
  6
SLD-Solid
 62
     7
370
    25
100
AcDbLine
 10
31.52808824499957
 20
36.33332263602685
 30
0.0
 11
31.52808824499958
 21
37.13332263602685
 31
0.0
  0
LINE
  5
260
330
1F
100
AcDbEntity
  8
0
  6
SLD-Solid
 62
     7
370
    25
100
AcDbLine
 10
39.28508824499958
 20
37.13332263602685
 30
0.0
 11
31.52808824499958
 21
37.13332263602685
 31
0.0
  0
LINE
  5
261
330
1F
100
AcDbEntity
  8
0
  6
SLD-Solid
 62
     7
370
    25
100
AcDbLine
 10
39.28508824499958
 20
37.13332263602685
 30
0.0
 11
39.28508824499958
 21
36.33332263602685
 31
0.0
  0
LINE
  5
262
330
1F
100
AcDbEntity
  8
0
  6
SLD-Solid
 62
     7
370
    25
100
AcDbLine
 10
39.28508824499958
 20
36.33332263602685
 30
0.0
 11
31.52808824499957
 21
36.33332263602685
 31
0.0
  0
ELLIPSE
  5
263
330
1F
100
AcDbEntity
  8
0
  6
SLD-Solid
 62
     7
370
    25
100
AcDbEllipse
 10
31.57808824499958
 20
36.33332263602685
 30
0.0
 11
0.0
 21
0.1000000000000014
 31
0.0
210
0.0
220
0.0
230
1.0
 40
0.5
 41
1.570796326794897
 42
2.61799387799149
  0
LINE
  5
264
330
1F
100
AcDbEntity
  8
0
  6
SLD-Solid
 62
     7
370
    25
100
AcDbLine
 10
31.82808824499958
 20
36.23332263602685
 30
0.0
 11
31.82808824499958
 21
36.24672009564841
 31
0.0
  0
LINE
  5
265
330
1F
100
AcDbEntity
  8
0
  6
SLD-Solid
 62
     7
370
    25
100
AcDbLine
 10
31.82808824499958
 20
36.24672009564841
 30
0.0
 11
31.55308824499958
 21
36.2467200956484
 31
0.0
  0
LINE
  5
266
330
1F
100
AcDbEntity
  8
0
  6
SLD-Solid
 62
     7
370
    25
100
AcDbLine
 10
39.28508824499958
 20
36.33332263602685
 30
0.0
 11
39.28508824499958
 21
36.23332263602685
 31
0.0
  0
ARC
  5
267
330
1F
100
AcDbEntity
  8
0
  6
SLD-Solid
 62
     7
370
    25
100
AcDbCircle
 10
31.57808824499958
 20
36.33332263602685
 30
0.0
 40
0.1000000000000014
100
AcDbArc
 50
180.0
 51
240.0000000000021
  0
LINE
  5
268
330
1F
100
AcDbEntity
  8
0
  6
SLD-Solid
 62
     7
370
    25
100
AcDbLine
 10
31.47808824499958
 20
36.33332263602685
 30
0.0
 11
31.52808824499957
 21
36.33332263602685
 31
0.0
  0
LINE
  5
269
330
1F
100
AcDbEntity
  8
0
  6
SLD-Solid
 62
     7
370
    25
100
AcDbLine
 10
31.53808824499958
 20
36.24856791389273
 30
0.0
 11
31.55308824499958
 21
36.2467200956484
 31
0.0
  0
SPLINE
  5
26A
330
1F
100
AcDbEntity
  8
0
  6
SLD-Solid
 62
     7
370
    25
100
AcDbSpline
210
0.0
220
0.0
230
1.0
 70
    12
 71
     3
 72
    12
 73
     8
 74
     0
 42
0.00000001
 43
0.00000001
 40
0.0
 40
0.0
 40
0.0
 40
0.0
 40
0.2091599146726296
 40
0.4185333254297564
 40
0.623463122803312
 40
0.8265760479760289
 40
1.0
 40
1.0
 40
1.0
 40
1.0
 10
31.53808824499958
 20
36.24856791389273
 30
0.0
 41
1.0
 10
31.53700672218645
 20
36.24880252151464
 30
0.0
 41
1.0
 10
31.53484257261596
 20
36.24927197622981
 30
0.0
 41
1.0
 10
31.53189085314557
 20
36.24955937038109
 30
0.0
 41
1.0
 10
31.52964319997879
 20
36.24952559836439
 30
0.0
 41
1.0
 10
31.52830900808554
 20
36.24919644231134
 30
0.0
 41
1.0
 10
31.52815786015177
 20
36.24876611324898
 30
0.0
 41
1.0
 10
31.52808824499958
 20
36.24856791389273
 30
0.0
 41
1.0
  0
LINE
  5
26B
330
1F
100
AcDbEntity
  8
0
  6
SLD-Solid
 62
     7
370
    25
100
AcDbLine
 10
31.52808824499958
 20
36.24672009564841
 30
0.0
 11
31.52808824499958
 21
36.24856791389273
 31
0.0
  0
LINE
  5
26C
330
1F
100
AcDbEntity
  8
0
  6
SLD-Solid
 62
     7
370
    25
100
AcDbLine
 10
31.47808824499958
 20
37.13332263602685
 30
0.0
 11
31.47808824499958
 21
36.33332263602685
 31
0.0
  0
LINE
  5
26D
330
1F
100
AcDbEntity
  8
0
  6
SLD-Solid
 62
     7
370
    25
100
AcDbLine
 10
31.49273290594025
 20
37.13332263602685
 30
0.0
 11
31.47808824499958
 21
37.13332263602685
 31
0.0
  0
LINE
  5
26E
330
1F
100
AcDbEntity
  8
0
  6
SLD-Solid
 62
     7
370
    25
100
AcDbLine
 10
31.52808824499958
 20
37.13332263602685
 30
0.0
 11
31.49273290594025
 21
37.13332263602685
 31
0.0
  0
ARC
  5
26F
330
1F
100
AcDbEntity
  8
0
  6
SLD-Solid
 62
     7
370
    25
100
AcDbCircle
 10
31.57808824499958
 20
36.33332263602685
 30
0.0
 40
0.1000000000000061
100
AcDbArc
 50
240.0000000000041
 51
299.9999999999993
  0
ARC
  5
270
330
1F
100
AcDbEntity
  8
0
  6
SLD-Solid
 62
     7
370
    25
100
AcDbCircle
 10
39.30050753843802
 20
40.31832263602708
 30
0.0
 40
0.0312500000000066
100
AcDbArc
 50
289.5636200806302
 51
19.56362008062145
  0
ARC
  5
271
330
1F
100
AcDbEntity
  8
0
  6
SLD-Solid
 62
     7
370
    25
100
AcDbCircle
 10
39.30050753843802
 20
40.31832263602708
 30
0.0
 40
0.0312500000000066
100
AcDbArc
 50
199.5636200806468
 51
289.5636200806302
  0
ARC
  5
272
330
1F
100
AcDbEntity
  8
0
  6
SLD-Solid
 62
     7
370
    25
100
AcDbCircle
 10
39.30050753843802
 20
40.31832263602708
 30
0.0
 40
0.0312500000000023
100
AcDbArc
 50
109.5636200806215
 51
199.5636200806468
  0
ARC
  5
273
330
1F
100
AcDbEntity
  8
0
  6
SLD-Solid
 62
     7
370
    25
100
AcDbCircle
 10
39.30050753843803
 20
40.31832263602708
 30
0.0
 40
0.0312499999999999
100
AcDbArc
 50
19.56362008062581
 51
109.5636200806337
  0
SPLINE
  5
274
330
1F
100
AcDbEntity
  8
0
  6
SLD-Solid
 62
     7
370
    25
100
AcDbSpline
210
0.0
220
0.0
230
1.0
 70
    28
 71
     3
 72
    24
 73
    20
 74
     0
 42
0.00000001
 43
0.00000001
 40
0.0
 40
0.0
 40
0.0
 40
0.0
 40
0.0466925947598232
 40
0.1084402434135183
 40
0.1666982596244196
 40
0.2249562758353212
 40
0.2867039244890203
 40
0.3510186665058073
 40
0.4166982596244208
 40
0.4823778527430322
 40
0.5466925947598285
 40
0.608440243413517
 40
0.6666982596244183
 40
0.7249562758353176
 40
0.786703924489018
 40
0.8510186665058099
 40
0.91669825962442
 40
0.9823778527430314
 40
1.0
 40
1.0
 40
1.0
 40
1.0
 10
39.55484998994579
 20
33.89103149316347
 30
0.0
 41
1.0
 10
39.55484998994579
 20
33.89119537555863
 30
0.0
 41
1.0
 10
39.55484998994579
 20
33.89157598081122
 30
0.0
 41
1.0
 10
39.55484998994579
 20
33.90850042410581
 30
0.0
 41
1.0
 10
39.55484998994579
 20
33.93708175752947
 30
0.0
 41
1.0
 10
39.55484998994579
 20
33.97705903892113
 30
0.0
 41
1.0
 10
39.55484998994579
 20
34.02851027417362
 30
0.0
 41
1.0
 10
39.55484998994579
 20
34.09121648941211
 30
0.0
 41
1.0
 10
39.55484998994579
 20
34.16219312392458
 30
0.0
 41
1.0
 10
39.55484998994579
 20
34.23722427110281
 30
0.0
 41
1.0
 10
39.55484998994579
 20
34.31158149239359
 30
0.0
 41
1.0
 10
39.55484998994579
 20
34.38098685727756
 30
0.0
 41
1.0
 10
39.55484998994579
 20
34.44374445496165
 30
0.0
 41
1.0
 10
39.55484998994579
 20
34.50020832474315
 30
0.0
 41
1.0
 10
39.55484998994579
 20
34.54979089876075
 30
0.0
 41
1.0
 10
39.55484998994579
 20
34.59015347610617
 30
0.0
 41
1.0
 10
39.55484998994579
 20
34.61633953241734
 30
0.0
 41
1.0
 10
39.55484998994579
 20
34.62812827236768
 30
0.0
 41
1.0
 10
39.55484998994579
 20
34.62605283029326
 30
0.0
 41
1.0
 10
39.55484998994579
 20
34.62561377889176
 30
0.0
 41
1.0
  0
SPLINE
  5
275
330
1F
100
AcDbEntity
  8
0
  6
SLD-Solid
 62
     7
370
    25
100
AcDbSpline
210
0.0
220
0.0
230
1.0
 70
    28
 71
     3
 72
    24
 73
    20
 74
     0
 42
0.00000001
 43
0.00000001
 40
0.0
 40
0.0
 40
0.0
 40
0.0
 40
0.0466925947598207
 40
0.1084402434135153
 40
0.1666982596244175
 40
0.2249562758353195
 40
0.2867039244890157
 40
0.3510186665058062
 40
0.4166982596244181
 40
0.4823778527430295
 40
0.5466925947598219
 40
0.6084402434135141
 40
0.666698259624417
 40
0.7249562758353177
 40
0.7867039244890163
 40
0.8510186665058063
 40
0.9166982596244174
 40
0.9823778527430296
 40
0.9999999999999999
 40
0.9999999999999999
 40
0.9999999999999999
 40
0.9999999999999999
 10
39.55484998994579
 20
22.64103149316348
 30
0.0
 41
1.0
 10
39.55484998994579
 20
22.64119537555863
 30
0.0
 41
1.0
 10
39.55484998994579
 20
22.64157598081122
 30
0.0
 41
1.0
 10
39.55484998994579
 20
22.65850042410581
 30
0.0
 41
1.0
 10
39.55484998994579
 20
22.68708175752946
 30
0.0
 41
1.0
 10
39.55484998994579
 20
22.72705903892113
 30
0.0
 41
1.0
 10
39.55484998994579
 20
22.77851027417362
 30
0.0
 41
1.0
 10
39.55484998994579
 20
22.84121648941211
 30
0.0
 41
1.0
 10
39.55484998994579
 20
22.91219312392457
 30
0.0
 41
1.0
 10
39.55484998994579
 20
22.98722427110281
 30
0.0
 41
1.0
 10
39.55484998994579
 20
23.06158149239358
 30
0.0
 41
1.0
 10
39.55484998994579
 20
23.13098685727756
 30
0.0
 41
1.0
 10
39.55484998994579
 20
23.19374445496165
 30
0.0
 41
1.0
 10
39.55484998994579
 20
23.25020832474314
 30
0.0
 41
1.0
 10
39.55484998994579
 20
23.29979089876075
 30
0.0
 41
1.0
 10
39.55484998994579
 20
23.34015347610616
 30
0.0
 41
1.0
 10
39.55484998994579
 20
23.36633953241734
 30
0.0
 41
1.0
 10
39.55484998994579
 20
23.37812827236768
 30
0.0
 41
1.0
 10
39.55484998994579
 20
23.37605283029325
 30
0.0
 41
1.0
 10
39.55484998994579
 20
23.37561377889176
 30
0.0
 41
1.0
  0
LINE
  5
276
330
1F
100
AcDbEntity
  8
0
  6
SLD-Solid
 62
     7
370
    25
100
AcDbLine
 10
39.42784998994579
 20
12.19332263602761
 30
0.0
 11
39.42784998994579
 21
12.16332263602761
 31
0.0
  0
LINE
  5
277
330
1F
100
AcDbEntity
  8
0
  6
SLD-Solid
 62
     7
370
    25
100
AcDbLine
 10
32.46503640726867
 20
12.16332263602761
 30
0.0
 11
32.46523640726872
 21
12.16332263602754
 31
0.0
  0
LINE
  5
278
330
1F
100
AcDbEntity
  8
0
  6
SLD-Solid
 62
     7
370
    25
100
AcDbLine
 10
39.33484998994588
 20
12.16332263602754
 30
0.0
 11
39.42784998994579
 21
12.16332263602761
 31
0.0
  0
LINE
  5
279
330
1F
100
AcDbEntity
  8
0
  6
SLD-Solid
 62
     7
370
    25
100
AcDbLine
 10
32.46503640726867
 20
12.19332263602761
 30
0.0
 11
32.46523640726868
 21
12.19332263602761
 31
0.0
  0
LINE
  5
27A
330
1F
100
AcDbEntity
  8
0
  6
SLD-Solid
 62
     7
370
    25
100
AcDbLine
 10
39.33484998994582
 20
12.19332263602761
 30
0.0
 11
39.42784998994579
 21
12.19332263602761
 31
0.0
  0
LINE
  5
27B
330
1F
100
AcDbEntity
  8
0
  6
SLD-Solid
 62
     7
370
    25
100
AcDbLine
 10
39.4898499899458
 20
12.90736712421658
 30
0.0
 11
39.45984998994579
 21
12.90736712421658
 31
0.0
  0
LINE
  5
27C
330
1F
100
AcDbEntity
  8
0
  6
SLD-Solid
 62
     7
370
    25
100
AcDbLine
 10
39.45984998994579
 20
12.90736712421658
 30
0.0
 11
39.45984998994579
 21
12.95115465478147
 31
0.0
  0
LINE
  5
27D
330
1F
100
AcDbEntity
  8
0
  6
SLD-Solid
 62
     7
370
    25
100
AcDbLine
 10
39.45984998994579
 20
12.95736712421658
 30
0.0
 11
39.4898499899458
 21
12.95736712421658
 31
0.0
  0
LINE
  5
27E
330
1F
100
AcDbEntity
  8
0
  6
SLD-Solid
 62
     7
370
    25
100
AcDbLine
 10
39.4898499899458
 20
12.95736712421658
 30
0.0
 11
39.4898499899458
 21
12.90736712421658
 31
0.0
  0
LINE
  5
27F
330
1F
100
AcDbEntity
  8
0
  6
SLD-Solid
 62
     7
370
    25
100
AcDbLine
 10
39.45984998994579
 20
12.22532263602761
 30
0.0
 11
39.4898499899458
 21
12.22532263602761
 31
0.0
  0
LINE
  5
280
330
1F
100
AcDbEntity
  8
0
  6
SLD-Solid
 62
     7
370
    25
100
AcDbLine
 10
39.45984998994579
 20
12.90736712421658
 30
0.0
 11
39.45984998994579
 21
12.22532263602761
 31
0.0
  0
LINE
  5
281
330
1F
100
AcDbEntity
  8
0
  6
SLD-Solid
 62
     7
370
    25
100
AcDbLine
 10
39.4898499899458
 20
12.22532263602761
 30
0.0
 11
39.4898499899458
 21
12.90736712421658
 31
0.0
  0
ARC
  5
282
330
1F
100
AcDbEntity
  8
0
  6
SLD-Solid
 62
     7
370
    25
100
AcDbCircle
 10
39.42784998994579
 20
12.22532263602761
 30
0.0
 40
0.0319999999999983
100
AcDbArc
 50
270.0000000000008
 51
0.0
  0
ARC
  5
283
330
1F
100
AcDbEntity
  8
0
  6
SLD-Solid
 62
     7
370
    25
100
AcDbCircle
 10
39.42784998994579
 20
12.22532263602761
 30
0.0
 40
0.0620000000000047
100
AcDbArc
 50
270.0000000000008
 51
0.0
  0
ARC
  5
284
330
1F
100
AcDbEntity
  8
0
  6
SLD-Solid
 62
     7
370
    25
100
AcDbCircle
 10
39.35580550175686
 20
36.27832263602747
 30
0.0
 40
0.0200000000000031
100
AcDbArc
 50
179.9999999999822
 51
270.0000000000008
  0
LINE
  5
285
330
1F
100
AcDbEntity
  8
0
  6
SLD-Solid
 62
     7
370
    25
100
AcDbLine
 10
39.35580550175686
 20
36.25832263602747
 30
0.0
 11
39.39784998994583
 21
36.25832263602747
 31
0.0
  0
LINE
  5
286
330
1F
100
AcDbEntity
  8
0
  6
SLD-Solid
 62
     7
370
    25
100
AcDbLine
 10
39.39784998994583
 20
36.25832263602747
 30
0.0
 11
39.39784998994583
 21
12.25832263602747
 31
0.0
  0
LINE
  5
287
330
1F
100
AcDbEntity
  8
0
  6
SLD-Solid
 62
     7
370
    25
100
AcDbLine
 10
39.35484998994583
 20
12.25832263602747
 30
0.0
 11
39.39784998994583
 21
12.25832263602747
 31
0.0
  0
ARC
  5
288
330
1F
100
AcDbEntity
  8
0
  6
SLD-Solid
 62
     7
370
    25
100
AcDbCircle
 10
39.35484998994583
 20
12.23832263602747
 30
0.0
 40
0.0200000000000031
100
AcDbArc
 50
90.0
 51
179.9999999999873
  0
LINE
  5
289
330
1F
100
AcDbEntity
  8
0
  6
SLD-Solid
 62
     7
370
    25
100
AcDbLine
 10
39.33484998994582
 20
12.19532263602747
 30
0.0
 11
39.33484998994582
 21
12.23832263602747
 31
0.0
  0
LINE
  5
28A
330
1F
100
AcDbEntity
  8
0
  6
SLD-Solid
 62
     7
370
    25
100
AcDbLine
 10
39.33484998994582
 20
12.19532263602747
 30
0.0
 11
32.46523640726868
 21
12.19532263602747
 31
0.0
  0
LINE
  5
28B
330
1F
100
AcDbEntity
  8
0
  6
SLD-Solid
 62
     7
370
    25
100
AcDbLine
 10
32.46523640726868
 20
12.19552263602747
 30
0.0
 11
32.46523640726868
 21
12.19532263602747
 31
0.0
  0
LINE
  5
28C
330
1F
100
AcDbEntity
  8
0
  6
SLD-Solid
 62
     7
370
    25
100
AcDbLine
 10
32.46523640726868
 20
12.19552263602747
 30
0.0
 11
32.46503640726868
 21
12.19552263602747
 31
0.0
  0
LINE
  5
28D
330
1F
100
AcDbEntity
  8
0
  6
SLD-Solid
 62
     7
370
    25
100
AcDbLine
 10
32.46503640726868
 20
12.19552263602747
 30
0.0
 11
32.46503640726868
 21
12.13332263602747
 31
0.0
  0
LINE
  5
28E
330
1F
100
AcDbEntity
  8
0
  6
SLD-Solid
 62
     7
370
    25
100
AcDbLine
 10
32.16523640726867
 20
12.13332263602747
 30
0.0
 11
32.46503640726868
 21
12.13332263602747
 31
0.0
  0
LINE
  5
28F
330
1F
100
AcDbEntity
  8
0
  6
SLD-Solid
 62
     7
370
    25
100
AcDbLine
 10
39.33580550175686
 20
36.27832263602747
 30
0.0
 11
39.33580550175686
 21
36.30332263602699
 31
0.0
  0
LINE
  5
290
330
1F
100
AcDbEntity
  8
0
  6
SLD-Solid
 62
     7
370
    25
100
AcDbLine
 10
39.45984998994579
 20
12.95115465478147
 30
0.0
 11
39.45984998994583
 21
36.25832263602747
 31
0.0
  0
LINE
  5
291
330
1F
100
AcDbEntity
  8
0
  6
SLD-Solid
 62
     7
370
    25
100
AcDbLine
 10
39.39784998994583
 20
12.25832263602747
 30
0.0
 11
39.45984998994583
 21
12.25832263602747
 31
0.0
  0
LINE
  5
292
330
1F
100
AcDbEntity
  8
0
  6
SLD-Solid
 62
     7
370
    25
100
AcDbLine
 10
39.45984998994583
 20
36.25832263602747
 30
0.0
 11
39.39784998994583
 21
36.25832263602747
 31
0.0
  0
LINE
  5
293
330
1F
100
AcDbEntity
  8
0
  6
SLD-Solid
 62
     7
370
    25
100
AcDbLine
 10
32.46523640726868
 20
12.13332263602747
 30
0.0
 11
39.33484998994582
 21
12.13332263602747
 31
0.0
  0
LINE
  5
294
330
1F
100
AcDbEntity
  8
0
  6
SLD-Solid
 62
     7
370
    25
100
AcDbLine
 10
32.46523640726868
 20
12.19532263602747
 30
0.0
 11
32.46523640726868
 21
12.13332263602747
 31
0.0
  0
LINE
  5
295
330
1F
100
AcDbEntity
  8
0
  6
SLD-Solid
 62
     7
370
    25
100
AcDbLine
 10
39.33484998994582
 20
12.13332263602747
 30
0.0
 11
39.33484998994582
 21
12.19532263602747
 31
0.0
  0
LINE
  5
296
330
1F
100
AcDbEntity
  8
0
  6
SLD-Solid
 62
     7
370
    25
100
AcDbLine
 10
31.88523640726867
 20
12.13332263602747
 30
0.0
 11
32.16523640726867
 21
12.13332263602747
 31
0.0
  0
LINE
  5
297
330
1F
100
AcDbEntity
  8
0
  6
SLD-Solid
 62
     7
370
    25
100
AcDbLine
 10
31.88523640726867
 20
36.23332263602678
 30
0.0
 11
31.88523640726867
 21
12.13332263602747
 31
0.0
  0
LINE
  5
298
330
1F
100
AcDbEntity
  8
0
  6
SLD-Solid
 62
     7
370
    25
100
AcDbLine
 10
39.33494998994585
 20
36.30332263602699
 30
0.0
 11
39.36394998994585
 21
36.30332263602699
 31
0.0
  0
LINE
  5
299
330
1F
100
AcDbEntity
  8
0
  6
SLD-Solid
 62
     7
370
    25
100
AcDbLine
 10
39.33494998994585
 20
36.33332263602699
 30
0.0
 11
39.33494998994585
 21
36.30332263602699
 31
0.0
  0
LINE
  5
29A
330
1F
100
AcDbEntity
  8
0
  6
SLD-Solid
 62
     7
370
    25
100
AcDbLine
 10
39.36394998994585
 20
36.33332263602699
 30
0.0
 11
39.36394998994585
 21
36.30332263602699
 31
0.0
  0
LINE
  5
29B
330
1F
100
AcDbEntity
  8
0
  6
SLD-Solid
 62
     7
370
    25
100
AcDbLine
 10
39.36394998994584
 20
44.13837317161442
 30
0.0
 11
39.36394998994574
 21
44.10866308601044
 31
0.0
  0
LINE
  5
29C
330
1F
100
AcDbEntity
  8
0
  6
SLD-Solid
 62
     7
370
    25
100
AcDbLine
 10
39.33530859397044
 20
44.64832263602699
 30
0.0
 11
39.36375098299828
 21
44.64832263602699
 31
0.0
  0
LINE
  5
29D
330
1F
100
AcDbEntity
  8
0
  6
SLD-Solid
 62
     7
370
    25
100
AcDbLine
 10
39.36394998994584
 20
44.64720956119245
 30
0.0
 11
39.36394998994584
 21
44.64128126205289
 31
0.0
  0
LINE
  5
29E
330
1F
100
AcDbEntity
  8
0
  6
SLD-Solid
 62
     7
370
    25
100
AcDbLine
 10
37.91332078727925
 20
44.64266308601048
 30
0.0
 11
31.61066591452925
 21
38.34000821326039
 31
0.0
  0
LINE
  5
29F
330
1F
100
AcDbEntity
  8
0
  6
SLD-Solid
 62
     7
370
    25
100
AcDbLine
 10
39.35494998994554
 20
44.64266308601048
 30
0.0
 11
37.91332078727925
 21
44.64266308601048
 31
0.0
  0
ARC
  5
2A0
330
1F
100
AcDbEntity
  8
0
  6
SLD-Solid
 62
     7
370
    25
100
AcDbCircle
 10
39.35494998994555
 20
44.61266308601049
 30
0.0
 40
0.0300000000000011
100
AcDbArc
 50
0.0
 51
90.00000000001357
  0
LINE
  5
2A1
330
1F
100
AcDbEntity
  8
0
  6
SLD-Solid
 62
     7
370
    25
100
AcDbLine
 10
39.38494998994555
 20
44.13837317161442
 30
0.0
 11
39.38494998994555
 21
44.61266308601049
 31
0.0
  0
LINE
  5
2A2
330
1F
100
AcDbEntity
  8
0
  6
SLD-Solid
 62
     7
370
    25
100
AcDbLine
 10
39.33494998994555
 20
44.13837317161442
 30
0.0
 11
39.38494998994555
 21
44.13837317161442
 31
0.0
  0
LINE
  5
2A3
330
1F
100
AcDbEntity
  8
0
  6
SLD-Solid
 62
     7
370
    25
100
AcDbLine
 10
39.33494998994555
 20
44.13837317161442
 30
0.0
 11
39.33494998994556
 21
44.10866308601048
 31
0.0
  0
LINE
  5
2A4
330
1F
100
AcDbEntity
  8
0
  6
SLD-Solid
 62
     7
370
    25
100
AcDbLine
 10
39.33494998994562
 20
36.3333226360269
 30
0.0
 11
39.33494998994558
 21
44.10866308601048
 31
0.0
  0
LINE
  5
2A5
330
1F
100
AcDbEntity
  8
0
  6
SLD-Solid
 62
     7
370
    25
100
AcDbLine
 10
39.33494998994561
 20
36.3333226360269
 30
0.0
 11
39.28508824499958
 21
36.3333226360269
 31
0.0
  0
LINE
  5
2A6
330
1F
100
AcDbEntity
  8
0
  6
SLD-Solid
 62
     7
370
    25
100
AcDbLine
 10
31.59298824499959
 20
38.31404627248327
 30
0.0
 11
31.5929882449996
 21
37.13332263602678
 31
0.0
  0
ARC
  5
2A7
330
1F
100
AcDbEntity
  8
0
  6
SLD-Solid
 62
     7
370
    25
100
AcDbCircle
 10
31.61298824499958
 20
38.31404627248327
 30
0.0
 40
0.0200000000000045
100
AcDbArc
 50
134.9999999999928
 51
180.0
  0
LINE
  5
2A8
330
1F
100
AcDbEntity
  8
0
  6
SLD-Solid
 62
     7
370
    25
100
AcDbLine
 10
31.59884610937585
 20
38.32818840810701
 30
0.0
 11
31.61066591452925
 21
38.34000821326039
 31
0.0
  0
LINE
  5
2A9
330
1F
100
AcDbEntity
  8
0
  6
SLD-Solid
 62
     7
370
    25
100
AcDbLine
 10
39.33494998994558
 20
44.10866308601048
 30
0.0
 11
39.39984998994555
 21
44.10866308601048
 31
0.0
  0
LINE
  5
2AA
330
1F
100
AcDbEntity
  8
0
  6
SLD-Solid
 62
     7
370
    25
100
AcDbLine
 10
39.39984998994561
 20
36.33332263602689
 30
0.0
 11
39.39984998994555
 21
44.10866308601048
 31
0.0
  0
LINE
  5
2AB
330
1F
100
AcDbEntity
  8
0
  6
SLD-Solid
 62
     7
370
    25
100
AcDbLine
 10
39.39984998994561
 20
36.33332263602689
 30
0.0
 11
39.33494998994561
 21
36.3333226360269
 31
0.0
  0
LINE
  5
2AC
330
1F
100
AcDbEntity
  8
0
  6
SLD-Solid
 62
     7
370
    25
100
AcDbLine
 10
31.61066591452925
 20
38.34000821326039
 30
0.0
 11
31.56477468443024
 21
38.3858994433594
 31
0.0
  0
LINE
  5
2AD
330
1F
100
AcDbEntity
  8
0
  6
SLD-Solid
 62
     7
370
    25
100
AcDbLine
 10
31.56477468443024
 20
38.3858994433594
 30
0.0
 11
37.86742955718025
 21
44.68855431610948
 31
0.0
  0
LINE
  5
2AE
330
1F
100
AcDbEntity
  8
0
  6
SLD-Solid
 62
     7
370
    25
100
AcDbLine
 10
37.86742955718025
 20
44.68855431610948
 30
0.0
 11
37.91332078727925
 21
44.64266308601048
 31
0.0
  0
LINE
  5
2AF
330
1F
100
AcDbEntity
  8
0
  6
SLD-Solid
 62
     7
370
    25
100
AcDbLine
 10
39.33530859397045
 20
44.70756308601049
 30
0.0
 11
39.33530859397044
 21
44.64266308601049
 31
0.0
  0
LINE
  5
2B0
330
1F
100
AcDbEntity
  8
0
  6
SLD-Solid
 62
     7
370
    25
100
AcDbLine
 10
37.91832078727925
 20
44.64266308601048
 30
0.0
 11
37.91832078727926
 21
44.70756308601048
 31
0.0
  0
LINE
  5
2B1
330
1F
100
AcDbEntity
  8
0
  6
SLD-Solid
 62
     7
370
    25
100
AcDbLine
 10
37.91832078727926
 20
44.70756308601048
 30
0.0
 11
39.33530859397045
 21
44.70756308601049
 31
0.0
  0
LINE
  5
2B2
330
1F
100
AcDbEntity
  8
0
  6
SLD-Solid
 62
     7
370
    25
100
AcDbLine
 10
31.52808824499959
 20
38.30733054373073
 30
0.0
 11
31.59298824499959
 21
38.30733054373073
 31
0.0
  0
LINE
  5
2B3
330
1F
100
AcDbEntity
  8
0
  6
SLD-Solid
 62
     7
370
    25
100
AcDbLine
 10
31.52808824499959
 20
37.13332263602678
 30
0.0
 11
31.52808824499959
 21
38.30733054373073
 31
0.0
  0
LINE
  5
2B4
330
1F
100
AcDbEntity
  8
0
  6
SLD-Solid
 62
     7
370
    25
100
AcDbLine
 10
31.57601768225111
 20
38.34637217429107
 30
0.0
 11
31.55063254880651
 21
38.37175730773566
 31
0.0
  0
LINE
  5
2B5
330
1F
100
AcDbEntity
  8
0
  6
SLD-Solid
 62
     7
370
    25
100
AcDbLine
 10
31.55063254880651
 20
38.37175730773566
 30
0.0
 11
31.56477468443024
 21
38.3858994433594
 31
0.0
  0
LINE
  5
2B6
330
1F
100
AcDbEntity
  8
0
  6
SLD-Solid
 62
     7
370
    25
100
AcDbLine
 10
31.59015981787483
 20
38.3605143099148
 30
0.0
 11
31.57601768225111
 21
38.34637217429107
 31
0.0
  0
LINE
  5
2B7
330
1F
100
AcDbEntity
  8
0
  6
SLD-Solid
 62
     7
370
    25
100
AcDbLine
 10
39.36430859397043
 20
44.64266308601049
 30
0.0
 11
39.40020859397044
 21
44.64266308601049
 31
0.0
  0
LINE
  5
2B8
330
1F
100
AcDbEntity
  8
0
  6
SLD-Solid
 62
     7
370
    25
100
AcDbLine
 10
39.36430859397043
 20
44.64116600745205
 30
0.0
 11
39.36430859397043
 21
44.64266308601049
 31
0.0
  0
LINE
  5
2B9
330
1F
100
AcDbEntity
  8
0
  6
SLD-Solid
 62
     7
370
    25
100
AcDbLine
 10
39.40020859397045
 20
44.2016630860105
 30
0.0
 11
39.40020859397044
 21
44.64266308601049
 31
0.0
  0
ARC
  5
2BA
330
1F
100
AcDbEntity
  8
0
  6
SLD-Solid
 62
     7
370
    25
100
AcDbCircle
 10
39.33530859397044
 20
44.64266308601049
 30
0.0
 40
0.0649000000000015
100
AcDbArc
 50
0.0
 51
89.99999999998745
  0
ARC
  5
2BB
330
1F
100
AcDbEntity
  8
0
  6
SLD-Solid
 62
     7
370
    25
100
AcDbCircle
 10
39.33530859397044
 20
44.64266308601049
 30
0.0
 40
0.0290000000000035
100
AcDbArc
 50
0.0
 51
90.0
  0
LINE
  5
2BC
330
1F
100
AcDbEntity
  8
0
  6
SLD-Solid
 62
     7
370
    25
100
AcDbLine
 10
39.40020859397045
 20
44.15166308601049
 30
0.0
 11
39.38494998994555
 21
44.15166308601049
 31
0.0
  0
LINE
  5
2BD
330
1F
100
AcDbEntity
  8
0
  6
SLD-Solid
 62
     7
370
    25
100
AcDbLine
 10
39.40020859397045
 20
44.2016630860105
 30
0.0
 11
39.40020859397045
 21
44.15166308601049
 31
0.0
  0
ARC
  5
2BE
330
1F
100
AcDbEntity
  8
0
  6
SLD-Solid
 62
     7
370
    25
100
AcDbCircle
 10
37.91332078727926
 20
44.64266308601048
 30
0.0
 40
0.0290000000000106
100
AcDbArc
 50
90.00000000001404
 51
135.0
  0
ARC
  5
2BF
330
1F
100
AcDbEntity
  8
0
  6
SLD-Solid
 62
     7
370
    25
100
AcDbCircle
 10
37.91332078727926
 20
44.64266308601048
 30
0.0
 40
0.0649000000000015
100
AcDbArc
 50
90.00000000000627
 51
135.0000000000045
  0
LINE
  5
2C0
330
1F
100
AcDbEntity
  8
0
  6
SLD-Solid
 62
     7
370
    25
100
AcDbLine
 10
37.91332078727925
 20
44.67166308601049
 30
0.0
 11
37.91332078727925
 21
44.70756308601048
 31
0.0
  0
LINE
  5
2C1
330
1F
100
AcDbEntity
  8
0
  6
SLD-Solid
 62
     7
370
    25
100
AcDbLine
 10
37.91332078727925
 20
44.70756308601048
 30
0.0
 11
37.91832078727926
 21
44.70756308601048
 31
0.0
  0
LINE
  5
2C2
330
1F
100
AcDbEntity
  8
0
  6
SLD-Solid
 62
     7
370
    25
100
AcDbLine
 10
37.91332078727925
 20
44.67166308601049
 30
0.0
 11
37.91832078727926
 21
44.67166308601049
 31
0.0
  0
LINE
  5
2C3
330
1F
100
AcDbEntity
  8
0
  6
SLD-Solid
 62
     7
370
    25
100
AcDbLine
 10
31.52808824499957
 20
38.32233054373072
 30
0.0
 11
31.56398824499957
 21
38.32233054373072
 31
0.0
  0
LINE
  5
2C4
330
1F
100
AcDbEntity
  8
0
  6
SLD-Solid
 62
     7
370
    25
100
AcDbLine
 10
31.52808824499957
 20
38.32233054373072
 30
0.0
 11
31.52808824499959
 21
38.30733054373073
 31
0.0
  0
LINE
  5
2C5
330
1F
100
AcDbEntity
  8
0
  6
SLD-Solid
 62
     7
370
    25
100
AcDbLine
 10
31.56398824499957
 20
38.32233054373072
 30
0.0
 11
31.56398824499959
 21
38.30733054373073
 31
0.0
  0
LINE
  5
2C6
330
1F
100
AcDbEntity
  8
0
  6
SLD-Solid
 62
     7
370
    25
100
AcDbLine
 10
31.57248214834516
 20
38.34283664038514
 30
0.0
 11
31.54709701490057
 21
38.36822177382974
 31
0.0
  0
ARC
  5
2C7
330
1F
100
AcDbEntity
  8
0
  6
SLD-Solid
 62
     7
370
    25
100
AcDbCircle
 10
31.59298824499957
 20
38.32233054373072
 30
0.0
 40
0.0290000000000051
100
AcDbArc
 50
134.999999999995
 51
180.0
  0
ARC
  5
2C8
330
1F
100
AcDbEntity
  8
0
  6
SLD-Solid
 62
     7
370
    25
100
AcDbCircle
 10
31.59298824499957
 20
38.32233054373072
 30
0.0
 40
0.0649000000000034
100
AcDbArc
 50
134.9999999999911
 51
180.0
  0
LINE
  5
2C9
330
1F
100
AcDbEntity
  8
0
  6
SLD-Solid
 62
     7
370
    25
100
AcDbLine
 10
31.54709701490057
 20
38.36822177382974
 30
0.0
 11
31.55063254880651
 21
38.37175730773566
 31
0.0
  0
LINE
  5
2CA
330
1F
100
AcDbEntity
  8
0
  6
SLD-Solid
 62
     7
370
    25
100
AcDbLine
 10
31.57248214834516
 20
38.34283664038514
 30
0.0
 11
31.57601768225111
 21
38.34637217429107
 31
0.0
  0
LINE
  5
2CB
330
1F
100
AcDbEntity
  8
0
  6
SLD-Solid
 62
     8
370
    25
100
AcDbLine
 10
39.5504565916636
 20
34.25832263602762
 30
0.0
 11
39.5504565916636
 21
34.63771603430983
 31
0.0
  0
LINE
  5
2CC
330
1F
100
AcDbEntity
  8
0
  6
SLD-Solid
 62
     8
370
    25
100
AcDbLine
 10
39.5504565916636
 20
33.87892923774542
 30
0.0
 11
39.5504565916636
 21
34.25832263602762
 31
0.0
  0
LINE
  5
2CD
330
1F
100
AcDbEntity
  8
0
  6
SLD-Solid
 62
     8
370
    25
100
AcDbLine
 10
39.5504565916636
 20
23.00832263602762
 30
0.0
 11
39.5504565916636
 21
23.38771603430982
 31
0.0
  0
LINE
  5
2CE
330
1F
100
AcDbEntity
  8
0
  6
SLD-Solid
 62
     8
370
    25
100
AcDbLine
 10
39.5504565916636
 20
22.62892923774542
 30
0.0
 11
39.5504565916636
 21
23.00832263602762
 31
0.0
  0
LINE
  5
2CF
330
1F
100
AcDbEntity
  8
0
  6
SLD-Solid
 62
     8
370
    25
100
AcDbLine
 10
32.16523640726867
 20
12.13332263602747
 30
0.0
 11
32.16523640726867
 21
36.23332263602685
 31
0.0
  0
LINE
  5
2D0
330
1F
100
AcDbEntity
  8
0
  6
SLD-Solid
 62
     8
370
    25
100
AcDbLine
 10
39.38494998994555
 20
44.2016630860105
 30
0.0
 11
39.40020859397045
 21
44.2016630860105
 31
0.0
  0
MTEXT
  5
2D1
330
1F
100
AcDbEntity
  8
NOTES
100
AcDbMText
 10
34.5714031123986
 20
11.59988427751362
 30
0.0
 40
0.5
 41
0.0
 71
     1
 72
     1
  1
Side view
  7
SLDTEXTSTYLE1
 73
     1
 44
1.0
  0
ARC
  5
2D2
330
1F
100
AcDbEntity
  8
0
  6
SLD-Solid
 62
     7
370
    25
100
AcDbCircle
 10
74.54317275833984
 20
43.62596452262895
 30
0.0
 40
0.0500000000000068
100
AcDbArc
 50
238.3231965730301
 51
301.5444370826948
  0
LINE
  5
2D3
330
1F
100
AcDbEntity
  8
0
  6
SLD-Solid
 62
     7
370
    25
100
AcDbLine
 10
63.53277248234222
 20
49.92439984405073
 30
0.0
 11
74.51817479002393
 21
43.58266207950991
 31
0.0
  0
LINE
  5
2D4
330
1F
100
AcDbEntity
  8
0
  6
SLD-Solid
 62
     7
370
    25
100
AcDbLine
 10
74.56817072665574
 20
43.58266207950991
 30
0.0
 11
80.04284065757639
 21
46.74312175835458
 31
0.0
  0
LINE
  5
2D5
330
1F
100
AcDbEntity
  8
0
  6
SLD-Solid
 62
     7
370
    25
100
AcDbLine
 10
63.48705570917127
 20
50.64980635986152
 30
0.0
 11
63.48705570917127
 21
49.99657371035292
 31
0.0
  0
SPLINE
  5
2D6
330
1F
100
AcDbEntity
  8
0
  6
SLD-Solid
 62
     7
370
    25
100
AcDbSpline
210
0.0
220
0.0
230
1.0
 70
    12
 71
     3
 72
    11
 73
     7
 74
     0
 42
0.00000001
 43
0.00000001
 40
0.0
 40
0.0
 40
0.0
 40
0.0
 40
0.2832924487611568
 40
0.5724531581301029
 40
0.8801901560577491
 40
1.0
 40
1.0
 40
1.0
 40
1.0
 10
63.48705570917127
 20
49.99657371035292
 30
0.0
 41
1.0
 10
63.48797035756252
 20
49.98777123658453
 30
0.0
 41
1.0
 10
63.48981860082645
 20
49.9699839502304
 30
0.0
 41
1.0
 10
63.50452972288115
 20
49.94650418188927
 30
0.0
 41
1.0
 10
63.52054712213777
 20
49.93058609923558
 30
0.0
 41
1.0
 10
63.53278418795735
 20
49.92519787521371
 30
0.0
 41
1.0
 10
63.53621333490121
 20
49.92368795345552
 30
0.0
 41
1.0
  0
LINE
  5
2D7
330
1F
100
AcDbEntity
  8
0
  6
SLD-Solid
 62
     7
370
    25
100
AcDbLine
 10
80.08378896585947
 20
50.07981263553433
 30
0.0
 11
80.05472687715279
 21
50.09658982223224
 31
0.0
  0
LINE
  5
2D8
330
1F
100
AcDbEntity
  8
0
  6
SLD-Solid
 62
     7
370
    25
100
AcDbLine
 10
80.0234794167579
 20
50.04246176833345
 30
0.0
 11
80.05254150546459
 21
50.02568458163554
 31
0.0
  0
LINE
  5
2D9
330
1F
100
AcDbEntity
  8
0
  6
SLD-Solid
 62
     7
370
    25
100
AcDbLine
 10
79.99009554656077
 20
27.30094510446059
 30
0.0
 11
79.99009554656077
 21
46.71267265389269
 31
0.0
  0
LINE
  5
2DA
330
1F
100
AcDbEntity
  8
0
  6
SLD-Solid
 62
     7
370
    25
100
AcDbLine
 10
64.0339391283465
 20
49.63508249760532
 30
0.0
 11
64.0339391283465
 21
30.30797373921484
 31
0.0
  0
LINE
  5
2DB
330
1F
100
AcDbEntity
  8
0
  6
SLD-Solid
 62
     7
370
    25
100
AcDbLine
 10
64.3409244036921
 20
30.09345453912209
 30
0.0
 11
74.24973564651718
 21
24.37321956726407
 31
0.0
  0
LINE
  5
2DC
330
1F
100
AcDbEntity
  8
0
  6
SLD-Solid
 62
     7
370
    25
100
AcDbLine
 10
75.06969666998111
 20
24.37321956726407
 30
0.0
 11
79.91454530005772
 21
27.17009114832177
 31
0.0
  0
LINE
  5
2DD
330
1F
100
AcDbEntity
  8
0
  6
SLD-Solid
 62
     7
370
    25
100
AcDbLine
 10
80.09259855459028
 20
53.62423512821665
 30
0.0
 11
80.06721342114567
 21
53.63888965382387
 31
0.0
  0
LINE
  5
2DE
330
1F
100
AcDbEntity
  8
0
  6
SLD-Solid
 62
     7
370
    25
100
AcDbLine
 10
80.024175101864
 20
53.71249393326129
 30
0.0
 11
69.15438824010819
 21
59.98748832154183
 31
0.0
  0
LINE
  5
2DF
330
1F
100
AcDbEntity
  8
0
  6
SLD-Solid
 62
     7
370
    25
100
AcDbLine
 10
80.08246640787803
 20
46.85616265154755
 30
0.0
 11
80.082466407878
 21
50.04155238855458
 31
0.0
  0
LINE
  5
2E0
330
1F
100
AcDbEntity
  8
0
  6
SLD-Solid
 62
     7
370
    25
100
AcDbLine
 10
80.082466407878
 20
50.08057613200555
 30
0.0
 11
80.08246640787799
 21
53.20504545526525
 31
0.0
  0
LINE
  5
2E1
330
1F
100
AcDbEntity
  8
0
  6
SLD-Solid
 62
     7
370
    25
100
AcDbLine
 10
69.08949351436013
 20
59.98748832154183
 30
0.0
 11
68.08753182739012
 21
59.40906815167354
 31
0.0
  0
LINE
  5
2E2
330
1F
100
AcDbEntity
  8
0
  6
SLD-Solid
 62
     7
370
    25
100
AcDbLine
 10
68.03414636746808
 20
59.39833328996003
 30
0.0
 11
63.57749636746811
 21
51.67918908106298
 31
0.0
  0
LINE
  5
2E3
330
1F
100
AcDbEntity
  8
0
  6
SLD-Solid
 62
     7
370
    25
100
AcDbLine
 10
63.58239365635826
 20
51.59777760411907
 30
0.0
 11
63.58239365635826
 21
50.62363332005928
 31
0.0
  0
LINE
  5
2E4
330
1F
100
AcDbEntity
  8
0
  6
SLD-Solid
 62
     7
370
    25
100
AcDbLine
 10
69.07970995360064
 20
59.98184039213494
 30
0.0
 11
69.07884475218486
 21
59.98233986228074
 31
0.0
  0
LINE
  5
2E5
330
1F
100
AcDbEntity
  8
0
  6
SLD-Solid
 62
     7
370
    25
100
AcDbLine
 10
74.57852809739916
 20
43.62246737729716
 30
0.0
 11
74.57852809739916
 21
44.27570002680575
 31
0.0
  0
ARC
  5
2E6
330
1F
100
AcDbEntity
  8
0
  6
SLD-Solid
 62
     7
370
    25
100
AcDbCircle
 10
74.54317275833984
 20
43.69070293154488
 30
0.0
 40
0.0768510953955395
100
AcDbArc
 50
242.6096722365747
 51
297.3903277634176
  0
LINE
  5
2E7
330
1F
100
AcDbEntity
  8
0
  6
SLD-Solid
 62
     7
370
    25
100
AcDbLine
 10
74.5078174192805
 20
44.27570002680575
 30
0.0
 11
74.5078174192805
 21
43.62246737729716
 31
0.0
  0
ARC
  5
2E8
330
1F
100
AcDbEntity
  8
0
  6
SLD-Solid
 62
     7
370
    25
100
AcDbCircle
 10
74.5417322414329
 20
44.33937660501967
 30
0.0
 40
0.072145143805128
100
AcDbArc
 50
241.9597608846357
 51
271.1440967458459
  0
ARC
  5
2E9
330
1F
100
AcDbEntity
  8
0
  6
SLD-Solid
 62
     7
370
    25
100
AcDbCircle
 10
74.54461327524677
 20
44.33937660501965
 30
0.0
 40
0.0721451438051066
100
AcDbArc
 50
268.8559032541554
 51
298.0402391153639
  0
LINE
  5
2EA
330
1F
100
AcDbEntity
  8
0
  6
SLD-Solid
 62
     7
370
    25
100
AcDbLine
 10
74.54317275833984
 20
44.26724584399705
 30
0.0
 11
74.54317275833984
 21
44.29850143359869
 31
0.0
  0
ARC
  5
2EB
330
1F
100
AcDbEntity
  8
0
  6
SLD-Solid
 62
     7
370
    25
100
AcDbCircle
 10
74.54346086172126
 20
44.31292758580311
 30
0.0
 40
0.0144290287609154
100
AcDbArc
 50
268.8559032540115
 51
298.040239115446
  0
LINE
  5
2EC
330
1F
100
AcDbEntity
  8
0
  6
SLD-Solid
 62
     7
370
    25
100
AcDbLine
 10
80.02820006000391
 20
47.46254909130568
 30
0.0
 11
74.5502438261517
 21
44.30019227016044
 31
0.0
  0
LINE
  5
2ED
330
1F
100
AcDbEntity
  8
0
  6
SLD-Solid
 62
     7
370
    25
100
AcDbLine
 10
80.02820006000391
 20
47.46254909130568
 30
0.0
 11
80.06355539906325
 21
47.44213888851012
 31
0.0
  0
LINE
  5
2EE
330
1F
100
AcDbEntity
  8
0
  6
SLD-Solid
 62
     7
370
    25
100
AcDbLine
 10
80.06355539906325
 20
47.44213888851012
 30
0.0
 11
74.57852809739916
 21
44.27570002680575
 31
0.0
  0
ARC
  5
2EF
330
1F
100
AcDbEntity
  8
0
  6
SLD-Solid
 62
     7
370
    25
100
AcDbCircle
 10
63.54620241541986
 20
50.6503054236305
 30
0.0
 40
0.0050293927849009
100
AcDbArc
 50
185.6947992510746
 51
245.6253417067438
  0
LINE
  5
2F0
330
1F
100
AcDbEntity
  8
0
  6
SLD-Solid
 62
     7
370
    25
100
AcDbLine
 10
63.54412677698313
 20
50.64572431930242
 30
0.0
 11
74.53610169052797
 21
44.30019227016044
 31
0.0
  0
ARC
  5
2F1
330
1F
100
AcDbEntity
  8
0
  6
SLD-Solid
 62
     7
370
    25
100
AcDbCircle
 10
74.54288465495846
 20
44.31292758580318
 30
0.0
 40
0.0144290287609917
100
AcDbArc
 50
241.9597608845388
 51
271.1440967458152
  0
LINE
  5
2F2
330
1F
100
AcDbEntity
  8
0
  6
SLD-Solid
 62
     7
370
    25
100
AcDbLine
 10
63.50170037011194
 20
50.62939615706595
 30
0.0
 11
74.5078174192805
 21
44.27570002680575
 31
0.0
  0
ARC
  5
2F3
330
1F
100
AcDbEntity
  8
0
  6
SLD-Solid
 62
     7
370
    25
100
AcDbCircle
 10
63.51207856229581
 20
50.65230167870649
 30
0.0
 40
0.0251469639247113
100
AcDbArc
 50
185.6947992512245
 51
245.6253417064136
  0
LINE
  5
2F4
330
1F
100
AcDbEntity
  8
0
  6
SLD-Solid
 62
     7
370
    25
100
AcDbLine
 10
63.48705570917127
 20
50.64980635986152
 30
0.0
 11
63.54119784479499
 21
50.64980635986152
 31
0.0
  0
LINE
  5
2F5
330
1F
100
AcDbEntity
  8
0
  6
SLD-Solid
 62
     7
370
    25
100
AcDbLine
 10
63.50170037011194
 20
49.97616350755735
 30
0.0
 11
74.5078174192805
 21
43.62246737729716
 31
0.0
  0
LINE
  5
2F6
330
1F
100
AcDbEntity
  8
0
  6
SLD-Solid
 62
     7
370
    25
100
AcDbLine
 10
63.50170037011194
 20
50.62939615706595
 30
0.0
 11
63.50170037011194
 21
49.97616350755735
 31
0.0
  0
LINE
  5
2F7
330
1F
100
AcDbEntity
  8
0
  6
SLD-Solid
 62
     7
370
    25
100
AcDbLine
 10
80.06355539906325
 20
47.44213888851012
 30
0.0
 11
80.06355539906325
 21
46.78890623900152
 31
0.0
  0
LINE
  5
2F8
330
1F
100
AcDbEntity
  8
0
  6
SLD-Solid
 62
     7
370
    25
100
AcDbLine
 10
80.06355539906325
 20
46.78890623900152
 30
0.0
 11
74.57852809739916
 21
43.62246737729716
 31
0.0
  0
LWPOLYLINE
  5
2F9
330
1F
100
AcDbEntity
  8
0
  6
SLD-Solid
 62
     7
370
    25
100
AcDbPolyline
 90
        4
 70
   128
 43
0.0
 10
80.06355539906325
 20
46.78890623900152
 10
80.0581728691884
 20
46.76076584330233
 10
80.04284472094459
 20
46.74312410446837
 10
80.04284065757639
 20
46.74312175835458
  0
ARC
  5
2FA
330
1F
100
AcDbEntity
  8
0
  6
SLD-Solid
 62
     7
370
    25
100
AcDbCircle
 10
63.51207856229578
 20
50.64731104101656
 30
0.0
 40
0.0251469639246831
100
AcDbArc
 50
114.374658293563
 51
174.3052007488037
  0
LINE
  5
2FB
330
1F
100
AcDbEntity
  8
0
  6
SLD-Solid
 62
     7
370
    25
100
AcDbLine
 10
63.58239365635826
 20
50.67597939966376
 30
0.0
 11
63.54412677698313
 21
50.65388840042063
 31
0.0
  0
ARC
  5
2FC
330
1F
100
AcDbEntity
  8
0
  6
SLD-Solid
 62
     7
370
    25
100
AcDbCircle
 10
63.54620241541991
 20
50.6493072960925
 30
0.0
 40
0.0050293927849653
100
AcDbArc
 50
114.3746582935393
 51
174.3052007484992
  0
LINE
  5
2FD
330
1F
100
AcDbEntity
  8
0
  6
SLD-Solid
 62
     7
370
    25
100
AcDbLine
 10
63.57531018603348
 20
50.71271060487748
 30
0.0
 11
63.50170037011194
 21
50.67021656265709
 31
0.0
  0
LWPOLYLINE
  5
2FE
330
1F
100
AcDbEntity
  8
0
  6
SLD-Solid
 62
     7
370
    25
100
AcDbPolyline
 90
        9
 70
   128
 43
0.0
 10
80.0889866634397
 20
50.07331298239112
 10
80.08714305695602
 20
50.07677522826118
 10
80.08457014344289
 20
50.07931414461137
 10
80.08136679852372
 20
50.08083216231018
 10
80.0776561249473
 20
50.08127094478878
 10
80.07358072181819
 20
50.08061362988257
 10
80.06929720459316
 20
50.07888547783478
 10
80.0649701864369
 20
50.07615290055944
 10
80.06076595223057
 20
50.0725209094688
  0
ARC
  5
2FF
330
1F
100
AcDbEntity
  8
0
  6
SLD-Solid
 62
     7
370
    25
100
AcDbCircle
 10
80.04686129984192
 20
50.06492885222413
 30
0.0
 40
0.0429515994684966
100
AcDbArc
 50
311.9335998776103
 51
11.25637727959754
  0
LWPOLYLINE
  5
300
330
1F
100
AcDbEntity
  8
0
  6
SLD-Solid
 62
     7
370
    25
100
AcDbPolyline
 90
        9
 70
   128
 43
0.0
 10
80.04734380788435
 20
50.03218423477875
 10
80.04918741436803
 20
50.02872198890868
 10
80.05176032788117
 20
50.0261830725585
 10
80.05496367280033
 20
50.02466505485968
 10
80.05867434637675
 20
50.02422627238108
 10
80.06274974950585
 20
50.02488358728728
 10
80.0670332667309
 20
50.02661173933508
 10
80.07136028488715
 20
50.02934431661042
 10
80.07556451909348
 20
50.03297630770106
  0
ARC
  5
301
330
1F
100
AcDbEntity
  8
0
  6
SLD-Solid
 62
     7
370
    25
100
AcDbCircle
 10
80.0894691714821
 20
50.04056836494574
 30
0.0
 40
0.0429515994684666
100
AcDbArc
 50
131.9335998776003
 51
191.2563772796243
  0
LINE
  5
302
330
1F
100
AcDbEntity
  8
0
  6
SLD-Solid
 62
     7
370
    25
100
AcDbLine
 10
79.92738843977958
 20
27.2263479553256
 30
0.0
 11
79.96759581194534
 21
27.24955917721215
 31
0.0
  0
LINE
  5
303
330
1F
100
AcDbEntity
  8
0
  6
SLD-Solid
 62
     7
370
    25
100
AcDbLine
 10
79.96759581194534
 20
27.24955917721215
 30
0.0
 11
79.96759581194534
 21
27.22506295285558
 31
0.0
  0
LINE
  5
304
330
1F
100
AcDbEntity
  8
0
  6
SLD-Solid
 62
     7
370
    25
100
AcDbLine
 10
79.92738843977958
 20
27.20185173096903
 30
0.0
 11
79.96759581194534
 21
27.22506295285558
 31
0.0
  0
LINE
  5
305
330
1F
100
AcDbEntity
  8
0
  6
SLD-Solid
 62
     7
370
    25
100
AcDbLine
 10
79.99022322894331
 20
27.84566817310968
 30
0.0
 11
79.99009554656077
 21
27.84920852004815
 31
0.0
  0
LINE
  5
306
330
1F
100
AcDbEntity
  8
0
  6
SLD-Solid
 62
     7
370
    25
100
AcDbLine
 10
79.99022322894331
 20
27.84566817310968
 30
0.0
 11
79.99022322894331
 21
27.28875101298165
 31
0.0
  0
LINE
  5
307
330
1F
100
AcDbEntity
  8
0
  6
SLD-Solid
 62
     7
370
    25
100
AcDbLine
 10
80.0114364323789
 20
27.85791429478702
 30
0.0
 11
79.99022322894331
 21
27.84566817310968
 31
0.0
  0
ARC
  5
308
330
1F
100
AcDbEntity
  8
0
  6
SLD-Solid
 62
     7
370
    25
100
AcDbCircle
 10
79.9341553557726
 20
27.85427213140166
 30
0.0
 40
0.0773668543728778
100
AcDbArc
 50
2.698284020982169
 51
43.6930353872312
  0
LINE
  5
309
330
1F
100
AcDbEntity
  8
0
  6
SLD-Solid
 62
     7
370
    25
100
AcDbLine
 10
79.99022322894331
 20
27.28875101298165
 30
0.0
 11
80.0114364323789
 21
27.300997134659
 31
0.0
  0
LINE
  5
30A
330
1F
100
AcDbEntity
  8
0
  6
SLD-Solid
 62
     7
370
    25
100
AcDbLine
 10
80.0114364323789
 20
27.300997134659
 30
0.0
 11
80.0114364323789
 21
27.85791429478702
 31
0.0
  0
ARC
  5
30B
330
1F
100
AcDbEntity
  8
0
  6
SLD-Solid
 62
     7
370
    25
100
AcDbCircle
 10
79.94109631369952
 20
27.29098656025401
 30
0.0
 40
0.0491777538423375
100
AcDbArc
 50
302.6054783400525
 51
357.3945215143278
  0
ARC
  5
30C
330
1F
100
AcDbEntity
  8
0
  6
SLD-Solid
 62
     7
370
    25
100
AcDbCircle
 10
79.9162530340942
 20
27.3053285074991
 30
0.0
 40
0.0952818980693839
100
AcDbArc
 50
302.6054783400078
 51
357.3945215143766
  0
ARC
  5
30D
330
1F
100
AcDbEntity
  8
0
  6
SLD-Solid
 62
     7
370
    25
100
AcDbCircle
 10
74.65971615824914
 20
24.60330575600756
 30
0.0
 40
0.4303661342152765
100
AcDbArc
 50
242.6096722365999
 51
297.3903277634017
  0
LINE
  5
30E
330
1F
100
AcDbEntity
  8
0
  6
SLD-Solid
 62
     7
370
    25
100
AcDbLine
 10
64.327939842614
 20
30.07129702759746
 30
0.0
 11
64.327939842614
 21
30.12208586609676
 31
0.0
  0
LINE
  5
30F
330
1F
100
AcDbEntity
  8
0
  6
SLD-Solid
 62
     7
370
    25
100
AcDbLine
 10
64.11594922961427
 20
30.19367660355968
 30
0.0
 11
64.327939842614
 21
30.07129702759746
 31
0.0
  0
LINE
  5
310
330
1F
100
AcDbEntity
  8
0
  6
SLD-Solid
 62
     7
370
    25
100
AcDbLine
 10
74.24973564651718
 20
24.34356622818224
 30
0.0
 11
74.46172625951691
 21
24.22118665222001
 31
0.0
  0
LINE
  5
311
330
1F
100
AcDbEntity
  8
0
  6
SLD-Solid
 62
     7
370
    25
100
AcDbLine
 10
74.24973564651718
 20
24.34356622818224
 30
0.0
 11
74.24973564651718
 21
24.39435506668153
 31
0.0
  0
LINE
  5
312
330
1F
100
AcDbEntity
  8
0
  6
SLD-Solid
 62
     7
370
    25
100
AcDbLine
 10
74.24973564651718
 20
24.39435506668153
 30
0.0
 11
74.24959422516095
 21
24.39443670749271
 31
0.0
  0
LINE
  5
313
330
1F
100
AcDbEntity
  8
0
  6
SLD-Solid
 62
     7
370
    25
100
AcDbLine
 10
74.24959422516095
 20
24.39443670749271
 30
0.0
 11
74.24959422516095
 21
24.39427339933032
 31
0.0
  0
LINE
  5
314
330
1F
100
AcDbEntity
  8
0
  6
SLD-Solid
 62
     7
370
    25
100
AcDbLine
 10
74.24959422516095
 20
24.39427339933032
 30
0.0
 11
64.32808126397023
 21
30.1218409171232
 31
0.0
  0
LINE
  5
315
330
1F
100
AcDbEntity
  8
0
  6
SLD-Solid
 62
     7
370
    25
100
AcDbLine
 10
64.32808126397023
 20
30.1218409171232
 30
0.0
 11
64.32808126397023
 21
30.12200422528558
 31
0.0
  0
LINE
  5
316
330
1F
100
AcDbEntity
  8
0
  6
SLD-Solid
 62
     7
370
    25
100
AcDbLine
 10
64.32808126397023
 20
30.12200422528558
 30
0.0
 11
64.327939842614
 21
30.12208586609676
 31
0.0
  0
LINE
  5
317
330
1F
100
AcDbEntity
  8
0
  6
SLD-Solid
 62
     7
370
    25
100
AcDbLine
 10
79.94153057540332
 20
27.2580836785899
 30
0.0
 11
79.97193616699433
 21
27.27563645299409
 31
0.0
  0
ARC
  5
318
330
1F
100
AcDbEntity
  8
0
  6
SLD-Solid
 62
     7
370
    25
100
AcDbCircle
 10
79.9580927618069
 20
27.23219156418875
 30
0.0
 40
0.030736096151411
100
AcDbArc
 50
122.6054783399659
 51
177.3945215143542
  0
LINE
  5
319
330
1F
100
AcDbEntity
  8
0
  6
SLD-Solid
 62
     7
370
    25
100
AcDbLine
 10
79.92738843977958
 20
27.19847752632287
 30
0.0
 11
79.92738843977958
 21
27.23358878123396
 31
0.0
  0
LINE
  5
31A
330
1F
100
AcDbEntity
  8
0
  6
SLD-Solid
 62
     7
370
    25
100
AcDbLine
 10
79.92738843977958
 20
27.19847752632287
 30
0.0
 11
75.06983809133735
 21
24.39427339933033
 31
0.0
  0
LINE
  5
31B
330
1F
100
AcDbEntity
  8
0
  6
SLD-Solid
 62
     7
370
    25
100
AcDbLine
 10
75.06983809133735
 20
24.39443670749271
 30
0.0
 11
75.06983809133735
 21
24.39427339933033
 31
0.0
  0
LINE
  5
31C
330
1F
100
AcDbEntity
  8
0
  6
SLD-Solid
 62
     7
370
    25
100
AcDbLine
 10
75.06983809133735
 20
24.39443670749271
 30
0.0
 11
75.06969666998111
 21
24.39435506668153
 31
0.0
  0
LINE
  5
31D
330
1F
100
AcDbEntity
  8
0
  6
SLD-Solid
 62
     7
370
    25
100
AcDbLine
 10
75.06969666998111
 20
24.39435506668153
 30
0.0
 11
75.06969666998111
 21
24.34356622818223
 31
0.0
  0
LINE
  5
31E
330
1F
100
AcDbEntity
  8
0
  6
SLD-Solid
 62
     7
370
    25
100
AcDbLine
 10
74.85770605698137
 20
24.22118665222001
 30
0.0
 11
75.06969666998111
 21
24.34356622818223
 31
0.0
  0
ARC
  5
31F
330
1F
100
AcDbEntity
  8
0
  6
SLD-Solid
 62
     7
370
    25
100
AcDbCircle
 10
79.95906720868633
 20
27.30403929982837
 30
0.0
 40
0.03118223526665
100
AcDbArc
 50
294.3746582935806
 51
354.3052007487656
  0
ARC
  5
320
330
1F
100
AcDbEntity
  8
0
  6
SLD-Solid
 62
     7
370
    25
100
AcDbCircle
 10
64.17406710584383
 20
30.32194752474661
 30
0.0
 40
0.1408229979782389
100
AcDbArc
 50
185.6947992511889
 51
245.6253417064222
  0
ARC
  5
321
330
1F
100
AcDbEntity
  8
0
  6
SLD-Solid
 62
     7
370
    25
100
AcDbCircle
 10
64.35757376843178
 20
30.11808594734801
 30
0.0
 40
0.029730583872955
100
AcDbArc
 50
172.7441704325135
 51
235.9436491741132
  0
LINE
  5
322
330
1F
100
AcDbEntity
  8
0
  6
SLD-Solid
 62
     7
370
    25
100
AcDbLine
 10
74.24973564651718
 20
24.39029198032161
 30
0.0
 11
74.24959422516095
 21
24.39427339933032
 31
0.0
  0
LINE
  5
323
330
1F
100
AcDbEntity
  8
0
  6
SLD-Solid
 62
     7
370
    25
100
AcDbLine
 10
75.06983809133735
 20
24.39427339933033
 30
0.0
 11
75.06969666998111
 21
24.3902919803214
 31
0.0
  0
ARC
  5
324
330
1F
100
AcDbEntity
  8
0
  6
SLD-Solid
 62
     7
370
    25
100
AcDbCircle
 10
79.89700832185376
 20
27.19512414859793
 30
0.0
 40
0.0305646316410424
100
AcDbArc
 50
305.0133328537473
 51
6.298847539628527
  0
LINE
  5
325
330
1F
100
AcDbEntity
  8
0
  6
SLD-Solid
 62
     7
370
    25
100
AcDbLine
 10
64.3491530460496
 20
30.08354314927481
 30
0.0
 11
64.327939842614
 21
30.07129702759746
 31
0.0
  0
LINE
  5
326
330
1F
100
AcDbEntity
  8
0
  6
SLD-Solid
 62
     7
370
    25
100
AcDbLine
 10
64.3491530460496
 20
30.08870424500195
 30
0.0
 11
64.3491530460496
 21
30.08354314927481
 31
0.0
  0
LWPOLYLINE
  5
327
330
1F
100
AcDbEntity
  8
0
  6
SLD-Solid
 62
     7
370
    25
100
AcDbPolyline
 90
        9
 70
   128
 43
0.0
 10
78.97987275833982
 20
53.07950251830813
 10
78.98944921084846
 20
53.07397403293631
 10
78.99990468095957
 20
53.06793787197422
 10
79.01083737082027
 20
53.06162600170253
 10
79.02182714329032
 20
53.05528098375601
 10
79.03245166757685
 20
53.04914665361607
 10
79.04230264916983
 20
53.04345875014976
 10
79.0510015203711
 20
53.03843585629751
 10
79.05821398843884
 20
53.03427099905318
  0
LINE
  5
328
330
1F
100
AcDbEntity
  8
0
  6
SLD-Solid
 62
     7
370
    25
100
AcDbLine
 10
79.05821398843884
 20
53.03427099905318
 30
0.0
 11
74.60156398843885
 21
45.31512679015614
 31
0.0
  0
LWPOLYLINE
  5
329
330
1F
100
AcDbEntity
  8
0
  6
SLD-Solid
 62
     7
370
    25
100
AcDbPolyline
 90
        9
 70
   128
 43
0.0
 10
74.60156398843885
 20
45.31512679015614
 10
74.59435152037112
 20
45.31929164740046
 10
74.58565264916983
 20
45.32431454125272
 10
74.57580166757687
 20
45.33000244471902
 10
74.56517714329034
 20
45.33613677485899
 10
74.55418737082029
 20
45.34248179280549
 10
74.54325468095959
 20
45.34879366307718
 10
74.5327992108485
 20
45.35482982403927
 10
74.52322275833984
 20
45.3603583094111
  0
LINE
  5
32A
330
1F
100
AcDbEntity
  8
0
  6
SLD-Solid
 62
     7
370
    25
100
AcDbLine
 10
74.52322275833984
 20
45.3603583094111
 30
0.0
 11
78.97987275833982
 21
53.07950251830813
 31
0.0
  0
LINE
  5
32B
330
1F
100
AcDbEntity
  8
0
  6
SLD-Solid
 62
     7
370
    25
100
AcDbLine
 10
74.57617885499425
 20
45.32978131576336
 30
0.0
 11
74.60156398843885
 21
45.31512679015614
 31
0.0
  0
LWPOLYLINE
  5
32C
330
1F
100
AcDbEntity
  8
0
  6
SLD-Solid
 62
     7
370
    25
100
AcDbPolyline
 90
        9
 70
   128
 43
0.0
 10
74.57617885499425
 20
45.32978131576336
 10
74.57295602642779
 20
45.33164234596498
 10
74.56906901156127
 20
45.33388678235505
 10
74.56466718619615
 20
45.33642837250178
 10
74.55991971001264
 20
45.33916944452118
 10
74.55500902585807
 20
45.34200466055274
 10
74.55012384857055
 20
45.3448250648344
 10
74.5454519127736
 20
45.34752227081129
 10
74.54117275833984
 20
45.34999262637034
  0
LINE
  5
32D
330
1F
100
AcDbEntity
  8
0
  6
SLD-Solid
 62
     7
370
    25
100
AcDbLine
 10
74.54117275833984
 20
45.34999262637034
 30
0.0
 11
74.52322275833984
 21
45.3603583094111
 31
0.0
  0
LINE
  5
32E
330
1F
100
AcDbEntity
  8
0
  6
SLD-Solid
 62
     7
370
    25
100
AcDbLine
 10
63.61498507771449
 20
51.62868315151248
 30
0.0
 11
74.48448909675781
 21
45.35385204485433
 31
0.0
  0
LINE
  5
32F
330
1F
100
AcDbEntity
  8
0
  6
SLD-Solid
 62
     7
370
    25
100
AcDbLine
 10
63.61498507771449
 20
51.62868315151248
 30
0.0
 11
63.61748507771449
 21
51.6330132785187
 31
0.0
  0
ARC
  5
330
330
1F
100
AcDbEntity
  8
0
  6
SLD-Solid
 62
     7
370
    25
100
AcDbCircle
 10
63.60240969210919
 20
51.64364191735532
 30
0.0
 40
0.0184454659650502
100
AcDbArc
 50
324.8149143563305
 51
53.64875655122205
  0
LINE
  5
331
330
1F
100
AcDbEntity
  8
0
  6
SLD-Solid
 62
     7
370
    25
100
AcDbLine
 10
63.61334294209077
 20
51.65849786766177
 30
0.0
 11
63.60125141613247
 21
51.66547815701785
 31
0.0
  0
LINE
  5
332
330
1F
100
AcDbEntity
  8
0
  6
SLD-Solid
 62
     7
370
    25
100
AcDbLine
 10
63.60125141613247
 20
51.66547815701785
 30
0.0
 11
68.05790141613245
 21
59.38462236591491
 31
0.0
  0
LINE
  5
333
330
1F
100
AcDbEntity
  8
0
  6
SLD-Solid
 62
     7
370
    25
100
AcDbLine
 10
68.05790141613245
 20
59.38462236591491
 30
0.0
 11
68.08413507771448
 21
59.3694779954406
 31
0.0
  0
LINE
  5
334
330
1F
100
AcDbEntity
  8
0
  6
SLD-Solid
 62
     7
370
    25
100
AcDbLine
 10
78.95363909675781
 20
53.09464688878244
 30
0.0
 11
68.08413507771448
 21
59.3694779954406
 31
0.0
  0
LINE
  5
335
330
1F
100
AcDbEntity
  8
0
  6
SLD-Solid
 62
     7
370
    25
100
AcDbLine
 10
78.97987275833982
 20
53.07950251830813
 30
0.0
 11
78.95363909675781
 21
53.09464688878244
 31
0.0
  0
LINE
  5
336
330
1F
100
AcDbEntity
  8
0
  6
SLD-Solid
 62
     7
370
    25
100
AcDbLine
 10
74.51113123238156
 20
45.36733859876718
 30
0.0
 11
74.52322275833984
 21
45.3603583094111
 31
0.0
  0
ARC
  5
337
330
1F
100
AcDbEntity
  8
0
  6
SLD-Solid
 62
     7
370
    25
100
AcDbCircle
 10
74.50373309780035
 20
45.35043957622909
 30
0.0
 40
0.0184474756545263
100
AcDbArc
 50
66.3569291844925
 51
155.1837008195177
  0
LINE
  5
338
330
1F
100
AcDbEntity
  8
0
  6
SLD-Solid
 62
     7
370
    25
100
AcDbLine
 10
74.48448909675781
 20
45.35385204485433
 30
0.0
 11
74.48698909675782
 21
45.35818217186054
 31
0.0
  0
LINE
  5
339
330
1F
100
AcDbEntity
  8
0
  6
SLD-Solid
 62
     7
370
    25
100
AcDbLine
 10
64.98620718699563
 20
52.07158903598712
 30
0.0
 11
68.3612071869956
 21
57.91726049437572
 31
0.0
  0
ARC
  5
33A
330
1F
100
AcDbEntity
  8
0
  6
SLD-Solid
 62
     7
370
    25
100
AcDbCircle
 10
65.08042834702894
 20
52.00516004325829
 30
0.0
 40
0.1152841622816831
100
AcDbArc
 50
144.8149143564081
 51
233.6487565511906
  0
LINE
  5
33B
330
1F
100
AcDbEntity
  8
0
  6
SLD-Solid
 62
     7
370
    25
100
AcDbLine
 10
65.01209553464393
 20
51.91231035384285
 30
0.0
 11
74.031512117587
 21
46.70551199032924
 31
0.0
  0
ARC
  5
33C
330
1F
100
AcDbEntity
  8
0
  6
SLD-Solid
 62
     7
370
    25
100
AcDbCircle
 10
74.07775045871955
 20
46.81113088119225
 30
0.0
 40
0.1152967228407819
100
AcDbArc
 50
246.3569291844928
 51
335.1837008195033
  0
LINE
  5
33D
330
1F
100
AcDbEntity
  8
0
  6
SLD-Solid
 62
     7
370
    25
100
AcDbLine
 10
74.18240046523533
 20
46.76273965849566
 30
0.0
 11
77.55740046523532
 21
52.60841111688426
 31
0.0
  0
ARC
  5
33E
330
1F
100
AcDbEntity
  8
0
  6
SLD-Solid
 62
     7
370
    25
100
AcDbCircle
 10
77.463179305202
 20
52.67484010961308
 30
0.0
 40
0.1152841622816831
100
AcDbArc
 50
324.8149143564089
 51
53.6487565512012
  0
LINE
  5
33F
330
1F
100
AcDbEntity
  8
0
  6
SLD-Solid
 62
     7
370
    25
100
AcDbLine
 10
77.53151211758698
 20
52.76768979902852
 30
0.0
 11
68.51209553464392
 21
57.97448816254214
 31
0.0
  0
ARC
  5
340
330
1F
100
AcDbEntity
  8
0
  6
SLD-Solid
 62
     7
370
    25
100
AcDbCircle
 10
68.46585719351135
 20
57.86886927167915
 30
0.0
 40
0.1152967228407579
100
AcDbArc
 50
66.35692918447985
 51
155.183700819503
  0
LINE
  5
341
330
1F
100
AcDbEntity
  8
0
  6
SLD-Solid
 62
     7
370
    25
100
AcDbLine
 10
74.52908123238156
 20
45.35697291572643
 30
0.0
 11
74.54117275833984
 21
45.34999262637034
 31
0.0
  0
LINE
  5
342
330
1F
100
AcDbEntity
  8
0
  6
SLD-Solid
 62
     7
370
    25
100
AcDbLine
 10
74.51113123238156
 20
45.36733859876718
 30
0.0
 11
74.52908123238156
 21
45.35697291572643
 31
0.0
  0
ARC
  5
343
330
1F
100
AcDbEntity
  8
0
  6
SLD-Solid
 62
     7
370
    25
100
AcDbCircle
 10
79.93798344411022
 20
53.62526094955245
 30
0.0
 40
0.0997386320114407
100
AcDbArc
 50
2.605478485643832
 51
57.39452165996455
  0
LINE
  5
344
330
1F
100
AcDbEntity
  8
0
  6
SLD-Solid
 62
     7
370
    25
100
AcDbLine
 10
80.03761896908898
 20
53.62979491886414
 30
0.0
 11
79.03565728211898
 21
53.05137474899587
 31
0.0
  0
ARC
  5
345
330
1F
100
AcDbEntity
  8
0
  6
SLD-Solid
 62
     7
370
    25
100
AcDbCircle
 10
78.93602175714015
 20
53.04684077968412
 30
0.0
 40
0.0997386320115049
100
AcDbArc
 50
2.605478485670889
 51
57.39452165994116
  0
LINE
  5
346
330
1F
100
AcDbEntity
  8
0
  6
SLD-Solid
 62
     7
370
    25
100
AcDbLine
 10
78.98976605201999
 20
53.1308606909159
 30
0.0
 11
79.99172773898998
 21
53.70928086078419
 31
0.0
  0
ARC
  5
347
330
1F
100
AcDbEntity
  8
0
  6
SLD-Solid
 62
     7
370
    25
100
AcDbCircle
 10
78.96575088173465
 20
53.06400330988748
 30
0.0
 40
0.0445673394196783
100
AcDbArc
 50
2.605478485704259
 51
57.39452165990878
  0
LINE
  5
348
330
1F
100
AcDbEntity
  8
0
  6
SLD-Solid
 62
     7
370
    25
100
AcDbLine
 10
78.98976605201999
 20
53.1015468757692
 30
0.0
 11
78.98976605201999
 21
53.1308606909159
 31
0.0
  0
LINE
  5
349
330
1F
100
AcDbEntity
  8
0
  6
SLD-Solid
 62
     7
370
    25
100
AcDbLine
 10
79.01027214867439
 20
53.06602927460308
 30
0.0
 11
79.03565728211898
 21
53.05137474899587
 31
0.0
  0
ARC
  5
34A
330
1F
100
AcDbEntity
  8
0
  6
SLD-Solid
 62
     7
370
    25
100
AcDbCircle
 10
74.51708051811406
 20
45.38486052202349
 30
0.0
 40
0.0997527218234364
100
AcDbArc
 50
242.6096722365929
 51
297.3903277634087
  0
LINE
  5
34B
330
1F
100
AcDbEntity
  8
0
  6
SLD-Solid
 62
     7
370
    25
100
AcDbLine
 10
74.53758661476847
 20
45.31094529821713
 30
0.0
 11
74.56297174821306
 21
45.29629077260991
 31
0.0
  0
LINE
  5
34C
330
1F
100
AcDbEntity
  8
0
  6
SLD-Solid
 62
     7
370
    25
100
AcDbLine
 10
74.47118928801505
 20
45.29629077260991
 30
0.0
 11
74.49657442145966
 21
45.31094529821713
 31
0.0
  0
ARC
  5
34D
330
1F
100
AcDbEntity
  8
0
  6
SLD-Solid
 62
     7
370
    25
100
AcDbCircle
 10
74.51708051811406
 20
45.35052191968094
 30
0.0
 40
0.0445736353295289
100
AcDbArc
 50
242.6096722366677
 51
297.3903277633501
  0
LINE
  5
34E
330
1F
100
AcDbEntity
  8
0
  6
SLD-Solid
 62
     7
370
    25
100
AcDbLine
 10
74.50493909675782
 20
45.3478164888198
 30
0.0
 11
74.48698909675782
 21
45.35818217186054
 31
0.0
  0
ARC
  5
34F
330
1F
100
AcDbEntity
  8
0
  6
SLD-Solid
 62
     7
370
    25
100
AcDbCircle
 10
74.52168309780036
 20
45.34007389318833
 30
0.0
 40
0.0184474756545477
100
AcDbArc
 50
66.35692918455949
 51
155.1837008194561
  0
LINE
  5
350
330
1F
100
AcDbEntity
  8
0
  6
SLD-Solid
 62
     7
370
    25
100
AcDbLine
 10
80.07759977360074
 20
53.62274988670181
 30
0.0
 11
79.05821398843884
 21
53.03427099905318
 31
0.0
  0
ARC
  5
351
330
1F
100
AcDbEntity
  8
0
  6
SLD-Solid
 62
     7
370
    25
100
AcDbCircle
 10
80.08588074601353
 20
53.61259759992959
 30
0.0
 40
0.0131012759228562
100
AcDbArc
 50
350.7859630096
 51
129.2032852356692
  0
LINE
  5
352
330
1F
100
AcDbEntity
  8
0
  6
SLD-Solid
 62
     7
370
    25
100
AcDbLine
 10
80.09881297703633
 20
53.22322271225239
 30
0.0
 11
80.09881297703633
 21
53.61049978402259
 31
0.0
  0
LINE
  5
353
330
1F
100
AcDbEntity
  8
0
  6
SLD-Solid
 62
     7
370
    25
100
AcDbLine
 10
80.063457637977
 20
53.20281250945683
 30
0.0
 11
80.09881297703633
 21
53.22322271225239
 31
0.0
  0
LINE
  5
354
330
1F
100
AcDbEntity
  8
0
  6
SLD-Solid
 62
     7
370
    25
100
AcDbLine
 10
80.063457637977
 20
53.20281250945683
 30
0.0
 11
80.063457637977
 21
53.17855301203659
 31
0.0
  0
LINE
  5
355
330
1F
100
AcDbEntity
  8
0
  6
SLD-Solid
 62
     7
370
    25
100
AcDbLine
 10
74.58906398843885
 20
45.2867117095548
 30
0.0
 11
74.58906398843887
 21
44.32260267282998
 31
0.0
  0
ARC
  5
356
330
1F
100
AcDbEntity
  8
0
  6
SLD-Solid
 62
     7
370
    25
100
AcDbCircle
 10
74.61790329144053
 20
45.2857265410341
 30
0.0
 40
0.0288561250800691
100
AcDbArc
 50
148.8562722007159
 51
178.0435013569495
  0
LINE
  5
357
330
1F
100
AcDbEntity
  8
0
  6
SLD-Solid
 62
     7
370
    25
100
AcDbLine
 10
74.59320612406258
 20
45.30065054445617
 30
0.0
 11
74.60156398843885
 21
45.31512679015614
 31
0.0
  0
LINE
  5
358
330
1F
100
AcDbEntity
  8
0
  6
SLD-Solid
 62
     7
370
    25
100
AcDbLine
 10
74.56782099061799
 20
45.31530507006338
 30
0.0
 11
74.59320612406258
 21
45.30065054445617
 31
0.0
  0
LINE
  5
359
330
1F
100
AcDbEntity
  8
0
  6
SLD-Solid
 62
     7
370
    25
100
AcDbLine
 10
74.58906398843885
 20
45.2867117095548
 30
0.0
 11
74.56367885499425
 21
45.30136623516201
 31
0.0
  0
ARC
  5
35A
330
1F
100
AcDbEntity
  8
0
  6
SLD-Solid
 62
     7
370
    25
100
AcDbCircle
 10
74.59251815799564
 20
45.30038106664136
 30
0.0
 40
0.0288561250797846
100
AcDbArc
 50
148.856272200494
 51
178.043501357029
  0
LINE
  5
35B
330
1F
100
AcDbEntity
  8
0
  6
SLD-Solid
 62
     7
370
    25
100
AcDbLine
 10
74.56782099061799
 20
45.31530507006338
 30
0.0
 11
74.57617885499425
 21
45.32978131576336
 31
0.0
  0
LINE
  5
35C
330
1F
100
AcDbEntity
  8
0
  6
SLD-Solid
 62
     7
370
    25
100
AcDbLine
 10
80.05221464015612
 20
53.63740441230902
 30
0.0
 11
79.0328317534452
 21
53.04892719790052
 31
0.0
  0
LINE
  5
35D
330
1F
100
AcDbEntity
  8
0
  6
SLD-Solid
 62
     7
370
    25
100
AcDbLine
 10
80.07759977360074
 20
53.62274988670181
 30
0.0
 11
80.05221464015612
 21
53.63740441230902
 31
0.0
  0
LINE
  5
35E
330
1F
100
AcDbEntity
  8
0
  6
SLD-Solid
 62
     7
370
    25
100
AcDbLine
 10
74.56367885499425
 20
45.30136623516201
 30
0.0
 11
74.56367885499427
 21
44.30794814722277
 31
0.0
  0
LINE
  5
35F
330
1F
100
AcDbEntity
  8
0
  6
SLD-Solid
 62
     7
370
    25
100
AcDbLine
 10
74.50243909675781
 20
45.34348636181359
 30
0.0
 11
74.48448909675781
 21
45.35385204485433
 31
0.0
  0
ARC
  5
360
330
1F
100
AcDbEntity
  8
0
  6
SLD-Solid
 62
     7
370
    25
100
AcDbCircle
 10
74.53824998945579
 20
45.32184655685159
 30
0.0
 40
0.0418413813660555
100
AcDbArc
 50
148.8562722006783
 51
178.0435013569523
  0
LINE
  5
361
330
1F
100
AcDbEntity
  8
0
  6
SLD-Solid
 62
     7
370
    25
100
AcDbLine
 10
74.47104786665881
 20
45.30862052559937
 30
0.0
 11
74.49643300010341
 21
45.3232750512066
 31
0.0
  0
ARC
  5
362
330
1F
100
AcDbEntity
  8
0
  6
SLD-Solid
 62
     7
370
    25
100
AcDbCircle
 10
74.56463140489903
 20
45.30542365374973
 30
0.0
 40
0.093638125884613
100
AcDbArc
 50
148.8562722006456
 51
178.0435013569601
  0
ARC
  5
363
330
1F
100
AcDbEntity
  8
0
  6
SLD-Solid
 62
     7
370
    25
100
AcDbCircle
 10
63.69512738585569
 20
51.58025476040789
 30
0.0
 40
0.093638125884592
100
AcDbArc
 50
148.8562722006426
 51
178.0435013569553
  0
LINE
  5
364
330
1F
100
AcDbEntity
  8
0
  6
SLD-Solid
 62
     7
370
    25
100
AcDbLine
 10
74.47104786665881
 20
45.30862052559937
 30
0.0
 11
63.60154384761549
 21
51.58345163225754
 31
0.0
  0
LINE
  5
365
330
1F
100
AcDbEntity
  8
0
  6
SLD-Solid
 62
     7
370
    25
100
AcDbLine
 10
74.50243909675781
 20
45.34348636181359
 30
0.0
 11
74.50493909675782
 21
45.3478164888198
 31
0.0
  0
ARC
  5
366
330
1F
100
AcDbEntity
  8
0
  6
SLD-Solid
 62
     7
370
    25
100
AcDbCircle
 10
68.16613664599315
 20
59.32429355547159
 30
0.0
 40
0.0936263361211691
100
AcDbArc
 50
121.9546716494869
 51
151.1443911208311
  0
LINE
  5
367
330
1F
100
AcDbEntity
  8
0
  6
SLD-Solid
 62
     7
370
    25
100
AcDbLine
 10
68.11658507771448
 20
59.40373241810568
 30
0.0
 11
78.98608909675781
 21
53.12890131144752
 31
0.0
  0
ARC
  5
368
330
1F
100
AcDbEntity
  8
0
  6
SLD-Solid
 62
     7
370
    25
100
AcDbCircle
 10
79.03564066503634
 20
53.04946244881355
 30
0.0
 40
0.0936263361209913
100
AcDbArc
 50
121.9546716494522
 51
151.1443911208501
  0
ARC
  5
369
330
1F
100
AcDbEntity
  8
0
  6
SLD-Solid
 62
     7
370
    25
100
AcDbCircle
 10
79.00823078366207
 20
53.06409093210368
 30
0.0
 40
0.0418361132129769
100
AcDbArc
 50
121.9546716495053
 51
151.1443911207817
  0
LINE
  5
36A
330
1F
100
AcDbEntity
  8
0
  6
SLD-Solid
 62
     7
370
    25
100
AcDbLine
 10
78.98608909675781
 20
53.09958749630083
 30
0.0
 11
78.98608909675781
 21
53.12890131144752
 31
0.0
  0
LINE
  5
36B
330
1F
100
AcDbEntity
  8
0
  6
SLD-Solid
 62
     7
370
    25
100
AcDbLine
 10
74.47104786665881
 20
45.30862052559937
 30
0.0
 11
74.47104786665882
 21
45.2963724134211
 31
0.0
  0
LINE
  5
36C
330
1F
100
AcDbEntity
  8
0
  6
SLD-Solid
 62
     7
370
    25
100
AcDbLine
 10
74.47104786665882
 20
45.2963724134211
 30
0.0
 11
74.47118928801505
 21
45.29629077260991
 31
0.0
  0
LINE
  5
36D
330
1F
100
AcDbEntity
  8
0
  6
SLD-Solid
 62
     7
370
    25
100
AcDbLine
 10
63.60154384761549
 20
51.57120352007925
 30
0.0
 11
63.60140242625926
 21
51.57128516089043
 31
0.0
  0
LINE
  5
36E
330
1F
100
AcDbEntity
  8
0
  6
SLD-Solid
 62
     7
370
    25
100
AcDbLine
 10
63.60154384761549
 20
51.58345163225754
 30
0.0
 11
63.60154384761549
 21
51.57120352007925
 31
0.0
  0
LINE
  5
36F
330
1F
100
AcDbEntity
  8
0
  6
SLD-Solid
 62
     7
370
    25
100
AcDbLine
 10
74.49643300010341
 20
45.3232750512066
 30
0.0
 11
74.49643300010341
 21
45.31102693902831
 31
0.0
  0
LINE
  5
370
330
1F
100
AcDbEntity
  8
0
  6
SLD-Solid
 62
     7
370
    25
100
AcDbLine
 10
74.47104786665882
 20
45.2963724134211
 30
0.0
 11
74.49643300010341
 21
45.31102693902831
 31
0.0
  0
LINE
  5
371
330
1F
100
AcDbEntity
  8
0
  6
SLD-Solid
 62
     7
370
    25
100
AcDbLine
 10
68.11658507771448
 20
59.40373241810568
 30
0.0
 11
68.12012061162041
 21
59.40577343838523
 31
0.0
  0
LINE
  5
372
330
1F
100
AcDbEntity
  8
0
  6
SLD-Solid
 62
     7
370
    25
100
AcDbLine
 10
68.11997919026417
 20
59.40585507919641
 30
0.0
 11
68.12012061162041
 21
59.40577343838523
 31
0.0
  0
LINE
  5
373
330
1F
100
AcDbEntity
  8
0
  6
SLD-Solid
 62
     7
370
    25
100
AcDbLine
 10
68.11997919026417
 20
59.40585507919641
 30
0.0
 11
69.12194087723415
 21
59.98427524906471
 31
0.0
  0
LINE
  5
374
330
1F
100
AcDbEntity
  8
0
  6
SLD-Solid
 62
     7
370
    25
100
AcDbLine
 10
69.12194087723415
 20
59.98427524906471
 30
0.0
 11
79.99172773898998
 21
53.70928086078419
 31
0.0
  0
LINE
  5
375
330
1F
100
AcDbEntity
  8
0
  6
SLD-Solid
 62
     7
370
    25
100
AcDbLine
 10
78.98976605201999
 20
53.1308606909159
 30
0.0
 11
78.98962463066376
 21
53.13094233172708
 31
0.0
  0
LINE
  5
376
330
1F
100
AcDbEntity
  8
0
  6
SLD-Solid
 62
     7
370
    25
100
AcDbLine
 10
78.98608909675781
 20
53.12890131144752
 30
0.0
 11
78.98962463066376
 21
53.13094233172708
 31
0.0
  0
LINE
  5
377
330
1F
100
AcDbEntity
  8
0
  6
SLD-Solid
 62
     7
370
    25
100
AcDbLine
 10
78.98962463066376
 20
53.10162851658039
 30
0.0
 11
78.98962463066376
 21
53.13094233172708
 31
0.0
  0
LINE
  5
378
330
1F
100
AcDbEntity
  8
0
  6
SLD-Solid
 62
     7
370
    25
100
AcDbLine
 10
78.98608909675781
 20
53.09958749630083
 30
0.0
 11
78.98962463066376
 21
53.10162851658039
 31
0.0
  0
LINE
  5
379
330
1F
100
AcDbEntity
  8
0
  6
SLD-Solid
 62
     7
370
    25
100
AcDbLine
 10
79.03565728211898
 20
53.05137474899587
 30
0.0
 11
79.03565728211898
 21
53.05055834088405
 31
0.0
  0
LINE
  5
37A
330
1F
100
AcDbEntity
  8
0
  6
SLD-Solid
 62
     7
370
    25
100
AcDbLine
 10
79.01027214867439
 20
53.06602927460308
 30
0.0
 11
79.0102721486744
 21
53.06195233128593
 31
0.0
  0
LINE
  5
37B
330
1F
100
AcDbEntity
  8
0
  6
SLD-Solid
 62
     7
370
    25
100
AcDbLine
 10
80.03761896908898
 20
53.6289785107523
 30
0.0
 11
80.03761896908898
 21
53.62979491886414
 31
0.0
  0
LINE
  5
37C
330
1F
100
AcDbEntity
  8
0
  6
SLD-Solid
 62
     7
370
    25
100
AcDbLine
 10
78.98976605201999
 20
53.1015468757692
 30
0.0
 11
78.98962463066376
 21
53.10162851658039
 31
0.0
  0
LINE
  5
37D
330
1F
100
AcDbEntity
  8
0
  6
SLD-Solid
 62
     7
370
    25
100
AcDbLine
 10
74.56297174821306
 20
45.29629077260991
 30
0.0
 11
74.56367885499425
 21
45.29669897666583
 31
0.0
  0
LINE
  5
37E
330
1F
100
AcDbEntity
  8
0
  6
SLD-Solid
 62
     7
370
    25
100
AcDbLine
 10
74.49643300010341
 20
45.31102693902831
 30
0.0
 11
74.49657442145966
 21
45.31094529821713
 31
0.0
  0
LINE
  5
37F
330
1F
100
AcDbEntity
  8
0
  6
SLD-Solid
 62
     7
370
    25
100
AcDbLine
 10
74.53758661476847
 20
45.31094529821713
 30
0.0
 11
74.55243585717339
 21
45.31951758339127
 31
0.0
  0
LINE
  5
380
330
1F
100
AcDbEntity
  8
0
  6
SLD-Solid
 62
     7
370
    25
100
AcDbLine
 10
74.56600568078281
 20
45.31168389096639
 30
0.0
 11
74.55243585717339
 21
45.31951758339127
 31
0.0
  0
LINE
  5
381
330
1F
100
AcDbEntity
  8
0
  6
SLD-Solid
 62
     7
370
    25
100
AcDbLine
 10
68.5300455346439
 20
57.96412247950141
 30
0.0
 11
68.51209553464392
 21
57.97448816254214
 31
0.0
  0
LINE
  5
382
330
1F
100
AcDbEntity
  8
0
  6
SLD-Solid
 62
     7
370
    25
100
AcDbLine
 10
77.53211453655341
 20
52.76733866135287
 30
0.0
 11
68.5300455346439
 21
57.96412247950141
 31
0.0
  0
ARC
  5
383
330
1F
100
AcDbEntity
  8
0
  6
SLD-Solid
 62
     7
370
    25
100
AcDbCircle
 10
80.06100224180165
 20
53.62513797243543
 30
0.0
 40
0.0150893170770919
100
AcDbArc
 50
65.692880953972
 51
125.6175774751251
  0
ARC
  5
384
330
1F
100
AcDbEntity
  8
0
  6
SLD-Solid
 62
     7
370
    25
100
AcDbCircle
 10
80.009642242643
 20
53.6873180804003
 30
0.0
 40
0.0283424269131131
100
AcDbArc
 50
350.7859630095456
 51
129.2032852356934
  0
ARC
  5
385
330
1F
100
AcDbEntity
  8
0
  6
SLD-Solid
 62
     7
370
    25
100
AcDbCircle
 10
69.14095138879397
 20
59.95773885080492
 30
0.0
 40
0.0326432226100268
100
AcDbArc
 50
65.69288095392119
 51
125.617577475226
  0
LINE
  5
386
330
1F
100
AcDbEntity
  8
0
  6
SLD-Solid
 62
     7
370
    25
100
AcDbLine
 10
80.03761896908898
 20
53.62979491886414
 30
0.0
 11
80.03761896908898
 21
53.68277980532145
 31
0.0
  0
ARC
  5
387
330
1F
100
AcDbEntity
  8
0
  6
SLD-Solid
 62
     7
370
    25
100
AcDbCircle
 10
80.05323891724716
 20
53.20544127532033
 30
0.0
 40
0.028764578143442
100
AcDbArc
 50
290.8089894225358
 51
15.11943027151264
  0
ARC
  5
388
330
1F
100
AcDbEntity
  8
0
  6
SLD-Solid
 62
     7
370
    25
100
AcDbCircle
 10
80.04998674452234
 20
46.85940157540833
 30
0.0
 40
0.0326407591743147
100
AcDbArc
 50
294.3746582936922
 51
354.3052007487772
  0
LINE
  5
389
330
1F
100
AcDbEntity
  8
0
  6
SLD-Solid
 62
     7
370
    25
100
AcDbLine
 10
65.00415718699561
 20
52.06122335294636
 30
0.0
 11
64.98620718699563
 21
52.07158903598712
 31
0.0
  0
ARC
  5
38A
330
1F
100
AcDbEntity
  8
0
  6
SLD-Solid
 62
     7
370
    25
100
AcDbCircle
 10
65.09837834702894
 20
51.99479436021756
 30
0.0
 40
0.1152841622816825
100
AcDbArc
 50
144.8149143564209
 51
233.6487565511885
  0
LINE
  5
38B
330
1F
100
AcDbEntity
  8
0
  6
SLD-Solid
 62
     7
370
    25
100
AcDbLine
 10
68.3612071869956
 20
57.91726049437572
 30
0.0
 11
68.37915718699558
 21
57.90689481133499
 31
0.0
  0
ARC
  5
38C
330
1F
100
AcDbEntity
  8
0
  6
SLD-Solid
 62
     7
370
    25
100
AcDbCircle
 10
68.48380719351134
 20
57.85850358863843
 30
0.0
 40
0.1152967228407514
100
AcDbArc
 50
66.35692918447845
 51
155.1837008195094
  0
LINE
  5
38D
330
1F
100
AcDbEntity
  8
0
  6
SLD-Solid
 62
     7
370
    25
100
AcDbLine
 10
65.00415718699561
 20
52.06122335294636
 30
0.0
 11
68.37915718699558
 21
57.90689481133499
 31
0.0
  0
ARC
  5
38E
330
1F
100
AcDbEntity
  8
0
  6
SLD-Solid
 62
     7
370
    25
100
AcDbCircle
 10
68.10206468661114
 20
59.38389229881252
 30
0.0
 40
0.0283424269131221
100
AcDbArc
 50
50.79671476428437
 51
189.2140369904135
  0
ARC
  5
38F
330
1F
100
AcDbEntity
  8
0
  6
SLD-Solid
 62
     7
370
    25
100
AcDbCircle
 10
69.10293036567435
 20
59.95773885080487
 30
0.0
 40
0.0326432226100702
100
AcDbArc
 50
54.3824225248451
 51
114.3071190460605
  0
LWPOLYLINE
  5
390
330
1F
100
AcDbEntity
  8
0
  6
SLD-Solid
 62
     7
370
    25
100
AcDbPolyline
 90
        8
 70
   128
 43
0.0
 10
63.61319531947806
 20
51.65857699861299
 10
63.61076052870607
 20
51.6599831042792
 10
63.60920734337247
 20
51.6608802495578
 10
63.6085954515186
 20
51.66123395765887
 10
63.60894836780527
 20
51.66103063577842
 10
63.61025252985747
 20
51.66027809746232
 10
63.61245781945894
 20
51.65900526233601
 10
63.61319643044729
 20
51.65857892286814
  0
LINE
  5
391
330
1F
100
AcDbEntity
  8
0
  6
SLD-Solid
 62
     7
370
    25
100
AcDbLine
 10
63.61319531947806
 20
51.65857699861299
 30
0.0
 11
63.58781018603347
 21
51.67323152422021
 31
0.0
  0
LWPOLYLINE
  5
392
330
1F
100
AcDbEntity
  8
0
  6
SLD-Solid
 62
     7
370
    25
100
AcDbPolyline
 90
        9
 70
   128
 43
0.0
 10
63.58781018603347
 20
51.67323152422021
 10
63.58236129220235
 20
51.67637829172839
 10
63.57888537054199
 20
51.67838604098982
 10
63.57751599877248
 20
51.67917761532633
 10
63.57830580108297
 20
51.67872259498009
 10
63.58122442581359
 20
51.67703846612785
 10
63.58615971185274
 20
51.67418994889691
 10
63.59292199892565
 20
51.67028651020698
 10
63.60125141613247
 20
51.66547815701785
  0
LWPOLYLINE
  5
393
330
1F
100
AcDbEntity
  8
0
  6
SLD-Solid
 62
     7
370
    25
100
AcDbPolyline
 90
        6
 70
   128
 43
0.0
 10
68.05790141613245
 20
59.38462236591491
 10
68.04957199892564
 20
59.38943071910404
 10
68.04280971185271
 20
59.39333415779396
 10
68.03787442581357
 20
59.3961826750249
 10
68.03495580108294
 20
59.39786680387716
 10
68.03414636746808
 20
59.39833328996003
  0
ARC
  5
394
330
1F
100
AcDbEntity
  8
0
  6
SLD-Solid
 62
     7
370
    25
100
AcDbCircle
 10
63.6114571902983
 20
51.59777760411907
 30
0.0
 40
0.0283363340625406
100
AcDbArc
 50
110.7834207994459
 51
249.2165792005549
  0
LINE
  5
395
330
1F
100
AcDbEntity
  8
0
  6
SLD-Solid
 62
     7
370
    25
100
AcDbLine
 10
68.07408796016516
 20
59.37935402373369
 30
0.0
 11
68.07408796016516
 21
59.3752780729437
 31
0.0
  0
LINE
  5
396
330
1F
100
AcDbEntity
  8
0
  6
SLD-Solid
 62
     7
370
    25
100
AcDbLine
 10
63.61625166866418
 20
51.63284233252187
 30
0.0
 11
63.61710272671659
 21
51.63235102716594
 31
0.0
  0
LINE
  5
397
330
1F
100
AcDbEntity
  8
0
  6
SLD-Solid
 62
     7
370
    25
100
AcDbLine
 10
63.60140242625926
 20
51.62427004734772
 30
0.0
 11
63.61625166866418
 21
51.63284233252187
 31
0.0
  0
ARC
  5
398
330
1F
100
AcDbEntity
  8
0
  6
SLD-Solid
 62
     7
370
    25
100
AcDbCircle
 10
63.62953462247987
 20
51.62917674949092
 30
0.0
 40
0.0288561250801875
100
AcDbArc
 50
148.8562722007796
 51
178.0435013568726
  0
LINE
  5
399
330
1F
100
AcDbEntity
  8
0
  6
SLD-Solid
 62
     7
370
    25
100
AcDbLine
 10
63.60483745510179
 20
51.64410075291302
 30
0.0
 11
63.61319531947806
 21
51.65857699861299
 31
0.0
  0
LINE
  5
39A
330
1F
100
AcDbEntity
  8
0
  6
SLD-Solid
 62
     7
370
    25
100
AcDbLine
 10
68.07409349193284
 20
59.38017362526703
 30
0.0
 11
68.06985059394431
 21
59.37772425239461
 31
0.0
  0
LINE
  5
39B
330
1F
100
AcDbEntity
  8
0
  6
SLD-Solid
 62
     7
370
    25
100
AcDbLine
 10
63.60069531947808
 20
51.63016191801166
 30
0.0
 11
63.60069531947808
 21
51.62385545433948
 31
0.0
  0
LINE
  5
39C
330
1F
100
AcDbEntity
  8
0
  6
SLD-Solid
 62
     7
370
    25
100
AcDbLine
 10
63.57531018603348
 20
51.64481644361887
 30
0.0
 11
63.60069531947808
 21
51.63016191801166
 31
0.0
  0
ARC
  5
39D
330
1F
100
AcDbEntity
  8
0
  6
SLD-Solid
 62
     7
370
    25
100
AcDbCircle
 10
63.60414948903502
 20
51.6438312750982
 30
0.0
 40
0.0288561250799332
100
AcDbArc
 50
148.8562722006062
 51
178.0435013569968
  0
LINE
  5
39E
330
1F
100
AcDbEntity
  8
0
  6
SLD-Solid
 62
     7
370
    25
100
AcDbLine
 10
63.60483745510179
 20
51.64410075291302
 30
0.0
 11
63.57945232165721
 21
51.65875527852025
 31
0.0
  0
LINE
  5
39F
330
1F
100
AcDbEntity
  8
0
  6
SLD-Solid
 62
     7
370
    25
100
AcDbLine
 10
63.57945232165721
 20
51.65875527852025
 30
0.0
 11
63.58781018603347
 21
51.67323152422021
 31
0.0
  0
LINE
  5
3A0
330
1F
100
AcDbEntity
  8
0
  6
SLD-Solid
 62
     7
370
    25
100
AcDbLine
 10
69.06384597119533
 20
59.9808546207659
 30
0.0
 11
68.04446515911728
 21
59.39237860401746
 31
0.0
  0
LINE
  5
3A1
330
1F
100
AcDbEntity
  8
0
  6
SLD-Solid
 62
     7
370
    25
100
AcDbLine
 10
63.57531018603348
 20
51.64481644361887
 30
0.0
 11
63.57531018603349
 21
50.68070740689402
 31
0.0
  0
ARC
  5
3A2
330
1F
100
AcDbEntity
  8
0
  6
SLD-Solid
 62
     7
370
    25
100
AcDbCircle
 10
69.07263357284084
 20
59.96858818089232
 30
0.0
 40
0.015089317077072
100
AcDbArc
 50
65.69288095388949
 51
125.6175774751126
  0
ELLIPSE
  5
3A3
330
1F
100
AcDbEntity
  8
0
  6
SLD-Solid
 62
     8
370
    25
100
AcDbEllipse
 10
74.54317275833984
 20
43.68369798568386
 30
0.0
 11
0.0228506705711311
 21
0.1018821024777594
 31
0.0
210
0.0
220
0.0
230
1.0
 40
0.2648025153114953
 41
2.273541084761749
 42
3.05165866425242
  0
ELLIPSE
  5
3A4
330
1F
100
AcDbEntity
  8
0
  6
SLD-Solid
 62
     8
370
    25
100
AcDbEllipse
 10
74.54317275833984
 20
43.68369798568386
 30
0.0
 11
-0.0228506705711311
 21
0.1018821024777594
 31
0.0
210
0.0
220
0.0
230
1.0
 40
0.2648025153114953
 41
3.231438293736166
 42
4.009644222417556
  0
ELLIPSE
  5
3A5
330
1F
100
AcDbEntity
  8
0
  6
SLD-Solid
 62
     8
370
    25
100
AcDbEllipse
 10
63.60776638728993
 20
49.99657371035292
 30
0.0
 11
0.1015141707875458
 21
0.04319830687110482
 31
0.0
210
0.0
220
0.0
230
1.0
 40
0.7115739227582814
 41
2.847566348661538
 42
3.633045776121107
  0
ARC
  5
3A6
330
1F
100
AcDbEntity
  8
0
  6
SLD-Solid
 62
     8
370
    25
100
AcDbCircle
 10
63.51207856229584
 20
49.9990690291979
 30
0.0
 40
0.0251469639247407
100
AcDbArc
 50
185.6947992512487
 51
245.6253417063532
  0
LINE
  5
3A7
330
1F
100
AcDbEntity
  8
0
  6
SLD-Solid
 62
     8
370
    25
100
AcDbLine
 10
63.54412677698313
 20
50.65388840042063
 30
0.0
 11
63.54412677698313
 21
50.64572431930242
 31
0.0
  0
LINE
  5
3A8
330
1F
100
AcDbEntity
  8
0
  6
SLD-Solid
 62
     8
370
    25
100
AcDbLine
 10
80.04734380788435
 20
50.03218423477875
 30
0.0
 11
80.01828171917766
 21
50.04896142147665
 31
0.0
  0
LINE
  5
3A9
330
1F
100
AcDbEntity
  8
0
  6
SLD-Solid
 62
     8
370
    25
100
AcDbLine
 10
80.06076595223057
 20
50.0725209094688
 30
0.0
 11
80.03170386352389
 21
50.08929809616671
 31
0.0
  0
LINE
  5
3AA
330
1F
100
AcDbEntity
  8
0
  6
SLD-Solid
 62
     8
370
    25
100
AcDbLine
 10
79.96759581194534
 20
27.24955917721215
 30
0.0
 11
79.94717995893775
 21
27.26134499828519
 31
0.0
  0
LINE
  5
3AB
330
1F
100
AcDbEntity
  8
0
  6
SLD-Solid
 62
     8
370
    25
100
AcDbLine
 10
79.99022322894331
 20
27.28875101298165
 30
0.0
 11
79.98734905085809
 21
27.2904102406726
 31
0.0
  0
LINE
  5
3AC
330
1F
100
AcDbEntity
  8
0
  6
SLD-Solid
 62
     8
370
    25
100
AcDbLine
 10
74.85770605698137
 20
24.22118665222001
 30
0.0
 11
74.85770605698139
 21
43.74980726792153
 31
0.0
  0
LINE
  5
3AD
330
1F
100
AcDbEntity
  8
0
  6
SLD-Solid
 62
     8
370
    25
100
AcDbLine
 10
74.46172625951691
 20
43.61524912253691
 30
0.0
 11
74.46172625951691
 21
24.22118665222001
 31
0.0
  0
LINE
  5
3AE
330
1F
100
AcDbEntity
  8
0
  6
SLD-Solid
 62
     8
370
    25
100
AcDbLine
 10
64.11594922961427
 20
30.19367660355968
 30
0.0
 11
64.11594922961427
 21
49.58773907387656
 31
0.0
  0
LINE
  5
3AF
330
1F
100
AcDbEntity
  8
0
  6
SLD-Solid
 62
     8
370
    25
100
AcDbLine
 10
79.97193616699433
 20
46.70218946720988
 30
0.0
 11
79.97193616699433
 21
27.27563645299409
 31
0.0
  0
LINE
  5
3B0
330
1F
100
AcDbEntity
  8
0
  6
SLD-Solid
 62
     8
370
    25
100
AcDbLine
 10
74.24973564651718
 20
24.3943550401415
 30
0.0
 11
74.24959422516095
 21
24.39427339933032
 31
0.0
  0
LINE
  5
3B1
330
1F
100
AcDbEntity
  8
0
  6
SLD-Solid
 62
     8
370
    25
100
AcDbLine
 10
75.06969664699429
 20
24.39435505341152
 30
0.0
 11
75.06983809133735
 21
24.39427339933033
 31
0.0
  0
LINE
  5
3B2
330
1F
100
AcDbEntity
  8
0
  6
SLD-Solid
 62
     8
370
    25
100
AcDbLine
 10
74.56297174821307
 20
44.30753994316684
 30
0.0
 11
74.56297174821306
 21
45.29629077260991
 31
0.0
  0
LINE
  5
3B3
330
1F
100
AcDbEntity
  8
0
  6
SLD-Solid
 62
     8
370
    25
100
AcDbLine
 10
74.47118928801505
 20
44.33766540249309
 30
0.0
 11
74.47118928801505
 21
45.29629077260991
 31
0.0
  0
LINE
  5
3B4
330
1F
100
AcDbEntity
  8
0
  6
SLD-Solid
 62
     8
370
    25
100
AcDbLine
 10
80.06345763797705
 20
47.4421953247839
 30
0.0
 11
80.06345763797704
 21
50.02509985782851
 31
0.0
  0
LINE
  5
3B5
330
1F
100
AcDbEntity
  8
0
  6
SLD-Solid
 62
     8
370
    25
100
AcDbLine
 10
80.06345763797704
 20
50.09154966129124
 30
0.0
 11
80.06345763797701
 21
53.17855301203661
 31
0.0
  0
LINE
  5
3B6
330
1F
100
AcDbEntity
  8
0
  6
SLD-Solid
 62
     8
370
    25
100
AcDbLine
 10
63.60140242625926
 20
50.61265979077358
 30
0.0
 11
63.60140242625926
 21
51.57128516089043
 31
0.0
  0
LINE
  5
3B7
330
1F
100
AcDbEntity
  8
0
  6
SLD-Solid
 62
     8
370
    25
100
AcDbLine
 10
80.02418037590162
 20
53.67502187060667
 30
0.0
 11
80.03761896908898
 21
53.68277980532145
 31
0.0
  0
LINE
  5
3B8
330
1F
100
AcDbEntity
  8
0
  6
SLD-Solid
 62
     8
370
    25
100
AcDbLine
 10
63.61354181506866
 20
51.65838075424255
 30
0.0
 11
63.60125141613247
 21
51.66547815701785
 31
0.0
  0
LINE
  5
3B9
330
1F
100
AcDbEntity
  8
0
  6
SLD-Solid
 62
     8
370
    25
100
AcDbLine
 10
68.11997919026417
 20
59.40569179757405
 30
0.0
 11
68.11997919026417
 21
59.40585507919641
 31
0.0
  0
LINE
  5
3BA
330
1F
100
AcDbEntity
  8
0
  6
SLD-Solid
 62
     8
370
    25
100
AcDbLine
 10
68.0859481033006
 20
59.37250730883802
 30
0.0
 11
68.07408796016516
 21
59.37935402373369
 31
0.0
  0
LINE
  5
3BB
330
1F
100
AcDbEntity
  8
0
  6
SLD-Solid
 62
     8
370
    25
100
AcDbLine
 10
63.60140242625926
 20
51.57128516089043
 30
0.0
 11
63.60154384761549
 21
51.57136680170161
 31
0.0
  0
LINE
  5
3BC
330
1F
100
AcDbEntity
  8
0
  6
SLD-Solid
 62
     8
370
    25
100
AcDbLine
 10
63.61011553886478
 20
51.61924007450654
 30
0.0
 11
63.60140242625926
 21
51.62427004734772
 31
0.0
  0
LINE
  5
3BD
330
1F
100
AcDbEntity
  8
0
  6
SLD-Solid
 62
     8
370
    25
100
AcDbLine
 10
63.61319643044729
 20
51.65857892286814
 30
0.0
 11
63.61319531947806
 21
51.65857699861299
 31
0.0
  0
LINE
  5
3BE
330
1F
100
AcDbEntity
  8
0
  6
SLD-Solid
 62
     8
370
    25
100
AcDbLine
 10
69.06384597119533
 20
59.9808546207659
 30
0.0
 11
69.07092416683955
 21
59.97676846539675
 31
0.0
  0
SPLINE
  5
3BF
330
1F
100
AcDbEntity
  8
0
  6
SLD-Solid
 62
     7
370
    25
100
AcDbSpline
210
0.0
220
0.0
230
1.0
 70
    12
 71
     3
 72
    10
 73
     6
 74
     0
 42
0.00000001
 43
0.00000001
 40
0.0
 40
0.0
 40
0.0
 40
0.0
 40
0.2940141342936108
 40
0.6787462971405911
 40
1.0
 40
1.0
 40
1.0
 40
1.0
 10
46.71975086104354
 20
40.35982864213595
 30
0.0
 41
1.0
 10
46.71806884809854
 20
40.35807549610042
 30
0.0
 41
1.0
 10
46.71418583730074
 20
40.35402827101438
 30
0.0
 41
1.0
 10
46.70553988182426
 20
40.35032609567011
 30
0.0
 41
1.0
 10
46.69898404611615
 20
40.34980826918187
 30
0.0
 41
1.0
 10
46.6960008610428
 20
40.34957263602708
 30
0.0
 41
1.0
  0
LINE
  5
3C0
330
1F
100
AcDbEntity
  8
0
  6
SLD-Solid
 62
     7
370
    25
100
AcDbLine
 10
46.6960008610428
 20
40.28707263602708
 30
0.0
 11
46.71682144431001
 21
40.28932204277481
 31
0.0
  0
LINE
  5
3C1
330
1F
100
AcDbEntity
  8
0
  6
SLD-Solid
 62
     7
370
    25
100
AcDbLine
 10
46.6960008610428
 20
40.34957263602708
 30
0.0
 11
46.56375086104355
 21
40.34957263602708
 31
0.0
  0
LINE
  5
3C2
330
1F
100
AcDbEntity
  8
0
  6
SLD-Solid
 62
     7
370
    25
100
AcDbLine
 10
46.28375086104355
 20
40.34957263602708
 30
0.0
 11
46.12775086104355
 21
40.34957263602708
 31
0.0
  0
LINE
  5
3C3
330
1F
100
AcDbEntity
  8
0
  6
SLD-Solid
 62
     7
370
    25
100
AcDbLine
 10
45.45585086104269
 20
40.34957263602707
 30
0.0
 11
45.41475086104281
 21
40.34957263602707
 31
0.0
  0
LINE
  5
3C4
330
1F
100
AcDbEntity
  8
0
  6
SLD-Solid
 62
     7
370
    25
100
AcDbLine
 10
45.41475086104281
 20
40.28707263602707
 30
0.0
 11
45.45585086104269
 21
40.28707263602707
 31
0.0
  0
LINE
  5
3C5
330
1F
100
AcDbEntity
  8
0
  6
SLD-Solid
 62
     7
370
    25
100
AcDbLine
 10
46.12775086104355
 20
40.28707263602708
 30
0.0
 11
46.28375086104355
 21
40.28707263602708
 31
0.0
  0
LINE
  5
3C6
330
1F
100
AcDbEntity
  8
0
  6
SLD-Solid
 62
     7
370
    25
100
AcDbLine
 10
46.56375086104355
 20
40.28707263602708
 30
0.0
 11
46.6960008610428
 21
40.28707263602708
 31
0.0
  0
SPLINE
  5
3C7
330
1F
100
AcDbEntity
  8
0
  6
SLD-Solid
 62
     7
370
    25
100
AcDbSpline
210
0.0
220
0.0
230
1.0
 70
    12
 71
     3
 72
    10
 73
     6
 74
     0
 42
0.00000001
 43
0.00000001
 40
0.0
 40
0.0
 40
0.0
 40
0.0
 40
0.2713999425880393
 40
0.6630113371080812
 40
1.0
 40
1.0
 40
1.0
 40
1.0
 10
59.79150086104276
 20
40.34957263602708
 30
0.0
 41
1.0
 10
59.78899698067261
 20
40.34973845802517
 30
0.0
 41
1.0
 10
59.78288017365951
 20
40.35014354972721
 30
0.0
 41
1.0
 10
59.77413015826475
 20
40.35351732676769
 30
0.0
 41
1.0
 10
59.76976829122072
 20
40.35770677784066
 30
0.0
 41
1.0
 10
59.7677508610436
 20
40.35964446299588
 30
0.0
 41
1.0
  0
LINE
  5
3C8
330
1F
100
AcDbEntity
  8
0
  6
SLD-Solid
 62
     7
370
    25
100
AcDbLine
 10
61.07275086104277
 20
40.34957263602708
 30
0.0
 11
61.03165086104269
 21
40.34957263602709
 31
0.0
  0
LINE
  5
3C9
330
1F
100
AcDbEntity
  8
0
  6
SLD-Solid
 62
     7
370
    25
100
AcDbLine
 10
60.35975086104359
 20
40.34957263602708
 30
0.0
 11
60.20375086104359
 21
40.34957263602708
 31
0.0
  0
LINE
  5
3CA
330
1F
100
AcDbEntity
  8
0
  6
SLD-Solid
 62
     7
370
    25
100
AcDbLine
 10
59.92375086104359
 20
40.34957263602708
 30
0.0
 11
59.79150086104276
 21
40.34957263602708
 31
0.0
  0
LINE
  5
3CB
330
1F
100
AcDbEntity
  8
0
  6
SLD-Solid
 62
     7
370
    25
100
AcDbLine
 10
59.76929651295167
 20
40.28976784791631
 30
0.0
 11
59.79150086104278
 21
40.28707263602708
 31
0.0
  0
LINE
  5
3CC
330
1F
100
AcDbEntity
  8
0
  6
SLD-Solid
 62
     7
370
    25
100
AcDbLine
 10
59.79150086104278
 20
40.28707263602708
 30
0.0
 11
59.92375086104359
 21
40.28707263602708
 31
0.0
  0
LINE
  5
3CD
330
1F
100
AcDbEntity
  8
0
  6
SLD-Solid
 62
     7
370
    25
100
AcDbLine
 10
60.20375086104359
 20
40.28707263602708
 30
0.0
 11
60.35975086104359
 21
40.28707263602708
 31
0.0
  0
LINE
  5
3CE
330
1F
100
AcDbEntity
  8
0
  6
SLD-Solid
 62
     7
370
    25
100
AcDbLine
 10
61.03165086104269
 20
40.28707263602708
 30
0.0
 11
61.07275086104277
 21
40.28707263602708
 31
0.0
  0
LINE
  5
3CF
330
1F
100
AcDbEntity
  8
0
  6
SLD-Solid
 62
     7
370
    25
100
AcDbLine
 10
61.03165086104267
 20
37.13332263602678
 30
0.0
 11
61.0708508610427
 21
37.13332263602678
 31
0.0
  0
LINE
  5
3D0
330
1F
100
AcDbEntity
  8
0
  6
SLD-Solid
 62
     7
370
    25
100
AcDbLine
 10
61.0708508610427
 20
37.13332263602678
 30
0.0
 11
61.07085086104269
 21
36.33332263602678
 31
0.0
  0
ARC
  5
3D1
330
1F
100
AcDbEntity
  8
0
  6
SLD-Solid
 62
     7
370
    25
100
AcDbCircle
 10
60.97085086104269
 20
36.33332263602678
 30
0.0
 40
0.1000000000000038
100
AcDbArc
 50
197.4576031236461
 51
0.0
  0
ARC
  5
3D2
330
1F
100
AcDbEntity
  8
0
  6
SLD-Solid
 62
     7
370
    25
100
AcDbCircle
 10
60.97085086104269
 20
36.33332263602678
 30
0.0
 40
0.0500000000000085
100
AcDbArc
 50
216.8698976456559
 51
0.0
  0
ARC
  5
3D3
330
1F
100
AcDbEntity
  8
0
  6
SLD-Solid
 62
     7
370
    25
100
AcDbCircle
 10
45.50585086104269
 20
36.33332263602685
 30
0.0
 40
0.1000000000000063
100
AcDbArc
 50
180.0
 51
342.5423968763645
  0
LINE
  5
3D4
330
1F
100
AcDbEntity
  8
0
  6
SLD-Solid
 62
     7
370
    25
100
AcDbLine
 10
45.4058508610427
 20
37.13332263602685
 30
0.0
 11
45.40585086104269
 21
36.33332263602685
 31
0.0
  0
LINE
  5
3D5
330
1F
100
AcDbEntity
  8
0
  6
SLD-Solid
 62
     7
370
    25
100
AcDbLine
 10
45.45585086104269
 20
37.13332263602685
 30
0.0
 11
45.4058508610427
 21
37.13332263602685
 31
0.0
  0
ARC
  5
3D6
330
1F
100
AcDbEntity
  8
0
  6
SLD-Solid
 62
     7
370
    25
100
AcDbCircle
 10
45.50585086104269
 20
36.33332263602685
 30
0.0
 40
0.0500000000000042
100
AcDbArc
 50
180.0
 51
324.788986287249
  0
LINE
  5
3D7
330
1F
100
AcDbEntity
  8
0
  6
SLD-Solid
 62
     7
370
    25
100
AcDbLine
 10
45.55585086104269
 20
36.24672009564841
 30
0.0
 11
45.648181766555
 21
36.24672009564841
 31
0.0
  0
LINE
  5
3D8
330
1F
100
AcDbEntity
  8
0
  6
SLD-Solid
 62
     7
370
    25
100
AcDbLine
 10
60.92085086104269
 20
36.24672009564833
 30
0.0
 11
60.83931995553137
 21
36.24672009564834
 31
0.0
  0
LINE
  5
3D9
330
1F
100
AcDbEntity
  8
0
  6
SLD-Solid
 62
     7
370
    25
100
AcDbLine
 10
46.6960008610428
 20
40.32878680300769
 30
0.0
 11
46.6960008610428
 21
40.28887669047592
 31
0.0
  0
LINE
  5
3DA
330
1F
100
AcDbEntity
  8
0
  6
SLD-Solid
 62
     7
370
    25
100
AcDbLine
 10
45.41475086104281
 20
40.28887669047591
 30
0.0
 11
45.41475086104281
 21
40.32878680300768
 31
0.0
  0
LINE
  5
3DB
330
1F
100
AcDbEntity
  8
0
  6
SLD-Solid
 62
     7
370
    25
100
AcDbLine
 10
45.41475086104281
 20
40.32878680300768
 30
0.0
 11
45.41475086104281
 21
40.34957263602707
 31
0.0
  0
LINE
  5
3DC
330
1F
100
AcDbEntity
  8
0
  6
SLD-Solid
 62
     7
370
    25
100
AcDbLine
 10
45.41475086104281
 20
40.28707263602707
 30
0.0
 11
45.41475086104281
 21
40.28887669047591
 31
0.0
  0
LINE
  5
3DD
330
1F
100
AcDbEntity
  8
0
  6
SLD-Solid
 62
     7
370
    25
100
AcDbLine
 10
59.79150086104278
 20
40.28887669047592
 30
0.0
 11
59.79150086104278
 21
40.32878680300769
 31
0.0
  0
LINE
  5
3DE
330
1F
100
AcDbEntity
  8
0
  6
SLD-Solid
 62
     7
370
    25
100
AcDbLine
 10
61.07275086104277
 20
40.32878680300769
 30
0.0
 11
61.07275086104277
 21
40.28887669047592
 31
0.0
  0
LINE
  5
3DF
330
1F
100
AcDbEntity
  8
0
  6
SLD-Solid
 62
     7
370
    25
100
AcDbLine
 10
61.07275086104277
 20
40.34957263602708
 30
0.0
 11
61.07275086104277
 21
40.32878680300769
 31
0.0
  0
LINE
  5
3E0
330
1F
100
AcDbEntity
  8
0
  6
SLD-Solid
 62
     7
370
    25
100
AcDbLine
 10
61.07275086104277
 20
40.28887669047592
 30
0.0
 11
61.07275086104277
 21
40.28707263602708
 31
0.0
  0
LINE
  5
3E1
330
1F
100
AcDbEntity
  8
0
  6
SLD-Solid
 62
     7
370
    25
100
AcDbLine
 10
45.70808176655438
 20
36.25832263602747
 30
0.0
 11
45.70808176655438
 21
36.30332263602699
 31
0.0
  0
LINE
  5
3E2
330
1F
100
AcDbEntity
  8
0
  6
SLD-Solid
 62
     7
370
    25
100
AcDbLine
 10
60.77941995553137
 20
36.25832263602762
 30
0.0
 11
60.77941995553137
 21
36.30332263602691
 31
0.0
  0
LINE
  5
3E3
330
1F
100
AcDbEntity
  8
0
  6
SLD-Solid
 62
     7
370
    25
100
AcDbLine
 10
47.85818176655437
 20
34.25305567240439
 30
0.0
 11
47.85818176655437
 21
34.38332263602762
 31
0.0
  0
ARC
  5
3E4
330
1F
100
AcDbEntity
  8
0
  6
SLD-Solid
 62
     7
370
    25
100
AcDbCircle
 10
47.95818176655438
 20
34.13332263602762
 30
0.0
 40
0.1559999999999999
100
AcDbArc
 50
129.8683415500113
 51
50.13165844998869
  0
LINE
  5
3E5
330
1F
100
AcDbEntity
  8
0
  6
SLD-Solid
 62
     7
370
    25
100
AcDbLine
 10
48.05818176655438
 20
34.38332263602762
 30
0.0
 11
48.05818176655438
 21
34.25305567240439
 31
0.0
  0
ARC
  5
3E6
330
1F
100
AcDbEntity
  8
0
  6
SLD-Solid
 62
     7
370
    25
100
AcDbCircle
 10
47.95818176655438
 20
34.38332263602762
 30
0.0
 40
0.1000000000000014
100
AcDbArc
 50
0.0
 51
180.0
  0
SPLINE
  5
3E7
330
1F
100
AcDbEntity
  8
0
  6
SLD-Solid
 62
     7
370
    25
100
AcDbSpline
210
0.0
220
0.0
230
1.0
 70
    15
 71
     3
 72
    39
 73
    35
 74
     0
 42
0.00000001
 43
0.00000001
 40
0.0
 40
0.0
 40
0.0
 40
0.0
 40
0.0291290081054511
 40
0.0600028324322969
 40
0.0921602034406935
 40
0.1249999999999985
 40
0.1578397965593061
 40
0.1899971675676986
 40
0.2208709918945485
 40
0.2499999999999991
 40
0.2791290081054489
 40
0.3100028324322961
 40
0.3421602034406933
 40
0.3749999999999993
 40
0.407839796559306
 40
0.4399971675677012
 40
0.4708709918945488
 40
0.4999999999999995
 40
0.5291290081054504
 40
0.5600028324322999
 40
0.5921602034406934
 40
0.6250000000000001
 40
0.6578397965593059
 40
0.6899971675677041
 40
0.7208709918945485
 40
0.7499999999999992
 40
0.7791290081054489
 40
0.8100028324322991
 40
0.8421602034406951
 40
0.8750000000000002
 40
0.907839796559306
 40
0.9399971675677018
 40
0.9708709918945486
 40
1.0
 40
1.0
 40
1.0
 40
1.0
 10
48.14257516483658
 20
34.57770137043268
 30
0.0
 41
1.0
 10
48.16145637356025
 20
34.56541877220026
 30
0.0
 41
1.0
 10
48.20034976804401
 20
34.54011785289311
 30
0.0
 41
1.0
 10
48.24961493145609
 20
34.48798241341201
 30
0.0
 41
1.0
 10
48.28984179865585
 20
34.42547135840584
 30
0.0
 41
1.0
 10
48.31693379671756
 20
34.35444061132164
 30
0.0
 41
1.0
 10
48.32894296567091
 20
34.27942409294585
 30
0.0
 41
1.0
 10
48.32554616291019
 20
34.2050627512527
 30
0.0
 41
1.0
 10
48.30829301444498
 20
34.1356595123553
 30
0.0
 41
1.0
 10
48.2793472635203
 20
34.07289758668971
 30
0.0
 41
1.0
 10
48.23946688446976
 20
34.01644915834989
 30
0.0
 41
1.0
 10
48.18798795037835
 20
33.9668049381492
 30
0.0
 41
1.0
 10
48.12528964162811
 20
33.92668618857343
 30
0.0
 41
1.0
 10
48.05431079275822
 20
33.89956422522772
 30
0.0
 41
1.0
 10
47.97928032642336
 20
33.88756310962576
 30
0.0
 41
1.0
 10
47.90492261845936
 20
33.89095781432326
 30
0.0
 41
1.0
 10
47.83551846110932
 20
33.90821149309047
 30
0.0
 41
1.0
 10
47.77275676462267
 20
33.93715711168836
 30
0.0
 41
1.0
 10
47.71630827534532
 20
33.97703752593145
 30
0.0
 41
1.0
 10
47.66666407254916
 20
34.02851644994126
 30
0.0
 41
1.0
 10
47.62654531806078
 20
34.0912147616565
 30
0.0
 41
1.0
 10
47.59942335587839
 20
34.16219360936127
 30
0.0
 41
1.0
 10
47.58742224070135
 20
34.23722407728683
 30
0.0
 41
1.0
 10
47.5908169426269
 20
34.31158178022672
 30
0.0
 41
1.0
 10
47.60807063142608
 20
34.38098595501
 30
0.0
 41
1.0
 10
47.6370162148468
 20
34.44374759055021
 30
0.0
 41
1.0
 10
47.6768967614013
 20
34.50019630901539
 30
0.0
 41
1.0
 10
47.72837515515874
 20
34.54983959333023
 30
0.0
 41
1.0
 10
47.79107556474415
 20
34.58996198165924
 30
0.0
 41
1.0
 10
47.86204635983773
 20
34.61706999545519
 30
0.0
 41
1.0
 10
47.93710679029329
 20
34.62912301043657
 30
0.0
 41
1.0
 10
48.01135638554588
 20
34.62554104903
 30
0.0
 41
1.0
 10
48.08113958228002
 20
34.6089438857341
 30
0.0
 41
1.0
 10
48.12249751838099
 20
34.58791167772532
 30
0.0
 41
1.0
 10
48.14257516483658
 20
34.57770137043268
 30
0.0
 41
1.0
  0
LINE
  5
3E8
330
1F
100
AcDbEntity
  8
0
  6
SLD-Solid
 62
     7
370
    25
100
AcDbLine
 10
58.48318176655438
 20
34.25305567240439
 30
0.0
 11
58.48318176655438
 21
34.38332263602762
 31
0.0
  0
ARC
  5
3E9
330
1F
100
AcDbEntity
  8
0
  6
SLD-Solid
 62
     7
370
    25
100
AcDbCircle
 10
58.58318176655437
 20
34.13332263602762
 30
0.0
 40
0.1560000000000044
100
AcDbArc
 50
129.8683415500056
 51
50.13165844998669
  0
LINE
  5
3EA
330
1F
100
AcDbEntity
  8
0
  6
SLD-Solid
 62
     7
370
    25
100
AcDbLine
 10
58.68318176655438
 20
34.38332263602762
 30
0.0
 11
58.68318176655438
 21
34.25305567240439
 31
0.0
  0
ARC
  5
3EB
330
1F
100
AcDbEntity
  8
0
  6
SLD-Solid
 62
     7
370
    25
100
AcDbCircle
 10
58.58318176655437
 20
34.38332263602762
 30
0.0
 40
0.1000000000000085
100
AcDbArc
 50
0.0
 51
180.0
  0
SPLINE
  5
3EC
330
1F
100
AcDbEntity
  8
0
  6
SLD-Solid
 62
     7
370
    25
100
AcDbSpline
210
0.0
220
0.0
230
1.0
 70
    15
 71
     3
 72
    39
 73
    35
 74
     0
 42
0.00000001
 43
0.00000001
 40
0.0
 40
0.0
 40
0.0
 40
0.0
 40
0.0291290081054505
 40
0.0600028324322977
 40
0.0921602034406931
 40
0.1249999999999996
 40
0.1578397965593053
 40
0.1899971675676994
 40
0.2208709918945495
 40
0.2500000000000006
 40
0.2791290081054534
 40
0.3100028324322974
 40
0.3421602034406961
 40
0.3750000000000009
 40
0.4078397965593076
 40
0.439997167567702
 40
0.4708709918945498
 40
0.5000000000000009
 40
0.5291290081054514
 40
0.5600028324322986
 40
0.5921602034406929
 40
0.6250000000000011
 40
0.6578397965593049
 40
0.689997167567703
 40
0.7208709918945488
 40
0.7499999999999994
 40
0.7791290081054506
 40
0.8100028324322999
 40
0.8421602034406942
 40
0.8750000000000016
 40
0.9078397965593055
 40
0.9399971675677035
 40
0.9708709918945491
 40
1.0
 40
1.0
 40
1.0
 40
1.0
 10
58.76757516483658
 20
34.57770137043268
 30
0.0
 41
1.0
 10
58.78645637356026
 20
34.56541877220026
 30
0.0
 41
1.0
 10
58.82534976804401
 20
34.54011785289311
 30
0.0
 41
1.0
 10
58.87461493145609
 20
34.48798241341201
 30
0.0
 41
1.0
 10
58.91484179865586
 20
34.42547135840584
 30
0.0
 41
1.0
 10
58.94193379671756
 20
34.35444061132164
 30
0.0
 41
1.0
 10
58.95394296567091
 20
34.27942409294584
 30
0.0
 41
1.0
 10
58.95054616291019
 20
34.20506275125268
 30
0.0
 41
1.0
 10
58.93329301444498
 20
34.1356595123553
 30
0.0
 41
1.0
 10
58.90434726352029
 20
34.07289758668971
 30
0.0
 41
1.0
 10
58.86446688446977
 20
34.01644915834988
 30
0.0
 41
1.0
 10
58.81298795037834
 20
33.96680493814919
 30
0.0
 41
1.0
 10
58.75028964162811
 20
33.92668618857343
 30
0.0
 41
1.0
 10
58.67931079275823
 20
33.89956422522771
 30
0.0
 41
1.0
 10
58.60428032642336
 20
33.88756310962576
 30
0.0
 41
1.0
 10
58.52992261845937
 20
33.89095781432326
 30
0.0
 41
1.0
 10
58.46051846110931
 20
33.90821149309046
 30
0.0
 41
1.0
 10
58.39775676462267
 20
33.93715711168836
 30
0.0
 41
1.0
 10
58.34130827534533
 20
33.97703752593144
 30
0.0
 41
1.0
 10
58.29166407254917
 20
34.02851644994125
 30
0.0
 41
1.0
 10
58.25154531806078
 20
34.0912147616565
 30
0.0
 41
1.0
 10
58.2244233558784
 20
34.16219360936126
 30
0.0
 41
1.0
 10
58.21242224070134
 20
34.23722407728682
 30
0.0
 41
1.0
 10
58.21581694262691
 20
34.31158178022672
 30
0.0
 41
1.0
 10
58.23307063142607
 20
34.38098595500999
 30
0.0
 41
1.0
 10
58.2620162148468
 20
34.44374759055021
 30
0.0
 41
1.0
 10
58.30189676140129
 20
34.50019630901539
 30
0.0
 41
1.0
 10
58.35337515515875
 20
34.54983959333023
 30
0.0
 41
1.0
 10
58.41607556474415
 20
34.58996198165924
 30
0.0
 41
1.0
 10
58.48704635983773
 20
34.61706999545518
 30
0.0
 41
1.0
 10
58.56210679029329
 20
34.62912301043657
 30
0.0
 41
1.0
 10
58.63635638554588
 20
34.62554104903
 30
0.0
 41
1.0
 10
58.70613958228003
 20
34.6089438857341
 30
0.0
 41
1.0
 10
58.74749751838099
 20
34.58791167772532
 30
0.0
 41
1.0
 10
58.76757516483658
 20
34.57770137043268
 30
0.0
 41
1.0
  0
LINE
  5
3ED
330
1F
100
AcDbEntity
  8
0
  6
SLD-Solid
 62
     7
370
    25
100
AcDbLine
 10
47.85818176655437
 20
23.00305567240438
 30
0.0
 11
47.85818176655437
 21
23.13332263602762
 31
0.0
  0
ARC
  5
3EE
330
1F
100
AcDbEntity
  8
0
  6
SLD-Solid
 62
     7
370
    25
100
AcDbCircle
 10
47.95818176655438
 20
22.88332263602762
 30
0.0
 40
0.1559999999999999
100
AcDbArc
 50
129.8683415500113
 51
50.13165844998869
  0
LINE
  5
3EF
330
1F
100
AcDbEntity
  8
0
  6
SLD-Solid
 62
     7
370
    25
100
AcDbLine
 10
48.05818176655438
 20
23.13332263602762
 30
0.0
 11
48.05818176655438
 21
23.00305567240438
 31
0.0
  0
ARC
  5
3F0
330
1F
100
AcDbEntity
  8
0
  6
SLD-Solid
 62
     7
370
    25
100
AcDbCircle
 10
47.95818176655438
 20
23.13332263602762
 30
0.0
 40
0.1000000000000014
100
AcDbArc
 50
0.0
 51
180.0
  0
SPLINE
  5
3F1
330
1F
100
AcDbEntity
  8
0
  6
SLD-Solid
 62
     7
370
    25
100
AcDbSpline
210
0.0
220
0.0
230
1.0
 70
    15
 71
     3
 72
    39
 73
    35
 74
     0
 42
0.00000001
 43
0.00000001
 40
0.0
 40
0.0
 40
0.0
 40
0.0
 40
0.0291290081054504
 40
0.0600028324322981
 40
0.092160203440694
 40
0.1249999999999999
 40
0.1578397965593065
 40
0.1899971675676999
 40
0.2208709918945488
 40
0.2500000000000002
 40
0.2791290081054513
 40
0.3100028324322978
 40
0.3421602034406941
 40
0.3749999999999999
 40
0.4078397965593064
 40
0.4399971675677016
 40
0.4708709918945489
 40
0.5
 40
0.5291290081054509
 40
0.560002832432299
 40
0.5921602034406943
 40
0.6250000000000002
 40
0.657839796559306
 40
0.6899971675677021
 40
0.7208709918945483
 40
0.7499999999999997
 40
0.77912900810545
 40
0.8100028324322992
 40
0.8421602034406942
 40
0.8749999999999998
 40
0.9078397965593059
 40
0.9399971675677015
 40
0.9708709918945485
 40
1.0
 40
1.0
 40
1.0
 40
1.0
 10
48.14257516483658
 20
23.32770137043268
 30
0.0
 41
1.0
 10
48.16145637356025
 20
23.31541877220026
 30
0.0
 41
1.0
 10
48.20034976804401
 20
23.29011785289312
 30
0.0
 41
1.0
 10
48.24961493145609
 20
23.23798241341201
 30
0.0
 41
1.0
 10
48.28984179865585
 20
23.17547135840584
 30
0.0
 41
1.0
 10
48.31693379671756
 20
23.10444061132164
 30
0.0
 41
1.0
 10
48.32894296567091
 20
23.02942409294584
 30
0.0
 41
1.0
 10
48.32554616291019
 20
22.9550627512527
 30
0.0
 41
1.0
 10
48.30829301444498
 20
22.8856595123553
 30
0.0
 41
1.0
 10
48.2793472635203
 20
22.82289758668971
 30
0.0
 41
1.0
 10
48.23946688446977
 20
22.76644915834989
 30
0.0
 41
1.0
 10
48.18798795037835
 20
22.71680493814919
 30
0.0
 41
1.0
 10
48.12528964162812
 20
22.67668618857342
 30
0.0
 41
1.0
 10
48.05431079275823
 20
22.64956422522771
 30
0.0
 41
1.0
 10
47.97928032642336
 20
22.63756310962576
 30
0.0
 41
1.0
 10
47.90492261845937
 20
22.64095781432326
 30
0.0
 41
1.0
 10
47.83551846110932
 20
22.65821149309046
 30
0.0
 41
1.0
 10
47.77275676462268
 20
22.68715711168835
 30
0.0
 41
1.0
 10
47.71630827534532
 20
22.72703752593145
 30
0.0
 41
1.0
 10
47.66666407254916
 20
22.77851644994125
 30
0.0
 41
1.0
 10
47.62654531806078
 20
22.84121476165651
 30
0.0
 41
1.0
 10
47.59942335587839
 20
22.91219360936126
 30
0.0
 41
1.0
 10
47.58742224070136
 20
22.98722407728682
 30
0.0
 41
1.0
 10
47.59081694262692
 20
23.06158178022672
 30
0.0
 41
1.0
 10
47.60807063142608
 20
23.13098595500999
 30
0.0
 41
1.0
 10
47.6370162148468
 20
23.19374759055021
 30
0.0
 41
1.0
 10
47.6768967614013
 20
23.25019630901539
 30
0.0
 41
1.0
 10
47.72837515515874
 20
23.29983959333023
 30
0.0
 41
1.0
 10
47.79107556474415
 20
23.33996198165923
 30
0.0
 41
1.0
 10
47.86204635983773
 20
23.36706999545519
 30
0.0
 41
1.0
 10
47.93710679029329
 20
23.37912301043658
 30
0.0
 41
1.0
 10
48.01135638554588
 20
23.37554104903
 30
0.0
 41
1.0
 10
48.08113958228002
 20
23.3589438857341
 30
0.0
 41
1.0
 10
48.12249751838099
 20
23.33791167772533
 30
0.0
 41
1.0
 10
48.14257516483658
 20
23.32770137043268
 30
0.0
 41
1.0
  0
LINE
  5
3F2
330
1F
100
AcDbEntity
  8
0
  6
SLD-Solid
 62
     7
370
    25
100
AcDbLine
 10
58.48318176655438
 20
23.00305567240438
 30
0.0
 11
58.48318176655438
 21
23.13332263602762
 31
0.0
  0
ARC
  5
3F3
330
1F
100
AcDbEntity
  8
0
  6
SLD-Solid
 62
     7
370
    25
100
AcDbCircle
 10
58.58318176655437
 20
22.88332263602762
 30
0.0
 40
0.1560000000000044
100
AcDbArc
 50
129.8683415500073
 51
50.13165844998669
  0
LINE
  5
3F4
330
1F
100
AcDbEntity
  8
0
  6
SLD-Solid
 62
     7
370
    25
100
AcDbLine
 10
58.68318176655438
 20
23.13332263602762
 30
0.0
 11
58.68318176655438
 21
23.00305567240438
 31
0.0
  0
ARC
  5
3F5
330
1F
100
AcDbEntity
  8
0
  6
SLD-Solid
 62
     7
370
    25
100
AcDbCircle
 10
58.58318176655437
 20
23.13332263602762
 30
0.0
 40
0.1000000000000085
100
AcDbArc
 50
0.0
 51
180.0
  0
SPLINE
  5
3F6
330
1F
100
AcDbEntity
  8
0
  6
SLD-Solid
 62
     7
370
    25
100
AcDbSpline
210
0.0
220
0.0
230
1.0
 70
    15
 71
     3
 72
    39
 73
    35
 74
     0
 42
0.00000001
 43
0.00000001
 40
0.0
 40
0.0
 40
0.0
 40
0.0
 40
0.0291290081054505
 40
0.0600028324322983
 40
0.0921602034406945
 40
0.1250000000000002
 40
0.157839796559306
 40
0.1899971675677022
 40
0.2208709918945491
 40
0.2499999999999994
 40
0.2791290081054514
 40
0.310002832432298
 40
0.3421602034406946
 40
0.3750000000000003
 40
0.4078397965593067
 40
0.4399971675677001
 40
0.4708709918945482
 40
0.4999999999999992
 40
0.5291290081054513
 40
0.5600028324322972
 40
0.5921602034406928
 40
0.6249999999999992
 40
0.6578397965593049
 40
0.6899971675677021
 40
0.7208709918945478
 40
0.7499999999999994
 40
0.779129008105452
 40
0.8100028324322993
 40
0.8421602034406923
 40
0.8749999999999983
 40
0.9078397965593068
 40
0.939997167567702
 40
0.9708709918945498
 40
1.0
 40
1.0
 40
1.0
 40
1.0
 10
58.76757516483658
 20
23.32770137043268
 30
0.0
 41
1.0
 10
58.78645637356026
 20
23.31541877220026
 30
0.0
 41
1.0
 10
58.82534976804401
 20
23.29011785289311
 30
0.0
 41
1.0
 10
58.87461493145609
 20
23.23798241341201
 30
0.0
 41
1.0
 10
58.91484179865585
 20
23.17547135840584
 30
0.0
 41
1.0
 10
58.94193379671756
 20
23.10444061132163
 30
0.0
 41
1.0
 10
58.95394296567092
 20
23.02942409294584
 30
0.0
 41
1.0
 10
58.95054616291019
 20
22.95506275125269
 30
0.0
 41
1.0
 10
58.93329301444497
 20
22.88565951235529
 30
0.0
 41
1.0
 10
58.90434726352029
 20
22.82289758668971
 30
0.0
 41
1.0
 10
58.86446688446977
 20
22.76644915834989
 30
0.0
 41
1.0
 10
58.81298795037834
 20
22.71680493814919
 30
0.0
 41
1.0
 10
58.75028964162811
 20
22.67668618857343
 30
0.0
 41
1.0
 10
58.67931079275823
 20
22.64956422522771
 30
0.0
 41
1.0
 10
58.60428032642336
 20
22.63756310962577
 30
0.0
 41
1.0
 10
58.52992261845937
 20
22.64095781432325
 30
0.0
 41
1.0
 10
58.46051846110932
 20
22.65821149309047
 30
0.0
 41
1.0
 10
58.39775676462267
 20
22.68715711168835
 30
0.0
 41
1.0
 10
58.34130827534533
 20
22.72703752593145
 30
0.0
 41
1.0
 10
58.29166407254915
 20
22.77851644994125
 30
0.0
 41
1.0
 10
58.25154531806078
 20
22.8412147616565
 30
0.0
 41
1.0
 10
58.2244233558784
 20
22.91219360936126
 30
0.0
 41
1.0
 10
58.21242224070134
 20
22.98722407728682
 30
0.0
 41
1.0
 10
58.21581694262692
 20
23.06158178022672
 30
0.0
 41
1.0
 10
58.23307063142607
 20
23.13098595500999
 30
0.0
 41
1.0
 10
58.2620162148468
 20
23.19374759055021
 30
0.0
 41
1.0
 10
58.30189676140129
 20
23.25019630901539
 30
0.0
 41
1.0
 10
58.35337515515875
 20
23.29983959333023
 30
0.0
 41
1.0
 10
58.41607556474415
 20
23.33996198165923
 30
0.0
 41
1.0
 10
58.48704635983772
 20
23.36706999545519
 30
0.0
 41
1.0
 10
58.56210679029329
 20
23.37912301043658
 30
0.0
 41
1.0
 10
58.63635638554587
 20
23.37554104902999
 30
0.0
 41
1.0
 10
58.70613958228003
 20
23.3589438857341
 30
0.0
 41
1.0
 10
58.74749751838099
 20
23.33791167772533
 30
0.0
 41
1.0
 10
58.76757516483658
 20
23.32770137043268
 30
0.0
 41
1.0
  0
CIRCLE
  5
3F7
330
1F
100
AcDbEntity
  8
0
  6
SLD-Solid
 62
     7
370
    25
100
AcDbCircle
 10
58.58318176655438
 20
23.00832263602762
 30
0.0
 40
0.3793933982821969
  0
CIRCLE
  5
3F8
330
1F
100
AcDbEntity
  8
0
  6
SLD-Solid
 62
     7
370
    25
100
AcDbCircle
 10
58.58318176655437
 20
34.25832263602762
 30
0.0
 40
0.379393398282204
  0
CIRCLE
  5
3F9
330
1F
100
AcDbEntity
  8
0
  6
SLD-Solid
 62
     7
370
    25
100
AcDbCircle
 10
47.95818176655438
 20
34.25832263602762
 30
0.0
 40
0.379393398282204
  0
CIRCLE
  5
3FA
330
1F
100
AcDbEntity
  8
0
  6
SLD-Solid
 62
     7
370
    25
100
AcDbCircle
 10
47.95818176655438
 20
23.00832263602762
 30
0.0
 40
0.379393398282204
  0
CIRCLE
  5
3FB
330
1F
100
AcDbEntity
  8
0
  6
SLD-Solid
 62
     7
370
    25
100
AcDbCircle
 10
47.95818176655438
 20
23.00832263602762
 30
0.0
 40
0.495606601717796
  0
CIRCLE
  5
3FC
330
1F
100
AcDbEntity
  8
0
  6
SLD-Solid
 62
     7
370
    25
100
AcDbCircle
 10
47.95818176655438
 20
34.25832263602762
 30
0.0
 40
0.495606601717796
  0
CIRCLE
  5
3FD
330
1F
100
AcDbEntity
  8
0
  6
SLD-Solid
 62
     7
370
    25
100
AcDbCircle
 10
58.58318176655438
 20
23.00832263602762
 30
0.0
 40
0.495606601717796
  0
CIRCLE
  5
3FE
330
1F
100
AcDbEntity
  8
0
  6
SLD-Solid
 62
     7
370
    25
100
AcDbCircle
 10
58.58318176655437
 20
34.25832263602762
 30
0.0
 40
0.495606601717796
  0
SPLINE
  5
3FF
330
1F
100
AcDbEntity
  8
0
  6
SLD-Solid
 62
     7
370
    25
100
AcDbSpline
210
0.0
220
0.0
230
1.0
 70
    15
 71
     3
 72
    39
 73
    35
 74
     0
 42
0.00000001
 43
0.00000001
 40
0.0
 40
0.0
 40
0.0
 40
0.0
 40
0.0291290081054508
 40
0.0600028324322975
 40
0.0921602034406934
 40
0.1250000000000004
 40
0.1578397965593066
 40
0.1899971675677009
 40
0.2208709918945502
 40
0.2500000000000002
 40
0.2791290081054524
 40
0.3100028324322981
 40
0.3421602034406943
 40
0.375
 40
0.4078397965593066
 40
0.4399971675677019
 40
0.4708709918945483
 40
0.4999999999999997
 40
0.5291290081054512
 40
0.560002832432299
 40
0.592160203440693
 40
0.6249999999999997
 40
0.6578397965593057
 40
0.6899971675677021
 40
0.7208709918945475
 40
0.7499999999999997
 40
0.7791290081054504
 40
0.8100028324322984
 40
0.842160203440693
 40
0.8749999999999996
 40
0.9078397965593061
 40
0.9399971675677011
 40
0.9708709918945486
 40
1.0
 40
1.0
 40
1.0
 40
1.0
 10
59.08939496998997
 20
23.00832263602762
 30
0.0
 41
1.0
 10
59.08775268620263
 20
22.97744787080693
 30
0.0
 41
1.0
 10
59.08436974646978
 20
22.913848953974
 30
0.0
 41
1.0
 10
59.05620577890663
 20
22.81950351819282
 30
0.0
 41
1.0
 10
59.00950466509863
 20
22.72878129637061
 30
0.0
 41
1.0
 10
58.94366105558742
 20
22.6478258311065
 30
0.0
 41
1.0
 10
58.86272769808582
 20
22.58206448118536
 30
0.0
 41
1.0
 10
58.77199971673834
 20
22.53506656687223
 30
0.0
 41
1.0
 10
58.67765573672133
 20
22.50794317199431
 30
0.0
 41
1.0
 10
58.58318169141354
 20
22.4992773822463
 30
0.0
 41
1.0
 10
58.48870810595255
 20
22.50794317199431
 30
0.0
 41
1.0
 10
58.39436264256257
 20
22.53506656687223
 30
0.0
 41
1.0
 10
58.30364042861517
 20
22.58206448118536
 30
0.0
 41
1.0
 10
58.22268496116851
 20
22.64782583110651
 30
0.0
 41
1.0
 10
58.15692361183398
 20
22.72878129637061
 30
0.0
 41
1.0
 10
58.10992569736784
 20
22.81950351819282
 30
0.0
 41
1.0
 10
58.08280230252928
 20
22.913848953974
 30
0.0
 41
1.0
 10
58.07413651276907
 20
23.00832263602762
 30
0.0
 41
1.0
 10
58.08280230252928
 20
23.10279631808124
 30
0.0
 41
1.0
 10
58.10992569736784
 20
23.19714175386242
 30
0.0
 41
1.0
 10
58.15692361183398
 20
23.28786397568463
 30
0.0
 41
1.0
 10
58.22268496116851
 20
23.36881944094874
 30
0.0
 41
1.0
 10
58.30364042861517
 20
23.43458079086988
 30
0.0
 41
1.0
 10
58.39436264256257
 20
23.48157870518301
 30
0.0
 41
1.0
 10
58.48870810595255
 20
23.50870210006093
 30
0.0
 41
1.0
 10
58.58318169141354
 20
23.51736788980894
 30
0.0
 41
1.0
 10
58.67765573672133
 20
23.50870210006093
 30
0.0
 41
1.0
 10
58.77199971673834
 20
23.48157870518301
 30
0.0
 41
1.0
 10
58.86272769808583
 20
23.43458079086988
 30
0.0
 41
1.0
 10
58.94366105558742
 20
23.36881944094874
 30
0.0
 41
1.0
 10
59.00950466509863
 20
23.28786397568463
 30
0.0
 41
1.0
 10
59.05620577890663
 20
23.19714175386242
 30
0.0
 41
1.0
 10
59.0843697464698
 20
23.10279631808124
 30
0.0
 41
1.0
 10
59.08775268620263
 20
23.03919740124832
 30
0.0
 41
1.0
 10
59.08939496998997
 20
23.00832263602762
 30
0.0
 41
1.0
  0
SPLINE
  5
400
330
1F
100
AcDbEntity
  8
0
  6
SLD-Solid
 62
     7
370
    25
100
AcDbSpline
210
0.0
220
0.0
230
1.0
 70
    15
 71
     3
 72
    39
 73
    35
 74
     0
 42
0.00000001
 43
0.00000001
 40
0.0
 40
0.0
 40
0.0
 40
0.0
 40
0.0291290081054501
 40
0.0600028324322968
 40
0.0921602034406934
 40
0.1250000000000005
 40
0.1578397965593077
 40
0.1899971675677014
 40
0.2208709918945499
 40
0.2500000000000007
 40
0.2791290081054522
 40
0.3100028324322986
 40
0.3421602034406936
 40
0.3750000000000006
 40
0.407839796559306
 40
0.439997167567703
 40
0.4708709918945502
 40
0.5000000000000002
 40
0.5291290081054503
 40
0.5600028324323
 40
0.5921602034406935
 40
0.625
 40
0.657839796559306
 40
0.6899971675677022
 40
0.7208709918945484
 40
0.7499999999999998
 40
0.7791290081054513
 40
0.8100028324322986
 40
0.8421602034406936
 40
0.8750000000000008
 40
0.907839796559306
 40
0.9399971675677019
 40
0.9708709918945501
 40
1.0
 40
1.0
 40
1.0
 40
1.0
 10
59.08939496998997
 20
34.25832263602762
 30
0.0
 41
1.0
 10
59.08775268620263
 20
34.22744787080693
 30
0.0
 41
1.0
 10
59.08436974646978
 20
34.163848953974
 30
0.0
 41
1.0
 10
59.05620577890663
 20
34.06950351819282
 30
0.0
 41
1.0
 10
59.00950466509863
 20
33.97878129637061
 30
0.0
 41
1.0
 10
58.94366105558742
 20
33.89782583110649
 30
0.0
 41
1.0
 10
58.86272769808582
 20
33.83206448118534
 30
0.0
 41
1.0
 10
58.77199971673834
 20
33.78506656687223
 30
0.0
 41
1.0
 10
58.67765573672133
 20
33.75794317199431
 30
0.0
 41
1.0
 10
58.58318169141354
 20
33.74927738224629
 30
0.0
 41
1.0
 10
58.48870810595255
 20
33.75794317199431
 30
0.0
 41
1.0
 10
58.39436264256257
 20
33.78506656687223
 30
0.0
 41
1.0
 10
58.30364042861517
 20
33.83206448118534
 30
0.0
 41
1.0
 10
58.22268496116851
 20
33.8978258311065
 30
0.0
 41
1.0
 10
58.15692361183398
 20
33.97878129637061
 30
0.0
 41
1.0
 10
58.10992569736786
 20
34.06950351819283
 30
0.0
 41
1.0
 10
58.08280230252928
 20
34.163848953974
 30
0.0
 41
1.0
 10
58.07413651276907
 20
34.25832263602762
 30
0.0
 41
1.0
 10
58.08280230252928
 20
34.35279631808124
 30
0.0
 41
1.0
 10
58.10992569736784
 20
34.44714175386242
 30
0.0
 41
1.0
 10
58.15692361183398
 20
34.53786397568463
 30
0.0
 41
1.0
 10
58.22268496116851
 20
34.61881944094873
 30
0.0
 41
1.0
 10
58.30364042861517
 20
34.68458079086988
 30
0.0
 41
1.0
 10
58.39436264256257
 20
34.731578705183
 30
0.0
 41
1.0
 10
58.48870810595255
 20
34.75870210006094
 30
0.0
 41
1.0
 10
58.58318169141354
 20
34.76736788980894
 30
0.0
 41
1.0
 10
58.67765573672133
 20
34.75870210006092
 30
0.0
 41
1.0
 10
58.77199971673834
 20
34.73157870518301
 30
0.0
 41
1.0
 10
58.86272769808582
 20
34.68458079086988
 30
0.0
 41
1.0
 10
58.94366105558742
 20
34.61881944094874
 30
0.0
 41
1.0
 10
59.00950466509863
 20
34.53786397568462
 30
0.0
 41
1.0
 10
59.05620577890663
 20
34.44714175386242
 30
0.0
 41
1.0
 10
59.08436974646979
 20
34.35279631808124
 30
0.0
 41
1.0
 10
59.08775268620263
 20
34.28919740124831
 30
0.0
 41
1.0
 10
59.08939496998997
 20
34.25832263602762
 30
0.0
 41
1.0
  0
SPLINE
  5
401
330
1F
100
AcDbEntity
  8
0
  6
SLD-Solid
 62
     7
370
    25
100
AcDbSpline
210
0.0
220
0.0
230
1.0
 70
    15
 71
     3
 72
    39
 73
    35
 74
     0
 42
0.00000001
 43
0.00000001
 40
0.0
 40
0.0
 40
0.0
 40
0.0
 40
0.0291290081054508
 40
0.0600028324322977
 40
0.0921602034406937
 40
0.1250000000000002
 40
0.1578397965593062
 40
0.1899971675677012
 40
0.2208709918945489
 40
0.2499999999999999
 40
0.2791290081054508
 40
0.3100028324322985
 40
0.3421602034406935
 40
0.3749999999999995
 40
0.4078397965593062
 40
0.4399971675677019
 40
0.4708709918945482
 40
0.4999999999999996
 40
0.529129008105451
 40
0.5600028324322988
 40
0.5921602034406934
 40
0.6249999999999999
 40
0.6578397965593062
 40
0.6899971675677019
 40
0.7208709918945491
 40
0.7499999999999998
 40
0.7791290081054509
 40
0.8100028324322979
 40
0.8421602034406934
 40
0.8749999999999999
 40
0.9078397965593064
 40
0.939997167567701
 40
0.9708709918945486
 40
0.9999999999999999
 40
0.9999999999999999
 40
0.9999999999999999
 40
0.9999999999999999
 10
48.46439496998997
 20
23.00832263602762
 30
0.0
 41
1.0
 10
48.46275268620263
 20
22.97744787080693
 30
0.0
 41
1.0
 10
48.45936974646978
 20
22.913848953974
 30
0.0
 41
1.0
 10
48.43120577890662
 20
22.81950351819282
 30
0.0
 41
1.0
 10
48.38450466509863
 20
22.72878129637061
 30
0.0
 41
1.0
 10
48.31866105558742
 20
22.6478258311065
 30
0.0
 41
1.0
 10
48.23772769808583
 20
22.58206448118536
 30
0.0
 41
1.0
 10
48.14699971673834
 20
22.53506656687223
 30
0.0
 41
1.0
 10
48.05265573672134
 20
22.50794317199431
 30
0.0
 41
1.0
 10
47.95818169141354
 20
22.4992773822463
 30
0.0
 41
1.0
 10
47.86370810595255
 20
22.50794317199431
 30
0.0
 41
1.0
 10
47.76936264256258
 20
22.53506656687223
 30
0.0
 41
1.0
 10
47.67864042861518
 20
22.58206448118536
 30
0.0
 41
1.0
 10
47.59768496116851
 20
22.6478258311065
 30
0.0
 41
1.0
 10
47.53192361183399
 20
22.72878129637061
 30
0.0
 41
1.0
 10
47.48492569736784
 20
22.81950351819282
 30
0.0
 41
1.0
 10
47.45780230252928
 20
22.913848953974
 30
0.0
 41
1.0
 10
47.44913651276907
 20
23.00832263602762
 30
0.0
 41
1.0
 10
47.45780230252928
 20
23.10279631808124
 30
0.0
 41
1.0
 10
47.48492569736784
 20
23.19714175386242
 30
0.0
 41
1.0
 10
47.53192361183399
 20
23.28786397568463
 30
0.0
 41
1.0
 10
47.59768496116851
 20
23.36881944094874
 30
0.0
 41
1.0
 10
47.67864042861518
 20
23.43458079086988
 30
0.0
 41
1.0
 10
47.76936264256258
 20
23.48157870518301
 30
0.0
 41
1.0
 10
47.86370810595255
 20
23.50870210006093
 30
0.0
 41
1.0
 10
47.95818169141354
 20
23.51736788980894
 30
0.0
 41
1.0
 10
48.05265573672134
 20
23.50870210006093
 30
0.0
 41
1.0
 10
48.14699971673834
 20
23.48157870518301
 30
0.0
 41
1.0
 10
48.23772769808583
 20
23.43458079086988
 30
0.0
 41
1.0
 10
48.31866105558742
 20
23.36881944094874
 30
0.0
 41
1.0
 10
48.38450466509863
 20
23.28786397568463
 30
0.0
 41
1.0
 10
48.43120577890662
 20
23.19714175386242
 30
0.0
 41
1.0
 10
48.45936974646978
 20
23.10279631808124
 30
0.0
 41
1.0
 10
48.46275268620263
 20
23.03919740124831
 30
0.0
 41
1.0
 10
48.46439496998997
 20
23.00832263602762
 30
0.0
 41
1.0
  0
SPLINE
  5
402
330
1F
100
AcDbEntity
  8
0
  6
SLD-Solid
 62
     7
370
    25
100
AcDbSpline
210
0.0
220
0.0
230
1.0
 70
    15
 71
     3
 72
    39
 73
    35
 74
     0
 42
0.00000001
 43
0.00000001
 40
0.0
 40
0.0
 40
0.0
 40
0.0
 40
0.0291290081054501
 40
0.0600028324322984
 40
0.0921602034406937
 40
0.1249999999999998
 40
0.1578397965593059
 40
0.1899971675677012
 40
0.2208709918945487
 40
0.2499999999999998
 40
0.279129008105451
 40
0.3100028324322985
 40
0.3421602034406938
 40
0.3749999999999999
 40
0.407839796559305
 40
0.4399971675677014
 40
0.4708709918945498
 40
0.4999999999999999
 40
0.5291290081054514
 40
0.5600028324322999
 40
0.5921602034406938
 40
0.6249999999999999
 40
0.6578397965593059
 40
0.6899971675677022
 40
0.720870991894549
 40
0.7500000000000001
 40
0.7791290081054513
 40
0.8100028324322983
 40
0.8421602034406942
 40
0.8750000000000003
 40
0.9078397965593062
 40
0.9399971675677004
 40
0.9708709918945486
 40
1.0
 40
1.0
 40
1.0
 40
1.0
 10
48.46439496998997
 20
34.25832263602762
 30
0.0
 41
1.0
 10
48.46275268620263
 20
34.22744787080693
 30
0.0
 41
1.0
 10
48.45936974646978
 20
34.16384895397401
 30
0.0
 41
1.0
 10
48.43120577890662
 20
34.06950351819282
 30
0.0
 41
1.0
 10
48.38450466509863
 20
33.97878129637062
 30
0.0
 41
1.0
 10
48.31866105558742
 20
33.8978258311065
 30
0.0
 41
1.0
 10
48.23772769808583
 20
33.83206448118536
 30
0.0
 41
1.0
 10
48.14699971673834
 20
33.78506656687224
 30
0.0
 41
1.0
 10
48.05265573672134
 20
33.75794317199431
 30
0.0
 41
1.0
 10
47.95818169141354
 20
33.7492773822463
 30
0.0
 41
1.0
 10
47.86370810595255
 20
33.75794317199431
 30
0.0
 41
1.0
 10
47.76936264256258
 20
33.78506656687223
 30
0.0
 41
1.0
 10
47.67864042861518
 20
33.83206448118536
 30
0.0
 41
1.0
 10
47.59768496116851
 20
33.89782583110652
 30
0.0
 41
1.0
 10
47.53192361183399
 20
33.97878129637061
 30
0.0
 41
1.0
 10
47.48492569736784
 20
34.06950351819282
 30
0.0
 41
1.0
 10
47.45780230252927
 20
34.16384895397401
 30
0.0
 41
1.0
 10
47.44913651276907
 20
34.25832263602763
 30
0.0
 41
1.0
 10
47.45780230252927
 20
34.35279631808124
 30
0.0
 41
1.0
 10
47.48492569736784
 20
34.44714175386243
 30
0.0
 41
1.0
 10
47.53192361183399
 20
34.53786397568463
 30
0.0
 41
1.0
 10
47.59768496116851
 20
34.61881944094874
 30
0.0
 41
1.0
 10
47.67864042861518
 20
34.68458079086988
 30
0.0
 41
1.0
 10
47.76936264256257
 20
34.73157870518301
 30
0.0
 41
1.0
 10
47.86370810595255
 20
34.75870210006094
 30
0.0
 41
1.0
 10
47.95818169141354
 20
34.76736788980894
 30
0.0
 41
1.0
 10
48.05265573672133
 20
34.75870210006094
 30
0.0
 41
1.0
 10
48.14699971673834
 20
34.73157870518302
 30
0.0
 41
1.0
 10
48.23772769808583
 20
34.68458079086988
 30
0.0
 41
1.0
 10
48.31866105558742
 20
34.61881944094874
 30
0.0
 41
1.0
 10
48.38450466509863
 20
34.53786397568463
 30
0.0
 41
1.0
 10
48.43120577890662
 20
34.44714175386243
 30
0.0
 41
1.0
 10
48.45936974646978
 20
34.35279631808124
 30
0.0
 41
1.0
 10
48.46275268620262
 20
34.28919740124832
 30
0.0
 41
1.0
 10
48.46439496998997
 20
34.25832263602762
 30
0.0
 41
1.0
  0
LINE
  5
403
330
1F
100
AcDbEntity
  8
0
  6
SLD-Solid
 62
     7
370
    25
100
AcDbLine
 10
46.02722625474397
 20
36.25832263602762
 30
0.0
 11
60.46027546734238
 21
36.25832263602762
 31
0.0
  0
LWPOLYLINE
  5
404
330
1F
100
AcDbEntity
  8
0
  6
SLD-Solid
 62
     7
370
    25
100
AcDbPolyline
 90
        3
 70
   128
 43
0.0
 10
60.83318176655438
 20
36.21832263602762
 10
60.83241317777051
 20
36.22612624890827
 10
60.8304236277208
 20
36.23291865524043
  0
LINE
  5
405
330
1F
100
AcDbEntity
  8
0
  6
SLD-Solid
 62
     7
370
    25
100
AcDbLine
 10
60.83318176655438
 20
36.21832263602762
 30
0.0
 11
60.83318176655438
 21
12.29832263602762
 31
0.0
  0
LWPOLYLINE
  5
406
330
1F
100
AcDbEntity
  8
0
  6
SLD-Solid
 62
     7
370
    25
100
AcDbPolyline
 90
        3
 70
   128
 43
0.0
 10
60.8304236277208
 20
12.28372661681481
 10
60.8324131777705
 20
12.29051902314697
 10
60.83318176655438
 20
12.29832263602762
  0
CIRCLE
  5
407
330
1F
100
AcDbEntity
  8
0
  6
SLD-Solid
 62
     7
370
    25
100
AcDbCircle
 10
53.83318176655438
 20
15.00832263602762
 30
0.0
 40
0.25
  0
LINE
  5
408
330
1F
100
AcDbEntity
  8
0
  6
SLD-Solid
 62
     7
370
    25
100
AcDbLine
 10
60.80931995553075
 20
12.90736712421658
 30
0.0
 11
60.80931995553075
 21
12.22532263602761
 31
0.0
  0
LINE
  5
409
330
1F
100
AcDbEntity
  8
0
  6
SLD-Solid
 62
     7
370
    25
100
AcDbLine
 10
60.80931995553075
 20
12.22532263602761
 30
0.0
 11
45.68431995553075
 21
12.22532263602761
 31
0.0
  0
ARC
  5
40A
330
1F
100
AcDbEntity
  8
0
  6
SLD-Solid
 62
     7
370
    25
100
AcDbCircle
 10
45.73431995553076
 20
12.90736712421658
 30
0.0
 40
0.0500000000000043
100
AcDbArc
 50
90.0
 51
179.9999999999974
  0
ARC
  5
40B
330
1F
100
AcDbEntity
  8
0
  6
SLD-Solid
 62
     7
370
    25
100
AcDbCircle
 10
60.75931995553076
 20
12.90736712421658
 30
0.0
 40
0.0500000000000025
100
AcDbArc
 50
0.0000000000025444
 51
90.0
  0
LINE
  5
40C
330
1F
100
AcDbEntity
  8
0
  6
SLD-Solid
 62
     7
370
    25
100
AcDbLine
 10
60.75931995553076
 20
12.95736712421658
 30
0.0
 11
45.73431995553076
 21
12.95736712421658
 31
0.0
  0
LINE
  5
40D
330
1F
100
AcDbEntity
  8
0
  6
SLD-Solid
 62
     7
370
    25
100
AcDbLine
 10
45.68431995553075
 20
12.22532263602761
 30
0.0
 11
45.68431995553075
 21
12.90736712421658
 31
0.0
  0
LINE
  5
40E
330
1F
100
AcDbEntity
  8
0
  6
SLD-Solid
 62
     7
370
    25
100
AcDbLine
 10
60.80931995553075
 20
12.16332263602761
 30
0.0
 11
60.80931995553075
 21
12.22532263602761
 31
0.0
  0
LINE
  5
40F
330
1F
100
AcDbEntity
  8
0
  6
SLD-Solid
 62
     7
370
    25
100
AcDbLine
 10
45.68431995553075
 20
12.16332263602761
 30
0.0
 11
60.80931995553075
 21
12.16332263602761
 31
0.0
  0
LINE
  5
410
330
1F
100
AcDbEntity
  8
0
  6
SLD-Solid
 62
     7
370
    25
100
AcDbLine
 10
45.68431995553075
 20
12.22532263602761
 30
0.0
 11
45.68431995553075
 21
12.16332263602761
 31
0.0
  0
LINE
  5
411
330
1F
100
AcDbEntity
  8
0
  6
SLD-Solid
 62
     7
370
    25
100
AcDbLine
 10
45.64818176655499
 20
12.25832263602747
 30
0.0
 11
45.68431995553075
 21
12.25832263602747
 31
0.0
  0
LINE
  5
412
330
1F
100
AcDbEntity
  8
0
  6
SLD-Solid
 62
     7
370
    25
100
AcDbLine
 10
45.648181766555
 20
36.25832263602747
 30
0.0
 11
45.64818176655499
 21
12.25832263602747
 31
0.0
  0
LINE
  5
413
330
1F
100
AcDbEntity
  8
0
  6
SLD-Solid
 62
     7
370
    25
100
AcDbLine
 10
45.710181766555
 20
36.25832263602747
 30
0.0
 11
45.648181766555
 21
36.25832263602747
 31
0.0
  0
LINE
  5
414
330
1F
100
AcDbEntity
  8
0
  6
SLD-Solid
 62
     7
370
    25
100
AcDbLine
 10
46.02722625474397
 20
36.25832263602747
 30
0.0
 11
45.710181766555
 21
36.25832263602747
 31
0.0
  0
ARC
  5
415
330
1F
100
AcDbEntity
  8
0
  6
SLD-Solid
 62
     7
370
    25
100
AcDbCircle
 10
46.02722625474397
 20
36.10832263602747
 30
0.0
 40
0.1500000000000057
100
AcDbArc
 50
0.0000000000028837
 51
90.0
  0
LINE
  5
416
330
1F
100
AcDbEntity
  8
0
  6
SLD-Solid
 62
     7
370
    25
100
AcDbLine
 10
46.17722625474397
 20
36.10832263602747
 30
0.0
 11
46.17722625474397
 21
12.95736712421659
 31
0.0
  0
ARC
  5
417
330
1F
100
AcDbEntity
  8
0
  6
SLD-Solid
 62
     7
370
    25
100
AcDbCircle
 10
60.4602754673424
 20
36.10832263602749
 30
0.0
 40
0.1500000000000057
100
AcDbArc
 50
90.0
 51
179.9999999999991
  0
LINE
  5
418
330
1F
100
AcDbEntity
  8
0
  6
SLD-Solid
 62
     7
370
    25
100
AcDbLine
 10
60.77731995553137
 20
36.25832263602749
 30
0.0
 11
60.4602754673424
 21
36.25832263602749
 31
0.0
  0
LINE
  5
419
330
1F
100
AcDbEntity
  8
0
  6
SLD-Solid
 62
     7
370
    25
100
AcDbLine
 10
60.31027546734239
 20
12.95736712421658
 30
0.0
 11
60.31027546734239
 21
36.10832263602749
 31
0.0
  0
LINE
  5
41A
330
1F
100
AcDbEntity
  8
0
  6
SLD-Solid
 62
     7
370
    25
100
AcDbLine
 10
60.83931995553137
 20
36.25832263602748
 30
0.0
 11
60.77731995553137
 21
36.25832263602749
 31
0.0
  0
LINE
  5
41B
330
1F
100
AcDbEntity
  8
0
  6
SLD-Solid
 62
     7
370
    25
100
AcDbLine
 10
60.83931995553137
 20
12.25832263602747
 30
0.0
 11
60.83931995553137
 21
36.25832263602748
 31
0.0
  0
LINE
  5
41C
330
1F
100
AcDbEntity
  8
0
  6
SLD-Solid
 62
     7
370
    25
100
AcDbLine
 10
60.80931995553137
 20
12.25832263602747
 30
0.0
 11
60.83931995553137
 21
12.25832263602747
 31
0.0
  0
LINE
  5
41D
330
1F
100
AcDbEntity
  8
0
  6
SLD-Solid
 62
     7
370
    25
100
AcDbLine
 10
45.64818176655499
 20
36.27832263602747
 30
0.0
 11
45.678181766555
 21
36.27832263602747
 31
0.0
  0
LINE
  5
41E
330
1F
100
AcDbEntity
  8
0
  6
SLD-Solid
 62
     7
370
    25
100
AcDbLine
 10
45.678181766555
 20
36.27832263602747
 30
0.0
 11
45.678181766555
 21
36.25832263602747
 31
0.0
  0
LINE
  5
41F
330
1F
100
AcDbEntity
  8
0
  6
SLD-Solid
 62
     7
370
    25
100
AcDbLine
 10
45.64818176655499
 20
36.25832263602747
 30
0.0
 11
45.64818176655499
 21
36.27832263602747
 31
0.0
  0
LINE
  5
420
330
1F
100
AcDbEntity
  8
0
  6
SLD-Solid
 62
     7
370
    25
100
AcDbLine
 10
60.80931995553137
 20
36.27832263602748
 30
0.0
 11
60.83931995553137
 21
36.27832263602748
 31
0.0
  0
LINE
  5
421
330
1F
100
AcDbEntity
  8
0
  6
SLD-Solid
 62
     7
370
    25
100
AcDbLine
 10
60.83931995553137
 20
36.27832263602748
 30
0.0
 11
60.83931995553137
 21
36.25832263602749
 31
0.0
  0
LINE
  5
422
330
1F
100
AcDbEntity
  8
0
  6
SLD-Solid
 62
     7
370
    25
100
AcDbLine
 10
60.80931995553137
 20
36.25832263602749
 30
0.0
 11
60.80931995553137
 21
36.27832263602748
 31
0.0
  0
LINE
  5
423
330
1F
100
AcDbEntity
  8
0
  6
SLD-Solid
 62
     7
370
    25
100
AcDbLine
 10
60.83931995553137
 20
12.23832263602747
 30
0.0
 11
60.80931995553137
 21
12.23832263602747
 31
0.0
  0
LINE
  5
424
330
1F
100
AcDbEntity
  8
0
  6
SLD-Solid
 62
     7
370
    25
100
AcDbLine
 10
60.83931995553137
 20
12.25832263602747
 30
0.0
 11
60.83931995553137
 21
12.23832263602747
 31
0.0
  0
LINE
  5
425
330
1F
100
AcDbEntity
  8
0
  6
SLD-Solid
 62
     7
370
    25
100
AcDbLine
 10
45.678181766555
 20
12.23832263602747
 30
0.0
 11
45.64818176655499
 21
12.23832263602747
 31
0.0
  0
LINE
  5
426
330
1F
100
AcDbEntity
  8
0
  6
SLD-Solid
 62
     7
370
    25
100
AcDbLine
 10
45.67818176655499
 20
12.25832263602747
 30
0.0
 11
45.678181766555
 21
12.23832263602747
 31
0.0
  0
LINE
  5
427
330
1F
100
AcDbEntity
  8
0
  6
SLD-Solid
 62
     7
370
    25
100
AcDbLine
 10
45.64818176655499
 20
12.23832263602747
 30
0.0
 11
45.64818176655499
 21
12.25832263602747
 31
0.0
  0
LINE
  5
428
330
1F
100
AcDbEntity
  8
0
  6
SLD-Solid
 62
     7
370
    25
100
AcDbLine
 10
45.678181766555
 20
36.27832263602747
 30
0.0
 11
45.678181766555
 21
36.30332263602699
 31
0.0
  0
LINE
  5
429
330
1F
100
AcDbEntity
  8
0
  6
SLD-Solid
 62
     7
370
    25
100
AcDbLine
 10
45.64818176655499
 20
36.27832263602747
 30
0.0
 11
45.64818176655499
 21
36.30332263602699
 31
0.0
  0
LINE
  5
42A
330
1F
100
AcDbEntity
  8
0
  6
SLD-Solid
 62
     7
370
    25
100
AcDbLine
 10
60.83931995553137
 20
36.30332263602691
 30
0.0
 11
60.83931995553137
 21
36.27832263602748
 31
0.0
  0
LINE
  5
42B
330
1F
100
AcDbEntity
  8
0
  6
SLD-Solid
 62
     7
370
    25
100
AcDbLine
 10
60.80931995553137
 20
36.30332263602691
 30
0.0
 11
60.80931995553137
 21
36.27832263602748
 31
0.0
  0
LINE
  5
42C
330
1F
100
AcDbEntity
  8
0
  6
SLD-Solid
 62
     7
370
    25
100
AcDbLine
 10
60.80931995553137
 20
12.19532263602747
 30
0.0
 11
60.83931995553137
 21
12.19532263602747
 31
0.0
  0
LINE
  5
42D
330
1F
100
AcDbEntity
  8
0
  6
SLD-Solid
 62
     7
370
    25
100
AcDbLine
 10
60.83931995553137
 20
12.23832263602747
 30
0.0
 11
60.83931995553137
 21
12.19532263602747
 31
0.0
  0
ARC
  5
42E
330
1F
100
AcDbEntity
  8
0
  6
SLD-Solid
 62
     7
370
    25
100
AcDbCircle
 10
60.77731995553137
 20
12.19532263602747
 30
0.0
 40
0.0620000000000047
100
AcDbArc
 50
269.9999999999943
 51
0.0000000000041039
  0
LINE
  5
42F
330
1F
100
AcDbEntity
  8
0
  6
SLD-Solid
 62
     7
370
    25
100
AcDbLine
 10
60.77731995553136
 20
12.16332263602747
 30
0.0
 11
60.77731995553136
 21
12.13332263602747
 31
0.0
  0
LINE
  5
430
330
1F
100
AcDbEntity
  8
0
  6
SLD-Solid
 62
     7
370
    25
100
AcDbLine
 10
60.4313199555322
 20
12.16332263602747
 30
0.0
 11
60.4313199555322
 21
12.13332263602747
 31
0.0
  0
LINE
  5
431
330
1F
100
AcDbEntity
  8
0
  6
SLD-Solid
 62
     7
370
    25
100
AcDbLine
 10
60.77731995553136
 20
12.13332263602747
 30
0.0
 11
60.4313199555322
 21
12.13332263602747
 31
0.0
  0
LINE
  5
432
330
1F
100
AcDbEntity
  8
0
  6
SLD-Solid
 62
     7
370
    25
100
AcDbLine
 10
60.2813199555322
 20
12.13332263602747
 30
0.0
 11
60.2813199555322
 21
12.16332263602747
 31
0.0
  0
LINE
  5
433
330
1F
100
AcDbEntity
  8
0
  6
SLD-Solid
 62
     7
370
    25
100
AcDbLine
 10
60.4313199555322
 20
12.13332263602747
 30
0.0
 11
60.2813199555322
 21
12.13332263602747
 31
0.0
  0
LINE
  5
434
330
1F
100
AcDbEntity
  8
0
  6
SLD-Solid
 62
     7
370
    25
100
AcDbLine
 10
46.20618176655499
 20
12.16332263602747
 30
0.0
 11
46.20618176655499
 21
12.13332263602747
 31
0.0
  0
LINE
  5
435
330
1F
100
AcDbEntity
  8
0
  6
SLD-Solid
 62
     7
370
    25
100
AcDbLine
 10
46.05618176655499
 20
12.13332263602747
 30
0.0
 11
46.05618176655499
 21
12.16332263602747
 31
0.0
  0
LINE
  5
436
330
1F
100
AcDbEntity
  8
0
  6
SLD-Solid
 62
     7
370
    25
100
AcDbLine
 10
46.20618176655499
 20
12.13332263602747
 30
0.0
 11
46.05618176655499
 21
12.13332263602747
 31
0.0
  0
LINE
  5
437
330
1F
100
AcDbEntity
  8
0
  6
SLD-Solid
 62
     7
370
    25
100
AcDbLine
 10
45.678181766555
 20
12.19532263602747
 30
0.0
 11
45.64818176655499
 21
12.19532263602747
 31
0.0
  0
LINE
  5
438
330
1F
100
AcDbEntity
  8
0
  6
SLD-Solid
 62
     7
370
    25
100
AcDbLine
 10
45.71018176655499
 20
12.16332263602748
 30
0.0
 11
45.71018176655499
 21
12.13332263602747
 31
0.0
  0
ARC
  5
439
330
1F
100
AcDbEntity
  8
0
  6
SLD-Solid
 62
     7
370
    25
100
AcDbCircle
 10
45.71018176655499
 20
12.19532263602747
 30
0.0
 40
0.031999999999997
100
AcDbArc
 50
180.0
 51
216.0813531422127
  0
ARC
  5
43A
330
1F
100
AcDbEntity
  8
0
  6
SLD-Solid
 62
     7
370
    25
100
AcDbCircle
 10
45.71018176655499
 20
12.19532263602747
 30
0.0
 40
0.0619999999999994
100
AcDbArc
 50
180.0
 51
270.0000000000008
  0
LINE
  5
43B
330
1F
100
AcDbEntity
  8
0
  6
SLD-Solid
 62
     7
370
    25
100
AcDbLine
 10
46.05618176655499
 20
12.13332263602747
 30
0.0
 11
45.71018176655499
 21
12.13332263602747
 31
0.0
  0
LINE
  5
43C
330
1F
100
AcDbEntity
  8
0
  6
SLD-Solid
 62
     7
370
    25
100
AcDbLine
 10
45.678181766555
 20
12.23832263602747
 30
0.0
 11
45.678181766555
 21
12.19532263602747
 31
0.0
  0
LINE
  5
43D
330
1F
100
AcDbEntity
  8
0
  6
SLD-Solid
 62
     7
370
    25
100
AcDbLine
 10
45.64818176655499
 20
12.19532263602747
 30
0.0
 11
45.64818176655499
 21
12.23832263602747
 31
0.0
  0
LINE
  5
43E
330
1F
100
AcDbEntity
  8
0
  6
SLD-Solid
 62
     7
370
    25
100
AcDbLine
 10
60.80931995553137
 20
12.13332263602747
 30
0.0
 11
60.83931995553137
 21
12.13332263602747
 31
0.0
  0
LINE
  5
43F
330
1F
100
AcDbEntity
  8
0
  6
SLD-Solid
 62
     7
370
    25
100
AcDbLine
 10
60.83931995553137
 20
12.13332263602747
 30
0.0
 11
60.83931995553137
 21
12.19532263602747
 31
0.0
  0
LINE
  5
440
330
1F
100
AcDbEntity
  8
0
  6
SLD-Solid
 62
     7
370
    25
100
AcDbLine
 10
60.80931995553137
 20
12.13332263602747
 30
0.0
 11
60.80931995553137
 21
12.14221896383806
 31
0.0
  0
LINE
  5
441
330
1F
100
AcDbEntity
  8
0
  6
SLD-Solid
 62
     7
370
    25
100
AcDbLine
 10
45.67818176655499
 20
12.13332263602747
 30
0.0
 11
45.64818176655499
 21
12.13332263602747
 31
0.0
  0
LINE
  5
442
330
1F
100
AcDbEntity
  8
0
  6
SLD-Solid
 62
     7
370
    25
100
AcDbLine
 10
45.678181766555
 20
12.14221896383806
 30
0.0
 11
45.67818176655499
 21
12.13332263602747
 31
0.0
  0
LINE
  5
443
330
1F
100
AcDbEntity
  8
0
  6
SLD-Solid
 62
     7
370
    25
100
AcDbLine
 10
45.648181766555
 20
12.19532263602747
 30
0.0
 11
45.64818176655499
 21
12.13332263602747
 31
0.0
  0
LINE
  5
444
330
1F
100
AcDbEntity
  8
0
  6
SLD-Solid
 62
     7
370
    25
100
AcDbLine
 10
60.10931995553137
 20
12.13332263602747
 30
0.0
 11
60.10931995553137
 21
12.16332263602747
 31
0.0
  0
LINE
  5
445
330
1F
100
AcDbEntity
  8
0
  6
SLD-Solid
 62
     7
370
    25
100
AcDbLine
 10
46.378181766555
 20
12.13332263602747
 30
0.0
 11
60.10931995553137
 21
12.13332263602747
 31
0.0
  0
LINE
  5
446
330
1F
100
AcDbEntity
  8
0
  6
SLD-Solid
 62
     7
370
    25
100
AcDbLine
 10
46.378181766555
 20
12.16332263602747
 30
0.0
 11
46.378181766555
 21
12.13332263602747
 31
0.0
  0
LINE
  5
447
330
1F
100
AcDbEntity
  8
0
  6
SLD-Solid
 62
     7
370
    25
100
AcDbLine
 10
46.378181766555
 20
12.13332263602747
 30
0.0
 11
46.228181766555
 21
12.13332263602747
 31
0.0
  0
LINE
  5
448
330
1F
100
AcDbEntity
  8
0
  6
SLD-Solid
 62
     7
370
    25
100
AcDbLine
 10
46.228181766555
 20
12.13332263602747
 30
0.0
 11
46.228181766555
 21
12.16332263602747
 31
0.0
  0
LINE
  5
449
330
1F
100
AcDbEntity
  8
0
  6
SLD-Solid
 62
     7
370
    25
100
AcDbLine
 10
60.25931995553137
 20
12.16332263602747
 30
0.0
 11
60.25931995553137
 21
12.13332263602747
 31
0.0
  0
LINE
  5
44A
330
1F
100
AcDbEntity
  8
0
  6
SLD-Solid
 62
     7
370
    25
100
AcDbLine
 10
60.25931995553137
 20
12.13332263602747
 30
0.0
 11
60.10931995553137
 21
12.13332263602747
 31
0.0
  0
LINE
  5
44B
330
1F
100
AcDbEntity
  8
0
  6
SLD-Solid
 62
     7
370
    25
100
AcDbLine
 10
60.80931995553138
 20
12.13332263602747
 30
0.0
 11
60.77731995553137
 21
12.13332263602746
 31
0.0
  0
LINE
  5
44C
330
1F
100
AcDbEntity
  8
0
  6
SLD-Solid
 62
     7
370
    25
100
AcDbLine
 10
45.71018176655499
 20
12.13332263602747
 30
0.0
 11
45.67818176655499
 21
12.13332263602747
 31
0.0
  0
LINE
  5
44D
330
1F
100
AcDbEntity
  8
0
  6
SLD-Solid
 62
     7
370
    25
100
AcDbLine
 10
46.227981766555
 20
12.13332263602747
 30
0.0
 11
46.227981766555
 21
12.16332263602761
 31
0.0
  0
LINE
  5
44E
330
1F
100
AcDbEntity
  8
0
  6
SLD-Solid
 62
     7
370
    25
100
AcDbLine
 10
46.20618176655499
 20
12.13332263602747
 30
0.0
 11
46.227981766555
 21
12.13332263602747
 31
0.0
  0
LINE
  5
44F
330
1F
100
AcDbEntity
  8
0
  6
SLD-Solid
 62
     7
370
    25
100
AcDbLine
 10
60.25951995553137
 20
12.13332263602747
 30
0.0
 11
60.2813199555322
 21
12.13332263602747
 31
0.0
  0
LINE
  5
450
330
1F
100
AcDbEntity
  8
0
  6
SLD-Solid
 62
     7
370
    25
100
AcDbLine
 10
60.25951995553137
 20
12.16332263602761
 30
0.0
 11
60.25951995553137
 21
12.13332263602747
 31
0.0
  0
LINE
  5
451
330
1F
100
AcDbEntity
  8
0
  6
SLD-Solid
 62
     7
370
    25
100
AcDbLine
 10
46.12775086104355
 20
40.13082263602698
 30
0.0
 11
46.12775086104355
 21
40.50582263602698
 31
0.0
  0
LINE
  5
452
330
1F
100
AcDbEntity
  8
0
  6
SLD-Solid
 62
     7
370
    25
100
AcDbLine
 10
46.13275086104355
 20
40.13082263602698
 30
0.0
 11
46.12775086104355
 21
40.13082263602698
 31
0.0
  0
LINE
  5
453
330
1F
100
AcDbEntity
  8
0
  6
SLD-Solid
 62
     7
370
    25
100
AcDbLine
 10
46.27875086104354
 20
40.13082263602698
 30
0.0
 11
46.13275086104355
 21
40.13082263602698
 31
0.0
  0
LINE
  5
454
330
1F
100
AcDbEntity
  8
0
  6
SLD-Solid
 62
     7
370
    25
100
AcDbLine
 10
46.28375086104354
 20
40.13082263602698
 30
0.0
 11
46.27875086104354
 21
40.13082263602698
 31
0.0
  0
LINE
  5
455
330
1F
100
AcDbEntity
  8
0
  6
SLD-Solid
 62
     7
370
    25
100
AcDbLine
 10
46.28375086104355
 20
40.50582263602698
 30
0.0
 11
46.28375086104354
 21
40.13082263602698
 31
0.0
  0
LINE
  5
456
330
1F
100
AcDbEntity
  8
0
  6
SLD-Solid
 62
     7
370
    25
100
AcDbLine
 10
46.27875086104353
 20
40.50582263602698
 30
0.0
 11
46.28375086104355
 21
40.50582263602698
 31
0.0
  0
LINE
  5
457
330
1F
100
AcDbEntity
  8
0
  6
SLD-Solid
 62
     7
370
    25
100
AcDbLine
 10
46.13275086104353
 20
40.50582263602698
 30
0.0
 11
46.27875086104353
 21
40.50582263602698
 31
0.0
  0
LINE
  5
458
330
1F
100
AcDbEntity
  8
0
  6
SLD-Solid
 62
     7
370
    25
100
AcDbLine
 10
46.12775086104355
 20
40.50582263602698
 30
0.0
 11
46.13275086104353
 21
40.50582263602698
 31
0.0
  0
LINE
  5
459
330
1F
100
AcDbEntity
  8
0
  6
SLD-Solid
 62
     7
370
    25
100
AcDbLine
 10
46.56375086104355
 20
40.13082263602698
 30
0.0
 11
46.56375086104355
 21
40.50582263602698
 31
0.0
  0
LINE
  5
45A
330
1F
100
AcDbEntity
  8
0
  6
SLD-Solid
 62
     7
370
    25
100
AcDbLine
 10
46.56875086104354
 20
40.13082263602698
 30
0.0
 11
46.56375086104355
 21
40.13082263602698
 31
0.0
  0
LINE
  5
45B
330
1F
100
AcDbEntity
  8
0
  6
SLD-Solid
 62
     7
370
    25
100
AcDbLine
 10
46.71475086104355
 20
40.13082263602698
 30
0.0
 11
46.56875086104354
 21
40.13082263602698
 31
0.0
  0
LINE
  5
45C
330
1F
100
AcDbEntity
  8
0
  6
SLD-Solid
 62
     7
370
    25
100
AcDbLine
 10
46.71975086104354
 20
40.13082263602698
 30
0.0
 11
46.71475086104355
 21
40.13082263602698
 31
0.0
  0
LINE
  5
45D
330
1F
100
AcDbEntity
  8
0
  6
SLD-Solid
 62
     7
370
    25
100
AcDbLine
 10
46.71975086104354
 20
40.50582263602698
 30
0.0
 11
46.71975086104354
 21
40.13082263602698
 31
0.0
  0
LINE
  5
45E
330
1F
100
AcDbEntity
  8
0
  6
SLD-Solid
 62
     7
370
    25
100
AcDbLine
 10
46.71475086104353
 20
40.50582263602698
 30
0.0
 11
46.71975086104354
 21
40.50582263602698
 31
0.0
  0
LINE
  5
45F
330
1F
100
AcDbEntity
  8
0
  6
SLD-Solid
 62
     7
370
    25
100
AcDbLine
 10
46.56875086104353
 20
40.50582263602698
 30
0.0
 11
46.71475086104353
 21
40.50582263602698
 31
0.0
  0
LINE
  5
460
330
1F
100
AcDbEntity
  8
0
  6
SLD-Solid
 62
     7
370
    25
100
AcDbLine
 10
46.56375086104355
 20
40.50582263602698
 30
0.0
 11
46.56875086104353
 21
40.50582263602698
 31
0.0
  0
LINE
  5
461
330
1F
100
AcDbEntity
  8
0
  6
SLD-Solid
 62
     7
370
    25
100
AcDbLine
 10
45.62500086104359
 20
44.15166308601049
 30
0.0
 11
45.62500086104359
 21
44.10866308601048
 31
0.0
  0
LINE
  5
462
330
1F
100
AcDbEntity
  8
0
  6
SLD-Solid
 62
     7
370
    25
100
AcDbLine
 10
60.86250086104359
 20
44.10866308601044
 30
0.0
 11
60.86250086104359
 21
44.15166308601047
 31
0.0
  0
ARC
  5
463
330
1F
100
AcDbEntity
  8
0
  6
SLD-Solid
 62
     7
370
    25
100
AcDbCircle
 10
60.93250086104355
 20
36.33332263602691
 30
0.0
 40
0.0300000000000011
100
AcDbArc
 50
270.0000000000008
 51
0.0
  0
LINE
  5
464
330
1F
100
AcDbEntity
  8
0
  6
SLD-Solid
 62
     7
370
    25
100
AcDbLine
 10
45.55500086104355
 20
36.30332263602699
 30
0.0
 11
60.93250086104355
 21
36.30332263602691
 31
0.0
  0
ARC
  5
465
330
1F
100
AcDbEntity
  8
0
  6
SLD-Solid
 62
     7
370
    25
100
AcDbCircle
 10
45.55500086104355
 20
36.33332263602699
 30
0.0
 40
0.0300000000000082
100
AcDbArc
 50
180.0
 51
270.0000000000008
  0
CIRCLE
  5
466
330
1F
100
AcDbEntity
  8
0
  6
SLD-Solid
 62
     7
370
    25
100
AcDbCircle
 10
59.46175086104361
 20
43.42832263602688
 30
0.0
 40
0.1560000000000059
  0
LINE
  5
467
330
1F
100
AcDbEntity
  8
0
  6
SLD-Solid
 62
     7
370
    25
100
AcDbLine
 10
59.76775086104359
 20
40.13082263602692
 30
0.0
 11
59.77275086104359
 21
40.13082263602692
 31
0.0
  0
LINE
  5
468
330
1F
100
AcDbEntity
  8
0
  6
SLD-Solid
 62
     7
370
    25
100
AcDbLine
 10
59.91875086104359
 20
40.13082263602692
 30
0.0
 11
59.77275086104359
 21
40.13082263602692
 31
0.0
  0
LINE
  5
469
330
1F
100
AcDbEntity
  8
0
  6
SLD-Solid
 62
     7
370
    25
100
AcDbLine
 10
59.91875086104359
 20
40.13082263602692
 30
0.0
 11
59.92375086104359
 21
40.13082263602692
 31
0.0
  0
LINE
  5
46A
330
1F
100
AcDbEntity
  8
0
  6
SLD-Solid
 62
     7
370
    25
100
AcDbLine
 10
59.92375086104359
 20
40.13082263602692
 30
0.0
 11
59.92375086104359
 21
40.50582263602692
 31
0.0
  0
LINE
  5
46B
330
1F
100
AcDbEntity
  8
0
  6
SLD-Solid
 62
     7
370
    25
100
AcDbLine
 10
59.92375086104359
 20
40.50582263602692
 30
0.0
 11
59.91875086104361
 21
40.50582263602692
 31
0.0
  0
LINE
  5
46C
330
1F
100
AcDbEntity
  8
0
  6
SLD-Solid
 62
     7
370
    25
100
AcDbLine
 10
59.7727508610436
 20
40.50582263602692
 30
0.0
 11
59.91875086104361
 21
40.50582263602692
 31
0.0
  0
LINE
  5
46D
330
1F
100
AcDbEntity
  8
0
  6
SLD-Solid
 62
     7
370
    25
100
AcDbLine
 10
59.7727508610436
 20
40.50582263602692
 30
0.0
 11
59.7677508610436
 21
40.50582263602692
 31
0.0
  0
LINE
  5
46E
330
1F
100
AcDbEntity
  8
0
  6
SLD-Solid
 62
     7
370
    25
100
AcDbLine
 10
59.7677508610436
 20
40.50582263602692
 30
0.0
 11
59.76775086104359
 21
40.13082263602692
 31
0.0
  0
LINE
  5
46F
330
1F
100
AcDbEntity
  8
0
  6
SLD-Solid
 62
     7
370
    25
100
AcDbLine
 10
60.20375086104359
 20
40.13082263602691
 30
0.0
 11
60.20875086104359
 21
40.13082263602691
 31
0.0
  0
LINE
  5
470
330
1F
100
AcDbEntity
  8
0
  6
SLD-Solid
 62
     7
370
    25
100
AcDbLine
 10
60.35475086104358
 20
40.13082263602691
 30
0.0
 11
60.20875086104359
 21
40.13082263602691
 31
0.0
  0
LINE
  5
471
330
1F
100
AcDbEntity
  8
0
  6
SLD-Solid
 62
     7
370
    25
100
AcDbLine
 10
60.35475086104358
 20
40.13082263602691
 30
0.0
 11
60.35975086104359
 21
40.13082263602691
 31
0.0
  0
LINE
  5
472
330
1F
100
AcDbEntity
  8
0
  6
SLD-Solid
 62
     7
370
    25
100
AcDbLine
 10
60.35975086104359
 20
40.13082263602691
 30
0.0
 11
60.35975086104359
 21
40.50582263602691
 31
0.0
  0
LINE
  5
473
330
1F
100
AcDbEntity
  8
0
  6
SLD-Solid
 62
     7
370
    25
100
AcDbLine
 10
60.35975086104359
 20
40.50582263602691
 30
0.0
 11
60.3547508610436
 21
40.50582263602691
 31
0.0
  0
LINE
  5
474
330
1F
100
AcDbEntity
  8
0
  6
SLD-Solid
 62
     7
370
    25
100
AcDbLine
 10
60.2087508610436
 20
40.50582263602691
 30
0.0
 11
60.3547508610436
 21
40.50582263602691
 31
0.0
  0
LINE
  5
475
330
1F
100
AcDbEntity
  8
0
  6
SLD-Solid
 62
     7
370
    25
100
AcDbLine
 10
60.2087508610436
 20
40.50582263602691
 30
0.0
 11
60.20375086104359
 21
40.50582263602691
 31
0.0
  0
LINE
  5
476
330
1F
100
AcDbEntity
  8
0
  6
SLD-Solid
 62
     7
370
    25
100
AcDbLine
 10
60.20375086104359
 20
40.50582263602691
 30
0.0
 11
60.20375086104359
 21
40.13082263602691
 31
0.0
  0
LINE
  5
477
330
1F
100
AcDbEntity
  8
0
  6
SLD-Solid
 62
     7
370
    25
100
AcDbLine
 10
60.20875086104359
 20
40.13082263602691
 30
0.0
 11
60.20875086104359
 21
40.16409006933527
 31
0.0
  0
LINE
  5
478
330
1F
100
AcDbEntity
  8
0
  6
SLD-Solid
 62
     7
370
    25
100
AcDbLine
 10
60.35475086104358
 20
40.16409006933527
 30
0.0
 11
60.20875086104359
 21
40.16409006933527
 31
0.0
  0
LINE
  5
479
330
1F
100
AcDbEntity
  8
0
  6
SLD-Solid
 62
     7
370
    25
100
AcDbLine
 10
60.35475086104358
 20
40.16409006933527
 30
0.0
 11
60.35475086104358
 21
40.13082263602691
 31
0.0
  0
LINE
  5
47A
330
1F
100
AcDbEntity
  8
0
  6
SLD-Solid
 62
     7
370
    25
100
AcDbLine
 10
60.3547508610436
 20
40.50582263602691
 30
0.0
 11
60.3547508610436
 21
40.47255520271855
 31
0.0
  0
LINE
  5
47B
330
1F
100
AcDbEntity
  8
0
  6
SLD-Solid
 62
     7
370
    25
100
AcDbLine
 10
60.2087508610436
 20
40.47255520271856
 30
0.0
 11
60.3547508610436
 21
40.47255520271855
 31
0.0
  0
LINE
  5
47C
330
1F
100
AcDbEntity
  8
0
  6
SLD-Solid
 62
     7
370
    25
100
AcDbLine
 10
60.2087508610436
 20
40.47255520271856
 30
0.0
 11
60.2087508610436
 21
40.50582263602691
 31
0.0
  0
LINE
  5
47D
330
1F
100
AcDbEntity
  8
0
  6
SLD-Solid
 62
     7
370
    25
100
AcDbLine
 10
59.77275086104359
 20
40.13082263602692
 30
0.0
 11
59.77275086104359
 21
40.16409006933527
 31
0.0
  0
LINE
  5
47E
330
1F
100
AcDbEntity
  8
0
  6
SLD-Solid
 62
     7
370
    25
100
AcDbLine
 10
59.91875086104359
 20
40.16409006933527
 30
0.0
 11
59.77275086104359
 21
40.16409006933527
 31
0.0
  0
LINE
  5
47F
330
1F
100
AcDbEntity
  8
0
  6
SLD-Solid
 62
     7
370
    25
100
AcDbLine
 10
59.91875086104359
 20
40.16409006933527
 30
0.0
 11
59.91875086104359
 21
40.13082263602692
 31
0.0
  0
LINE
  5
480
330
1F
100
AcDbEntity
  8
0
  6
SLD-Solid
 62
     7
370
    25
100
AcDbLine
 10
59.91875086104361
 20
40.50582263602692
 30
0.0
 11
59.91875086104361
 21
40.47255520271856
 31
0.0
  0
LINE
  5
481
330
1F
100
AcDbEntity
  8
0
  6
SLD-Solid
 62
     7
370
    25
100
AcDbLine
 10
59.7727508610436
 20
40.47255520271856
 30
0.0
 11
59.91875086104361
 21
40.47255520271856
 31
0.0
  0
LINE
  5
482
330
1F
100
AcDbEntity
  8
0
  6
SLD-Solid
 62
     7
370
    25
100
AcDbLine
 10
59.7727508610436
 20
40.47255520271856
 30
0.0
 11
59.7727508610436
 21
40.50582263602692
 31
0.0
  0
LINE
  5
483
330
1F
100
AcDbEntity
  8
0
  6
SLD-Solid
 62
     7
370
    25
100
AcDbLine
 10
46.56875086104354
 20
40.13082263602698
 30
0.0
 11
46.56875086104354
 21
40.16409006933534
 31
0.0
  0
LINE
  5
484
330
1F
100
AcDbEntity
  8
0
  6
SLD-Solid
 62
     7
370
    25
100
AcDbLine
 10
46.71475086104355
 20
40.16409006933534
 30
0.0
 11
46.56875086104354
 21
40.16409006933534
 31
0.0
  0
LINE
  5
485
330
1F
100
AcDbEntity
  8
0
  6
SLD-Solid
 62
     7
370
    25
100
AcDbLine
 10
46.71475086104355
 20
40.16409006933534
 30
0.0
 11
46.71475086104355
 21
40.13082263602698
 31
0.0
  0
LINE
  5
486
330
1F
100
AcDbEntity
  8
0
  6
SLD-Solid
 62
     7
370
    25
100
AcDbLine
 10
46.71475086104353
 20
40.50582263602698
 30
0.0
 11
46.71475086104353
 21
40.47255520271862
 31
0.0
  0
LINE
  5
487
330
1F
100
AcDbEntity
  8
0
  6
SLD-Solid
 62
     7
370
    25
100
AcDbLine
 10
46.56875086104353
 20
40.47255520271862
 30
0.0
 11
46.71475086104353
 21
40.47255520271862
 31
0.0
  0
LINE
  5
488
330
1F
100
AcDbEntity
  8
0
  6
SLD-Solid
 62
     7
370
    25
100
AcDbLine
 10
46.56875086104353
 20
40.47255520271862
 30
0.0
 11
46.56875086104353
 21
40.50582263602698
 31
0.0
  0
LINE
  5
489
330
1F
100
AcDbEntity
  8
0
  6
SLD-Solid
 62
     7
370
    25
100
AcDbLine
 10
46.13275086104355
 20
40.13082263602698
 30
0.0
 11
46.13275086104355
 21
40.16409006933534
 31
0.0
  0
LINE
  5
48A
330
1F
100
AcDbEntity
  8
0
  6
SLD-Solid
 62
     7
370
    25
100
AcDbLine
 10
46.27875086104354
 20
40.16409006933534
 30
0.0
 11
46.13275086104355
 21
40.16409006933534
 31
0.0
  0
LINE
  5
48B
330
1F
100
AcDbEntity
  8
0
  6
SLD-Solid
 62
     7
370
    25
100
AcDbLine
 10
46.27875086104354
 20
40.16409006933534
 30
0.0
 11
46.27875086104354
 21
40.13082263602698
 31
0.0
  0
LINE
  5
48C
330
1F
100
AcDbEntity
  8
0
  6
SLD-Solid
 62
     7
370
    25
100
AcDbLine
 10
46.13275086104353
 20
40.47255520271862
 30
0.0
 11
46.27875086104353
 21
40.47255520271862
 31
0.0
  0
LINE
  5
48D
330
1F
100
AcDbEntity
  8
0
  6
SLD-Solid
 62
     7
370
    25
100
AcDbLine
 10
46.13275086104353
 20
40.47255520271862
 30
0.0
 11
46.13275086104353
 21
40.50582263602698
 31
0.0
  0
LINE
  5
48E
330
1F
100
AcDbEntity
  8
0
  6
SLD-Solid
 62
     7
370
    25
100
AcDbLine
 10
46.27875086104353
 20
40.50582263602698
 30
0.0
 11
46.27875086104353
 21
40.47255520271862
 31
0.0
  0
LINE
  5
48F
330
1F
100
AcDbEntity
  8
0
  6
SLD-Solid
 62
     7
370
    25
100
AcDbLine
 10
60.20875086104359
 20
40.28707263602708
 30
0.0
 11
60.20875086104359
 21
40.16409006933527
 31
0.0
  0
LINE
  5
490
330
1F
100
AcDbEntity
  8
0
  6
SLD-Solid
 62
     7
370
    25
100
AcDbLine
 10
60.35475086104358
 20
40.16409006933527
 30
0.0
 11
60.3547508610436
 21
40.28707263602708
 31
0.0
  0
LINE
  5
491
330
1F
100
AcDbEntity
  8
0
  6
SLD-Solid
 62
     7
370
    25
100
AcDbLine
 10
60.2087508610436
 20
40.47255520271856
 30
0.0
 11
60.20875086104359
 21
40.34957263602708
 31
0.0
  0
LINE
  5
492
330
1F
100
AcDbEntity
  8
0
  6
SLD-Solid
 62
     7
370
    25
100
AcDbLine
 10
60.3547508610436
 20
40.34957263602708
 30
0.0
 11
60.3547508610436
 21
40.47255520271855
 31
0.0
  0
LINE
  5
493
330
1F
100
AcDbEntity
  8
0
  6
SLD-Solid
 62
     7
370
    25
100
AcDbLine
 10
59.7727508610436
 20
40.29246157353247
 30
0.0
 11
59.77275086104359
 21
40.16409006933527
 31
0.0
  0
LINE
  5
494
330
1F
100
AcDbEntity
  8
0
  6
SLD-Solid
 62
     7
370
    25
100
AcDbLine
 10
59.91875086104359
 20
40.16409006933527
 30
0.0
 11
59.91875086104361
 21
40.28707263602708
 31
0.0
  0
LINE
  5
495
330
1F
100
AcDbEntity
  8
0
  6
SLD-Solid
 62
     7
370
    25
100
AcDbLine
 10
59.7727508610436
 20
40.47255520271856
 30
0.0
 11
59.7727508610436
 21
40.35544679660347
 31
0.0
  0
LINE
  5
496
330
1F
100
AcDbEntity
  8
0
  6
SLD-Solid
 62
     7
370
    25
100
AcDbLine
 10
59.91875086104361
 20
40.34957263602708
 30
0.0
 11
59.91875086104361
 21
40.47255520271856
 31
0.0
  0
LINE
  5
497
330
1F
100
AcDbEntity
  8
0
  6
SLD-Solid
 62
     7
370
    25
100
AcDbLine
 10
46.56875086104354
 20
40.16409006933534
 30
0.0
 11
46.56875086104352
 21
40.28707263602708
 31
0.0
  0
LINE
  5
498
330
1F
100
AcDbEntity
  8
0
  6
SLD-Solid
 62
     7
370
    25
100
AcDbLine
 10
46.71475086104353
 20
40.29246157353253
 30
0.0
 11
46.71475086104355
 21
40.16409006933534
 31
0.0
  0
LINE
  5
499
330
1F
100
AcDbEntity
  8
0
  6
SLD-Solid
 62
     7
370
    25
100
AcDbLine
 10
46.71475086104353
 20
40.47255520271862
 30
0.0
 11
46.71475086104353
 21
40.35524115597595
 31
0.0
  0
LINE
  5
49A
330
1F
100
AcDbEntity
  8
0
  6
SLD-Solid
 62
     7
370
    25
100
AcDbLine
 10
46.56875086104352
 20
40.34957263602708
 30
0.0
 11
46.56875086104353
 21
40.47255520271862
 31
0.0
  0
LINE
  5
49B
330
1F
100
AcDbEntity
  8
0
  6
SLD-Solid
 62
     7
370
    25
100
AcDbLine
 10
46.13275086104355
 20
40.16409006933534
 30
0.0
 11
46.13275086104353
 21
40.28707263602708
 31
0.0
  0
LINE
  5
49C
330
1F
100
AcDbEntity
  8
0
  6
SLD-Solid
 62
     7
370
    25
100
AcDbLine
 10
46.27875086104353
 20
40.28707263602708
 30
0.0
 11
46.27875086104354
 21
40.16409006933534
 31
0.0
  0
LINE
  5
49D
330
1F
100
AcDbEntity
  8
0
  6
SLD-Solid
 62
     7
370
    25
100
AcDbLine
 10
46.27875086104353
 20
40.47255520271862
 30
0.0
 11
46.27875086104353
 21
40.34957263602708
 31
0.0
  0
LINE
  5
49E
330
1F
100
AcDbEntity
  8
0
  6
SLD-Solid
 62
     7
370
    25
100
AcDbLine
 10
46.13275086104353
 20
40.34957263602708
 30
0.0
 11
46.13275086104353
 21
40.47255520271862
 31
0.0
  0
LINE
  5
49F
330
1F
100
AcDbEntity
  8
0
  6
SLD-Solid
 62
     7
370
    25
100
AcDbLine
 10
60.96675086104268
 20
36.33332263602686
 30
0.0
 11
61.03165086104271
 21
36.33332263602686
 31
0.0
  0
LINE
  5
4A0
330
1F
100
AcDbEntity
  8
0
  6
SLD-Solid
 62
     7
370
    25
100
AcDbLine
 10
60.96675086104268
 20
36.33332263602686
 30
0.0
 11
60.9667508610427
 21
44.10866308601044
 31
0.0
  0
LINE
  5
4A1
330
1F
100
AcDbEntity
  8
0
  6
SLD-Solid
 62
     7
370
    25
100
AcDbLine
 10
61.03165086104269
 20
44.10866308601044
 30
0.0
 11
60.9667508610427
 21
44.10866308601044
 31
0.0
  0
LINE
  5
4A2
330
1F
100
AcDbEntity
  8
0
  6
SLD-Solid
 62
     7
370
    25
100
AcDbLine
 10
61.03165086104267
 20
36.33332263602686
 30
0.0
 11
61.03165086104269
 21
44.10866308601044
 31
0.0
  0
LINE
  5
4A3
330
1F
100
AcDbEntity
  8
0
  6
SLD-Solid
 62
     7
370
    25
100
AcDbLine
 10
45.45585086104269
 20
44.10866308601048
 30
0.0
 11
45.52075086104269
 21
44.10866308601048
 31
0.0
  0
LINE
  5
4A4
330
1F
100
AcDbEntity
  8
0
  6
SLD-Solid
 62
     7
370
    25
100
AcDbLine
 10
45.52075086104269
 20
36.33332263602689
 30
0.0
 11
45.52075086104269
 21
44.10866308601048
 31
0.0
  0
LINE
  5
4A5
330
1F
100
AcDbEntity
  8
0
  6
SLD-Solid
 62
     7
370
    25
100
AcDbLine
 10
45.52075086104269
 20
36.33332263602689
 30
0.0
 11
45.45585086104266
 21
36.3333226360269
 31
0.0
  0
LINE
  5
4A6
330
1F
100
AcDbEntity
  8
0
  6
SLD-Solid
 62
     7
370
    25
100
AcDbLine
 10
45.45585086104269
 20
36.3333226360269
 30
0.0
 11
45.45585086104269
 21
44.10866308601048
 31
0.0
  0
ARC
  5
4A7
330
1F
100
AcDbEntity
  8
0
  6
SLD-Solid
 62
     7
370
    25
100
AcDbCircle
 10
60.56575086104271
 20
36.43332263602687
 30
0.0
 40
0.1000000000000085
100
AcDbArc
 50
180.0
 51
270.0000000000008
  0
LINE
  5
4A8
330
1F
100
AcDbEntity
  8
0
  6
SLD-Solid
 62
     7
370
    25
100
AcDbLine
 10
60.46575086104271
 20
36.43332263602687
 30
0.0
 11
60.4657508610427
 21
44.05866308601045
 31
0.0
  0
ARC
  5
4A9
330
1F
100
AcDbEntity
  8
0
  6
SLD-Solid
 62
     7
370
    25
100
AcDbCircle
 10
60.5157508610427
 20
44.05866308601045
 30
0.0
 40
0.0500000000000043
100
AcDbArc
 50
90.0
 51
180.0
  0
LINE
  5
4AA
330
1F
100
AcDbEntity
  8
0
  6
SLD-Solid
 62
     7
370
    25
100
AcDbLine
 10
60.5157508610427
 20
44.10866308601044
 30
0.0
 11
60.9667508610427
 21
44.10866308601044
 31
0.0
  0
LINE
  5
4AB
330
1F
100
AcDbEntity
  8
0
  6
SLD-Solid
 62
     7
370
    25
100
AcDbLine
 10
60.96675086104268
 20
36.33332263602686
 30
0.0
 11
60.56575086104271
 21
36.33332263602686
 31
0.0
  0
LINE
  5
4AC
330
1F
100
AcDbEntity
  8
0
  6
SLD-Solid
 62
     7
370
    25
100
AcDbLine
 10
45.97175086104269
 20
44.10866308601047
 30
0.0
 11
45.52075086104269
 21
44.10866308601048
 31
0.0
  0
ARC
  5
4AD
330
1F
100
AcDbEntity
  8
0
  6
SLD-Solid
 62
     7
370
    25
100
AcDbCircle
 10
45.97175086104269
 20
44.05866308601047
 30
0.0
 40
0.0500000000000043
100
AcDbArc
 50
0.0
 51
90.0
  0
LINE
  5
4AE
330
1F
100
AcDbEntity
  8
0
  6
SLD-Solid
 62
     7
370
    25
100
AcDbLine
 10
46.02175086104266
 20
36.43332263602691
 30
0.0
 11
46.02175086104269
 21
44.05866308601047
 31
0.0
  0
ARC
  5
4AF
330
1F
100
AcDbEntity
  8
0
  6
SLD-Solid
 62
     7
370
    25
100
AcDbCircle
 10
45.92175086104266
 20
36.4333226360269
 30
0.0
 40
0.1000000000000014
100
AcDbArc
 50
270.0000000000049
 51
0.0000000000048008
  0
LINE
  5
4B0
330
1F
100
AcDbEntity
  8
0
  6
SLD-Solid
 62
     7
370
    25
100
AcDbLine
 10
45.52075086104269
 20
36.33332263602689
 30
0.0
 11
45.92175086104267
 21
36.33332263602691
 31
0.0
  0
LINE
  5
4B1
330
1F
100
AcDbEntity
  8
0
  6
SLD-Solid
 62
     7
370
    25
100
AcDbLine
 10
53.2437508610427
 20
44.15166308601048
 30
0.0
 11
45.60765086104269
 21
44.15166308601049
 31
0.0
  0
ARC
  5
4B2
330
1F
100
AcDbEntity
  8
0
  6
SLD-Solid
 62
     7
370
    25
100
AcDbCircle
 10
45.60765086104269
 20
44.2016630860105
 30
0.0
 40
0.0500000000000043
100
AcDbArc
 50
180.0
 51
270.0000000000008
  0
LINE
  5
4B3
330
1F
100
AcDbEntity
  8
0
  6
SLD-Solid
 62
     7
370
    25
100
AcDbLine
 10
45.55765086104269
 20
44.2016630860105
 30
0.0
 11
45.55765086104269
 21
44.64266308601049
 31
0.0
  0
LINE
  5
4B4
330
1F
100
AcDbEntity
  8
0
  6
SLD-Solid
 62
     7
370
    25
100
AcDbLine
 10
60.9298508610427
 20
44.64266308601047
 30
0.0
 11
45.55765086104269
 21
44.64266308601049
 31
0.0
  0
LINE
  5
4B5
330
1F
100
AcDbEntity
  8
0
  6
SLD-Solid
 62
     7
370
    25
100
AcDbLine
 10
60.92985086104269
 20
44.20166308601046
 30
0.0
 11
60.9298508610427
 21
44.64266308601047
 31
0.0
  0
ARC
  5
4B6
330
1F
100
AcDbEntity
  8
0
  6
SLD-Solid
 62
     7
370
    25
100
AcDbCircle
 10
60.8798508610427
 20
44.20166308601046
 30
0.0
 40
0.0499999999999972
100
AcDbArc
 50
270.0000000000008
 51
0.0
  0
LINE
  5
4B7
330
1F
100
AcDbEntity
  8
0
  6
SLD-Solid
 62
     7
370
    25
100
AcDbLine
 10
60.8798508610427
 20
44.15166308601047
 30
0.0
 11
53.30826685887092
 21
44.15166308601048
 31
0.0
  0
LINE
  5
4B8
330
1F
100
AcDbEntity
  8
0
  6
SLD-Solid
 62
     7
370
    25
100
AcDbLine
 10
60.99575086104272
 20
44.61266308601045
 30
0.0
 11
61.03165086104272
 21
44.61266308601045
 31
0.0
  0
LINE
  5
4B9
330
1F
100
AcDbEntity
  8
0
  6
SLD-Solid
 62
     7
370
    25
100
AcDbLine
 10
60.9957508610427
 20
44.13837317161438
 30
0.0
 11
61.0316508610427
 21
44.13837317161438
 31
0.0
  0
LINE
  5
4BA
330
1F
100
AcDbEntity
  8
0
  6
SLD-Solid
 62
     7
370
    25
100
AcDbLine
 10
60.9957508610427
 20
44.13837317161438
 30
0.0
 11
60.99575086104272
 21
44.61266308601045
 31
0.0
  0
LINE
  5
4BB
330
1F
100
AcDbEntity
  8
0
  6
SLD-Solid
 62
     7
370
    25
100
AcDbLine
 10
61.0316508610427
 20
44.13837317161438
 30
0.0
 11
61.03165086104272
 21
44.61266308601045
 31
0.0
  0
LINE
  5
4BC
330
1F
100
AcDbEntity
  8
0
  6
SLD-Solid
 62
     7
370
    25
100
AcDbLine
 10
45.4917508610427
 20
44.13837317161442
 30
0.0
 11
45.45585086104269
 21
44.13837317161442
 31
0.0
  0
LINE
  5
4BD
330
1F
100
AcDbEntity
  8
0
  6
SLD-Solid
 62
     7
370
    25
100
AcDbLine
 10
45.4917508610427
 20
44.61266308601049
 30
0.0
 11
45.45585086104269
 21
44.61266308601049
 31
0.0
  0
LINE
  5
4BE
330
1F
100
AcDbEntity
  8
0
  6
SLD-Solid
 62
     7
370
    25
100
AcDbLine
 10
45.4917508610427
 20
44.13837317161442
 30
0.0
 11
45.4917508610427
 21
44.61266308601049
 31
0.0
  0
LINE
  5
4BF
330
1F
100
AcDbEntity
  8
0
  6
SLD-Solid
 62
     7
370
    25
100
AcDbLine
 10
45.45585086104269
 20
44.13837317161442
 30
0.0
 11
45.45585086104269
 21
44.61266308601049
 31
0.0
  0
LINE
  5
4C0
330
1F
100
AcDbEntity
  8
0
  6
SLD-Solid
 62
     7
370
    25
100
AcDbLine
 10
60.9947508610427
 20
44.17166308601046
 30
0.0
 11
60.95885086104271
 21
44.17166308601046
 31
0.0
  0
LINE
  5
4C1
330
1F
100
AcDbEntity
  8
0
  6
SLD-Solid
 62
     7
370
    25
100
AcDbLine
 10
60.95885086104271
 20
44.64266308601047
 30
0.0
 11
60.99475086104271
 21
44.64266308601047
 31
0.0
  0
LINE
  5
4C2
330
1F
100
AcDbEntity
  8
0
  6
SLD-Solid
 62
     7
370
    25
100
AcDbLine
 10
60.95885086104271
 20
44.17166308601046
 30
0.0
 11
60.95885086104271
 21
44.64266308601047
 31
0.0
  0
LINE
  5
4C3
330
1F
100
AcDbEntity
  8
0
  6
SLD-Solid
 62
     7
370
    25
100
AcDbLine
 10
60.9947508610427
 20
44.17166308601046
 30
0.0
 11
60.99475086104271
 21
44.64266308601047
 31
0.0
  0
LINE
  5
4C4
330
1F
100
AcDbEntity
  8
0
  6
SLD-Solid
 62
     7
370
    25
100
AcDbLine
 10
45.52865086104269
 20
44.64266308601049
 30
0.0
 11
45.49275086104269
 21
44.64266308601049
 31
0.0
  0
LINE
  5
4C5
330
1F
100
AcDbEntity
  8
0
  6
SLD-Solid
 62
     7
370
    25
100
AcDbLine
 10
45.49275086104269
 20
44.17166308601049
 30
0.0
 11
45.52865086104269
 21
44.1716630860105
 31
0.0
  0
LINE
  5
4C6
330
1F
100
AcDbEntity
  8
0
  6
SLD-Solid
 62
     7
370
    25
100
AcDbLine
 10
45.49275086104269
 20
44.17166308601049
 30
0.0
 11
45.49275086104269
 21
44.64266308601049
 31
0.0
  0
LINE
  5
4C7
330
1F
100
AcDbEntity
  8
0
  6
SLD-Solid
 62
     7
370
    25
100
AcDbLine
 10
45.52865086104269
 20
44.1716630860105
 30
0.0
 11
45.52865086104269
 21
44.64266308601049
 31
0.0
  0
LINE
  5
4C8
330
1F
100
AcDbEntity
  8
0
  6
SLD-Solid
 62
     7
370
    25
100
AcDbLine
 10
60.9298508610427
 20
44.64266308601047
 30
0.0
 11
60.9298508610427
 21
44.70756308601045
 31
0.0
  0
LINE
  5
4C9
330
1F
100
AcDbEntity
  8
0
  6
SLD-Solid
 62
     7
370
    25
100
AcDbLine
 10
45.55765086104269
 20
44.64266308601049
 30
0.0
 11
45.55765086104271
 21
44.70756308601049
 31
0.0
  0
LINE
  5
4CA
330
1F
100
AcDbEntity
  8
0
  6
SLD-Solid
 62
     7
370
    25
100
AcDbLine
 10
60.9298508610427
 20
44.70756308601045
 30
0.0
 11
45.55765086104271
 21
44.70756308601049
 31
0.0
  0
LINE
  5
4CB
330
1F
100
AcDbEntity
  8
0
  6
SLD-Solid
 62
     7
370
    25
100
AcDbLine
 10
61.03165086104272
 20
44.64266308601044
 30
0.0
 11
60.99575086104272
 21
44.64266308601044
 31
0.0
  0
LINE
  5
4CC
330
1F
100
AcDbEntity
  8
0
  6
SLD-Solid
 62
     7
370
    25
100
AcDbLine
 10
60.99575086104272
 20
44.64266308601044
 30
0.0
 11
60.99575086104272
 21
44.61266308601045
 31
0.0
  0
LINE
  5
4CD
330
1F
100
AcDbEntity
  8
0
  6
SLD-Solid
 62
     7
370
    25
100
AcDbLine
 10
61.03165086104272
 20
44.61266308601045
 30
0.0
 11
61.03165086104272
 21
44.64266308601044
 31
0.0
  0
LINE
  5
4CE
330
1F
100
AcDbEntity
  8
0
  6
SLD-Solid
 62
     7
370
    25
100
AcDbLine
 10
45.45585086104269
 20
44.64266308601048
 30
0.0
 11
45.4917508610427
 21
44.64266308601048
 31
0.0
  0
LINE
  5
4CF
330
1F
100
AcDbEntity
  8
0
  6
SLD-Solid
 62
     7
370
    25
100
AcDbLine
 10
45.4917508610427
 20
44.64266308601048
 30
0.0
 11
45.4917508610427
 21
44.61266308601049
 31
0.0
  0
LINE
  5
4D0
330
1F
100
AcDbEntity
  8
0
  6
SLD-Solid
 62
     7
370
    25
100
AcDbLine
 10
45.45585086104269
 20
44.61266308601049
 30
0.0
 11
45.45585086104269
 21
44.64266308601048
 31
0.0
  0
ARC
  5
4D1
330
1F
100
AcDbEntity
  8
0
  6
SLD-Solid
 62
     7
370
    25
100
AcDbCircle
 10
60.92985086104272
 20
44.64266308601047
 30
0.0
 40
0.0289999999999964
100
AcDbArc
 50
0.0
 51
90.0
  0
ARC
  5
4D2
330
1F
100
AcDbEntity
  8
0
  6
SLD-Solid
 62
     7
370
    25
100
AcDbCircle
 10
60.92985086104272
 20
44.64266308601047
 30
0.0
 40
0.0648999999999944
100
AcDbArc
 50
0.0
 51
90.00000000001255
  0
ARC
  5
4D3
330
1F
100
AcDbEntity
  8
0
  6
SLD-Solid
 62
     7
370
    25
100
AcDbCircle
 10
45.55765086104269
 20
44.64266308601049
 30
0.0
 40
0.0290000000000035
100
AcDbArc
 50
90.0
 51
180.0
  0
ARC
  5
4D4
330
1F
100
AcDbEntity
  8
0
  6
SLD-Solid
 62
     7
370
    25
100
AcDbCircle
 10
45.55765086104269
 20
44.64266308601049
 30
0.0
 40
0.0648999999999944
100
AcDbArc
 50
89.99999999998118
 51
179.9999999999988
  0
LINE
  5
4D5
330
1F
100
AcDbEntity
  8
0
  6
SLD-Solid
 62
     7
370
    25
100
AcDbLine
 10
60.9957508610427
 20
44.13837317161438
 30
0.0
 11
60.9957508610427
 21
44.10866308601044
 31
0.0
  0
LINE
  5
4D6
330
1F
100
AcDbEntity
  8
0
  6
SLD-Solid
 62
     7
370
    25
100
AcDbLine
 10
61.0316508610427
 20
44.13837317161438
 30
0.0
 11
61.0316508610427
 21
44.10866308601044
 31
0.0
  0
LINE
  5
4D7
330
1F
100
AcDbEntity
  8
0
  6
SLD-Solid
 62
     7
370
    25
100
AcDbLine
 10
45.4917508610427
 20
44.13837317161442
 30
0.0
 11
45.4917508610427
 21
44.10866308601048
 31
0.0
  0
LINE
  5
4D8
330
1F
100
AcDbEntity
  8
0
  6
SLD-Solid
 62
     7
370
    25
100
AcDbLine
 10
45.45585086104269
 20
44.13837317161442
 30
0.0
 11
45.45585086104269
 21
44.10866308601048
 31
0.0
  0
LINE
  5
4D9
330
1F
100
AcDbEntity
  8
0
  6
SLD-Solid
 62
     7
370
    25
100
AcDbLine
 10
60.95885086104271
 20
44.12166308601047
 30
0.0
 11
60.9947508610427
 21
44.12166308601047
 31
0.0
  0
LINE
  5
4DA
330
1F
100
AcDbEntity
  8
0
  6
SLD-Solid
 62
     7
370
    25
100
AcDbLine
 10
60.95885086104271
 20
44.17166308601046
 30
0.0
 11
60.95885086104271
 21
44.12166308601047
 31
0.0
  0
LINE
  5
4DB
330
1F
100
AcDbEntity
  8
0
  6
SLD-Solid
 62
     7
370
    25
100
AcDbLine
 10
60.9947508610427
 20
44.12166308601047
 30
0.0
 11
60.9947508610427
 21
44.17166308601046
 31
0.0
  0
LINE
  5
4DC
330
1F
100
AcDbEntity
  8
0
  6
SLD-Solid
 62
     7
370
    25
100
AcDbLine
 10
45.52865086104269
 20
44.12166308601049
 30
0.0
 11
45.49275086104269
 21
44.12166308601049
 31
0.0
  0
LINE
  5
4DD
330
1F
100
AcDbEntity
  8
0
  6
SLD-Solid
 62
     7
370
    25
100
AcDbLine
 10
45.49275086104269
 20
44.12166308601049
 30
0.0
 11
45.49275086104269
 21
44.17166308601049
 31
0.0
  0
LINE
  5
4DE
330
1F
100
AcDbEntity
  8
0
  6
SLD-Solid
 62
     7
370
    25
100
AcDbLine
 10
45.52865086104269
 20
44.1716630860105
 30
0.0
 11
45.52865086104269
 21
44.12166308601049
 31
0.0
  0
LWPOLYLINE
  5
4DF
330
1F
100
AcDbEntity
  8
0
  6
SLD-Solid
 62
     7
370
    25
100
AcDbPolyline
 90
        3
 70
   128
 43
0.0
 10
60.99447040628146
 20
44.64868914657091
 10
60.9951936341744
 20
44.64666362701006
 10
60.9957508610427
 20
44.64266308601044
  0
ARC
  5
4E0
330
1F
100
AcDbEntity
  8
0
  6
SLD-Solid
 62
     7
370
    25
100
AcDbCircle
 10
60.97690172985862
 20
44.6323553503553
 30
0.0
 40
0.0557110112971146
100
AcDbArc
 50
10.6623867113844
 51
90.69199709939438
  0
LWPOLYLINE
  5
4E1
330
1F
100
AcDbEntity
  8
0
  6
SLD-Solid
 62
     7
370
    25
100
AcDbPolyline
 90
        3
 70
   128
 43
0.0
 10
45.49303111831328
 20
44.64868869232912
 10
45.492308087911
 20
44.64666362701008
 10
45.4917508610427
 20
44.64266308601048
  0
ARC
  5
4E2
330
1F
100
AcDbEntity
  8
0
  6
SLD-Solid
 62
     7
370
    25
100
AcDbCircle
 10
45.51059999220544
 20
44.63235535036756
 30
0.0
 40
0.0557110112738911
100
AcDbArc
 50
89.30800297768789
 51
169.3376132969087
  0
LINE
  5
4E3
330
1F
100
AcDbEntity
  8
0
  6
SLD-Solid
 62
     7
370
    25
100
AcDbLine
 10
45.53714476438827
 20
44.66316918266489
 30
0.0
 11
45.55765086104269
 21
44.66316918266489
 31
0.0
  0
LINE
  5
4E4
330
1F
100
AcDbEntity
  8
0
  6
SLD-Solid
 62
     7
370
    25
100
AcDbLine
 10
60.95035695769714
 20
44.66316918266486
 30
0.0
 11
60.9298508610427
 21
44.66316918266486
 31
0.0
  0
LINE
  5
4E5
330
1F
100
AcDbEntity
  8
0
  6
SLD-Solid
 62
     8
370
    25
100
AcDbLine
 10
61.01085086104271
 20
36.30332263602681
 30
0.0
 11
61.01085086104271
 21
36.33332263602686
 31
0.0
  0
LINE
  5
4E6
330
1F
100
AcDbEntity
  8
0
  6
SLD-Solid
 62
     8
370
    25
100
AcDbLine
 10
45.46585086104271
 20
36.30332263602683
 30
0.0
 11
45.46585086104271
 21
36.3333226360269
 31
0.0
  0
LWPOLYLINE
  5
4E7
330
1F
100
AcDbEntity
  8
0
  6
SLD-Solid
 62
     8
370
    25
100
AcDbPolyline
 90
        3
 70
   128
 43
0.0
 10
46.71975086104354
 20
40.29175835481847
 10
46.71429057873182
 20
40.290574077237
 10
46.6960008610428
 20
40.28887669047592
  0
LWPOLYLINE
  5
4E8
330
1F
100
AcDbEntity
  8
0
  6
SLD-Solid
 62
     8
370
    25
100
AcDbPolyline
 90
        3
 70
   128
 43
0.0
 10
46.71975086104354
 20
40.33320449068283
 10
46.70819400616882
 20
40.32991839418175
 10
46.6960008610428
 20
40.32878680300769
  0
LINE
  5
4E9
330
1F
100
AcDbEntity
  8
0
  6
SLD-Solid
 62
     8
370
    25
100
AcDbLine
 10
46.6960008610428
 20
40.34957252281098
 30
0.0
 11
46.6960008610428
 21
40.32878680300769
 31
0.0
  0
LINE
  5
4EA
330
1F
100
AcDbEntity
  8
0
  6
SLD-Solid
 62
     8
370
    25
100
AcDbLine
 10
46.6960008610428
 20
40.28887669047592
 30
0.0
 11
46.6960008610428
 21
40.28707263976446
 31
0.0
  0
LINE
  5
4EB
330
1F
100
AcDbEntity
  8
0
  6
SLD-Solid
 62
     8
370
    25
100
AcDbLine
 10
46.6960008610428
 20
40.28887669047592
 30
0.0
 11
46.56375086104355
 21
40.28887669047592
 31
0.0
  0
LINE
  5
4EC
330
1F
100
AcDbEntity
  8
0
  6
SLD-Solid
 62
     8
370
    25
100
AcDbLine
 10
46.28375086104355
 20
40.28887669047592
 30
0.0
 11
46.12775086104355
 21
40.28887669047592
 31
0.0
  0
LINE
  5
4ED
330
1F
100
AcDbEntity
  8
0
  6
SLD-Solid
 62
     8
370
    25
100
AcDbLine
 10
45.45585086104269
 20
40.28887669047591
 30
0.0
 11
45.41475086104281
 21
40.28887669047591
 31
0.0
  0
LINE
  5
4EE
330
1F
100
AcDbEntity
  8
0
  6
SLD-Solid
 62
     8
370
    25
100
AcDbLine
 10
46.6960008610428
 20
40.32878680300769
 30
0.0
 11
46.56375086104355
 21
40.32878680300769
 31
0.0
  0
LINE
  5
4EF
330
1F
100
AcDbEntity
  8
0
  6
SLD-Solid
 62
     8
370
    25
100
AcDbLine
 10
46.28375086104355
 20
40.32878680300769
 30
0.0
 11
46.12775086104355
 21
40.32878680300769
 31
0.0
  0
LINE
  5
4F0
330
1F
100
AcDbEntity
  8
0
  6
SLD-Solid
 62
     8
370
    25
100
AcDbLine
 10
45.45585086104269
 20
40.32878680300768
 30
0.0
 11
45.41475086104281
 21
40.32878680300768
 31
0.0
  0
LWPOLYLINE
  5
4F1
330
1F
100
AcDbEntity
  8
0
  6
SLD-Solid
 62
     8
370
    25
100
AcDbPolyline
 90
        3
 70
   128
 43
0.0
 10
59.79150086104278
 20
40.28887669047592
 10
59.77321114335376
 20
40.290574077237
 10
59.76775086104359
 20
40.29175835481809
  0
LWPOLYLINE
  5
4F2
330
1F
100
AcDbEntity
  8
0
  6
SLD-Solid
 62
     8
370
    25
100
AcDbPolyline
 90
        3
 70
   128
 43
0.0
 10
59.79150086104278
 20
40.32878680300769
 10
59.77930771591677
 20
40.32991839418175
 10
59.76775086104359
 20
40.33320449068223
  0
LINE
  5
4F3
330
1F
100
AcDbEntity
  8
0
  6
SLD-Solid
 62
     8
370
    25
100
AcDbLine
 10
61.07275086104277
 20
40.28887669047592
 30
0.0
 11
61.03165086104269
 21
40.28887669047592
 31
0.0
  0
LINE
  5
4F4
330
1F
100
AcDbEntity
  8
0
  6
SLD-Solid
 62
     8
370
    25
100
AcDbLine
 10
60.35975086104359
 20
40.28887669047592
 30
0.0
 11
60.20375086104359
 21
40.28887669047592
 31
0.0
  0
LINE
  5
4F5
330
1F
100
AcDbEntity
  8
0
  6
SLD-Solid
 62
     8
370
    25
100
AcDbLine
 10
59.92375086104359
 20
40.28887669047592
 30
0.0
 11
59.79150086104278
 21
40.28887669047592
 31
0.0
  0
LINE
  5
4F6
330
1F
100
AcDbEntity
  8
0
  6
SLD-Solid
 62
     8
370
    25
100
AcDbLine
 10
61.07275086104277
 20
40.32878680300769
 30
0.0
 11
61.03165086104269
 21
40.32878680300769
 31
0.0
  0
LINE
  5
4F7
330
1F
100
AcDbEntity
  8
0
  6
SLD-Solid
 62
     8
370
    25
100
AcDbLine
 10
60.35975086104359
 20
40.32878680300769
 30
0.0
 11
60.20375086104359
 21
40.32878680300769
 31
0.0
  0
LINE
  5
4F8
330
1F
100
AcDbEntity
  8
0
  6
SLD-Solid
 62
     8
370
    25
100
AcDbLine
 10
59.92375086104359
 20
40.32878680300769
 30
0.0
 11
59.79150086104278
 21
40.32878680300769
 31
0.0
  0
LINE
  5
4F9
330
1F
100
AcDbEntity
  8
0
  6
SLD-Solid
 62
     8
370
    25
100
AcDbLine
 10
59.79150086104278
 20
40.32878680300769
 30
0.0
 11
59.79150086104276
 21
40.3495725673602
 31
0.0
  0
LINE
  5
4FA
330
1F
100
AcDbEntity
  8
0
  6
SLD-Solid
 62
     8
370
    25
100
AcDbLine
 10
59.79150086104278
 20
40.28707263700905
 30
0.0
 11
59.79150086104278
 21
40.28887669047592
 31
0.0
  0
LINE
  5
4FB
330
1F
100
AcDbEntity
  8
0
  6
SLD-Solid
 62
     8
370
    25
100
AcDbLine
 10
45.710181766555
 20
12.95115465478146
 30
0.0
 11
45.710181766555
 21
36.25832263602747
 31
0.0
  0
LINE
  5
4FC
330
1F
100
AcDbEntity
  8
0
  6
SLD-Solid
 62
     8
370
    25
100
AcDbLine
 10
60.77731995553137
 20
36.25832263602749
 30
0.0
 11
60.77731995553137
 21
12.95401473937511
 31
0.0
  0
LINE
  5
4FD
330
1F
100
AcDbEntity
  8
0
  6
SLD-Solid
 62
     8
370
    25
100
AcDbLine
 10
60.55931995553137
 20
36.25832263602762
 30
0.0
 11
60.55931995553137
 21
36.30332263602691
 31
0.0
  0
LINE
  5
4FE
330
1F
100
AcDbEntity
  8
0
  6
SLD-Solid
 62
     8
370
    25
100
AcDbLine
 10
45.92818176655499
 20
36.30332263602699
 30
0.0
 11
45.92818176655499
 21
36.25832263602762
 31
0.0
  0
LINE
  5
4FF
330
1F
100
AcDbEntity
  8
0
  6
SLD-Solid
 62
     8
370
    25
100
AcDbLine
 10
60.9667508610427
 20
44.10866308601044
 30
0.0
 11
60.9667508610427
 21
44.12166308601047
 31
0.0
  0
LINE
  5
500
330
1F
100
AcDbEntity
  8
0
  6
SLD-Solid
 62
     8
370
    25
100
AcDbLine
 10
45.5207508610427
 20
44.10866308601048
 30
0.0
 11
45.5207508610427
 21
44.12166308601049
 31
0.0
  0
LINE
  5
501
330
1F
100
AcDbEntity
  8
OBJECT
100
AcDbLine
 10
53.2437508610427
 20
44.15166308601048
 30
0.0
 11
53.30826685887093
 21
44.15166308601048
 31
0.0
  0
DIMENSION
  5
502
330
1F
100
AcDbEntity
  8
DIMS
100
AcDbDimension
  2
_D_5
 10
58.58318176655438
 20
46.5478016542785
 30
0.0
 11
53.16168830367339
 21
46.5478016542785
 31
0.0
 70
    32
  1
<>
 71
     2
 42
-1.0
  3
SLDDIMSTYLE1
100
AcDbAlignedDimension
 13
47.95818176655438
 23
34.38332263602762
 33
0.0
 14
58.58318176655438
 24
34.38332263602762
 34
0.0
100
AcDbRotatedDimension
  0
DIMENSION
  5
511
330
1F
100
AcDbEntity
  8
DIMS
100
AcDbDimension
  2
_D_6
 10
43.78621416758234
 20
23.13332263602762
 30
0.0
 11
43.78621416758234
 21
28.95247550318152
 31
0.0
 70
    32
  1
<>
 71
     2
 42
-1.0
  3
SLDDIMSTYLE1
100
AcDbAlignedDimension
 13
47.95818176655438
 23
34.38332263602762
 33
0.0
 14
47.95818176655438
 24
23.13332263602762
 34
0.0
 50
90.0000000000002
100
AcDbRotatedDimension
  0
DIMENSION
  5
520
330
1F
100
AcDbEntity
  8
DIMS
100
AcDbDimension
  2
_D_7
 10
43.78621416758232
 20
34.38332263602763
 30
0.0
 11
43.78621416758233
 21
38.94758446977215
 31
0.0
 70
    32
  1
<>
 71
     2
 42
-1.0
  3
SLDDIMSTYLE1
100
AcDbAlignedDimension
 13
45.5576508610427
 23
44.64266308601049
 33
0.0
 14
47.95818176655438
 24
34.38332263602762
 34
0.0
 50
90.0000000000002
100
AcDbRotatedDimension
  0
MTEXT
  5
52F
330
1F
100
AcDbEntity
  8
NOTES
100
AcDbMText
 10
49.77479719324646
 20
11.64198163548631
 30
0.0
 40
0.5
 41
0.0
 71
     1
 72
     1
  1
Rear view - mounting holes
  7
SLDTEXTSTYLE1
 73
     1
 44
1.0
  0
MTEXT
  5
533
330
1F
100
AcDbEntity
  8
NOTES
100
AcDbMText
 10
72.76613155701669
 20
4.88020099615648
 30
0.0
 40
0.2916666666666666
 41
0.0
 71
     1
 72
     1
  1
FROST PRODUCTS LTD.
  7
SLDTEXTSTYLE0
 73
     1
 44
1.0
  0
MTEXT
  5
534
330
1F
100
AcDbEntity
  8
NOTES
100
AcDbMText
 10
72.76613155701669
 20
4.454708634531021
 30
0.0
 40
0.2291666666666666
 41
0.0
 71
     1
 72
     1
  1
5280 JOHN LUCAS DRIVE, BURLINGTON, ON, L7L 5Z9
  7
SLDTEXTSTYLE0
 73
     1
 44
1.0
  0
MTEXT
  5
564
330
1F
100
AcDbEntity
  8
NOTES
100
AcDbMText
 10
68.31508902169804
 20
2.578344170426953
 30
0.0
 40
0.3749999999999999
 41
0.0
 71
     2
 72
     1
  1
303-3
  7
SLDTEXTSTYLE1
 73
     1
 44
1.0
  0
MTEXT
  5
565
330
1F
100
AcDbEntity
  8
NOTES
100
AcDbMText
 10
68.24829228700362
 20
2.07834417646955
 30
0.0
 40
0.3749999999999999
 41
0.0
 71
     2
 72
     1
  1
Assembly
  7
SLDTEXTSTYLE1
 73
     1
 44
1.0
  0
ENDSEC
  0
SECTION
  2
OBJECTS
  0
DICTIONARY
  5
C
330
0
100
AcDbDictionary
281
     1
  3
ACAD_COLOR
350
6C
  3
ACAD_GROUP
350
D
  3
ACAD_LAYOUT
350
1A
  3
ACAD_MATERIAL
350
6B
  3
ACAD_MLINESTYLE
350
17
  3
ACAD_PLOTSETTINGS
350
19
  3
ACAD_PLOTSTYLENAME
350
E
  3
ACAD_SCALELIST
350
47
  3
ACAD_TABLESTYLE
350
92
  3
AcDbVariableDictionary
350
59
  0
DICTIONARY
  5
6C
102
{ACAD_REACTORS
330
C
102
}
330
C
100
AcDbDictionary
281
     1
  0
DICTIONARY
  5
D
102
{ACAD_REACTORS
330
C
102
}
330
C
100
AcDbDictionary
281
     1
  0
DICTIONARY
  5
1A
102
{ACAD_REACTORS
330
C
102
}
330
C
100
AcDbDictionary
281
     1
  3
Layout1
350
74
  3
Layout2
350
26
  3
Model
350
22
  0
DICTIONARY
  5
6B
102
{ACAD_REACTORS
330
C
102
}
330
C
100
AcDbDictionary
281
     1
  0
DICTIONARY
  5
17
102
{ACAD_REACTORS
330
C
102
}
330
C
100
AcDbDictionary
281
     1
  3
Standard
350
18
  0
DICTIONARY
  5
19
102
{ACAD_REACTORS
330
C
102
}
330
C
100
AcDbDictionary
281
     1
  0
ACDBDICTIONARYWDFLT
  5
E
102
{ACAD_REACTORS
330
C
102
}
330
C
100
AcDbDictionary
281
     1
  3
Normal
350
F
100
AcDbDictionaryWithDefault
340
F
  0
DICTIONARY
  5
47
102
{ACAD_REACTORS
330
C
102
}
330
C
100
AcDbDictionary
281
     1
  3
A0
350
48
  3
A1
350
49
  3
A2
350
4A
  3
A3
350
4B
  3
A4
350
4C
  3
A5
350
4D
  3
A6
350
4E
  3
A7
350
4F
  3
A8
350
50
  3
A9
350
51
  3
B0
350
52
  3
B1
350
53
  3
B2
350
54
  3
B3
350
55
  3
B4
350
56
  3
B5
350
57
  3
B6
350
58
  3
B7
350
545
  3
B8
350
546
  3
B9
350
5B
  3
C0
350
5C
  3
C1
350
5D
  3
C2
350
547
  3
C3
350
5F
  3
C4
350
60
  3
C5
350
61
  3
C6
350
62
  3
C7
350
63
  3
C8
350
64
  3
C9
350
65
  3
D0
350
66
  3
D1
350
67
  3
D2
350
68
  0
DICTIONARY
  5
92
102
{ACAD_REACTORS
330
C
102
}
330
C
100
AcDbDictionary
281
     1
  0
DICTIONARY
  5
59
102
{ACAD_REACTORS
330
C
102
}
330
C
100
AcDbDictionary
281
     1
  3
CTABLESTYLE
350
98
  0
LAYOUT
  5
74
102
{ACAD_REACTORS
330
1A
102
}
330
1A
100
AcDbPlotSettings
  1

  2
none_device
  4

  6

 40
0.0
 41
0.0
 42
0.0
 43
0.0
 44
0.0
 45
0.0
 46
0.0
 47
0.0
 48
0.0
 49
0.0
140
0.0
141
0.0
142
1.0
143
1.0
 70
   688
 72
     0
 73
     0
 74
     5
  7

 75
    16
 76
     0
 77
     2
 78
   300
147
1.0
148
0.0
149
0.0
100
AcDbLayout
  1
Layout1
 70
     1
 71
     1
 10
0.0
 20
0.0
 11
12.0
 21
9.0
 12
0.0
 22
0.0
 32
0.0
 14
1.000000000000000E+20
 24
1.000000000000000E+20
 34
1.000000000000000E+20
 15
-1.000000000000000E+20
 25
-1.000000000000000E+20
 35
-1.000000000000000E+20
146
0.0
 13
0.0
 23
0.0
 33
0.0
 16
1.0
 26
0.0
 36
0.0
 17
0.0
 27
1.0
 37
0.0
 76
     0
330
73
  0
LAYOUT
  5
26
102
{ACAD_REACTORS
330
1A
102
}
330
1A
100
AcDbPlotSettings
  1

  2
none_device
  4

  6

 40
0.0
 41
0.0
 42
0.0
 43
0.0
 44
0.0
 45
0.0
 46
0.0
 47
0.0
 48
0.0
 49
0.0
140
0.0
141
0.0
142
1.0
143
1.0
 70
   688
 72
     0
 73
     0
 74
     5
  7

 75
    16
 76
     0
 77
     2
 78
   300
147
1.0
148
0.0
149
0.0
100
AcDbLayout
  1
Layout2
 70
     1
 71
     2
 10
0.0
 20
0.0
 11
0.0
 21
0.0
 12
0.0
 22
0.0
 32
0.0
 14
0.0
 24
0.0
 34
0.0
 15
0.0
 25
0.0
 35
0.0
146
0.0
 13
0.0
 23
0.0
 33
0.0
 16
1.0
 26
0.0
 36
0.0
 17
0.0
 27
1.0
 37
0.0
 76
     0
330
23
  0
LAYOUT
  5
22
102
{ACAD_REACTORS
330
1A
102
}
330
1A
100
AcDbPlotSettings
  1

  2
none_device
  4
Letter_(8.50_x_11.00_Inches)
  6

 40
6.35
 41
6.35
 42
6.35000508
 43
6.35000508
 44
215.9
 45
279.4
 46
0.0
 47
0.0
 48
0.0
 49
0.0
140
0.0
141
0.0
142
1.0
143
1.0
 70
 11952
 72
     0
 73
     0
 74
     0
  7

 75
     0
 76
     0
 77
     2
 78
   300
147
1.0
148
0.0
149
0.0
100
AcDbLayout
  1
Model
 70
     1
 71
     0
 10
0.0
 20
0.0
 11
82.375
 21
62.0
 12
0.0
 22
0.0
 32
0.0
 14
1.571907943364172
 24
0.3573773641115476
 34
-9.778058050444226
 15
82.0
 25
59.99038150796288
 35
2.221782264413462
146
0.0
 13
0.0
 23
0.0
 33
0.0
 16
1.0
 26
0.0
 36
0.0
 17
0.0
 27
1.0
 37
0.0
 76
     0
330
1F
  0
MLINESTYLE
  5
18
102
{ACAD_REACTORS
330
17
102
}
330
17
100
AcDbMlineStyle
  2
Standard
 70
     0
  3

 62
   256
 51
90.0
 52
90.0
 71
     2
 49
0.5
 62
   256
  6
BYLAYER
 49
-0.5
 62
   256
  6
BYLAYER
  0
ACDBPLACEHOLDER
  5
F
102
{ACAD_REACTORS
330
E
102
}
330
E
  0
ACAD_PROXY_OBJECT
  5
48
102
{ACAD_REACTORS
330
47
102
}
330
47
100
AcDbProxyObject
 90
      499
 91
      505
 95
   393239
 70
     0
 93
       41
310
903313A31580
  0
ACAD_PROXY_OBJECT
  5
49
102
{ACAD_REACTORS
330
47
102
}
330
47
100
AcDbProxyObject
 90
      499
 91
      505
 95
   393239
 70
     0
 93
      105
310
903313A324000000000000004000
  0
ACAD_PROXY_OBJECT
  5
4A
102
{ACAD_REACTORS
330
47
102
}
330
47
100
AcDbProxyObject
 90
      499
 91
      505
 95
   393239
 70
     0
 93
      105
310
903313A344000000000000104000
  0
ACAD_PROXY_OBJECT
  5
4B
102
{ACAD_REACTORS
330
47
102
}
330
47
100
AcDbProxyObject
 90
      499
 91
      505
 95
   393239
 70
     0
 93
      105
310
903313A354000000000000144000
  0
ACAD_PROXY_OBJECT
  5
4C
102
{ACAD_REACTORS
330
47
102
}
330
47
100
AcDbProxyObject
 90
      499
 91
      505
 95
   393239
 70
     0
 93
      105
310
903313A384000000000000204000
  0
ACAD_PROXY_OBJECT
  5
4D
102
{ACAD_REACTORS
330
47
102
}
330
47
100
AcDbProxyObject
 90
      499
 91
      505
 95
   393239
 70
     0
 93
      113
310
904313A31304000000000000244000
  0
ACAD_PROXY_OBJECT
  5
4E
102
{ACAD_REACTORS
330
47
102
}
330
47
100
AcDbProxyObject
 90
      499
 91
      505
 95
   393239
 70
     0
 93
      113
310
904313A31364000000000000304000
  0
ACAD_PROXY_OBJECT
  5
4F
102
{ACAD_REACTORS
330
47
102
}
330
47
100
AcDbProxyObject
 90
      499
 91
      505
 95
   393239
 70
     0
 93
      113
310
904313A32304000000000000344000
  0
ACAD_PROXY_OBJECT
  5
50
102
{ACAD_REACTORS
330
47
102
}
330
47
100
AcDbProxyObject
 90
      499
 91
      505
 95
   393239
 70
     0
 93
      113
310
904313A333040000000000003E4000
  0
ACAD_PROXY_OBJECT
  5
51
102
{ACAD_REACTORS
330
47
102
}
330
47
100
AcDbProxyObject
 90
      499
 91
      505
 95
   393239
 70
     0
 93
      113
310
904313A34304000000000000444000
  0
ACAD_PROXY_OBJECT
  5
52
102
{ACAD_REACTORS
330
47
102
}
330
47
100
AcDbProxyObject
 90
      499
 91
      505
 95
   393239
 70
     0
 93
      113
310
904313A35304000000000000494000
  0
ACAD_PROXY_OBJECT
  5
53
102
{ACAD_REACTORS
330
47
102
}
330
47
100
AcDbProxyObject
 90
      499
 91
      505
 95
   393239
 70
     0
 93
      121
310
905313A3130304000000000000594000
  0
ACAD_PROXY_OBJECT
  5
54
102
{ACAD_REACTORS
330
47
102
}
330
47
100
AcDbProxyObject
 90
      499
 91
      505
 95
   393239
 70
     0
 93
      105
310
903323A310000000000000010100
  0
ACAD_PROXY_OBJECT
  5
55
102
{ACAD_REACTORS
330
47
102
}
330
47
100
AcDbProxyObject
 90
      499
 91
      505
 95
   393239
 70
     0
 93
      105
310
903343A310000000000000410100
  0
ACAD_PROXY_OBJECT
  5
56
102
{ACAD_REACTORS
330
47
102
}
330
47
100
AcDbProxyObject
 90
      499
 91
      505
 95
   393239
 70
     0
 93
      105
310
903383A310000000000000810100
  0
ACAD_PROXY_OBJECT
  5
57
102
{ACAD_REACTORS
330
47
102
}
330
47
100
AcDbProxyObject
 90
      499
 91
      505
 95
   393239
 70
     0
 93
      113
310
90431303A310000000000000910100
  0
ACAD_PROXY_OBJECT
  5
58
102
{ACAD_REACTORS
330
47
102
}
330
47
100
AcDbProxyObject
 90
      499
 91
      505
 95
   393239
 70
     0
 93
      121
310
9053130303A310000000000001650100
  0
ACAD_PROXY_OBJECT
  5
545
102
{ACAD_REACTORS
330
47
102
}
330
47
100
AcDbProxyObject
 90
      499
 91
      505
 95
   393239
 70
     0
 93
      257
310
90E312F31323822203D2031272D3022000000000000200FC000000000000284000
  0
ACAD_PROXY_OBJECT
  5
546
102
{ACAD_REACTORS
330
47
102
}
330
47
100
AcDbProxyObject
 90
      499
 91
      505
 95
   393239
 70
     0
 93
      249
310
90D312F363422203D2031272D3022000000000000240FC000000000000284000
  0
ACAD_PROXY_OBJECT
  5
5B
102
{ACAD_REACTORS
330
47
102
}
330
47
100
AcDbProxyObject
 90
      499
 91
      505
 95
   393239
 70
     0
 93
      249
310
90D312F333222203D2031272D3022000000000000280FC000000000000284000
  0
ACAD_PROXY_OBJECT
  5
5C
102
{ACAD_REACTORS
330
47
102
}
330
47
100
AcDbProxyObject
 90
      499
 91
      505
 95
   393239
 70
     0
 93
      249
310
90D312F313622203D2031272D30220000000000002C0FC000000000000284000
  0
ACAD_PROXY_OBJECT
  5
5D
102
{ACAD_REACTORS
330
47
102
}
330
47
100
AcDbProxyObject
 90
      499
 91
      505
 95
   393239
 70
     0
 93
      249
310
90D332F333222203D2031272D30220000000000002E0FC000000000000284000
  0
ACAD_PROXY_OBJECT
  5
547
102
{ACAD_REACTORS
330
47
102
}
330
47
100
AcDbProxyObject
 90
      499
 91
      505
 95
   393239
 70
     0
 93
      241
310
90C312F3822203D2031272D3022000000000000300FC000000000000284000
  0
ACAD_PROXY_OBJECT
  5
5F
102
{ACAD_REACTORS
330
47
102
}
330
47
100
AcDbProxyObject
 90
      499
 91
      505
 95
   393239
 70
     0
 93
      249
310
90D332F313622203D2031272D3022000000000000320FC000000000000284000
  0
ACAD_PROXY_OBJECT
  5
60
102
{ACAD_REACTORS
330
47
102
}
330
47
100
AcDbProxyObject
 90
      499
 91
      505
 95
   393239
 70
     0
 93
      241
310
90C312F3422203D2031272D3022000000000000340FC000000000000284000
  0
ACAD_PROXY_OBJECT
  5
61
102
{ACAD_REACTORS
330
47
102
}
330
47
100
AcDbProxyObject
 90
      499
 91
      505
 95
   393239
 70
     0
 93
      241
310
90C332F3822203D2031272D3022000000000000360FC000000000000284000
  0
ACAD_PROXY_OBJECT
  5
62
102
{ACAD_REACTORS
330
47
102
}
330
47
100
AcDbProxyObject
 90
      499
 91
      505
 95
   393239
 70
     0
 93
      241
310
90C312F3222203D2031272D3022000000000000380FC000000000000284000
  0
ACAD_PROXY_OBJECT
  5
63
102
{ACAD_REACTORS
330
47
102
}
330
47
100
AcDbProxyObject
 90
      499
 91
      505
 95
   393239
 70
     0
 93
      241
310
90C332F3422203D2031272D30220000000000003A0FC000000000000284000
  0
ACAD_PROXY_OBJECT
  5
64
102
{ACAD_REACTORS
330
47
102
}
330
47
100
AcDbProxyObject
 90
      499
 91
      505
 95
   393239
 70
     0
 93
      161
310
90A3122203D2031272D30224000000000000284000
  0
ACAD_PROXY_OBJECT
  5
65
102
{ACAD_REACTORS
330
47
102
}
330
47
100
AcDbProxyObject
 90
      499
 91
      505
 95
   393239
 70
     0
 93
      257
310
90E312D312F3222203D2031272D30220000000000003E0FC000000000000284000
  0
ACAD_PROXY_OBJECT
  5
66
102
{ACAD_REACTORS
330
47
102
}
330
47
100
AcDbProxyObject
 90
      499
 91
      505
 95
   393239
 70
     0
 93
      225
310
90A3322203D2031272D302200000000000002100000000000000284000
  0
ACAD_PROXY_OBJECT
  5
67
102
{ACAD_REACTORS
330
47
102
}
330
47
100
AcDbProxyObject
 90
      499
 91
      505
 95
   393239
 70
     0
 93
      225
310
90A3622203D2031272D302200000000000006100000000000000284000
  0
ACAD_PROXY_OBJECT
  5
68
102
{ACAD_REACTORS
330
47
102
}
330
47
100
AcDbProxyObject
 90
      499
 91
      505
 95
   393239
 70
     0
 93
      249
310
90D31272D3022203D2031272D30220000000000000A100000000000000284000
  0
DICTIONARYVAR
  5
98
102
{ACAD_REACTORS
330
59
102
}
330
59
100
DictionaryVariables
280
     0
  1
STANDARD
  0
ENDSEC
  0
EOF
