  0
SECTION
  2
HEADER
  9
$ACADVER
  1
AC1018
  9
$ACADMAINTVER
 70
    39
  9
$DWGCODEPAGE
  3
ANSI_1252
  9
$LASTSAVEDBY
  1
fottrem
  9
$INSBASE
 10
0.0
 20
0.0
 30
0.0
  9
$EXTMIN
 10
0.1653543307086614
 20
0.1653543307086614
 30
-6.243475134824725
  9
$EXTMAX
 10
49.83464566929134
 20
87.83464566929133
 30
11.02886873471781
  9
$LIMMIN
 10
0.0
 20
0.0
  9
$LIMMAX
 10
50.0
 20
88.0
  9
$ORTHOMODE
 70
     0
  9
$REGENMODE
 70
     1
  9
$FILLMODE
 70
     1
  9
$QTEXTMODE
 70
     0
  9
$MIRRTEXT
 70
     1
  9
$LTSCALE
 40
1.0
  9
$ATTMODE
 70
     1
  9
$TEXTSIZE
 40
0.7500000000000001
  9
$TRACEWID
 40
0.05
  9
$TEXTSTYLE
  7
Standard
  9
$CLAYER
  8
0
  9
$CELTYPE
  6
ByLayer
  9
$CECOLOR
 62
   256
  9
$CELTSCALE
 40
1.0
  9
$DISPSILH
 70
     0
  9
$DIMSCALE
 40
1.0
  9
$DIMASZ
 40
0.7500000000000001
  9
$DIMEXO
 40
0.1666666666666667
  9
$DIMDLI
 40
0.38
  9
$DIMRND
 40
0.0
  9
$DIMDLE
 40
0.0
  9
$DIMEXE
 40
0.3750000000000001
  9
$DIMTP
 40
0.0
  9
$DIMTM
 40
0.0
  9
$DIMTXT
 40
0.7500000000000001
  9
$DIMCEN
 40
0.09
  9
$DIMTSZ
 40
0.0
  9
$DIMTOL
 70
     0
  9
$DIMLIM
 70
     0
  9
$DIMTIH
 70
     1
  9
$DIMTOH
 70
     1
  9
$DIMSE1
 70
     0
  9
$DIMSE2
 70
     0
  9
$DIMTAD
 70
     0
  9
$DIMZIN
 70
     1
  9
$DIMBLK
  1

  9
$DIMASO
 70
     1
  9
$DIMSHO
 70
     1
  9
$DIMPOST
  1

  9
$DIMAPOST
  1

  9
$DIMALT
 70
     0
  9
$DIMALTD
 70
     2
  9
$DIMALTF
 40
25.4
  9
$DIMLFAC
 40
1.0
  9
$DIMTOFL
 70
     0
  9
$DIMTVP
 40
0.0
  9
$DIMTIX
 70
     0
  9
$DIMSOXD
 70
     0
  9
$DIMSAH
 70
     0
  9
$DIMBLK1
  1

  9
$DIMBLK2
  1

  9
$DIMSTYLE
  2
Standard
  9
$DIMCLRD
 70
     0
  9
$DIMCLRE
 70
     0
  9
$DIMCLRT
 70
     0
  9
$DIMTFAC
 40
1.0
  9
$DIMGAP
 40
0.125
  9
$DIMJUST
 70
     0
  9
$DIMSD1
 70
     0
  9
$DIMSD2
 70
     0
  9
$DIMTOLJ
 70
     1
  9
$DIMTZIN
 70
     1
  9
$DIMALTZ
 70
     0
  9
$DIMALTTZ
 70
     0
  9
$DIMUPT
 70
     0
  9
$DIMDEC
 70
     2
  9
$DIMTDEC
 70
     2
  9
$DIMALTU
 70
     2
  9
$DIMALTTD
 70
     2
  9
$DIMTXSTY
  7
Standard
  9
$DIMAUNIT
 70
     0
  9
$DIMADEC
 70
     2
  9
$DIMALTRND
 40
0.0
  9
$DIMAZIN
 70
     0
  9
$DIMDSEP
 70
    46
  9
$DIMATFIT
 70
     3
  9
$DIMFRAC
 70
     0
  9
$DIMLDRBLK
  1

  9
$DIMLUNIT
 70
     2
  9
$DIMLWD
 70
    -2
  9
$DIMLWE
 70
    -2
  9
$DIMTMOVE
 70
     0
  9
$LUNITS
 70
     2
  9
$LUPREC
 70
     4
  9
$SKETCHINC
 40
0.1
  9
$FILLETRAD
 40
0.5
  9
$AUNITS
 70
     0
  9
$AUPREC
 70
     2
  9
$MENU
  1
.
  9
$ELEVATION
 40
0.0
  9
$PELEVATION
 40
0.0
  9
$THICKNESS
 40
0.0
  9
$LIMCHECK
 70
     0
  9
$CHAMFERA
 40
0.0
  9
$CHAMFERB
 40
0.0
  9
$CHAMFERC
 40
0.0
  9
$CHAMFERD
 40
0.0
  9
$SKPOLY
 70
     0
  9
$TDCREATE
 40
2453353.550459155
  9
$TDUCREATE
 40
2453353.717125822
  9
$TDUPDATE
 40
2459488.504657905
  9
$TDUUPDATE
 40
2459488.671324572
  9
$TDINDWG
 40
0.0427430671
  9
$TDUSRTIMER
 40
0.0427430671
  9
$USRTIMER
 70
     1
  9
$ANGBASE
 50
0.0
  9
$ANGDIR
 70
     0
  9
$PDMODE
 70
     0
  9
$PDSIZE
 40
-1.0
  9
$PLINEWID
 40
0.0
  9
$SPLFRAME
 70
     0
  9
$SPLINETYPE
 70
     6
  9
$SPLINESEGS
 70
     8
  9
$HANDSEED
  5
5BC
  9
$SURFTAB1
 70
     6
  9
$SURFTAB2
 70
     6
  9
$SURFTYPE
 70
     6
  9
$SURFU
 70
     6
  9
$SURFV
 70
     6
  9
$UCSBASE
  2

  9
$UCSNAME
  2

  9
$UCSORG
 10
0.0
 20
0.0
 30
0.0
  9
$UCSXDIR
 10
1.0
 20
0.0
 30
0.0
  9
$UCSYDIR
 10
0.0
 20
1.0
 30
0.0
  9
$UCSORTHOREF
  2

  9
$UCSORTHOVIEW
 70
     0
  9
$UCSORGTOP
 10
0.0
 20
0.0
 30
0.0
  9
$UCSORGBOTTOM
 10
0.0
 20
0.0
 30
0.0
  9
$UCSORGLEFT
 10
0.0
 20
0.0
 30
0.0
  9
$UCSORGRIGHT
 10
0.0
 20
0.0
 30
0.0
  9
$UCSORGFRONT
 10
0.0
 20
0.0
 30
0.0
  9
$UCSORGBACK
 10
0.0
 20
0.0
 30
0.0
  9
$PUCSBASE
  2

  9
$PUCSNAME
  2

  9
$PUCSORG
 10
0.0
 20
0.0
 30
0.0
  9
$PUCSXDIR
 10
1.0
 20
0.0
 30
0.0
  9
$PUCSYDIR
 10
0.0
 20
1.0
 30
0.0
  9
$PUCSORTHOREF
  2

  9
$PUCSORTHOVIEW
 70
     0
  9
$PUCSORGTOP
 10
0.0
 20
0.0
 30
0.0
  9
$PUCSORGBOTTOM
 10
0.0
 20
0.0
 30
0.0
  9
$PUCSORGLEFT
 10
0.0
 20
0.0
 30
0.0
  9
$PUCSORGRIGHT
 10
0.0
 20
0.0
 30
0.0
  9
$PUCSORGFRONT
 10
0.0
 20
0.0
 30
0.0
  9
$PUCSORGBACK
 10
0.0
 20
0.0
 30
0.0
  9
$USERI1
 70
     0
  9
$USERI2
 70
     0
  9
$USERI3
 70
     0
  9
$USERI4
 70
     0
  9
$USERI5
 70
     0
  9
$USERR1
 40
0.0
  9
$USERR2
 40
0.0
  9
$USERR3
 40
0.0
  9
$USERR4
 40
0.0
  9
$USERR5
 40
0.0
  9
$WORLDVIEW
 70
     1
  9
$SHADEDGE
 70
     3
  9
$SHADEDIF
 70
    70
  9
$TILEMODE
 70
     1
  9
$MAXACTVP
 70
    64
  9
$PINSBASE
 10
0.0
 20
0.0
 30
0.0
  9
$PLIMCHECK
 70
     0
  9
$PEXTMIN
 10
1.000000000000000E+20
 20
1.000000000000000E+20
 30
1.000000000000000E+20
  9
$PEXTMAX
 10
-1.000000000000000E+20
 20
-1.000000000000000E+20
 30
-1.000000000000000E+20
  9
$PLIMMIN
 10
0.0
 20
0.0
  9
$PLIMMAX
 10
12.0
 20
9.0
  9
$UNITMODE
 70
     0
  9
$VISRETAIN
 70
     1
  9
$PLINEGEN
 70
     0
  9
$PSLTSCALE
 70
     1
  9
$TREEDEPTH
 70
  3020
  9
$CMLSTYLE
  2
Standard
  9
$CMLJUST
 70
     0
  9
$CMLSCALE
 40
1.0
  9
$PROXYGRAPHICS
 70
     1
  9
$MEASUREMENT
 70
     0
  9
$CELWEIGHT
370
    -1
  9
$ENDCAPS
280
     0
  9
$JOINSTYLE
280
     0
  9
$LWDISPLAY
290
     1
  9
$INSUNITS
 70
     1
  9
$HYPERLINKBASE
  1

  9
$STYLESHEET
  1

  9
$XEDIT
290
     0
  9
$CEPSNTYPE
380
     0
  9
$PSTYLEMODE
290
     1
  9
$FINGERPRINTGUID
  2
{edadd101-0d96-434a-bcff-e395a8c51b44}
  9
$VERSIONGUID
  2
{FAEB1C32-E019-11D5-929B-00C0DF256EC4}
  9
$EXTNAMES
290
     1
  9
$PSVPSCALE
 40
0.0
  9
$OLESTARTUP
290
     0
  9
$SORTENTS
280
   127
  9
$INDEXCTL
280
     0
  9
$HIDETEXT
280
     1
  9
$XCLIPFRAME
290
     0
  9
$HALOGAP
280
     0
  9
$OBSCOLOR
 70
   257
  9
$OBSLTYPE
280
     0
  9
$INTERSECTIONDISPLAY
280
     0
  9
$INTERSECTIONCOLOR
 70
   257
  9
$DIMASSOC
280
     2
  9
$PROJECTNAME
  1

  0
ENDSEC
  0
SECTION
  2
CLASSES
  0
CLASS
  1
ACDBDICTIONARYWDFLT
  2
AcDbDictionaryWithDefault
  3
ObjectDBX Classes
 90
        0
 91
        3
280
     0
281
     0
  0
CLASS
  1
ACDBPLACEHOLDER
  2
AcDbPlaceHolder
  3
ObjectDBX Classes
 90
        0
 91
        1
280
     0
281
     0
  0
CLASS
  1
LAYOUT
  2
AcDbLayout
  3
ObjectDBX Classes
 90
        0
 91
        1
280
     0
281
     0
  0
CLASS
  1
DICTIONARYVAR
  2
AcDbDictionaryVar
  3
ObjectDBX Classes
 90
        0
 91
        3
280
     0
281
     0
  0
CLASS
  1
TABLESTYLE
  2
AcDbTableStyle
  3
ObjectDBX Classes
 90
     2047
 91
        3
280
     0
281
     0
  0
CLASS
  1
SCALE
  2
AcDbScale
  3
ObjectDBX Classes
 90
     1153
 91
       67
280
     1
281
     0
  0
ENDSEC
  0
SECTION
  2
TABLES
  0
TABLE
  2
VPORT
  5
8
330
0
100
AcDbSymbolTable
 70
     2
  0
VPORT
  5
97
330
8
100
AcDbSymbolTableRecord
100
AcDbViewportTableRecord
  2
*Active
 70
     0
 10
0.0
 20
0.0
 11
1.0
 21
1.0
 12
25.0
 22
44.0
 13
0.0
 23
0.0
 14
0.5
 24
0.5
 15
0.5
 25
0.5
 16
0.0
 26
0.0
 36
1.0
 17
0.0
 27
0.0
 37
0.0
 40
89.42267716535433
 41
0.5681818181818182
 42
50.0
 43
0.0
 44
0.0
 50
0.0
 51
0.0
 71
    16
 72
  2000
 73
     1
 74
     1
 75
     0
 76
     0
 77
     0
 78
     0
281
     0
 65
     0
110
0.0
120
0.0
130
0.0
111
1.0
121
0.0
131
0.0
112
0.0
122
1.0
132
0.0
 79
     0
146
0.0
  0
ENDTAB
  0
TABLE
  2
LTYPE
  5
5
330
0
100
AcDbSymbolTable
 70
     8
  0
LTYPE
  5
14
330
5
100
AcDbSymbolTableRecord
100
AcDbLinetypeTableRecord
  2
ByBlock
 70
     0
  3

 72
    65
 73
     0
 40
0.0
  0
LTYPE
  5
15
330
5
100
AcDbSymbolTableRecord
100
AcDbLinetypeTableRecord
  2
ByLayer
 70
     0
  3

 72
    65
 73
     0
 40
0.0
  0
LTYPE
  5
16
330
5
100
AcDbSymbolTableRecord
100
AcDbLinetypeTableRecord
  2
Continuous
 70
     0
  3
Solid line
 72
    65
 73
     0
 40
0.0
  0
LTYPE
  5
598
330
5
100
AcDbSymbolTableRecord
100
AcDbLinetypeTableRecord
  2
SLD-Solid
 70
     0
  3
SolidWorks Line Style
 72
    65
 73
     0
 40
0.0
  0
LTYPE
  5
599
330
5
100
AcDbSymbolTableRecord
100
AcDbLinetypeTableRecord
  2
SLD-Dashed
 70
     0
  3
SolidWorks Line Style
 72
    65
 73
     2
 40
0.075
 49
0.05
 74
     4
 75
     0
340
0
 46
1.0
 50
0.0
 44
0.0
 45
0.0
 49
-0.025
 74
     4
 75
     0
340
0
 46
1.0
 50
0.0
 44
0.0
 45
0.0
  0
LTYPE
  5
59A
330
5
100
AcDbSymbolTableRecord
100
AcDbLinetypeTableRecord
  2
SLD-Phantom
 70
     0
  3
SolidWorks Line Style
 72
    65
 73
     6
 40
0.4999999999999999
 49
0.25
 74
     4
 75
     0
340
0
 46
1.0
 50
0.0
 44
0.0
 45
0.0
 49
-0.05
 74
     4
 75
     0
340
0
 46
1.0
 50
0.0
 44
0.0
 45
0.0
 49
0.05
 74
     4
 75
     0
340
0
 46
1.0
 50
0.0
 44
0.0
 45
0.0
 49
-0.05
 74
     4
 75
     0
340
0
 46
1.0
 50
0.0
 44
0.0
 45
0.0
 49
0.05
 74
     4
 75
     0
340
0
 46
1.0
 50
0.0
 44
0.0
 45
0.0
 49
-0.05
 74
     4
 75
     0
340
0
 46
1.0
 50
0.0
 44
0.0
 45
0.0
  0
LTYPE
  5
59B
330
5
100
AcDbSymbolTableRecord
100
AcDbLinetypeTableRecord
  2
SLD-Chain
 70
     0
  3
SolidWorks Line Style
 72
    65
 73
     4
 40
0.4
 49
0.25
 74
     4
 75
     0
340
0
 46
1.0
 50
0.0
 44
0.0
 45
0.0
 49
-0.05
 74
     4
 75
     0
340
0
 46
1.0
 50
0.0
 44
0.0
 45
0.0
 49
0.05
 74
     4
 75
     0
340
0
 46
1.0
 50
0.0
 44
0.0
 45
0.0
 49
-0.05
 74
     4
 75
     0
340
0
 46
1.0
 50
0.0
 44
0.0
 45
0.0
  0
LTYPE
  5
59C
330
5
100
AcDbSymbolTableRecord
100
AcDbLinetypeTableRecord
  2
SLD-Center
 70
     0
  3
SolidWorks Line Style
 72
    65
 73
     4
 40
0.7500000000000002
 49
0.6000000000000001
 74
     4
 75
     0
340
0
 46
1.0
 50
0.0
 44
0.0
 45
0.0
 49
-0.05
 74
     4
 75
     0
340
0
 46
1.0
 50
0.0
 44
0.0
 45
0.0
 49
0.05
 74
     4
 75
     0
340
0
 46
1.0
 50
0.0
 44
0.0
 45
0.0
 49
-0.05
 74
     4
 75
     0
340
0
 46
1.0
 50
0.0
 44
0.0
 45
0.0
  0
LTYPE
  5
59D
330
5
100
AcDbSymbolTableRecord
100
AcDbLinetypeTableRecord
  2
SLD-Stitch
 70
     0
  3
SolidWorks Line Style
 72
    65
 73
     2
 40
0.025
 49
0.0
 74
     4
 75
     0
340
0
 46
1.0
 50
0.0
 44
0.0
 45
0.0
 49
-0.025
 74
     4
 75
     0
340
0
 46
1.0
 50
0.0
 44
0.0
 45
0.0
  0
LTYPE
  5
59E
330
5
100
AcDbSymbolTableRecord
100
AcDbLinetypeTableRecord
  2
SLD-Thin-Thick-Chain
 70
     0
  3
SolidWorks Line Style
 72
    65
 73
     4
 40
0.4
 49
0.25
 74
     4
 75
     0
340
0
 46
1.0
 50
0.0
 44
0.0
 45
0.0
 49
-0.05
 74
     4
 75
     0
340
0
 46
1.0
 50
0.0
 44
0.0
 45
0.0
 49
0.05
 74
     4
 75
     0
340
0
 46
1.0
 50
0.0
 44
0.0
 45
0.0
 49
-0.05
 74
     4
 75
     0
340
0
 46
1.0
 50
0.0
 44
0.0
 45
0.0
  0
ENDTAB
  0
TABLE
  2
LAYER
  5
2
330
0
100
AcDbSymbolTable
 70
     6
  0
LAYER
  5
10
330
2
100
AcDbSymbolTableRecord
100
AcDbLayerTableRecord
  2
0
 70
     0
 62
     7
  6
Continuous
370
    -3
390
F
  0
LAYER
  5
59F
330
2
100
AcDbSymbolTableRecord
100
AcDbLayerTableRecord
  2
FORMAT
 70
     0
 62
     7
  6
SLD-Solid
370
    -3
390
F
  0
LAYER
  5
5A0
330
2
100
AcDbSymbolTableRecord
100
AcDbLayerTableRecord
  2
NOTES
 70
     0
 62
     1
  6
SLD-Solid
370
    -3
390
F
  0
LAYER
  5
77
330
2
100
AcDbSymbolTableRecord
100
AcDbLayerTableRecord
  2
OBJECT
 70
     0
 62
     7
  6
SLD-Solid
370
    -3
390
F
  0
LAYER
  5
78
330
2
100
AcDbSymbolTableRecord
100
AcDbLayerTableRecord
  2
DIMS
 70
     0
 62
     5
  6
SLD-Solid
370
    -3
390
F
  0
LAYER
  5
79
330
2
100
AcDbSymbolTableRecord
100
AcDbLayerTableRecord
  2
TITLE
 70
     0
 62
     8
  6
SLD-Solid
370
    -3
390
F
  0
ENDTAB
  0
TABLE
  2
STYLE
  5
3
330
0
100
AcDbSymbolTable
 70
     5
  0
STYLE
  5
11
330
3
100
AcDbSymbolTableRecord
100
AcDbTextStyleTableRecord
  2
Standard
 70
     0
 40
0.0
 41
1.0
 50
0.0
 71
     0
 42
0.7500000000000001
  3
GOTHIC.TTF
  4

1001
ACAD
1000
CENTURY GOTHIC
1071
       34
  0
STYLE
  5
111
330
3
100
AcDbSymbolTableRecord
100
AcDbTextStyleTableRecord
  2
SLDTEXTSTYLE0
 70
     0
 40
0.0
 41
0.948
 50
0.0
 71
     0
 42
0.7500000000000001
  3
ARIAL.TTF
  4

1001
ACAD
1000
Arial
1071
      290
  0
STYLE
  5
115
330
3
100
AcDbSymbolTableRecord
100
AcDbTextStyleTableRecord
  2
SLDTEXTSTYLE1
 70
     0
 40
0.0
 41
0.913
 50
0.0
 71
     0
 42
0.7500000000000001
  3
GOTHIC.TTF
  4

1001
ACAD
1000
Century Gothic
1071
      290
  0
STYLE
  5
124
330
3
100
AcDbSymbolTableRecord
100
AcDbTextStyleTableRecord
  2
SLDTEXTSTYLE2
 70
     0
 40
0.0
 41
0.87
 50
0.0
 71
     0
 42
0.7500000000000001
  3
ARIALNB.TTF
  4

1001
ACAD
1000
Arial Narrow
1071
 33554722
  0
STYLE
  5
126
330
3
100
AcDbSymbolTableRecord
100
AcDbTextStyleTableRecord
  2
SLDTEXTSTYLE3
 70
     0
 40
0.0
 41
0.87
 50
0.0
 71
     0
 42
0.7500000000000001
  3
ARIALN.TTF
  4

1001
ACAD
1000
Arial Narrow
1071
      290
  0
ENDTAB
  0
TABLE
  2
VIEW
  5
6
330
0
100
AcDbSymbolTable
 70
     0
  0
ENDTAB
  0
TABLE
  2
UCS
  5
7
330
0
100
AcDbSymbolTable
 70
     0
  0
ENDTAB
  0
TABLE
  2
APPID
  5
9
330
0
100
AcDbSymbolTable
 70
     1
  0
APPID
  5
12
330
9
100
AcDbSymbolTableRecord
100
AcDbRegAppTableRecord
  2
ACAD
 70
     0
  0
ENDTAB
  0
TABLE
  2
DIMSTYLE
  5
A
330
0
100
AcDbSymbolTable
 70
     2
100
AcDbDimStyleTable
  0
DIMSTYLE
105
27
330
A
100
AcDbSymbolTableRecord
100
AcDbDimStyleTableRecord
  2
Standard
 70
     0
340
11
  0
DIMSTYLE
105
204
102
{ACAD_REACTORS
330
203
330
2FE
330
573
330
582
102
}
330
A
100
AcDbSymbolTableRecord
100
AcDbDimStyleTableRecord
  2
SLDDIMSTYLE0
 70
     0
 41
0.7500000000000001
 44
0.0
 45
0.000000001
 78
    12
 79
     3
140
0.7500000000000001
147
0.1875
173
     1
271
     6
272
     2
276
     2
277
     5
284
    12
340
115
341
5A1
343
5A1
344
5A1
  0
ENDTAB
  0
TABLE
  2
BLOCK_RECORD
  5
1
330
0
100
AcDbSymbolTable
 70
     8
  0
BLOCK_RECORD
  5
1F
330
1
100
AcDbSymbolTableRecord
100
AcDbBlockTableRecord
  2
*Model_Space
340
22
  0
BLOCK_RECORD
  5
73
330
1
100
AcDbSymbolTableRecord
100
AcDbBlockTableRecord
  2
*Paper_Space
340
74
  0
BLOCK_RECORD
  5
5A1
330
1
100
AcDbSymbolTableRecord
100
AcDbBlockTableRecord
  2
_Open90
340
0
102
{BLKREFS
331
20E
331
20F
331
302
331
303
331
577
331
578
331
586
331
587
102
}
  0
BLOCK_RECORD
  5
23
330
1
100
AcDbSymbolTableRecord
100
AcDbBlockTableRecord
  2
*Paper_Space1
340
26
  0
BLOCK_RECORD
  5
11B
330
1
100
AcDbSymbolTableRecord
100
AcDbBlockTableRecord
  2
SW_NOTE_0
340
0
  0
BLOCK_RECORD
  5
121
330
1
100
AcDbSymbolTableRecord
100
AcDbBlockTableRecord
  2
SW_NOTE_0_1
340
0
102
{BLKREFS
331
12A
102
}
  0
BLOCK_RECORD
  5
20B
330
1
100
AcDbSymbolTableRecord
100
AcDbBlockTableRecord
  2
_D
340
0
  0
BLOCK_RECORD
  5
2FF
330
1
100
AcDbSymbolTableRecord
100
AcDbBlockTableRecord
  2
_D_1
340
0
  0
BLOCK_RECORD
  5
574
330
1
100
AcDbSymbolTableRecord
100
AcDbBlockTableRecord
  2
_D_2
340
0
  0
BLOCK_RECORD
  5
583
330
1
100
AcDbSymbolTableRecord
100
AcDbBlockTableRecord
  2
_D_3
340
0
  0
ENDTAB
  0
ENDSEC
  0
SECTION
  2
BLOCKS
  0
BLOCK
  5
20
330
1F
100
AcDbEntity
  8
0
100
AcDbBlockBegin
  2
*Model_Space
 70
     0
 71
     0
 10
0.0
 20
0.0
 30
0.0
  3
*Model_Space
  1

  0
ENDBLK
  5
21
330
1F
100
AcDbEntity
  8
0
100
AcDbBlockEnd
  0
BLOCK
  5
75
330
73
100
AcDbEntity
 67
     1
  8
0
100
AcDbBlockBegin
  2
*Paper_Space
 70
     0
 71
     0
 10
0.0
 20
0.0
 30
0.0
  3
*Paper_Space
  1

  0
ENDBLK
  5
76
330
73
100
AcDbEntity
 67
     1
  8
0
100
AcDbBlockEnd
  0
BLOCK
  5
5A2
330
5A1
100
AcDbEntity
  8
0
100
AcDbBlockBegin
  2
_Open90
 70
     0
 71
     0
 10
0.0
 20
0.0
 30
0.0
  3
_Open90
  1

  0
LINE
  5
208
330
5A1
100
AcDbEntity
  8
0
  6
ByBlock
 62
     0
370
    -2
100
AcDbLine
 10
-0.5
 20
0.5
 30
0.0
 11
0.0
 21
0.0
 31
0.0
  0
LINE
  5
209
330
5A1
100
AcDbEntity
  8
0
  6
ByBlock
 62
     0
370
    -2
100
AcDbLine
 10
0.0
 20
0.0
 30
0.0
 11
-0.5
 21
-0.5
 31
0.0
  0
LINE
  5
20A
330
5A1
100
AcDbEntity
  8
0
  6
ByBlock
 62
     0
370
    -2
100
AcDbLine
 10
0.0
 20
0.0
 30
0.0
 11
-1.0
 21
0.0
 31
0.0
  0
ENDBLK
  5
5A3
330
5A1
100
AcDbEntity
  8
0
100
AcDbBlockEnd
  0
BLOCK
  5
5AA
330
23
100
AcDbEntity
  8
0
100
AcDbBlockBegin
  2
*Paper_Space1
 70
     0
 71
     0
 10
0.0
 20
0.0
 30
0.0
  3
*Paper_Space1
  1

  0
ENDBLK
  5
5AB
330
23
100
AcDbEntity
  8
0
100
AcDbBlockEnd
  0
BLOCK
  5
5AC
330
11B
100
AcDbEntity
  8
0
100
AcDbBlockBegin
  2
SW_NOTE_0
 70
     0
 71
     0
 10
0.0
 20
0.0
 30
0.0
  3
SW_NOTE_0
  1

  0
MTEXT
  5
11E
330
11B
100
AcDbEntity
  8
NOTES
 62
     0
100
AcDbMText
 10
0.0
 20
0.3759780907668229
 30
0.0
 40
0.2916666666666666
 41
0.0
 71
     1
 72
     1
  1
FROST PRODUCTS LTD.
  7
SLDTEXTSTYLE0
 73
     1
 44
1.0
  0
MTEXT
  5
11F
330
11B
100
AcDbEntity
  8
NOTES
 62
     0
100
AcDbMText
 10
0.0
 20
-0.0495142708586375
 30
0.0
 40
0.2291666666666666
 41
0.0
 71
     1
 72
     1
  1
5280 JOHN LUCUS DRIVE, BURLINGTON, ON, L7L 5Z9
  7
SLDTEXTSTYLE0
 73
     1
 44
1.0
  0
ENDBLK
  5
5AD
330
11B
100
AcDbEntity
  8
0
100
AcDbBlockEnd
  0
BLOCK
  5
5AE
330
121
100
AcDbEntity
  8
0
100
AcDbBlockBegin
  2
SW_NOTE_0_1
 70
     0
 71
     0
 10
0.0
 20
0.0
 30
0.0
  3
SW_NOTE_0_1
  1

  0
MTEXT
  5
125
330
121
100
AcDbEntity
  8
NOTES
 62
     0
100
AcDbMText
 10
0.0
 20
0.2381282770514712
 30
0.0
 40
0.1847290640394089
 41
0.0
 71
     1
 72
     1
  1
PROPRIETARY AND CONFIDENTIAL
  7
SLDTEXTSTYLE2
 73
     1
 44
1.0
  0
MTEXT
  5
127
330
121
100
AcDbEntity
  8
NOTES
 62
     0
100
AcDbMText
 10
0.0
 20
-0.0504364795553608
 30
0.0
 40
0.25
 41
0.0
 71
     1
 72
     1
  1
THE INFORMATION CONTAINED IN THIS DRAWING IS THE SOLE PROPERTY OF 
  7
SLDTEXTSTYLE3
 73
     1
 44
1.0
  0
MTEXT
  5
128
330
121
100
AcDbEntity
  8
NOTES
 62
     0
100
AcDbMText
 10
0.0
 20
-0.4231398940537119
 30
0.0
 40
0.25
 41
0.0
 71
     1
 72
     1
  1
FROST PRODUCTS LTD.  ANY REPRODUCTION IN PART OR AS A WHOLE WITHOUT 
  7
SLDTEXTSTYLE3
 73
     1
 44
1.0
  0
MTEXT
  5
129
330
121
100
AcDbEntity
  8
NOTES
 62
     0
100
AcDbMText
 10
0.0
 20
-0.7958433085520636
 30
0.0
 40
0.25
 41
0.0
 71
     1
 72
     1
  1
THE WRITTEN PERMISSION OF FROST PRODUCTS LTD. IS PROHIBITED.
  7
SLDTEXTSTYLE3
 73
     1
 44
1.0
  0
ENDBLK
  5
5AF
330
121
100
AcDbEntity
  8
0
100
AcDbBlockEnd
  0
BLOCK
  5
5B0
330
20B
100
AcDbEntity
  8
0
100
AcDbBlockBegin
  2
_D
 70
     0
 71
     0
 10
0.0
 20
0.0
 30
0.0
  3
_D
  1

  0
INSERT
  5
20E
330
20B
100
AcDbEntity
  8
DIMS
100
AcDbBlockReference
  2
_Open90
 10
21.15933961483972
 20
43.23357673239651
 30
-6.243475134824725
 41
0.7500000000000001
 42
0.7500000000000001
 50
90.00000000000024
  0
INSERT
  5
20F
330
20B
100
AcDbEntity
  8
DIMS
100
AcDbBlockReference
  2
_Open90
 10
21.15933961483969
 20
34.04013605180047
 30
-6.243475134824725
 41
0.7500000000000001
 42
0.7500000000000001
 50
270.0000000000002
  0
LINE
  5
210
330
20B
100
AcDbEntity
  8
DIMS
100
AcDbLine
 10
20.61767290888638
 20
39.25187996695475
 30
0.0
 11
21.94579800627193
 21
39.25187996695475
 31
0.0
  0
LINE
  5
211
330
20B
100
AcDbEntity
  8
DIMS
100
AcDbLine
 10
13.03059404922378
 20
43.23357673239654
 30
0.0
 11
21.53433961483972
 21
43.23357673239651
 31
0.0
  0
LINE
  5
212
330
20B
100
AcDbEntity
  8
DIMS
100
AcDbLine
 10
19.7265650258048
 20
34.04013605180047
 30
0.0
 11
21.53433961483969
 21
34.04013605180047
 31
0.0
  0
LINE
  5
213
330
20B
100
AcDbEntity
  8
DIMS
100
AcDbLine
 10
21.15933961483972
 20
43.23357673239651
 30
0.0
 11
21.15933961483971
 21
40.15573415388734
 31
0.0
  0
LINE
  5
214
330
20B
100
AcDbEntity
  8
DIMS
100
AcDbLine
 10
21.15933961483969
 20
34.04013605180047
 30
0.0
 11
21.15933961483971
 21
38.1941715473593
 31
0.0
  0
MTEXT
  5
215
330
20B
100
AcDbEntity
  8
DIMS
100
AcDbMText
 10
19.95361039685985
 20
39.59598155301854
 30
0.0
 40
0.7500000000000001
 41
0.0
 71
     1
 72
     1
  1
9
  7
SLDTEXTSTYLE1
 73
     1
 44
1.0
  0
MTEXT
  5
216
330
20B
100
AcDbEntity
  8
DIMS
100
AcDbMText
 10
21.00465212346947
 20
40.14395028783695
 30
0.0
 40
0.7500000000000001
 41
0.0
 71
     1
 72
     1
  1
3
  7
SLDTEXTSTYLE1
 73
     1
 44
1.0
  0
MTEXT
  5
217
330
20B
100
AcDbEntity
  8
DIMS
100
AcDbMText
 10
20.72756878935979
 20
39.15217942173363
 30
0.0
 40
0.7500000000000001
 41
0.0
 71
     1
 72
     1
  1
16
  7
SLDTEXTSTYLE1
 73
     1
 44
1.0
  0
MTEXT
  5
218
330
20B
100
AcDbEntity
  8
DIMS
100
AcDbMText
 10
22.05569388674533
 20
39.59598155301854
 30
0.0
 40
0.7500000000000001
 41
0.0
 71
     1
 72
     1
  1
"
  7
SLDTEXTSTYLE1
 73
     1
 44
1.0
  0
ENDBLK
  5
5B1
330
20B
100
AcDbEntity
  8
0
100
AcDbBlockEnd
  0
BLOCK
  5
5B2
330
2FF
100
AcDbEntity
  8
0
100
AcDbBlockBegin
  2
_D_1
 70
     0
 71
     0
 10
0.0
 20
0.0
 30
0.0
  3
_D_1
  1

  0
INSERT
  5
302
330
2FF
100
AcDbEntity
  8
DIMS
100
AcDbBlockReference
  2
_Open90
 10
28.41724055582527
 20
43.23357673239654
 30
0.1751753535036719
 41
0.7500000000000001
 42
0.7500000000000001
 50
90.00000000000041
  0
INSERT
  5
303
330
2FF
100
AcDbEntity
  8
DIMS
100
AcDbBlockReference
  2
_Open90
 10
28.41724055582527
 20
10.13013605180043
 30
0.1751753535036719
 41
0.7500000000000001
 42
0.7500000000000001
 50
270.0000000000004
  0
LINE
  5
304
330
2FF
100
AcDbEntity
  8
DIMS
100
AcDbLine
 10
28.42974059142379
 20
25.34895978902451
 30
0.0
 11
29.20369898392373
 21
25.34895978902451
 31
0.0
  0
LINE
  5
305
330
2FF
100
AcDbEntity
  8
DIMS
100
AcDbLine
 10
30.69579084690598
 20
43.23357673239654
 30
0.0
 11
28.04224055582527
 21
43.23357673239654
 31
0.0
  0
LINE
  5
306
330
2FF
100
AcDbEntity
  8
DIMS
100
AcDbLine
 10
31.39008288363794
 20
10.13013605180043
 30
0.0
 11
28.04224055582527
 21
10.13013605180043
 31
0.0
  0
LINE
  5
307
330
2FF
100
AcDbEntity
  8
DIMS
100
AcDbLine
 10
28.41724055582527
 20
43.23357673239654
 30
0.0
 11
28.41724055582527
 21
26.25281397595715
 31
0.0
  0
LINE
  5
308
330
2FF
100
AcDbEntity
  8
DIMS
100
AcDbLine
 10
28.41724055582527
 20
10.13013605180043
 30
0.0
 11
28.41724055582527
 21
24.2912513694291
 31
0.0
  0
MTEXT
  5
309
330
2FF
100
AcDbEntity
  8
DIMS
100
AcDbMText
 10
27.21151141117791
 20
25.69306137508829
 30
0.0
 40
0.7500000000000001
 41
0.0
 71
     1
 72
     1
  1
33
  7
SLDTEXTSTYLE1
 73
     1
 44
1.0
  0
MTEXT
  5
30A
330
2FF
100
AcDbEntity
  8
DIMS
100
AcDbMText
 10
28.53963645356409
 20
26.24103010990671
 30
0.0
 40
0.7500000000000001
 41
0.0
 71
     1
 72
     1
  1
1
  7
SLDTEXTSTYLE1
 73
     1
 44
1.0
  0
MTEXT
  5
30B
330
2FF
100
AcDbEntity
  8
DIMS
100
AcDbMText
 10
28.53963645356409
 20
25.24925924380339
 30
0.0
 40
0.7500000000000001
 41
0.0
 71
     1
 72
     1
  1
8
  7
SLDTEXTSTYLE1
 73
     1
 44
1.0
  0
MTEXT
  5
30C
330
2FF
100
AcDbEntity
  8
DIMS
100
AcDbMText
 10
29.31359475439842
 20
25.69306137508829
 30
0.0
 40
0.7500000000000001
 41
0.0
 71
     1
 72
     1
  1
"
  7
SLDTEXTSTYLE1
 73
     1
 44
1.0
  0
ENDBLK
  5
5B3
330
2FF
100
AcDbEntity
  8
0
100
AcDbBlockEnd
  0
BLOCK
  5
5B4
330
574
100
AcDbEntity
  8
0
100
AcDbBlockBegin
  2
_D_2
 70
     0
 71
     0
 10
0.0
 20
0.0
 30
0.0
  3
_D_2
  1

  0
INSERT
  5
577
330
574
100
AcDbEntity
  8
DIMS
100
AcDbBlockReference
  2
_Open90
 10
22.10422150460348
 20
71.28884654252211
 30
11.02886873471781
 41
0.7500000000000001
 42
0.7500000000000001
 50
90.00000000000043
  0
INSERT
  5
578
330
574
100
AcDbEntity
  8
DIMS
100
AcDbBlockReference
  2
_Open90
 10
22.10422150460348
 20
57.78987579765787
 30
11.02886873471781
 41
0.7500000000000001
 42
0.7500000000000001
 50
270.0000000000004
  0
LINE
  5
579
330
574
100
AcDbEntity
  8
DIMS
100
AcDbLine
 10
22.116721540202
 20
64.53752029160526
 30
0.0
 11
22.89067993270194
 21
64.53752029160526
 31
0.0
  0
LINE
  5
57A
330
574
100
AcDbEntity
  8
DIMS
100
AcDbLine
 10
19.72656502580479
 20
71.28884654252211
 30
0.0
 11
22.47922150460348
 21
71.28884654252211
 31
0.0
  0
LINE
  5
57B
330
574
100
AcDbEntity
  8
DIMS
100
AcDbLine
 10
19.7265650258048
 20
57.78987579765787
 30
0.0
 11
22.47922150460348
 21
57.78987579765787
 31
0.0
  0
LINE
  5
57C
330
574
100
AcDbEntity
  8
DIMS
100
AcDbLine
 10
22.10422150460348
 20
71.28884654252211
 30
0.0
 11
22.10422150460348
 21
65.44137447853797
 31
0.0
  0
LINE
  5
57D
330
574
100
AcDbEntity
  8
DIMS
100
AcDbLine
 10
22.10422150460348
 20
57.78987579765787
 30
0.0
 11
22.10422150460348
 21
63.47981187200993
 31
0.0
  0
MTEXT
  5
57E
330
574
100
AcDbEntity
  8
DIMS
100
AcDbMText
 10
20.89849235995611
 20
64.88162187766905
 30
0.0
 40
0.7500000000000001
 41
0.0
 71
     1
 72
     1
  1
13
  7
SLDTEXTSTYLE1
 73
     1
 44
1.0
  0
MTEXT
  5
57F
330
574
100
AcDbEntity
  8
DIMS
100
AcDbMText
 10
22.22661740234229
 20
65.42959061248746
 30
0.0
 40
0.7500000000000001
 41
0.0
 71
     1
 72
     1
  1
1
  7
SLDTEXTSTYLE1
 73
     1
 44
1.0
  0
MTEXT
  5
580
330
574
100
AcDbEntity
  8
DIMS
100
AcDbMText
 10
22.22661740234229
 20
64.43781974638414
 30
0.0
 40
0.7500000000000001
 41
0.0
 71
     1
 72
     1
  1
2
  7
SLDTEXTSTYLE1
 73
     1
 44
1.0
  0
MTEXT
  5
581
330
574
100
AcDbEntity
  8
DIMS
100
AcDbMText
 10
23.00057570317662
 20
64.88162187766905
 30
0.0
 40
0.7500000000000001
 41
0.0
 71
     1
 72
     1
  1
"
  7
SLDTEXTSTYLE1
 73
     1
 44
1.0
  0
ENDBLK
  5
5B5
330
574
100
AcDbEntity
  8
0
100
AcDbBlockEnd
  0
BLOCK
  5
5B6
330
583
100
AcDbEntity
  8
0
100
AcDbBlockBegin
  2
_D_3
 70
     0
 71
     0
 10
0.0
 20
0.0
 30
0.0
  3
_D_3
  1

  0
INSERT
  5
586
330
583
100
AcDbEntity
  8
DIMS
100
AcDbBlockReference
  2
_Open90
 10
20.17438373157029
 20
55.27019075828777
 30
11.02886873471781
 41
0.7500000000000001
 42
0.7500000000000001
 50
0.0000000000004071
  0
INSERT
  5
587
330
583
100
AcDbEntity
  8
DIMS
100
AcDbBlockReference
  2
_Open90
 10
5.555412986706005
 20
55.27019075828777
 30
11.02886873471781
 41
0.7500000000000001
 42
0.7500000000000001
 50
180.0000000000004
  0
LINE
  5
588
330
583
100
AcDbEntity
  8
DIMS
100
AcDbLine
 10
12.65321126344845
 20
55.34711787461916
 30
0.0
 11
13.42716965594839
 21
55.34711787461916
 31
0.0
  0
LINE
  5
589
330
583
100
AcDbEntity
  8
DIMS
100
AcDbLine
 10
20.17438373157029
 20
58.23769450342329
 30
0.0
 11
20.17438373157029
 21
54.89519075828777
 31
0.0
  0
LINE
  5
58A
330
583
100
AcDbEntity
  8
DIMS
100
AcDbLine
 10
5.555412986706004
 20
58.23769450342341
 30
0.0
 11
5.555412986706005
 21
54.89519075828777
 31
0.0
  0
LINE
  5
58B
330
583
100
AcDbEntity
  8
DIMS
100
AcDbLine
 10
20.17438373157029
 20
55.27019075828777
 30
0.0
 11
13.84644037249729
 21
55.27019075828777
 31
0.0
  0
LINE
  5
58C
330
583
100
AcDbEntity
  8
DIMS
100
AcDbLine
 10
5.555412986706005
 20
55.27019075828777
 30
0.0
 11
11.43498208320256
 21
55.27019075828777
 31
0.0
  0
MTEXT
  5
58D
330
583
100
AcDbEntity
  8
DIMS
100
AcDbMText
 10
11.43498208320256
 20
55.69121946068294
 30
0.0
 40
0.7500000000000001
 41
0.0
 71
     1
 72
     1
  1
14
  7
SLDTEXTSTYLE1
 73
     1
 44
1.0
  0
MTEXT
  5
58E
330
583
100
AcDbEntity
  8
DIMS
100
AcDbMText
 10
12.76310712558874
 20
56.23918819550136
 30
0.0
 40
0.7500000000000001
 41
0.0
 71
     1
 72
     1
  1
5
  7
SLDTEXTSTYLE1
 73
     1
 44
1.0
  0
MTEXT
  5
58F
330
583
100
AcDbEntity
  8
DIMS
100
AcDbMText
 10
12.76310712558874
 20
55.24741732939803
 30
0.0
 40
0.7500000000000001
 41
0.0
 71
     1
 72
     1
  1
8
  7
SLDTEXTSTYLE1
 73
     1
 44
1.0
  0
MTEXT
  5
590
330
583
100
AcDbEntity
  8
DIMS
100
AcDbMText
 10
13.53706542642307
 20
55.69121946068294
 30
0.0
 40
0.7500000000000001
 41
0.0
 71
     1
 72
     1
  1
"
  7
SLDTEXTSTYLE1
 73
     1
 44
1.0
  0
ENDBLK
  5
5B7
330
583
100
AcDbEntity
  8
0
100
AcDbBlockEnd
  0
ENDSEC
  0
SECTION
  2
ENTITIES
  0
LINE
  5
7A
330
1F
100
AcDbEntity
  8
TITLE
370
    50
100
AcDbLine
 10
32.82503224263094
 20
1.487611764461627
 30
0.0
 11
49.49998645119505
 21
1.487611764461627
 31
0.0
  0
LINE
  5
7B
330
1F
100
AcDbEntity
  8
TITLE
370
    50
100
AcDbLine
 10
49.49993174424403
 20
5.47536039355575
 30
0.0
 11
39.31053507231783
 21
5.475360393555748
 31
0.0
  0
LINE
  5
7C
330
1F
100
AcDbEntity
  8
TITLE
  6
SLD-Solid
370
    18
100
AcDbLine
 10
0.5
 20
0.5
 30
0.0
 11
0.5
 21
87.49999999999999
 31
0.0
  0
LINE
  5
7D
330
1F
100
AcDbEntity
  8
TITLE
  6
SLD-Solid
370
    18
100
AcDbLine
 10
0.5
 20
87.49999999999999
 30
0.0
 11
49.50000000000001
 21
87.49999999999999
 31
0.0
  0
LINE
  5
7E
330
1F
100
AcDbEntity
  8
TITLE
370
    50
100
AcDbLine
 10
32.82503224263094
 20
2.542787723103443
 30
0.0
 11
25.50597912026433
 21
2.542787723103441
 31
0.0
  0
LINE
  5
7F
330
1F
100
AcDbEntity
  8
TITLE
370
    50
100
AcDbLine
 10
32.82503224263094
 20
1.487611764461627
 30
0.0
 11
25.50597912026433
 21
1.487611764461627
 31
0.0
  0
LINE
  5
80
330
1F
100
AcDbEntity
  8
TITLE
  6
SLD-Solid
370
    18
100
AcDbLine
 10
49.50000000000001
 20
87.49999999999999
 30
0.0
 11
49.50000000000001
 21
0.5
 31
0.0
  0
LINE
  5
81
330
1F
100
AcDbEntity
  8
TITLE
  6
SLD-Solid
370
    18
100
AcDbLine
 10
49.50000000000001
 20
0.5
 30
0.0
 11
0.5
 21
0.5
 31
0.0
  0
LINE
  5
82
330
1F
100
AcDbEntity
  8
TITLE
370
    50
100
AcDbLine
 10
32.82503224263094
 20
1.487611764461627
 30
0.0
 11
32.82503224263094
 21
3.597963681745258
 31
0.0
  0
LINE
  5
83
330
1F
100
AcDbEntity
  8
TITLE
370
    50
100
AcDbLine
 10
25.50597912026433
 20
3.597963681745255
 30
0.0
 11
25.50597912026433
 21
0.5
 31
0.0
  0
LINE
  5
84
330
1F
100
AcDbEntity
  8
TITLE
370
    50
100
AcDbLine
 10
25.50597912026433
 20
0.5
 30
0.0
 11
49.50000000000001
 21
0.5
 31
0.0
  0
LINE
  5
85
330
1F
100
AcDbEntity
  8
TITLE
370
    50
100
AcDbLine
 10
49.49993174424403
 20
5.47536039355575
 30
0.0
 11
49.50000000000001
 21
0.5
 31
0.0
  0
LINE
  5
86
330
1F
100
AcDbEntity
  8
TITLE
  6
SLD-Solid
370
    18
100
AcDbLine
 10
0.4999606299212599
 20
44.0
 30
0.0
 11
0.5000393700787401
 21
44.0
 31
0.0
  0
LINE
  5
87
330
1F
100
AcDbEntity
  8
TITLE
370
    50
100
AcDbLine
 10
32.82503224263094
 20
3.597963681745258
 30
0.0
 11
25.50597912026433
 21
3.597963681745255
 31
0.0
  0
LINE
  5
88
330
1F
100
AcDbEntity
  8
TITLE
370
    50
100
AcDbLine
 10
32.82503224263094
 20
3.597963681745258
 30
0.0
 11
49.49976156350876
 21
3.597964813500724
 31
0.0
  0
LINE
  5
89
330
1F
100
AcDbEntity
  8
TITLE
370
    50
100
AcDbLine
 10
39.31053507231783
 20
5.475360393555748
 30
0.0
 11
39.31053507231783
 21
0.4636772425222311
 31
0.0
  0
LINE
  5
8A
330
1F
100
AcDbEntity
  8
TITLE
  6
SLD-Solid
370
    18
100
AcDbLine
 10
25.0
 20
87.50003937007874
 30
0.0
 11
25.0
 21
87.49996062992125
 31
0.0
  0
LINE
  5
8B
330
1F
100
AcDbEntity
  8
TITLE
  6
SLD-Solid
370
    18
100
AcDbLine
 10
49.50003937007874
 20
44.0
 30
0.0
 11
49.49996062992127
 21
44.0
 31
0.0
  0
LINE
  5
8C
330
1F
100
AcDbEntity
  8
TITLE
  6
SLD-Solid
370
    18
100
AcDbLine
 10
25.0
 20
0.4999606299212599
 30
0.0
 11
25.0
 21
0.5000393700787401
 31
0.0
  0
LINE
  5
8D
330
1F
100
AcDbEntity
  8
TITLE
  6
SLD-Solid
370
    18
100
AcDbLine
 10
0.5
 20
2.661417322834641
 30
0.0
 11
0.1653543307086614
 21
2.661417322834641
 31
0.0
  0
LINE
  5
8E
330
1F
100
AcDbEntity
  8
TITLE
  6
SLD-Solid
370
    18
100
AcDbLine
 10
49.50000000000001
 20
2.661417322834641
 30
0.0
 11
49.83464566929134
 21
2.661417322834641
 31
0.0
  0
LINE
  5
8F
330
1F
100
AcDbEntity
  8
TITLE
  6
SLD-Solid
370
    18
100
AcDbLine
 10
0.5
 20
4.629921259842517
 30
0.0
 11
0.1653543307086614
 21
4.629921259842517
 31
0.0
  0
LINE
  5
90
330
1F
100
AcDbEntity
  8
TITLE
  6
SLD-Solid
370
    18
100
AcDbLine
 10
49.50000000000001
 20
4.629921259842517
 30
0.0
 11
49.83464566929134
 21
4.629921259842517
 31
0.0
  0
LINE
  5
91
330
1F
100
AcDbEntity
  8
TITLE
  6
SLD-Solid
370
    18
100
AcDbLine
 10
0.5
 20
6.598425196850388
 30
0.0
 11
0.1653543307086614
 21
6.598425196850388
 31
0.0
  0
LINE
  5
5B8
330
1F
100
AcDbEntity
  8
TITLE
  6
SLD-Solid
370
    18
100
AcDbLine
 10
49.50000000000001
 20
6.598425196850388
 30
0.0
 11
49.83464566929134
 21
6.598425196850388
 31
0.0
  0
LINE
  5
5B9
330
1F
100
AcDbEntity
  8
TITLE
  6
SLD-Solid
370
    18
100
AcDbLine
 10
0.5
 20
8.566929133858265
 30
0.0
 11
0.1653543307086614
 21
8.566929133858265
 31
0.0
  0
LINE
  5
94
330
1F
100
AcDbEntity
  8
TITLE
  6
SLD-Solid
370
    18
100
AcDbLine
 10
49.50000000000001
 20
8.566929133858265
 30
0.0
 11
49.83464566929134
 21
8.566929133858265
 31
0.0
  0
LINE
  5
95
330
1F
100
AcDbEntity
  8
TITLE
  6
SLD-Solid
370
    18
100
AcDbLine
 10
0.5
 20
10.53543307086614
 30
0.0
 11
0.1653543307086614
 21
10.53543307086614
 31
0.0
  0
LINE
  5
96
330
1F
100
AcDbEntity
  8
TITLE
  6
SLD-Solid
370
    18
100
AcDbLine
 10
49.50000000000001
 20
10.53543307086614
 30
0.0
 11
49.83464566929134
 21
10.53543307086614
 31
0.0
  0
LINE
  5
5BA
330
1F
100
AcDbEntity
  8
TITLE
  6
SLD-Solid
370
    18
100
AcDbLine
 10
0.5
 20
12.50393700787401
 30
0.0
 11
0.1653543307086614
 21
12.50393700787401
 31
0.0
  0
LINE
  5
5BB
330
1F
100
AcDbEntity
  8
TITLE
  6
SLD-Solid
370
    18
100
AcDbLine
 10
49.50000000000001
 20
12.50393700787401
 30
0.0
 11
49.83464566929134
 21
12.50393700787401
 31
0.0
  0
LINE
  5
99
330
1F
100
AcDbEntity
  8
TITLE
  6
SLD-Solid
370
    18
100
AcDbLine
 10
0.5
 20
14.47244094488189
 30
0.0
 11
0.1653543307086614
 21
14.47244094488189
 31
0.0
  0
LINE
  5
9A
330
1F
100
AcDbEntity
  8
TITLE
  6
SLD-Solid
370
    18
100
AcDbLine
 10
49.50000000000001
 20
14.47244094488189
 30
0.0
 11
49.83464566929134
 21
14.47244094488189
 31
0.0
  0
LINE
  5
9B
330
1F
100
AcDbEntity
  8
TITLE
  6
SLD-Solid
370
    18
100
AcDbLine
 10
0.5
 20
16.44094488188976
 30
0.0
 11
0.1653543307086614
 21
16.44094488188976
 31
0.0
  0
LINE
  5
9C
330
1F
100
AcDbEntity
  8
TITLE
  6
SLD-Solid
370
    18
100
AcDbLine
 10
49.50000000000001
 20
16.44094488188976
 30
0.0
 11
49.83464566929134
 21
16.44094488188976
 31
0.0
  0
LINE
  5
9D
330
1F
100
AcDbEntity
  8
TITLE
  6
SLD-Solid
370
    18
100
AcDbLine
 10
0.5
 20
18.40944881889763
 30
0.0
 11
0.1653543307086614
 21
18.40944881889763
 31
0.0
  0
LINE
  5
9E
330
1F
100
AcDbEntity
  8
TITLE
  6
SLD-Solid
370
    18
100
AcDbLine
 10
49.50000000000001
 20
18.40944881889763
 30
0.0
 11
49.83464566929134
 21
18.40944881889763
 31
0.0
  0
LINE
  5
9F
330
1F
100
AcDbEntity
  8
TITLE
  6
SLD-Solid
370
    18
100
AcDbLine
 10
0.5
 20
20.37795275590551
 30
0.0
 11
0.1653543307086614
 21
20.37795275590551
 31
0.0
  0
LINE
  5
A0
330
1F
100
AcDbEntity
  8
TITLE
  6
SLD-Solid
370
    18
100
AcDbLine
 10
49.50000000000001
 20
20.37795275590551
 30
0.0
 11
49.83464566929134
 21
20.37795275590551
 31
0.0
  0
LINE
  5
A1
330
1F
100
AcDbEntity
  8
TITLE
  6
SLD-Solid
370
    18
100
AcDbLine
 10
0.5
 20
22.34645669291338
 30
0.0
 11
0.1653543307086614
 21
22.34645669291338
 31
0.0
  0
LINE
  5
A2
330
1F
100
AcDbEntity
  8
TITLE
  6
SLD-Solid
370
    18
100
AcDbLine
 10
49.50000000000001
 20
22.34645669291338
 30
0.0
 11
49.83464566929134
 21
22.34645669291338
 31
0.0
  0
LINE
  5
A3
330
1F
100
AcDbEntity
  8
TITLE
  6
SLD-Solid
370
    18
100
AcDbLine
 10
0.5
 20
24.31496062992126
 30
0.0
 11
0.1653543307086614
 21
24.31496062992126
 31
0.0
  0
LINE
  5
A4
330
1F
100
AcDbEntity
  8
TITLE
  6
SLD-Solid
370
    18
100
AcDbLine
 10
49.50000000000001
 20
24.31496062992126
 30
0.0
 11
49.83464566929134
 21
24.31496062992126
 31
0.0
  0
LINE
  5
A5
330
1F
100
AcDbEntity
  8
TITLE
  6
SLD-Solid
370
    18
100
AcDbLine
 10
0.5
 20
26.28346456692913
 30
0.0
 11
0.1653543307086614
 21
26.28346456692913
 31
0.0
  0
LINE
  5
A6
330
1F
100
AcDbEntity
  8
TITLE
  6
SLD-Solid
370
    18
100
AcDbLine
 10
49.50000000000001
 20
26.28346456692913
 30
0.0
 11
49.83464566929134
 21
26.28346456692913
 31
0.0
  0
LINE
  5
A7
330
1F
100
AcDbEntity
  8
TITLE
  6
SLD-Solid
370
    18
100
AcDbLine
 10
0.5
 20
28.251968503937
 30
0.0
 11
0.1653543307086614
 21
28.251968503937
 31
0.0
  0
LINE
  5
A8
330
1F
100
AcDbEntity
  8
TITLE
  6
SLD-Solid
370
    18
100
AcDbLine
 10
49.50000000000001
 20
28.251968503937
 30
0.0
 11
49.83464566929134
 21
28.251968503937
 31
0.0
  0
LINE
  5
A9
330
1F
100
AcDbEntity
  8
TITLE
  6
SLD-Solid
370
    18
100
AcDbLine
 10
0.5
 20
30.22047244094488
 30
0.0
 11
0.1653543307086614
 21
30.22047244094488
 31
0.0
  0
LINE
  5
AA
330
1F
100
AcDbEntity
  8
TITLE
  6
SLD-Solid
370
    18
100
AcDbLine
 10
49.50000000000001
 20
30.22047244094488
 30
0.0
 11
49.83464566929134
 21
30.22047244094488
 31
0.0
  0
LINE
  5
AB
330
1F
100
AcDbEntity
  8
TITLE
  6
SLD-Solid
370
    18
100
AcDbLine
 10
0.5
 20
32.18897637795276
 30
0.0
 11
0.1653543307086614
 21
32.18897637795276
 31
0.0
  0
LINE
  5
AC
330
1F
100
AcDbEntity
  8
TITLE
  6
SLD-Solid
370
    18
100
AcDbLine
 10
49.50000000000001
 20
32.18897637795276
 30
0.0
 11
49.83464566929134
 21
32.18897637795276
 31
0.0
  0
LINE
  5
AD
330
1F
100
AcDbEntity
  8
TITLE
  6
SLD-Solid
370
    18
100
AcDbLine
 10
0.5
 20
34.15748031496063
 30
0.0
 11
0.1653543307086614
 21
34.15748031496063
 31
0.0
  0
LINE
  5
AE
330
1F
100
AcDbEntity
  8
TITLE
  6
SLD-Solid
370
    18
100
AcDbLine
 10
49.50000000000001
 20
34.15748031496063
 30
0.0
 11
49.83464566929134
 21
34.15748031496063
 31
0.0
  0
LINE
  5
AF
330
1F
100
AcDbEntity
  8
TITLE
  6
SLD-Solid
370
    18
100
AcDbLine
 10
0.5
 20
36.1259842519685
 30
0.0
 11
0.1653543307086614
 21
36.1259842519685
 31
0.0
  0
LINE
  5
B0
330
1F
100
AcDbEntity
  8
TITLE
  6
SLD-Solid
370
    18
100
AcDbLine
 10
49.50000000000001
 20
36.1259842519685
 30
0.0
 11
49.83464566929134
 21
36.1259842519685
 31
0.0
  0
LINE
  5
B1
330
1F
100
AcDbEntity
  8
TITLE
  6
SLD-Solid
370
    18
100
AcDbLine
 10
0.5
 20
38.09448818897638
 30
0.0
 11
0.1653543307086614
 21
38.09448818897638
 31
0.0
  0
LINE
  5
B2
330
1F
100
AcDbEntity
  8
TITLE
  6
SLD-Solid
370
    18
100
AcDbLine
 10
49.50000000000001
 20
38.09448818897638
 30
0.0
 11
49.83464566929134
 21
38.09448818897638
 31
0.0
  0
LINE
  5
B3
330
1F
100
AcDbEntity
  8
TITLE
  6
SLD-Solid
370
    18
100
AcDbLine
 10
0.5
 20
40.06299212598424
 30
0.0
 11
0.1653543307086614
 21
40.06299212598424
 31
0.0
  0
LINE
  5
B4
330
1F
100
AcDbEntity
  8
TITLE
  6
SLD-Solid
370
    18
100
AcDbLine
 10
49.50000000000001
 20
40.06299212598424
 30
0.0
 11
49.83464566929134
 21
40.06299212598424
 31
0.0
  0
LINE
  5
B5
330
1F
100
AcDbEntity
  8
TITLE
  6
SLD-Solid
370
    18
100
AcDbLine
 10
0.5
 20
42.03149606299213
 30
0.0
 11
0.1653543307086614
 21
42.03149606299213
 31
0.0
  0
LINE
  5
B6
330
1F
100
AcDbEntity
  8
TITLE
  6
SLD-Solid
370
    18
100
AcDbLine
 10
49.50000000000001
 20
42.03149606299213
 30
0.0
 11
49.83464566929134
 21
42.03149606299213
 31
0.0
  0
LINE
  5
B7
330
1F
100
AcDbEntity
  8
TITLE
  6
SLD-Solid
370
    18
100
AcDbLine
 10
0.5
 20
44.0
 30
0.0
 11
0.1653543307086614
 21
44.0
 31
0.0
  0
LINE
  5
B8
330
1F
100
AcDbEntity
  8
TITLE
  6
SLD-Solid
370
    18
100
AcDbLine
 10
49.50000000000001
 20
44.0
 30
0.0
 11
49.83464566929134
 21
44.0
 31
0.0
  0
LINE
  5
B9
330
1F
100
AcDbEntity
  8
TITLE
  6
SLD-Solid
370
    18
100
AcDbLine
 10
0.5
 20
45.96850393700787
 30
0.0
 11
0.1653543307086614
 21
45.96850393700787
 31
0.0
  0
LINE
  5
BA
330
1F
100
AcDbEntity
  8
TITLE
  6
SLD-Solid
370
    18
100
AcDbLine
 10
49.50000000000001
 20
45.96850393700787
 30
0.0
 11
49.83464566929134
 21
45.96850393700787
 31
0.0
  0
LINE
  5
BB
330
1F
100
AcDbEntity
  8
TITLE
  6
SLD-Solid
370
    18
100
AcDbLine
 10
0.5
 20
47.93700787401575
 30
0.0
 11
0.1653543307086614
 21
47.93700787401575
 31
0.0
  0
LINE
  5
BC
330
1F
100
AcDbEntity
  8
TITLE
  6
SLD-Solid
370
    18
100
AcDbLine
 10
49.50000000000001
 20
47.93700787401575
 30
0.0
 11
49.83464566929134
 21
47.93700787401575
 31
0.0
  0
LINE
  5
BD
330
1F
100
AcDbEntity
  8
TITLE
  6
SLD-Solid
370
    18
100
AcDbLine
 10
0.5
 20
49.90551181102362
 30
0.0
 11
0.1653543307086614
 21
49.90551181102362
 31
0.0
  0
LINE
  5
BE
330
1F
100
AcDbEntity
  8
TITLE
  6
SLD-Solid
370
    18
100
AcDbLine
 10
49.50000000000001
 20
49.90551181102362
 30
0.0
 11
49.83464566929134
 21
49.90551181102362
 31
0.0
  0
LINE
  5
BF
330
1F
100
AcDbEntity
  8
TITLE
  6
SLD-Solid
370
    18
100
AcDbLine
 10
0.5
 20
51.8740157480315
 30
0.0
 11
0.1653543307086614
 21
51.8740157480315
 31
0.0
  0
LINE
  5
C0
330
1F
100
AcDbEntity
  8
TITLE
  6
SLD-Solid
370
    18
100
AcDbLine
 10
49.50000000000001
 20
51.8740157480315
 30
0.0
 11
49.83464566929134
 21
51.8740157480315
 31
0.0
  0
LINE
  5
C1
330
1F
100
AcDbEntity
  8
TITLE
  6
SLD-Solid
370
    18
100
AcDbLine
 10
0.5
 20
53.84251968503937
 30
0.0
 11
0.1653543307086614
 21
53.84251968503937
 31
0.0
  0
LINE
  5
C2
330
1F
100
AcDbEntity
  8
TITLE
  6
SLD-Solid
370
    18
100
AcDbLine
 10
49.50000000000001
 20
53.84251968503937
 30
0.0
 11
49.83464566929134
 21
53.84251968503937
 31
0.0
  0
LINE
  5
C3
330
1F
100
AcDbEntity
  8
TITLE
  6
SLD-Solid
370
    18
100
AcDbLine
 10
0.5
 20
55.81102362204724
 30
0.0
 11
0.1653543307086614
 21
55.81102362204724
 31
0.0
  0
LINE
  5
C4
330
1F
100
AcDbEntity
  8
TITLE
  6
SLD-Solid
370
    18
100
AcDbLine
 10
49.50000000000001
 20
55.81102362204724
 30
0.0
 11
49.83464566929134
 21
55.81102362204724
 31
0.0
  0
LINE
  5
C5
330
1F
100
AcDbEntity
  8
TITLE
  6
SLD-Solid
370
    18
100
AcDbLine
 10
0.5
 20
57.77952755905512
 30
0.0
 11
0.1653543307086614
 21
57.77952755905512
 31
0.0
  0
LINE
  5
C6
330
1F
100
AcDbEntity
  8
TITLE
  6
SLD-Solid
370
    18
100
AcDbLine
 10
49.50000000000001
 20
57.77952755905512
 30
0.0
 11
49.83464566929134
 21
57.77952755905512
 31
0.0
  0
LINE
  5
C7
330
1F
100
AcDbEntity
  8
TITLE
  6
SLD-Solid
370
    18
100
AcDbLine
 10
0.5
 20
59.74803149606299
 30
0.0
 11
0.1653543307086614
 21
59.74803149606299
 31
0.0
  0
LINE
  5
C8
330
1F
100
AcDbEntity
  8
TITLE
  6
SLD-Solid
370
    18
100
AcDbLine
 10
49.50000000000001
 20
59.74803149606299
 30
0.0
 11
49.83464566929134
 21
59.74803149606299
 31
0.0
  0
LINE
  5
C9
330
1F
100
AcDbEntity
  8
TITLE
  6
SLD-Solid
370
    18
100
AcDbLine
 10
0.5
 20
61.71653543307087
 30
0.0
 11
0.1653543307086614
 21
61.71653543307087
 31
0.0
  0
LINE
  5
CA
330
1F
100
AcDbEntity
  8
TITLE
  6
SLD-Solid
370
    18
100
AcDbLine
 10
49.50000000000001
 20
61.71653543307087
 30
0.0
 11
49.83464566929134
 21
61.71653543307087
 31
0.0
  0
LINE
  5
CB
330
1F
100
AcDbEntity
  8
TITLE
  6
SLD-Solid
370
    18
100
AcDbLine
 10
0.5
 20
63.68503937007874
 30
0.0
 11
0.1653543307086614
 21
63.68503937007874
 31
0.0
  0
LINE
  5
CC
330
1F
100
AcDbEntity
  8
TITLE
  6
SLD-Solid
370
    18
100
AcDbLine
 10
49.50000000000001
 20
63.68503937007874
 30
0.0
 11
49.83464566929134
 21
63.68503937007874
 31
0.0
  0
LINE
  5
CD
330
1F
100
AcDbEntity
  8
TITLE
  6
SLD-Solid
370
    18
100
AcDbLine
 10
0.5
 20
65.65354330708662
 30
0.0
 11
0.1653543307086614
 21
65.65354330708662
 31
0.0
  0
LINE
  5
CE
330
1F
100
AcDbEntity
  8
TITLE
  6
SLD-Solid
370
    18
100
AcDbLine
 10
49.50000000000001
 20
65.65354330708662
 30
0.0
 11
49.83464566929134
 21
65.65354330708662
 31
0.0
  0
LINE
  5
CF
330
1F
100
AcDbEntity
  8
TITLE
  6
SLD-Solid
370
    18
100
AcDbLine
 10
0.5
 20
67.62204724409449
 30
0.0
 11
0.1653543307086614
 21
67.62204724409449
 31
0.0
  0
LINE
  5
D0
330
1F
100
AcDbEntity
  8
TITLE
  6
SLD-Solid
370
    18
100
AcDbLine
 10
49.50000000000001
 20
67.62204724409449
 30
0.0
 11
49.83464566929134
 21
67.62204724409449
 31
0.0
  0
LINE
  5
D1
330
1F
100
AcDbEntity
  8
TITLE
  6
SLD-Solid
370
    18
100
AcDbLine
 10
0.5
 20
69.59055118110236
 30
0.0
 11
0.1653543307086614
 21
69.59055118110236
 31
0.0
  0
LINE
  5
D2
330
1F
100
AcDbEntity
  8
TITLE
  6
SLD-Solid
370
    18
100
AcDbLine
 10
49.50000000000001
 20
69.59055118110236
 30
0.0
 11
49.83464566929134
 21
69.59055118110236
 31
0.0
  0
LINE
  5
D3
330
1F
100
AcDbEntity
  8
TITLE
  6
SLD-Solid
370
    18
100
AcDbLine
 10
0.5
 20
71.55905511811024
 30
0.0
 11
0.1653543307086614
 21
71.55905511811024
 31
0.0
  0
LINE
  5
D4
330
1F
100
AcDbEntity
  8
TITLE
  6
SLD-Solid
370
    18
100
AcDbLine
 10
49.50000000000001
 20
71.55905511811024
 30
0.0
 11
49.83464566929134
 21
71.55905511811024
 31
0.0
  0
LINE
  5
D5
330
1F
100
AcDbEntity
  8
TITLE
  6
SLD-Solid
370
    18
100
AcDbLine
 10
0.5
 20
73.5275590551181
 30
0.0
 11
0.1653543307086614
 21
73.5275590551181
 31
0.0
  0
LINE
  5
D6
330
1F
100
AcDbEntity
  8
TITLE
  6
SLD-Solid
370
    18
100
AcDbLine
 10
49.50000000000001
 20
73.5275590551181
 30
0.0
 11
49.83464566929134
 21
73.5275590551181
 31
0.0
  0
LINE
  5
D7
330
1F
100
AcDbEntity
  8
TITLE
  6
SLD-Solid
370
    18
100
AcDbLine
 10
0.5
 20
75.49606299212599
 30
0.0
 11
0.1653543307086614
 21
75.49606299212599
 31
0.0
  0
LINE
  5
D8
330
1F
100
AcDbEntity
  8
TITLE
  6
SLD-Solid
370
    18
100
AcDbLine
 10
49.50000000000001
 20
75.49606299212599
 30
0.0
 11
49.83464566929134
 21
75.49606299212599
 31
0.0
  0
LINE
  5
D9
330
1F
100
AcDbEntity
  8
TITLE
  6
SLD-Solid
370
    18
100
AcDbLine
 10
0.5
 20
77.46456692913387
 30
0.0
 11
0.1653543307086614
 21
77.46456692913387
 31
0.0
  0
LINE
  5
DA
330
1F
100
AcDbEntity
  8
TITLE
  6
SLD-Solid
370
    18
100
AcDbLine
 10
49.50000000000001
 20
77.46456692913387
 30
0.0
 11
49.83464566929134
 21
77.46456692913387
 31
0.0
  0
LINE
  5
DB
330
1F
100
AcDbEntity
  8
TITLE
  6
SLD-Solid
370
    18
100
AcDbLine
 10
0.5
 20
79.43307086614173
 30
0.0
 11
0.1653543307086614
 21
79.43307086614173
 31
0.0
  0
LINE
  5
DC
330
1F
100
AcDbEntity
  8
TITLE
  6
SLD-Solid
370
    18
100
AcDbLine
 10
49.50000000000001
 20
79.43307086614173
 30
0.0
 11
49.83464566929134
 21
79.43307086614173
 31
0.0
  0
LINE
  5
DD
330
1F
100
AcDbEntity
  8
TITLE
  6
SLD-Solid
370
    18
100
AcDbLine
 10
0.5
 20
81.40157480314961
 30
0.0
 11
0.1653543307086614
 21
81.40157480314961
 31
0.0
  0
LINE
  5
DE
330
1F
100
AcDbEntity
  8
TITLE
  6
SLD-Solid
370
    18
100
AcDbLine
 10
49.50000000000001
 20
81.40157480314961
 30
0.0
 11
49.83464566929134
 21
81.40157480314961
 31
0.0
  0
LINE
  5
DF
330
1F
100
AcDbEntity
  8
TITLE
  6
SLD-Solid
370
    18
100
AcDbLine
 10
0.5
 20
83.37007874015748
 30
0.0
 11
0.1653543307086614
 21
83.37007874015748
 31
0.0
  0
LINE
  5
E0
330
1F
100
AcDbEntity
  8
TITLE
  6
SLD-Solid
370
    18
100
AcDbLine
 10
49.50000000000001
 20
83.37007874015748
 30
0.0
 11
49.83464566929134
 21
83.37007874015748
 31
0.0
  0
LINE
  5
E1
330
1F
100
AcDbEntity
  8
TITLE
  6
SLD-Solid
370
    18
100
AcDbLine
 10
0.5
 20
85.33858267716536
 30
0.0
 11
0.1653543307086614
 21
85.33858267716536
 31
0.0
  0
LINE
  5
E2
330
1F
100
AcDbEntity
  8
TITLE
  6
SLD-Solid
370
    18
100
AcDbLine
 10
49.50000000000001
 20
85.33858267716536
 30
0.0
 11
49.83464566929134
 21
85.33858267716536
 31
0.0
  0
LINE
  5
E3
330
1F
100
AcDbEntity
  8
TITLE
  6
SLD-Solid
370
    18
100
AcDbLine
 10
3.346456692913384
 20
87.49999999999999
 30
0.0
 11
3.346456692913384
 21
87.83464566929133
 31
0.0
  0
LINE
  5
E4
330
1F
100
AcDbEntity
  8
TITLE
  6
SLD-Solid
370
    18
100
AcDbLine
 10
3.346456692913384
 20
0.5
 30
0.0
 11
3.346456692913384
 21
0.1653543307086614
 31
0.0
  0
LINE
  5
E5
330
1F
100
AcDbEntity
  8
TITLE
  6
SLD-Solid
370
    18
100
AcDbLine
 10
5.31496062992126
 20
87.49999999999999
 30
0.0
 11
5.31496062992126
 21
87.83464566929133
 31
0.0
  0
LINE
  5
E6
330
1F
100
AcDbEntity
  8
TITLE
  6
SLD-Solid
370
    18
100
AcDbLine
 10
5.31496062992126
 20
0.5
 30
0.0
 11
5.31496062992126
 21
0.1653543307086614
 31
0.0
  0
LINE
  5
E7
330
1F
100
AcDbEntity
  8
TITLE
  6
SLD-Solid
370
    18
100
AcDbLine
 10
7.283464566929134
 20
87.49999999999999
 30
0.0
 11
7.283464566929134
 21
87.83464566929133
 31
0.0
  0
LINE
  5
E8
330
1F
100
AcDbEntity
  8
TITLE
  6
SLD-Solid
370
    18
100
AcDbLine
 10
7.283464566929134
 20
0.5
 30
0.0
 11
7.283464566929134
 21
0.1653543307086614
 31
0.0
  0
LINE
  5
E9
330
1F
100
AcDbEntity
  8
TITLE
  6
SLD-Solid
370
    18
100
AcDbLine
 10
9.251968503937007
 20
87.49999999999999
 30
0.0
 11
9.251968503937007
 21
87.83464566929133
 31
0.0
  0
LINE
  5
EA
330
1F
100
AcDbEntity
  8
TITLE
  6
SLD-Solid
370
    18
100
AcDbLine
 10
9.251968503937007
 20
0.5
 30
0.0
 11
9.251968503937007
 21
0.1653543307086614
 31
0.0
  0
LINE
  5
EB
330
1F
100
AcDbEntity
  8
TITLE
  6
SLD-Solid
370
    18
100
AcDbLine
 10
11.22047244094488
 20
87.49999999999999
 30
0.0
 11
11.22047244094488
 21
87.83464566929133
 31
0.0
  0
LINE
  5
EC
330
1F
100
AcDbEntity
  8
TITLE
  6
SLD-Solid
370
    18
100
AcDbLine
 10
11.22047244094488
 20
0.5
 30
0.0
 11
11.22047244094488
 21
0.1653543307086614
 31
0.0
  0
LINE
  5
ED
330
1F
100
AcDbEntity
  8
TITLE
  6
SLD-Solid
370
    18
100
AcDbLine
 10
13.18897637795276
 20
87.49999999999999
 30
0.0
 11
13.18897637795276
 21
87.83464566929133
 31
0.0
  0
LINE
  5
EE
330
1F
100
AcDbEntity
  8
TITLE
  6
SLD-Solid
370
    18
100
AcDbLine
 10
13.18897637795276
 20
0.5
 30
0.0
 11
13.18897637795276
 21
0.1653543307086614
 31
0.0
  0
LINE
  5
EF
330
1F
100
AcDbEntity
  8
TITLE
  6
SLD-Solid
370
    18
100
AcDbLine
 10
15.15748031496063
 20
87.49999999999999
 30
0.0
 11
15.15748031496063
 21
87.83464566929133
 31
0.0
  0
LINE
  5
F0
330
1F
100
AcDbEntity
  8
TITLE
  6
SLD-Solid
370
    18
100
AcDbLine
 10
15.15748031496063
 20
0.5
 30
0.0
 11
15.15748031496063
 21
0.1653543307086614
 31
0.0
  0
LINE
  5
F1
330
1F
100
AcDbEntity
  8
TITLE
  6
SLD-Solid
370
    18
100
AcDbLine
 10
17.1259842519685
 20
87.49999999999999
 30
0.0
 11
17.1259842519685
 21
87.83464566929133
 31
0.0
  0
LINE
  5
F2
330
1F
100
AcDbEntity
  8
TITLE
  6
SLD-Solid
370
    18
100
AcDbLine
 10
17.1259842519685
 20
0.5
 30
0.0
 11
17.1259842519685
 21
0.1653543307086614
 31
0.0
  0
LINE
  5
F3
330
1F
100
AcDbEntity
  8
TITLE
  6
SLD-Solid
370
    18
100
AcDbLine
 10
19.09448818897638
 20
87.49999999999999
 30
0.0
 11
19.09448818897638
 21
87.83464566929133
 31
0.0
  0
LINE
  5
F4
330
1F
100
AcDbEntity
  8
TITLE
  6
SLD-Solid
370
    18
100
AcDbLine
 10
19.09448818897638
 20
0.5
 30
0.0
 11
19.09448818897638
 21
0.1653543307086614
 31
0.0
  0
LINE
  5
F5
330
1F
100
AcDbEntity
  8
TITLE
  6
SLD-Solid
370
    18
100
AcDbLine
 10
21.06299212598426
 20
87.49999999999999
 30
0.0
 11
21.06299212598426
 21
87.83464566929133
 31
0.0
  0
LINE
  5
F6
330
1F
100
AcDbEntity
  8
TITLE
  6
SLD-Solid
370
    18
100
AcDbLine
 10
21.06299212598426
 20
0.5
 30
0.0
 11
21.06299212598426
 21
0.1653543307086614
 31
0.0
  0
LINE
  5
F7
330
1F
100
AcDbEntity
  8
TITLE
  6
SLD-Solid
370
    18
100
AcDbLine
 10
23.03149606299213
 20
87.49999999999999
 30
0.0
 11
23.03149606299213
 21
87.83464566929133
 31
0.0
  0
LINE
  5
F8
330
1F
100
AcDbEntity
  8
TITLE
  6
SLD-Solid
370
    18
100
AcDbLine
 10
23.03149606299213
 20
0.5
 30
0.0
 11
23.03149606299213
 21
0.1653543307086614
 31
0.0
  0
LINE
  5
F9
330
1F
100
AcDbEntity
  8
TITLE
  6
SLD-Solid
370
    18
100
AcDbLine
 10
25.0
 20
87.49999999999999
 30
0.0
 11
25.0
 21
87.83464566929133
 31
0.0
  0
LINE
  5
FA
330
1F
100
AcDbEntity
  8
TITLE
  6
SLD-Solid
370
    18
100
AcDbLine
 10
25.0
 20
0.5
 30
0.0
 11
25.0
 21
0.1653543307086614
 31
0.0
  0
LINE
  5
FB
330
1F
100
AcDbEntity
  8
TITLE
  6
SLD-Solid
370
    18
100
AcDbLine
 10
26.96850393700788
 20
87.49999999999999
 30
0.0
 11
26.96850393700788
 21
87.83464566929133
 31
0.0
  0
LINE
  5
FC
330
1F
100
AcDbEntity
  8
TITLE
  6
SLD-Solid
370
    18
100
AcDbLine
 10
26.96850393700788
 20
0.5
 30
0.0
 11
26.96850393700788
 21
0.1653543307086614
 31
0.0
  0
LINE
  5
FD
330
1F
100
AcDbEntity
  8
TITLE
  6
SLD-Solid
370
    18
100
AcDbLine
 10
28.93700787401575
 20
87.49999999999999
 30
0.0
 11
28.93700787401575
 21
87.83464566929133
 31
0.0
  0
LINE
  5
FE
330
1F
100
AcDbEntity
  8
TITLE
  6
SLD-Solid
370
    18
100
AcDbLine
 10
28.93700787401575
 20
0.5
 30
0.0
 11
28.93700787401575
 21
0.1653543307086614
 31
0.0
  0
LINE
  5
FF
330
1F
100
AcDbEntity
  8
TITLE
  6
SLD-Solid
370
    18
100
AcDbLine
 10
30.90551181102363
 20
87.49999999999999
 30
0.0
 11
30.90551181102363
 21
87.83464566929133
 31
0.0
  0
LINE
  5
100
330
1F
100
AcDbEntity
  8
TITLE
  6
SLD-Solid
370
    18
100
AcDbLine
 10
30.90551181102363
 20
0.5
 30
0.0
 11
30.90551181102363
 21
0.1653543307086614
 31
0.0
  0
LINE
  5
101
330
1F
100
AcDbEntity
  8
TITLE
  6
SLD-Solid
370
    18
100
AcDbLine
 10
32.8740157480315
 20
87.49999999999999
 30
0.0
 11
32.8740157480315
 21
87.83464566929133
 31
0.0
  0
LINE
  5
102
330
1F
100
AcDbEntity
  8
TITLE
  6
SLD-Solid
370
    18
100
AcDbLine
 10
32.8740157480315
 20
0.5
 30
0.0
 11
32.8740157480315
 21
0.1653543307086614
 31
0.0
  0
LINE
  5
103
330
1F
100
AcDbEntity
  8
TITLE
  6
SLD-Solid
370
    18
100
AcDbLine
 10
34.84251968503937
 20
87.49999999999999
 30
0.0
 11
34.84251968503937
 21
87.83464566929133
 31
0.0
  0
LINE
  5
104
330
1F
100
AcDbEntity
  8
TITLE
  6
SLD-Solid
370
    18
100
AcDbLine
 10
34.84251968503937
 20
0.5
 30
0.0
 11
34.84251968503937
 21
0.1653543307086614
 31
0.0
  0
LINE
  5
105
330
1F
100
AcDbEntity
  8
TITLE
  6
SLD-Solid
370
    18
100
AcDbLine
 10
36.81102362204724
 20
87.49999999999999
 30
0.0
 11
36.81102362204724
 21
87.83464566929133
 31
0.0
  0
LINE
  5
106
330
1F
100
AcDbEntity
  8
TITLE
  6
SLD-Solid
370
    18
100
AcDbLine
 10
36.81102362204724
 20
0.5
 30
0.0
 11
36.81102362204724
 21
0.1653543307086614
 31
0.0
  0
LINE
  5
107
330
1F
100
AcDbEntity
  8
TITLE
  6
SLD-Solid
370
    18
100
AcDbLine
 10
38.77952755905513
 20
87.49999999999999
 30
0.0
 11
38.77952755905513
 21
87.83464566929133
 31
0.0
  0
LINE
  5
108
330
1F
100
AcDbEntity
  8
TITLE
  6
SLD-Solid
370
    18
100
AcDbLine
 10
38.77952755905513
 20
0.5
 30
0.0
 11
38.77952755905513
 21
0.1653543307086614
 31
0.0
  0
LINE
  5
109
330
1F
100
AcDbEntity
  8
TITLE
  6
SLD-Solid
370
    18
100
AcDbLine
 10
40.748031496063
 20
87.49999999999999
 30
0.0
 11
40.748031496063
 21
87.83464566929133
 31
0.0
  0
LINE
  5
10A
330
1F
100
AcDbEntity
  8
TITLE
  6
SLD-Solid
370
    18
100
AcDbLine
 10
40.748031496063
 20
0.5
 30
0.0
 11
40.748031496063
 21
0.1653543307086614
 31
0.0
  0
LINE
  5
10B
330
1F
100
AcDbEntity
  8
TITLE
  6
SLD-Solid
370
    18
100
AcDbLine
 10
42.71653543307087
 20
87.49999999999999
 30
0.0
 11
42.71653543307087
 21
87.83464566929133
 31
0.0
  0
LINE
  5
10C
330
1F
100
AcDbEntity
  8
TITLE
  6
SLD-Solid
370
    18
100
AcDbLine
 10
42.71653543307087
 20
0.5
 30
0.0
 11
42.71653543307087
 21
0.1653543307086614
 31
0.0
  0
LINE
  5
10D
330
1F
100
AcDbEntity
  8
TITLE
  6
SLD-Solid
370
    18
100
AcDbLine
 10
44.68503937007874
 20
87.49999999999999
 30
0.0
 11
44.68503937007874
 21
87.83464566929133
 31
0.0
  0
LINE
  5
10E
330
1F
100
AcDbEntity
  8
TITLE
  6
SLD-Solid
370
    18
100
AcDbLine
 10
44.68503937007874
 20
0.5
 30
0.0
 11
44.68503937007874
 21
0.1653543307086614
 31
0.0
  0
LINE
  5
10F
330
1F
100
AcDbEntity
  8
TITLE
  6
SLD-Solid
370
    18
100
AcDbLine
 10
46.65354330708661
 20
87.49999999999999
 30
0.0
 11
46.65354330708661
 21
87.83464566929133
 31
0.0
  0
LINE
  5
110
330
1F
100
AcDbEntity
  8
TITLE
  6
SLD-Solid
370
    18
100
AcDbLine
 10
46.65354330708661
 20
0.5
 30
0.0
 11
46.65354330708661
 21
0.1653543307086614
 31
0.0
  0
MTEXT
  5
112
330
1F
100
AcDbEntity
  8
NOTES
100
AcDbMText
 10
26.40829780303409
 20
1.070290334694348
 30
0.0
 40
0.25
 41
0.0
 71
     1
 72
     1
  1
UNLESS OTHERWISE SPECIFIED DIMENSIONS ARE IN INCHES.
  7
SLDTEXTSTYLE0
 73
     1
 44
1.0
  0
MTEXT
  5
113
330
1F
100
AcDbEntity
  8
NOTES
100
AcDbMText
 10
26.43006992789032
 20
3.083062777580431
 30
0.0
 40
0.25
 41
0.0
 71
     1
 72
     1
  1
DATE:
  7
SLDTEXTSTYLE0
 73
     1
 44
1.0
  0
MTEXT
  5
114
330
1F
100
AcDbEntity
  8
NOTES
100
AcDbMText
 10
28.53870118800534
 20
2.193032963662711
 30
0.0
 40
0.25
 41
0.0
 71
     2
 72
     1
  1
DO NOT SCALE DRAWING
  7
SLDTEXTSTYLE0
 73
     1
 44
1.0
  0
MTEXT
  5
116
330
1F
100
AcDbEntity
  8
NOTES
100
AcDbMText
 10
32.83073730750539
 20
3.268275555297607
 30
0.0
 40
0.25
 41
0.0
 71
     1
 72
     1
  1
TITLE:
  7
SLDTEXTSTYLE1
 73
     1
 44
1.0
  0
MTEXT
  5
117
330
1F
100
AcDbEntity
  8
NOTES
100
AcDbMText
 10
40.15618310516096
 20
3.2682755552976
 30
0.0
 40
0.25
 41
0.0
 71
     1
 72
     1
  1
DWG NO.
  7
SLDTEXTSTYLE1
 73
     1
 44
1.0
  0
MTEXT
  5
118
330
1F
100
AcDbEntity
  8
NOTES
100
AcDbMText
 10
40.18317532028495
 20
1.064581557673827
 30
0.0
 40
0.25
 41
0.0
 71
     1
 72
     1
  1
SCALE:     1:1
  7
SLDTEXTSTYLE1
 73
     1
 44
1.0
  0
MTEXT
  5
119
330
1F
100
AcDbEntity
  8
NOTES
100
AcDbMText
 10
44.19089825584311
 20
2.651034429460865
 30
0.0
 40
0.25
 41
0.0
 71
     2
 72
     1
  1
301-NLS
  7
SLDTEXTSTYLE1
 73
     1
 44
1.0
  0
MTEXT
  5
11A
330
1F
100
AcDbEntity
  8
NOTES
100
AcDbMText
 10
36.46154444753702
 20
2.651034429460874
 30
0.0
 40
0.25
 41
0.0
 71
     2
 72
     1
  1
301 NLS - Elevation
  7
SLDTEXTSTYLE1
 73
     1
 44
1.0
  0
INSERT
  5
12A
330
1F
100
AcDbEntity
  8
NOTES
100
AcDbBlockReference
  2
SW_NOTE_0_1
 10
26.61597262459079
 20
5.148152684778707
 30
0.0
  0
MTEXT
  5
12B
330
1F
100
AcDbEntity
  8
NOTES
100
AcDbMText
 10
29.51355900816625
 20
3.086473326765871
 30
0.0
 40
0.25
 41
0.0
 71
     2
 72
     1
  1
June 11, 2021
  7
SLDTEXTSTYLE1
 73
     1
 44
1.0
  0
MTEXT
  5
12C
330
1F
100
AcDbEntity
  8
TITLE
100
AcDbMText
 10
0.3276279775836454
 20
1.6605866059348
 30
0.0
 40
0.125
 41
0.0
 71
     2
 72
     1
  1
A
  7
SLDTEXTSTYLE1
 73
     1
 44
1.0
  0
MTEXT
  5
12D
330
1F
100
AcDbEntity
  8
TITLE
100
AcDbMText
 10
49.66227364687499
 20
1.660586605934801
 30
0.0
 40
0.125
 41
0.0
 71
     2
 72
     1
  1
A
  7
SLDTEXTSTYLE1
 73
     1
 44
1.0
  0
MTEXT
  5
12E
330
1F
100
AcDbEntity
  8
TITLE
100
AcDbMText
 10
0.3317512413046844
 20
3.72554723585606
 30
0.0
 40
0.125
 41
0.0
 71
     2
 72
     1
  1
B
  7
SLDTEXTSTYLE1
 73
     1
 44
1.0
  0
MTEXT
  5
12F
330
1F
100
AcDbEntity
  8
TITLE
100
AcDbMText
 10
49.66639691059603
 20
3.72554723585606
 30
0.0
 40
0.125
 41
0.0
 71
     2
 72
     1
  1
B
  7
SLDTEXTSTYLE1
 73
     1
 44
1.0
  0
MTEXT
  5
130
330
1F
100
AcDbEntity
  8
TITLE
100
AcDbMText
 10
0.3313750816934456
 20
5.694051172863932
 30
0.0
 40
0.125
 41
0.0
 71
     2
 72
     1
  1
C
  7
SLDTEXTSTYLE1
 73
     1
 44
1.0
  0
MTEXT
  5
131
330
1F
100
AcDbEntity
  8
TITLE
100
AcDbMText
 10
49.66602075098479
 20
5.694051172863932
 30
0.0
 40
0.125
 41
0.0
 71
     2
 72
     1
  1
C
  7
SLDTEXTSTYLE1
 73
     1
 44
1.0
  0
MTEXT
  5
132
330
1F
100
AcDbEntity
  8
TITLE
100
AcDbMText
 10
0.3311870028448152
 20
7.662555109871805
 30
0.0
 40
0.125
 41
0.0
 71
     2
 72
     1
  1
D
  7
SLDTEXTSTYLE1
 73
     1
 44
1.0
  0
MTEXT
  5
133
330
1F
100
AcDbEntity
  8
TITLE
100
AcDbMText
 10
49.66583267213617
 20
7.662555109871805
 30
0.0
 40
0.125
 41
0.0
 71
     2
 72
     1
  1
D
  7
SLDTEXTSTYLE1
 73
     1
 44
1.0
  0
MTEXT
  5
134
330
1F
100
AcDbEntity
  8
TITLE
100
AcDbMText
 10
0.3329231160377541
 20
9.63105904687968
 30
0.0
 40
0.125
 41
0.0
 71
     2
 72
     1
  1
E
  7
SLDTEXTSTYLE1
 73
     1
 44
1.0
  0
MTEXT
  5
135
330
1F
100
AcDbEntity
  8
TITLE
100
AcDbMText
 10
49.6675687853291
 20
9.631059046879681
 30
0.0
 40
0.125
 41
0.0
 71
     2
 72
     1
  1
E
  7
SLDTEXTSTYLE1
 73
     1
 44
1.0
  0
MTEXT
  5
136
330
1F
100
AcDbEntity
  8
TITLE
100
AcDbMText
 10
0.3313461474003637
 20
11.59956298388755
 30
0.0
 40
0.125
 41
0.0
 71
     2
 72
     1
  1
F
  7
SLDTEXTSTYLE1
 73
     1
 44
1.0
  0
MTEXT
  5
137
330
1F
100
AcDbEntity
  8
TITLE
100
AcDbMText
 10
49.66599181669172
 20
11.59956298388755
 30
0.0
 40
0.125
 41
0.0
 71
     2
 72
     1
  1
F
  7
SLDTEXTSTYLE1
 73
     1
 44
1.0
  0
MTEXT
  5
138
330
1F
100
AcDbEntity
  8
TITLE
100
AcDbMText
 10
0.332257605436456
 20
13.56806692089543
 30
0.0
 40
0.125
 41
0.0
 71
     2
 72
     1
  1
G
  7
SLDTEXTSTYLE1
 73
     1
 44
1.0
  0
MTEXT
  5
139
330
1F
100
AcDbEntity
  8
TITLE
100
AcDbMText
 10
49.6669032747278
 20
13.56806692089543
 30
0.0
 40
0.125
 41
0.0
 71
     2
 72
     1
  1
G
  7
SLDTEXTSTYLE1
 73
     1
 44
1.0
  0
MTEXT
  5
13A
330
1F
100
AcDbEntity
  8
TITLE
100
AcDbMText
 10
0.3323733456814148
 20
15.5365708579033
 30
0.0
 40
0.125
 41
0.0
 71
     2
 72
     1
  1
H
  7
SLDTEXTSTYLE1
 73
     1
 44
1.0
  0
MTEXT
  5
13B
330
1F
100
AcDbEntity
  8
TITLE
100
AcDbMText
 10
49.66701901497276
 20
15.5365708579033
 30
0.0
 40
0.125
 41
0.0
 71
     2
 72
     1
  1
H
  7
SLDTEXTSTYLE1
 73
     1
 44
1.0
  0
MTEXT
  5
13C
330
1F
100
AcDbEntity
  8
TITLE
100
AcDbMText
 10
0.3315776305595837
 20
17.50507479491117
 30
0.0
 40
0.125
 41
0.0
 71
     2
 72
     1
  1
J
  7
SLDTEXTSTYLE1
 73
     1
 44
1.0
  0
MTEXT
  5
13D
330
1F
100
AcDbEntity
  8
TITLE
100
AcDbMText
 10
49.66622329985093
 20
17.50507479491117
 30
0.0
 40
0.125
 41
0.0
 71
     2
 72
     1
  1
J
  7
SLDTEXTSTYLE1
 73
     1
 44
1.0
  0
MTEXT
  5
13E
330
1F
100
AcDbEntity
  8
TITLE
100
AcDbMText
 10
0.3323154765159242
 20
19.47357873191905
 30
0.0
 40
0.125
 41
0.0
 71
     2
 72
     1
  1
K
  7
SLDTEXTSTYLE1
 73
     1
 44
1.0
  0
MTEXT
  5
13F
330
1F
100
AcDbEntity
  8
TITLE
100
AcDbMText
 10
49.66696114580727
 20
19.47357873191905
 30
0.0
 40
0.125
 41
0.0
 71
     2
 72
     1
  1
K
  7
SLDTEXTSTYLE1
 73
     1
 44
1.0
  0
MTEXT
  5
140
330
1F
100
AcDbEntity
  8
TITLE
100
AcDbMText
 10
0.3312448739242835
 20
21.44208266892693
 30
0.0
 40
0.125
 41
0.0
 71
     2
 72
     1
  1
L
  7
SLDTEXTSTYLE1
 73
     1
 44
1.0
  0
MTEXT
  5
141
330
1F
100
AcDbEntity
  8
TITLE
100
AcDbMText
 10
49.66589054321563
 20
21.44208266892693
 30
0.0
 40
0.125
 41
0.0
 71
     2
 72
     1
  1
L
  7
SLDTEXTSTYLE1
 73
     1
 44
1.0
  0
MTEXT
  5
142
330
1F
100
AcDbEntity
  8
TITLE
100
AcDbMText
 10
0.3283224192293962
 20
23.4105866059348
 30
0.0
 40
0.125
 41
0.0
 71
     2
 72
     1
  1
M
  7
SLDTEXTSTYLE1
 73
     1
 44
1.0
  0
MTEXT
  5
143
330
1F
100
AcDbEntity
  8
TITLE
100
AcDbMText
 10
49.66296808852074
 20
23.4105866059348
 30
0.0
 40
0.125
 41
0.0
 71
     2
 72
     1
  1
M
  7
SLDTEXTSTYLE1
 73
     1
 44
1.0
  0
MTEXT
  5
144
330
1F
100
AcDbEntity
  8
TITLE
100
AcDbMText
 10
0.3315342275836453
 20
25.37909054294268
 30
0.0
 40
0.125
 41
0.0
 71
     2
 72
     1
  1
N
  7
SLDTEXTSTYLE1
 73
     1
 44
1.0
  0
MTEXT
  5
145
330
1F
100
AcDbEntity
  8
TITLE
100
AcDbMText
 10
49.66617989687499
 20
25.37909054294268
 30
0.0
 40
0.125
 41
0.0
 71
     2
 72
     1
  1
N
  7
SLDTEXTSTYLE1
 73
     1
 44
1.0
  0
MTEXT
  5
146
330
1F
100
AcDbEntity
  8
TITLE
100
AcDbMText
 10
0.3321997349363143
 20
27.34759447995055
 30
0.0
 40
0.125
 41
0.0
 71
     2
 72
     1
  1
P
  7
SLDTEXTSTYLE1
 73
     1
 44
1.0
  0
MTEXT
  5
147
330
1F
100
AcDbEntity
  8
TITLE
100
AcDbMText
 10
49.66684540422765
 20
27.34759447995055
 30
0.0
 40
0.125
 41
0.0
 71
     2
 72
     1
  1
P
  7
SLDTEXTSTYLE1
 73
     1
 44
1.0
  0
MTEXT
  5
148
330
1F
100
AcDbEntity
  8
TITLE
100
AcDbMText
 10
0.3309265867271644
 20
29.31609841695843
 30
0.0
 40
0.125
 41
0.0
 71
     2
 72
     1
  1
R
  7
SLDTEXTSTYLE1
 73
     1
 44
1.0
  0
MTEXT
  5
149
330
1F
100
AcDbEntity
  8
TITLE
100
AcDbMText
 10
49.66557225601851
 20
29.31609841695843
 30
0.0
 40
0.125
 41
0.0
 71
     2
 72
     1
  1
R
  7
SLDTEXTSTYLE1
 73
     1
 44
1.0
  0
MTEXT
  5
14A
330
1F
100
AcDbEntity
  8
TITLE
100
AcDbMText
 10
0.3323010070777432
 20
31.2846023539663
 30
0.0
 40
0.125
 41
0.0
 71
     2
 72
     1
  1
T
  7
SLDTEXTSTYLE1
 73
     1
 44
1.0
  0
MTEXT
  5
14B
330
1F
100
AcDbEntity
  8
TITLE
100
AcDbMText
 10
49.66694667636909
 20
31.28460235396629
 30
0.0
 40
0.125
 41
0.0
 71
     2
 72
     1
  1
T
  7
SLDTEXTSTYLE1
 73
     1
 44
1.0
  0
MTEXT
  5
14C
330
1F
100
AcDbEntity
  8
TITLE
100
AcDbMText
 10
0.3328507755201046
 20
33.25310629097417
 30
0.0
 40
0.125
 41
0.0
 71
     2
 72
     1
  1
U
  7
SLDTEXTSTYLE1
 73
     1
 44
1.0
  0
MTEXT
  5
14D
330
1F
100
AcDbEntity
  8
TITLE
100
AcDbMText
 10
49.66749644481145
 20
33.25310629097417
 30
0.0
 40
0.125
 41
0.0
 71
     2
 72
     1
  1
U
  7
SLDTEXTSTYLE1
 73
     1
 44
1.0
  0
MTEXT
  5
14E
330
1F
100
AcDbEntity
  8
TITLE
100
AcDbMText
 10
0.3307529773167151
 20
35.22161022798205
 30
0.0
 40
0.125
 41
0.0
 71
     2
 72
     1
  1
V
  7
SLDTEXTSTYLE1
 73
     1
 44
1.0
  0
MTEXT
  5
14F
330
1F
100
AcDbEntity
  8
TITLE
100
AcDbMText
 10
49.66539864660806
 20
35.22161022798205
 30
0.0
 40
0.125
 41
0.0
 71
     2
 72
     1
  1
V
  7
SLDTEXTSTYLE1
 73
     1
 44
1.0
  0
MTEXT
  5
150
330
1F
100
AcDbEntity
  8
TITLE
100
AcDbMText
 10
0.3327784409203867
 20
37.19011416498992
 30
0.0
 40
0.125
 41
0.0
 71
     2
 72
     1
  1
W
  7
SLDTEXTSTYLE1
 73
     1
 44
1.0
  0
MTEXT
  5
151
330
1F
100
AcDbEntity
  8
TITLE
100
AcDbMText
 10
49.66742411021173
 20
37.19011416498992
 30
0.0
 40
0.125
 41
0.0
 71
     2
 72
     1
  1
W
  7
SLDTEXTSTYLE1
 73
     1
 44
1.0
  0
MTEXT
  5
152
330
1F
100
AcDbEntity
  8
TITLE
100
AcDbMText
 10
0.3321997349363143
 20
39.1586181019978
 30
0.0
 40
0.125
 41
0.0
 71
     2
 72
     1
  1
Y
  7
SLDTEXTSTYLE1
 73
     1
 44
1.0
  0
MTEXT
  5
153
330
1F
100
AcDbEntity
  8
TITLE
100
AcDbMText
 10
49.66684540422766
 20
39.1586181019978
 30
0.0
 40
0.125
 41
0.0
 71
     2
 72
     1
  1
Y
  7
SLDTEXTSTYLE1
 73
     1
 44
1.0
  0
MTEXT
  5
154
330
1F
100
AcDbEntity
  8
TITLE
100
AcDbMText
 10
0.32257878981296
 20
41.12712203900566
 30
0.0
 40
0.125
 41
0.0
 71
     2
 72
     1
  1
AA
  7
SLDTEXTSTYLE1
 73
     1
 44
1.0
  0
MTEXT
  5
155
330
1F
100
AcDbEntity
  8
TITLE
100
AcDbMText
 10
49.65722445910431
 20
41.12712203900566
 30
0.0
 40
0.125
 41
0.0
 71
     2
 72
     1
  1
AA
  7
SLDTEXTSTYLE1
 73
     1
 44
1.0
  0
MTEXT
  5
156
330
1F
100
AcDbEntity
  8
TITLE
100
AcDbMText
 10
0.3267020535339989
 20
43.09562597601354
 30
0.0
 40
0.125
 41
0.0
 71
     2
 72
     1
  1
AB
  7
SLDTEXTSTYLE1
 73
     1
 44
1.0
  0
MTEXT
  5
157
330
1F
100
AcDbEntity
  8
TITLE
100
AcDbMText
 10
49.66134772282534
 20
43.09562597601354
 30
0.0
 40
0.125
 41
0.0
 71
     2
 72
     1
  1
AB
  7
SLDTEXTSTYLE1
 73
     1
 44
1.0
  0
MTEXT
  5
158
330
1F
100
AcDbEntity
  8
TITLE
100
AcDbMText
 10
0.3263258985060407
 20
45.06412991302142
 30
0.0
 40
0.125
 41
0.0
 71
     2
 72
     1
  1
AC
  7
SLDTEXTSTYLE1
 73
     1
 44
1.0
  0
MTEXT
  5
159
330
1F
100
AcDbEntity
  8
TITLE
100
AcDbMText
 10
49.66097156779738
 20
45.06412991302142
 30
0.0
 40
0.125
 41
0.0
 71
     2
 72
     1
  1
AC
  7
SLDTEXTSTYLE1
 73
     1
 44
1.0
  0
MTEXT
  5
15A
330
1F
100
AcDbEntity
  8
TITLE
100
AcDbMText
 10
0.3261378196574102
 20
47.0326338500293
 30
0.0
 40
0.125
 41
0.0
 71
     2
 72
     1
  1
AD
  7
SLDTEXTSTYLE1
 73
     1
 44
1.0
  0
MTEXT
  5
15B
330
1F
100
AcDbEntity
  8
TITLE
100
AcDbMText
 10
49.66078348894876
 20
47.0326338500293
 30
0.0
 40
0.125
 41
0.0
 71
     2
 72
     1
  1
AD
  7
SLDTEXTSTYLE1
 73
     1
 44
1.0
  0
MTEXT
  5
15C
330
1F
100
AcDbEntity
  8
TITLE
100
AcDbMText
 10
0.3278739282670687
 20
49.00113778703717
 30
0.0
 40
0.125
 41
0.0
 71
     2
 72
     1
  1
AE
  7
SLDTEXTSTYLE1
 73
     1
 44
1.0
  0
MTEXT
  5
15D
330
1F
100
AcDbEntity
  8
TITLE
100
AcDbMText
 10
49.66251959755841
 20
49.00113778703717
 30
0.0
 40
0.125
 41
0.0
 71
     2
 72
     1
  1
AE
  7
SLDTEXTSTYLE1
 73
     1
 44
1.0
  0
MTEXT
  5
15E
330
1F
100
AcDbEntity
  8
TITLE
100
AcDbMText
 10
0.3262969596296784
 20
50.96964172404503
 30
0.0
 40
0.125
 41
0.0
 71
     2
 72
     1
  1
AF
  7
SLDTEXTSTYLE1
 73
     1
 44
1.0
  0
MTEXT
  5
15F
330
1F
100
AcDbEntity
  8
TITLE
100
AcDbMText
 10
49.66094262892103
 20
50.96964172404503
 30
0.0
 40
0.125
 41
0.0
 71
     2
 72
     1
  1
AF
  7
SLDTEXTSTYLE1
 73
     1
 44
1.0
  0
MTEXT
  5
160
330
1F
100
AcDbEntity
  8
TITLE
100
AcDbMText
 10
0.3272084176657706
 20
52.93814566105291
 30
0.0
 40
0.125
 41
0.0
 71
     2
 72
     1
  1
AG
  7
SLDTEXTSTYLE1
 73
     1
 44
1.0
  0
MTEXT
  5
161
330
1F
100
AcDbEntity
  8
TITLE
100
AcDbMText
 10
49.66185408695711
 20
52.93814566105291
 30
0.0
 40
0.125
 41
0.0
 71
     2
 72
     1
  1
AG
  7
SLDTEXTSTYLE1
 73
     1
 44
1.0
  0
MTEXT
  5
162
330
1F
100
AcDbEntity
  8
TITLE
100
AcDbMText
 10
0.3273241624940099
 20
54.90664959806079
 30
0.0
 40
0.125
 41
0.0
 71
     2
 72
     1
  1
AH
  7
SLDTEXTSTYLE1
 73
     1
 44
1.0
  0
MTEXT
  5
163
330
1F
100
AcDbEntity
  8
TITLE
100
AcDbMText
 10
49.66196983178536
 20
54.90664959806079
 30
0.0
 40
0.125
 41
0.0
 71
     2
 72
     1
  1
AH
  7
SLDTEXTSTYLE1
 73
     1
 44
1.0
  0
MTEXT
  5
164
330
1F
100
AcDbEntity
  8
TITLE
100
AcDbMText
 10
0.3265284427888985
 20
56.87515353506868
 30
0.0
 40
0.125
 41
0.0
 71
     2
 72
     1
  1
AJ
  7
SLDTEXTSTYLE1
 73
     1
 44
1.0
  0
MTEXT
  5
165
330
1F
100
AcDbEntity
  8
TITLE
100
AcDbMText
 10
49.66117411208025
 20
56.87515353506867
 30
0.0
 40
0.125
 41
0.0
 71
     2
 72
     1
  1
AJ
  7
SLDTEXTSTYLE1
 73
     1
 44
1.0
  0
MTEXT
  5
166
330
1F
100
AcDbEntity
  8
TITLE
100
AcDbMText
 10
0.327266288745239
 20
58.84365747207654
 30
0.0
 40
0.125
 41
0.0
 71
     2
 72
     1
  1
AK
  7
SLDTEXTSTYLE1
 73
     1
 44
1.0
  0
MTEXT
  5
167
330
1F
100
AcDbEntity
  8
TITLE
100
AcDbMText
 10
49.6619119580366
 20
58.84365747207654
 30
0.0
 40
0.125
 41
0.0
 71
     2
 72
     1
  1
AK
  7
SLDTEXTSTYLE1
 73
     1
 44
1.0
  0
MTEXT
  5
168
330
1F
100
AcDbEntity
  8
TITLE
100
AcDbMText
 10
0.3261956815703178
 20
60.8121614090844
 30
0.0
 40
0.125
 41
0.0
 71
     2
 72
     1
  1
AL
  7
SLDTEXTSTYLE1
 73
     1
 44
1.0
  0
MTEXT
  5
169
330
1F
100
AcDbEntity
  8
TITLE
100
AcDbMText
 10
49.66084135086167
 20
60.8121614090844
 30
0.0
 40
0.125
 41
0.0
 71
     2
 72
     1
  1
AL
  7
SLDTEXTSTYLE1
 73
     1
 44
1.0
  0
MTEXT
  5
16A
330
1F
100
AcDbEntity
  8
TITLE
100
AcDbMText
 10
0.3232732314587108
 20
62.78066534609228
 30
0.0
 40
0.125
 41
0.0
 71
     2
 72
     1
  1
AM
  7
SLDTEXTSTYLE1
 73
     1
 44
1.0
  0
MTEXT
  5
16B
330
1F
100
AcDbEntity
  8
TITLE
100
AcDbMText
 10
49.65791890075005
 20
62.78066534609228
 30
0.0
 40
0.125
 41
0.0
 71
     2
 72
     1
  1
AM
  7
SLDTEXTSTYLE1
 73
     1
 44
1.0
  0
MTEXT
  5
16C
330
1F
100
AcDbEntity
  8
TITLE
100
AcDbMText
 10
0.32648503981296
 20
64.74916928310016
 30
0.0
 40
0.125
 41
0.0
 71
     2
 72
     1
  1
AN
  7
SLDTEXTSTYLE1
 73
     1
 44
1.0
  0
MTEXT
  5
16D
330
1F
100
AcDbEntity
  8
TITLE
100
AcDbMText
 10
49.66113070910433
 20
64.74916928310016
 30
0.0
 40
0.125
 41
0.0
 71
     2
 72
     1
  1
AN
  7
SLDTEXTSTYLE1
 73
     1
 44
1.0
  0
MTEXT
  5
16E
330
1F
100
AcDbEntity
  8
TITLE
100
AcDbMText
 10
0.3271505425823485
 20
66.71767322010804
 30
0.0
 40
0.125
 41
0.0
 71
     2
 72
     1
  1
AP
  7
SLDTEXTSTYLE1
 73
     1
 44
1.0
  0
MTEXT
  5
16F
330
1F
100
AcDbEntity
  8
TITLE
100
AcDbMText
 10
49.66179621187371
 20
66.71767322010804
 30
0.0
 40
0.125
 41
0.0
 71
     2
 72
     1
  1
AP
  7
SLDTEXTSTYLE1
 73
     1
 44
1.0
  0
MTEXT
  5
170
330
1F
100
AcDbEntity
  8
TITLE
100
AcDbMText
 10
0.325877398956479
 20
68.6861771571159
 30
0.0
 40
0.125
 41
0.0
 71
     2
 72
     1
  1
AR
  7
SLDTEXTSTYLE1
 73
     1
 44
1.0
  0
MTEXT
  5
171
330
1F
100
AcDbEntity
  8
TITLE
100
AcDbMText
 10
49.66052306824782
 20
68.6861771571159
 30
0.0
 40
0.125
 41
0.0
 71
     2
 72
     1
  1
AR
  7
SLDTEXTSTYLE1
 73
     1
 44
1.0
  0
MTEXT
  5
172
330
1F
100
AcDbEntity
  8
TITLE
100
AcDbMText
 10
0.3272518193070578
 20
70.65468109412379
 30
0.0
 40
0.125
 41
0.0
 71
     2
 72
     1
  1
AT
  7
SLDTEXTSTYLE1
 73
     1
 44
1.0
  0
MTEXT
  5
173
330
1F
100
AcDbEntity
  8
TITLE
100
AcDbMText
 10
49.6618974885984
 20
70.65468109412379
 30
0.0
 40
0.125
 41
0.0
 71
     2
 72
     1
  1
AT
  7
SLDTEXTSTYLE1
 73
     1
 44
1.0
  0
MTEXT
  5
174
330
1F
100
AcDbEntity
  8
TITLE
100
AcDbMText
 10
0.3278015877494192
 20
72.62318503113165
 30
0.0
 40
0.125
 41
0.0
 71
     2
 72
     1
  1
AU
  7
SLDTEXTSTYLE1
 73
     1
 44
1.0
  0
MTEXT
  5
175
330
1F
100
AcDbEntity
  8
TITLE
100
AcDbMText
 10
49.66244725704077
 20
72.62318503113165
 30
0.0
 40
0.125
 41
0.0
 71
     2
 72
     1
  1
AU
  7
SLDTEXTSTYLE1
 73
     1
 44
1.0
  0
MTEXT
  5
176
330
1F
100
AcDbEntity
  8
TITLE
100
AcDbMText
 10
0.3257037895460298
 20
74.59168896813952
 30
0.0
 40
0.125
 41
0.0
 71
     2
 72
     1
  1
AV
  7
SLDTEXTSTYLE1
 73
     1
 44
1.0
  0
MTEXT
  5
177
330
1F
100
AcDbEntity
  8
TITLE
100
AcDbMText
 10
49.66034945883738
 20
74.59168896813952
 30
0.0
 40
0.125
 41
0.0
 71
     2
 72
     1
  1
AV
  7
SLDTEXTSTYLE1
 73
     1
 44
1.0
  0
MTEXT
  5
178
330
1F
100
AcDbEntity
  8
TITLE
100
AcDbMText
 10
0.327729248566421
 20
76.5601929051474
 30
0.0
 40
0.125
 41
0.0
 71
     2
 72
     1
  1
AW
  7
SLDTEXTSTYLE1
 73
     1
 44
1.0
  0
MTEXT
  5
179
330
1F
100
AcDbEntity
  8
TITLE
100
AcDbMText
 10
49.66237491785777
 20
76.5601929051474
 30
0.0
 40
0.125
 41
0.0
 71
     2
 72
     1
  1
AW
  7
SLDTEXTSTYLE1
 73
     1
 44
1.0
  0
MTEXT
  5
17A
330
1F
100
AcDbEntity
  8
TITLE
100
AcDbMText
 10
0.3271505425823485
 20
78.52869684215527
 30
0.0
 40
0.125
 41
0.0
 71
     2
 72
     1
  1
AY
  7
SLDTEXTSTYLE1
 73
     1
 44
1.0
  0
MTEXT
  5
17B
330
1F
100
AcDbEntity
  8
TITLE
100
AcDbMText
 10
49.66179621187369
 20
78.52869684215528
 30
0.0
 40
0.125
 41
0.0
 71
     2
 72
     1
  1
AY
  7
SLDTEXTSTYLE1
 73
     1
 44
1.0
  0
MTEXT
  5
17C
330
1F
100
AcDbEntity
  8
TITLE
100
AcDbMText
 10
0.3267020535339989
 20
80.49720077916317
 30
0.0
 40
0.125
 41
0.0
 71
     2
 72
     1
  1
BA
  7
SLDTEXTSTYLE1
 73
     1
 44
1.0
  0
MTEXT
  5
17D
330
1F
100
AcDbEntity
  8
TITLE
100
AcDbMText
 10
49.66134772282534
 20
80.49720077916317
 30
0.0
 40
0.125
 41
0.0
 71
     2
 72
     1
  1
BA
  7
SLDTEXTSTYLE1
 73
     1
 44
1.0
  0
MTEXT
  5
17E
330
1F
100
AcDbEntity
  8
TITLE
100
AcDbMText
 10
0.3308253172550379
 20
82.46570471617103
 30
0.0
 40
0.125
 41
0.0
 71
     2
 72
     1
  1
BB
  7
SLDTEXTSTYLE1
 73
     1
 44
1.0
  0
MTEXT
  5
17F
330
1F
100
AcDbEntity
  8
TITLE
100
AcDbMText
 10
49.66547098654638
 20
82.46570471617103
 30
0.0
 40
0.125
 41
0.0
 71
     2
 72
     1
  1
BB
  7
SLDTEXTSTYLE1
 73
     1
 44
1.0
  0
MTEXT
  5
180
330
1F
100
AcDbEntity
  8
TITLE
100
AcDbMText
 10
0.3304491530605189
 20
84.4342086531789
 30
0.0
 40
0.125
 41
0.0
 71
     2
 72
     1
  1
BC
  7
SLDTEXTSTYLE1
 73
     1
 44
1.0
  0
MTEXT
  5
181
330
1F
100
AcDbEntity
  8
TITLE
100
AcDbMText
 10
49.66509482235187
 20
84.4342086531789
 30
0.0
 40
0.125
 41
0.0
 71
     2
 72
     1
  1
BC
  7
SLDTEXTSTYLE1
 73
     1
 44
1.0
  0
MTEXT
  5
182
330
1F
100
AcDbEntity
  8
TITLE
100
AcDbMText
 10
0.3302610742118884
 20
86.49916928310016
 30
0.0
 40
0.125
 41
0.0
 71
     2
 72
     1
  1
BD
  7
SLDTEXTSTYLE1
 73
     1
 44
1.0
  0
MTEXT
  5
183
330
1F
100
AcDbEntity
  8
TITLE
100
AcDbMText
 10
49.66490674350324
 20
86.49916928310017
 30
0.0
 40
0.125
 41
0.0
 71
     2
 72
     1
  1
BD
  7
SLDTEXTSTYLE1
 73
     1
 44
1.0
  0
MTEXT
  5
184
330
1F
100
AcDbEntity
  8
TITLE
100
AcDbMText
 10
1.920710985086799
 20
0.4125551098718104
 30
0.0
 40
0.125
 41
0.0
 71
     2
 72
     1
  1
24
  7
SLDTEXTSTYLE1
 73
     1
 44
1.0
  0
MTEXT
  5
185
330
1F
100
AcDbEntity
  8
TITLE
100
AcDbMText
 10
1.920710985086799
 20
87.74720077916312
 30
0.0
 40
0.125
 41
0.0
 71
     2
 72
     1
  1
24
  7
SLDTEXTSTYLE1
 73
     1
 44
1.0
  0
MTEXT
  5
186
330
1F
100
AcDbEntity
  8
TITLE
100
AcDbMText
 10
4.328191300047429
 20
0.4125551098718104
 30
0.0
 40
0.125
 41
0.0
 71
     2
 72
     1
  1
23
  7
SLDTEXTSTYLE1
 73
     1
 44
1.0
  0
MTEXT
  5
187
330
1F
100
AcDbEntity
  8
TITLE
100
AcDbMText
 10
4.328191300047428
 20
87.74720077916312
 30
0.0
 40
0.125
 41
0.0
 71
     2
 72
     1
  1
23
  7
SLDTEXTSTYLE1
 73
     1
 44
1.0
  0
MTEXT
  5
188
330
1F
100
AcDbEntity
  8
TITLE
100
AcDbMText
 10
6.296695237055304
 20
0.4125551098718104
 30
0.0
 40
0.125
 41
0.0
 71
     2
 72
     1
  1
22
  7
SLDTEXTSTYLE1
 73
     1
 44
1.0
  0
MTEXT
  5
189
330
1F
100
AcDbEntity
  8
TITLE
100
AcDbMText
 10
6.296695237055304
 20
87.74720077916312
 30
0.0
 40
0.125
 41
0.0
 71
     2
 72
     1
  1
22
  7
SLDTEXTSTYLE1
 73
     1
 44
1.0
  0
MTEXT
  5
18A
330
1F
100
AcDbEntity
  8
TITLE
100
AcDbMText
 10
8.265199174063177
 20
0.4125551098718104
 30
0.0
 40
0.125
 41
0.0
 71
     2
 72
     1
  1
21
  7
SLDTEXTSTYLE1
 73
     1
 44
1.0
  0
MTEXT
  5
18B
330
1F
100
AcDbEntity
  8
TITLE
100
AcDbMText
 10
8.265199174063177
 20
87.74720077916312
 30
0.0
 40
0.125
 41
0.0
 71
     2
 72
     1
  1
21
  7
SLDTEXTSTYLE1
 73
     1
 44
1.0
  0
MTEXT
  5
18C
330
1F
100
AcDbEntity
  8
TITLE
100
AcDbMText
 10
10.23370311107105
 20
0.4125551098718104
 30
0.0
 40
0.125
 41
0.0
 71
     2
 72
     1
  1
20
  7
SLDTEXTSTYLE1
 73
     1
 44
1.0
  0
MTEXT
  5
18D
330
1F
100
AcDbEntity
  8
TITLE
100
AcDbMText
 10
10.23370311107105
 20
87.74720077916312
 30
0.0
 40
0.125
 41
0.0
 71
     2
 72
     1
  1
20
  7
SLDTEXTSTYLE1
 73
     1
 44
1.0
  0
MTEXT
  5
18E
330
1F
100
AcDbEntity
  8
TITLE
100
AcDbMText
 10
12.20220704807892
 20
0.4125551098718104
 30
0.0
 40
0.125
 41
0.0
 71
     2
 72
     1
  1
19
  7
SLDTEXTSTYLE1
 73
     1
 44
1.0
  0
MTEXT
  5
18F
330
1F
100
AcDbEntity
  8
TITLE
100
AcDbMText
 10
12.20220704807892
 20
87.74720077916312
 30
0.0
 40
0.125
 41
0.0
 71
     2
 72
     1
  1
19
  7
SLDTEXTSTYLE1
 73
     1
 44
1.0
  0
MTEXT
  5
190
330
1F
100
AcDbEntity
  8
TITLE
100
AcDbMText
 10
14.1707109850868
 20
0.4125551098718104
 30
0.0
 40
0.125
 41
0.0
 71
     2
 72
     1
  1
18
  7
SLDTEXTSTYLE1
 73
     1
 44
1.0
  0
MTEXT
  5
191
330
1F
100
AcDbEntity
  8
TITLE
100
AcDbMText
 10
14.1707109850868
 20
87.74720077916312
 30
0.0
 40
0.125
 41
0.0
 71
     2
 72
     1
  1
18
  7
SLDTEXTSTYLE1
 73
     1
 44
1.0
  0
MTEXT
  5
192
330
1F
100
AcDbEntity
  8
TITLE
100
AcDbMText
 10
16.13921492209468
 20
0.4125551098718105
 30
0.0
 40
0.125
 41
0.0
 71
     2
 72
     1
  1
17
  7
SLDTEXTSTYLE1
 73
     1
 44
1.0
  0
MTEXT
  5
193
330
1F
100
AcDbEntity
  8
TITLE
100
AcDbMText
 10
16.13921492209467
 20
87.74720077916312
 30
0.0
 40
0.125
 41
0.0
 71
     2
 72
     1
  1
17
  7
SLDTEXTSTYLE1
 73
     1
 44
1.0
  0
MTEXT
  5
194
330
1F
100
AcDbEntity
  8
TITLE
100
AcDbMText
 10
18.10771885910255
 20
0.4125551098718105
 30
0.0
 40
0.125
 41
0.0
 71
     2
 72
     1
  1
16
  7
SLDTEXTSTYLE1
 73
     1
 44
1.0
  0
MTEXT
  5
195
330
1F
100
AcDbEntity
  8
TITLE
100
AcDbMText
 10
18.10771885910255
 20
87.74720077916312
 30
0.0
 40
0.125
 41
0.0
 71
     2
 72
     1
  1
16
  7
SLDTEXTSTYLE1
 73
     1
 44
1.0
  0
MTEXT
  5
196
330
1F
100
AcDbEntity
  8
TITLE
100
AcDbMText
 10
20.07622279611043
 20
0.4125551098718104
 30
0.0
 40
0.125
 41
0.0
 71
     2
 72
     1
  1
15
  7
SLDTEXTSTYLE1
 73
     1
 44
1.0
  0
MTEXT
  5
197
330
1F
100
AcDbEntity
  8
TITLE
100
AcDbMText
 10
20.07622279611043
 20
87.74720077916312
 30
0.0
 40
0.125
 41
0.0
 71
     2
 72
     1
  1
15
  7
SLDTEXTSTYLE1
 73
     1
 44
1.0
  0
MTEXT
  5
198
330
1F
100
AcDbEntity
  8
TITLE
100
AcDbMText
 10
22.0447267331183
 20
0.4125551098718104
 30
0.0
 40
0.125
 41
0.0
 71
     2
 72
     1
  1
14
  7
SLDTEXTSTYLE1
 73
     1
 44
1.0
  0
MTEXT
  5
199
330
1F
100
AcDbEntity
  8
TITLE
100
AcDbMText
 10
22.0447267331183
 20
87.74720077916312
 30
0.0
 40
0.125
 41
0.0
 71
     2
 72
     1
  1
14
  7
SLDTEXTSTYLE1
 73
     1
 44
1.0
  0
MTEXT
  5
19A
330
1F
100
AcDbEntity
  8
TITLE
100
AcDbMText
 10
24.01323067012617
 20
0.4125551098718104
 30
0.0
 40
0.125
 41
0.0
 71
     2
 72
     1
  1
13
  7
SLDTEXTSTYLE1
 73
     1
 44
1.0
  0
MTEXT
  5
19B
330
1F
100
AcDbEntity
  8
TITLE
100
AcDbMText
 10
24.01323067012617
 20
87.74720077916312
 30
0.0
 40
0.125
 41
0.0
 71
     2
 72
     1
  1
13
  7
SLDTEXTSTYLE1
 73
     1
 44
1.0
  0
MTEXT
  5
19C
330
1F
100
AcDbEntity
  8
TITLE
100
AcDbMText
 10
25.98173460713405
 20
0.4125551098718104
 30
0.0
 40
0.125
 41
0.0
 71
     2
 72
     1
  1
12
  7
SLDTEXTSTYLE1
 73
     1
 44
1.0
  0
MTEXT
  5
19D
330
1F
100
AcDbEntity
  8
TITLE
100
AcDbMText
 10
25.98173460713405
 20
87.74720077916312
 30
0.0
 40
0.125
 41
0.0
 71
     2
 72
     1
  1
12
  7
SLDTEXTSTYLE1
 73
     1
 44
1.0
  0
MTEXT
  5
19E
330
1F
100
AcDbEntity
  8
TITLE
100
AcDbMText
 10
27.95023854414192
 20
0.4125551098718104
 30
0.0
 40
0.125
 41
0.0
 71
     2
 72
     1
  1
11
  7
SLDTEXTSTYLE1
 73
     1
 44
1.0
  0
MTEXT
  5
19F
330
1F
100
AcDbEntity
  8
TITLE
100
AcDbMText
 10
27.95023854414192
 20
87.74720077916312
 30
0.0
 40
0.125
 41
0.0
 71
     2
 72
     1
  1
11
  7
SLDTEXTSTYLE1
 73
     1
 44
1.0
  0
MTEXT
  5
1A0
330
1F
100
AcDbEntity
  8
TITLE
100
AcDbMText
 10
29.91874248114979
 20
0.4125551098718104
 30
0.0
 40
0.125
 41
0.0
 71
     2
 72
     1
  1
10
  7
SLDTEXTSTYLE1
 73
     1
 44
1.0
  0
MTEXT
  5
1A1
330
1F
100
AcDbEntity
  8
TITLE
100
AcDbMText
 10
29.91874248114979
 20
87.74720077916312
 30
0.0
 40
0.125
 41
0.0
 71
     2
 72
     1
  1
10
  7
SLDTEXTSTYLE1
 73
     1
 44
1.0
  0
MTEXT
  5
1A2
330
1F
100
AcDbEntity
  8
TITLE
100
AcDbMText
 10
31.88850509884261
 20
0.4125551098718104
 30
0.0
 40
0.125
 41
0.0
 71
     2
 72
     1
  1
9
  7
SLDTEXTSTYLE1
 73
     1
 44
1.0
  0
MTEXT
  5
1A3
330
1F
100
AcDbEntity
  8
TITLE
100
AcDbMText
 10
31.88850509884261
 20
87.74720077916312
 30
0.0
 40
0.125
 41
0.0
 71
     2
 72
     1
  1
9
  7
SLDTEXTSTYLE1
 73
     1
 44
1.0
  0
MTEXT
  5
1A4
330
1F
100
AcDbEntity
  8
TITLE
100
AcDbMText
 10
33.85700903585049
 20
0.4125551098718104
 30
0.0
 40
0.125
 41
0.0
 71
     2
 72
     1
  1
8
  7
SLDTEXTSTYLE1
 73
     1
 44
1.0
  0
MTEXT
  5
1A5
330
1F
100
AcDbEntity
  8
TITLE
100
AcDbMText
 10
33.85700903585048
 20
87.74720077916312
 30
0.0
 40
0.125
 41
0.0
 71
     2
 72
     1
  1
8
  7
SLDTEXTSTYLE1
 73
     1
 44
1.0
  0
MTEXT
  5
1A6
330
1F
100
AcDbEntity
  8
TITLE
100
AcDbMText
 10
35.82551297285837
 20
0.4125551098718104
 30
0.0
 40
0.125
 41
0.0
 71
     2
 72
     1
  1
7
  7
SLDTEXTSTYLE1
 73
     1
 44
1.0
  0
MTEXT
  5
1A7
330
1F
100
AcDbEntity
  8
TITLE
100
AcDbMText
 10
35.82551297285836
 20
87.74720077916312
 30
0.0
 40
0.125
 41
0.0
 71
     2
 72
     1
  1
7
  7
SLDTEXTSTYLE1
 73
     1
 44
1.0
  0
MTEXT
  5
1A8
330
1F
100
AcDbEntity
  8
TITLE
100
AcDbMText
 10
37.79401690986625
 20
0.4125551098718104
 30
0.0
 40
0.125
 41
0.0
 71
     2
 72
     1
  1
6
  7
SLDTEXTSTYLE1
 73
     1
 44
1.0
  0
MTEXT
  5
1A9
330
1F
100
AcDbEntity
  8
TITLE
100
AcDbMText
 10
37.79401690986624
 20
87.74720077916312
 30
0.0
 40
0.125
 41
0.0
 71
     2
 72
     1
  1
6
  7
SLDTEXTSTYLE1
 73
     1
 44
1.0
  0
MTEXT
  5
1AA
330
1F
100
AcDbEntity
  8
TITLE
100
AcDbMText
 10
39.76252084687412
 20
0.4125551098718104
 30
0.0
 40
0.125
 41
0.0
 71
     2
 72
     1
  1
5
  7
SLDTEXTSTYLE1
 73
     1
 44
1.0
  0
MTEXT
  5
1AB
330
1F
100
AcDbEntity
  8
TITLE
100
AcDbMText
 10
39.76252084687412
 20
87.74720077916312
 30
0.0
 40
0.125
 41
0.0
 71
     2
 72
     1
  1
5
  7
SLDTEXTSTYLE1
 73
     1
 44
1.0
  0
MTEXT
  5
1AC
330
1F
100
AcDbEntity
  8
TITLE
100
AcDbMText
 10
41.73102478388198
 20
0.4125551098718104
 30
0.0
 40
0.125
 41
0.0
 71
     2
 72
     1
  1
4
  7
SLDTEXTSTYLE1
 73
     1
 44
1.0
  0
MTEXT
  5
1AD
330
1F
100
AcDbEntity
  8
TITLE
100
AcDbMText
 10
41.73102478388198
 20
87.74720077916312
 30
0.0
 40
0.125
 41
0.0
 71
     2
 72
     1
  1
4
  7
SLDTEXTSTYLE1
 73
     1
 44
1.0
  0
MTEXT
  5
1AE
330
1F
100
AcDbEntity
  8
TITLE
100
AcDbMText
 10
43.69952872088985
 20
0.4125551098718105
 30
0.0
 40
0.125
 41
0.0
 71
     2
 72
     1
  1
3
  7
SLDTEXTSTYLE1
 73
     1
 44
1.0
  0
MTEXT
  5
1AF
330
1F
100
AcDbEntity
  8
TITLE
100
AcDbMText
 10
43.69952872088985
 20
87.74720077916312
 30
0.0
 40
0.125
 41
0.0
 71
     2
 72
     1
  1
3
  7
SLDTEXTSTYLE1
 73
     1
 44
1.0
  0
MTEXT
  5
1B0
330
1F
100
AcDbEntity
  8
TITLE
100
AcDbMText
 10
45.66803265789775
 20
0.4125551098718105
 30
0.0
 40
0.125
 41
0.0
 71
     2
 72
     1
  1
2
  7
SLDTEXTSTYLE1
 73
     1
 44
1.0
  0
MTEXT
  5
1B1
330
1F
100
AcDbEntity
  8
TITLE
100
AcDbMText
 10
45.66803265789774
 20
87.74720077916312
 30
0.0
 40
0.125
 41
0.0
 71
     2
 72
     1
  1
2
  7
SLDTEXTSTYLE1
 73
     1
 44
1.0
  0
MTEXT
  5
1B2
330
1F
100
AcDbEntity
  8
TITLE
100
AcDbMText
 10
48.07551297285837
 20
0.4125551098718104
 30
0.0
 40
0.125
 41
0.0
 71
     2
 72
     1
  1
1
  7
SLDTEXTSTYLE1
 73
     1
 44
1.0
  0
MTEXT
  5
1B3
330
1F
100
AcDbEntity
  8
TITLE
100
AcDbMText
 10
48.07551297285837
 20
87.74720077916312
 30
0.0
 40
0.125
 41
0.0
 71
     2
 72
     1
  1
1
  7
SLDTEXTSTYLE1
 73
     1
 44
1.0
  0
LINE
  5
1B4
330
1F
100
AcDbEntity
  8
0
  6
SLD-Solid
 62
     7
370
    25
100
AcDbLine
 10
13.39939835913813
 20
10.63413605180044
 30
0.0
 11
13.52241267574269
 21
10.63413605180044
 31
0.0
  0
LINE
  5
1B5
330
1F
100
AcDbEntity
  8
0
  6
SLD-Solid
 62
     7
370
    25
100
AcDbLine
 10
12.0314965518257
 20
42.80022769023218
 30
0.0
 11
12.01487910480656
 21
42.81467301654227
 31
0.0
  0
LINE
  5
1B6
330
1F
100
AcDbEntity
  8
0
  6
SLD-Solid
 62
     7
370
    25
100
AcDbLine
 10
7.88170722216632
 20
38.06000266113879
 30
0.0
 11
7.896959625123519
 21
38.04674394952823
 31
0.0
  0
LINE
  5
1B7
330
1F
100
AcDbEntity
  8
0
  6
SLD-Solid
 62
     7
370
    25
100
AcDbLine
 10
7.88170722216632
 20
38.06000266113879
 30
0.0
 11
12.01487910480656
 21
42.81467301654227
 31
0.0
  0
LINE
  5
1B8
330
1F
100
AcDbEntity
  8
0
  6
SLD-Solid
 62
     7
370
    25
100
AcDbLine
 10
17.82953009592876
 20
38.04555733482863
 30
0.0
 11
17.84614754294805
 21
38.06000266113884
 31
0.0
  0
LINE
  5
1B9
330
1F
100
AcDbEntity
  8
0
  6
SLD-Solid
 62
     7
370
    25
100
AcDbLine
 10
13.71297566030779
 20
42.81467301654229
 30
0.0
 11
17.84614754294805
 21
38.06000266113884
 31
0.0
  0
LINE
  5
1BA
330
1F
100
AcDbEntity
  8
0
  6
SLD-Solid
 62
     7
370
    25
100
AcDbLine
 10
13.71297566030779
 20
42.81467301654229
 30
0.0
 11
13.69635821328858
 21
42.80022769023213
 31
0.0
  0
ARC
  5
1BB
330
1F
100
AcDbEntity
  8
0
  6
SLD-Solid
 62
     7
370
    25
100
AcDbCircle
 10
12.86392738255717
 20
42.07660660892795
 30
0.0
 40
1.125000000000005
100
AcDbArc
 50
124.7291975793135
 51
138.9999999999996
  0
ARC
  5
1BC
330
1F
100
AcDbEntity
  8
0
  6
SLD-Solid
 62
     7
370
    25
100
AcDbCircle
 10
12.86392738255717
 20
42.07660660892795
 30
0.0
 40
1.125000000000019
100
AcDbArc
 50
41.00000000000096
 51
55.27080242078598
  0
ARC
  5
1BD
330
1F
100
AcDbEntity
  8
0
  6
SLD-Solid
 62
     7
370
    25
100
AcDbCircle
 10
7.92548037781923
 20
38.02195123745734
 30
0.0
 40
0.0579999999999996
100
AcDbArc
 50
138.9999999999917
 51
190.6565806800807
  0
ARC
  5
1BE
330
1F
100
AcDbEntity
  8
0
  6
SLD-Solid
 62
     7
370
    25
100
AcDbCircle
 10
17.80237438729513
 20
38.0219512374574
 30
0.0
 40
0.0580000000000006
100
AcDbArc
 50
349.3434193197497
 51
40.99999999999314
  0
LINE
  5
1BF
330
1F
100
AcDbEntity
  8
0
  6
SLD-Solid
 62
     7
370
    25
100
AcDbLine
 10
20.09836933571927
 20
35.08213605180031
 30
0.0
 11
20.09836933571927
 21
35.39890209023442
 31
0.0
  0
LINE
  5
1C0
330
1F
100
AcDbEntity
  8
0
  6
SLD-Solid
 62
     7
370
    25
100
AcDbLine
 10
20.09642738255704
 20
35.39890209023442
 30
0.0
 11
20.09836933571927
 21
35.39890209023442
 31
0.0
  0
LINE
  5
1C1
330
1F
100
AcDbEntity
  8
0
  6
SLD-Solid
 62
     7
370
    25
100
AcDbLine
 10
20.09836933571925
 20
35.39890209023438
 30
0.0
 11
20.09836933571927
 21
35.40564557795156
 31
0.0
  0
ARC
  5
1C2
330
1F
100
AcDbEntity
  8
0
  6
SLD-Solid
 62
     7
370
    25
100
AcDbCircle
 10
20.01836933571926
 20
35.40564557795156
 30
0.0
 40
0.0800000000000054
100
AcDbArc
 50
0.0000000000438917
 51
13.5290392238492
  0
LINE
  5
1C3
330
1F
100
AcDbEntity
  8
0
  6
SLD-Solid
 62
     7
370
    25
100
AcDbLine
 10
20.09642738255712
 20
35.41909607990207
 30
0.0
 11
20.09642738255712
 21
35.08213605180043
 31
0.0
  0
LINE
  5
1C4
330
1F
100
AcDbEntity
  8
0
  6
SLD-Solid
 62
     7
370
    25
100
AcDbLine
 10
5.631427382557118
 20
35.08213605180052
 30
0.0
 11
5.631427382557118
 21
35.41909607990207
 31
0.0
  0
LINE
  5
1C5
330
1F
100
AcDbEntity
  8
0
  6
SLD-Solid
 62
     7
370
    25
100
AcDbLine
 10
13.6186369627799
 20
42.88963576138703
 30
0.0
 11
20.08416286156826
 21
35.45189903135159
 31
0.0
  0
LINE
  5
1C6
330
1F
100
AcDbEntity
  8
0
  6
SLD-Solid
 62
     7
370
    25
100
AcDbLine
 10
5.64369190354598
 20
35.45189903135159
 30
0.0
 11
12.10921780233434
 21
42.88963576138703
 31
0.0
  0
ARC
  5
1C7
330
1F
100
AcDbEntity
  8
0
  6
SLD-Solid
 62
     7
370
    25
100
AcDbCircle
 10
20.04642738255712
 20
35.41909607990207
 30
0.0
 40
0.0500000000000037
100
AcDbArc
 50
0.0
 51
40.9999999999967
  0
ARC
  5
1C8
330
1F
100
AcDbEntity
  8
0
  6
SLD-Solid
 62
     7
370
    25
100
AcDbCircle
 10
5.681427382557118
 20
35.41909607990207
 30
0.0
 40
0.0499999999999998
100
AcDbArc
 50
138.9999999999993
 51
180.0
  0
ARC
  5
1C9
330
1F
100
AcDbEntity
  8
0
  6
SLD-Solid
 62
     7
370
    25
100
AcDbCircle
 10
12.86392738255712
 20
42.23357673239653
 30
0.0
 40
1.000000000000003
100
AcDbArc
 50
40.99999999999967
 51
139.0000000000002
  0
LINE
  5
1CA
330
1F
100
AcDbEntity
  8
0
  6
SLD-Solid
 62
     7
370
    25
100
AcDbLine
 10
5.898398359138265
 20
34.04013605180054
 30
0.0
 11
5.898398359138127
 21
10.63413605180054
 31
0.0
  0
LINE
  5
1CB
330
1F
100
AcDbEntity
  8
0
  6
SLD-Solid
 62
     7
370
    25
100
AcDbLine
 10
6.864898359138133
 20
10.63413605180054
 30
0.0
 11
5.898398359138127
 21
10.63413605180054
 31
0.0
  0
LINE
  5
1CC
330
1F
100
AcDbEntity
  8
0
  6
SLD-Solid
 62
     7
370
    25
100
AcDbLine
 10
13.39939835913827
 20
34.04013605180049
 30
0.0
 11
13.39939835913813
 21
10.6341360518005
 31
0.0
  0
LINE
  5
1CD
330
1F
100
AcDbEntity
  8
0
  6
SLD-Solid
 62
     7
370
    25
100
AcDbLine
 10
13.39939835913813
 20
10.6341360518005
 30
0.0
 11
6.864898359138133
 21
10.63413605180054
 31
0.0
  0
LINE
  5
1CE
330
1F
100
AcDbEntity
  8
0
  6
SLD-Solid
 62
     7
370
    25
100
AcDbLine
 10
13.625990110688
 20
10.63413605180044
 30
0.0
 11
18.86489835913809
 21
10.63413605180041
 31
0.0
  0
LINE
  5
1CF
330
1F
100
AcDbEntity
  8
0
  6
SLD-Solid
 62
     7
370
    25
100
AcDbLine
 10
13.59214910094328
 20
10.63413605180044
 30
0.0
 11
13.625990110688
 21
10.63413605180044
 31
0.0
  0
LINE
  5
1D0
330
1F
100
AcDbEntity
  8
0
  6
SLD-Solid
 62
     7
370
    25
100
AcDbLine
 10
19.83139835913809
 20
10.6341360518004
 30
0.0
 11
18.86489835913809
 21
10.63413605180041
 31
0.0
  0
LINE
  5
1D1
330
1F
100
AcDbEntity
  8
0
  6
SLD-Solid
 62
     7
370
    25
100
AcDbLine
 10
19.83139835913823
 20
34.04013605180049
 30
0.0
 11
19.83139835913809
 21
10.6341360518004
 31
0.0
  0
LINE
  5
1D2
330
1F
100
AcDbEntity
  8
0
  6
SLD-Solid
 62
     7
370
    25
100
AcDbLine
 10
13.52241267574269
 20
10.63413605180044
 30
0.0
 11
13.59214910094328
 21
10.63413605180044
 31
0.0
  0
LINE
  5
1D3
330
1F
100
AcDbEntity
  8
0
  6
SLD-Solid
 62
     7
370
    25
100
AcDbLine
 10
8.786971896039294
 20
10.3657240073837
 30
0.0
 11
8.81553132087665
 21
10.36068821023136
 31
0.0
  0
LINE
  5
1D4
330
1F
100
AcDbEntity
  8
0
  6
SLD-Solid
 62
     7
370
    25
100
AcDbLine
 10
8.786971896039294
 20
10.3657240073837
 30
0.0
 11
8.834300181417092
 21
10.63413605180049
 31
0.0
  0
LINE
  5
1D5
330
1F
100
AcDbEntity
  8
0
  6
SLD-Solid
 62
     7
370
    25
100
AcDbLine
 10
8.81553132087665
 20
10.36068821023136
 30
0.0
 11
8.86374755316177
 21
10.63413605180045
 31
0.0
  0
ARC
  5
1D6
330
1F
100
AcDbEntity
  8
0
  6
SLD-Solid
 62
     7
370
    25
100
AcDbCircle
 10
17.41947694490192
 20
10.40913605180043
 30
0.0
 40
0.2500000000000036
100
AcDbArc
 50
270.0000000000008
 51
350.0000000000002
  0
LINE
  5
1D7
330
1F
100
AcDbEntity
  8
0
  6
SLD-Solid
 62
     7
370
    25
100
AcDbLine
 10
17.69423830799232
 20
10.36068821023136
 30
0.0
 11
17.66567888315497
 21
10.3657240073837
 31
0.0
  0
LINE
  5
1D8
330
1F
100
AcDbEntity
  8
0
  6
SLD-Solid
 62
     7
370
    25
100
AcDbLine
 10
17.41947694490192
 20
10.15913605180043
 30
0.0
 11
17.41947694490192
 21
10.13013605180043
 31
0.0
  0
ARC
  5
1D9
330
1F
100
AcDbEntity
  8
0
  6
SLD-Solid
 62
     7
370
    25
100
AcDbCircle
 10
17.41947694490192
 20
10.40913605180043
 30
0.0
 40
0.2790000000000017
100
AcDbArc
 50
270.0000000000008
 51
350.0000000000008
  0
LINE
  5
1DA
330
1F
100
AcDbEntity
  8
0
  6
SLD-Solid
 62
     7
370
    25
100
AcDbLine
 10
17.71300716853276
 20
10.63413605180042
 30
0.0
 11
17.66567888315497
 21
10.3657240073837
 31
0.0
  0
LINE
  5
1DB
330
1F
100
AcDbEntity
  8
0
  6
SLD-Solid
 62
     7
370
    25
100
AcDbLine
 10
17.74245454027744
 20
10.63413605180042
 30
0.0
 11
17.69423830799232
 21
10.36068821023136
 31
0.0
  0
LINE
  5
1DC
330
1F
100
AcDbEntity
  8
0
  6
SLD-Solid
 62
     7
370
    25
100
AcDbLine
 10
8.035558410284477
 20
10.36068821023136
 30
0.0
 11
8.06411783512183
 21
10.3657240073837
 31
0.0
  0
LINE
  5
1DD
330
1F
100
AcDbEntity
  8
0
  6
SLD-Solid
 62
     7
370
    25
100
AcDbLine
 10
8.016789549744031
 20
10.63413605180049
 30
0.0
 11
8.06411783512183
 21
10.3657240073837
 31
0.0
  0
LINE
  5
1DE
330
1F
100
AcDbEntity
  8
0
  6
SLD-Solid
 62
     7
370
    25
100
AcDbLine
 10
7.987342177999354
 20
10.63413605180045
 30
0.0
 11
8.035558410284477
 21
10.36068821023136
 31
0.0
  0
LINE
  5
1DF
330
1F
100
AcDbEntity
  8
0
  6
SLD-Solid
 62
     7
370
    25
100
AcDbLine
 10
17.18902676049056
 20
10.13013605180043
 30
0.0
 11
17.18902676049056
 21
10.15913605180043
 31
0.0
  0
LINE
  5
1E0
330
1F
100
AcDbEntity
  8
0
  6
SLD-Solid
 62
     7
370
    25
100
AcDbLine
 10
17.41947694490192
 20
10.15913605180043
 30
0.0
 11
17.18902676049056
 21
10.15913605180043
 31
0.0
  0
LINE
  5
1E1
330
1F
100
AcDbEntity
  8
0
  6
SLD-Solid
 62
     7
370
    25
100
AcDbLine
 10
17.41947694490192
 20
10.13013605180043
 30
0.0
 11
17.18902676049056
 21
10.13013605180043
 31
0.0
  0
LINE
  5
1E2
330
1F
100
AcDbEntity
  8
0
  6
SLD-Solid
 62
     7
370
    25
100
AcDbLine
 10
16.9428248222375
 20
10.3657240073837
 30
0.0
 11
16.91426539740015
 21
10.36068821023136
 31
0.0
  0
LINE
  5
1E3
330
1F
100
AcDbEntity
  8
0
  6
SLD-Solid
 62
     7
370
    25
100
AcDbLine
 10
16.9428248222375
 20
10.3657240073837
 30
0.0
 11
16.89549653685972
 21
10.63413605180042
 31
0.0
  0
LINE
  5
1E4
330
1F
100
AcDbEntity
  8
0
  6
SLD-Solid
 62
     7
370
    25
100
AcDbLine
 10
16.91426539740015
 20
10.36068821023136
 30
0.0
 11
16.86604916511503
 21
10.63413605180043
 31
0.0
  0
ARC
  5
1E5
330
1F
100
AcDbEntity
  8
0
  6
SLD-Solid
 62
     7
370
    25
100
AcDbCircle
 10
8.540769957786242
 20
10.40913605180043
 30
0.0
 40
0.2790000000000017
100
AcDbArc
 50
270.0000000000008
 51
350.0000000000009
  0
LINE
  5
1E6
330
1F
100
AcDbEntity
  8
0
  6
SLD-Solid
 62
     7
370
    25
100
AcDbLine
 10
8.540769957786242
 20
10.13013605180043
 30
0.0
 11
8.540769957786242
 21
10.15913605180043
 31
0.0
  0
ARC
  5
1E7
330
1F
100
AcDbEntity
  8
0
  6
SLD-Solid
 62
     7
370
    25
100
AcDbCircle
 10
8.540769957786242
 20
10.40913605180043
 30
0.0
 40
0.2500000000000036
100
AcDbArc
 50
270.0000000000008
 51
350.0000000000002
  0
LINE
  5
1E8
330
1F
100
AcDbEntity
  8
0
  6
SLD-Solid
 62
     7
370
    25
100
AcDbLine
 10
8.310319773374884
 20
10.15913605180043
 30
0.0
 11
8.310319773374884
 21
10.13013605180043
 31
0.0
  0
ARC
  5
1E9
330
1F
100
AcDbEntity
  8
0
  6
SLD-Solid
 62
     7
370
    25
100
AcDbCircle
 10
8.310319773374884
 20
10.40913605180043
 30
0.0
 40
0.2500000000000036
100
AcDbArc
 50
190.0000000000013
 51
270.0000000000008
  0
ARC
  5
1EA
330
1F
100
AcDbEntity
  8
0
  6
SLD-Solid
 62
     7
370
    25
100
AcDbCircle
 10
8.310319773374884
 20
10.40913605180043
 30
0.0
 40
0.2790000000000017
100
AcDbArc
 50
190.0000000000007
 51
270.0000000000008
  0
LINE
  5
1EB
330
1F
100
AcDbEntity
  8
0
  6
SLD-Solid
 62
     7
370
    25
100
AcDbLine
 10
8.310319773374884
 20
10.15913605180043
 30
0.0
 11
8.540769957786242
 21
10.15913605180043
 31
0.0
  0
LINE
  5
1EC
330
1F
100
AcDbEntity
  8
0
  6
SLD-Solid
 62
     7
370
    25
100
AcDbLine
 10
8.310319773374884
 20
10.13013605180043
 30
0.0
 11
8.540769957786242
 21
10.13013605180043
 31
0.0
  0
ARC
  5
1ED
330
1F
100
AcDbEntity
  8
0
  6
SLD-Solid
 62
     7
370
    25
100
AcDbCircle
 10
17.18902676049056
 20
10.40913605180043
 30
0.0
 40
0.2790000000000017
100
AcDbArc
 50
190.0000000000008
 51
270.0000000000008
  0
ARC
  5
1EE
330
1F
100
AcDbEntity
  8
0
  6
SLD-Solid
 62
     7
370
    25
100
AcDbCircle
 10
17.18902676049056
 20
10.40913605180043
 30
0.0
 40
0.2500000000000036
100
AcDbArc
 50
190.0000000000014
 51
270.0000000000008
  0
LINE
  5
1EF
330
1F
100
AcDbEntity
  8
0
  6
SLD-Solid
 62
     7
370
    25
100
AcDbLine
 10
6.169898359138132
 20
34.07443195197877
 30
0.0
 11
19.55989835913813
 21
34.07443195197872
 31
0.0
  0
LINE
  5
1F0
330
1F
100
AcDbEntity
  8
0
  6
SLD-Solid
 62
     7
370
    25
100
AcDbLine
 10
19.55989835913813
 20
35.04784015162218
 30
0.0
 11
6.169898359138138
 21
35.04784015162227
 31
0.0
  0
LINE
  5
1F1
330
1F
100
AcDbEntity
  8
0
  6
SLD-Solid
 62
     7
370
    25
100
AcDbLine
 10
6.169898359138132
 20
34.07443195197877
 30
0.0
 11
5.590293836759088
 21
34.0744319519788
 31
0.0
  0
ARC
  5
1F2
330
1F
100
AcDbEntity
  8
0
  6
SLD-Solid
 62
     7
370
    25
100
AcDbCircle
 10
8.968425486705996
 20
34.56113605180054
 30
0.0
 40
3.41301250000001
100
AcDbArc
 50
171.8015304390321
 51
188.1984695609691
  0
LINE
  5
1F3
330
1F
100
AcDbEntity
  8
0
  6
SLD-Solid
 62
     7
370
    25
100
AcDbLine
 10
5.590293836759093
 20
35.04784015162225
 30
0.0
 11
6.169898359138138
 21
35.04784015162227
 31
0.0
  0
LINE
  5
1F4
330
1F
100
AcDbEntity
  8
0
  6
SLD-Solid
 62
     7
370
    25
100
AcDbLine
 10
20.13950288151718
 20
35.04784015162218
 30
0.0
 11
19.55989835913813
 21
35.04784015162218
 31
0.0
  0
ARC
  5
1F5
330
1F
100
AcDbEntity
  8
0
  6
SLD-Solid
 62
     7
370
    25
100
AcDbCircle
 10
16.7613712315703
 20
34.5611360518005
 30
0.0
 40
3.413012499999976
100
AcDbArc
 50
351.8015304390322
 51
8.198469560967304
  0
LINE
  5
1F6
330
1F
100
AcDbEntity
  8
0
  6
SLD-Solid
 62
     7
370
    25
100
AcDbLine
 10
19.55989835913813
 20
34.07443195197872
 30
0.0
 11
20.13950288151717
 21
34.07443195197874
 31
0.0
  0
LINE
  5
1F7
330
1F
100
AcDbEntity
  8
0
  6
SLD-Solid
 62
     7
370
    25
100
AcDbLine
 10
6.169898359138139
 20
35.08213605180052
 30
0.0
 11
19.55989835913813
 21
35.08213605180043
 31
0.0
  0
LINE
  5
1F8
330
1F
100
AcDbEntity
  8
0
  6
SLD-Solid
 62
     7
370
    25
100
AcDbLine
 10
19.55989835913813
 20
35.08213605180043
 30
0.0
 11
20.09991167990339
 21
35.08213605180043
 31
0.0
  0
ARC
  5
1F9
330
1F
100
AcDbEntity
  8
0
  6
SLD-Solid
 62
     7
370
    25
100
AcDbCircle
 10
20.09991167990339
 20
35.04213605180043
 30
0.0
 40
0.0399999999999991
100
AcDbArc
 50
8.198469560971565
 51
90.0
  0
LINE
  5
1FA
330
1F
100
AcDbEntity
  8
0
  6
SLD-Solid
 62
     7
370
    25
100
AcDbLine
 10
19.55989835913813
 20
34.04013605180047
 30
0.0
 11
6.169898359138132
 21
34.04013605180052
 31
0.0
  0
ARC
  5
1FB
330
1F
100
AcDbEntity
  8
0
  6
SLD-Solid
 62
     7
370
    25
100
AcDbCircle
 10
20.09991167990338
 20
34.08013605180049
 30
0.0
 40
0.0400000000000015
100
AcDbArc
 50
270.0000000000008
 51
351.80153043903
  0
LINE
  5
1FC
330
1F
100
AcDbEntity
  8
0
  6
SLD-Solid
 62
     7
370
    25
100
AcDbLine
 10
20.09991167990338
 20
34.04013605180049
 30
0.0
 11
19.55989835913813
 21
34.04013605180047
 31
0.0
  0
ARC
  5
1FD
330
1F
100
AcDbEntity
  8
0
  6
SLD-Solid
 62
     7
370
    25
100
AcDbCircle
 10
5.62988503837288
 20
35.04213605180051
 30
0.0
 40
0.0399999999999988
100
AcDbArc
 50
90.0
 51
171.8015304390389
  0
LINE
  5
1FE
330
1F
100
AcDbEntity
  8
0
  6
SLD-Solid
 62
     7
370
    25
100
AcDbLine
 10
6.169898359138139
 20
35.08213605180052
 30
0.0
 11
5.62988503837288
 21
35.0821360518005
 31
0.0
  0
LINE
  5
1FF
330
1F
100
AcDbEntity
  8
0
  6
SLD-Solid
 62
     7
370
    25
100
AcDbLine
 10
5.629885038372874
 20
34.04013605180054
 30
0.0
 11
6.169898359138132
 21
34.04013605180052
 31
0.0
  0
ARC
  5
200
330
1F
100
AcDbEntity
  8
0
  6
SLD-Solid
 62
     7
370
    25
100
AcDbCircle
 10
5.629885038372874
 20
34.08013605180054
 30
0.0
 40
0.0399999999999988
100
AcDbArc
 50
188.1984695609619
 51
270.0000000000008
  0
LWPOLYLINE
  5
201
330
1F
100
AcDbEntity
  8
0
  6
SLD-Solid
 62
     7
370
    25
100
AcDbPolyline
 90
        3
 70
   128
 43
0.0
 10
19.82700970924279
 20
33.08488000607397
 10
19.82729835913826
 20
33.07639006172167
 10
19.82700970924279
 20
33.06790011736936
  0
LINE
  5
202
330
1F
100
AcDbEntity
  8
0
  6
SLD-Solid
 62
     8
370
    25
100
AcDbLine
 10
20.09642738255712
 20
35.40564557795156
 30
0.0
 11
20.09836933571927
 21
35.40564557795156
 31
0.0
  0
DIMENSION
  5
203
330
1F
100
AcDbEntity
  8
DIMS
100
AcDbDimension
  2
_D
 10
21.15933961483969
 20
34.04013605180047
 30
0.0
 11
21.15933961483971
 21
39.17495285062336
 31
0.0
 70
    32
  1
<>
 71
     2
 42
-1.0
  3
SLDDIMSTYLE0
100
AcDbAlignedDimension
 13
12.86392738255712
 23
43.23357673239654
 33
0.0
 14
19.55989835913813
 24
34.04013605180047
 34
0.0
 50
90.0000000000002
100
AcDbRotatedDimension
  0
MTEXT
  5
219
330
1F
100
AcDbEntity
  8
NOTES
100
AcDbMText
 10
6.000380405136417
 20
9.266192348381583
 30
0.0
 40
0.7500000000000001
 41
0.0
 71
     1
 72
     1
  1
Side view
  7
SLDTEXTSTYLE1
 73
     1
 44
1.0
  0
LINE
  5
21A
330
1F
100
AcDbEntity
  8
0
  6
SLD-Solid
 62
     7
370
    25
100
AcDbLine
 10
42.28704158703672
 20
42.73510660892817
 30
0.0
 11
42.28074955031364
 21
42.73510660892817
 31
0.0
  0
LINE
  5
21B
330
1F
100
AcDbEntity
  8
0
  6
SLD-Solid
 62
     7
370
    25
100
AcDbLine
 10
31.63274955029579
 20
42.73510660892813
 30
0.0
 11
31.62645751357278
 21
42.73510660892813
 31
0.0
  0
LINE
  5
21C
330
1F
100
AcDbEntity
  8
0
  6
SLD-Solid
 62
     7
370
    25
100
AcDbLine
 10
31.62645751357278
 20
42.61010660892813
 30
0.0
 11
31.63274955029579
 21
42.61010660892813
 31
0.0
  0
LINE
  5
21D
330
1F
100
AcDbEntity
  8
0
  6
SLD-Solid
 62
     7
370
    25
100
AcDbLine
 10
42.28074955031364
 20
42.61010660892817
 30
0.0
 11
42.28704158703672
 21
42.61010660892817
 31
0.0
  0
LINE
  5
21E
330
1F
100
AcDbEntity
  8
0
  6
SLD-Solid
 62
     7
370
    25
100
AcDbLine
 10
42.15674955030469
 20
43.20160660892809
 30
0.0
 11
31.75674955030468
 21
43.20160660892794
 31
0.0
  0
LINE
  5
21F
330
1F
100
AcDbEntity
  8
0
  6
SLD-Solid
 62
     7
370
    25
100
AcDbLine
 10
42.31104158703651
 20
37.86409354896552
 30
0.0
 11
31.60245751357239
 21
37.86409354896544
 31
0.0
  0
LINE
  5
220
330
1F
100
AcDbEntity
  8
0
  6
SLD-Solid
 62
     7
370
    25
100
AcDbLine
 10
42.31104158703678
 20
37.86185958739937
 30
0.0
 11
31.60245751357266
 21
37.86185958739952
 31
0.0
  0
LINE
  5
221
330
1F
100
AcDbEntity
  8
0
  6
SLD-Solid
 62
     7
370
    25
100
AcDbLine
 10
42.19674955030468
 20
43.17260660892815
 30
0.0
 11
42.16774955030468
 21
43.17260660892815
 31
0.0
  0
ARC
  5
222
330
1F
100
AcDbEntity
  8
0
  6
SLD-Solid
 62
     7
370
    25
100
AcDbCircle
 10
42.19774955031364
 20
42.86107727217237
 30
0.0
 40
0.0009999999999999
100
AcDbArc
 50
180.0
 51
267.999999999909
  0
LINE
  5
223
330
1F
100
AcDbEntity
  8
0
  6
SLD-Solid
 62
     7
370
    25
100
AcDbLine
 10
42.22380862061909
 20
42.85916665984077
 30
0.0
 11
42.19771465081693
 21
42.86007788134535
 31
0.0
  0
ARC
  5
224
330
1F
100
AcDbEntity
  8
0
  6
SLD-Solid
 62
     7
370
    25
100
AcDbCircle
 10
42.22174955031365
 20
42.54501061680968
 30
0.0
 40
0.059000000000009
100
AcDbArc
 50
273.887441533446
 51
0.000000000000199
  0
ARC
  5
225
330
1F
100
AcDbEntity
  8
0
  6
SLD-Solid
 62
     7
370
    25
100
AcDbCircle
 10
42.22174955031364
 20
42.80020260104664
 30
0.0
 40
0.0590000000000046
100
AcDbArc
 50
0.000000000000199
 51
87.99999999999805
  0
LINE
  5
226
330
1F
100
AcDbEntity
  8
0
  6
SLD-Solid
 62
     7
370
    25
100
AcDbLine
 10
31.74574955030474
 20
43.17260660892816
 30
0.0
 11
31.71674955030474
 21
43.17260660892816
 31
0.0
  0
ARC
  5
227
330
1F
100
AcDbEntity
  8
0
  6
SLD-Solid
 62
     7
370
    25
100
AcDbCircle
 10
31.71574955029579
 20
42.86107727217239
 30
0.0
 40
0.001000000000007
100
AcDbArc
 50
272.0000000000784
 51
0.0
  0
LINE
  5
228
330
1F
100
AcDbEntity
  8
0
  6
SLD-Solid
 62
     7
370
    25
100
AcDbLine
 10
31.71578444979249
 20
42.86007788134537
 30
0.0
 11
31.68969047999034
 21
42.85916665984078
 31
0.0
  0
ARC
  5
229
330
1F
100
AcDbEntity
  8
0
  6
SLD-Solid
 62
     7
370
    25
100
AcDbCircle
 10
31.69174955029579
 20
42.80020260104665
 30
0.0
 40
0.058999999999998
100
AcDbArc
 50
91.99999999999851
 51
180.0000000000077
  0
ARC
  5
22A
330
1F
100
AcDbEntity
  8
0
  6
SLD-Solid
 62
     7
370
    25
100
AcDbCircle
 10
31.69174955029579
 20
42.54501061680968
 30
0.0
 40
0.0590000000000048
100
AcDbArc
 50
179.9999999999931
 51
266.1125584665139
  0
LINE
  5
22B
330
1F
100
AcDbEntity
  8
0
  6
SLD-Solid
 62
     7
370
    25
100
AcDbLine
 10
31.54245751357265
 20
43.23357673239654
 30
0.0
 11
30.86245751357265
 21
43.23357673239654
 31
0.0
  0
ARC
  5
22C
330
1F
100
AcDbEntity
  8
0
  6
SLD-Solid
 62
     7
370
    25
100
AcDbCircle
 10
30.86245751357272
 20
42.68357673239652
 30
0.0
 40
0.5499999999999972
100
AcDbArc
 50
89.99999999999963
 51
180.0000000000023
  0
ARC
  5
22D
330
1F
100
AcDbEntity
  8
0
  6
SLD-Solid
 62
     7
370
    25
100
AcDbCircle
 10
43.05104158703675
 20
42.68357673239645
 30
0.0
 40
0.5499999999999972
100
AcDbArc
 50
359.9999999999986
 51
90.0
  0
LINE
  5
22E
330
1F
100
AcDbEntity
  8
0
  6
SLD-Solid
 62
     7
370
    25
100
AcDbLine
 10
43.05104158703682
 20
43.23357673239645
 30
0.0
 11
42.37104158703682
 21
43.23357673239645
 31
0.0
  0
ARC
  5
22F
330
1F
100
AcDbEntity
  8
0
  6
SLD-Solid
 62
     7
370
    25
100
AcDbCircle
 10
31.54345751357278
 20
42.86107727217251
 30
0.0
 40
0.0010000000000069
100
AcDbArc
 50
180.0
 51
268.0000000001266
  0
ARC
  5
230
330
1F
100
AcDbEntity
  8
0
  6
SLD-Solid
 62
     7
370
    25
100
AcDbCircle
 10
31.54345751357278
 20
42.48413594568408
 30
0.0
 40
0.0009999999999977
100
AcDbArc
 50
92.00000000010604
 51
180.0
  0
LINE
  5
231
330
1F
100
AcDbEntity
  8
0
  6
SLD-Solid
 62
     7
370
    25
100
AcDbLine
 10
31.54342261407607
 20
42.48513533651109
 30
0.0
 11
31.56951658387823
 21
42.48604655801568
 31
0.0
  0
LINE
  5
232
330
1F
100
AcDbEntity
  8
0
  6
SLD-Solid
 62
     7
370
    25
100
AcDbLine
 10
31.56951658387823
 20
42.85916665984089
 30
0.0
 11
31.54342261407608
 21
42.86007788134548
 31
0.0
  0
ARC
  5
233
330
1F
100
AcDbEntity
  8
0
  6
SLD-Solid
 62
     7
370
    25
100
AcDbCircle
 10
31.56745751357278
 20
42.54501061680977
 30
0.0
 40
0.0590000000000011
100
AcDbArc
 50
272.0000000000028
 51
0.000000000000199
  0
ARC
  5
234
330
1F
100
AcDbEntity
  8
0
  6
SLD-Solid
 62
     7
370
    25
100
AcDbCircle
 10
31.56745751357278
 20
42.80020260104673
 30
0.0
 40
0.0590000000000052
100
AcDbArc
 50
0.000000000000199
 51
87.9999999999983
  0
ARC
  5
235
330
1F
100
AcDbEntity
  8
0
  6
SLD-Solid
 62
     7
370
    25
100
AcDbCircle
 10
42.37004158703672
 20
42.484135945684
 30
0.0
 40
0.0010000000000073
100
AcDbArc
 50
0.0
 51
87.99999999951551
  0
ARC
  5
236
330
1F
100
AcDbEntity
  8
0
  6
SLD-Solid
 62
     7
370
    25
100
AcDbCircle
 10
42.37004158703672
 20
42.86107727217243
 30
0.0
 40
0.0010000000000073
100
AcDbArc
 50
272.0000000004853
 51
0.0
  0
LINE
  5
237
330
1F
100
AcDbEntity
  8
0
  6
SLD-Solid
 62
     7
370
    25
100
AcDbLine
 10
42.37007648653343
 20
42.8600778813454
 30
0.0
 11
42.34398251673127
 21
42.85916665984082
 31
0.0
  0
LINE
  5
238
330
1F
100
AcDbEntity
  8
0
  6
SLD-Solid
 62
     7
370
    25
100
AcDbLine
 10
42.34398251673127
 20
42.48604655801561
 30
0.0
 11
42.37007648653343
 21
42.48513533651103
 31
0.0
  0
ARC
  5
239
330
1F
100
AcDbEntity
  8
0
  6
SLD-Solid
 62
     7
370
    25
100
AcDbCircle
 10
42.34604158703672
 20
42.80020260104665
 30
0.0
 40
0.0590000000000046
100
AcDbArc
 50
92.00000000000195
 51
179.9999999999998
  0
ARC
  5
23A
330
1F
100
AcDbEntity
  8
0
  6
SLD-Solid
 62
     7
370
    25
100
AcDbCircle
 10
42.34604158703672
 20
42.54501061680969
 30
0.0
 40
0.0590000000000052
100
AcDbArc
 50
179.9999999999998
 51
267.9999999999991
  0
LWPOLYLINE
  5
23B
330
1F
100
AcDbEntity
  8
0
  6
SLD-Solid
 62
     7
370
    25
100
AcDbPolyline
 90
        9
 70
   128
 43
0.0
 10
42.1567495503047
 20
42.81467301654244
 10
42.17021078252381
 20
42.81380320321306
 10
42.18315470713788
 20
42.81122718966335
 10
42.19508389638304
 20
42.80704397064938
 10
42.20553991820656
 20
42.8014143049319
 10
42.21412095355357
 20
42.79455453740724
 10
42.22049723804797
 20
42.78672828509442
 10
42.22442373465252
 20
42.77823630648078
 10
42.2257495503047
 20
42.76940494354211
  0
LINE
  5
23C
330
1F
100
AcDbEntity
  8
0
  6
SLD-Solid
 62
     7
370
    25
100
AcDbLine
 10
42.2257495503047
 20
42.76940494354211
 30
0.0
 11
42.22574955030477
 21
38.01473458813864
 31
0.0
  0
LWPOLYLINE
  5
23D
330
1F
100
AcDbEntity
  8
0
  6
SLD-Solid
 62
     7
370
    25
100
AcDbPolyline
 90
        9
 70
   128
 43
0.0
 10
42.22574955030477
 20
38.01473458813864
 10
42.22442373465259
 20
38.02356595107733
 10
42.22049723804805
 20
38.03205792969096
 10
42.21412095355364
 20
38.03988418200378
 10
42.20553991820663
 20
38.04674394952842
 10
42.19508389638311
 20
38.0523736152459
 10
42.18315470713795
 20
38.05655683425986
 10
42.17021078252388
 20
38.05913284780956
 10
42.15674955030477
 20
38.06000266113896
  0
LWPOLYLINE
  5
23E
330
1F
100
AcDbEntity
  8
0
  6
SLD-Solid
 62
     7
370
    25
100
AcDbPolyline
 90
        9
 70
   128
 43
0.0
 10
31.68774955030477
 20
38.01473458813847
 10
31.68907536595695
 20
38.02356595107717
 10
31.69300186256148
 20
38.03205792969081
 10
31.69937814705589
 20
38.03988418200363
 10
31.70795918240289
 20
38.04674394952828
 10
31.71841520422641
 20
38.05237361524578
 10
31.73034439347157
 20
38.05655683425974
 10
31.74328831808565
 20
38.05913284780945
 10
31.75674955030477
 20
38.06000266113884
  0
LINE
  5
23F
330
1F
100
AcDbEntity
  8
0
  6
SLD-Solid
 62
     7
370
    25
100
AcDbLine
 10
31.68774955030468
 20
42.76940494354197
 30
0.0
 11
31.68774955030477
 21
38.01473458813847
 31
0.0
  0
LWPOLYLINE
  5
240
330
1F
100
AcDbEntity
  8
0
  6
SLD-Solid
 62
     7
370
    25
100
AcDbPolyline
 90
        9
 70
   128
 43
0.0
 10
31.75674955030469
 20
42.81467301654229
 10
31.74328831808558
 20
42.81380320321291
 10
31.7303443934715
 20
42.81122718966319
 10
31.71841520422633
 20
42.80704397064923
 10
31.70795918240281
 20
42.80141430493174
 10
31.69937814705581
 20
42.7945545374071
 10
31.69300186256141
 20
42.78672828509428
 10
31.68907536595686
 20
42.77823630648063
 10
31.68774955030468
 20
42.76940494354197
  0
LWPOLYLINE
  5
241
330
1F
100
AcDbEntity
  8
0
  6
SLD-Solid
 62
     7
370
    25
100
AcDbPolyline
 90
        9
 70
   128
 43
0.0
 10
42.19674955030477
 20
38.01473458813863
 10
42.1959809615209
 20
38.01985421882772
 10
42.19370473160522
 20
38.02477710498055
 10
42.19000833479687
 20
38.02931406284306
 10
42.18503382155222
 20
38.03329073966894
 10
42.17897235962555
 20
38.0365543139979
 10
42.17205688759937
 20
38.03897936849875
 10
42.16455316318541
 20
38.04047270968698
 10
42.15674955030477
 20
38.04097694929823
  0
LWPOLYLINE
  5
242
330
1F
100
AcDbEntity
  8
0
  6
SLD-Solid
 62
     7
370
    25
100
AcDbPolyline
 90
        9
 70
   128
 43
0.0
 10
31.71674955030477
 20
38.01473458813847
 10
31.71751813908864
 20
38.01985421882757
 10
31.71979436900431
 20
38.02477710498041
 10
31.72349076581266
 20
38.02931406284291
 10
31.7284652790573
 20
38.0332907396688
 10
31.73452674098398
 20
38.03655431399779
 10
31.74144221301016
 20
38.03897936849864
 10
31.74894593742412
 20
38.04047270968688
 10
31.75674955030477
 20
38.04097694929812
  0
LINE
  5
243
330
1F
100
AcDbEntity
  8
0
  6
SLD-Solid
 62
     7
370
    25
100
AcDbLine
 10
42.15674955030477
 20
37.96501686081754
 30
0.0
 11
42.15674955030477
 21
38.06000266113896
 31
0.0
  0
LINE
  5
244
330
1F
100
AcDbEntity
  8
0
  6
SLD-Solid
 62
     7
370
    25
100
AcDbLine
 10
31.75674955030476
 20
37.96501686081743
 30
0.0
 11
31.75674955030477
 21
38.06000266113884
 31
0.0
  0
LINE
  5
245
330
1F
100
AcDbEntity
  8
0
  6
SLD-Solid
 62
     7
370
    25
100
AcDbLine
 10
42.19674955030477
 20
38.01473458813863
 30
0.0
 11
42.22574955030477
 21
38.01473458813864
 31
0.0
  0
LINE
  5
246
330
1F
100
AcDbEntity
  8
0
  6
SLD-Solid
 62
     7
370
    25
100
AcDbLine
 10
31.71674955030477
 20
38.01473458813847
 30
0.0
 11
31.68774955030477
 21
38.01473458813847
 31
0.0
  0
LINE
  5
247
330
1F
100
AcDbEntity
  8
0
  6
SLD-Solid
 62
     7
370
    25
100
AcDbLine
 10
31.75674955030474
 20
37.91931027311233
 30
0.0
 11
42.15674955030476
 21
37.91931027311244
 31
0.0
  0
LINE
  5
248
330
1F
100
AcDbEntity
  8
0
  6
SLD-Solid
 62
     7
370
    25
100
AcDbLine
 10
42.15674955030477
 20
37.96501686081754
 30
0.0
 11
42.15674955030476
 21
37.91931027311244
 31
0.0
  0
LINE
  5
249
330
1F
100
AcDbEntity
  8
0
  6
SLD-Solid
 62
     7
370
    25
100
AcDbLine
 10
31.75674955030476
 20
37.96501686081743
 30
0.0
 11
31.75674955030474
 21
37.91931027311233
 31
0.0
  0
LINE
  5
24A
330
1F
100
AcDbEntity
  8
0
  6
SLD-Solid
 62
     7
370
    25
100
AcDbLine
 10
42.19674955030478
 20
38.0133342054241
 30
0.0
 11
42.2257495503048
 21
38.0133342054241
 31
0.0
  0
LINE
  5
24B
330
1F
100
AcDbEntity
  8
0
  6
SLD-Solid
 62
     7
370
    25
100
AcDbLine
 10
42.2257495503048
 20
38.0133342054241
 30
0.0
 11
42.22574955030477
 21
38.01473458813864
 31
0.0
  0
LINE
  5
24C
330
1F
100
AcDbEntity
  8
0
  6
SLD-Solid
 62
     7
370
    25
100
AcDbLine
 10
42.19674955030478
 20
38.0133342054241
 30
0.0
 11
42.19674955030477
 21
38.01473458813863
 31
0.0
  0
LINE
  5
24D
330
1F
100
AcDbEntity
  8
0
  6
SLD-Solid
 62
     7
370
    25
100
AcDbLine
 10
31.71674955030477
 20
38.01333420542394
 30
0.0
 11
31.68774955030474
 21
38.01333420542395
 31
0.0
  0
LINE
  5
24E
330
1F
100
AcDbEntity
  8
0
  6
SLD-Solid
 62
     7
370
    25
100
AcDbLine
 10
31.68774955030474
 20
38.01333420542395
 30
0.0
 11
31.68774955030477
 21
38.01473458813847
 31
0.0
  0
LINE
  5
24F
330
1F
100
AcDbEntity
  8
0
  6
SLD-Solid
 62
     7
370
    25
100
AcDbLine
 10
31.71674955030477
 20
38.01333420542394
 30
0.0
 11
31.71674955030477
 21
38.01473458813847
 31
0.0
  0
LINE
  5
250
330
1F
100
AcDbEntity
  8
0
  6
SLD-Solid
 62
     7
370
    25
100
AcDbLine
 10
31.75674955030466
 20
43.20160660892795
 30
0.0
 11
31.75674955030469
 21
42.81467301654229
 31
0.0
  0
LINE
  5
251
330
1F
100
AcDbEntity
  8
0
  6
SLD-Solid
 62
     7
370
    25
100
AcDbLine
 10
42.15674955030467
 20
43.20160660892807
 30
0.0
 11
42.1567495503047
 21
42.81467301654244
 31
0.0
  0
LINE
  5
252
330
1F
100
AcDbEntity
  8
0
  6
SLD-Solid
 62
     7
370
    25
100
AcDbLine
 10
31.60245751357239
 20
37.86409354896544
 30
0.0
 11
31.60245751357239
 21
37.86185958739952
 31
0.0
  0
LINE
  5
253
330
1F
100
AcDbEntity
  8
0
  6
SLD-Solid
 62
     7
370
    25
100
AcDbLine
 10
42.31104158703651
 20
37.86409354896549
 30
0.0
 11
42.3110415870365
 21
37.86205182012162
 31
0.0
  0
LINE
  5
254
330
1F
100
AcDbEntity
  8
0
  6
SLD-Solid
 62
     7
370
    25
100
AcDbLine
 10
42.2110415870365
 20
37.86205182012164
 30
0.0
 11
42.3110415870365
 21
37.86205182012162
 31
0.0
  0
LINE
  5
255
330
1F
100
AcDbEntity
  8
0
  6
SLD-Solid
 62
     7
370
    25
100
AcDbLine
 10
42.3110415870365
 20
37.86205182012162
 30
0.0
 11
42.3110415870365
 21
37.86185958739937
 31
0.0
  0
ARC
  5
256
330
1F
100
AcDbEntity
  8
0
  6
SLD-Solid
 62
     7
370
    25
100
AcDbCircle
 10
42.36508379056897
 20
37.84485381496696
 30
0.0
 40
0.0174985466047476
100
AcDbArc
 50
225.8687748936178
 51
272.6402692997337
  0
LINE
  5
257
330
1F
100
AcDbEntity
  8
0
  6
SLD-Solid
 62
     7
370
    25
100
AcDbLine
 10
42.37104158703679
 20
37.82737384411047
 30
0.0
 11
42.36588986260952
 21
37.82737384411047
 31
0.0
  0
ARC
  5
258
330
1F
100
AcDbEntity
  8
0
  6
SLD-Solid
 62
     7
370
    25
100
AcDbCircle
 10
31.54841531004001
 20
37.84485381496673
 30
0.0
 40
0.0174985466045938
100
AcDbArc
 50
267.359730699977
 51
314.1312251064996
  0
LINE
  5
259
330
1F
100
AcDbEntity
  8
0
  6
SLD-Solid
 62
     7
370
    25
100
AcDbLine
 10
31.54245751357265
 20
37.82737384411039
 30
0.0
 11
31.54760923799938
 21
37.82737384411039
 31
0.0
  0
LINE
  5
25A
330
1F
100
AcDbEntity
  8
0
  6
SLD-Solid
 62
     7
370
    25
100
AcDbLine
 10
42.35289948155275
 20
37.8322942868279
 30
0.0
 11
42.35001273020681
 21
37.83557458197285
 31
0.0
  0
LINE
  5
25B
330
1F
100
AcDbEntity
  8
0
  6
SLD-Solid
 62
     7
370
    25
100
AcDbLine
 10
31.56059961905614
 20
37.8322942868278
 30
0.0
 11
31.56348637040209
 21
37.83557458197276
 31
0.0
  0
ARC
  5
25C
330
1F
100
AcDbEntity
  8
0
  6
SLD-Solid
 62
     7
370
    25
100
AcDbCircle
 10
42.31345980315818
 20
37.79789599755556
 30
0.0
 40
0.052495639814304
100
AcDbArc
 50
45.86877489369272
 51
92.64026929973708
  0
ARC
  5
25D
330
1F
100
AcDbEntity
  8
0
  6
SLD-Solid
 62
     7
370
    25
100
AcDbCircle
 10
31.60003929745067
 20
37.79789599755574
 30
0.0
 40
0.0524956398140832
100
AcDbArc
 50
87.3597307002015
 51
134.1312251064709
  0
LINE
  5
25E
330
1F
100
AcDbEntity
  8
0
  6
SLD-Solid
 62
     7
370
    25
100
AcDbLine
 10
42.3710415870367
 20
35.40113605180042
 30
0.0
 11
42.36588986260939
 21
35.40113605180042
 31
0.0
  0
LINE
  5
25F
330
1F
100
AcDbEntity
  8
0
  6
SLD-Solid
 62
     7
370
    25
100
AcDbLine
 10
42.36588986260939
 20
35.40113605180042
 30
0.0
 11
42.32691871943914
 21
35.40113605180041
 31
0.0
  0
LINE
  5
260
330
1F
100
AcDbEntity
  8
0
  6
SLD-Solid
 62
     7
370
    25
100
AcDbLine
 10
31.54760923799924
 20
35.40113605180036
 30
0.0
 11
31.58658038116959
 21
35.40113605180036
 31
0.0
  0
LINE
  5
261
330
1F
100
AcDbEntity
  8
0
  6
SLD-Solid
 62
     7
370
    25
100
AcDbLine
 10
31.54245751357267
 20
35.40113605180036
 30
0.0
 11
31.54760923799924
 21
35.40113605180036
 31
0.0
  0
LINE
  5
262
330
1F
100
AcDbEntity
  8
0
  6
SLD-Solid
 62
     7
370
    25
100
AcDbLine
 10
42.32691871943914
 20
35.40113605180041
 30
0.0
 11
42.3240319680932
 21
35.40113605180041
 31
0.0
  0
LINE
  5
263
330
1F
100
AcDbEntity
  8
0
  6
SLD-Solid
 62
     7
370
    25
100
AcDbLine
 10
42.3240319680932
 20
35.40113605180041
 30
0.0
 11
42.31104158703643
 21
35.40113605180042
 31
0.0
  0
LINE
  5
264
330
1F
100
AcDbEntity
  8
0
  6
SLD-Solid
 62
     7
370
    25
100
AcDbLine
 10
31.58946713251555
 20
35.40113605180036
 30
0.0
 11
31.60245751357231
 21
35.40113605180036
 31
0.0
  0
LINE
  5
265
330
1F
100
AcDbEntity
  8
0
  6
SLD-Solid
 62
     7
370
    25
100
AcDbLine
 10
42.31104158703643
 20
35.40113605180042
 30
0.0
 11
42.2818608488781
 21
35.4011360518004
 31
0.0
  0
LINE
  5
266
330
1F
100
AcDbEntity
  8
0
  6
SLD-Solid
 62
     7
370
    25
100
AcDbLine
 10
31.60245751357231
 20
35.40113605180036
 30
0.0
 11
31.63163825173065
 21
35.40113605180037
 31
0.0
  0
LINE
  5
267
330
1F
100
AcDbEntity
  8
0
  6
SLD-Solid
 62
     7
370
    25
100
AcDbLine
 10
31.60245751357268
 20
35.39890209023442
 30
0.0
 11
31.63163825173101
 21
35.39890209023438
 31
0.0
  0
LINE
  5
268
330
1F
100
AcDbEntity
  8
0
  6
SLD-Solid
 62
     7
370
    25
100
AcDbLine
 10
31.63163825173101
 20
35.39890209023438
 30
0.0
 11
31.63163825173106
 21
35.40564557795156
 31
0.0
  0
LINE
  5
269
330
1F
100
AcDbEntity
  8
0
  6
SLD-Solid
 62
     7
370
    25
100
AcDbLine
 10
42.28186084887849
 20
35.39890209023429
 30
0.0
 11
42.28186084887849
 21
35.40564557795147
 31
0.0
  0
LINE
  5
26A
330
1F
100
AcDbEntity
  8
0
  6
SLD-Solid
 62
     7
370
    25
100
AcDbLine
 10
42.31104158703682
 20
35.39890209023429
 30
0.0
 11
42.28186084887849
 21
35.39890209023429
 31
0.0
  0
LINE
  5
26B
330
1F
100
AcDbEntity
  8
0
  6
SLD-Solid
 62
     7
370
    25
100
AcDbLine
 10
42.35001273020715
 20
35.39890209023429
 30
0.0
 11
42.31104158703682
 21
35.39890209023429
 31
0.0
  0
LINE
  5
26C
330
1F
100
AcDbEntity
  8
0
  6
SLD-Solid
 62
     7
370
    25
100
AcDbLine
 10
31.56348637040243
 20
35.39890209023442
 30
0.0
 11
31.60245751357268
 21
35.39890209023442
 31
0.0
  0
LINE
  5
26D
330
1F
100
AcDbEntity
  8
0
  6
SLD-Solid
 62
     7
370
    25
100
AcDbLine
 10
42.3528994815531
 20
35.39890209023426
 30
0.0
 11
42.35001273020715
 21
35.39890209023429
 31
0.0
  0
LINE
  5
26E
330
1F
100
AcDbEntity
  8
0
  6
SLD-Solid
 62
     7
370
    25
100
AcDbLine
 10
31.56059961905649
 20
35.39890209023442
 30
0.0
 11
31.56348637040243
 21
35.39890209023442
 31
0.0
  0
LINE
  5
26F
330
1F
100
AcDbEntity
  8
0
  6
SLD-Solid
 62
     7
370
    25
100
AcDbLine
 10
42.36588986260988
 20
35.39890209023429
 30
0.0
 11
42.3528994815531
 21
35.39890209023426
 31
0.0
  0
LINE
  5
270
330
1F
100
AcDbEntity
  8
0
  6
SLD-Solid
 62
     7
370
    25
100
AcDbLine
 10
31.54760923799972
 20
35.39890209023438
 30
0.0
 11
31.56059961905649
 21
35.39890209023442
 31
0.0
  0
LINE
  5
271
330
1F
100
AcDbEntity
  8
0
  6
SLD-Solid
 62
     7
370
    25
100
AcDbLine
 10
42.37104158703681
 20
35.39890209023429
 30
0.0
 11
42.36588986260988
 21
35.39890209023429
 31
0.0
  0
LINE
  5
272
330
1F
100
AcDbEntity
  8
0
  6
SLD-Solid
 62
     7
370
    25
100
AcDbLine
 10
31.54245751357272
 20
35.39890209023438
 30
0.0
 11
31.54760923799972
 21
35.39890209023438
 31
0.0
  0
LINE
  5
273
330
1F
100
AcDbEntity
  8
0
  6
SLD-Solid
 62
     7
370
    25
100
AcDbLine
 10
42.28186084887859
 20
35.45813030027071
 30
0.0
 11
42.28186084887849
 21
35.40564557795147
 31
0.0
  0
LINE
  5
274
330
1F
100
AcDbEntity
  8
0
  6
SLD-Solid
 62
     7
370
    25
100
AcDbLine
 10
31.63163825173112
 20
35.45813030027079
 30
0.0
 11
31.63163825173106
 21
35.40564557795156
 31
0.0
  0
LINE
  5
275
330
1F
100
AcDbEntity
  8
0
  6
SLD-Solid
 62
     7
370
    25
100
AcDbLine
 10
31.63163825173112
 20
35.45813030027079
 30
0.0
 11
31.63163825173112
 21
35.46321967505506
 31
0.0
  0
LINE
  5
276
330
1F
100
AcDbEntity
  8
0
  6
SLD-Solid
 62
     7
370
    25
100
AcDbLine
 10
31.63163825173112
 20
35.46321967505506
 30
0.0
 11
31.60245751357279
 21
35.46321967505508
 31
0.0
  0
LINE
  5
277
330
1F
100
AcDbEntity
  8
0
  6
SLD-Solid
 62
     7
370
    25
100
AcDbLine
 10
31.60245751357279
 20
35.46321967505508
 30
0.0
 11
31.60245751357266
 21
37.84810194855911
 31
0.0
  0
LINE
  5
278
330
1F
100
AcDbEntity
  8
0
  6
SLD-Solid
 62
     7
370
    25
100
AcDbLine
 10
31.60245751357266
 20
37.84810194855911
 30
0.0
 11
42.31104158703678
 21
37.84810194855901
 31
0.0
  0
LINE
  5
279
330
1F
100
AcDbEntity
  8
0
  6
SLD-Solid
 62
     7
370
    25
100
AcDbLine
 10
42.31104158703692
 20
35.46321967505499
 30
0.0
 11
42.31104158703678
 21
37.84810194855901
 31
0.0
  0
LINE
  5
27A
330
1F
100
AcDbEntity
  8
0
  6
SLD-Solid
 62
     7
370
    25
100
AcDbLine
 10
42.28186084887859
 20
35.46321967505498
 30
0.0
 11
42.31104158703692
 21
35.46321967505499
 31
0.0
  0
LINE
  5
27B
330
1F
100
AcDbEntity
  8
0
  6
SLD-Solid
 62
     7
370
    25
100
AcDbLine
 10
42.28186084887859
 20
35.45813030027071
 30
0.0
 11
42.28186084887859
 21
35.46321967505498
 31
0.0
  0
LINE
  5
27C
330
1F
100
AcDbEntity
  8
0
  6
SLD-Solid
 62
     7
370
    25
100
AcDbLine
 10
42.31104158703692
 20
35.46321967505499
 30
0.0
 11
42.31104158703692
 21
35.44353790418524
 31
0.0
  0
LINE
  5
27D
330
1F
100
AcDbEntity
  8
0
  6
SLD-Solid
 62
     7
370
    25
100
AcDbLine
 10
42.28186084887859
 20
35.44353790418526
 30
0.0
 11
42.31104158703692
 21
35.44353790418524
 31
0.0
  0
ARC
  5
27E
330
1F
100
AcDbEntity
  8
0
  6
SLD-Solid
 62
     7
370
    25
100
AcDbCircle
 10
42.31184765907746
 20
35.42605793332867
 30
0.0
 40
0.0174985466048209
100
AcDbArc
 50
45.86877489381084
 51
92.64026929969789
  0
ARC
  5
27F
330
1F
100
AcDbEntity
  8
0
  6
SLD-Solid
 62
     7
370
    25
100
AcDbCircle
 10
42.31345980315863
 20
35.41077976248565
 30
0.0
 40
0.0524956398140969
100
AcDbArc
 50
45.86877489354808
 51
92.64026929979393
  0
LINE
  5
280
330
1F
100
AcDbEntity
  8
0
  6
SLD-Solid
 62
     7
370
    25
100
AcDbLine
 10
42.32403196809368
 20
35.43861746146783
 30
0.0
 11
42.35001273020721
 21
35.44845834690269
 31
0.0
  0
ARC
  5
281
330
1F
100
AcDbEntity
  8
0
  6
SLD-Solid
 62
     7
370
    25
100
AcDbCircle
 10
42.31345980315849
 20
37.79566203598968
 30
0.0
 40
0.0524956398140855
100
AcDbArc
 50
45.86877489351535
 51
92.6402692997869
  0
LINE
  5
282
330
1F
100
AcDbEntity
  8
0
  6
SLD-Solid
 62
     7
370
    25
100
AcDbLine
 10
42.35001273020721
 20
35.44845834690269
 30
0.0
 11
42.35001273020708
 21
37.83334062040669
 31
0.0
  0
ARC
  5
283
330
1F
100
AcDbEntity
  8
0
  6
SLD-Solid
 62
     7
370
    25
100
AcDbCircle
 10
31.60003929745111
 20
35.41077976248557
 30
0.0
 40
0.052495639814266
100
AcDbArc
 50
87.35973070024563
 51
134.1312251063368
  0
LINE
  5
284
330
1F
100
AcDbEntity
  8
0
  6
SLD-Solid
 62
     7
370
    25
100
AcDbLine
 10
31.56348637040249
 20
35.4484583469028
 30
0.0
 11
31.56348637040236
 21
37.83334062040685
 31
0.0
  0
ARC
  5
285
330
1F
100
AcDbEntity
  8
0
  6
SLD-Solid
 62
     7
370
    25
100
AcDbCircle
 10
31.600039297451
 20
37.79566203598953
 30
0.0
 40
0.0524956398143359
100
AcDbArc
 50
87.35973070027245
 51
134.1312251062859
  0
LINE
  5
286
330
1F
100
AcDbEntity
  8
0
  6
SLD-Solid
 62
     7
370
    25
100
AcDbLine
 10
42.35289948155303
 20
37.83006032526173
 30
0.0
 11
42.35001273020708
 21
37.83334062040669
 31
0.0
  0
LINE
  5
287
330
1F
100
AcDbEntity
  8
0
  6
SLD-Solid
 62
     7
370
    25
100
AcDbLine
 10
42.35289948155317
 20
35.44517805175771
 30
0.0
 11
42.35289948155303
 21
37.83006032526173
 31
0.0
  0
LINE
  5
288
330
1F
100
AcDbEntity
  8
0
  6
SLD-Solid
 62
     7
370
    25
100
AcDbLine
 10
42.35001273020721
 20
35.44845834690269
 30
0.0
 11
42.35289948155317
 21
35.44517805175771
 31
0.0
  0
LINE
  5
289
330
1F
100
AcDbEntity
  8
0
  6
SLD-Solid
 62
     7
370
    25
100
AcDbLine
 10
42.35289948155317
 20
35.44517805175771
 30
0.0
 11
42.32691871943963
 21
35.43533716632287
 31
0.0
  0
LINE
  5
28A
330
1F
100
AcDbEntity
  8
0
  6
SLD-Solid
 62
     7
370
    25
100
AcDbLine
 10
42.32403196809368
 20
35.43861746146783
 30
0.0
 11
42.32691871943963
 21
35.43533716632287
 31
0.0
  0
LINE
  5
28B
330
1F
100
AcDbEntity
  8
0
  6
SLD-Solid
 62
     7
370
    25
100
AcDbLine
 10
31.56348637040249
 20
35.4484583469028
 30
0.0
 11
31.56059961905655
 21
35.44517805175786
 31
0.0
  0
LINE
  5
28C
330
1F
100
AcDbEntity
  8
0
  6
SLD-Solid
 62
     7
370
    25
100
AcDbLine
 10
31.56059961905655
 20
35.44517805175786
 30
0.0
 11
31.56059961905641
 21
37.8300603252619
 31
0.0
  0
LINE
  5
28D
330
1F
100
AcDbEntity
  8
0
  6
SLD-Solid
 62
     7
370
    25
100
AcDbLine
 10
31.56059961905641
 20
37.8300603252619
 30
0.0
 11
31.56348637040236
 21
37.83334062040685
 31
0.0
  0
ARC
  5
28E
330
1F
100
AcDbEntity
  8
0
  6
SLD-Solid
 62
     7
370
    25
100
AcDbCircle
 10
42.36508379056914
 20
37.84261985340065
 30
0.0
 40
0.0174985466045771
100
AcDbArc
 50
225.8687748935113
 51
272.6402693000616
  0
LINE
  5
28F
330
1F
100
AcDbEntity
  8
0
  6
SLD-Solid
 62
     7
370
    25
100
AcDbLine
 10
42.36588986260993
 20
35.44025760904031
 30
0.0
 11
42.36588986260979
 21
37.82513988254433
 31
0.0
  0
ARC
  5
290
330
1F
100
AcDbEntity
  8
0
  6
SLD-Solid
 62
     7
370
    25
100
AcDbCircle
 10
42.36508379056925
 20
35.45773757989655
 30
0.0
 40
0.0174985466045004
100
AcDbArc
 50
225.8687748934161
 51
272.6402693001663
  0
ARC
  5
291
330
1F
100
AcDbEntity
  8
0
  6
SLD-Solid
 62
     7
370
    25
100
AcDbCircle
 10
42.36347164648819
 20
35.4730157507399
 30
0.0
 40
0.0524956398140627
100
AcDbArc
 50
225.8687748935549
 51
272.6402692998275
  0
LINE
  5
292
330
1F
100
AcDbEntity
  8
0
  6
SLD-Solid
 62
     7
370
    25
100
AcDbLine
 10
42.36588986260993
 20
35.42057583817059
 30
0.0
 11
42.36588986260993
 21
35.44025760904031
 31
0.0
  0
ARC
  5
293
330
1F
100
AcDbEntity
  8
0
  6
SLD-Solid
 62
     7
370
    25
100
AcDbCircle
 10
31.54841531004031
 20
35.45773757989695
 30
0.0
 40
0.0174985466047853
100
AcDbArc
 50
267.3597307003557
 51
314.1312251063775
  0
LINE
  5
294
330
1F
100
AcDbEntity
  8
0
  6
SLD-Solid
 62
     7
370
    25
100
AcDbLine
 10
31.54760923799978
 20
35.44025760904042
 30
0.0
 11
31.54760923799964
 21
37.82513988254447
 31
0.0
  0
ARC
  5
295
330
1F
100
AcDbEntity
  8
0
  6
SLD-Solid
 62
     7
370
    25
100
AcDbCircle
 10
31.5484153100402
 20
37.84261985340096
 30
0.0
 40
0.0174985466047451
100
AcDbArc
 50
267.3597307002563
 51
314.1312251063755
  0
LINE
  5
296
330
1F
100
AcDbEntity
  8
0
  6
SLD-Solid
 62
     7
370
    25
100
AcDbLine
 10
42.37104158703682
 20
37.82513988254433
 30
0.0
 11
42.36588986260979
 21
37.82513988254433
 31
0.0
  0
LINE
  5
297
330
1F
100
AcDbEntity
  8
0
  6
SLD-Solid
 62
     7
370
    25
100
AcDbLine
 10
42.36588986260993
 20
35.44025760904031
 30
0.0
 11
42.37104158703675
 21
35.44025760904025
 31
0.0
  0
LINE
  5
298
330
1F
100
AcDbEntity
  8
0
  6
SLD-Solid
 62
     7
370
    25
100
AcDbLine
 10
42.36588986260993
 20
35.42057583817059
 30
0.0
 11
42.37104158703681
 21
35.42057583817055
 31
0.0
  0
LINE
  5
299
330
1F
100
AcDbEntity
  8
0
  6
SLD-Solid
 62
     7
370
    25
100
AcDbLine
 10
31.54760923799978
 20
35.44025760904042
 30
0.0
 11
31.54245751357267
 21
35.44025760904044
 31
0.0
  0
LINE
  5
29A
330
1F
100
AcDbEntity
  8
0
  6
SLD-Solid
 62
     7
370
    25
100
AcDbLine
 10
31.54245751357269
 20
37.82513988254447
 30
0.0
 11
31.54760923799964
 21
37.82513988254447
 31
0.0
  0
LINE
  5
29B
330
1F
100
AcDbEntity
  8
0
  6
SLD-Solid
 62
     7
370
    25
100
AcDbLine
 10
42.31104158703678
 20
37.84810194855901
 30
0.0
 11
42.31104158703678
 21
37.86185958739937
 31
0.0
  0
LINE
  5
29C
330
1F
100
AcDbEntity
  8
0
  6
SLD-Solid
 62
     7
370
    25
100
AcDbLine
 10
31.60245751357266
 20
37.84810194855911
 30
0.0
 11
31.60245751357266
 21
37.86185958739949
 31
0.0
  0
LINE
  5
29D
330
1F
100
AcDbEntity
  8
0
  6
SLD-Solid
 62
     7
370
    25
100
AcDbLine
 10
42.16774955030469
 20
42.81409407427622
 30
0.0
 11
42.16774955030469
 21
42.92260660892816
 31
0.0
  0
LINE
  5
29E
330
1F
100
AcDbEntity
  8
0
  6
SLD-Solid
 62
     7
370
    25
100
AcDbLine
 10
42.16774955030469
 20
42.92260660892816
 30
0.0
 11
42.19674955030469
 21
42.92260660892816
 31
0.0
  0
LINE
  5
29F
330
1F
100
AcDbEntity
  8
0
  6
SLD-Solid
 62
     7
370
    25
100
AcDbLine
 10
42.19674955030469
 20
42.80629040021451
 30
0.0
 11
42.19674955030469
 21
42.92260660892816
 31
0.0
  0
LINE
  5
2A0
330
1F
100
AcDbEntity
  8
0
  6
SLD-Solid
 62
     7
370
    25
100
AcDbLine
 10
42.16774955030468
 20
43.17260660892817
 30
0.0
 11
42.16774955030469
 21
42.92260660892816
 31
0.0
  0
LINE
  5
2A1
330
1F
100
AcDbEntity
  8
0
  6
SLD-Solid
 62
     7
370
    25
100
AcDbLine
 10
42.19674955030469
 20
42.92260660892816
 30
0.0
 11
42.19674955030468
 21
43.17260660892816
 31
0.0
  0
LINE
  5
2A2
330
1F
100
AcDbEntity
  8
0
  6
SLD-Solid
 62
     7
370
    25
100
AcDbLine
 10
42.28074955031364
 20
42.67260660892818
 30
0.0
 11
42.28074955031364
 21
42.54501061680969
 31
0.0
  0
LINE
  5
2A3
330
1F
100
AcDbEntity
  8
0
  6
SLD-Solid
 62
     7
370
    25
100
AcDbLine
 10
42.28074955031364
 20
42.80020260104665
 30
0.0
 11
42.28074955031364
 21
42.67260660892818
 31
0.0
  0
LINE
  5
2A4
330
1F
100
AcDbEntity
  8
0
  6
SLD-Solid
 62
     7
370
    25
100
AcDbLine
 10
31.74574955030474
 20
42.81409407427607
 30
0.0
 11
31.74574955030474
 21
42.9226066089282
 31
0.0
  0
LINE
  5
2A5
330
1F
100
AcDbEntity
  8
0
  6
SLD-Solid
 62
     7
370
    25
100
AcDbLine
 10
31.71674955030474
 20
42.80629040021439
 30
0.0
 11
31.71674955030474
 21
42.92260660892818
 31
0.0
  0
LINE
  5
2A6
330
1F
100
AcDbEntity
  8
0
  6
SLD-Solid
 62
     7
370
    25
100
AcDbLine
 10
31.74574955030474
 20
42.9226066089282
 30
0.0
 11
31.71674955030474
 21
42.92260660892818
 31
0.0
  0
LINE
  5
2A7
330
1F
100
AcDbEntity
  8
0
  6
SLD-Solid
 62
     7
370
    25
100
AcDbLine
 10
31.71674955030474
 20
43.17260660892816
 30
0.0
 11
31.71674955030474
 21
42.92260660892818
 31
0.0
  0
LINE
  5
2A8
330
1F
100
AcDbEntity
  8
0
  6
SLD-Solid
 62
     7
370
    25
100
AcDbLine
 10
31.74574955030474
 20
42.9226066089282
 30
0.0
 11
31.74574955030474
 21
43.17260660892819
 31
0.0
  0
LINE
  5
2A9
330
1F
100
AcDbEntity
  8
0
  6
SLD-Solid
 62
     7
370
    25
100
AcDbLine
 10
31.63274955029579
 20
42.54501061680971
 30
0.0
 11
31.63274955029579
 21
42.80020260104667
 31
0.0
  0
LINE
  5
2AA
330
1F
100
AcDbEntity
  8
0
  6
SLD-Solid
 62
     7
370
    25
100
AcDbLine
 10
31.54245751357267
 20
35.41909607990206
 30
0.0
 11
31.54245751357266
 21
35.08213605180042
 31
0.0
  0
LINE
  5
2AB
330
1F
100
AcDbEntity
  8
0
  6
SLD-Solid
 62
     7
370
    25
100
AcDbLine
 10
31.5424575135726
 20
35.45189903135159
 30
0.0
 11
31.54245751357267
 21
35.41909607990206
 31
0.0
  0
LINE
  5
2AC
330
1F
100
AcDbEntity
  8
0
  6
SLD-Solid
 62
     7
370
    25
100
AcDbLine
 10
30.31245751357267
 20
35.08213605180043
 30
0.0
 11
30.31245751357255
 21
35.23215374015967
 31
0.0
  0
LINE
  5
2AD
330
1F
100
AcDbEntity
  8
0
  6
SLD-Solid
 62
     7
370
    25
100
AcDbLine
 10
31.54245751357265
 20
42.88963576138704
 30
0.0
 11
31.5424575135726
 21
35.45189903135159
 31
0.0
  0
LINE
  5
2AE
330
1F
100
AcDbEntity
  8
0
  6
SLD-Solid
 62
     7
370
    25
100
AcDbLine
 10
30.31245751357255
 20
35.23215374015967
 30
0.0
 11
30.31245751357266
 21
42.52880329544224
 31
0.0
  0
LINE
  5
2AF
330
1F
100
AcDbEntity
  8
0
  6
SLD-Solid
 62
     7
370
    25
100
AcDbLine
 10
31.54245751357268
 20
43.23357673239654
 30
0.0
 11
31.54245751357265
 21
42.88963576138704
 31
0.0
  0
LINE
  5
2B0
330
1F
100
AcDbEntity
  8
0
  6
SLD-Solid
 62
     7
370
    25
100
AcDbLine
 10
30.31245751357266
 20
42.52880329544224
 30
0.0
 11
30.31245751357273
 21
42.68357673239651
 31
0.0
  0
LINE
  5
2B1
330
1F
100
AcDbEntity
  8
0
  6
SLD-Solid
 62
     7
370
    25
100
AcDbLine
 10
43.60104158703687
 20
35.23215374015959
 30
0.0
 11
43.60104158703677
 21
35.08213605180039
 31
0.0
  0
LINE
  5
2B2
330
1F
100
AcDbEntity
  8
0
  6
SLD-Solid
 62
     7
370
    25
100
AcDbLine
 10
42.37104158703675
 20
35.41909607990198
 30
0.0
 11
42.37104158703683
 21
35.45189903135152
 31
0.0
  0
LINE
  5
2B3
330
1F
100
AcDbEntity
  8
0
  6
SLD-Solid
 62
     7
370
    25
100
AcDbLine
 10
42.37104158703675
 20
35.41909607990198
 30
0.0
 11
42.37104158703675
 21
35.08213605180039
 31
0.0
  0
LINE
  5
2B4
330
1F
100
AcDbEntity
  8
0
  6
SLD-Solid
 62
     7
370
    25
100
AcDbLine
 10
43.6010415870368
 20
42.52880329544216
 30
0.0
 11
43.60104158703687
 21
35.23215374015959
 31
0.0
  0
LINE
  5
2B5
330
1F
100
AcDbEntity
  8
0
  6
SLD-Solid
 62
     7
370
    25
100
AcDbLine
 10
42.37104158703682
 20
42.88963576138697
 30
0.0
 11
42.37104158703683
 21
35.45189903135152
 31
0.0
  0
LINE
  5
2B6
330
1F
100
AcDbEntity
  8
0
  6
SLD-Solid
 62
     7
370
    25
100
AcDbLine
 10
43.60104158703675
 20
42.68357673239643
 30
0.0
 11
43.6010415870368
 21
42.52880329544216
 31
0.0
  0
LINE
  5
2B7
330
1F
100
AcDbEntity
  8
0
  6
SLD-Solid
 62
     7
370
    25
100
AcDbLine
 10
42.37104158703682
 20
42.88963576138697
 30
0.0
 11
42.3710415870368
 21
43.23357673239647
 31
0.0
  0
LINE
  5
2B8
330
1F
100
AcDbEntity
  8
0
  6
SLD-Solid
 62
     7
370
    25
100
AcDbLine
 10
43.44624955030442
 20
10.63413605180047
 30
0.0
 11
43.47757952091767
 21
10.63413605180047
 31
0.0
  0
LINE
  5
2B9
330
1F
100
AcDbEntity
  8
0
  6
SLD-Solid
 62
     7
370
    25
100
AcDbLine
 10
43.4882495503047
 20
34.04013605180042
 30
0.0
 11
43.48824955030462
 21
10.63413605180047
 31
0.0
  0
LINE
  5
2BA
330
1F
100
AcDbEntity
  8
0
  6
SLD-Solid
 62
     7
370
    25
100
AcDbLine
 10
43.47757952091767
 20
10.63413605180047
 30
0.0
 11
43.48824955030462
 21
10.63413605180047
 31
0.0
  0
LINE
  5
2BB
330
1F
100
AcDbEntity
  8
0
  6
SLD-Solid
 62
     7
370
    25
100
AcDbLine
 10
43.44624955030444
 20
10.63413605180037
 30
0.0
 11
42.47974955030444
 21
10.63413605180037
 31
0.0
  0
LINE
  5
2BC
330
1F
100
AcDbEntity
  8
0
  6
SLD-Solid
 62
     7
370
    25
100
AcDbLine
 10
31.43374955030443
 20
10.6341360518004
 30
0.0
 11
42.47974955030444
 21
10.63413605180037
 31
0.0
  0
LINE
  5
2BD
330
1F
100
AcDbEntity
  8
0
  6
SLD-Solid
 62
     7
370
    25
100
AcDbLine
 10
31.43374955030443
 20
10.6341360518004
 30
0.0
 11
30.46724955030443
 21
10.63413605180041
 31
0.0
  0
LINE
  5
2BE
330
1F
100
AcDbEntity
  8
0
  6
SLD-Solid
 62
     7
370
    25
100
AcDbLine
 10
30.46724955030451
 20
34.04013605180049
 30
0.0
 11
30.46724955030443
 21
10.63413605180041
 31
0.0
  0
LINE
  5
2BF
330
1F
100
AcDbEntity
  8
0
  6
SLD-Solid
 62
     7
370
    25
100
AcDbLine
 10
31.55674955030463
 20
10.6341360518004
 30
0.0
 11
31.55674955030463
 21
10.36068821023136
 31
0.0
  0
LINE
  5
2C0
330
1F
100
AcDbEntity
  8
0
  6
SLD-Solid
 62
     7
370
    25
100
AcDbLine
 10
33.18174955030462
 20
10.63413605180039
 30
0.0
 11
33.18174955030462
 21
10.36068821023136
 31
0.0
  0
LINE
  5
2C1
330
1F
100
AcDbEntity
  8
0
  6
SLD-Solid
 62
     7
370
    25
100
AcDbLine
 10
31.55674955030463
 20
10.13013605180043
 30
0.0
 11
33.18174955030462
 21
10.13013605180043
 31
0.0
  0
LINE
  5
2C2
330
1F
100
AcDbEntity
  8
0
  6
SLD-Solid
 62
     7
370
    25
100
AcDbLine
 10
31.55674955030463
 20
10.36068821023136
 30
0.0
 11
31.55674955030463
 21
10.13013605180043
 31
0.0
  0
LINE
  5
2C3
330
1F
100
AcDbEntity
  8
0
  6
SLD-Solid
 62
     7
370
    25
100
AcDbLine
 10
33.18174955030462
 20
10.36068821023136
 30
0.0
 11
33.18174955030462
 21
10.13013605180043
 31
0.0
  0
LINE
  5
2C4
330
1F
100
AcDbEntity
  8
0
  6
SLD-Solid
 62
     7
370
    25
100
AcDbLine
 10
40.73174955030463
 20
10.63413605180038
 30
0.0
 11
40.73174955030463
 21
10.36068821023138
 31
0.0
  0
LINE
  5
2C5
330
1F
100
AcDbEntity
  8
0
  6
SLD-Solid
 62
     7
370
    25
100
AcDbLine
 10
42.35674955030463
 20
10.63413605180037
 30
0.0
 11
42.35674955030463
 21
10.36068821023138
 31
0.0
  0
LINE
  5
2C6
330
1F
100
AcDbEntity
  8
0
  6
SLD-Solid
 62
     7
370
    25
100
AcDbLine
 10
40.73174955030463
 20
10.13013605180045
 30
0.0
 11
42.35674955030463
 21
10.13013605180045
 31
0.0
  0
LINE
  5
2C7
330
1F
100
AcDbEntity
  8
0
  6
SLD-Solid
 62
     7
370
    25
100
AcDbLine
 10
40.73174955030463
 20
10.36068821023138
 30
0.0
 11
40.73174955030463
 21
10.13013605180045
 31
0.0
  0
LINE
  5
2C8
330
1F
100
AcDbEntity
  8
0
  6
SLD-Solid
 62
     7
370
    25
100
AcDbLine
 10
42.35674955030463
 20
10.36068821023138
 30
0.0
 11
42.35674955030463
 21
10.13013605180045
 31
0.0
  0
LINE
  5
2C9
330
1F
100
AcDbEntity
  8
0
  6
SLD-Solid
 62
     7
370
    25
100
AcDbLine
 10
31.62645751357278
 20
42.67260660892825
 30
0.0
 11
31.62645751357278
 21
42.54501061680977
 31
0.0
  0
LINE
  5
2CA
330
1F
100
AcDbEntity
  8
0
  6
SLD-Solid
 62
     7
370
    25
100
AcDbLine
 10
31.62645751357278
 20
42.80020260104673
 30
0.0
 11
31.62645751357278
 21
42.67260660892825
 31
0.0
  0
LINE
  5
2CB
330
1F
100
AcDbEntity
  8
0
  6
SLD-Solid
 62
     7
370
    25
100
AcDbLine
 10
42.28704158703672
 20
42.54501061680969
 30
0.0
 11
42.28704158703672
 21
42.80020260104665
 31
0.0
  0
LINE
  5
2CC
330
1F
100
AcDbEntity
  8
0
  6
SLD-Solid
 62
     7
370
    25
100
AcDbLine
 10
43.11274955030468
 20
35.04784015162213
 30
0.0
 11
30.84274955030481
 21
35.04784015162218
 31
0.0
  0
LINE
  5
2CD
330
1F
100
AcDbEntity
  8
0
  6
SLD-Solid
 62
     7
370
    25
100
AcDbLine
 10
30.84274955030469
 20
34.07443195197874
 30
0.0
 11
43.11274955030469
 21
34.07443195197867
 31
0.0
  0
LINE
  5
2CE
330
1F
100
AcDbEntity
  8
0
  6
SLD-Solid
 62
     7
370
    25
100
AcDbLine
 10
43.69235407268373
 20
34.0744319519787
 30
0.0
 11
43.11274955030469
 21
34.07443195197867
 31
0.0
  0
LINE
  5
2CF
330
1F
100
AcDbEntity
  8
0
  6
SLD-Solid
 62
     7
370
    25
100
AcDbLine
 10
43.11274955030468
 20
35.04784015162213
 30
0.0
 11
43.69235407268373
 21
35.04784015162214
 31
0.0
  0
ARC
  5
2D0
330
1F
100
AcDbEntity
  8
0
  6
SLD-Solid
 62
     7
370
    25
100
AcDbCircle
 10
40.3142224227369
 20
34.56113605180046
 30
0.0
 40
3.413012499999941
100
AcDbArc
 50
351.8015304390321
 51
8.198469560967423
  0
LINE
  5
2D1
330
1F
100
AcDbEntity
  8
0
  6
SLD-Solid
 62
     7
370
    25
100
AcDbLine
 10
30.84274955030481
 20
35.04784015162218
 30
0.0
 11
30.26314502792564
 21
35.04784015162218
 31
0.0
  0
LINE
  5
2D2
330
1F
100
AcDbEntity
  8
0
  6
SLD-Solid
 62
     7
370
    25
100
AcDbLine
 10
30.26314502792565
 20
34.07443195197872
 30
0.0
 11
30.84274955030469
 21
34.07443195197874
 31
0.0
  0
ARC
  5
2D3
330
1F
100
AcDbEntity
  8
0
  6
SLD-Solid
 62
     7
370
    25
100
AcDbCircle
 10
33.64127667787254
 20
34.56113605180047
 30
0.0
 40
3.413012499999998
100
AcDbArc
 50
171.8015304390323
 51
188.1984695609692
  0
LINE
  5
2D4
330
1F
100
AcDbEntity
  8
0
  6
SLD-Solid
 62
     7
370
    25
100
AcDbLine
 10
43.11274955030469
 20
34.04013605180042
 30
0.0
 11
43.65276287106995
 21
34.04013605180047
 31
0.0
  0
ARC
  5
2D5
330
1F
100
AcDbEntity
  8
0
  6
SLD-Solid
 62
     7
370
    25
100
AcDbCircle
 10
43.65276287106995
 20
34.08013605180047
 30
0.0
 40
0.0400000000000036
100
AcDbArc
 50
270.0000000000008
 51
351.8015304390098
  0
LINE
  5
2D6
330
1F
100
AcDbEntity
  8
0
  6
SLD-Solid
 62
     7
370
    25
100
AcDbLine
 10
43.11274955030469
 20
34.04013605180042
 30
0.0
 11
30.84274955030469
 21
34.04013605180049
 31
0.0
  0
LINE
  5
2D7
330
1F
100
AcDbEntity
  8
0
  6
SLD-Solid
 62
     7
370
    25
100
AcDbLine
 10
30.84274955030469
 20
34.07443195197874
 30
0.0
 11
30.84274955030469
 21
34.04013605180049
 31
0.0
  0
LINE
  5
2D8
330
1F
100
AcDbEntity
  8
0
  6
SLD-Solid
 62
     7
370
    25
100
AcDbLine
 10
43.65276287106995
 20
35.08213605180039
 30
0.0
 11
43.11274955030469
 21
35.08213605180038
 31
0.0
  0
ARC
  5
2D9
330
1F
100
AcDbEntity
  8
0
  6
SLD-Solid
 62
     7
370
    25
100
AcDbCircle
 10
43.65276287106993
 20
35.04213605180039
 30
0.0
 40
0.0400000000000086
100
AcDbArc
 50
8.198469560969388
 51
89.99999999997965
  0
LINE
  5
2DA
330
1F
100
AcDbEntity
  8
0
  6
SLD-Solid
 62
     7
370
    25
100
AcDbLine
 10
30.8427495503047
 20
35.08213605180043
 30
0.0
 11
43.11274955030469
 21
35.08213605180038
 31
0.0
  0
LINE
  5
2DB
330
1F
100
AcDbEntity
  8
0
  6
SLD-Solid
 62
     7
370
    25
100
AcDbLine
 10
30.8427495503047
 20
35.08213605180043
 30
0.0
 11
30.84274955030481
 21
35.04784015162218
 31
0.0
  0
LINE
  5
2DC
330
1F
100
AcDbEntity
  8
0
  6
SLD-Solid
 62
     7
370
    25
100
AcDbLine
 10
30.30273622953944
 20
35.08213605180043
 30
0.0
 11
30.8427495503047
 21
35.08213605180043
 31
0.0
  0
ARC
  5
2DD
330
1F
100
AcDbEntity
  8
0
  6
SLD-Solid
 62
     7
370
    25
100
AcDbCircle
 10
30.30273622953942
 20
35.04213605180043
 30
0.0
 40
0.039999999999997
100
AcDbArc
 50
89.99999999997965
 51
171.8015304390385
  0
LINE
  5
2DE
330
1F
100
AcDbEntity
  8
0
  6
SLD-Solid
 62
     7
370
    25
100
AcDbLine
 10
30.84274955030469
 20
34.04013605180049
 30
0.0
 11
30.30273622953944
 21
34.04013605180047
 31
0.0
  0
ARC
  5
2DF
330
1F
100
AcDbEntity
  8
0
  6
SLD-Solid
 62
     7
370
    25
100
AcDbCircle
 10
30.30273622953944
 20
34.08013605180048
 30
0.0
 40
0.0400000000000063
100
AcDbArc
 50
188.1984695609824
 51
270.0000000000008
  0
LINE
  5
2E0
330
1F
100
AcDbEntity
  8
0
  6
SLD-Solid
 62
     8
370
    25
100
AcDbLine
 10
42.35289948155275
 20
37.8322942868279
 30
0.0
 11
42.35142502012349
 21
37.83173579643643
 31
0.0
  0
LINE
  5
2E1
330
1F
100
AcDbEntity
  8
0
  6
SLD-Solid
 62
     8
370
    25
100
AcDbLine
 10
42.36588986260952
 20
37.82737384411047
 30
0.0
 11
42.36588986260952
 21
37.82513988254433
 31
0.0
  0
LINE
  5
2E2
330
1F
100
AcDbEntity
  8
0
  6
SLD-Solid
 62
     8
370
    25
100
AcDbLine
 10
31.54760923799938
 20
37.82737384411039
 30
0.0
 11
31.54760923799938
 21
37.82513988254447
 31
0.0
  0
LINE
  5
2E3
330
1F
100
AcDbEntity
  8
0
  6
SLD-Solid
 62
     8
370
    25
100
AcDbLine
 10
31.56059961905614
 20
37.8322942868278
 30
0.0
 11
31.56207408048559
 21
37.83173579643626
 31
0.0
  0
LINE
  5
2E4
330
1F
100
AcDbEntity
  8
0
  6
SLD-Solid
 62
     8
370
    25
100
AcDbLine
 10
42.35001273020681
 20
37.83557458197285
 30
0.0
 11
42.34845450004266
 21
37.83498436200703
 31
0.0
  0
LINE
  5
2E5
330
1F
100
AcDbEntity
  8
0
  6
SLD-Solid
 62
     8
370
    25
100
AcDbLine
 10
31.56348637040209
 20
37.83557458197276
 30
0.0
 11
31.56504460056643
 21
37.83498436200687
 31
0.0
  0
LINE
  5
2E6
330
1F
100
AcDbEntity
  8
0
  6
SLD-Solid
 62
     8
370
    25
100
AcDbLine
 10
42.36588986260939
 20
35.39890209023429
 30
0.0
 11
42.36588986260939
 21
35.40113605180042
 31
0.0
  0
LINE
  5
2E7
330
1F
100
AcDbEntity
  8
0
  6
SLD-Solid
 62
     8
370
    25
100
AcDbLine
 10
42.32691871943912
 20
35.39890209023419
 30
0.0
 11
42.32691871943914
 21
35.40113605180041
 31
0.0
  0
LINE
  5
2E8
330
1F
100
AcDbEntity
  8
0
  6
SLD-Solid
 62
     8
370
    25
100
AcDbLine
 10
42.32403196809317
 20
35.39890209023419
 30
0.0
 11
42.3240319680932
 21
35.40113605180041
 31
0.0
  0
LINE
  5
2E9
330
1F
100
AcDbEntity
  8
0
  6
SLD-Solid
 62
     8
370
    25
100
AcDbLine
 10
42.31104158703643
 20
35.39890209023429
 30
0.0
 11
42.31104158703643
 21
35.40113605180042
 31
0.0
  0
LINE
  5
2EA
330
1F
100
AcDbEntity
  8
0
  6
SLD-Solid
 62
     8
370
    25
100
AcDbLine
 10
31.60245751357255
 20
35.39890209023431
 30
0.0
 11
31.60245751357231
 21
35.40113605180036
 31
0.0
  0
LINE
  5
2EB
330
1F
100
AcDbEntity
  8
0
  6
SLD-Solid
 62
     8
370
    25
100
AcDbLine
 10
31.60245751357268
 20
35.08213605180042
 30
0.0
 11
31.60245751357268
 21
35.39890209023442
 31
0.0
  0
LINE
  5
2EC
330
1F
100
AcDbEntity
  8
0
  6
SLD-Solid
 62
     8
370
    25
100
AcDbLine
 10
42.31104158703684
 20
35.08213605180039
 30
0.0
 11
42.31104158703682
 21
35.39890209023429
 31
0.0
  0
LINE
  5
2ED
330
1F
100
AcDbEntity
  8
0
  6
SLD-Solid
 62
     8
370
    25
100
AcDbLine
 10
42.35001273020713
 20
35.08213605180039
 30
0.0
 11
42.35001273020715
 21
35.39890209023429
 31
0.0
  0
LINE
  5
2EE
330
1F
100
AcDbEntity
  8
0
  6
SLD-Solid
 62
     8
370
    25
100
AcDbLine
 10
31.56348637040243
 20
35.08213605180042
 30
0.0
 11
31.56348637040243
 21
35.39890209023442
 31
0.0
  0
LINE
  5
2EF
330
1F
100
AcDbEntity
  8
0
  6
SLD-Solid
 62
     8
370
    25
100
AcDbLine
 10
42.35289948155309
 20
35.08213605180039
 30
0.0
 11
42.3528994815531
 21
35.39890209023426
 31
0.0
  0
LINE
  5
2F0
330
1F
100
AcDbEntity
  8
0
  6
SLD-Solid
 62
     8
370
    25
100
AcDbLine
 10
31.56059961905649
 20
35.08213605180042
 30
0.0
 11
31.56059961905649
 21
35.39890209023442
 31
0.0
  0
LINE
  5
2F1
330
1F
100
AcDbEntity
  8
0
  6
SLD-Solid
 62
     8
370
    25
100
AcDbLine
 10
42.36588986260985
 20
35.08213605180039
 30
0.0
 11
42.36588986260988
 21
35.39890209023429
 31
0.0
  0
LINE
  5
2F2
330
1F
100
AcDbEntity
  8
0
  6
SLD-Solid
 62
     8
370
    25
100
AcDbLine
 10
31.54760923799972
 20
35.08213605180042
 30
0.0
 11
31.54760923799972
 21
35.39890209023438
 31
0.0
  0
LINE
  5
2F3
330
1F
100
AcDbEntity
  8
0
  6
SLD-Solid
 62
     8
370
    25
100
AcDbLine
 10
42.19771465081693
 20
42.86007788134535
 30
0.0
 11
42.19771465081695
 21
42.80583164582792
 31
0.0
  0
LINE
  5
2F4
330
1F
100
AcDbEntity
  8
0
  6
SLD-Solid
 62
     8
370
    25
100
AcDbLine
 10
42.22380862061909
 20
42.78006627799344
 30
0.0
 11
42.22380862061909
 21
42.85916665984077
 31
0.0
  0
LINE
  5
2F5
330
1F
100
AcDbEntity
  8
0
  6
SLD-Solid
 62
     8
370
    25
100
AcDbLine
 10
31.71578444979249
 20
42.80583164582778
 30
0.0
 11
31.71578444979249
 21
42.86007788134537
 31
0.0
  0
LINE
  5
2F6
330
1F
100
AcDbEntity
  8
0
  6
SLD-Solid
 62
     8
370
    25
100
AcDbLine
 10
31.68969047999034
 20
42.85916665984078
 30
0.0
 11
31.68969047999034
 21
42.78006627799344
 31
0.0
  0
LINE
  5
2F7
330
1F
100
AcDbEntity
  8
0
  6
SLD-Solid
 62
     8
370
    25
100
AcDbLine
 10
31.54342261407607
 20
42.6726066089283
 30
0.0
 11
31.54342261407607
 21
42.48513533651109
 31
0.0
  0
LINE
  5
2F8
330
1F
100
AcDbEntity
  8
0
  6
SLD-Solid
 62
     8
370
    25
100
AcDbLine
 10
31.54342261407608
 20
42.86007788134548
 30
0.0
 11
31.54342261407607
 21
42.6726066089283
 31
0.0
  0
LINE
  5
2F9
330
1F
100
AcDbEntity
  8
0
  6
SLD-Solid
 62
     8
370
    25
100
AcDbLine
 10
31.56951658387823
 20
42.67260660892825
 30
0.0
 11
31.56951658387823
 21
42.85916665984089
 31
0.0
  0
LINE
  5
2FA
330
1F
100
AcDbEntity
  8
0
  6
SLD-Solid
 62
     8
370
    25
100
AcDbLine
 10
31.56951658387823
 20
42.48604655801568
 30
0.0
 11
31.56951658387823
 21
42.67260660892825
 31
0.0
  0
LINE
  5
2FB
330
1F
100
AcDbEntity
  8
0
  6
SLD-Solid
 62
     8
370
    25
100
AcDbLine
 10
42.37007648653343
 20
42.48513533651103
 30
0.0
 11
42.37007648653343
 21
42.8600778813454
 31
0.0
  0
LINE
  5
2FC
330
1F
100
AcDbEntity
  8
0
  6
SLD-Solid
 62
     8
370
    25
100
AcDbLine
 10
42.34398251673127
 20
42.85916665984082
 30
0.0
 11
42.34398251673127
 21
42.48604655801561
 31
0.0
  0
LINE
  5
2FD
330
1F
100
AcDbEntity
  8
0
  6
SLD-Solid
 62
     8
370
    25
100
AcDbLine
 10
31.34174955030472
 20
33.08488000607397
 30
0.0
 11
31.34174955030472
 21
33.06790011736936
 31
0.0
  0
DIMENSION
  5
2FE
330
1F
100
AcDbEntity
  8
DIMS
100
AcDbDimension
  2
_D_1
 10
28.41724055582527
 20
10.13013605180043
 30
0.0
 11
28.41724055582527
 21
25.27203267269312
 31
0.0
 70
    32
  1
<>
 71
     2
 42
-1.0
  3
SLDDIMSTYLE0
100
AcDbAlignedDimension
 13
30.86245751357265
 23
43.23357673239654
 33
0.0
 14
31.55674955030461
 24
10.13013605180043
 34
0.0
 50
90.0000000000002
100
AcDbRotatedDimension
  0
MTEXT
  5
30D
330
1F
100
AcDbEntity
  8
NOTES
100
AcDbMText
 10
30.7205264470019
 20
9.400471188783166
 30
0.0
 40
0.7500000000000001
 41
0.0
 71
     1
 72
     1
  1
Front view 
  7
SLDTEXTSTYLE1
 73
     1
 44
1.0
  0
LINE
  5
30E
330
1F
100
AcDbEntity
  8
0
  6
SLD-Solid
 62
     7
370
    25
100
AcDbLine
 10
34.14657915458663
 20
75.5367511133638
 30
0.0
 11
34.13567961989501
 21
75.53045894591888
 31
0.0
  0
LINE
  5
30F
330
1F
100
AcDbEntity
  8
0
  6
SLD-Solid
 62
     7
370
    25
100
AcDbLine
 10
34.22182685652007
 20
75.43585702941539
 30
0.0
 11
34.23517143005346
 21
75.44356068773924
 31
0.0
  0
LINE
  5
310
330
1F
100
AcDbEntity
  8
0
  6
SLD-Solid
 62
     7
370
    25
100
AcDbLine
 10
40.68828268431536
 20
80.05337394321573
 30
0.0
 11
33.33437215997528
 21
75.80805176173752
 31
0.0
  0
LINE
  5
311
330
1F
100
AcDbEntity
  8
0
  6
SLD-Solid
 62
     7
370
    25
100
AcDbLine
 10
37.41783345591016
 20
69.45683027136641
 30
0.0
 11
44.77174398025026
 21
73.70215245284463
 31
0.0
  0
LINE
  5
312
330
1F
100
AcDbEntity
  8
0
  6
SLD-Solid
 62
     7
370
    25
100
AcDbLine
 10
33.29184184195469
 20
75.77994309822637
 30
0.0
 11
33.21932910248999
 21
75.72547767271213
 31
0.0
  0
LINE
  5
313
330
1F
100
AcDbEntity
  8
0
  6
SLD-Solid
 62
     7
370
    25
100
AcDbLine
 10
44.79797496234114
 20
73.78194071165305
 30
0.0
 11
41.87538109631657
 21
79.35150063017586
 31
0.0
  0
LINE
  5
314
330
1F
100
AcDbEntity
  8
0
  6
SLD-Solid
 62
     7
370
    25
100
AcDbLine
 10
44.95107607300054
 20
73.6177965007439
 30
0.0
 11
37.44967433586635
 21
69.28732945447945
 31
0.0
  0
LINE
  5
315
330
1F
100
AcDbEntity
  8
0
  6
SLD-Solid
 62
     7
370
    25
100
AcDbLine
 10
46.47418921825089
 20
70.80930543068239
 30
0.0
 11
45.00825324735589
 21
73.60292596124332
 31
0.0
  0
LINE
  5
316
330
1F
100
AcDbEntity
  8
0
  6
SLD-Solid
 62
     7
370
    25
100
AcDbLine
 10
46.48854107490761
 20
70.48851503734792
 30
0.0
 11
46.4885410749076
 21
70.75467397397857
 31
0.0
  0
LINE
  5
317
330
1F
100
AcDbEntity
  8
0
  6
SLD-Solid
 62
     7
370
    25
100
AcDbLine
 10
46.45500233203131
 20
70.7668581611294
 30
0.0
 11
46.45500233203131
 21
70.74908770228954
 31
0.0
  0
SPLINE
  5
318
330
1F
100
AcDbEntity
  8
0
  6
SLD-Solid
 62
     7
370
    25
100
AcDbSpline
210
0.0
220
0.0
230
1.0
 70
    12
 71
     3
 72
     9
 73
     5
 74
     0
 42
0.00000001
 43
0.00000001
 40
0.0
 40
0.0
 40
0.0
 40
0.0
 40
0.0477587003960873
 40
1.0
 40
1.0
 40
1.0
 40
1.0
 10
32.76491421757204
 20
75.46284531475361
 30
0.0
 41
1.0
 10
32.7637026268406
 20
75.46224814776441
 30
0.0
 41
1.0
 10
32.73833362137376
 20
75.4497443110972
 30
0.0
 41
1.0
 10
32.71562737996056
 20
75.43262775068833
 30
0.0
 41
1.0
 10
32.69400555912812
 20
75.41632865495981
 30
0.0
 41
1.0
  0
LINE
  5
319
330
1F
100
AcDbEntity
  8
0
  6
SLD-Solid
 62
     7
370
    25
100
AcDbLine
 10
33.2453397284375
 20
75.7404932874553
 30
0.0
 11
32.76450711723065
 21
75.46291452943558
 31
0.0
  0
LINE
  5
31A
330
1F
100
AcDbEntity
  8
0
  6
SLD-Solid
 62
     7
370
    25
100
AcDbLine
 10
32.69400555912812
 20
75.41632865495981
 30
0.0
 11
28.12260818870261
 21
71.98268230794726
 31
0.0
  0
SPLINE
  5
31B
330
1F
100
AcDbEntity
  8
0
  6
SLD-Solid
 62
     7
370
    25
100
AcDbSpline
210
0.0
220
0.0
230
1.0
 70
    12
 71
     3
 72
    12
 73
     8
 74
     0
 42
0.00000001
 43
0.00000001
 40
0.0
 40
0.0
 40
0.0
 40
0.0
 40
0.1509035841978894
 40
0.3957559057779994
 40
0.6410514405951303
 40
0.888819017240843
 40
1.0
 40
1.0
 40
1.0
 40
1.0
 10
28.06447030323608
 20
71.92526271110951
 30
0.0
 41
1.0
 10
28.05599629050691
 20
71.91514960574399
 30
0.0
 41
1.0
 10
28.03377256003002
 20
71.8886272325649
 30
0.0
 41
1.0
 10
28.00980360209831
 20
71.83841898177934
 30
0.0
 41
1.0
 10
27.99289221460175
 20
71.77725884191769
 30
0.0
 41
1.0
 10
27.98709290935382
 20
71.7247826651503
 30
0.0
 41
1.0
 10
27.99090077201388
 20
71.69310978285856
 30
0.0
 41
1.0
 10
27.99208022210963
 20
71.68329940171132
 30
0.0
 41
1.0
  0
LINE
  5
31C
330
1F
100
AcDbEntity
  8
0
  6
SLD-Solid
 62
     7
370
    25
100
AcDbLine
 10
27.98922541826959
 20
71.71567871322965
 30
0.0
 11
27.98922541826959
 21
71.43366532028134
 31
0.0
  0
LINE
  5
31D
330
1F
100
AcDbEntity
  8
0
  6
SLD-Solid
 62
     7
370
    25
100
AcDbLine
 10
47.14551175436993
 20
71.28750754694838
 30
0.0
 11
42.6102641763455
 21
79.9302866291827
 31
0.0
  0
LINE
  5
31E
330
1F
100
AcDbEntity
  8
0
  6
SLD-Solid
 62
     7
370
    25
100
AcDbLine
 10
41.38313756863947
 20
80.43834398404015
 30
0.0
 11
40.90230495743263
 21
80.16076522602042
 31
0.0
  0
SPLINE
  5
31F
330
1F
100
AcDbEntity
  8
0
  6
SLD-Solid
 62
     7
370
    25
100
AcDbSpline
210
0.0
220
0.0
230
1.0
 70
    12
 71
     3
 72
    22
 73
    18
 74
     0
 42
0.00000001
 43
0.00000001
 40
0.0
 40
0.0
 40
0.0
 40
0.0
 40
0.0435421959952523
 40
0.1170700406649798
 40
0.1912542937272295
 40
0.2665041244869434
 40
0.3431768115253216
 40
0.4213126290734534
 40
0.4906074027539852
 40
0.5580212654959489
 40
0.6234739497281921
 40
0.6872153619570458
 40
0.7496071096997848
 40
0.8110063726311638
 40
0.8717265114901775
 40
0.9378411803966231
 40
1.0
 40
1.0
 40
1.0
 40
1.0
 10
42.61026417634548
 20
79.93028662918273
 30
0.0
 41
1.0
 10
42.59960367711608
 20
79.94987756156108
 30
0.0
 41
1.0
 10
42.57094124864253
 20
80.00255086380906
 30
0.0
 41
1.0
 10
42.51719062016161
 20
80.08463908520322
 30
0.0
 41
1.0
 10
42.44734699363335
 20
80.1743301200882
 30
0.0
 41
1.0
 10
42.36920291759641
 20
80.25768011164729
 30
0.0
 41
1.0
 10
42.28291289548005
 20
80.33356587648231
 30
0.0
 41
1.0
 10
42.19256206005232
 20
80.39752620902273
 30
0.0
 41
1.0
 10
42.10063046516779
 20
80.4486795553204
 30
0.0
 41
1.0
 10
42.00985168244893
 20
80.48703918685418
 30
0.0
 41
1.0
 10
41.91807979308081
 20
80.51417377647063
 30
0.0
 41
1.0
 10
41.82612440199521
 20
80.5301073201095
 30
0.0
 41
1.0
 10
41.73473396855876
 20
80.5348985293932
 30
0.0
 41
1.0
 10
41.64466444904006
 20
80.52871639878065
 30
0.0
 41
1.0
 10
41.55420300464903
 20
80.51087519932142
 30
0.0
 41
1.0
 10
41.4657739099392
 20
80.48203630713012
 30
0.0
 41
1.0
 10
41.41018628304238
 20
80.45246022920657
 30
0.0
 41
1.0
 10
41.38324960803183
 20
80.4381282412519
 30
0.0
 41
1.0
  0
SPLINE
  5
320
330
1F
100
AcDbEntity
  8
0
  6
SLD-Solid
 62
     7
370
    25
100
AcDbSpline
210
0.0
220
0.0
230
1.0
 70
    12
 71
     3
 72
    10
 73
     6
 74
     0
 42
0.00000001
 43
0.00000001
 40
0.0
 40
0.0
 40
0.0
 40
0.0
 40
0.180331677515225
 40
0.7169002417986101
 40
1.0
 40
1.0
 40
1.0
 40
1.0
 10
47.1567450411367
 20
71.22576024157894
 30
0.0
 41
1.0
 10
47.15738882182915
 20
71.22965468018216
 30
0.0
 41
1.0
 10
47.15994814219064
 20
71.24513684069213
 30
0.0
 41
1.0
 10
47.15566269753664
 20
71.26782920956681
 30
0.0
 41
1.0
 10
47.14656201772304
 20
71.28305820495032
 30
0.0
 41
1.0
 10
47.14341879480712
 20
71.28831804578162
 30
0.0
 41
1.0
  0
LINE
  5
321
330
1F
100
AcDbEntity
  8
0
  6
SLD-Solid
 62
     7
370
    25
100
AcDbLine
 10
47.15833800023655
 20
70.91097096971512
 30
0.0
 11
47.15833800023655
 21
71.23546096057893
 31
0.0
  0
LINE
  5
322
330
1F
100
AcDbEntity
  8
0
  6
SLD-Solid
 62
     7
370
    25
100
AcDbLine
 10
46.68895973299028
 20
51.08723775463922
 30
0.0
 11
46.68895973299043
 21
69.73534054011752
 31
0.0
  0
LINE
  5
323
330
1F
100
AcDbEntity
  8
0
  6
SLD-Solid
 62
     7
370
    25
100
AcDbLine
 10
28.48967533857521
 20
70.19252908273832
 30
0.0
 11
28.48967533857506
 21
51.49380899432713
 31
0.0
  0
LINE
  5
324
330
1F
100
AcDbEntity
  8
0
  6
SLD-Solid
 62
     7
370
    25
100
AcDbLine
 10
40.92281105408698
 20
80.1228185495243
 30
0.0
 11
40.90230495743258
 21
80.11098063190286
 31
0.0
  0
SPLINE
  5
325
330
1F
100
AcDbEntity
  8
0
  6
SLD-Solid
 62
     7
370
    25
100
AcDbSpline
210
0.0
220
0.0
230
1.0
 70
    12
 71
     3
 72
    18
 73
    14
 74
     0
 42
0.00000001
 43
0.00000001
 40
0.0
 40
0.0
 40
0.0
 40
0.0
 40
0.0510004005609262
 40
0.1472022268199474
 40
0.2432781514471743
 40
0.3391837510391624
 40
0.4349531964967488
 40
0.5306568275846998
 40
0.6263780750805547
 40
0.7221817612088264
 40
0.8181539989233999
 40
0.9143837010606194
 40
1.0
 40
1.0
 40
1.0
 40
1.0
 10
37.58345187755036
 20
64.94280363033612
 30
0.0
 41
1.0
 10
37.59460923527477
 20
64.93666482974031
 30
0.0
 41
1.0
 10
37.62681266670661
 20
64.91894643718325
 30
0.0
 41
1.0
 10
37.68618462650426
 20
64.89425699768924
 30
0.0
 41
1.0
 10
37.76244588831757
 20
64.87127287025967
 30
0.0
 41
1.0
 10
37.84348836604354
 20
64.85533463417913
 30
0.0
 41
1.0
 10
37.92743774185053
 20
64.84661610293898
 30
0.0
 41
1.0
 10
38.01258865753972
 20
64.8452831087071
 30
0.0
 41
1.0
 10
38.0971493537395
 20
64.85135786396535
 30
0.0
 41
1.0
 10
38.17942712790345
 20
64.86470409903234
 30
0.0
 41
1.0
 10
38.25752786708082
 20
64.88523632279673
 30
0.0
 41
1.0
 10
38.32781392634275
 20
64.91112634422518
 30
0.0
 41
1.0
 10
38.36815126140584
 20
64.93266353957529
 30
0.0
 41
1.0
 10
38.38714278894416
 20
64.9428036303361
 30
0.0
 41
1.0
  0
LINE
  5
326
330
1F
100
AcDbEntity
  8
0
  6
SLD-Solid
 62
     7
370
    25
100
AcDbLine
 10
38.38714278894416
 20
64.94280363033612
 30
0.0
 11
47.06334299410311
 21
69.95146739636839
 31
0.0
  0
LINE
  5
327
330
1F
100
AcDbEntity
  8
0
  6
SLD-Solid
 62
     7
370
    25
100
AcDbLine
 10
28.11529207746251
 20
70.40865593898918
 30
0.0
 11
37.58345187755036
 21
64.94280363033609
 31
0.0
  0
SPLINE
  5
328
330
1F
100
AcDbEntity
  8
0
  6
SLD-Solid
 62
     7
370
    25
100
AcDbSpline
210
0.0
220
0.0
230
1.0
 70
    12
 71
     3
 72
    13
 73
     9
 74
     0
 42
0.00000001
 43
0.00000001
 40
0.0
 40
0.0
 40
0.0
 40
0.0
 40
0.0461236379447542
 40
0.2505122274938875
 40
0.4539854795493271
 40
0.6561805383617481
 40
0.8567574805874671
 40
1.0
 40
1.0
 40
1.0
 40
1.0
 10
47.23693329724133
 20
70.16768193041925
 30
0.0
 41
1.0
 10
47.23958805263678
 20
70.18067909565517
 30
0.0
 41
1.0
 10
47.25400687815014
 20
70.25127085639728
 30
0.0
 41
1.0
 10
47.26791201468662
 20
70.38225582780024
 30
0.0
 41
1.0
 10
47.27798841775397
 20
70.55879265661977
 30
0.0
 41
1.0
 10
47.27404119273061
 20
70.73467996858571
 30
0.0
 41
1.0
 10
47.26098860263662
 20
70.89252191641023
 30
0.0
 41
1.0
 10
47.24394658553548
 20
70.99018070665238
 30
0.0
 41
1.0
 10
47.2368465178028
 20
71.03086744116825
 30
0.0
 41
1.0
  0
SPLINE
  5
329
330
1F
100
AcDbEntity
  8
0
  6
SLD-Solid
 62
     7
370
    25
100
AcDbSpline
210
0.0
220
0.0
230
1.0
 70
    12
 71
     3
 72
    11
 73
     7
 74
     0
 42
0.00000001
 43
0.00000001
 40
0.0
 40
0.0
 40
0.0
 40
0.0
 40
0.1153992126629642
 40
0.4610406596256636
 40
0.8116760409818821
 40
1.0
 40
1.0
 40
1.0
 40
1.0
 10
47.23572639492375
 20
71.03592577768738
 30
0.0
 41
1.0
 10
47.23494587584027
 20
71.04171685196596
 30
0.0
 41
1.0
 10
47.23182756138391
 20
71.06485323776731
 30
0.0
 41
1.0
 10
47.21353333810544
 20
71.10363582445078
 30
0.0
 41
1.0
 10
47.18853436455336
 20
71.14410298893998
 30
0.0
 41
1.0
 10
47.16615709752759
 20
71.16587202383975
 30
0.0
 41
1.0
 10
47.15833800023655
 20
71.17347859177397
 30
0.0
 41
1.0
  0
SPLINE
  5
32A
330
1F
100
AcDbEntity
  8
0
  6
SLD-Solid
 62
     7
370
    25
100
AcDbSpline
210
0.0
220
0.0
230
1.0
 70
    12
 71
     3
 72
    12
 73
     8
 74
     0
 42
0.00000001
 43
0.00000001
 40
0.0
 40
0.0
 40
0.0
 40
0.0
 40
0.1196813718020037
 40
0.3464785605913819
 40
0.5732550556176014
 40
0.7977476082090593
 40
1.0
 40
1.0
 40
1.0
 40
1.0
 10
47.06334299410316
 20
69.95146739636833
 30
0.0
 41
1.0
 10
47.07404070359086
 20
69.95794790150222
 30
0.0
 41
1.0
 10
47.10501066097954
 20
69.97670901742936
 30
0.0
 41
1.0
 10
47.14933022492202
 20
70.012089395625
 30
0.0
 41
1.0
 10
47.19137305196045
 20
70.05871989464923
 30
0.0
 41
1.0
 10
47.22173696968916
 20
70.10782024560055
 30
0.0
 41
1.0
 10
47.23125911599539
 20
70.14229829030782
 30
0.0
 41
1.0
 10
47.23577206193831
 20
70.15863888695253
 30
0.0
 41
1.0
  0
SPLINE
  5
32B
330
1F
100
AcDbEntity
  8
0
  6
SLD-Solid
 62
     7
370
    25
100
AcDbSpline
210
0.0
220
0.0
230
1.0
 70
    12
 71
     3
 72
    13
 73
     9
 74
     0
 42
0.00000001
 43
0.00000001
 40
0.0
 40
0.0
 40
0.0
 40
0.0
 40
0.0463741233107583
 40
0.2506611065864293
 40
0.4540332074037335
 40
0.6561277503973137
 40
0.8566049812072042
 40
1.0
 40
1.0
 40
1.0
 40
1.0
 10
27.94174765260815
 20
71.48834042072764
 30
0.0
 41
1.0
 10
27.93907679238024
 20
71.47526626193134
 30
0.0
 41
1.0
 10
27.92464027622707
 20
71.40459790471827
 30
0.0
 41
1.0
 10
27.91072154650041
 20
71.27353529131213
 30
0.0
 41
1.0
 10
27.90064719908945
 20
71.09699803739285
 30
0.0
 41
1.0
 10
27.90459320225405
 20
70.9211107058815
 30
0.0
 41
1.0
 10
27.91765370043509
 20
70.76320450425838
 30
0.0
 41
1.0
 10
27.93470784869675
 20
70.66548234921368
 30
0.0
 41
1.0
 10
27.94181944293938
 20
70.62473212794603
 30
0.0
 41
1.0
  0
SPLINE
  5
32C
330
1F
100
AcDbEntity
  8
0
  6
SLD-Solid
 62
     7
370
    25
100
AcDbSpline
210
0.0
220
0.0
230
1.0
 70
    12
 71
     3
 72
    10
 73
     6
 74
     0
 42
0.00000001
 43
0.00000001
 40
0.0
 40
0.0
 40
0.0
 40
0.0
 40
0.0044177101316889
 40
0.5565865748558726
 40
1.0
 40
1.0
 40
1.0
 40
1.0
 10
27.98922541826959
 20
71.59655871710213
 30
0.0
 41
1.0
 10
27.98911404856279
 20
71.59643543905294
 30
0.0
 41
1.0
 10
27.97508259747177
 20
71.58090365785651
 30
0.0
 41
1.0
 10
27.95833549770689
 20
71.5494130601865
 30
0.0
 41
1.0
 10
27.9488225096212
 20
71.51690009474856
 30
0.0
 41
1.0
 10
27.94458560557685
 20
71.50241943803829
 30
0.0
 41
1.0
  0
SPLINE
  5
32D
330
1F
100
AcDbEntity
  8
0
  6
SLD-Solid
 62
     7
370
    25
100
AcDbSpline
210
0.0
220
0.0
230
1.0
 70
    12
 71
     3
 72
    13
 73
     9
 74
     0
 42
0.00000001
 43
0.00000001
 40
0.0
 40
0.0
 40
0.0
 40
0.0
 40
0.0473489628604361
 40
0.2600490975288052
 40
0.4758223894454354
 40
0.6962646878602616
 40
0.9205903416416635
 40
1.0
 40
1.0
 40
1.0
 40
1.0
 10
27.94384083787543
 20
70.61409854920538
 30
0.0
 41
1.0
 10
27.94439025904615
 20
70.61024235772632
 30
0.0
 41
1.0
 10
27.94740777983174
 20
70.58906345425208
 30
0.0
 41
1.0
 10
27.96489435316622
 20
70.55203185556024
 30
0.0
 41
1.0
 10
27.99605216421197
 20
70.50442751020677
 30
0.0
 41
1.0
 10
28.03942980069946
 20
70.46039067999303
 30
0.0
 41
1.0
 10
28.08103638877475
 20
70.4290795864875
 30
0.0
 41
1.0
 10
28.10819232999104
 20
70.41288889255812
 30
0.0
 41
1.0
 10
28.11529207746259
 20
70.40865593898924
 30
0.0
 41
1.0
  0
LINE
  5
32E
330
1F
100
AcDbEntity
  8
0
  6
SLD-Solid
 62
     7
370
    25
100
AcDbLine
 10
33.40572026489249
 20
48.43901394191445
 30
0.0
 11
33.49270452234666
 21
48.38879899894128
 31
0.0
  0
ARC
  5
32F
330
1F
100
AcDbEntity
  8
0
  6
SLD-Solid
 62
     7
370
    25
100
AcDbCircle
 10
36.94012357014269
 20
70.35082115213889
 30
0.0
 40
0.959116505340254
100
AcDbArc
 50
294.2581496359885
 51
300.0073317702822
  0
LINE
  5
330
330
1F
100
AcDbEntity
  8
0
  6
SLD-Solid
 62
     7
370
    25
100
AcDbLine
 10
34.41158131585527
 20
75.04595108598392
 30
0.0
 11
37.33417518187981
 21
69.47639116746117
 31
0.0
  0
ARC
  5
331
330
1F
100
AcDbEntity
  8
0
  6
SLD-Solid
 62
     7
370
    25
100
AcDbCircle
 10
34.01752970411845
 20
75.92038107066138
 30
0.0
 40
0.9591165053398921
100
AcDbArc
 50
294.2581496359777
 51
300.0073317702736
  0
LINE
  5
332
330
1F
100
AcDbEntity
  8
0
  6
SLD-Solid
 62
     7
370
    25
100
AcDbLine
 10
34.4971942418353
 20
75.08982318461592
 30
0.0
 11
37.41978810785984
 21
69.5202632660932
 31
0.0
  0
LINE
  5
333
330
1F
100
AcDbEntity
  8
0
  6
SLD-Solid
 62
     7
370
    25
100
AcDbLine
 10
34.4971942418353
 20
75.08982318461592
 30
0.0
 11
41.85110476617538
 21
79.33514536609414
 31
0.0
  0
LINE
  5
334
330
1F
100
AcDbEntity
  8
0
  6
SLD-Solid
 62
     7
370
    25
100
AcDbLine
 10
41.85110476617538
 20
79.33514536609414
 30
0.0
 11
44.77369863219991
 21
73.76558544757138
 31
0.0
  0
LINE
  5
335
330
1F
100
AcDbEntity
  8
0
  6
SLD-Solid
 62
     7
370
    25
100
AcDbLine
 10
37.41978810785984
 20
69.5202632660932
 30
0.0
 11
44.77369863219991
 21
73.76558544757138
 31
0.0
  0
LINE
  5
336
330
1F
100
AcDbEntity
  8
0
  6
SLD-Solid
 62
     7
370
    25
100
AcDbLine
 10
34.41158131585527
 20
75.04595108598392
 30
0.0
 11
34.32727564921937
 21
75.00999197689269
 31
0.0
  0
LINE
  5
337
330
1F
100
AcDbEntity
  8
0
  6
SLD-Solid
 62
     7
370
    25
100
AcDbLine
 10
37.33303606394477
 20
69.47590529660899
 30
0.0
 11
37.33417518187981
 21
69.47639116746117
 31
0.0
  0
LINE
  5
338
330
1F
100
AcDbEntity
  8
0
  6
SLD-Solid
 62
     7
370
    25
100
AcDbLine
 10
37.17757393742806
 20
69.57820506787688
 30
0.0
 11
37.33303606394477
 21
69.47590529660899
 31
0.0
  0
LINE
  5
339
330
1F
100
AcDbEntity
  8
0
  6
SLD-Solid
 62
     7
370
    25
100
AcDbLine
 10
34.4971942418353
 20
75.08982318461592
 30
0.0
 11
34.48171809423724
 21
75.08322210426157
 31
0.0
  0
LINE
  5
33A
330
1F
100
AcDbEntity
  8
0
  6
SLD-Solid
 62
     7
370
    25
100
AcDbLine
 10
34.43208741250969
 20
75.05778900360535
 30
0.0
 11
34.41158131585527
 21
75.04595108598392
 31
0.0
  0
ARC
  5
33B
330
1F
100
AcDbEntity
  8
0
  6
SLD-Solid
 62
     7
370
    25
100
AcDbCircle
 10
34.20365169556584
 20
75.56470493674226
 30
0.0
 40
0.5560095683023036
100
AcDbArc
 50
294.2581496359052
 51
300.0073317703103
  0
LWPOLYLINE
  5
33C
330
1F
100
AcDbEntity
  8
0
  6
SLD-Solid
 62
     7
370
    25
100
AcDbPolyline
 90
       16
 70
   128
 43
0.0
 10
33.29645865233086
 20
75.78299308590061
 10
33.35973903094424
 20
75.82143085925988
 10
33.42999528505765
 20
75.84704025332256
 10
33.50631490235548
 20
75.85948864449847
 10
33.58770661748223
 20
75.85861434881511
 10
33.67311328693687
 20
75.84442872192456
 10
33.76142561961506
 20
75.81711601161238
 10
33.85149658466227
 20
75.77703096472422
 10
33.94215630950384
 20
75.72469421959212
 10
34.03222727455105
 20
75.6607855438054
 10
34.12053960722924
 20
75.58613500515612
 10
34.20594627668389
 20
75.50171219043402
 10
34.28733799181065
 20
75.40861361210091
 10
34.36365760910846
 20
75.30804846641078
 10
34.43391386322188
 20
75.20132292795444
 10
34.4971942418353
 20
75.08982318461592
  0
LWPOLYLINE
  5
33D
330
1F
100
AcDbEntity
  8
0
  6
SLD-Solid
 62
     7
370
    25
100
AcDbPolyline
 90
       16
 70
   128
 43
0.0
 10
33.33966225012553
 20
75.77743852675177
 10
33.37358395100469
 20
75.79597055884801
 10
33.44202915501207
 20
75.82091979964153
 10
33.5163814221751
 20
75.83304729895603
 10
33.59567503975637
 20
75.8321955406725
 10
33.67888011506508
 20
75.81837558771957
 10
33.76491595205645
 20
75.79176693838433
 10
33.85266508778244
 20
75.75271519492706
 10
33.94098780638365
 20
75.70172757478059
 10
34.02873694210965
 20
75.63946632263638
 10
34.11477277910102
 20
75.5667401089834
 10
34.19797785440973
 20
75.48449352681858
 10
34.277271471991
 20
75.39379482294916
 10
34.35162373915403
 20
75.29582202323684
 10
34.42006894316141
 20
75.19184763199402
 10
34.48171809423724
 20
75.08322210426157
  0
LINE
  5
33E
330
1F
100
AcDbEntity
  8
0
  6
SLD-Solid
 62
     7
370
    25
100
AcDbLine
 10
33.30600912219834
 20
75.7678927620488
 30
0.0
 11
33.29645865233086
 21
75.78299308590061
 31
0.0
  0
LWPOLYLINE
  5
33F
330
1F
100
AcDbEntity
  8
0
  6
SLD-Solid
 62
     7
370
    25
100
AcDbPolyline
 90
       16
 70
   128
 43
0.0
 10
40.68828268431535
 20
80.05337394321572
 10
40.7136495552843
 20
80.06675304073808
 10
40.78390580939772
 20
80.09236243480078
 10
40.86022542669554
 20
80.10481082597668
 10
40.9416171418223
 20
80.10393653029331
 10
41.02702381127695
 20
80.08975090340277
 10
41.11533614395513
 20
80.06243819309059
 10
41.20540710900235
 20
80.02235314620243
 10
41.29606683384392
 20
79.97001640107032
 10
41.38613779889113
 20
79.90610772528362
 10
41.47445013156932
 20
79.83145718663434
 10
41.55985680102397
 20
79.74703437191224
 10
41.64124851615072
 20
79.65393579357911
 10
41.71756813344855
 20
79.553370647889
 10
41.78782438756197
 20
79.44664510943264
 10
41.85110476617538
 20
79.33514536609414
  0
LINE
  5
340
330
1F
100
AcDbEntity
  8
0
  6
SLD-Solid
 62
     7
370
    25
100
AcDbLine
 10
34.43208741250969
 20
75.05778900360535
 30
0.0
 11
34.32595013270814
 21
75.01251800136639
 31
0.0
  0
LWPOLYLINE
  5
341
330
1F
100
AcDbEntity
  8
0
  6
SLD-Solid
 62
     7
370
    25
100
AcDbPolyline
 90
        7
 70
   128
 43
0.0
 10
44.77174398025027
 20
73.7021524528446
 10
44.77674698618971
 20
73.70627210789549
 10
44.78152412760336
 20
73.71457864310818
 10
44.78365862667098
 20
73.72546150231763
 10
44.78300502080855
 20
73.73817903665346
 10
44.77960785217543
 20
73.75186456716742
 10
44.77369863219991
 20
73.76558544757138
  0
LWPOLYLINE
  5
342
330
1F
100
AcDbEntity
  8
0
  6
SLD-Solid
 62
     7
370
    25
100
AcDbPolyline
 90
        9
 70
   128
 43
0.0
 10
37.39666130806716
 20
69.4560543009213
 10
37.40681437487684
 20
69.45411598516147
 10
37.41574223238268
 20
69.45578579184888
 10
37.42283646184963
 20
69.46094992641729
 10
37.42761360326329
 20
69.46925646163
 10
37.42974810233092
 20
69.48013932083943
 10
37.42909449646848
 20
69.49285685517528
 10
37.42569732783537
 20
69.50654238568923
 10
37.41978810785984
 20
69.5202632660932
  0
LINE
  5
343
330
1F
100
AcDbEntity
  8
0
  6
SLD-Solid
 62
     7
370
    25
100
AcDbLine
 10
37.39274856036544
 20
69.4815577031529
 30
0.0
 11
37.39666130806716
 21
69.4560543009213
 31
0.0
  0
LWPOLYLINE
  5
344
330
1F
100
AcDbEntity
  8
0
  6
SLD-Solid
 62
     7
370
    25
100
AcDbPolyline
 90
        9
 70
   128
 43
0.0
 10
37.39274856036544
 20
69.4815577031529
 10
37.39782509377028
 20
69.480588545273
 10
37.4022890225232
 20
69.4814234486167
 10
37.40583613725667
 20
69.4840055159009
 10
37.40822470796351
 20
69.48815878350725
 10
37.40929195749732
 20
69.49360021311197
 10
37.4089651545661
 20
69.49995898027989
 10
37.40726657024955
 20
69.50680174553686
 10
37.40513785278632
 20
69.51201492143797
  0
LINE
  5
345
330
1F
100
AcDbEntity
  8
0
  6
SLD-Solid
 62
     7
370
    25
100
AcDbLine
 10
37.39666130806716
 20
69.4560543009213
 30
0.0
 11
37.3363536554218
 21
69.47733231864935
 31
0.0
  0
LINE
  5
346
330
1F
100
AcDbEntity
  8
0
  6
SLD-Solid
 62
     7
370
    25
100
AcDbLine
 10
37.32452542643956
 20
69.48150560769204
 30
0.0
 11
37.23039221293845
 21
69.51471811220543
 31
0.0
  0
LINE
  5
347
330
1F
100
AcDbEntity
  8
0
  6
SLD-Solid
 62
     7
370
    25
100
AcDbLine
 10
37.23039221293845
 20
69.51471811220543
 30
0.0
 11
37.22647946523671
 21
69.54022151443702
 31
0.0
  0
LINE
  5
348
330
1F
100
AcDbEntity
  8
0
  6
SLD-Solid
 62
     7
370
    25
100
AcDbLine
 10
37.39274856036544
 20
69.4815577031529
 30
0.0
 11
37.36548566310504
 21
69.4911767213998
 31
0.0
  0
LINE
  5
349
330
1F
100
AcDbEntity
  8
0
  6
SLD-Solid
 62
     7
370
    25
100
AcDbLine
 10
37.24548895203526
 20
69.53351450165576
 30
0.0
 11
37.22647946523671
 21
69.54022151443702
 31
0.0
  0
LINE
  5
34A
330
1F
100
AcDbEntity
  8
0
  6
SLD-Solid
 62
     7
370
    25
100
AcDbLine
 10
37.22647946523671
 20
69.54022151443702
 30
0.0
 11
37.23117614724688
 21
69.54293285124906
 31
0.0
  0
ARC
  5
34B
330
1F
100
AcDbEntity
  8
0
  6
SLD-Solid
 62
     7
370
    25
100
AcDbCircle
 10
33.32112170911824
 20
75.74140717591256
 30
0.0
 40
0.0483492945101838
100
AcDbArc
 50
120.6706034265758
 51
162.8557828766591
  0
LWPOLYLINE
  5
34C
330
1F
100
AcDbEntity
  8
0
  6
SLD-Solid
 62
     7
370
    25
100
AcDbPolyline
 90
        9
 70
   128
 43
0.0
 10
41.85110476617538
 20
79.33514536609414
 10
41.85991575963234
 20
79.34033850893681
 10
41.86697308129538
 20
79.34472850871896
 10
41.87200552225082
 20
79.34814666021084
 10
41.87481968861493
 20
79.35046160576758
 10
41.87530743355256
 20
79.35158438332967
 10
41.87345001329928
 20
79.35147184518506
 10
41.86931880747377
 20
79.3501283161115
 10
41.86307257599911
 20
79.3476054271779
  0
ARC
  5
34D
330
1F
100
AcDbEntity
  8
0
  6
SLD-Solid
 62
     7
370
    25
100
AcDbCircle
 10
44.73140835211692
 20
73.85455192514935
 30
0.0
 40
0.098506354729677
100
AcDbArc
 50
295.4241118920594
 51
312.5131616524933
  0
LWPOLYLINE
  5
34E
330
1F
100
AcDbEntity
  8
0
  6
SLD-Solid
 62
     7
370
    25
100
AcDbPolyline
 90
        3
 70
   128
 43
0.0
 10
41.84968882057326
 20
79.33783858310464
 10
41.84965915039018
 20
79.33807415080386
 10
41.84953988855191
 20
79.33812126597083
  0
LINE
  5
34F
330
1F
100
AcDbEntity
  8
0
  6
SLD-Solid
 62
     7
370
    25
100
AcDbLine
 10
41.86307257599911
 20
79.3476054271779
 30
0.0
 11
41.84793998869611
 21
79.34115088646462
 31
0.0
  0
LINE
  5
350
330
1F
100
AcDbEntity
  8
0
  6
SLD-Solid
 62
     7
370
    25
100
AcDbLine
 10
38.84668029827404
 20
66.40632179568546
 30
0.0
 11
37.38074432737911
 21
69.19994232624613
 31
0.0
  0
ARC
  5
351
330
1F
100
AcDbEntity
  8
0
  6
SLD-Solid
 62
     7
370
    25
100
AcDbCircle
 10
37.06299730178284
 20
69.84546554715644
 30
0.0
 40
0.7194882910858851
100
AcDbArc
 50
296.2078756509202
 51
299.7765277693215
  0
LINE
  5
352
330
1F
100
AcDbEntity
  8
0
  6
SLD-Solid
 62
     7
370
    25
100
AcDbLine
 10
38.88624441377539
 20
66.42735150225221
 30
0.0
 11
37.42030844288047
 21
69.22097203281285
 31
0.0
  0
ARC
  5
353
330
1F
100
AcDbEntity
  8
0
  6
SLD-Solid
 62
     7
370
    25
100
AcDbCircle
 10
38.52893327264899
 20
67.05184501664885
 30
0.0
 40
0.7194882911462337
100
AcDbArc
 50
296.2078756511101
 51
299.776527769212
  0
LINE
  5
354
330
1F
100
AcDbEntity
  8
0
  6
SLD-Solid
 62
     7
370
    25
100
AcDbLine
 10
37.42030844288047
 20
69.22097203281285
 30
0.0
 11
37.40429863502042
 21
69.214143328998
 31
0.0
  0
LINE
  5
355
330
1F
100
AcDbEntity
  8
0
  6
SLD-Solid
 62
     7
370
    25
100
AcDbLine
 10
37.38074432737911
 20
69.19994232624613
 30
0.0
 11
37.39111059651996
 21
69.20713342680911
 31
0.0
  0
ARC
  5
356
330
1F
100
AcDbEntity
  8
0
  6
SLD-Solid
 62
     7
370
    25
100
AcDbCircle
 10
37.28519492132604
 20
69.42230783377049
 30
0.0
 40
0.2398294303520025
100
AcDbArc
 50
296.2078756508042
 51
299.7765277693536
  0
LWPOLYLINE
  5
357
330
1F
100
AcDbEntity
  8
0
  6
SLD-Solid
 62
     7
370
    25
100
AcDbPolyline
 90
        4
 70
   128
 43
0.0
 10
37.38640105375763
 20
69.20481692589881
 10
37.38147676848565
 20
69.2023679501229
 10
37.37637068449135
 20
69.19977631441496
 10
37.37619851534934
 20
69.19968805910449
  0
LINE
  5
358
330
1F
100
AcDbEntity
  8
0
  6
SLD-Solid
 62
     7
370
    25
100
AcDbLine
 10
37.37702506198649
 20
69.19811291687404
 30
0.0
 11
37.38074432737911
 21
69.19994232624613
 31
0.0
  0
LINE
  5
359
330
1F
100
AcDbEntity
  8
0
  6
SLD-Solid
 62
     7
370
    25
100
AcDbLine
 10
38.84668029827404
 20
66.40632179568546
 30
0.0
 11
38.84296103288131
 21
66.40449238631332
 31
0.0
  0
LINE
  5
35A
330
1F
100
AcDbEntity
  8
0
  6
SLD-Solid
 62
     7
370
    25
100
AcDbLine
 10
37.38640105375763
 20
69.20481692589881
 30
0.0
 11
37.39111059651996
 21
69.20713342680911
 31
0.0
  0
LINE
  5
35B
330
1F
100
AcDbEntity
  8
0
  6
SLD-Solid
 62
     7
370
    25
100
AcDbLine
 10
37.44433493777144
 20
69.28182970651461
 30
0.0
 11
37.37362425965276
 21
69.24100930092347
 31
0.0
  0
ARC
  5
35C
330
1F
100
AcDbEntity
  8
0
  6
SLD-Solid
 62
     7
370
    25
100
AcDbCircle
 10
37.41361951368284
 20
69.22585125480697
 30
0.0
 40
0.0427713304328967
100
AcDbArc
 50
159.2434861824967
 51
212.6718306820251
  0
LWPOLYLINE
  5
35D
330
1F
100
AcDbEntity
  8
0
  6
SLD-Solid
 62
     7
370
    25
100
AcDbPolyline
 90
        6
 70
   128
 43
0.0
 10
44.99242085813334
 20
73.59225948466849
 10
44.98369482762927
 20
73.60509897317496
 10
44.9730474586779
 20
73.61459762160864
 10
44.9620997166834
 20
73.61930934685094
 10
44.95251829612295
 20
73.61851683144565
 10
44.95107607300057
 20
73.61779650074392
  0
LINE
  5
35E
330
1F
100
AcDbEntity
  8
0
  6
SLD-Solid
 62
     7
370
    25
100
AcDbLine
 10
37.42030844288047
 20
69.22097203281285
 30
0.0
 11
44.99242085813334
 21
73.59225948466849
 31
0.0
  0
ARC
  5
35F
330
1F
100
AcDbEntity
  8
0
  6
SLD-Solid
 62
     7
370
    25
100
AcDbCircle
 10
37.37480264926364
 20
69.20049400242094
 30
0.0
 40
0.0499011721448537
100
AcDbArc
 50
24.22818849884114
 51
72.21953912636535
  0
LINE
  5
360
330
1F
100
AcDbEntity
  8
0
  6
SLD-Solid
 62
     7
370
    25
100
AcDbLine
 10
37.46075167776388
 20
69.28883198012049
 30
0.0
 11
37.39004099964521
 21
69.24801157452936
 31
0.0
  0
ARC
  5
361
330
1F
100
AcDbEntity
  8
0
  6
SLD-Solid
 62
     7
370
    25
100
AcDbCircle
 10
37.45711038069586
 20
69.27462339984864
 30
0.0
 40
0.0146677468508065
100
AcDbArc
 50
75.62590307700539
 51
150.5737461070285
  0
ARC
  5
362
330
1F
100
AcDbEntity
  8
0
  6
SLD-Solid
 62
     7
370
    25
100
AcDbCircle
 10
37.3929221866163
 20
69.20902382140012
 30
0.0
 40
0.0124752930360873
100
AcDbArc
 50
24.22818849861683
 51
72.21953912663258
  0
LINE
  5
363
330
1F
100
AcDbEntity
  8
0
  6
SLD-Solid
 62
     7
370
    25
100
AcDbLine
 10
37.39004099964521
 20
69.24801157452936
 30
0.0
 11
37.3967317742116
 21
69.22090321442712
 31
0.0
  0
LINE
  5
364
330
1F
100
AcDbEntity
  8
0
  6
SLD-Solid
 62
     7
370
    25
100
AcDbLine
 10
38.91000664110523
 20
66.433301569526
 30
0.0
 11
38.90687831160717
 21
66.43926319792293
 31
0.0
  0
LINE
  5
365
330
1F
100
AcDbEntity
  8
0
  6
SLD-Solid
 62
     7
370
    25
100
AcDbLine
 10
38.90687831160717
 20
66.43926319792293
 30
0.0
 11
38.88624441377539
 21
66.42735150225221
 31
0.0
  0
LINE
  5
366
330
1F
100
AcDbEntity
  8
0
  6
SLD-Solid
 62
     7
370
    25
100
AcDbLine
 10
46.45835682902825
 20
70.79863895410786
 30
0.0
 11
44.99242085813334
 21
73.59225948466849
 31
0.0
  0
LINE
  5
367
330
1F
100
AcDbEntity
  8
0
  6
SLD-Solid
 62
     7
370
    25
100
AcDbLine
 10
46.43772293119648
 20
70.78672725843714
 30
0.0
 11
46.45835682902825
 21
70.79863895410786
 31
0.0
  0
LINE
  5
368
330
1F
100
AcDbEntity
  8
0
  6
SLD-Solid
 62
     7
370
    25
100
AcDbLine
 10
46.44085126069454
 20
70.78076563004021
 30
0.0
 11
46.43772293119648
 21
70.78672725843714
 31
0.0
  0
ARC
  5
369
330
1F
100
AcDbEntity
  8
0
  6
SLD-Solid
 62
     7
370
    25
100
AcDbCircle
 10
37.40262640272095
 20
69.21536313449656
 30
0.0
 40
0.0106928326081845
100
AcDbArc
 50
159.2434861825114
 51
212.6718306823171
  0
LINE
  5
36A
330
1F
100
AcDbEntity
  8
0
  6
SLD-Solid
 62
     7
370
    25
100
AcDbLine
 10
37.39659810780024
 20
69.2214447776164
 30
0.0
 11
37.39262758921348
 21
69.21915264602566
 31
0.0
  0
LINE
  5
36B
330
1F
100
AcDbEntity
  8
0
  6
SLD-Solid
 62
     7
370
    25
100
AcDbLine
 10
37.44433493777144
 20
69.28182970651461
 30
0.0
 11
37.44576764385474
 21
69.28018188146729
 31
0.0
  0
LINE
  5
36C
330
1F
100
AcDbEntity
  8
0
  6
SLD-Solid
 62
     7
370
    25
100
AcDbLine
 10
37.37362425965276
 20
69.24100930092347
 30
0.0
 11
37.39262758921348
 21
69.21915264602566
 31
0.0
  0
LINE
  5
36D
330
1F
100
AcDbEntity
  8
0
  6
SLD-Solid
 62
     7
370
    25
100
AcDbLine
 10
37.39362542978039
 20
69.20959085978811
 30
0.0
 11
37.37761562192031
 21
69.20276215597328
 31
0.0
  0
LINE
  5
36E
330
1F
100
AcDbEntity
  8
0
  6
SLD-Solid
 62
     7
370
    25
100
AcDbLine
 10
37.39362542978039
 20
69.20959085978811
 30
0.0
 11
37.39412231815538
 21
69.20864394423837
 31
0.0
  0
LINE
  5
36F
330
1F
100
AcDbEntity
  8
0
  6
SLD-Solid
 62
     7
370
    25
100
AcDbLine
 10
37.37761562192031
 20
69.20276215597328
 30
0.0
 11
37.37858848656417
 21
69.20090817687975
 31
0.0
  0
ARC
  5
370
330
1F
100
AcDbEntity
  8
0
  6
SLD-Solid
 62
     7
370
    25
100
AcDbCircle
 10
38.87150504310073
 20
66.4263688006178
 30
0.0
 40
0.0690771061193642
100
AcDbArc
 50
260.2289030207269
 51
297.3571748449458
  0
LINE
  5
371
330
1F
100
AcDbEntity
  8
0
  6
SLD-Solid
 62
     7
370
    25
100
AcDbLine
 10
38.85978180262518
 20
66.35829375215965
 30
0.0
 11
38.86754637397826
 21
66.3750222654687
 31
0.0
  0
ARC
  5
372
330
1F
100
AcDbEntity
  8
0
  6
SLD-Solid
 62
     7
370
    25
100
AcDbCircle
 10
38.87145412080343
 20
66.39771394828806
 30
0.0
 40
0.0230257020397623
100
AcDbArc
 50
260.2289030207517
 51
297.3571748450732
  0
LINE
  5
373
330
1F
100
AcDbEntity
  8
0
  6
SLD-Solid
 62
     7
370
    25
100
AcDbLine
 10
38.8820352613726
 20
66.37726346128458
 30
0.0
 11
38.90324846480815
 21
66.36501733960723
 31
0.0
  0
LINE
  5
374
330
1F
100
AcDbEntity
  8
0
  6
SLD-Solid
 62
     7
370
    25
100
AcDbLine
 10
38.85627636849268
 20
66.3765417160269
 30
0.0
 11
38.86196959861999
 21
66.37588490214046
 31
0.0
  0
LINE
  5
375
330
1F
100
AcDbEntity
  8
0
  6
SLD-Solid
 62
     7
370
    25
100
AcDbLine
 10
38.85944583206739
 20
66.35834572135421
 30
0.0
 11
38.85978180262518
 21
66.35829375215965
 31
0.0
  0
LINE
  5
376
330
1F
100
AcDbEntity
  8
0
  6
SLD-Solid
 62
     7
370
    25
100
AcDbLine
 10
38.86196959861999
 20
66.37588490214046
 30
0.0
 11
38.86754637397826
 21
66.3750222654687
 31
0.0
  0
LINE
  5
377
330
1F
100
AcDbEntity
  8
0
  6
SLD-Solid
 62
     7
370
    25
100
AcDbLine
 10
38.89399683324518
 20
66.42647286571115
 30
0.0
 11
38.91000664110523
 21
66.433301569526
 31
0.0
  0
LINE
  5
378
330
1F
100
AcDbEntity
  8
0
  6
SLD-Solid
 62
     7
370
    25
100
AcDbLine
 10
38.89399683324518
 20
66.42647286571115
 30
0.0
 11
38.8918405466511
 21
66.43058208099656
 31
0.0
  0
ARC
  5
379
330
1F
100
AcDbEntity
  8
0
  6
SLD-Solid
 62
     7
370
    25
100
AcDbCircle
 10
46.34202669772063
 20
70.72648174236228
 30
0.0
 40
0.1127520940311727
100
AcDbArc
 50
1.736987721070144
 51
28.77979419204798
  0
ARC
  5
37A
330
1F
100
AcDbEntity
  8
0
  6
SLD-Solid
 62
     7
370
    25
100
AcDbCircle
 10
38.811182078131
 20
66.37901768184794
 30
0.0
 40
0.1127520940315183
100
AcDbArc
 50
1.736987721144289
 51
28.77979419202671
  0
LINE
  5
37B
330
1F
100
AcDbEntity
  8
0
  6
SLD-Solid
 62
     7
370
    25
100
AcDbLine
 10
38.90266915920436
 20
66.39468148989081
 30
0.0
 11
38.92388236263996
 21
66.38243536821349
 31
0.0
  0
ARC
  5
37C
330
1F
100
AcDbEntity
  8
0
  6
SLD-Solid
 62
     7
370
    25
100
AcDbCircle
 10
38.83223148138686
 20
66.39254543591255
 30
0.0
 40
0.0704700587691016
100
AcDbArc
 50
1.736987720990031
 51
28.77979419211712
  0
LINE
  5
37D
330
1F
100
AcDbEntity
  8
0
  6
SLD-Solid
 62
     7
370
    25
100
AcDbLine
 10
38.90324846480815
 20
66.36501733960723
 30
0.0
 11
38.92388236263992
 21
66.37692903527794
 31
0.0
  0
LINE
  5
37E
330
1F
100
AcDbEntity
  8
0
  6
SLD-Solid
 62
     7
370
    25
100
AcDbLine
 10
38.92388236263992
 20
66.37692903527794
 30
0.0
 11
38.92388236263996
 21
66.38243536821349
 31
0.0
  0
LINE
  5
37F
330
1F
100
AcDbEntity
  8
0
  6
SLD-Solid
 62
     7
370
    25
100
AcDbLine
 10
46.45472698222925
 20
70.72439309579215
 30
0.0
 11
46.45472698222925
 21
70.72989942872768
 31
0.0
  0
LINE
  5
380
330
1F
100
AcDbEntity
  8
0
  6
SLD-Solid
 62
     7
370
    25
100
AcDbLine
 10
46.47536088006102
 20
70.73630479146287
 30
0.0
 11
46.45472698222925
 21
70.72439309579215
 31
0.0
  0
LINE
  5
381
330
1F
100
AcDbEntity
  8
0
  6
SLD-Solid
 62
     7
370
    25
100
AcDbLine
 10
38.90266915920436
 20
66.38917515695529
 30
0.0
 11
38.92388236263992
 21
66.37692903527794
 31
0.0
  0
LINE
  5
382
330
1F
100
AcDbEntity
  8
0
  6
SLD-Solid
 62
     7
370
    25
100
AcDbLine
 10
38.8820352613726
 20
66.37726346128458
 30
0.0
 11
38.90266915920436
 21
66.38917515695529
 31
0.0
  0
LINE
  5
383
330
1F
100
AcDbEntity
  8
0
  6
SLD-Solid
 62
     7
370
    25
100
AcDbLine
 10
38.90266915920436
 20
66.38917515695529
 30
0.0
 11
38.90266915920436
 21
66.39468148989081
 31
0.0
  0
LWPOLYLINE
  5
384
330
1F
100
AcDbEntity
  8
0
  6
SLD-Solid
 62
     7
370
    25
100
AcDbPolyline
 90
        9
 70
   128
 43
0.0
 10
44.99242085813334
 20
73.59225948466849
 10
44.99636872694876
 20
73.59456951335484
 10
44.99983814825733
 20
73.59666475528657
 10
45.00276975929856
 20
73.59850936029335
 10
45.00511339939472
 20
73.60007176667209
 10
45.006828968214
 20
73.60132524121643
 10
45.00788711189826
 20
73.60224833662943
 10
45.00826972531567
 20
73.60282525849262
 10
45.0079702618446
 20
73.60304613551295
  0
ARC
  5
385
330
1F
100
AcDbEntity
  8
0
  6
SLD-Solid
 62
     7
370
    25
100
AcDbCircle
 10
46.43651401678462
 20
70.84814387140172
 30
0.0
 40
0.0541095673886117
100
AcDbArc
 50
293.8082759392054
 51
314.1289976053113
  0
LINE
  5
386
330
1F
100
AcDbEntity
  8
0
  6
SLD-Solid
 62
     7
370
    25
100
AcDbLine
 10
45.00734320198693
 20
73.60308640181829
 30
0.0
 11
45.0079702618446
 21
73.60304613551295
 31
0.0
  0
LINE
  5
387
330
1F
100
AcDbEntity
  8
0
  6
SLD-Solid
 62
     7
370
    25
100
AcDbLine
 10
45.01252633655734
 20
73.6066819520998
 30
0.0
 11
44.99651652869727
 21
73.59985324828496
 31
0.0
  0
LWPOLYLINE
  5
388
330
1F
100
AcDbEntity
  8
0
  6
SLD-Solid
 62
     7
370
    25
100
AcDbPolyline
 90
        9
 70
   128
 43
0.0
 10
45.00734320198693
 20
73.60308640181829
 10
45.0072433808299
 20
73.60316002749174
 10
45.0073709186357
 20
73.60335233477947
 10
45.00772363319712
 20
73.60366003325046
 10
45.00829548947021
 20
73.60407785809858
 10
45.0090767028356
 20
73.60459866022482
 10
45.01005390651601
 20
73.60521352856043
 10
45.01121038028553
 20
73.60591194253767
 10
45.01252633655734
 20
73.6066819520998
  0
LWPOLYLINE
  5
389
330
1F
100
AcDbEntity
  8
0
  6
SLD-Solid
 62
     7
370
    25
100
AcDbPolyline
 90
        3
 70
   128
 43
0.0
 10
44.99022461696896
 20
73.5961359710243
 10
44.99256865988185
 20
73.5975432195986
 10
44.99651652869727
 20
73.59985324828496
  0
LINE
  5
38A
330
1F
100
AcDbEntity
  8
0
  6
SLD-Solid
 62
     7
370
    25
100
AcDbLine
 10
46.47846230745224
 20
70.81306142153919
 30
0.0
 11
45.01252633655734
 21
73.6066819520998
 31
0.0
  0
ARC
  5
38B
330
1F
100
AcDbEntity
  8
0
  6
SLD-Solid
 62
     7
370
    25
100
AcDbCircle
 10
46.50469645079512
 20
70.76593623992055
 30
0.0
 40
0.0539352669366188
100
AcDbArc
 50
119.1042732529849
 51
124.9974613152359
  0
LINE
  5
38C
330
1F
100
AcDbEntity
  8
0
  6
SLD-Solid
 62
     7
370
    25
100
AcDbLine
 10
45.01616915583435
 20
73.60878490690578
 30
0.0
 11
45.01252633655734
 21
73.6066819520998
 31
0.0
  0
LINE
  5
38D
330
1F
100
AcDbEntity
  8
0
  6
SLD-Solid
 62
     7
370
    25
100
AcDbLine
 10
46.47846230745224
 20
70.81306142153919
 30
0.0
 11
46.48210512672917
 21
70.81516437634511
 31
0.0
  0
LINE
  5
38E
330
1F
100
AcDbEntity
  8
0
  6
SLD-Solid
 62
     7
370
    25
100
AcDbLine
 10
45.01519711293037
 20
73.61063732001732
 30
0.0
 11
44.99651652869727
 21
73.59985324828496
 31
0.0
  0
LINE
  5
38F
330
1F
100
AcDbEntity
  8
0
  6
SLD-Solid
 62
     7
370
    25
100
AcDbLine
 10
46.45414767662545
 20
70.7485509131402
 30
0.0
 11
46.47536088006102
 21
70.73630479146287
 31
0.0
  0
LINE
  5
390
330
1F
100
AcDbEntity
  8
0
  6
SLD-Solid
 62
     7
370
    25
100
AcDbLine
 10
46.45414767662545
 20
70.7485509131402
 30
0.0
 11
46.45282618358122
 21
70.74778803144416
 31
0.0
  0
ARC
  5
391
330
1F
100
AcDbEntity
  8
0
  6
SLD-Solid
 62
     7
370
    25
100
AcDbCircle
 10
46.45181212197841
 20
70.75471807876079
 30
0.0
 40
0.0065945998590569
100
AcDbArc
 50
290.7420751989818
 51
19.46100191196457
  0
LINE
  5
392
330
1F
100
AcDbEntity
  8
0
  6
SLD-Solid
 62
     7
370
    25
100
AcDbLine
 10
46.48700773709064
 20
70.7613975614265
 30
0.0
 11
46.458029962302
 21
70.75691516979474
 31
0.0
  0
ARC
  5
393
330
1F
100
AcDbEntity
  8
0
  6
SLD-Solid
 62
     7
370
    25
100
AcDbCircle
 10
46.46835421611993
 20
70.75480628832462
 30
0.0
 40
0.0197837995771402
100
AcDbArc
 50
290.7420751988855
 51
19.46100191212897
  0
LINE
  5
394
330
1F
100
AcDbEntity
  8
0
  6
SLD-Solid
 62
     7
370
    25
100
AcDbLine
 10
46.45653566984839
 20
70.76013457368214
 30
0.0
 11
46.48551344463704
 21
70.76461696531386
 31
0.0
  0
LINE
  5
395
330
1F
100
AcDbEntity
  8
0
  6
SLD-Solid
 62
     7
370
    25
100
AcDbLine
 10
46.48551344463704
 20
70.76461696531386
 30
0.0
 11
46.48700773709064
 21
70.7613975614265
 31
0.0
  0
LINE
  5
396
330
1F
100
AcDbEntity
  8
0
  6
SLD-Solid
 62
     7
370
    25
100
AcDbLine
 10
46.45653566984839
 20
70.76013457368214
 30
0.0
 11
46.458029962302
 21
70.75691516979474
 31
0.0
  0
ARC
  5
397
330
1F
100
AcDbEntity
  8
0
  6
SLD-Solid
 62
     7
370
    25
100
AcDbCircle
 10
46.4917312849606
 20
70.76681405634784
 30
0.0
 40
0.0065945998590463
100
AcDbArc
 50
110.7420751988654
 51
199.4610019122599
  0
ARC
  5
398
330
1F
100
AcDbEntity
  8
0
  6
SLD-Solid
 62
     7
370
    25
100
AcDbCircle
 10
46.47518919081906
 20
70.76672584678404
 30
0.0
 40
0.0197837995771226
100
AcDbArc
 50
110.74207519875
 51
199.4610019122029
  0
LINE
  5
399
330
1F
100
AcDbEntity
  8
0
  6
SLD-Solid
 62
     7
370
    25
100
AcDbLine
 10
46.48939573031357
 20
70.77298122196842
 30
0.0
 11
46.46818252687802
 21
70.78522734364579
 31
0.0
  0
LINE
  5
39A
330
1F
100
AcDbEntity
  8
0
  6
SLD-Solid
 62
     7
370
    25
100
AcDbLine
 10
46.49064561576689
 20
70.79819500883676
 30
0.0
 11
46.46818252687802
 21
70.78522734364579
 31
0.0
  0
LINE
  5
39B
330
1F
100
AcDbEntity
  8
0
  6
SLD-Solid
 62
     7
370
    25
100
AcDbLine
 10
46.49303854959066
 20
70.77508417677439
 30
0.0
 11
46.48939573031357
 21
70.77298122196842
 31
0.0
  0
LINE
  5
39C
330
1F
100
AcDbEntity
  8
0
  6
SLD-Solid
 62
     7
370
    25
100
AcDbLine
 10
41.74399497559897
 20
79.51501244815945
 30
0.0
 11
41.74638078032866
 21
79.51638974391335
 31
0.0
  0
LINE
  5
39D
330
1F
100
AcDbEntity
  8
0
  6
SLD-Solid
 62
     7
370
    25
100
AcDbLine
 10
41.75973835158403
 20
79.49117545898157
 30
0.0
 11
41.74638078032866
 21
79.51638974391335
 31
0.0
  0
LWPOLYLINE
  5
39E
330
1F
100
AcDbEntity
  8
0
  6
SLD-Solid
 62
     7
370
    25
100
AcDbPolyline
 90
        9
 70
   128
 43
0.0
 10
41.74638078032866
 20
79.51638974391335
 10
41.67933014945584
 20
79.61555693442347
 10
41.60647033428777
 20
79.70832864739828
 10
41.52885865852335
 20
79.79335860258041
 10
41.44762140369253
 20
79.86941286619549
 10
41.36393746483598
 20
79.93538775749523
 10
41.27902124267058
 20
79.99032586510079
 10
41.19410502050518
 20
80.03342994072086
 10
41.11306260976401
 20
80.06329326944072
  0
LWPOLYLINE
  5
39F
330
1F
100
AcDbEntity
  8
0
  6
SLD-Solid
 62
     7
370
    25
100
AcDbPolyline
 90
       13
 70
   128
 43
0.0
 10
33.42451398995225
 20
75.7873109186708
 10
33.46823326905032
 20
75.79976525432356
 10
33.54109308421839
 20
75.80841481529568
 10
33.6187047599828
 20
75.80383623701148
 10
33.69994201481363
 20
75.78609596267177
 10
33.78362595367018
 20
75.75545143476991
 10
33.86854217583558
 20
75.71234735914983
 10
33.95345839800098
 20
75.6574092515443
 10
34.03714233685753
 20
75.59143436024453
 10
34.11837959168836
 20
75.51538009662946
 10
34.19599126745278
 20
75.43035014144732
 10
34.26885108262084
 20
75.33757842847251
 10
34.33590171349367
 20
75.23841123796241
  0
LINE
  5
3A0
330
1F
100
AcDbEntity
  8
0
  6
SLD-Solid
 62
     7
370
    25
100
AcDbLine
 10
34.43168047125332
 20
75.05761542992263
 30
0.0
 11
34.33590171349367
 21
75.23841123796241
 31
0.0
  0
LINE
  5
3A1
330
1F
100
AcDbEntity
  8
0
  6
SLD-Solid
 62
     7
370
    25
100
AcDbLine
 10
34.35640781014808
 20
75.25024915558384
 30
0.0
 11
34.33590171349367
 21
75.23841123796241
 31
0.0
  0
LINE
  5
3A2
330
1F
100
AcDbEntity
  8
0
  6
SLD-Solid
 62
     7
370
    25
100
AcDbLine
 10
34.45306908984644
 20
75.06778746388932
 30
0.0
 11
34.35640781014808
 21
75.25024915558384
 31
0.0
  0
LINE
  5
3A3
330
1F
100
AcDbEntity
  8
0
  6
SLD-Solid
 62
     7
370
    25
100
AcDbLine
 10
33.42168873483191
 20
75.7898509920158
 30
0.0
 11
33.41703978077825
 21
75.78716720796656
 31
0.0
  0
LWPOLYLINE
  5
3A4
330
1F
100
AcDbEntity
  8
0
  6
SLD-Solid
 62
     7
370
    25
100
AcDbPolyline
 90
       13
 70
   128
 43
0.0
 10
34.35640781014808
 20
75.25024915558384
 10
34.28935717927526
 20
75.34941634609395
 10
34.21649736410718
 20
75.44218805906877
 10
34.13888568834277
 20
75.5272180142509
 10
34.05764843351194
 20
75.60327227786598
 10
33.97396449465539
 20
75.66924716916573
 10
33.88904827248999
 20
75.72418527677128
 10
33.80413205032458
 20
75.76728935239136
 10
33.72044811146804
 20
75.79793388029321
 10
33.63921085663721
 20
75.81567415463294
 10
33.56159918087279
 20
75.82025273291713
 10
33.48873936570472
 20
75.81160317194502
 10
33.42168873483191
 20
75.7898509920158
  0
LINE
  5
3A5
330
1F
100
AcDbEntity
  8
0
  6
SLD-Solid
 62
     7
370
    25
100
AcDbLine
 10
34.2789593567575
 20
75.10206788556941
 30
0.0
 11
38.85077656372796
 21
66.38959840194845
 31
0.0
  0
LWPOLYLINE
  5
3A6
330
1F
100
AcDbEntity
  8
0
  6
SLD-Solid
 62
     7
370
    25
100
AcDbPolyline
 90
       15
 70
   128
 43
0.0
 10
33.24533972843756
 20
75.74049328745532
 10
33.27215230549972
 20
75.75439433166873
 10
33.33971930708289
 20
75.7774517280699
 10
33.41333256913538
 20
75.78704736546445
 10
33.49189468747214
 20
75.78303819500032
 10
33.57423448185951
 20
75.76548398417485
 10
33.65912445561501
 20
75.73464642583913
 10
33.74529909475555
 20
75.69098523696037
 10
33.83147373389609
 20
75.63515130530067
 10
33.91636370765159
 20
75.56797698617976
 10
33.99870350203897
 20
75.49046369397428
 10
34.07726562037573
 20
75.40376697333599
 10
34.15087888242822
 20
75.30917927268257
 10
34.2184458840114
 20
75.20811067676853
 10
34.2789593567575
 20
75.10206788556941
  0
ELLIPSE
  5
3A7
330
1F
100
AcDbEntity
  8
0
  6
SLD-Solid
 62
     7
370
    25
100
AcDbEllipse
 10
28.53922541826951
 20
71.60774165624584
 30
0.0
 11
0.5069447607568947
 21
-0.2705399400775689
 31
0.0
210
0.0
220
0.0
230
1.0
 40
0.7284335679106172
 41
2.814120762944486
 42
4.286479112211737
  0
ARC
  5
3A8
330
1F
100
AcDbEntity
  8
0
  6
SLD-Solid
 62
     7
370
    25
100
AcDbCircle
 10
38.78901121186745
 20
66.35567097214904
 30
0.0
 40
0.0704700587714119
100
AcDbArc
 50
1.736987721638125
 51
28.7797941918377
  0
ELLIPSE
  5
3A9
330
1F
100
AcDbEntity
  8
0
  6
SLD-Solid
 62
     7
370
    25
100
AcDbEllipse
 10
28.53922541826951
 20
71.60774165624584
 30
0.0
 11
0.5251222404994031
 21
-0.2295621190658892
 31
0.0
210
0.0
220
0.0
230
1.0
 40
0.7124170922976769
 41
3.443511374985551
 42
3.512679652908645
  0
LINE
  5
3AA
330
1F
100
AcDbEntity
  8
0
  6
SLD-Solid
 62
     7
370
    25
100
AcDbLine
 10
40.86860406174868
 20
80.13849084749872
 30
0.0
 11
40.81661842671416
 21
80.09944364346691
 31
0.0
  0
LWPOLYLINE
  5
3AB
330
1F
100
AcDbEntity
  8
0
  6
SLD-Solid
 62
     7
370
    25
100
AcDbPolyline
 90
       15
 70
   128
 43
0.0
 10
41.93592458575263
 20
79.52233982413455
 10
41.87541111300646
 20
79.62838261533365
 10
41.80784411142329
 20
79.72945121124766
 10
41.7342308493708
 20
79.8240389119011
 10
41.65566873103405
 20
79.9107356325394
 10
41.57332893664667
 20
79.98824892474487
 10
41.48843896289117
 20
80.05542324386577
 10
41.40226432375063
 20
80.1112571755255
 10
41.3160896846101
 20
80.15491836440427
 10
41.23119971085459
 20
80.18575592273996
 10
41.14885991646722
 20
80.20331013356544
 10
41.07029779813046
 20
80.20731930402957
 10
40.99668453607796
 20
80.19772366663501
 10
40.92911753449477
 20
80.17466627023384
 10
40.86860406174868
 20
80.13849084749872
  0
LINE
  5
3AC
330
1F
100
AcDbEntity
  8
0
  6
SLD-Solid
 62
     7
370
    25
100
AcDbLine
 10
41.93592458575263
 20
79.52233982413455
 30
0.0
 11
46.50774179272312
 21
70.8098703405136
 31
0.0
  0
ARC
  5
3AD
330
1F
100
AcDbEntity
  8
0
  6
SLD-Solid
 62
     7
370
    25
100
AcDbCircle
 10
46.44597644086239
 20
70.77594291071438
 30
0.0
 40
0.0704700587715201
100
AcDbArc
 50
1.736987721438993
 51
28.77979419161705
  0
LINE
  5
3AE
330
1F
100
AcDbEntity
  8
0
  6
SLD-Solid
 62
     7
370
    25
100
AcDbLine
 10
46.51641411868229
 20
70.77807896469326
 30
0.0
 11
46.51641411868231
 21
70.50293734977414
 31
0.0
  0
LINE
  5
3AF
330
1F
100
AcDbEntity
  8
0
  6
SLD-Solid
 62
     7
370
    25
100
AcDbLine
 10
46.49166538134077
 20
70.79236610665016
 30
0.0
 11
46.49166538134078
 21
70.7758768899317
 31
0.0
  0
ARC
  5
3B0
330
1F
100
AcDbEntity
  8
0
  6
SLD-Solid
 62
     7
370
    25
100
AcDbCircle
 10
46.47053407799449
 20
70.79172529045644
 30
0.0
 40
0.0211410176317661
100
AcDbArc
 50
1.736987721567586
 51
28.7797941913736
  0
LINE
  5
3B1
330
1F
100
AcDbEntity
  8
0
  6
SLD-Solid
 62
     7
370
    25
100
AcDbLine
 10
41.91724647658253
 20
79.51437300301721
 30
0.0
 11
46.48906368355303
 21
70.80190351939628
 31
0.0
  0
LWPOLYLINE
  5
3B2
330
1F
100
AcDbEntity
  8
0
  6
SLD-Solid
 62
     7
370
    25
100
AcDbPolyline
 90
       15
 70
   128
 43
0.0
 10
41.91724647658253
 20
79.51437300301721
 10
41.85885097538249
 20
79.61670429652435
 10
41.79364881885472
 20
79.71423549158138
 10
41.72261202097406
 20
79.80551262271193
 10
41.6467995767791
 20
79.88917495812788
 10
41.56734167519529
 20
79.96397528510617
 10
41.48542285052123
 20
80.02879850305787
 10
41.40226432375061
 20
80.08267824710947
 10
41.31910579698
 20
80.1248112943775
 10
41.23718697230593
 20
80.15456953817144
 10
41.15772907072212
 20
80.17150935161803
 10
41.08191662652715
 20
80.17537820111592
 10
41.0108798286465
 20
80.16611841103017
 10
40.94567767211873
 20
80.14386802350305
 10
40.88728217091872
 20
80.10895874056365
  0
LINE
  5
3B3
330
1F
100
AcDbEntity
  8
0
  6
SLD-Solid
 62
     7
370
    25
100
AcDbLine
 10
40.88728217091872
 20
80.10895874056365
 30
0.0
 11
40.88324868705357
 21
80.10592912926165
 31
0.0
  0
LINE
  5
3B4
330
1F
100
AcDbEntity
  8
0
  6
SLD-Solid
 62
     7
370
    25
100
AcDbLine
 10
42.41675719695947
 20
79.79991858215426
 30
0.0
 11
41.93592458575263
 21
79.52233982413455
 31
0.0
  0
ARC
  5
3B5
330
1F
100
AcDbEntity
  8
0
  6
SLD-Solid
 62
     7
370
    25
100
AcDbCircle
 10
37.91175822800366
 20
47.49788288929123
 30
0.0
 40
1.481274177145588
100
AcDbArc
 50
242.5243123924596
 51
297.475687607542
  0
LINE
  5
3B6
330
1F
100
AcDbEntity
  8
0
  6
SLD-Solid
 62
     7
370
    25
100
AcDbLine
 10
33.52387197549365
 20
48.32223012856891
 30
0.0
 11
37.22833952398686
 21
46.18368653300411
 31
0.0
  0
LINE
  5
3B7
330
1F
100
AcDbEntity
  8
0
  6
SLD-Solid
 62
     7
370
    25
100
AcDbLine
 10
38.59517693202045
 20
46.18368653300411
 30
0.0
 11
46.40587843700708
 21
50.69270853460089
 31
0.0
  0
ARC
  5
3B8
330
1F
100
AcDbEntity
  8
0
  6
SLD-Solid
 62
     7
370
    25
100
AcDbCircle
 10
33.5390230917804
 20
48.35236465146043
 30
0.0
 40
0.0337290052422855
100
AcDbArc
 50
200.777344847476
 51
243.3075420279787
  0
LINE
  5
3B9
330
1F
100
AcDbEntity
  8
0
  6
SLD-Solid
 62
     7
370
    25
100
AcDbLine
 10
33.49270452234666
 20
48.38879899894128
 30
0.0
 11
33.50748761815593
 21
48.34039971527528
 31
0.0
  0
LWPOLYLINE
  5
3BA
330
1F
100
AcDbEntity
  8
0
  6
SLD-Solid
 62
     7
370
    25
100
AcDbPolyline
 90
        8
 70
   128
 43
0.0
 10
46.68895973299028
 20
51.0872377546392
 10
46.68719640614711
 20
51.05354965811845
 10
46.67312837305469
 20
50.98666471338317
 10
46.64519745047078
 20
50.92124635006019
 10
46.60381093414163
 20
50.85824851519605
 10
46.54957233266962
 20
50.79858985908184
 10
46.48327256699892
 20
50.74314033926333
 10
46.40587843700708
 20
50.69270853460089
  0
LINE
  5
3BB
330
1F
100
AcDbEntity
  8
0
  6
SLD-Solid
 62
     7
370
    25
100
AcDbLine
 10
33.39334589622192
 20
67.36170032569316
 30
0.0
 11
33.39334589622177
 21
48.43187037093602
 31
0.0
  0
LINE
  5
3BC
330
1F
100
AcDbEntity
  8
0
  6
SLD-Solid
 62
     7
370
    25
100
AcDbLine
 10
33.39334589622177
 20
48.43187037093602
 30
0.0
 11
28.77275663455827
 21
51.09927977428879
 31
0.0
  0
LINE
  5
3BD
330
1F
100
AcDbEntity
  8
0
  6
SLD-Solid
 62
     7
370
    25
100
AcDbLine
 10
33.39334589622177
 20
48.43187037093602
 30
0.0
 11
33.40572026489249
 21
48.43901394191445
 31
0.0
  0
LWPOLYLINE
  5
3BE
330
1F
100
AcDbEntity
  8
0
  6
SLD-Solid
 62
     7
370
    25
100
AcDbPolyline
 90
        8
 70
   128
 43
0.0
 10
28.77275663455827
 20
51.09927977428879
 10
28.69536250456642
 20
51.14971157895123
 10
28.62906273889572
 20
51.20516109876975
 10
28.57482413742371
 20
51.26481975488394
 10
28.53343762109456
 20
51.32781758974809
 10
28.50550669851065
 20
51.39323595307108
 10
28.49143866541823
 20
51.46012089780636
 10
28.48967533857506
 20
51.49380899432713
  0
LWPOLYLINE
  5
3BF
330
1F
100
AcDbEntity
  8
0
  6
SLD-Solid
 62
     7
370
    25
100
AcDbPolyline
 90
       15
 70
   128
 43
0.0
 10
41.93592458575259
 20
79.47255523001698
 10
41.87541111300643
 20
79.57859802121608
 10
41.80784411142325
 20
79.67966661713011
 10
41.73423084937077
 20
79.77425431778354
 10
41.65566873103401
 20
79.86095103842183
 10
41.57332893664664
 20
79.93846433062731
 10
41.48843896289114
 20
80.00563864974824
 10
41.40226432375061
 20
80.06147258140794
 10
41.31608968461008
 20
80.1051337702867
 10
41.23119971085458
 20
80.1359713286224
 10
41.1488599164672
 20
80.1535255394479
 10
41.07029779813046
 20
80.15753470991203
 10
40.99668453607797
 20
80.14793907251747
 10
40.92911753449479
 20
80.1248816761163
 10
40.89407427336809
 20
80.10607010076696
  0
LINE
  5
3C0
330
1F
100
AcDbEntity
  8
0
  6
SLD-Solid
 62
     7
370
    25
100
AcDbLine
 10
42.23796162659876
 20
78.89696605351091
 30
0.0
 11
41.93592458575259
 21
79.47255523001698
 31
0.0
  0
LINE
  5
3C1
330
1F
100
AcDbEntity
  8
0
  6
SLD-Solid
 62
     7
370
    25
100
AcDbLine
 10
42.20140589865168
 20
78.88137384646706
 30
0.0
 11
42.23796162659876
 21
78.89696605351091
 31
0.0
  0
LINE
  5
3C2
330
1F
100
AcDbEntity
  8
0
  6
SLD-Solid
 62
     7
370
    25
100
AcDbLine
 10
42.20813250358142
 20
78.86855501808316
 30
0.0
 11
42.20140589865168
 21
78.88137384646706
 31
0.0
  0
LINE
  5
3C3
330
1F
100
AcDbEntity
  8
0
  6
SLD-Solid
 62
     7
370
    25
100
AcDbLine
 10
42.21587057738044
 20
78.87185555826032
 30
0.0
 11
42.20813250358142
 21
78.86855501808316
 31
0.0
  0
LINE
  5
3C4
330
1F
100
AcDbEntity
  8
0
  6
SLD-Solid
 62
     7
370
    25
100
AcDbLine
 10
43.00592587465092
 20
77.36625453437273
 30
0.0
 11
42.21587057738044
 21
78.87185555826032
 31
0.0
  0
LINE
  5
3C5
330
1F
100
AcDbEntity
  8
0
  6
SLD-Solid
 62
     7
370
    25
100
AcDbLine
 10
42.87853790216526
 20
77.43979404555618
 30
0.0
 11
43.00592587465092
 21
77.36625453437273
 31
0.0
  0
ARC
  5
3C6
330
1F
100
AcDbEntity
  8
0
  6
SLD-Solid
 62
     7
370
    25
100
AcDbCircle
 10
41.98497362088114
 20
79.39620957747486
 30
0.0
 40
0.5729402603998843
100
AcDbArc
 50
293.7660794147822
 51
297.1813159237877
  0
SPLINE
  5
3C7
330
1F
100
AcDbEntity
  8
0
  6
SLD-Solid
 62
     7
370
    25
100
AcDbSpline
210
0.0
220
0.0
230
1.0
 70
    12
 71
     3
 72
    10
 73
     6
 74
     0
 42
0.00000001
 43
0.00000001
 40
0.0
 40
0.0
 40
0.0
 40
0.0
 40
0.3864091014881379
 40
0.9192895280971572
 40
1.0
 40
1.0
 40
1.0
 40
1.0
 10
43.04657265671531
 20
77.36222661657386
 30
0.0
 41
1.0
 10
43.04063755617628
 20
77.36228296884596
 30
0.0
 41
1.0
 10
43.02651760984811
 20
77.36241703414983
 30
0.0
 41
1.0
 10
43.01347145852949
 20
77.36420489180807
 30
0.0
 41
1.0
 10
43.00680302636281
 20
77.366016269513
 30
0.0
 41
1.0
 10
43.00592587465092
 20
77.36625453437273
 30
0.0
 41
1.0
  0
LINE
  5
3C8
330
1F
100
AcDbEntity
  8
0
  6
SLD-Solid
 62
     7
370
    25
100
AcDbLine
 10
42.24046792075821
 20
78.89841290633204
 30
0.0
 11
42.23796162659876
 21
78.89696605351091
 31
0.0
  0
ARC
  5
3C9
330
1F
100
AcDbEntity
  8
0
  6
SLD-Solid
 62
     7
370
    25
100
AcDbCircle
 10
41.12388985194118
 20
79.71744754399481
 30
0.0
 40
0.4525023039394125
100
AcDbArc
 50
62.15763592187211
 51
116.3830879282753
  0
LINE
  5
3CA
330
1F
100
AcDbEntity
  8
0
  6
SLD-Solid
 62
     7
370
    25
100
AcDbLine
 10
42.23637667403485
 20
78.88369347588174
 30
0.0
 11
42.21587057738044
 21
78.87185555826032
 31
0.0
  0
ARC
  5
3CB
330
1F
100
AcDbEntity
  8
0
  6
SLD-Solid
 62
     7
370
    25
100
AcDbCircle
 10
42.14408703621079
 20
79.09561258058058
 30
0.0
 40
0.2311429951048755
100
AcDbArc
 50
293.5328680387031
 51
296.1296991711131
  0
LINE
  5
3CC
330
1F
100
AcDbEntity
  8
0
  6
SLD-Solid
 62
     7
370
    25
100
AcDbLine
 10
42.22863860023583
 20
78.88039293570458
 30
0.0
 11
42.20813250358142
 21
78.86855501808316
 31
0.0
  0
LINE
  5
3CD
330
1F
100
AcDbEntity
  8
0
  6
SLD-Solid
 62
     7
370
    25
100
AcDbLine
 10
42.23637667403485
 20
78.88369347588174
 30
0.0
 11
42.22863860023583
 21
78.88039293570458
 31
0.0
  0
LINE
  5
3CE
330
1F
100
AcDbEntity
  8
0
  6
SLD-Solid
 62
     7
370
    25
100
AcDbLine
 10
42.22863860023583
 20
78.88039293570458
 30
0.0
 11
42.22323751181732
 21
78.89068573961477
 31
0.0
  0
ARC
  5
3CF
330
1F
100
AcDbEntity
  8
0
  6
SLD-Solid
 62
     7
370
    25
100
AcDbCircle
 10
37.98529733324725
 20
66.5351116786744
 30
0.0
 40
0.8843583918870237
100
AcDbArc
 50
242.3910402157627
 51
297.6089597842476
  0
ARC
  5
3D0
330
1F
100
AcDbEntity
  8
0
  6
SLD-Solid
 62
     7
370
    25
100
AcDbCircle
 10
37.98529733324726
 20
65.74028415704124
 30
0.0
 40
0.8843583918869744
100
AcDbArc
 50
242.3910402157601
 51
297.6089597842414
  0
ARC
  5
3D1
330
1F
100
AcDbEntity
  8
0
  6
SLD-Solid
 62
     7
370
    25
100
AcDbCircle
 10
37.98529733324729
 20
66.52853298883558
 30
0.0
 40
0.8264196314026792
100
AcDbArc
 50
242.4805390039341
 51
297.5194609960649
  0
ARC
  5
3D2
330
1F
100
AcDbEntity
  8
0
  6
SLD-Solid
 62
     7
370
    25
100
AcDbCircle
 10
38.33324599998844
 20
65.74317681689011
 30
0.0
 40
0.0624446573558504
100
AcDbArc
 50
7.61727830817951
 51
57.12177495907898
  0
ARC
  5
3D3
330
1F
100
AcDbEntity
  8
0
  6
SLD-Solid
 62
     7
370
    25
100
AcDbCircle
 10
37.63734866650559
 20
65.74317681689057
 30
0.0
 40
0.0624446573552065
100
AcDbArc
 50
122.8782250407517
 51
172.3827216922158
  0
ARC
  5
3D4
330
1F
100
AcDbEntity
  8
0
  6
SLD-Solid
 62
     7
370
    25
100
AcDbCircle
 10
37.98690311491646
 20
66.53256414282663
 30
0.0
 40
0.8269342847902793
100
AcDbArc
 50
242.6788698728401
 51
294.3088982329526
  0
LINE
  5
3D5
330
1F
100
AcDbEntity
  8
0
  6
SLD-Solid
 62
     7
370
    25
100
AcDbLine
 10
37.60345025220309
 20
65.79561947834081
 30
0.0
 11
37.60735910195548
 21
65.79787600927125
 31
0.0
  0
LINE
  5
3D6
330
1F
100
AcDbEntity
  8
0
  6
SLD-Solid
 62
     7
370
    25
100
AcDbLine
 10
28.10729524497888
 20
70.42247897410778
 30
0.0
 11
37.57545504506665
 21
64.95662666545465
 31
0.0
  0
ARC
  5
3D7
330
1F
100
AcDbEntity
  8
0
  6
SLD-Solid
 62
     7
370
    25
100
AcDbCircle
 10
31.29257560998798
 20
70.81989273492435
 30
0.0
 40
3.209976433090886
100
AcDbArc
 50
172.8882014366885
 51
187.1117985633125
  0
LINE
  5
3D8
330
1F
100
AcDbEntity
  8
0
  6
SLD-Solid
 62
     7
370
    25
100
AcDbLine
 10
37.57545504506665
 20
65.75145418708775
 30
0.0
 11
28.10729524497888
 21
71.21730649574091
 31
0.0
  0
LINE
  5
3D9
330
1F
100
AcDbEntity
  8
0
  6
SLD-Solid
 62
     7
370
    25
100
AcDbLine
 10
47.07133982658682
 20
70.76011795312002
 30
0.0
 11
38.39513962142797
 21
65.7514541870878
 31
0.0
  0
LINE
  5
3DA
330
1F
100
AcDbEntity
  8
0
  6
SLD-Solid
 62
     7
370
    25
100
AcDbLine
 10
38.39513962142787
 20
64.95662666545465
 30
0.0
 11
47.07133982658687
 21
69.96529043148688
 31
0.0
  0
ARC
  5
3DB
330
1F
100
AcDbEntity
  8
0
  6
SLD-Solid
 62
     7
370
    25
100
AcDbCircle
 10
28.16918886641782
 20
71.20902912554372
 30
0.0
 40
0.0624446573552065
100
AcDbArc
 50
122.8782250407517
 51
172.3827216922028
  0
LINE
  5
3DC
330
1F
100
AcDbEntity
  8
0
  6
SLD-Solid
 62
     7
370
    25
100
AcDbLine
 10
28.13529045211532
 20
71.26147178699397
 30
0.0
 11
37.60345025220309
 21
65.79561947834081
 31
0.0
  0
LINE
  5
3DD
330
1F
100
AcDbEntity
  8
0
  6
SLD-Solid
 62
     7
370
    25
100
AcDbLine
 10
38.36714441429145
 20
65.7956194783408
 30
0.0
 11
47.04334461945039
 21
70.80428324437308
 31
0.0
  0
LINE
  5
3DE
330
1F
100
AcDbEntity
  8
0
  6
SLD-Solid
 62
     7
370
    25
100
AcDbLine
 10
28.13529045211532
 20
71.26147178699397
 30
0.0
 11
28.13919930186771
 21
71.26372831792442
 31
0.0
  0
LINE
  5
3DF
330
1F
100
AcDbEntity
  8
0
  6
SLD-Solid
 62
     7
370
    25
100
AcDbLine
 10
28.13919930186771
 20
71.26372831792442
 30
0.0
 11
37.60735910195548
 21
65.79787600927125
 31
0.0
  0
LINE
  5
3E0
330
1F
100
AcDbEntity
  8
0
  6
SLD-Solid
 62
     7
370
    25
100
AcDbLine
 10
38.85944888968724
 20
66.0843338644524
 30
0.0
 11
38.88733786563726
 21
66.100433827571
 31
0.0
  0
LINE
  5
3E1
330
1F
100
AcDbEntity
  8
0
  6
SLD-Solid
 62
     7
370
    25
100
AcDbLine
 10
46.48563498378992
 20
70.48683738665548
 30
0.0
 11
46.51496903921119
 21
70.50377157639582
 31
0.0
  0
LINE
  5
3E2
330
1F
100
AcDbEntity
  8
0
  6
SLD-Solid
 62
     7
370
    25
100
AcDbLine
 10
47.02929672151873
 20
70.80068662737739
 30
0.0
 11
47.03943576969801
 21
70.80653977530353
 31
0.0
  0
LINE
  5
3E3
330
1F
100
AcDbEntity
  8
0
  6
SLD-Solid
 62
     7
370
    25
100
AcDbLine
 10
47.04334461945039
 20
70.80428324437308
 30
0.0
 11
47.03943576969801
 21
70.80653977530353
 31
0.0
  0
LINE
  5
3E4
330
1F
100
AcDbEntity
  8
0
  6
SLD-Solid
 62
     7
370
    25
100
AcDbLine
 10
47.23810242585076
 20
70.16789002196462
 30
0.0
 11
47.23646882463955
 21
70.15966467201356
 31
0.0
  0
LINE
  5
3E5
330
1F
100
AcDbEntity
  8
0
  6
SLD-Solid
 62
     7
370
    25
100
AcDbLine
 10
47.23810169123258
 20
71.03071634832034
 30
0.0
 11
47.23721408572758
 21
71.03540546380073
 31
0.0
  0
LWPOLYLINE
  5
3E6
330
1F
100
AcDbEntity
  8
0
  6
SLD-Solid
 62
     7
370
    25
100
AcDbPolyline
 90
        8
 70
   128
 43
0.0
 10
47.15833800023655
 20
71.13846677459613
 10
47.17777076341216
 20
71.10457796417823
 10
47.19394903263072
 20
71.05161093675477
 10
47.19394903263072
 20
70.99782680755648
 10
47.17777076341216
 20
70.944859780133
 10
47.14590579349866
 20
70.89431923081
 10
47.09932232387658
 20
70.84774080860386
 10
47.03943576969801
 20
70.80653977530353
  0
LINE
  5
3E7
330
1F
100
AcDbEntity
  8
0
  6
SLD-Solid
 62
     7
370
    25
100
AcDbLine
 10
27.94252307858345
 20
70.61526423769989
 30
0.0
 11
27.94054142491409
 21
70.62502897925896
 31
0.0
  0
LINE
  5
3E8
330
1F
100
AcDbEntity
  8
0
  6
SLD-Solid
 62
     7
370
    25
100
AcDbLine
 10
27.94326515601272
 20
71.50084473896356
 30
0.0
 11
27.94054080282363
 21
71.48794681311557
 31
0.0
  0
LWPOLYLINE
  5
3E9
330
1F
100
AcDbEntity
  8
0
  6
SLD-Solid
 62
     7
370
    25
100
AcDbPolyline
 90
        7
 70
   128
 43
0.0
 10
28.13919930186771
 20
71.26372831792442
 10
28.07931274768914
 20
71.30492935122474
 10
28.03272927806706
 20
71.35150777343088
 10
28.00086430815356
 20
71.4020483227539
 10
27.984686038935
 20
71.45501535017736
 10
27.984686038935
 20
71.50879947937565
 10
27.98922541826959
 20
71.53014950927168
  0
LINE
  5
3EA
330
1F
100
AcDbEntity
  8
0
  6
SLD-Solid
 62
     8
370
    25
100
AcDbLine
 10
33.34779038095792
 20
75.77922261220642
 30
0.0
 11
33.38848296320968
 21
75.8027139399134
 31
0.0
  0
LINE
  5
3EB
330
1F
100
AcDbEntity
  8
0
  6
SLD-Solid
 62
     8
370
    25
100
AcDbLine
 10
37.4089645183687
 20
69.49091897644787
 30
0.0
 11
37.39274856036544
 21
69.4815577031529
 31
0.0
  0
LINE
  5
3EC
330
1F
100
AcDbEntity
  8
0
  6
SLD-Solid
 62
     8
370
    25
100
AcDbLine
 10
34.00171563322913
 20
75.64869828525988
 30
0.0
 11
34.01020167357427
 21
75.65359717207541
 31
0.0
  0
LINE
  5
3ED
330
1F
100
AcDbEntity
  8
0
  6
SLD-Solid
 62
     8
370
    25
100
AcDbLine
 10
41.84886389473653
 20
79.33940293008007
 30
0.0
 11
41.86307257599911
 21
79.3476054271779
 31
0.0
  0
LINE
  5
3EE
330
1F
100
AcDbEntity
  8
0
  6
SLD-Solid
 62
     8
370
    25
100
AcDbLine
 10
34.03966306163974
 20
75.61847416079038
 30
0.0
 11
34.04866909583903
 21
75.62367323366824
 31
0.0
  0
LINE
  5
3EF
330
1F
100
AcDbEntity
  8
0
  6
SLD-Solid
 62
     8
370
    25
100
AcDbLine
 10
37.37694817258073
 20
69.1982594442987
 30
0.0
 11
37.38640105375763
 21
69.20481692589881
 31
0.0
  0
LINE
  5
3F0
330
1F
100
AcDbEntity
  8
0
  6
SLD-Solid
 62
     8
370
    25
100
AcDbLine
 10
37.4036019375697
 20
69.21535017514444
 30
0.0
 11
37.39362542978039
 21
69.20959085978811
 31
0.0
  0
LINE
  5
3F1
330
1F
100
AcDbEntity
  8
0
  6
SLD-Solid
 62
     8
370
    25
100
AcDbLine
 10
38.90324846480817
 20
66.10636494140653
 30
0.0
 11
38.90324846480815
 21
66.36501733960723
 31
0.0
  0
LINE
  5
3F2
330
1F
100
AcDbEntity
  8
0
  6
SLD-Solid
 62
     8
370
    25
100
AcDbLine
 10
38.85978180262517
 20
66.08452605100067
 30
0.0
 11
38.85978180262518
 21
66.35829375215965
 31
0.0
  0
LINE
  5
3F3
330
1F
100
AcDbEntity
  8
0
  6
SLD-Solid
 62
     8
370
    25
100
AcDbLine
 10
38.86196959861999
 20
66.37588490214046
 30
0.0
 11
38.85841207000796
 21
66.3682203238878
 31
0.0
  0
LINE
  5
3F4
330
1F
100
AcDbEntity
  8
0
  6
SLD-Solid
 62
     8
370
    25
100
AcDbLine
 10
46.4753608800609
 20
70.47765239326212
 30
0.0
 11
46.47536088006102
 21
70.73630479146287
 31
0.0
  0
LINE
  5
3F5
330
1F
100
AcDbEntity
  8
0
  6
SLD-Solid
 62
     8
370
    25
100
AcDbLine
 10
45.0079702618446
 20
73.60304613551295
 30
0.0
 11
44.99135455090414
 21
73.59421430593586
 31
0.0
  0
LINE
  5
3F6
330
1F
100
AcDbEntity
  8
0
  6
SLD-Solid
 62
     8
370
    25
100
AcDbLine
 10
45.00734320198693
 20
73.60308640181829
 30
0.0
 11
44.99119119623848
 21
73.59450104771521
 31
0.0
  0
LINE
  5
3F7
330
1F
100
AcDbEntity
  8
0
  6
SLD-Solid
 62
     8
370
    25
100
AcDbLine
 10
46.45802996230184
 20
70.7524327781626
 30
0.0
 11
46.458029962302
 21
70.75691516979474
 31
0.0
  0
LINE
  5
3F8
330
1F
100
AcDbEntity
  8
0
  6
SLD-Solid
 62
     8
370
    25
100
AcDbLine
 10
46.45653566984822
 20
70.75034853230159
 30
0.0
 11
46.45653566984839
 21
70.76013457368214
 31
0.0
  0
LINE
  5
3F9
330
1F
100
AcDbEntity
  8
0
  6
SLD-Solid
 62
     8
370
    25
100
AcDbLine
 10
46.48939573031356
 20
70.48900841941185
 30
0.0
 11
46.48939573031357
 21
70.77298122196842
 31
0.0
  0
LINE
  5
3FA
330
1F
100
AcDbEntity
  8
0
  6
SLD-Solid
 62
     8
370
    25
100
AcDbLine
 10
28.15031668861691
 20
71.38322942549459
 30
0.0
 11
28.15031668861692
 21
71.2573103871636
 31
0.0
  0
ELLIPSE
  5
3FB
330
1F
100
AcDbEntity
  8
0
  6
SLD-Solid
 62
     8
370
    25
100
AcDbEllipse
 10
28.53922541826951
 20
71.60774165624584
 30
0.0
 11
0.5251222404994031
 21
-0.2295621190658892
 31
0.0
210
0.0
220
0.0
230
1.0
 40
0.7124170922976769
 41
3.512679652908645
 42
4.228909538383093
  0
LWPOLYLINE
  5
3FC
330
1F
100
AcDbEntity
  8
0
  6
SLD-Solid
 62
     8
370
    25
100
AcDbPolyline
 90
        7
 70
   128
 43
0.0
 10
42.61026417634553
 20
79.93028662918275
 10
42.60983203639753
 20
79.92718447270533
 10
42.59807387859903
 20
79.91494268690163
 10
42.57188825682088
 20
79.89540202886492
 10
42.53207080793024
 20
79.86915623160161
 10
42.47983136496307
 20
79.83700276038051
 10
42.41675719695947
 20
79.79991858215426
  0
LWPOLYLINE
  5
3FD
330
1F
100
AcDbEntity
  8
0
  6
SLD-Solid
 62
     8
370
    25
100
AcDbPolyline
 90
       15
 70
   128
 43
0.0
 10
42.41675719695947
 20
79.79991858215426
 10
42.35624372421332
 20
79.90596137335335
 10
42.28867672263014
 20
80.00702996926738
 10
42.21506346057765
 20
80.10161766992081
 10
42.1365013422409
 20
80.18831439055909
 10
42.05416154785352
 20
80.26582768276458
 10
41.96927157409802
 20
80.33300200188549
 10
41.88309693495749
 20
80.3888359335452
 10
41.79692229581695
 20
80.43249712242397
 10
41.71203232206145
 20
80.46333468075966
 10
41.62969252767407
 20
80.48088889158514
 10
41.55113040933731
 20
80.48489806204928
 10
41.47751714728481
 20
80.47530242465471
 10
41.40995014570163
 20
80.45224502825356
 10
41.38313756863942
 20
80.43834398404012
  0
LINE
  5
3FE
330
1F
100
AcDbEntity
  8
0
  6
SLD-Solid
 62
     8
370
    25
100
AcDbLine
 10
40.88728217091872
 20
80.10895874056365
 30
0.0
 11
40.95468087307732
 21
80.14786718313032
 31
0.0
  0
LINE
  5
3FF
330
1F
100
AcDbEntity
  8
0
  6
SLD-Solid
 62
     8
370
    25
100
AcDbLine
 10
41.08719984132742
 20
80.17553799840141
 30
0.0
 11
41.07811422004069
 21
80.16871364956154
 31
0.0
  0
LINE
  5
400
330
1F
100
AcDbEntity
  8
0
  6
SLD-Solid
 62
     8
370
    25
100
AcDbLine
 10
41.93843087991196
 20
79.47400208283804
 30
0.0
 11
41.93592458575259
 21
79.47255523001698
 31
0.0
  0
LINE
  5
401
330
1F
100
AcDbEntity
  8
0
  6
SLD-Solid
 62
     8
370
    25
100
AcDbLine
 10
38.36714441429145
 20
65.7956194783408
 30
0.0
 11
38.3644308883849
 21
65.79718596350311
 31
0.0
  0
ARC
  5
402
330
1F
100
AcDbEntity
  8
0
  6
SLD-Solid
 62
     8
370
    25
100
AcDbCircle
 10
38.37743071425763
 20
64.9576474377157
 30
0.0
 40
0.0177383023193614
100
AcDbArc
 50
303.170656131626
 51
356.7010219144706
  0
ARC
  5
403
330
1F
100
AcDbEntity
  8
0
  6
SLD-Solid
 62
     8
370
    25
100
AcDbCircle
 10
37.59316421805647
 20
64.95764752583992
 30
0.0
 40
0.0177385727698005
100
AcDbArc
 50
183.2992128467845
 51
236.8258270210843
  0
ARC
  5
404
330
1F
100
AcDbEntity
  8
0
  6
SLD-Solid
 62
     8
370
    25
100
AcDbCircle
 10
47.05362862850697
 20
69.96631196324016
 30
0.0
 40
0.0177406331495935
100
AcDbArc
 50
303.2009545868768
 51
356.6989988693633
  0
ARC
  5
405
330
1F
100
AcDbEntity
  8
0
  6
SLD-Solid
 62
     8
370
    25
100
AcDbCircle
 10
28.12500644305878
 20
70.42350050586104
 30
0.0
 40
0.0177406331495927
100
AcDbArc
 50
183.3010011305925
 51
236.7990454128766
  0
ARC
  5
406
330
1F
100
AcDbEntity
  8
0
  6
SLD-Solid
 62
     8
370
    25
100
AcDbCircle
 10
46.93468607503454
 20
70.24871256918273
 30
0.0
 40
0.3146463982781497
100
AcDbArc
 50
295.7413303936832
 51
343.5601008124481
  0
LWPOLYLINE
  5
407
330
1F
100
AcDbEntity
  8
0
  6
SLD-Solid
 62
     8
370
    25
100
AcDbPolyline
 90
        7
 70
   128
 43
0.0
 10
47.07133982658682
 20
70.76011795312002
 10
47.13040744702743
 20
70.80004276589575
 10
47.17792894929502
 20
70.84481029859133
 10
47.21273419628894
 20
70.89331822597684
 10
47.2339661673162
 20
70.9443721218915
 10
47.24110206078525
 20
70.99671486997971
 10
47.23810169123258
 20
71.03071634832034
  0
LWPOLYLINE
  5
408
330
1F
100
AcDbEntity
  8
0
  6
SLD-Solid
 62
     8
370
    25
100
AcDbPolyline
 90
        8
 70
   128
 43
0.0
 10
47.15833800023655
 20
71.14685846727116
 10
47.1831103514735
 20
71.1054039118232
 10
47.19945594545148
 20
71.05188906961179
 10
47.19945594545148
 20
70.99754867469946
 10
47.1831103514735
 20
70.94403383248805
 10
47.15091581611929
 20
70.89297056437833
 10
47.10385055405437
 20
70.84591040193257
 10
47.04334461945039
 20
70.80428324437308
  0
ARC
  5
409
330
1F
100
AcDbEntity
  8
0
  6
SLD-Solid
 62
     8
370
    25
100
AcDbCircle
 10
28.23763403769981
 20
70.70068601431979
 30
0.0
 40
0.3072252563046857
100
AcDbArc
 50
196.1434287559945
 51
244.8971134164714
  0
LWPOLYLINE
  5
40A
330
1F
100
AcDbEntity
  8
0
  6
SLD-Solid
 62
     8
370
    25
100
AcDbPolyline
 90
        7
 70
   128
 43
0.0
 10
27.94054080282363
 20
71.48794681311557
 10
27.93753301078044
 20
71.4539034126006
 10
27.94466890424949
 20
71.40156066451239
 10
27.96590087527676
 20
71.35050676859774
 10
28.00070612227067
 20
71.30199884121221
 10
28.04822762453827
 20
71.25723130851664
 10
28.10729524497888
 20
71.21730649574091
  0
LWPOLYLINE
  5
40B
330
1F
100
AcDbEntity
  8
0
  6
SLD-Solid
 62
     8
370
    25
100
AcDbPolyline
 90
        7
 70
   128
 43
0.0
 10
28.13529045211532
 20
71.26147178699397
 10
28.07478451751135
 20
71.30309894455345
 10
28.02771925544642
 20
71.35015910699921
 10
27.99552472009221
 20
71.40122237510893
 10
27.97917912611423
 20
71.45473721732034
 10
27.97917912611423
 20
71.50907761223269
 10
27.98922541826959
 20
71.54753359146429
  0
MTEXT
  5
40C
330
1F
100
AcDbEntity
  8
NOTES
100
AcDbMText
 10
38.89157098051572
 20
45.91860848389044
 30
0.0
 40
0.7500000000000001
 41
0.0
 71
     1
 72
     1
  1
3D View 301 - NLS
  7
SLDTEXTSTYLE1
 73
     1
 44
1.0
  0
LINE
  5
40D
330
1F
100
AcDbEntity
  8
0
  6
SLD-Solid
 62
     7
370
    25
100
AcDbLine
 10
12.80142738255719
 20
69.84865320682196
 30
0.0
 11
12.80142738255719
 21
69.8423611700989
 31
0.0
  0
LINE
  5
40E
330
1F
100
AcDbEntity
  8
0
  6
SLD-Solid
 62
     7
370
    25
100
AcDbLine
 10
12.80142738255719
 20
69.72936117008993
 30
0.0
 11
12.80142738255719
 21
69.7183611700899
 31
0.0
  0
LINE
  5
40F
330
1F
100
AcDbEntity
  8
0
  6
SLD-Solid
 62
     7
370
    25
100
AcDbLine
 10
12.80142738255723
 20
59.31836117008991
 30
0.0
 11
12.80142738255723
 21
59.30736117009
 31
0.0
  0
LINE
  5
410
330
1F
100
AcDbEntity
  8
0
  6
SLD-Solid
 62
     7
370
    25
100
AcDbLine
 10
12.80142738255723
 20
59.19436117008105
 30
0.0
 11
12.80142738255723
 21
59.18806913335803
 31
0.0
  0
LINE
  5
411
330
1F
100
AcDbEntity
  8
0
  6
SLD-Solid
 62
     7
370
    25
100
AcDbLine
 10
12.92642738255723
 20
59.18806913335803
 30
0.0
 11
12.92642738255723
 21
59.19436117008105
 31
0.0
  0
LINE
  5
412
330
1F
100
AcDbEntity
  8
0
  6
SLD-Solid
 62
     7
370
    25
100
AcDbLine
 10
12.92642738255723
 20
59.30736117009
 30
0.0
 11
12.92642738255723
 21
59.31836117008991
 31
0.0
  0
LINE
  5
413
330
1F
100
AcDbEntity
  8
0
  6
SLD-Solid
 62
     7
370
    25
100
AcDbLine
 10
12.92642738255719
 20
69.7183611700899
 30
0.0
 11
12.92642738255719
 21
69.72936117008993
 31
0.0
  0
LINE
  5
414
330
1F
100
AcDbEntity
  8
0
  6
SLD-Solid
 62
     7
370
    25
100
AcDbLine
 10
12.92642738255719
 20
69.8423611700989
 30
0.0
 11
12.92642738255719
 21
69.84865320682196
 31
0.0
  0
LINE
  5
415
330
1F
100
AcDbEntity
  8
0
  6
SLD-Solid
 62
     7
370
    25
100
AcDbLine
 10
17.86037438729513
 20
59.31836117009001
 30
0.0
 11
17.86037438729509
 21
69.71836117009002
 31
0.0
  0
LINE
  5
416
330
1F
100
AcDbEntity
  8
0
  6
SLD-Solid
 62
     7
370
    25
100
AcDbLine
 10
7.867480377819175
 20
69.71836117008998
 30
0.0
 11
7.867480377819213
 21
59.31836117008996
 31
0.0
  0
LINE
  5
417
330
1F
100
AcDbEntity
  8
0
  6
SLD-Solid
 62
     7
370
    25
100
AcDbLine
 10
7.798809656961809
 20
59.16406913335764
 30
0.0
 11
7.798809656961991
 21
69.87265320682175
 31
0.0
  0
LINE
  5
418
330
1F
100
AcDbEntity
  8
0
  6
SLD-Solid
 62
     7
370
    25
100
AcDbLine
 10
17.93098706131456
 20
69.87265320682202
 30
0.0
 11
17.93098706131442
 21
59.16406913335793
 31
0.0
  0
ARC
  5
419
330
1F
100
AcDbEntity
  8
0
  6
SLD-Solid
 62
     7
370
    25
100
AcDbCircle
 10
12.67545671931287
 20
69.7593611700989
 30
0.0
 40
0.0010000000000048
100
AcDbArc
 50
270.0000000000008
 51
357.9999999995021
  0
ARC
  5
41A
330
1F
100
AcDbEntity
  8
0
  6
SLD-Solid
 62
     7
370
    25
100
AcDbCircle
 10
13.05239804580129
 20
69.7593611700989
 30
0.0
 40
0.0010000000000048
100
AcDbArc
 50
181.9999999996858
 51
270.0000000000008
  0
LINE
  5
41B
330
1F
100
AcDbEntity
  8
0
  6
SLD-Solid
 62
     7
370
    25
100
AcDbLine
 10
13.05139865497427
 20
69.7593262706022
 30
0.0
 11
13.05048743346969
 21
69.78542024040435
 31
0.0
  0
LINE
  5
41C
330
1F
100
AcDbEntity
  8
0
  6
SLD-Solid
 62
     7
370
    25
100
AcDbLine
 10
12.67736733164447
 20
69.78542024040435
 30
0.0
 11
12.67645611013989
 21
69.75932627060219
 31
0.0
  0
ARC
  5
41D
330
1F
100
AcDbEntity
  8
0
  6
SLD-Solid
 62
     7
370
    25
100
AcDbCircle
 10
12.99152337467556
 20
69.7833611700989
 30
0.0
 40
0.0590000000000017
100
AcDbArc
 50
2.000000000001827
 51
90.00000000000173
  0
ARC
  5
41E
330
1F
100
AcDbEntity
  8
0
  6
SLD-Solid
 62
     7
370
    25
100
AcDbCircle
 10
12.7363313904386
 20
69.7833611700989
 30
0.0
 40
0.0589999999999981
100
AcDbArc
 50
89.99999999999655
 51
177.9999999999981
  0
ARC
  5
41F
330
1F
100
AcDbEntity
  8
0
  6
SLD-Solid
 62
     7
370
    25
100
AcDbCircle
 10
13.0523980458013
 20
59.27736117008104
 30
0.0
 40
0.0009999999999981
100
AcDbArc
 50
90.0
 51
177.9999999999046
  0
ARC
  5
420
330
1F
100
AcDbEntity
  8
0
  6
SLD-Solid
 62
     7
370
    25
100
AcDbCircle
 10
12.67545671931287
 20
59.27736117008104
 30
0.0
 40
0.0009999999999999
100
AcDbArc
 50
2.000000000091835
 51
90.0
  0
LINE
  5
421
330
1F
100
AcDbEntity
  8
0
  6
SLD-Solid
 62
     7
370
    25
100
AcDbLine
 10
12.67645611013989
 20
59.27739606957774
 30
0.0
 11
12.67736733164448
 21
59.25130209977559
 31
0.0
  0
LINE
  5
422
330
1F
100
AcDbEntity
  8
0
  6
SLD-Solid
 62
     7
370
    25
100
AcDbLine
 10
13.0504874334697
 20
59.25130209977559
 30
0.0
 11
13.05139865497428
 21
59.27739606957774
 31
0.0
  0
ARC
  5
423
330
1F
100
AcDbEntity
  8
0
  6
SLD-Solid
 62
     7
370
    25
100
AcDbCircle
 10
12.73633139043861
 20
59.25336117008104
 30
0.0
 40
0.0590000000000117
100
AcDbArc
 50
182.0000000000096
 51
270.0000000000043
  0
ARC
  5
424
330
1F
100
AcDbEntity
  8
0
  6
SLD-Solid
 62
     7
370
    25
100
AcDbCircle
 10
12.99152337467557
 20
59.25336117008104
 30
0.0
 40
0.0590000000000117
100
AcDbArc
 50
269.9999999999991
 51
357.9999999999921
  0
ARC
  5
425
330
1F
100
AcDbEntity
  8
0
  6
SLD-Solid
 62
     7
370
    25
100
AcDbCircle
 10
12.67545671931291
 20
59.10506913335803
 30
0.0
 40
0.0009999999999999
100
AcDbArc
 50
270.0000000000008
 51
357.999999999909
  0
ARC
  5
426
330
1F
100
AcDbEntity
  8
0
  6
SLD-Solid
 62
     7
370
    25
100
AcDbCircle
 10
13.05239804580133
 20
59.10506913335803
 30
0.0
 40
0.0009999999999999
100
AcDbArc
 50
182.0000000000927
 51
270.0000000000008
  0
LINE
  5
427
330
1F
100
AcDbEntity
  8
0
  6
SLD-Solid
 62
     7
370
    25
100
AcDbLine
 10
13.05139865497431
 20
59.10503423386132
 30
0.0
 11
13.05048743346973
 21
59.13112820366348
 31
0.0
  0
LINE
  5
428
330
1F
100
AcDbEntity
  8
0
  6
SLD-Solid
 62
     7
370
    25
100
AcDbLine
 10
12.67736733164451
 20
59.13112820366348
 30
0.0
 11
12.67645611013993
 21
59.10503423386132
 31
0.0
  0
ARC
  5
429
330
1F
100
AcDbEntity
  8
0
  6
SLD-Solid
 62
     7
370
    25
100
AcDbCircle
 10
12.9915233746756
 20
59.12906913335803
 30
0.0
 40
0.0590000000000046
100
AcDbArc
 50
2.000000000001827
 51
90.0
  0
ARC
  5
42A
330
1F
100
AcDbEntity
  8
0
  6
SLD-Solid
 62
     7
370
    25
100
AcDbCircle
 10
12.73633139043864
 20
59.12906913335803
 30
0.0
 40
0.0590000000000046
100
AcDbArc
 50
90.0
 51
177.9999999999981
  0
ARC
  5
42B
330
1F
100
AcDbEntity
  8
0
  6
SLD-Solid
 62
     7
370
    25
100
AcDbCircle
 10
13.05239804580125
 20
69.93165320682198
 30
0.0
 40
0.0009999999999997
100
AcDbArc
 50
90.0
 51
178.000000000315
  0
ARC
  5
42C
330
1F
100
AcDbEntity
  8
0
  6
SLD-Solid
 62
     7
370
    25
100
AcDbCircle
 10
12.67545671931282
 20
69.93165320682198
 30
0.0
 40
0.0009999999999997
100
AcDbArc
 50
1.999999999684972
 51
90.0
  0
LINE
  5
42D
330
1F
100
AcDbEntity
  8
0
  6
SLD-Solid
 62
     7
370
    25
100
AcDbLine
 10
12.67645611013984
 20
69.93168810631867
 30
0.0
 11
12.67736733164443
 21
69.90559413651653
 31
0.0
  0
LINE
  5
42E
330
1F
100
AcDbEntity
  8
0
  6
SLD-Solid
 62
     7
370
    25
100
AcDbLine
 10
13.05048743346964
 20
69.90559413651653
 30
0.0
 11
13.05139865497423
 21
69.93168810631867
 31
0.0
  0
ARC
  5
42F
330
1F
100
AcDbEntity
  8
0
  6
SLD-Solid
 62
     7
370
    25
100
AcDbCircle
 10
12.73633139043856
 20
69.90765320682198
 30
0.0
 40
0.0590000000000117
100
AcDbArc
 50
182.0000000000026
 51
270.0000000000008
  0
ARC
  5
430
330
1F
100
AcDbEntity
  8
0
  6
SLD-Solid
 62
     7
370
    25
100
AcDbCircle
 10
12.99152337467552
 20
69.90765320682198
 30
0.0
 40
0.0590000000000117
100
AcDbArc
 50
270.0000000000008
 51
357.9999999999989
  0
ARC
  5
431
330
1F
100
AcDbEntity
  8
0
  6
SLD-Solid
 62
     7
370
    25
100
AcDbCircle
 10
6.169898359138196
 20
70.67436117009008
 30
0.0
 40
0.614485372432144
100
AcDbArc
 50
90.00000000000604
 51
180.0
  0
LINE
  5
432
330
1F
100
AcDbEntity
  8
0
  6
SLD-Solid
 62
     7
370
    25
100
AcDbLine
 10
19.55989835913812
 20
71.2888465425221
 30
0.0
 11
6.169898359138132
 21
71.28884654252208
 31
0.0
  0
LINE
  5
433
330
1F
100
AcDbEntity
  8
0
  6
SLD-Solid
 62
     7
370
    25
100
AcDbLine
 10
5.555412986706001
 20
70.67436117009007
 30
0.0
 11
5.555412986706004
 21
58.40436117009006
 31
0.0
  0
ARC
  5
434
330
1F
100
AcDbEntity
  8
0
  6
SLD-Solid
 62
     7
370
    25
100
AcDbCircle
 10
6.169898359138133
 20
58.40436117008993
 30
0.0
 40
0.614485372432144
100
AcDbArc
 50
180.0
 51
270.0000000000011
  0
LINE
  5
435
330
1F
100
AcDbEntity
  8
0
  6
SLD-Solid
 62
     7
370
    25
100
AcDbLine
 10
6.169898359138136
 20
57.78987579765785
 30
0.0
 11
19.55989835913813
 21
57.78987579765785
 31
0.0
  0
ARC
  5
436
330
1F
100
AcDbEntity
  8
0
  6
SLD-Solid
 62
     7
370
    25
100
AcDbCircle
 10
19.5598983591382
 20
70.67436117008995
 30
0.0
 40
0.6144853724321422
100
AcDbArc
 50
0.0000000000106004
 51
90.00000000000662
  0
LINE
  5
437
330
1F
100
AcDbEntity
  8
0
  6
SLD-Solid
 62
     7
370
    25
100
AcDbLine
 10
20.17438373157029
 20
58.40436117008995
 30
0.0
 11
20.17438373157028
 21
70.67436117008995
 31
0.0
  0
ARC
  5
438
330
1F
100
AcDbEntity
  8
0
  6
SLD-Solid
 62
     7
370
    25
100
AcDbCircle
 10
19.55989835913813
 20
58.40436117008995
 30
0.0
 40
0.6144853724321493
100
AcDbArc
 50
270.0000000000002
 51
0.0000000000106004
  0
LINE
  5
439
330
1F
100
AcDbEntity
  8
0
  6
SLD-Solid
 62
     7
370
    25
100
AcDbLine
 10
12.01487910480656
 20
59.31836117008993
 30
0.0
 11
13.71297566030779
 21
59.31836117008994
 31
0.0
  0
LINE
  5
43A
330
1F
100
AcDbEntity
  8
0
  6
SLD-Solid
 62
     7
370
    25
100
AcDbLine
 10
12.0148791048065
 20
69.71836117008993
 30
0.0
 11
13.71297566030776
 21
69.71836117008993
 31
0.0
  0
LINE
  5
43B
330
1F
100
AcDbEntity
  8
0
  6
SLD-Solid
 62
     7
370
    25
100
AcDbLine
 10
13.66090069927238
 20
69.75836117008994
 30
0.0
 11
13.66090069927238
 21
69.78736117008994
 31
0.0
  0
ARC
  5
43C
330
1F
100
AcDbEntity
  8
0
  6
SLD-Solid
 62
     7
370
    25
100
AcDbCircle
 10
13.65106296539599
 20
69.72578580209417
 30
0.0
 40
0.062356290393491
100
AcDbArc
 50
353.1616889987584
 51
80.92272022761037
  0
ARC
  5
43D
330
1F
100
AcDbEntity
  8
0
  6
SLD-Solid
 62
     7
370
    25
100
AcDbCircle
 10
13.65519766514114
 20
69.72266530458516
 30
0.0
 40
0.036148574141153
100
AcDbArc
 50
353.1616889987229
 51
80.92272022760999
  0
LINE
  5
43E
330
1F
100
AcDbEntity
  8
0
  6
SLD-Solid
 62
     7
370
    25
100
AcDbLine
 10
13.66090069927238
 20
69.78736117008994
 30
0.0
 11
17.79407258191264
 21
69.78736117009002
 31
0.0
  0
ARC
  5
43F
330
1F
100
AcDbEntity
  8
0
  6
SLD-Solid
 62
     7
370
    25
100
AcDbCircle
 10
17.7842348480362
 20
69.72578580209422
 30
0.0
 40
0.0623562903935286
100
AcDbArc
 50
353.1616889987883
 51
80.92272022755971
  0
LINE
  5
440
330
1F
100
AcDbEntity
  8
0
  6
SLD-Solid
 62
     7
370
    25
100
AcDbLine
 10
13.71297566030776
 20
69.71836117008993
 30
0.0
 11
17.84614754294801
 21
69.71836117009002
 31
0.0
  0
ARC
  5
441
330
1F
100
AcDbEntity
  8
0
  6
SLD-Solid
 62
     7
370
    25
100
AcDbCircle
 10
17.78423484803627
 20
59.31093653808579
 30
0.0
 40
0.0623562903934903
100
AcDbArc
 50
279.0772797723914
 51
6.838311001241963
  0
LINE
  5
442
330
1F
100
AcDbEntity
  8
0
  6
SLD-Solid
 62
     7
370
    25
100
AcDbLine
 10
13.66090069927239
 20
59.24936117008994
 30
0.0
 11
17.79407258191265
 21
59.24936117009003
 31
0.0
  0
ARC
  5
443
330
1F
100
AcDbEntity
  8
0
  6
SLD-Solid
 62
     7
370
    25
100
AcDbCircle
 10
13.65106296539601
 20
59.31093653808572
 30
0.0
 40
0.062356290393498
100
AcDbArc
 50
279.0772797723894
 51
6.838311001234898
  0
LINE
  5
444
330
1F
100
AcDbEntity
  8
0
  6
SLD-Solid
 62
     7
370
    25
100
AcDbLine
 10
13.71297566030779
 20
59.31836117008994
 30
0.0
 11
17.84614754294805
 21
59.31836117009002
 31
0.0
  0
LINE
  5
445
330
1F
100
AcDbEntity
  8
0
  6
SLD-Solid
 62
     7
370
    25
100
AcDbLine
 10
13.66090069927241
 20
59.27836117008994
 30
0.0
 11
13.66090069927239
 21
59.24936117008994
 31
0.0
  0
ARC
  5
446
330
1F
100
AcDbEntity
  8
0
  6
SLD-Solid
 62
     7
370
    25
100
AcDbCircle
 10
13.65519766514117
 20
59.31405703559473
 30
0.0
 40
0.0361485741411566
100
AcDbArc
 50
279.0772797723845
 51
6.838311001254588
  0
LINE
  5
447
330
1F
100
AcDbEntity
  8
0
  6
SLD-Solid
 62
     7
370
    25
100
AcDbLine
 10
13.66090069927238
 20
69.75836117008994
 30
0.0
 11
13.66032519742841
 21
69.75836117008994
 31
0.0
  0
LINE
  5
448
330
1F
100
AcDbEntity
  8
0
  6
SLD-Solid
 62
     7
370
    25
100
AcDbLine
 10
13.27524410377854
 20
69.78736117008995
 30
0.0
 11
13.27524410377855
 21
69.75836117008994
 31
0.0
  0
LINE
  5
449
330
1F
100
AcDbEntity
  8
0
  6
SLD-Solid
 62
     7
370
    25
100
AcDbLine
 10
13.66090069927238
 20
69.78736117008994
 30
0.0
 11
13.27524410377854
 21
69.78736117008995
 31
0.0
  0
LINE
  5
44A
330
1F
100
AcDbEntity
  8
0
  6
SLD-Solid
 62
     7
370
    25
100
AcDbLine
 10
13.66090069927239
 20
59.24936117008994
 30
0.0
 11
13.27524410377857
 21
59.24936117008995
 31
0.0
  0
LINE
  5
44B
330
1F
100
AcDbEntity
  8
0
  6
SLD-Solid
 62
     7
370
    25
100
AcDbLine
 10
13.27524410377857
 20
59.24936117008995
 30
0.0
 11
13.27524410377857
 21
59.27836117008995
 31
0.0
  0
LINE
  5
44C
330
1F
100
AcDbEntity
  8
0
  6
SLD-Solid
 62
     7
370
    25
100
AcDbLine
 10
13.66090069927241
 20
59.27836117008994
 30
0.0
 11
13.6603251974285
 21
59.27836117008997
 31
0.0
  0
ARC
  5
44D
330
1F
100
AcDbEntity
  8
0
  6
SLD-Solid
 62
     7
370
    25
100
AcDbCircle
 10
7.96326521170097
 20
69.71964446800122
 30
0.0
 40
0.081568085122018
100
AcDbArc
 50
144.3789062229137
 51
180.9014627189767
  0
SPLINE
  5
44E
330
1F
100
AcDbEntity
  8
0
  6
SLD-Solid
 62
     7
370
    25
100
AcDbSpline
210
0.0
220
0.0
230
1.0
 70
    12
 71
     3
 72
     9
 73
     5
 74
     0
 42
0.00000001
 43
0.00000001
 40
0.0
 40
0.0
 40
0.0
 40
0.0
 40
0.5000000000001174
 40
0.9999999999999999
 40
0.9999999999999999
 40
0.9999999999999999
 40
0.9999999999999999
 10
7.896959625123522
 20
69.76715153799184
 30
0.0
 41
1.0
 10
7.906620118635522
 20
69.77294606190436
 30
0.0
 41
1.0
 10
7.92594110565952
 20
69.78453510972942
 30
0.0
 41
1.0
 10
7.948295984263968
 20
69.78641914996979
 30
0.0
 41
1.0
 10
7.959473423566191
 20
69.78736117009
 30
0.0
 41
1.0
  0
LINE
  5
44F
330
1F
100
AcDbEntity
  8
0
  6
SLD-Solid
 62
     7
370
    25
100
AcDbLine
 10
7.959473423566191
 20
69.78736117009
 30
0.0
 11
12.06695406584187
 21
69.78736117008992
 31
0.0
  0
ARC
  5
450
330
1F
100
AcDbEntity
  8
0
  6
SLD-Solid
 62
     7
370
    25
100
AcDbCircle
 10
12.07679179971832
 20
69.72578580209414
 30
0.0
 40
0.062356290393524
100
AcDbArc
 50
99.07727977244559
 51
186.8383110012128
  0
LINE
  5
451
330
1F
100
AcDbEntity
  8
0
  6
SLD-Solid
 62
     7
370
    25
100
AcDbLine
 10
7.881707222166265
 20
69.71836117008998
 30
0.0
 11
12.0148791048065
 21
69.71836117008993
 31
0.0
  0
ARC
  5
452
330
1F
100
AcDbEntity
  8
0
  6
SLD-Solid
 62
     7
370
    25
100
AcDbCircle
 10
12.07679179971834
 20
59.31093653808568
 30
0.0
 40
0.0623562903934911
100
AcDbArc
 50
173.1616889987384
 51
260.9227202275736
  0
LINE
  5
453
330
1F
100
AcDbEntity
  8
0
  6
SLD-Solid
 62
     7
370
    25
100
AcDbLine
 10
7.959473423566259
 20
59.24936117008999
 30
0.0
 11
12.06695406584191
 21
59.24936117008992
 31
0.0
  0
SPLINE
  5
454
330
1F
100
AcDbEntity
  8
0
  6
SLD-Solid
 62
     7
370
    25
100
AcDbSpline
210
0.0
220
0.0
230
1.0
 70
    12
 71
     3
 72
     9
 73
     5
 74
     0
 42
0.00000001
 43
0.00000001
 40
0.0
 40
0.0
 40
0.0
 40
0.0
 40
0.5000000000001514
 40
1.0
 40
1.0
 40
1.0
 40
1.0
 10
7.896959625123519
 20
59.26957080218809
 30
0.0
 41
1.0
 10
7.906620118635532
 20
59.26377627827556
 30
0.0
 41
1.0
 10
7.925941105659553
 20
59.25218723045051
 30
0.0
 41
1.0
 10
7.948295984264027
 20
59.25030319021016
 30
0.0
 41
1.0
 10
7.959473423566259
 20
59.24936117008999
 30
0.0
 41
1.0
  0
ARC
  5
455
330
1F
100
AcDbEntity
  8
0
  6
SLD-Solid
 62
     7
370
    25
100
AcDbCircle
 10
7.963265211702163
 20
59.31707787217897
 30
0.0
 40
0.081568085123148
100
AcDbArc
 50
179.0985372812164
 51
215.6210937767481
  0
LINE
  5
456
330
1F
100
AcDbEntity
  8
0
  6
SLD-Solid
 62
     7
370
    25
100
AcDbLine
 10
7.88170722216632
 20
59.31836117008996
 30
0.0
 11
12.01487910480656
 21
59.31836117008993
 31
0.0
  0
LINE
  5
457
330
1F
100
AcDbEntity
  8
0
  6
SLD-Solid
 62
     7
370
    25
100
AcDbLine
 10
17.84614754294805
 20
59.31836117009002
 30
0.0
 11
17.84614754294801
 21
69.71836117009002
 31
0.0
  0
LINE
  5
458
330
1F
100
AcDbEntity
  8
0
  6
SLD-Solid
 62
     7
370
    25
100
AcDbLine
 10
7.88170722216632
 20
59.31836117008996
 30
0.0
 11
7.881707222166265
 21
69.71836117008998
 31
0.0
  0
ARC
  5
459
330
1F
100
AcDbEntity
  8
0
  6
SLD-Solid
 62
     7
370
    25
100
AcDbCircle
 10
12.07265709997315
 20
69.7226653045851
 30
0.0
 40
0.0361485741411744
100
AcDbArc
 50
99.07727977243853
 51
186.8383110011839
  0
LINE
  5
45A
330
1F
100
AcDbEntity
  8
0
  6
SLD-Solid
 62
     7
370
    25
100
AcDbLine
 10
12.06695406584188
 20
69.75836117008991
 30
0.0
 11
12.06695406584187
 21
69.78736117008992
 31
0.0
  0
ARC
  5
45B
330
1F
100
AcDbEntity
  8
0
  6
SLD-Solid
 62
     7
370
    25
100
AcDbCircle
 10
12.07265709997319
 20
59.31405703559471
 30
0.0
 40
0.0361485741411655
100
AcDbArc
 50
173.1616889987698
 51
260.922720227541
  0
LINE
  5
45C
330
1F
100
AcDbEntity
  8
0
  6
SLD-Solid
 62
     7
370
    25
100
AcDbLine
 10
12.06695406584191
 20
59.27836117008992
 30
0.0
 11
12.06695406584191
 21
59.24936117008992
 31
0.0
  0
LINE
  5
45D
330
1F
100
AcDbEntity
  8
0
  6
SLD-Solid
 62
     7
370
    25
100
AcDbLine
 10
12.45261066133571
 20
69.78736117008992
 30
0.0
 11
12.45261066133571
 21
69.75836117008993
 31
0.0
  0
LINE
  5
45E
330
1F
100
AcDbEntity
  8
0
  6
SLD-Solid
 62
     7
370
    25
100
AcDbLine
 10
12.06752956768578
 20
69.75836117008994
 30
0.0
 11
12.06695406584188
 21
69.75836117008991
 31
0.0
  0
LINE
  5
45F
330
1F
100
AcDbEntity
  8
0
  6
SLD-Solid
 62
     7
370
    25
100
AcDbLine
 10
12.45261066133571
 20
69.78736117008992
 30
0.0
 11
12.06695406584187
 21
69.78736117008992
 31
0.0
  0
LINE
  5
460
330
1F
100
AcDbEntity
  8
0
  6
SLD-Solid
 62
     7
370
    25
100
AcDbLine
 10
12.45261066133575
 20
59.24936117008993
 30
0.0
 11
12.45261066133575
 21
59.27836117008993
 31
0.0
  0
LINE
  5
461
330
1F
100
AcDbEntity
  8
0
  6
SLD-Solid
 62
     7
370
    25
100
AcDbLine
 10
12.45261066133575
 20
59.24936117008993
 30
0.0
 11
12.06695406584191
 21
59.24936117008992
 31
0.0
  0
LINE
  5
462
330
1F
100
AcDbEntity
  8
0
  6
SLD-Solid
 62
     7
370
    25
100
AcDbLine
 10
12.06752956768572
 20
59.27836117008995
 30
0.0
 11
12.06695406584191
 21
59.27836117008992
 31
0.0
  0
LINE
  5
463
330
1F
100
AcDbEntity
  8
0
  6
SLD-Solid
 62
     7
370
    25
100
AcDbLine
 10
17.86037438729513
 20
59.31836117009002
 30
0.0
 11
17.84614754294805
 21
59.31836117009002
 31
0.0
  0
LINE
  5
464
330
1F
100
AcDbEntity
  8
0
  6
SLD-Solid
 62
     7
370
    25
100
AcDbLine
 10
17.86037438729509
 20
69.71836117009002
 30
0.0
 11
17.84614754294801
 21
69.71836117009002
 31
0.0
  0
LINE
  5
465
330
1F
100
AcDbEntity
  8
0
  6
SLD-Solid
 62
     7
370
    25
100
AcDbLine
 10
7.88170722216632
 20
59.31836117008996
 30
0.0
 11
7.867480377819231
 21
59.31836117009
 31
0.0
  0
LINE
  5
466
330
1F
100
AcDbEntity
  8
0
  6
SLD-Solid
 62
     7
370
    25
100
AcDbLine
 10
7.881707222166265
 20
69.71836117008998
 30
0.0
 11
7.86748037781919
 21
69.71836117009
 31
0.0
  0
LINE
  5
467
330
1F
100
AcDbEntity
  8
0
  6
SLD-Solid
 62
     7
370
    25
100
AcDbLine
 10
7.794642678822023
 20
69.77265320682174
 30
0.0
 11
7.794642678822049
 21
69.87265320682175
 31
0.0
  0
LINE
  5
468
330
1F
100
AcDbEntity
  8
0
  6
SLD-Solid
 62
     7
370
    25
100
AcDbLine
 10
7.794642678822049
 20
69.87265320682175
 30
0.0
 11
7.798809656962002
 21
69.87265320682177
 31
0.0
  0
LINE
  5
469
330
1F
100
AcDbEntity
  8
0
  6
SLD-Solid
 62
     7
370
    25
100
AcDbLine
 10
7.72862127375291
 20
59.16406913335764
 30
0.0
 11
7.798809656961808
 21
59.16406913335764
 31
0.0
  0
LINE
  5
46A
330
1F
100
AcDbEntity
  8
0
  6
SLD-Solid
 62
     7
370
    25
100
AcDbLine
 10
7.728621273753093
 20
69.87265320682177
 30
0.0
 11
7.77142590247478
 21
69.87265320682175
 31
0.0
  0
LINE
  5
46B
330
1F
100
AcDbEntity
  8
0
  6
SLD-Solid
 62
     7
370
    25
100
AcDbLine
 10
7.771425902474748
 20
69.77265320682174
 30
0.0
 11
7.77142590247478
 21
69.87265320682175
 31
0.0
  0
LINE
  5
46C
330
1F
100
AcDbEntity
  8
0
  6
SLD-Solid
 62
     7
370
    25
100
AcDbLine
 10
7.794642678822023
 20
69.77265320682174
 30
0.0
 11
7.771425902474748
 21
69.77265320682174
 31
0.0
  0
LINE
  5
46D
330
1F
100
AcDbEntity
  8
0
  6
SLD-Solid
 62
     7
370
    25
100
AcDbLine
 10
5.651050616139307
 20
69.8434724686633
 30
0.0
 11
5.655474742143054
 21
69.8434724686633
 31
0.0
  0
LINE
  5
46E
330
1F
100
AcDbEntity
  8
0
  6
SLD-Solid
 62
     7
370
    25
100
AcDbLine
 10
5.655474742143054
 20
69.8434724686633
 30
0.0
 11
5.655474742143035
 21
69.87265320682162
 31
0.0
  0
LINE
  5
46F
330
1F
100
AcDbEntity
  8
0
  6
SLD-Solid
 62
     7
370
    25
100
AcDbLine
 10
5.655474742143035
 20
69.87265320682162
 30
0.0
 11
7.728621273753093
 21
69.87265320682177
 31
0.0
  0
LINE
  5
470
330
1F
100
AcDbEntity
  8
0
  6
SLD-Solid
 62
     7
370
    25
100
AcDbLine
 10
5.655474742142847
 20
59.1640691333575
 30
0.0
 11
7.72862127375291
 21
59.16406913335764
 31
0.0
  0
LINE
  5
471
330
1F
100
AcDbEntity
  8
0
  6
SLD-Solid
 62
     7
370
    25
100
AcDbLine
 10
5.655474742142842
 20
59.19324987151583
 30
0.0
 11
5.655474742142847
 21
59.1640691333575
 31
0.0
  0
LINE
  5
472
330
1F
100
AcDbEntity
  8
0
  6
SLD-Solid
 62
     7
370
    25
100
AcDbLine
 10
5.651050616139108
 20
59.19324987151583
 30
0.0
 11
5.655474742142842
 21
59.19324987151583
 31
0.0
  0
LINE
  5
473
330
1F
100
AcDbEntity
  8
0
  6
SLD-Solid
 62
     7
370
    25
100
AcDbLine
 10
5.651050616139108
 20
59.19324987151583
 30
0.0
 11
5.651050616139307
 21
69.8434724686633
 31
0.0
  0
LINE
  5
474
330
1F
100
AcDbEntity
  8
0
  6
SLD-Solid
 62
     7
370
    25
100
AcDbLine
 10
5.672455707698034
 20
69.91162434999192
 30
0.0
 11
7.745602239308125
 21
69.91162434999207
 31
0.0
  0
ARC
  5
475
330
1F
100
AcDbEntity
  8
0
  6
SLD-Solid
 62
     7
370
    25
100
AcDbCircle
 10
7.777637200396868
 20
69.87448055464408
 30
0.0
 40
0.0490499772152008
100
AcDbArc
 50
130.7763877743325
 51
182.1350377323969
  0
ARC
  5
476
330
1F
100
AcDbEntity
  8
0
  6
SLD-Solid
 62
     7
370
    25
100
AcDbCircle
 10
5.704490668786907
 20
69.87448055464391
 30
0.0
 40
0.0490499772152956
100
AcDbArc
 50
130.7763877744255
 51
182.1350377323595
  0
LINE
  5
477
330
1F
100
AcDbEntity
  8
0
  6
SLD-Solid
 62
     7
370
    25
100
AcDbLine
 10
7.745602239308125
 20
69.91162434999207
 30
0.0
 11
7.75692288301145
 21
69.88564358787853
 31
0.0
  0
ARC
  5
478
330
1F
100
AcDbEntity
  8
0
  6
SLD-Solid
 62
     7
370
    25
100
AcDbCircle
 10
7.767601203374388
 20
69.87326232276251
 30
0.0
 40
0.0163499924050961
100
AcDbArc
 50
130.7763877743419
 51
182.1350377323107
  0
ARC
  5
479
330
1F
100
AcDbEntity
  8
0
  6
SLD-Solid
 62
     7
370
    25
100
AcDbCircle
 10
7.777637200396759
 20
59.16224178553536
 30
0.0
 40
0.0490499772152807
100
AcDbArc
 50
177.8649622676486
 51
229.2236122256059
  0
LINE
  5
47A
330
1F
100
AcDbEntity
  8
0
  6
SLD-Solid
 62
     7
370
    25
100
AcDbLine
 10
5.672455707697883
 20
59.1250979901872
 30
0.0
 11
7.745602239307915
 21
59.12509799018734
 31
0.0
  0
ARC
  5
47B
330
1F
100
AcDbEntity
  8
0
  6
SLD-Solid
 62
     7
370
    25
100
AcDbCircle
 10
5.704490668786555
 20
59.16224178553518
 30
0.0
 40
0.0490499772151358
100
AcDbArc
 50
177.8649622675927
 51
229.2236122257258
  0
LINE
  5
47C
330
1F
100
AcDbEntity
  8
0
  6
SLD-Solid
 62
     7
370
    25
100
AcDbLine
 10
7.745602239307915
 20
59.12509799018734
 30
0.0
 11
7.756922883011247
 21
59.15107875230088
 31
0.0
  0
ARC
  5
47D
330
1F
100
AcDbEntity
  8
0
  6
SLD-Solid
 62
     7
370
    25
100
AcDbCircle
 10
7.767601203374284
 20
59.1634600174169
 30
0.0
 40
0.0163499924051659
100
AcDbArc
 50
177.8649622677244
 51
229.2236122254135
  0
LINE
  5
47E
330
1F
100
AcDbEntity
  8
0
  6
SLD-Solid
 62
     7
370
    25
100
AcDbLine
 10
7.794642678822049
 20
69.87265320682175
 30
0.0
 11
7.771425902474779
 21
69.87265320682175
 31
0.0
  0
LINE
  5
47F
330
1F
100
AcDbEntity
  8
0
  6
SLD-Solid
 62
     7
370
    25
100
AcDbLine
 10
5.676229255599147
 20
69.91451110133787
 30
0.0
 11
7.749375787209238
 21
69.91451110133801
 31
0.0
  0
LINE
  5
480
330
1F
100
AcDbEntity
  8
0
  6
SLD-Solid
 62
     7
370
    25
100
AcDbLine
 10
7.749375787209238
 20
69.91451110133801
 30
0.0
 11
7.745602239308125
 21
69.91162434999207
 31
0.0
  0
LINE
  5
481
330
1F
100
AcDbEntity
  8
0
  6
SLD-Solid
 62
     7
370
    25
100
AcDbLine
 10
5.672455707698034
 20
69.91162434999192
 30
0.0
 11
5.676229255599147
 21
69.91451110133787
 31
0.0
  0
LINE
  5
482
330
1F
100
AcDbEntity
  8
0
  6
SLD-Solid
 62
     7
370
    25
100
AcDbLine
 10
7.76069643091257
 20
69.88853033922447
 30
0.0
 11
7.75692288301145
 21
69.88564358787853
 31
0.0
  0
LINE
  5
483
330
1F
100
AcDbEntity
  8
0
  6
SLD-Solid
 62
     7
370
    25
100
AcDbLine
 10
7.749375787209238
 20
69.91451110133801
 30
0.0
 11
7.76069643091257
 21
69.88853033922447
 31
0.0
  0
LINE
  5
484
330
1F
100
AcDbEntity
  8
0
  6
SLD-Solid
 62
     7
370
    25
100
AcDbLine
 10
7.749375787209022
 20
59.12221123884139
 30
0.0
 11
7.745602239307915
 21
59.12509799018734
 31
0.0
  0
LINE
  5
485
330
1F
100
AcDbEntity
  8
0
  6
SLD-Solid
 62
     7
370
    25
100
AcDbLine
 10
7.760696430912368
 20
59.14819200095492
 30
0.0
 11
7.756922883011247
 21
59.15107875230088
 31
0.0
  0
LINE
  5
486
330
1F
100
AcDbEntity
  8
0
  6
SLD-Solid
 62
     7
370
    25
100
AcDbLine
 10
7.749375787209022
 20
59.12221123884139
 30
0.0
 11
7.760696430912368
 21
59.14819200095492
 31
0.0
  0
LINE
  5
487
330
1F
100
AcDbEntity
  8
0
  6
SLD-Solid
 62
     7
370
    25
100
AcDbLine
 10
5.676229255598979
 20
59.12221123884126
 30
0.0
 11
7.749375787209022
 21
59.12221123884139
 31
0.0
  0
LINE
  5
488
330
1F
100
AcDbEntity
  8
0
  6
SLD-Solid
 62
     7
370
    25
100
AcDbLine
 10
5.672455707697883
 20
59.1250979901872
 30
0.0
 11
5.676229255598979
 21
59.12221123884126
 31
0.0
  0
LINE
  5
489
330
1F
100
AcDbEntity
  8
0
  6
SLD-Solid
 62
     7
370
    25
100
AcDbLine
 10
5.681889577450838
 20
69.92750148239463
 30
0.0
 11
7.75503610906091
 21
69.92750148239477
 31
0.0
  0
ARC
  5
48A
330
1F
100
AcDbEntity
  8
0
  6
SLD-Solid
 62
     7
370
    25
100
AcDbCircle
 10
7.738697466846284
 20
69.92689236645401
 30
0.0
 40
0.0163499924051012
100
AcDbArc
 50
310.7763877744176
 51
2.1350377323584
  0
ARC
  5
48B
330
1F
100
AcDbEntity
  8
0
  6
SLD-Solid
 62
     7
370
    25
100
AcDbCircle
 10
5.66555093523611
 20
69.92689236645394
 30
0.0
 40
0.0163499924052042
100
AcDbArc
 50
310.7763877744766
 51
2.135037732096241
  0
LINE
  5
48C
330
1F
100
AcDbEntity
  8
0
  6
SLD-Solid
 62
     7
370
    25
100
AcDbLine
 10
7.75503610906091
 20
69.92750148239477
 30
0.0
 11
7.777677396467584
 21
69.92750148239477
 31
0.0
  0
ARC
  5
48D
330
1F
100
AcDbEntity
  8
0
  6
SLD-Solid
 62
     7
370
    25
100
AcDbCircle
 10
7.728661469823717
 20
69.9256741345725
 30
0.0
 40
0.0490499772152913
100
AcDbArc
 50
310.7763877743974
 51
2.135037732342392
  0
LINE
  5
48E
330
1F
100
AcDbEntity
  8
0
  6
SLD-Solid
 62
     7
370
    25
100
AcDbLine
 10
7.755036109060706
 20
59.10922085778463
 30
0.0
 11
7.777677396467396
 21
59.10922085778463
 31
0.0
  0
ARC
  5
48F
330
1F
100
AcDbEntity
  8
0
  6
SLD-Solid
 62
     7
370
    25
100
AcDbCircle
 10
7.738697466846098
 20
59.10982997372538
 30
0.0
 40
0.0163499924050818
100
AcDbArc
 50
357.8649622677146
 51
49.22361222567956
  0
ARC
  5
490
330
1F
100
AcDbEntity
  8
0
  6
SLD-Solid
 62
     7
370
    25
100
AcDbCircle
 10
7.728661469823557
 20
59.11104820560689
 30
0.0
 40
0.0490499772152646
100
AcDbArc
 50
357.8649622676738
 51
49.22361222563956
  0
LINE
  5
491
330
1F
100
AcDbEntity
  8
0
  6
SLD-Solid
 62
     7
370
    25
100
AcDbLine
 10
5.681889577450664
 20
59.10922085778449
 30
0.0
 11
7.755036109060706
 21
59.10922085778463
 31
0.0
  0
ARC
  5
492
330
1F
100
AcDbEntity
  8
0
  6
SLD-Solid
 62
     7
370
    25
100
AcDbCircle
 10
5.665550935235998
 20
59.10982997372521
 30
0.0
 40
0.0163499924051455
100
AcDbArc
 50
357.8649622677969
 51
49.22361222561002
  0
LINE
  5
493
330
1F
100
AcDbEntity
  8
0
  6
SLD-Solid
 62
     7
370
    25
100
AcDbLine
 10
7.75503610906091
 20
69.93265320682208
 30
0.0
 11
7.75503610906091
 21
69.92750148239477
 31
0.0
  0
LINE
  5
494
330
1F
100
AcDbEntity
  8
0
  6
SLD-Solid
 62
     7
370
    25
100
AcDbLine
 10
5.681889577450838
 20
69.92750148239463
 30
0.0
 11
5.681889577450838
 21
69.93265320682208
 31
0.0
  0
LINE
  5
495
330
1F
100
AcDbEntity
  8
0
  6
SLD-Solid
 62
     7
370
    25
100
AcDbLine
 10
7.777677396467584
 20
69.93265320682208
 30
0.0
 11
7.777677396467584
 21
69.92750148239477
 31
0.0
  0
LINE
  5
496
330
1F
100
AcDbEntity
  8
0
  6
SLD-Solid
 62
     7
370
    25
100
AcDbLine
 10
7.755036109060706
 20
59.10406913335787
 30
0.0
 11
7.755036109060706
 21
59.10922085778463
 31
0.0
  0
LINE
  5
497
330
1F
100
AcDbEntity
  8
0
  6
SLD-Solid
 62
     7
370
    25
100
AcDbLine
 10
5.681889577450664
 20
59.10922085778449
 30
0.0
 11
5.681889577450664
 21
59.10406913335785
 31
0.0
  0
LINE
  5
498
330
1F
100
AcDbEntity
  8
0
  6
SLD-Solid
 62
     7
370
    25
100
AcDbLine
 10
7.777677396467396
 20
59.10406913335787
 30
0.0
 11
7.777677396467396
 21
59.10922085778463
 31
0.0
  0
LINE
  5
499
330
1F
100
AcDbEntity
  8
0
  6
SLD-Solid
 62
     7
370
    25
100
AcDbLine
 10
5.651050616139108
 20
59.19324987151583
 30
0.0
 11
5.631427382556924
 21
59.19324987151593
 31
0.0
  0
LINE
  5
49A
330
1F
100
AcDbEntity
  8
0
  6
SLD-Solid
 62
     7
370
    25
100
AcDbLine
 10
5.631427382556924
 20
59.19324987151593
 30
0.0
 11
5.631427382557124
 21
69.84347246866335
 31
0.0
  0
LINE
  5
49B
330
1F
100
AcDbEntity
  8
0
  6
SLD-Solid
 62
     7
370
    25
100
AcDbLine
 10
5.651050616139307
 20
69.8434724686633
 30
0.0
 11
5.631427382557124
 21
69.84347246866335
 31
0.0
  0
ARC
  5
49C
330
1F
100
AcDbEntity
  8
0
  6
SLD-Solid
 62
     7
370
    25
100
AcDbCircle
 10
5.651427382557119
 20
69.9275014823947
 30
0.0
 40
0.0149999999999955
100
AcDbArc
 50
299.9999999999688
 51
0.0000000000542815
  0
ARC
  5
49D
330
1F
100
AcDbEntity
  8
0
  6
SLD-Solid
 62
     7
370
    25
100
AcDbCircle
 10
5.676427382557095
 20
69.8726532068217
 30
0.0
 40
0.0449999999999822
100
AcDbArc
 50
119.999999999984
 51
179.9999999999455
  0
ARC
  5
49E
330
1F
100
AcDbEntity
  8
0
  6
SLD-Solid
 62
     7
370
    25
100
AcDbCircle
 10
5.676427382556923
 20
59.16406913335756
 30
0.0
 40
0.0449999999999955
100
AcDbArc
 50
179.9999999999455
 51
240.0000000000242
  0
ARC
  5
49F
330
1F
100
AcDbEntity
  8
0
  6
SLD-Solid
 62
     7
370
    25
100
AcDbCircle
 10
5.651427382556944
 20
59.10922085778456
 30
0.0
 40
0.0149999999999988
100
AcDbArc
 50
0.0000000000135704
 51
60.00000000000954
  0
LINE
  5
4A0
330
1F
100
AcDbEntity
  8
0
  6
SLD-Solid
 62
     7
370
    25
100
AcDbLine
 10
5.666427382557099
 20
69.93265320682208
 30
0.0
 11
5.666427382557099
 21
69.9275014823947
 31
0.0
  0
LINE
  5
4A1
330
1F
100
AcDbEntity
  8
0
  6
SLD-Solid
 62
     7
370
    25
100
AcDbLine
 10
5.631427382557113
 20
69.87265320682174
 30
0.0
 11
5.631427382557128
 21
69.8434724686634
 31
0.0
  0
LINE
  5
4A2
330
1F
100
AcDbEntity
  8
0
  6
SLD-Solid
 62
     7
370
    25
100
AcDbLine
 10
5.631427382556928
 20
59.1640691333576
 30
0.0
 11
5.631427382556927
 21
59.19324987151593
 31
0.0
  0
LINE
  5
4A3
330
1F
100
AcDbEntity
  8
0
  6
SLD-Solid
 62
     7
370
    25
100
AcDbLine
 10
5.666427382556943
 20
59.10406913335785
 30
0.0
 11
5.666427382556943
 21
59.10922085778456
 31
0.0
  0
LINE
  5
4A4
330
1F
100
AcDbEntity
  8
0
  6
SLD-Solid
 62
     7
370
    25
100
AcDbLine
 10
5.65892738255711
 20
69.91451110133794
 30
0.0
 11
5.653927382557117
 21
69.91162434999198
 31
0.0
  0
LINE
  5
4A5
330
1F
100
AcDbEntity
  8
0
  6
SLD-Solid
 62
     7
370
    25
100
AcDbLine
 10
5.658927382556938
 20
59.12221123884132
 30
0.0
 11
5.653927382556948
 21
59.12509799018726
 31
0.0
  0
LINE
  5
4A6
330
1F
100
AcDbEntity
  8
0
  6
SLD-Solid
 62
     7
370
    25
100
AcDbLine
 10
17.93515403945439
 20
59.26406913335793
 30
0.0
 11
17.93515403945436
 21
59.16406913335793
 31
0.0
  0
LINE
  5
4A7
330
1F
100
AcDbEntity
  8
0
  6
SLD-Solid
 62
     7
370
    25
100
AcDbLine
 10
17.93515403945436
 20
59.16406913335793
 30
0.0
 11
17.93098706131441
 21
59.16406913335791
 31
0.0
  0
LINE
  5
4A8
330
1F
100
AcDbEntity
  8
0
  6
SLD-Solid
 62
     7
370
    25
100
AcDbLine
 10
18.00117544452347
 20
69.87265320682202
 30
0.0
 11
17.93098706131456
 21
69.87265320682202
 31
0.0
  0
LINE
  5
4A9
330
1F
100
AcDbEntity
  8
0
  6
SLD-Solid
 62
     7
370
    25
100
AcDbLine
 10
18.00117544452332
 20
59.16406913335791
 30
0.0
 11
17.95837081580163
 21
59.16406913335793
 31
0.0
  0
LINE
  5
4AA
330
1F
100
AcDbEntity
  8
0
  6
SLD-Solid
 62
     7
370
    25
100
AcDbLine
 10
17.95837081580166
 20
59.26406913335793
 30
0.0
 11
17.95837081580163
 21
59.16406913335793
 31
0.0
  0
LINE
  5
4AB
330
1F
100
AcDbEntity
  8
0
  6
SLD-Solid
 62
     7
370
    25
100
AcDbLine
 10
17.93515403945439
 20
59.26406913335793
 30
0.0
 11
17.95837081580166
 21
59.26406913335793
 31
0.0
  0
LINE
  5
4AC
330
1F
100
AcDbEntity
  8
0
  6
SLD-Solid
 62
     7
370
    25
100
AcDbLine
 10
20.07874610213708
 20
59.19324987151638
 30
0.0
 11
20.07432197613333
 21
59.19324987151638
 31
0.0
  0
LINE
  5
4AD
330
1F
100
AcDbEntity
  8
0
  6
SLD-Solid
 62
     7
370
    25
100
AcDbLine
 10
20.07432197613333
 20
59.19324987151638
 30
0.0
 11
20.07432197613335
 21
59.16406913335804
 31
0.0
  0
LINE
  5
4AE
330
1F
100
AcDbEntity
  8
0
  6
SLD-Solid
 62
     7
370
    25
100
AcDbLine
 10
20.07432197613335
 20
59.16406913335804
 30
0.0
 11
18.00117544452332
 21
59.16406913335791
 31
0.0
  0
LINE
  5
4AF
330
1F
100
AcDbEntity
  8
0
  6
SLD-Solid
 62
     7
370
    25
100
AcDbLine
 10
20.0743219761335
 20
69.87265320682216
 30
0.0
 11
18.00117544452347
 21
69.87265320682202
 31
0.0
  0
LINE
  5
4B0
330
1F
100
AcDbEntity
  8
0
  6
SLD-Solid
 62
     7
370
    25
100
AcDbLine
 10
20.07432197613351
 20
69.84347246866383
 30
0.0
 11
20.0743219761335
 21
69.87265320682216
 31
0.0
  0
LINE
  5
4B1
330
1F
100
AcDbEntity
  8
0
  6
SLD-Solid
 62
     7
370
    25
100
AcDbLine
 10
20.07874610213725
 20
69.84347246866383
 30
0.0
 11
20.07432197613351
 21
69.84347246866383
 31
0.0
  0
LINE
  5
4B2
330
1F
100
AcDbEntity
  8
0
  6
SLD-Solid
 62
     7
370
    25
100
AcDbLine
 10
20.07874610213725
 20
69.84347246866383
 30
0.0
 11
20.07874610213708
 21
59.19324987151638
 31
0.0
  0
LINE
  5
4B3
330
1F
100
AcDbEntity
  8
0
  6
SLD-Solid
 62
     7
370
    25
100
AcDbLine
 10
20.05734101057835
 20
59.12509799018775
 30
0.0
 11
17.98419447896828
 21
59.12509799018761
 31
0.0
  0
ARC
  5
4B4
330
1F
100
AcDbEntity
  8
0
  6
SLD-Solid
 62
     7
370
    25
100
AcDbCircle
 10
17.95215951787957
 20
59.16224178553561
 30
0.0
 40
0.0490499772151727
100
AcDbArc
 50
310.7763877743004
 51
2.135037732389042
  0
ARC
  5
4B5
330
1F
100
AcDbEntity
  8
0
  6
SLD-Solid
 62
     7
370
    25
100
AcDbCircle
 10
20.02530604948945
 20
59.16224178553579
 30
0.0
 40
0.0490499772153357
100
AcDbArc
 50
310.7763877744321
 51
2.135037732315731
  0
LINE
  5
4B6
330
1F
100
AcDbEntity
  8
0
  6
SLD-Solid
 62
     7
370
    25
100
AcDbLine
 10
17.98419447896828
 20
59.12509799018761
 30
0.0
 11
17.97287383526496
 21
59.15107875230115
 31
0.0
  0
ARC
  5
4B7
330
1F
100
AcDbEntity
  8
0
  6
SLD-Solid
 62
     7
370
    25
100
AcDbCircle
 10
17.96219551490206
 20
59.16346001741714
 30
0.0
 40
0.0163499924050545
100
AcDbArc
 50
310.7763877742877
 51
2.135037732389661
  0
ARC
  5
4B8
330
1F
100
AcDbEntity
  8
0
  6
SLD-Solid
 62
     7
370
    25
100
AcDbCircle
 10
17.95215951787955
 20
69.8744805546443
 30
0.0
 40
0.0490499772153403
100
AcDbArc
 50
357.8649622676605
 51
49.22361222556241
  0
LINE
  5
4B9
330
1F
100
AcDbEntity
  8
0
  6
SLD-Solid
 62
     7
370
    25
100
AcDbLine
 10
20.05734101057847
 20
69.91162434999246
 30
0.0
 11
17.98419447896846
 21
69.91162434999234
 31
0.0
  0
ARC
  5
4BA
330
1F
100
AcDbEntity
  8
0
  6
SLD-Solid
 62
     7
370
    25
100
AcDbCircle
 10
20.02530604948983
 20
69.8744805546445
 30
0.0
 40
0.0490499772150994
100
AcDbArc
 50
357.864962267567
 51
49.2236122257362
  0
LINE
  5
4BB
330
1F
100
AcDbEntity
  8
0
  6
SLD-Solid
 62
     7
370
    25
100
AcDbLine
 10
17.98419447896846
 20
69.91162434999234
 30
0.0
 11
17.97287383526513
 21
69.8856435878788
 31
0.0
  0
ARC
  5
4BC
330
1F
100
AcDbEntity
  8
0
  6
SLD-Solid
 62
     7
370
    25
100
AcDbCircle
 10
17.96219551490207
 20
69.87326232276278
 30
0.0
 40
0.0163499924051873
100
AcDbArc
 50
357.8649622676537
 51
49.22361222532813
  0
LINE
  5
4BD
330
1F
100
AcDbEntity
  8
0
  6
SLD-Solid
 62
     7
370
    25
100
AcDbLine
 10
17.93515403945436
 20
59.16406913335793
 30
0.0
 11
17.95837081580163
 21
59.16406913335793
 31
0.0
  0
LINE
  5
4BE
330
1F
100
AcDbEntity
  8
0
  6
SLD-Solid
 62
     7
370
    25
100
AcDbLine
 10
20.05356746267724
 20
59.1222112388418
 30
0.0
 11
17.98042093106717
 21
59.12221123884166
 31
0.0
  0
LINE
  5
4BF
330
1F
100
AcDbEntity
  8
0
  6
SLD-Solid
 62
     7
370
    25
100
AcDbLine
 10
17.98042093106717
 20
59.12221123884166
 30
0.0
 11
17.98419447896828
 21
59.12509799018761
 31
0.0
  0
LINE
  5
4C0
330
1F
100
AcDbEntity
  8
0
  6
SLD-Solid
 62
     7
370
    25
100
AcDbLine
 10
20.05734101057835
 20
59.12509799018775
 30
0.0
 11
20.05356746267724
 21
59.1222112388418
 31
0.0
  0
LINE
  5
4C1
330
1F
100
AcDbEntity
  8
0
  6
SLD-Solid
 62
     7
370
    25
100
AcDbLine
 10
17.96910028736384
 20
59.14819200095519
 30
0.0
 11
17.97287383526496
 21
59.15107875230115
 31
0.0
  0
LINE
  5
4C2
330
1F
100
AcDbEntity
  8
0
  6
SLD-Solid
 62
     7
370
    25
100
AcDbLine
 10
17.98042093106717
 20
59.12221123884166
 30
0.0
 11
17.96910028736384
 21
59.14819200095519
 31
0.0
  0
LINE
  5
4C3
330
1F
100
AcDbEntity
  8
0
  6
SLD-Solid
 62
     7
370
    25
100
AcDbLine
 10
17.98042093106735
 20
69.91451110133828
 30
0.0
 11
17.98419447896846
 21
69.91162434999234
 31
0.0
  0
LINE
  5
4C4
330
1F
100
AcDbEntity
  8
0
  6
SLD-Solid
 62
     7
370
    25
100
AcDbLine
 10
17.96910028736401
 20
69.88853033922474
 30
0.0
 11
17.97287383526513
 21
69.8856435878788
 31
0.0
  0
LINE
  5
4C5
330
1F
100
AcDbEntity
  8
0
  6
SLD-Solid
 62
     7
370
    25
100
AcDbLine
 10
17.98042093106735
 20
69.91451110133828
 30
0.0
 11
17.96910028736401
 21
69.88853033922474
 31
0.0
  0
LINE
  5
4C6
330
1F
100
AcDbEntity
  8
0
  6
SLD-Solid
 62
     7
370
    25
100
AcDbLine
 10
20.05356746267737
 20
69.9145111013384
 30
0.0
 11
17.98042093106735
 21
69.91451110133828
 31
0.0
  0
LINE
  5
4C7
330
1F
100
AcDbEntity
  8
0
  6
SLD-Solid
 62
     7
370
    25
100
AcDbLine
 10
20.05734101057847
 20
69.91162434999246
 30
0.0
 11
20.05356746267737
 21
69.9145111013384
 31
0.0
  0
LINE
  5
4C8
330
1F
100
AcDbEntity
  8
0
  6
SLD-Solid
 62
     7
370
    25
100
AcDbLine
 10
20.04790714082555
 20
59.10922085778503
 30
0.0
 11
17.9747606092155
 21
59.1092208577849
 31
0.0
  0
ARC
  5
4C9
330
1F
100
AcDbEntity
  8
0
  6
SLD-Solid
 62
     7
370
    25
100
AcDbCircle
 10
17.99109925143008
 20
59.10982997372566
 30
0.0
 40
0.0163499924050614
100
AcDbArc
 50
130.7763877743153
 51
182.1350377323651
  0
ARC
  5
4CA
330
1F
100
AcDbEntity
  8
0
  6
SLD-Solid
 62
     7
370
    25
100
AcDbCircle
 10
20.06424578304027
 20
59.10982997372573
 30
0.0
 40
0.016349992405192
100
AcDbArc
 50
130.7763877744638
 51
182.1350377321231
  0
LINE
  5
4CB
330
1F
100
AcDbEntity
  8
0
  6
SLD-Solid
 62
     7
370
    25
100
AcDbLine
 10
17.9747606092155
 20
59.1092208577849
 30
0.0
 11
17.95211932180883
 21
59.1092208577849
 31
0.0
  0
ARC
  5
4CC
330
1F
100
AcDbEntity
  8
0
  6
SLD-Solid
 62
     7
370
    25
100
AcDbCircle
 10
18.00113524845262
 20
59.1110482056072
 30
0.0
 40
0.0490499772152216
100
AcDbArc
 50
130.7763877743624
 51
182.1350377323794
  0
LINE
  5
4CD
330
1F
100
AcDbEntity
  8
0
  6
SLD-Solid
 62
     7
370
    25
100
AcDbLine
 10
17.97476060921567
 20
69.92750148239504
 30
0.0
 11
17.95211932180898
 21
69.92750148239504
 31
0.0
  0
ARC
  5
4CE
330
1F
100
AcDbEntity
  8
0
  6
SLD-Solid
 62
     7
370
    25
100
AcDbCircle
 10
17.99109925143036
 20
69.92689236645434
 30
0.0
 40
0.0163499924051771
100
AcDbArc
 50
177.8649622678496
 51
229.2236122255585
  0
ARC
  5
4CF
330
1F
100
AcDbEntity
  8
0
  6
SLD-Solid
 62
     7
370
    25
100
AcDbCircle
 10
18.00113524845287
 20
69.92567413457279
 30
0.0
 40
0.0490499772153123
100
AcDbArc
 50
177.8649622676752
 51
229.2236122256104
  0
LINE
  5
4D0
330
1F
100
AcDbEntity
  8
0
  6
SLD-Solid
 62
     7
370
    25
100
AcDbLine
 10
20.04790714082569
 20
69.92750148239517
 30
0.0
 11
17.97476060921567
 21
69.92750148239504
 31
0.0
  0
ARC
  5
4D1
330
1F
100
AcDbEntity
  8
0
  6
SLD-Solid
 62
     7
370
    25
100
AcDbCircle
 10
20.06424578304039
 20
69.92689236645445
 30
0.0
 40
0.0163499924051751
100
AcDbArc
 50
177.8649622678008
 51
229.2236122255165
  0
LINE
  5
4D2
330
1F
100
AcDbEntity
  8
0
  6
SLD-Solid
 62
     7
370
    25
100
AcDbLine
 10
17.9747606092155
 20
59.10406913335787
 30
0.0
 11
17.9747606092155
 21
59.1092208577849
 31
0.0
  0
LINE
  5
4D3
330
1F
100
AcDbEntity
  8
0
  6
SLD-Solid
 62
     7
370
    25
100
AcDbLine
 10
20.04790714082555
 20
59.10922085778503
 30
0.0
 11
20.04790714082555
 21
59.10406913335785
 31
0.0
  0
LINE
  5
4D4
330
1F
100
AcDbEntity
  8
0
  6
SLD-Solid
 62
     7
370
    25
100
AcDbLine
 10
17.95211932180883
 20
59.10406913335787
 30
0.0
 11
17.95211932180883
 21
59.1092208577849
 31
0.0
  0
LINE
  5
4D5
330
1F
100
AcDbEntity
  8
0
  6
SLD-Solid
 62
     7
370
    25
100
AcDbLine
 10
17.97476060921567
 20
69.93265320682208
 30
0.0
 11
17.97476060921567
 21
69.92750148239504
 31
0.0
  0
LINE
  5
4D6
330
1F
100
AcDbEntity
  8
0
  6
SLD-Solid
 62
     7
370
    25
100
AcDbLine
 10
20.04790714082569
 20
69.92750148239517
 30
0.0
 11
20.04790714082569
 21
69.93265320682208
 31
0.0
  0
LINE
  5
4D7
330
1F
100
AcDbEntity
  8
0
  6
SLD-Solid
 62
     7
370
    25
100
AcDbLine
 10
17.95211932180898
 20
69.93265320682208
 30
0.0
 11
17.95211932180898
 21
69.92750148239504
 31
0.0
  0
LINE
  5
4D8
330
1F
100
AcDbEntity
  8
0
  6
SLD-Solid
 62
     7
370
    25
100
AcDbLine
 10
20.07874610213725
 20
69.84347246866383
 30
0.0
 11
20.09836933571943
 21
69.84347246866375
 31
0.0
  0
LINE
  5
4D9
330
1F
100
AcDbEntity
  8
0
  6
SLD-Solid
 62
     7
370
    25
100
AcDbLine
 10
20.09836933571943
 20
69.84347246866375
 30
0.0
 11
20.09836933571927
 21
59.19324987151631
 31
0.0
  0
LINE
  5
4DA
330
1F
100
AcDbEntity
  8
0
  6
SLD-Solid
 62
     7
370
    25
100
AcDbLine
 10
20.07874610213708
 20
59.19324987151638
 30
0.0
 11
20.09836933571927
 21
59.19324987151631
 31
0.0
  0
ARC
  5
4DB
330
1F
100
AcDbEntity
  8
0
  6
SLD-Solid
 62
     7
370
    25
100
AcDbCircle
 10
20.07836933571927
 20
59.10922085778496
 30
0.0
 40
0.0150000000000074
100
AcDbArc
 50
119.999999999938
 51
179.9999999999525
  0
ARC
  5
4DC
330
1F
100
AcDbEntity
  8
0
  6
SLD-Solid
 62
     7
370
    25
100
AcDbCircle
 10
20.05336933571929
 20
59.16406913335798
 30
0.0
 40
0.0449999999999905
100
AcDbArc
 50
299.9999999999777
 51
359.9999999999283
  0
ARC
  5
4DD
330
1F
100
AcDbEntity
  8
0
  6
SLD-Solid
 62
     7
370
    25
100
AcDbCircle
 10
20.05336933571943
 20
69.87265320682212
 30
0.0
 40
0.0449999999999946
100
AcDbArc
 50
359.9999999999463
 51
60.00000000002191
  0
ARC
  5
4DE
330
1F
100
AcDbEntity
  8
0
  6
SLD-Solid
 62
     7
370
    25
100
AcDbCircle
 10
20.07836933571941
 20
69.92750148239512
 30
0.0
 40
0.0150000000000006
100
AcDbArc
 50
179.9999999999864
 51
240.0000000000121
  0
LINE
  5
4DF
330
1F
100
AcDbEntity
  8
0
  6
SLD-Solid
 62
     7
370
    25
100
AcDbLine
 10
20.06336933571929
 20
59.10406913335785
 30
0.0
 11
20.06336933571929
 21
59.10922085778496
 31
0.0
  0
LINE
  5
4E0
330
1F
100
AcDbEntity
  8
0
  6
SLD-Solid
 62
     7
370
    25
100
AcDbLine
 10
20.09836933571927
 20
59.16406913335793
 30
0.0
 11
20.09836933571925
 21
59.19324987151627
 31
0.0
  0
LINE
  5
4E1
330
1F
100
AcDbEntity
  8
0
  6
SLD-Solid
 62
     7
370
    25
100
AcDbLine
 10
20.09836933571942
 20
69.87265320682208
 30
0.0
 11
20.09836933571942
 21
69.84347246866375
 31
0.0
  0
LINE
  5
4E2
330
1F
100
AcDbEntity
  8
0
  6
SLD-Solid
 62
     7
370
    25
100
AcDbLine
 10
20.06336933571941
 20
69.93265320682208
 30
0.0
 11
20.06336933571941
 21
69.92750148239512
 31
0.0
  0
LINE
  5
4E3
330
1F
100
AcDbEntity
  8
0
  6
SLD-Solid
 62
     7
370
    25
100
AcDbLine
 10
20.07086933571928
 20
59.12221123884174
 30
0.0
 11
20.07586933571927
 21
59.12509799018768
 31
0.0
  0
LINE
  5
4E4
330
1F
100
AcDbEntity
  8
0
  6
SLD-Solid
 62
     7
370
    25
100
AcDbLine
 10
20.07086933571941
 20
69.91451110133835
 30
0.0
 11
20.0758693357194
 21
69.91162434999241
 31
0.0
  0
LINE
  5
4E5
330
1F
100
AcDbEntity
  8
0
  6
SLD-Solid
 62
     7
370
    25
100
AcDbLine
 10
12.2029811858966
 20
69.72936117008993
 30
0.0
 11
12.2029811858966
 21
69.75836117008994
 31
0.0
  0
LINE
  5
4E6
330
1F
100
AcDbEntity
  8
0
  6
SLD-Solid
 62
     7
370
    25
100
AcDbLine
 10
13.52487357921756
 20
69.72936117008994
 30
0.0
 11
13.52487357921756
 21
69.75836117008994
 31
0.0
  0
LINE
  5
4E7
330
1F
100
AcDbEntity
  8
0
  6
SLD-Solid
 62
     7
370
    25
100
AcDbLine
 10
13.52487357921756
 20
69.75836117008994
 30
0.0
 11
12.2029811858966
 21
69.75836117008994
 31
0.0
  0
LINE
  5
4E8
330
1F
100
AcDbEntity
  8
0
  6
SLD-Solid
 62
     7
370
    25
100
AcDbLine
 10
12.2029811858966
 20
69.72936117008993
 30
0.0
 11
13.52487357921756
 21
69.72936117008994
 31
0.0
  0
LINE
  5
4E9
330
1F
100
AcDbEntity
  8
0
  6
SLD-Solid
 62
     7
370
    25
100
AcDbLine
 10
12.06752956768578
 20
69.75836117008994
 30
0.0
 11
12.2029811858966
 21
69.75836117008994
 31
0.0
  0
LINE
  5
4EA
330
1F
100
AcDbEntity
  8
0
  6
SLD-Solid
 62
     7
370
    25
100
AcDbLine
 10
12.03792961910882
 20
69.72936117008993
 30
0.0
 11
12.2029811858966
 21
69.72936117008993
 31
0.0
  0
LINE
  5
4EB
330
1F
100
AcDbEntity
  8
0
  6
SLD-Solid
 62
     7
370
    25
100
AcDbLine
 10
13.66032519742841
 20
69.75836117008994
 30
0.0
 11
13.52487357921756
 21
69.75836117008994
 31
0.0
  0
LINE
  5
4EC
330
1F
100
AcDbEntity
  8
0
  6
SLD-Solid
 62
     7
370
    25
100
AcDbLine
 10
13.68992514600545
 20
69.72936117008994
 30
0.0
 11
13.52487357921756
 21
69.72936117008994
 31
0.0
  0
LINE
  5
4ED
330
1F
100
AcDbEntity
  8
0
  6
SLD-Solid
 62
     7
370
    25
100
AcDbLine
 10
12.73633140580796
 20
69.8423611700989
 30
0.0
 11
12.99152337467556
 21
69.8423611700989
 31
0.0
  0
LINE
  5
4EE
330
1F
100
AcDbEntity
  8
0
  6
SLD-Solid
 62
     7
370
    25
100
AcDbLine
 10
13.52487357921757
 20
59.30736117008999
 30
0.0
 11
13.52487357921757
 21
59.27836117008999
 31
0.0
  0
LINE
  5
4EF
330
1F
100
AcDbEntity
  8
0
  6
SLD-Solid
 62
     7
370
    25
100
AcDbLine
 10
12.2029811858966
 20
59.30736117008999
 30
0.0
 11
12.2029811858966
 21
59.27836117008999
 31
0.0
  0
LINE
  5
4F0
330
1F
100
AcDbEntity
  8
0
  6
SLD-Solid
 62
     7
370
    25
100
AcDbLine
 10
12.2029811858966
 20
59.27836117008999
 30
0.0
 11
13.52487357921757
 21
59.27836117008999
 31
0.0
  0
LINE
  5
4F1
330
1F
100
AcDbEntity
  8
0
  6
SLD-Solid
 62
     7
370
    25
100
AcDbLine
 10
13.52487357921757
 20
59.30736117008999
 30
0.0
 11
12.2029811858966
 21
59.30736117008999
 31
0.0
  0
LINE
  5
4F2
330
1F
100
AcDbEntity
  8
0
  6
SLD-Solid
 62
     7
370
    25
100
AcDbLine
 10
13.6603251974285
 20
59.27836117008997
 30
0.0
 11
13.52487357921757
 21
59.27836117008999
 31
0.0
  0
LINE
  5
4F3
330
1F
100
AcDbEntity
  8
0
  6
SLD-Solid
 62
     7
370
    25
100
AcDbLine
 10
13.68992514600549
 20
59.30736117008999
 30
0.0
 11
13.52487357921757
 21
59.30736117008999
 31
0.0
  0
LINE
  5
4F4
330
1F
100
AcDbEntity
  8
0
  6
SLD-Solid
 62
     7
370
    25
100
AcDbLine
 10
12.06752956768572
 20
59.27836117008995
 30
0.0
 11
12.2029811858966
 21
59.27836117008999
 31
0.0
  0
LINE
  5
4F5
330
1F
100
AcDbEntity
  8
0
  6
SLD-Solid
 62
     7
370
    25
100
AcDbLine
 10
12.03792961910885
 20
59.30736117008999
 30
0.0
 11
12.2029811858966
 21
59.30736117008999
 31
0.0
  0
LINE
  5
4F6
330
1F
100
AcDbEntity
  8
0
  6
SLD-Solid
 62
     7
370
    25
100
AcDbLine
 10
12.9915233593062
 20
59.19436117008103
 30
0.0
 11
12.7363313904386
 21
59.19436117008103
 31
0.0
  0
LINE
  5
4F7
330
1F
100
AcDbEntity
  8
0
  6
SLD-Solid
 62
     7
370
    25
100
AcDbLine
 10
12.10921780233434
 20
59.1040691333579
 30
0.0
 11
13.6186369627799
 21
59.1040691333579
 31
0.0
  0
LINE
  5
4F8
330
1F
100
AcDbEntity
  8
0
  6
SLD-Solid
 62
     7
370
    25
100
AcDbLine
 10
13.20354669365737
 20
57.87406913335792
 30
0.0
 11
12.52430807145687
 21
57.87406913335792
 31
0.0
  0
LINE
  5
4F9
330
1F
100
AcDbEntity
  8
0
  6
SLD-Solid
 62
     7
370
    25
100
AcDbLine
 10
5.64369190354598
 20
59.10406913335785
 30
0.0
 11
5.64369190354598
 21
58.42406913335785
 31
0.0
  0
LINE
  5
4FA
330
1F
100
AcDbEntity
  8
0
  6
SLD-Solid
 62
     7
370
    25
100
AcDbLine
 10
12.10921780233434
 20
59.1040691333579
 30
0.0
 11
5.64369190354598
 21
59.10406913335785
 31
0.0
  0
LINE
  5
4FB
330
1F
100
AcDbEntity
  8
0
  6
SLD-Solid
 62
     7
370
    25
100
AcDbLine
 10
20.08416286156826
 20
58.42406913335785
 30
0.0
 11
20.08416286156826
 21
59.10406913335785
 31
0.0
  0
LINE
  5
4FC
330
1F
100
AcDbEntity
  8
0
  6
SLD-Solid
 62
     7
370
    25
100
AcDbLine
 10
13.6186369627799
 20
59.1040691333579
 30
0.0
 11
20.08416286156826
 21
59.10406913335785
 31
0.0
  0
LINE
  5
4FD
330
1F
100
AcDbEntity
  8
0
  6
SLD-Solid
 62
     7
370
    25
100
AcDbLine
 10
19.54642738255712
 20
57.87406913335779
 30
0.0
 11
13.20354669365737
 21
57.87406913335792
 31
0.0
  0
ELLIPSE
  5
4FE
330
1F
100
AcDbEntity
  8
0
  6
SLD-Solid
 62
     7
370
    25
100
AcDbEllipse
 10
19.54642738255712
 20
58.4240691333578
 30
0.0
 11
3.197442310920451E-14
 21
0.5500000000000043
 31
0.0
210
0.0
220
0.0
230
1.0
 40
0.9777008709293373
 41
3.141592653589866
 42
4.712388980384851
  0
LINE
  5
4FF
330
1F
100
AcDbEntity
  8
0
  6
SLD-Solid
 62
     7
370
    25
100
AcDbLine
 10
12.52430807145687
 20
57.87406913335792
 30
0.0
 11
6.18142738255712
 21
57.87406913335779
 31
0.0
  0
ELLIPSE
  5
500
330
1F
100
AcDbEntity
  8
0
  6
SLD-Solid
 62
     7
370
    25
100
AcDbEllipse
 10
6.18142738255712
 20
58.4240691333578
 30
0.0
 11
-3.286260152890463E-14
 21
0.5500000000000043
 31
0.0
210
0.0
220
0.0
230
1.0
 40
0.9777008709293358
 41
1.570796326794748
 42
3.141592653589732
  0
ARC
  5
501
330
1F
100
AcDbEntity
  8
0
  6
SLD-Solid
 62
     7
370
    25
100
AcDbCircle
 10
6.18142738255712
 20
58.4240691333578
 30
0.0
 40
0.5500000000000043
100
AcDbArc
 50
179.9999999999874
 51
270.0000000000008
  0
LINE
  5
502
330
1F
100
AcDbEntity
  8
0
  6
SLD-Solid
 62
     7
370
    25
100
AcDbLine
 10
5.631427382557118
 20
58.42406913335792
 30
0.0
 11
5.64369190354598
 21
58.42406913335785
 31
0.0
  0
LINE
  5
503
330
1F
100
AcDbEntity
  8
0
  6
SLD-Solid
 62
     7
370
    25
100
AcDbLine
 10
20.08416286156826
 20
58.42406913335785
 30
0.0
 11
20.09642738255712
 21
58.42406913335792
 31
0.0
  0
ARC
  5
504
330
1F
100
AcDbEntity
  8
0
  6
SLD-Solid
 62
     7
370
    25
100
AcDbCircle
 10
19.54642738255712
 20
58.4240691333578
 30
0.0
 40
0.5500000000000043
100
AcDbArc
 50
270.0000000000008
 51
0.0000000000125834
  0
LINE
  5
505
330
1F
100
AcDbEntity
  8
0
  6
SLD-Solid
 62
     7
370
    25
100
AcDbLine
 10
20.09642738255712
 20
59.10406913335792
 30
0.0
 11
20.09642738255712
 21
58.42406913335792
 31
0.0
  0
LINE
  5
506
330
1F
100
AcDbEntity
  8
0
  6
SLD-Solid
 62
     7
370
    25
100
AcDbLine
 10
20.08416286156826
 20
59.10406913335785
 30
0.0
 11
20.09642738255712
 21
59.10406913335792
 31
0.0
  0
LINE
  5
507
330
1F
100
AcDbEntity
  8
0
  6
SLD-Solid
 62
     7
370
    25
100
AcDbLine
 10
5.631427382557118
 20
58.42406913335792
 30
0.0
 11
5.631427382557118
 21
59.10406913335792
 31
0.0
  0
LINE
  5
508
330
1F
100
AcDbEntity
  8
0
  6
SLD-Solid
 62
     7
370
    25
100
AcDbLine
 10
5.631427382557118
 20
59.10406913335792
 30
0.0
 11
5.64369190354598
 21
59.10406913335785
 31
0.0
  0
LINE
  5
509
330
1F
100
AcDbEntity
  8
0
  6
SLD-Solid
 62
     7
370
    25
100
AcDbLine
 10
13.61863696277981
 20
69.93265320682208
 30
0.0
 11
12.10921780233426
 21
69.93265320682208
 31
0.0
  0
LINE
  5
50A
330
1F
100
AcDbEntity
  8
0
  6
SLD-Solid
 62
     7
370
    25
100
AcDbLine
 10
12.52430807145678
 20
71.16265320682206
 30
0.0
 11
13.20354669365728
 21
71.16265320682206
 31
0.0
  0
LINE
  5
50B
330
1F
100
AcDbEntity
  8
0
  6
SLD-Solid
 62
     7
370
    25
100
AcDbLine
 10
20.08416286156817
 20
69.93265320682208
 30
0.0
 11
20.08416286156817
 21
70.61265320682209
 31
0.0
  0
LINE
  5
50C
330
1F
100
AcDbEntity
  8
0
  6
SLD-Solid
 62
     7
370
    25
100
AcDbLine
 10
13.61863696277981
 20
69.93265320682208
 30
0.0
 11
20.08416286156817
 21
69.93265320682208
 31
0.0
  0
LINE
  5
50D
330
1F
100
AcDbEntity
  8
0
  6
SLD-Solid
 62
     7
370
    25
100
AcDbLine
 10
5.643691903545895
 20
70.61265320682209
 30
0.0
 11
5.643691903545895
 21
69.93265320682208
 31
0.0
  0
LINE
  5
50E
330
1F
100
AcDbEntity
  8
0
  6
SLD-Solid
 62
     7
370
    25
100
AcDbLine
 10
12.10921780233426
 20
69.93265320682208
 30
0.0
 11
5.643691903545895
 21
69.93265320682208
 31
0.0
  0
LINE
  5
50F
330
1F
100
AcDbEntity
  8
0
  6
SLD-Solid
 62
     7
370
    25
100
AcDbLine
 10
13.20354669365728
 20
71.16265320682206
 30
0.0
 11
19.54642738255703
 21
71.16265320682213
 31
0.0
  0
ELLIPSE
  5
510
330
1F
100
AcDbEntity
  8
0
  6
SLD-Solid
 62
     7
370
    25
100
AcDbEllipse
 10
19.54642738255703
 20
70.61265320682213
 30
0.0
 11
0.0
 21
0.5499999999999829
 31
0.0
210
0.0
220
0.0
230
1.0
 40
0.9777008709293753
 41
4.712388980384625
 42
6.283185307179586
  0
LINE
  5
511
330
1F
100
AcDbEntity
  8
0
  6
SLD-Solid
 62
     7
370
    25
100
AcDbLine
 10
6.181427382557034
 20
71.16265320682213
 30
0.0
 11
12.52430807145678
 21
71.16265320682206
 31
0.0
  0
ELLIPSE
  5
512
330
1F
100
AcDbEntity
  8
0
  6
SLD-Solid
 62
     7
370
    25
100
AcDbEllipse
 10
6.181427382557034
 20
70.61265320682213
 30
0.0
 11
0.0
 21
0.5499999999999829
 31
0.0
210
0.0
220
0.0
230
1.0
 40
0.9777008709293736
 41
0.0
 42
1.570796326794974
  0
ARC
  5
513
330
1F
100
AcDbEntity
  8
0
  6
SLD-Solid
 62
     7
370
    25
100
AcDbCircle
 10
19.54642738255703
 20
70.61265320682213
 30
0.0
 40
0.5500000000000043
100
AcDbArc
 50
359.9999999999875
 51
90.0
  0
LINE
  5
514
330
1F
100
AcDbEntity
  8
0
  6
SLD-Solid
 62
     7
370
    25
100
AcDbLine
 10
20.09642738255704
 20
70.612653206822
 30
0.0
 11
20.08416286156817
 21
70.61265320682209
 31
0.0
  0
LINE
  5
515
330
1F
100
AcDbEntity
  8
0
  6
SLD-Solid
 62
     7
370
    25
100
AcDbLine
 10
5.643691903545895
 20
70.61265320682209
 30
0.0
 11
5.631427382557034
 21
70.612653206822
 31
0.0
  0
ARC
  5
516
330
1F
100
AcDbEntity
  8
0
  6
SLD-Solid
 62
     7
370
    25
100
AcDbCircle
 10
6.181427382557034
 20
70.61265320682213
 30
0.0
 40
0.5499999999999998
100
AcDbArc
 50
90.0
 51
180.0000000000141
  0
LINE
  5
517
330
1F
100
AcDbEntity
  8
0
  6
SLD-Solid
 62
     7
370
    25
100
AcDbLine
 10
20.09642738255704
 20
70.612653206822
 30
0.0
 11
20.09642738255704
 21
69.93265320682201
 31
0.0
  0
LINE
  5
518
330
1F
100
AcDbEntity
  8
0
  6
SLD-Solid
 62
     7
370
    25
100
AcDbLine
 10
20.09642738255704
 20
69.93265320682201
 30
0.0
 11
20.08416286156817
 21
69.93265320682208
 31
0.0
  0
LINE
  5
519
330
1F
100
AcDbEntity
  8
0
  6
SLD-Solid
 62
     7
370
    25
100
AcDbLine
 10
5.631427382557034
 20
69.93265320682201
 30
0.0
 11
5.631427382557034
 21
70.612653206822
 31
0.0
  0
LINE
  5
51A
330
1F
100
AcDbEntity
  8
0
  6
SLD-Solid
 62
     7
370
    25
100
AcDbLine
 10
5.643691903545895
 20
69.93265320682208
 30
0.0
 11
5.631427382557034
 21
69.93265320682201
 31
0.0
  0
LINE
  5
51B
330
1F
100
AcDbEntity
  8
0
  6
SLD-Solid
 62
     7
370
    25
100
AcDbLine
 10
12.73633140580801
 20
59.18806913335803
 30
0.0
 11
12.9915233746756
 21
59.18806913335803
 31
0.0
  0
LINE
  5
51C
330
1F
100
AcDbEntity
  8
0
  6
SLD-Solid
 62
     7
370
    25
100
AcDbLine
 10
12.99152335930615
 20
69.84865320682196
 30
0.0
 11
12.73633139043856
 21
69.84865320682196
 31
0.0
  0
ARC
  5
51D
330
1F
100
AcDbEntity
  8
0
  6
SLD-Solid
 62
     7
370
    25
100
AcDbCircle
 10
6.169898359138132
 20
70.67436117009007
 30
0.0
 40
0.5400133207652553
100
AcDbArc
 50
89.99999999999982
 51
179.9999999999959
  0
LINE
  5
51E
330
1F
100
AcDbEntity
  8
0
  6
SLD-Solid
 62
     7
370
    25
100
AcDbLine
 10
5.629885038372877
 20
70.67436117009007
 30
0.0
 11
5.59029383675909
 21
70.67436117009007
 31
0.0
  0
ARC
  5
51F
330
1F
100
AcDbEntity
  8
0
  6
SLD-Solid
 62
     7
370
    25
100
AcDbCircle
 10
6.169898359138132
 20
70.67436117009004
 30
0.0
 40
0.5796045223790571
100
AcDbArc
 50
89.99999999999982
 51
179.9999999999954
  0
LINE
  5
520
330
1F
100
AcDbEntity
  8
0
  6
SLD-Solid
 62
     7
370
    25
100
AcDbLine
 10
6.169898359138134
 20
71.21437449085532
 30
0.0
 11
6.169898359138134
 21
71.2539656924691
 31
0.0
  0
LINE
  5
521
330
1F
100
AcDbEntity
  8
0
  6
SLD-Solid
 62
     7
370
    25
100
AcDbLine
 10
6.169898359138134
 20
71.21437449085532
 30
0.0
 11
6.169898359138137
 21
71.20884654252221
 31
0.0
  0
ARC
  5
522
330
1F
100
AcDbEntity
  8
0
  6
SLD-Solid
 62
     7
370
    25
100
AcDbCircle
 10
6.169898359138132
 20
70.67436117009007
 30
0.0
 40
0.5344853724321439
100
AcDbArc
 50
89.99999999999953
 51
180.0000000000053
  0
LINE
  5
523
330
1F
100
AcDbEntity
  8
0
  6
SLD-Solid
 62
     7
370
    25
100
AcDbLine
 10
19.55989835913813
 20
71.25396569246898
 30
0.0
 11
6.169898359138134
 21
71.2539656924691
 31
0.0
  0
LINE
  5
524
330
1F
100
AcDbEntity
  8
0
  6
SLD-Solid
 62
     7
370
    25
100
AcDbLine
 10
19.55989835913813
 20
71.2143744908552
 30
0.0
 11
19.55989835913813
 21
71.25396569246898
 31
0.0
  0
LINE
  5
525
330
1F
100
AcDbEntity
  8
0
  6
SLD-Solid
 62
     7
370
    25
100
AcDbLine
 10
6.169898359138134
 20
71.21437449085532
 30
0.0
 11
19.55989835913813
 21
71.2143744908552
 31
0.0
  0
LINE
  5
526
330
1F
100
AcDbEntity
  8
0
  6
SLD-Solid
 62
     7
370
    25
100
AcDbLine
 10
19.55989835913813
 20
71.2143744908552
 30
0.0
 11
19.55989835913813
 21
71.2088465425221
 31
0.0
  0
LINE
  5
527
330
1F
100
AcDbEntity
  8
0
  6
SLD-Solid
 62
     7
370
    25
100
AcDbLine
 10
6.169898359138137
 20
71.20884654252221
 30
0.0
 11
19.55989835913813
 21
71.2088465425221
 31
0.0
  0
LINE
  5
528
330
1F
100
AcDbEntity
  8
0
  6
SLD-Solid
 62
     7
370
    25
100
AcDbLine
 10
5.59029383675909
 20
70.67436117009007
 30
0.0
 11
5.590293836759093
 21
58.40436117009006
 31
0.0
  0
LINE
  5
529
330
1F
100
AcDbEntity
  8
0
  6
SLD-Solid
 62
     7
370
    25
100
AcDbLine
 10
5.62988503837288
 20
58.40436117009006
 30
0.0
 11
5.629885038372877
 21
70.67436117009007
 31
0.0
  0
LINE
  5
52A
330
1F
100
AcDbEntity
  8
0
  6
SLD-Solid
 62
     7
370
    25
100
AcDbLine
 10
5.62988503837288
 20
58.40436117009006
 30
0.0
 11
5.590293836759093
 21
58.40436117009006
 31
0.0
  0
LINE
  5
52B
330
1F
100
AcDbEntity
  8
0
  6
SLD-Solid
 62
     7
370
    25
100
AcDbLine
 10
5.635412986705993
 20
59.10406913335792
 30
0.0
 11
5.635412986705993
 21
59.14555375237354
 31
0.0
  0
LINE
  5
52C
330
1F
100
AcDbEntity
  8
0
  6
SLD-Solid
 62
     7
370
    25
100
AcDbLine
 10
5.635412986705989
 20
69.89116858780531
 30
0.0
 11
5.635412986705989
 21
69.932653206822
 31
0.0
  0
ARC
  5
52D
330
1F
100
AcDbEntity
  8
0
  6
SLD-Solid
 62
     7
370
    25
100
AcDbCircle
 10
6.169898359138136
 20
58.40436117009004
 30
0.0
 40
0.5796045223790429
100
AcDbArc
 50
179.9999999999977
 51
270.000000000001
  0
ARC
  5
52E
330
1F
100
AcDbEntity
  8
0
  6
SLD-Solid
 62
     7
370
    25
100
AcDbCircle
 10
6.169898359138136
 20
58.40436117009006
 30
0.0
 40
0.5400133207652562
100
AcDbArc
 50
179.9999999999991
 51
270.0000000000011
  0
LINE
  5
52F
330
1F
100
AcDbEntity
  8
0
  6
SLD-Solid
 62
     7
370
    25
100
AcDbLine
 10
6.169898359138139
 20
57.86434784932481
 30
0.0
 11
6.169898359138138
 21
57.824756647711
 31
0.0
  0
ARC
  5
530
330
1F
100
AcDbEntity
  8
0
  6
SLD-Solid
 62
     7
370
    25
100
AcDbCircle
 10
6.169898359138136
 20
58.40436117009006
 30
0.0
 40
0.534485372432151
100
AcDbArc
 50
191.5856036659723
 51
270.0000000000014
  0
LINE
  5
531
330
1F
100
AcDbEntity
  8
0
  6
SLD-Solid
 62
     7
370
    25
100
AcDbLine
 10
6.169898359138139
 20
57.86434784932481
 30
0.0
 11
6.169898359138141
 21
57.86987579765791
 31
0.0
  0
LINE
  5
532
330
1F
100
AcDbEntity
  8
0
  6
SLD-Solid
 62
     7
370
    25
100
AcDbLine
 10
19.55989835913813
 20
57.86434784932469
 30
0.0
 11
19.55989835913813
 21
57.82475664771088
 31
0.0
  0
LINE
  5
533
330
1F
100
AcDbEntity
  8
0
  6
SLD-Solid
 62
     7
370
    25
100
AcDbLine
 10
19.55989835913813
 20
57.82475664771088
 30
0.0
 11
6.169898359138138
 21
57.824756647711
 31
0.0
  0
LINE
  5
534
330
1F
100
AcDbEntity
  8
0
  6
SLD-Solid
 62
     7
370
    25
100
AcDbLine
 10
6.169898359138139
 20
57.86434784932481
 30
0.0
 11
19.55989835913813
 21
57.86434784932469
 31
0.0
  0
LINE
  5
535
330
1F
100
AcDbEntity
  8
0
  6
SLD-Solid
 62
     7
370
    25
100
AcDbLine
 10
19.55989835913813
 20
57.86434784932469
 30
0.0
 11
19.55989835913813
 21
57.8698757976578
 31
0.0
  0
LINE
  5
536
330
1F
100
AcDbEntity
  8
0
  6
SLD-Solid
 62
     7
370
    25
100
AcDbLine
 10
6.169898359138141
 20
57.86987579765791
 30
0.0
 11
19.55989835913813
 21
57.8698757976578
 31
0.0
  0
ARC
  5
537
330
1F
100
AcDbEntity
  8
0
  6
SLD-Solid
 62
     7
370
    25
100
AcDbCircle
 10
19.55989835913813
 20
70.67436117008992
 30
0.0
 40
0.5796045223790571
100
AcDbArc
 50
0.0000000000005268
 51
90.00000000000036
  0
LINE
  5
538
330
1F
100
AcDbEntity
  8
0
  6
SLD-Solid
 62
     7
370
    25
100
AcDbLine
 10
20.09991167990339
 20
70.67436117008995
 30
0.0
 11
20.13950288151717
 21
70.67436117008992
 31
0.0
  0
ARC
  5
539
330
1F
100
AcDbEntity
  8
0
  6
SLD-Solid
 62
     7
370
    25
100
AcDbCircle
 10
19.55989835913813
 20
70.67436117008995
 30
0.0
 40
0.540013320765258
100
AcDbArc
 50
0.0000000000003769
 51
90.00000000000038
  0
LINE
  5
53A
330
1F
100
AcDbEntity
  8
0
  6
SLD-Solid
 62
     7
370
    25
100
AcDbLine
 10
20.09991167990339
 20
70.67436117008995
 30
0.0
 11
20.09438373157028
 21
70.67436117008995
 31
0.0
  0
ARC
  5
53B
330
1F
100
AcDbEntity
  8
0
  6
SLD-Solid
 62
     7
370
    25
100
AcDbCircle
 10
19.55989835913813
 20
70.67436117008995
 30
0.0
 40
0.5344853724321439
100
AcDbArc
 50
0.0000000000003808
 51
90.00000000000038
  0
LINE
  5
53C
330
1F
100
AcDbEntity
  8
0
  6
SLD-Solid
 62
     7
370
    25
100
AcDbLine
 10
20.09991167990339
 20
58.40436117008995
 30
0.0
 11
20.09991167990339
 21
70.67436117008995
 31
0.0
  0
LINE
  5
53D
330
1F
100
AcDbEntity
  8
0
  6
SLD-Solid
 62
     7
370
    25
100
AcDbLine
 10
20.13950288151717
 20
70.67436117008992
 30
0.0
 11
20.13950288151718
 21
58.40436117009006
 31
0.0
  0
LINE
  5
53E
330
1F
100
AcDbEntity
  8
0
  6
SLD-Solid
 62
     7
370
    25
100
AcDbLine
 10
20.09991167990339
 20
58.40436117008995
 30
0.0
 11
20.13950288151718
 21
58.40436117009006
 31
0.0
  0
LINE
  5
53F
330
1F
100
AcDbEntity
  8
0
  6
SLD-Solid
 62
     7
370
    25
100
AcDbLine
 10
20.09438373157028
 20
59.10406913335792
 30
0.0
 11
20.09438373157028
 21
59.14555375237409
 31
0.0
  0
LINE
  5
540
330
1F
100
AcDbEntity
  8
0
  6
SLD-Solid
 62
     7
370
    25
100
AcDbLine
 10
20.09438373157028
 20
69.89116858780632
 30
0.0
 11
20.09438373157028
 21
69.932653206822
 31
0.0
  0
LINE
  5
541
330
1F
100
AcDbEntity
  8
0
  6
SLD-Solid
 62
     7
370
    25
100
AcDbLine
 10
20.09438373157028
 20
70.66002239064537
 30
0.0
 11
20.09438373157028
 21
70.67436117008995
 31
0.0
  0
ARC
  5
542
330
1F
100
AcDbEntity
  8
0
  6
SLD-Solid
 62
     7
370
    25
100
AcDbCircle
 10
19.55989835913813
 20
58.40436117008995
 30
0.0
 40
0.540013320765258
100
AcDbArc
 50
270.0000000000008
 51
0.0000000000003769
  0
ARC
  5
543
330
1F
100
AcDbEntity
  8
0
  6
SLD-Solid
 62
     7
370
    25
100
AcDbCircle
 10
19.55989835913813
 20
58.40436117008993
 30
0.0
 40
0.57960452237905
100
AcDbArc
 50
270.0000000000008
 51
0.0000000000126443
  0
ARC
  5
544
330
1F
100
AcDbEntity
  8
0
  6
SLD-Solid
 62
     7
370
    25
100
AcDbCircle
 10
19.55989835913813
 20
58.40436117008995
 30
0.0
 40
0.534485372432151
100
AcDbArc
 50
270.0000000000004
 51
354.7844875114665
  0
LINE
  5
545
330
1F
100
AcDbEntity
  8
0
  6
SLD-Solid
 62
     7
370
    25
100
AcDbLine
 10
6.169898359138201
 20
71.18947881252208
 30
0.0
 11
19.55989835913819
 21
71.18947881252205
 31
0.0
  0
LINE
  5
546
330
1F
100
AcDbEntity
  8
0
  6
SLD-Solid
 62
     7
370
    25
100
AcDbLine
 10
5.65478071670599
 20
59.10406913335784
 30
0.0
 11
5.654780716705988
 21
59.1246053174866
 31
0.0
  0
LINE
  5
547
330
1F
100
AcDbEntity
  8
0
  6
SLD-Solid
 62
     7
370
    25
100
AcDbLine
 10
5.654780716705987
 20
69.91211702269254
 30
0.0
 11
5.654780716705987
 21
69.93265320682208
 31
0.0
  0
ARC
  5
548
330
1F
100
AcDbEntity
  8
0
  6
SLD-Solid
 62
     7
370
    25
100
AcDbCircle
 10
6.16989835913813
 20
70.67436117008994
 30
0.0
 40
0.5151176424321454
100
AcDbArc
 50
89.9999999999921
 51
159.6822875332738
  0
LINE
  5
549
330
1F
100
AcDbEntity
  8
0
  6
SLD-Solid
 62
     7
370
    25
100
AcDbLine
 10
20.07501600157028
 20
59.10406913335784
 30
0.0
 11
20.07501600157028
 21
59.12460531748705
 31
0.0
  0
LINE
  5
54A
330
1F
100
AcDbEntity
  8
0
  6
SLD-Solid
 62
     7
370
    25
100
AcDbLine
 10
20.07501600157027
 20
69.91211702269311
 30
0.0
 11
20.07501600157027
 21
69.93265320682208
 31
0.0
  0
ARC
  5
54B
330
1F
100
AcDbEntity
  8
0
  6
SLD-Solid
 62
     7
370
    25
100
AcDbCircle
 10
19.55989835913813
 20
70.67436117008991
 30
0.0
 40
0.5151176424321449
100
AcDbArc
 50
18.32703207838697
 51
89.9999999999929
  0
LINE
  5
54C
330
1F
100
AcDbEntity
  8
0
  6
SLD-Solid
 62
     7
370
    25
100
AcDbLine
 10
6.169898359138198
 20
71.2088465425222
 30
0.0
 11
6.169898359138198
 21
71.1894788125222
 31
0.0
  0
LINE
  5
54D
330
1F
100
AcDbEntity
  8
0
  6
SLD-Solid
 62
     7
370
    25
100
AcDbLine
 10
19.55989835913819
 20
71.20884654252208
 30
0.0
 11
19.55989835913819
 21
71.18947881252208
 31
0.0
  0
LINE
  5
54E
330
1F
100
AcDbEntity
  8
0
  6
SLD-Solid
 62
     8
370
    25
100
AcDbLine
 10
5.665028716264989
 20
69.90394328136198
 30
0.0
 11
5.65892738255711
 21
69.91451110133794
 31
0.0
  0
LINE
  5
54F
330
1F
100
AcDbEntity
  8
0
  6
SLD-Solid
 62
     8
370
    25
100
AcDbLine
 10
5.666427382557099
 20
69.9275014823947
 30
0.0
 11
5.681889577450838
 21
69.92750148239467
 31
0.0
  0
LINE
  5
550
330
1F
100
AcDbEntity
  8
0
  6
SLD-Solid
 62
     8
370
    25
100
AcDbLine
 10
5.653927382557117
 20
69.91162434999198
 30
0.0
 11
5.66157313072298
 21
69.89838152570684
 31
0.0
  0
LINE
  5
551
330
1F
100
AcDbEntity
  8
0
  6
SLD-Solid
 62
     8
370
    25
100
AcDbLine
 10
5.655474742143035
 20
69.8726532068217
 30
0.0
 11
5.631427382557113
 21
69.87265320682174
 31
0.0
  0
LINE
  5
552
330
1F
100
AcDbEntity
  8
0
  6
SLD-Solid
 62
     8
370
    25
100
AcDbLine
 10
5.653927382556948
 20
59.12509799018726
 30
0.0
 11
5.661573130722776
 21
59.13834081447236
 31
0.0
  0
LINE
  5
553
330
1F
100
AcDbEntity
  8
0
  6
SLD-Solid
 62
     8
370
    25
100
AcDbLine
 10
5.655474742142847
 20
59.16406913335757
 30
0.0
 11
5.631427382556928
 21
59.1640691333576
 31
0.0
  0
LINE
  5
554
330
1F
100
AcDbEntity
  8
0
  6
SLD-Solid
 62
     8
370
    25
100
AcDbLine
 10
5.665028716264769
 20
59.13277905881722
 30
0.0
 11
5.658927382556938
 21
59.12221123884132
 31
0.0
  0
LINE
  5
555
330
1F
100
AcDbEntity
  8
0
  6
SLD-Solid
 62
     8
370
    25
100
AcDbLine
 10
5.666427382556943
 20
59.10922085778456
 30
0.0
 11
5.681889577450664
 21
59.10922085778452
 31
0.0
  0
LINE
  5
556
330
1F
100
AcDbEntity
  8
0
  6
SLD-Solid
 62
     8
370
    25
100
AcDbLine
 10
20.0647680020114
 20
59.1327790588177
 30
0.0
 11
20.07086933571928
 21
59.12221123884174
 31
0.0
  0
LINE
  5
557
330
1F
100
AcDbEntity
  8
0
  6
SLD-Solid
 62
     8
370
    25
100
AcDbLine
 10
20.06336933571929
 20
59.10922085778496
 30
0.0
 11
20.04790714082555
 21
59.109220857785
 31
0.0
  0
LINE
  5
558
330
1F
100
AcDbEntity
  8
0
  6
SLD-Solid
 62
     8
370
    25
100
AcDbLine
 10
20.07586933571927
 20
59.12509799018768
 30
0.0
 11
20.06822358755341
 21
59.13834081447283
 31
0.0
  0
LINE
  5
559
330
1F
100
AcDbEntity
  8
0
  6
SLD-Solid
 62
     8
370
    25
100
AcDbLine
 10
20.07432197613335
 20
59.16406913335798
 30
0.0
 11
20.09836933571927
 21
59.16406913335793
 31
0.0
  0
LINE
  5
55A
330
1F
100
AcDbEntity
  8
0
  6
SLD-Solid
 62
     8
370
    25
100
AcDbLine
 10
20.0758693357194
 20
69.91162434999241
 30
0.0
 11
20.06822358755358
 21
69.89838152570732
 31
0.0
  0
LINE
  5
55B
330
1F
100
AcDbEntity
  8
0
  6
SLD-Solid
 62
     8
370
    25
100
AcDbLine
 10
20.0743219761335
 20
69.8726532068221
 30
0.0
 11
20.09836933571942
 21
69.87265320682208
 31
0.0
  0
LINE
  5
55C
330
1F
100
AcDbEntity
  8
0
  6
SLD-Solid
 62
     8
370
    25
100
AcDbLine
 10
20.06476800201158
 20
69.90394328136244
 30
0.0
 11
20.07086933571941
 21
69.91451110133835
 31
0.0
  0
LINE
  5
55D
330
1F
100
AcDbEntity
  8
0
  6
SLD-Solid
 62
     8
370
    25
100
AcDbLine
 10
20.06336933571941
 20
69.92750148239512
 30
0.0
 11
20.04790714082569
 21
69.92750148239516
 31
0.0
  0
LINE
  5
55E
330
1F
100
AcDbEntity
  8
0
  6
SLD-Solid
 62
     8
370
    25
100
AcDbLine
 10
12.67645611013989
 20
69.75932627060219
 30
0.0
 11
13.05139865497427
 21
69.7593262706022
 31
0.0
  0
LINE
  5
55F
330
1F
100
AcDbEntity
  8
0
  6
SLD-Solid
 62
     8
370
    25
100
AcDbLine
 10
13.05048743346969
 20
69.78542024040435
 30
0.0
 11
12.67736733164447
 21
69.78542024040435
 31
0.0
  0
LINE
  5
560
330
1F
100
AcDbEntity
  8
0
  6
SLD-Solid
 62
     8
370
    25
100
AcDbLine
 10
13.05139865497428
 20
59.27739606957774
 30
0.0
 11
12.67645611013989
 21
59.27739606957774
 31
0.0
  0
LINE
  5
561
330
1F
100
AcDbEntity
  8
0
  6
SLD-Solid
 62
     8
370
    25
100
AcDbLine
 10
12.67736733164448
 20
59.25130209977559
 30
0.0
 11
13.0504874334697
 21
59.25130209977559
 31
0.0
  0
LINE
  5
562
330
1F
100
AcDbEntity
  8
0
  6
SLD-Solid
 62
     8
370
    25
100
AcDbLine
 10
12.67645611013993
 20
59.10503423386132
 30
0.0
 11
13.05139865497431
 21
59.10503423386132
 31
0.0
  0
LINE
  5
563
330
1F
100
AcDbEntity
  8
0
  6
SLD-Solid
 62
     8
370
    25
100
AcDbLine
 10
13.05048743346973
 20
59.13112820366348
 30
0.0
 11
12.67736733164451
 21
59.13112820366348
 31
0.0
  0
LINE
  5
564
330
1F
100
AcDbEntity
  8
0
  6
SLD-Solid
 62
     8
370
    25
100
AcDbLine
 10
13.05139865497423
 20
69.93168810631867
 30
0.0
 11
12.67645611013984
 21
69.93168810631867
 31
0.0
  0
LINE
  5
565
330
1F
100
AcDbEntity
  8
0
  6
SLD-Solid
 62
     8
370
    25
100
AcDbLine
 10
12.67736733164443
 20
69.90559413651653
 30
0.0
 11
13.05048743346964
 21
69.90559413651653
 31
0.0
  0
LINE
  5
566
330
1F
100
AcDbEntity
  8
0
  6
SLD-Solid
 62
     8
370
    25
100
AcDbLine
 10
5.629885038372877
 20
70.67436117009007
 30
0.0
 11
5.634900048136034
 21
70.67436117009007
 31
0.0
  0
LINE
  5
567
330
1F
100
AcDbEntity
  8
0
  6
SLD-Solid
 62
     8
370
    25
100
AcDbLine
 10
5.62988503837288
 20
58.40436117009006
 30
0.0
 11
5.631780590349762
 21
58.40436117009006
 31
0.0
  0
LINE
  5
568
330
1F
100
AcDbEntity
  8
0
  6
SLD-Solid
 62
     8
370
    25
100
AcDbLine
 10
20.09991167990339
 20
58.40436117008995
 30
0.0
 11
20.09607417476447
 21
58.40436117008999
 31
0.0
  0
LINE
  5
569
330
1F
100
AcDbEntity
  8
0
  6
SLD-Solid
 62
     8
370
    25
100
AcDbLine
 10
5.55541298670605
 20
70.67436117009007
 30
0.0
 11
5.59029383675909
 21
70.67436117009007
 31
0.0
  0
LINE
  5
56A
330
1F
100
AcDbEntity
  8
0
  6
SLD-Solid
 62
     8
370
    25
100
AcDbLine
 10
6.169898359138132
 20
71.2888465425222
 30
0.0
 11
6.169898359138134
 21
71.2539656924691
 31
0.0
  0
LINE
  5
56B
330
1F
100
AcDbEntity
  8
0
  6
SLD-Solid
 62
     8
370
    25
100
AcDbLine
 10
19.55989835913813
 20
71.2888465425221
 30
0.0
 11
19.55989835913813
 21
71.25396569246898
 31
0.0
  0
LINE
  5
56C
330
1F
100
AcDbEntity
  8
0
  6
SLD-Solid
 62
     8
370
    25
100
AcDbLine
 10
5.555412986705987
 20
58.40436117009006
 30
0.0
 11
5.590293836759093
 21
58.40436117009006
 31
0.0
  0
LINE
  5
56D
330
1F
100
AcDbEntity
  8
0
  6
SLD-Solid
 62
     8
370
    25
100
AcDbLine
 10
6.169898359138136
 20
57.78987579765791
 30
0.0
 11
6.169898359138138
 21
57.824756647711
 31
0.0
  0
LINE
  5
56E
330
1F
100
AcDbEntity
  8
0
  6
SLD-Solid
 62
     8
370
    25
100
AcDbLine
 10
19.55989835913813
 20
57.7898757976578
 30
0.0
 11
19.55989835913813
 21
57.82475664771088
 31
0.0
  0
LINE
  5
56F
330
1F
100
AcDbEntity
  8
0
  6
SLD-Solid
 62
     8
370
    25
100
AcDbLine
 10
20.17438373157034
 20
70.67436117008995
 30
0.0
 11
20.13950288151717
 21
70.67436117008992
 31
0.0
  0
LINE
  5
570
330
1F
100
AcDbEntity
  8
0
  6
SLD-Solid
 62
     8
370
    25
100
AcDbLine
 10
20.17438373157028
 20
58.40436117008995
 30
0.0
 11
20.13950288151718
 21
58.40436117009006
 31
0.0
  0
LINE
  5
571
330
1F
100
AcDbEntity
  8
0
  6
SLD-Solid
 62
     8
370
    25
100
AcDbLine
 10
6.169898359138201
 20
71.18947881252208
 30
0.0
 11
6.169898359138132
 21
71.16253235865369
 31
0.0
  0
LINE
  5
572
330
1F
100
AcDbEntity
  8
0
  6
SLD-Solid
 62
     8
370
    25
100
AcDbLine
 10
19.55989835913819
 20
71.18947881252205
 30
0.0
 11
19.55989835913813
 21
71.16248821188269
 31
0.0
  0
DIMENSION
  5
573
330
1F
100
AcDbEntity
  8
DIMS
100
AcDbDimension
  2
_D_2
 10
22.10422150460348
 20
57.78987579765787
 30
0.0
 11
22.10422150460348
 21
64.46059317527387
 31
0.0
 70
    32
  1
<>
 71
     2
 42
-1.0
  3
SLDDIMSTYLE0
100
AcDbAlignedDimension
 13
19.55989835913812
 23
71.28884654252211
 33
0.0
 14
19.55989835913813
 24
57.78987579765787
 34
0.0
 50
90.0000000000002
100
AcDbRotatedDimension
  0
DIMENSION
  5
582
330
1F
100
AcDbEntity
  8
DIMS
100
AcDbDimension
  2
_D_3
 10
5.555412986706005
 20
55.27019075828777
 30
0.0
 11
12.64071122784993
 21
55.27019075828777
 31
0.0
 70
    32
  1
<>
 71
     2
 42
-1.0
  3
SLDDIMSTYLE0
100
AcDbAlignedDimension
 13
20.17438373157029
 23
58.40436117008996
 33
0.0
 14
5.555412986706004
 24
58.40436117009007
 34
0.0
100
AcDbRotatedDimension
  0
MTEXT
  5
591
330
1F
100
AcDbEntity
  8
NOTES
100
AcDbMText
 10
5.806727838324598
 20
57.14694464789095
 30
0.0
 40
0.7500000000000001
 41
0.0
 71
     1
 72
     1
  1
Top view
  7
SLDTEXTSTYLE1
 73
     1
 44
1.0
  0
MTEXT
  5
595
330
1F
100
AcDbEntity
  8
NOTES
100
AcDbMText
 10
40.26613155701668
 20
4.986500874567161
 30
0.0
 40
0.2916666666666666
 41
0.0
 71
     1
 72
     1
  1
FROST PRODUCTS LTD.
  7
SLDTEXTSTYLE0
 73
     1
 44
1.0
  0
MTEXT
  5
596
330
1F
100
AcDbEntity
  8
NOTES
100
AcDbMText
 10
40.26613155701668
 20
4.561008512941702
 30
0.0
 40
0.2291666666666666
 41
0.0
 71
     1
 72
     1
  1
5280 JOHN LUCAS DRIVE, BURLINGTON, ON, L7L 5Z9
  7
SLDTEXTSTYLE0
 73
     1
 44
1.0
  0
ENDSEC
  0
SECTION
  2
OBJECTS
  0
DICTIONARY
  5
C
330
0
100
AcDbDictionary
281
     1
  3
ACAD_COLOR
350
6C
  3
ACAD_GROUP
350
D
  3
ACAD_LAYOUT
350
1A
  3
ACAD_MATERIAL
350
6B
  3
ACAD_MLINESTYLE
350
17
  3
ACAD_PLOTSETTINGS
350
19
  3
ACAD_PLOTSTYLENAME
350
E
  3
ACAD_SCALELIST
350
47
  3
ACAD_TABLESTYLE
350
92
  3
AcDbVariableDictionary
350
59
  0
DICTIONARY
  5
6C
102
{ACAD_REACTORS
330
C
102
}
330
C
100
AcDbDictionary
281
     1
  0
DICTIONARY
  5
D
102
{ACAD_REACTORS
330
C
102
}
330
C
100
AcDbDictionary
281
     1
  0
DICTIONARY
  5
1A
102
{ACAD_REACTORS
330
C
102
}
330
C
100
AcDbDictionary
281
     1
  3
Layout1
350
74
  3
Layout2
350
26
  3
Model
350
22
  0
DICTIONARY
  5
6B
102
{ACAD_REACTORS
330
C
102
}
330
C
100
AcDbDictionary
281
     1
  0
DICTIONARY
  5
17
102
{ACAD_REACTORS
330
C
102
}
330
C
100
AcDbDictionary
281
     1
  3
Standard
350
18
  0
DICTIONARY
  5
19
102
{ACAD_REACTORS
330
C
102
}
330
C
100
AcDbDictionary
281
     1
  0
ACDBDICTIONARYWDFLT
  5
E
102
{ACAD_REACTORS
330
C
102
}
330
C
100
AcDbDictionary
281
     1
  3
Normal
350
F
100
AcDbDictionaryWithDefault
340
F
  0
DICTIONARY
  5
47
102
{ACAD_REACTORS
330
C
102
}
330
C
100
AcDbDictionary
281
     1
  3
A0
350
48
  3
A1
350
49
  3
A2
350
4A
  3
A3
350
4B
  3
A4
350
4C
  3
A5
350
4D
  3
A6
350
4E
  3
A7
350
4F
  3
A8
350
50
  3
A9
350
51
  3
B0
350
52
  3
B1
350
53
  3
B2
350
54
  3
B3
350
55
  3
B4
350
56
  3
B5
350
57
  3
B6
350
58
  3
B7
350
5A7
  3
B8
350
5A8
  3
B9
350
5B
  3
C0
350
5C
  3
C1
350
5D
  3
C2
350
5A9
  3
C3
350
5F
  3
C4
350
60
  3
C5
350
61
  3
C6
350
62
  3
C7
350
63
  3
C8
350
64
  3
C9
350
65
  3
D0
350
66
  3
D1
350
67
  3
D2
350
68
  0
DICTIONARY
  5
92
102
{ACAD_REACTORS
330
C
102
}
330
C
100
AcDbDictionary
281
     1
  3
Standard
350
93
  0
DICTIONARY
  5
59
102
{ACAD_REACTORS
330
C
102
}
330
C
100
AcDbDictionary
281
     1
  3
CTABLESTYLE
350
98
  3
HIDETEXT
350
594
  0
LAYOUT
  5
74
102
{ACAD_REACTORS
330
1A
102
}
330
1A
100
AcDbPlotSettings
  1

  2
none_device
  4

  6

 40
0.0
 41
0.0
 42
0.0
 43
0.0
 44
0.0
 45
0.0
 46
0.0
 47
0.0
 48
0.0
 49
0.0
140
0.0
141
0.0
142
1.0
143
1.0
 70
   688
 72
     0
 73
     0
 74
     5
  7

 75
    16
 76
     0
 77
     2
 78
   300
147
1.0
148
0.0
149
0.0
100
AcDbLayout
  1
Layout1
 70
     1
 71
     1
 10
0.0
 20
0.0
 11
12.0
 21
9.0
 12
0.0
 22
0.0
 32
0.0
 14
1.000000000000000E+20
 24
1.000000000000000E+20
 34
1.000000000000000E+20
 15
-1.000000000000000E+20
 25
-1.000000000000000E+20
 35
-1.000000000000000E+20
146
0.0
 13
0.0
 23
0.0
 33
0.0
 16
1.0
 26
0.0
 36
0.0
 17
0.0
 27
1.0
 37
0.0
 76
     0
330
73
  0
LAYOUT
  5
26
102
{ACAD_REACTORS
330
1A
102
}
330
1A
100
AcDbPlotSettings
  1

  2
none_device
  4

  6

 40
0.0
 41
0.0
 42
0.0
 43
0.0
 44
0.0
 45
0.0
 46
0.0
 47
0.0
 48
0.0
 49
0.0
140
0.0
141
0.0
142
1.0
143
1.0
 70
   688
 72
     0
 73
     0
 74
     5
  7

 75
    16
 76
     0
 77
     2
 78
   300
147
1.0
148
0.0
149
0.0
100
AcDbLayout
  1
Layout2
 70
     1
 71
     2
 10
0.0
 20
0.0
 11
0.0
 21
0.0
 12
0.0
 22
0.0
 32
0.0
 14
0.0
 24
0.0
 34
0.0
 15
0.0
 25
0.0
 35
0.0
146
0.0
 13
0.0
 23
0.0
 33
0.0
 16
1.0
 26
0.0
 36
0.0
 17
0.0
 27
1.0
 37
0.0
 76
     0
330
23
  0
LAYOUT
  5
22
102
{ACAD_REACTORS
330
1A
102
}
330
1A
100
AcDbPlotSettings
  1

  2
none_device
  4
Letter_(8.50_x_11.00_Inches)
  6

 40
6.35
 41
6.35
 42
6.35000508
 43
6.35000508
 44
215.9
 45
279.4
 46
0.0
 47
0.0
 48
0.0
 49
0.0
140
0.0
141
0.0
142
1.0
143
1.0
 70
 11952
 72
     0
 73
     0
 74
     0
  7

 75
     0
 76
     0
 77
     2
 78
   300
147
1.0
148
0.0
149
0.0
100
AcDbLayout
  1
Model
 70
     1
 71
     0
 10
0.0
 20
0.0
 11
50.0
 21
88.0
 12
0.0
 22
0.0
 32
0.0
 14
0.1653543307086614
 24
0.1653543307086614
 34
-6.243475134824725
 15
49.83464566929134
 25
87.83464566929133
 35
11.02886873471781
146
0.0
 13
0.0
 23
0.0
 33
0.0
 16
1.0
 26
0.0
 36
0.0
 17
0.0
 27
1.0
 37
0.0
 76
     0
330
1F
  0
MLINESTYLE
  5
18
102
{ACAD_REACTORS
330
17
102
}
330
17
100
AcDbMlineStyle
  2
Standard
 70
     0
  3

 62
   256
 51
90.0
 52
90.0
 71
     2
 49
0.5
 62
   256
  6
BYLAYER
 49
-0.5
 62
   256
  6
BYLAYER
  0
ACDBPLACEHOLDER
  5
F
102
{ACAD_REACTORS
330
E
102
}
330
E
  0
ACAD_PROXY_OBJECT
  5
48
102
{ACAD_REACTORS
330
47
102
}
330
47
100
AcDbProxyObject
 90
      499
 91
      505
 95
   393239
 70
     0
 93
       41
310
903313A31580
  0
ACAD_PROXY_OBJECT
  5
49
102
{ACAD_REACTORS
330
47
102
}
330
47
100
AcDbProxyObject
 90
      499
 91
      505
 95
   393239
 70
     0
 93
      105
310
903313A324000000000000004000
  0
ACAD_PROXY_OBJECT
  5
4A
102
{ACAD_REACTORS
330
47
102
}
330
47
100
AcDbProxyObject
 90
      499
 91
      505
 95
   393239
 70
     0
 93
      105
310
903313A344000000000000104000
  0
ACAD_PROXY_OBJECT
  5
4B
102
{ACAD_REACTORS
330
47
102
}
330
47
100
AcDbProxyObject
 90
      499
 91
      505
 95
   393239
 70
     0
 93
      105
310
903313A354000000000000144000
  0
ACAD_PROXY_OBJECT
  5
4C
102
{ACAD_REACTORS
330
47
102
}
330
47
100
AcDbProxyObject
 90
      499
 91
      505
 95
   393239
 70
     0
 93
      105
310
903313A384000000000000204000
  0
ACAD_PROXY_OBJECT
  5
4D
102
{ACAD_REACTORS
330
47
102
}
330
47
100
AcDbProxyObject
 90
      499
 91
      505
 95
   393239
 70
     0
 93
      113
310
904313A31304000000000000244000
  0
ACAD_PROXY_OBJECT
  5
4E
102
{ACAD_REACTORS
330
47
102
}
330
47
100
AcDbProxyObject
 90
      499
 91
      505
 95
   393239
 70
     0
 93
      113
310
904313A31364000000000000304000
  0
ACAD_PROXY_OBJECT
  5
4F
102
{ACAD_REACTORS
330
47
102
}
330
47
100
AcDbProxyObject
 90
      499
 91
      505
 95
   393239
 70
     0
 93
      113
310
904313A32304000000000000344000
  0
ACAD_PROXY_OBJECT
  5
50
102
{ACAD_REACTORS
330
47
102
}
330
47
100
AcDbProxyObject
 90
      499
 91
      505
 95
   393239
 70
     0
 93
      113
310
904313A333040000000000003E4000
  0
ACAD_PROXY_OBJECT
  5
51
102
{ACAD_REACTORS
330
47
102
}
330
47
100
AcDbProxyObject
 90
      499
 91
      505
 95
   393239
 70
     0
 93
      113
310
904313A34304000000000000444000
  0
ACAD_PROXY_OBJECT
  5
52
102
{ACAD_REACTORS
330
47
102
}
330
47
100
AcDbProxyObject
 90
      499
 91
      505
 95
   393239
 70
     0
 93
      113
310
904313A35304000000000000494000
  0
ACAD_PROXY_OBJECT
  5
53
102
{ACAD_REACTORS
330
47
102
}
330
47
100
AcDbProxyObject
 90
      499
 91
      505
 95
   393239
 70
     0
 93
      121
310
905313A3130304000000000000594000
  0
ACAD_PROXY_OBJECT
  5
54
102
{ACAD_REACTORS
330
47
102
}
330
47
100
AcDbProxyObject
 90
      499
 91
      505
 95
   393239
 70
     0
 93
      105
310
903323A310000000000000010100
  0
ACAD_PROXY_OBJECT
  5
55
102
{ACAD_REACTORS
330
47
102
}
330
47
100
AcDbProxyObject
 90
      499
 91
      505
 95
   393239
 70
     0
 93
      105
310
903343A310000000000000410100
  0
ACAD_PROXY_OBJECT
  5
56
102
{ACAD_REACTORS
330
47
102
}
330
47
100
AcDbProxyObject
 90
      499
 91
      505
 95
   393239
 70
     0
 93
      105
310
903383A310000000000000810100
  0
ACAD_PROXY_OBJECT
  5
57
102
{ACAD_REACTORS
330
47
102
}
330
47
100
AcDbProxyObject
 90
      499
 91
      505
 95
   393239
 70
     0
 93
      113
310
90431303A310000000000000910100
  0
ACAD_PROXY_OBJECT
  5
58
102
{ACAD_REACTORS
330
47
102
}
330
47
100
AcDbProxyObject
 90
      499
 91
      505
 95
   393239
 70
     0
 93
      121
310
9053130303A310000000000001650100
  0
ACAD_PROXY_OBJECT
  5
5A7
102
{ACAD_REACTORS
330
47
102
}
330
47
100
AcDbProxyObject
 90
      499
 91
      505
 95
   393239
 70
     0
 93
      257
310
90E312F31323822203D2031272D3022000000000000200FC000000000000284000
  0
ACAD_PROXY_OBJECT
  5
5A8
102
{ACAD_REACTORS
330
47
102
}
330
47
100
AcDbProxyObject
 90
      499
 91
      505
 95
   393239
 70
     0
 93
      249
310
90D312F363422203D2031272D3022000000000000240FC000000000000284000
  0
ACAD_PROXY_OBJECT
  5
5B
102
{ACAD_REACTORS
330
47
102
}
330
47
100
AcDbProxyObject
 90
      499
 91
      505
 95
   393239
 70
     0
 93
      249
310
90D312F333222203D2031272D3022000000000000280FC000000000000284000
  0
ACAD_PROXY_OBJECT
  5
5C
102
{ACAD_REACTORS
330
47
102
}
330
47
100
AcDbProxyObject
 90
      499
 91
      505
 95
   393239
 70
     0
 93
      249
310
90D312F313622203D2031272D30220000000000002C0FC000000000000284000
  0
ACAD_PROXY_OBJECT
  5
5D
102
{ACAD_REACTORS
330
47
102
}
330
47
100
AcDbProxyObject
 90
      499
 91
      505
 95
   393239
 70
     0
 93
      249
310
90D332F333222203D2031272D30220000000000002E0FC000000000000284000
  0
ACAD_PROXY_OBJECT
  5
5A9
102
{ACAD_REACTORS
330
47
102
}
330
47
100
AcDbProxyObject
 90
      499
 91
      505
 95
   393239
 70
     0
 93
      241
310
90C312F3822203D2031272D3022000000000000300FC000000000000284000
  0
ACAD_PROXY_OBJECT
  5
5F
102
{ACAD_REACTORS
330
47
102
}
330
47
100
AcDbProxyObject
 90
      499
 91
      505
 95
   393239
 70
     0
 93
      249
310
90D332F313622203D2031272D3022000000000000320FC000000000000284000
  0
ACAD_PROXY_OBJECT
  5
60
102
{ACAD_REACTORS
330
47
102
}
330
47
100
AcDbProxyObject
 90
      499
 91
      505
 95
   393239
 70
     0
 93
      241
310
90C312F3422203D2031272D3022000000000000340FC000000000000284000
  0
ACAD_PROXY_OBJECT
  5
61
102
{ACAD_REACTORS
330
47
102
}
330
47
100
AcDbProxyObject
 90
      499
 91
      505
 95
   393239
 70
     0
 93
      241
310
90C332F3822203D2031272D3022000000000000360FC000000000000284000
  0
ACAD_PROXY_OBJECT
  5
62
102
{ACAD_REACTORS
330
47
102
}
330
47
100
AcDbProxyObject
 90
      499
 91
      505
 95
   393239
 70
     0
 93
      241
310
90C312F3222203D2031272D3022000000000000380FC000000000000284000
  0
ACAD_PROXY_OBJECT
  5
63
102
{ACAD_REACTORS
330
47
102
}
330
47
100
AcDbProxyObject
 90
      499
 91
      505
 95
   393239
 70
     0
 93
      241
310
90C332F3422203D2031272D30220000000000003A0FC000000000000284000
  0
ACAD_PROXY_OBJECT
  5
64
102
{ACAD_REACTORS
330
47
102
}
330
47
100
AcDbProxyObject
 90
      499
 91
      505
 95
   393239
 70
     0
 93
      161
310
90A3122203D2031272D30224000000000000284000
  0
ACAD_PROXY_OBJECT
  5
65
102
{ACAD_REACTORS
330
47
102
}
330
47
100
AcDbProxyObject
 90
      499
 91
      505
 95
   393239
 70
     0
 93
      257
310
90E312D312F3222203D2031272D30220000000000003E0FC000000000000284000
  0
ACAD_PROXY_OBJECT
  5
66
102
{ACAD_REACTORS
330
47
102
}
330
47
100
AcDbProxyObject
 90
      499
 91
      505
 95
   393239
 70
     0
 93
      225
310
90A3322203D2031272D302200000000000002100000000000000284000
  0
ACAD_PROXY_OBJECT
  5
67
102
{ACAD_REACTORS
330
47
102
}
330
47
100
AcDbProxyObject
 90
      499
 91
      505
 95
   393239
 70
     0
 93
      225
310
90A3622203D2031272D302200000000000006100000000000000284000
  0
ACAD_PROXY_OBJECT
  5
68
102
{ACAD_REACTORS
330
47
102
}
330
47
100
AcDbProxyObject
 90
      499
 91
      505
 95
   393239
 70
     0
 93
      249
310
90D31272D3022203D2031272D30220000000000000A100000000000000284000
  0
TABLESTYLE
  5
93
102
{ACAD_REACTORS
330
92
102
}
330
92
100
AcDbTableStyle
  3
Standard
 70
     0
 71
     0
 40
0.06
 41
0.06
280
     0
281
     0
  7
Standard
140
0.18
170
     2
 62
     0
 63
     7
283
     0
274
    -2
284
     1
 64
     0
275
    -2
285
     1
 65
     0
276
    -2
286
     1
 66
     0
277
    -2
287
     1
 67
     0
278
    -2
288
     1
 68
     0
279
    -2
289
     1
 69
     0
  7
Standard
140
0.25
170
     5
 62
     0
 63
     7
283
     0
274
    -2
284
     1
 64
     0
275
    -2
285
     1
 65
     0
276
    -2
286
     1
 66
     0
277
    -2
287
     1
 67
     0
278
    -2
288
     1
 68
     0
279
    -2
289
     1
 69
     0
  7
Standard
140
0.18
170
     5
 62
     0
 63
     7
283
     0
274
    -2
284
     1
 64
     0
275
    -2
285
     1
 65
     0
276
    -2
286
     1
 66
     0
277
    -2
287
     1
 67
     0
278
    -2
288
     1
 68
     0
279
    -2
289
     1
 69
     0
  0
DICTIONARYVAR
  5
98
102
{ACAD_REACTORS
330
59
102
}
330
59
100
DictionaryVariables
280
     0
  1
STANDARD
  0
DICTIONARYVAR
  5
594
102
{ACAD_REACTORS
330
59
102
}
330
59
100
DictionaryVariables
280
     0
  1
2
  0
ENDSEC
  0
EOF
