  0
SECTION
  2
HEADER
  9
$ACADVER
  1
AC1018
  9
$ACADMAINTVER
 70
    39
  9
$DWGCODEPAGE
  3
ANSI_1252
  9
$LASTSAVEDBY
  1
fottrem
  9
$INSBASE
 10
0.0
 20
0.0
 30
0.0
  9
$EXTMIN
 10
0.1653543307086614
 20
0.1653543307086614
 30
-0.0000000000001266
  9
$EXTMAX
 10
49.83464566929134
 20
29.83464566929134
 30
0.1242299794661184
  9
$LIMMIN
 10
0.0
 20
0.0
  9
$LIMMAX
 10
50.0
 20
30.0
  9
$ORTHOMODE
 70
     0
  9
$REGENMODE
 70
     1
  9
$FILLMODE
 70
     1
  9
$QTEXTMODE
 70
     0
  9
$MIRRTEXT
 70
     1
  9
$LTSCALE
 40
1.0
  9
$ATTMODE
 70
     1
  9
$TEXTSIZE
 40
0.3
  9
$TRACEWID
 40
0.05
  9
$TEXTSTYLE
  7
Standard
  9
$CLAYER
  8
0
  9
$CELTYPE
  6
ByLayer
  9
$CECOLOR
 62
   256
  9
$CELTSCALE
 40
1.0
  9
$DISPSILH
 70
     0
  9
$DIMSCALE
 40
1.0
  9
$DIMASZ
 40
0.2
  9
$DIMEXO
 40
0.1666666666666667
  9
$DIMDLI
 40
0.38
  9
$DIMRND
 40
0.0
  9
$DIMDLE
 40
0.0
  9
$DIMEXE
 40
0.3750000000000001
  9
$DIMTP
 40
0.0
  9
$DIMTM
 40
0.0
  9
$DIMTXT
 40
0.3
  9
$DIMCEN
 40
0.09
  9
$DIMTSZ
 40
0.0
  9
$DIMTOL
 70
     0
  9
$DIMLIM
 70
     0
  9
$DIMTIH
 70
     1
  9
$DIMTOH
 70
     1
  9
$DIMSE1
 70
     0
  9
$DIMSE2
 70
     0
  9
$DIMTAD
 70
     0
  9
$DIMZIN
 70
     1
  9
$DIMBLK
  1

  9
$DIMASO
 70
     1
  9
$DIMSHO
 70
     1
  9
$DIMPOST
  1

  9
$DIMAPOST
  1

  9
$DIMALT
 70
     0
  9
$DIMALTD
 70
     2
  9
$DIMALTF
 40
25.4
  9
$DIMLFAC
 40
1.0
  9
$DIMTOFL
 70
     0
  9
$DIMTVP
 40
0.0
  9
$DIMTIX
 70
     0
  9
$DIMSOXD
 70
     0
  9
$DIMSAH
 70
     0
  9
$DIMBLK1
  1

  9
$DIMBLK2
  1

  9
$DIMSTYLE
  2
Standard
  9
$DIMCLRD
 70
     0
  9
$DIMCLRE
 70
     0
  9
$DIMCLRT
 70
     0
  9
$DIMTFAC
 40
1.0
  9
$DIMGAP
 40
0.125
  9
$DIMJUST
 70
     0
  9
$DIMSD1
 70
     0
  9
$DIMSD2
 70
     0
  9
$DIMTOLJ
 70
     1
  9
$DIMTZIN
 70
     1
  9
$DIMALTZ
 70
     0
  9
$DIMALTTZ
 70
     0
  9
$DIMUPT
 70
     0
  9
$DIMDEC
 70
     2
  9
$DIMTDEC
 70
     2
  9
$DIMALTU
 70
     2
  9
$DIMALTTD
 70
     2
  9
$DIMTXSTY
  7
Standard
  9
$DIMAUNIT
 70
     0
  9
$DIMADEC
 70
     2
  9
$DIMALTRND
 40
0.0
  9
$DIMAZIN
 70
     0
  9
$DIMDSEP
 70
    46
  9
$DIMATFIT
 70
     3
  9
$DIMFRAC
 70
     0
  9
$DIMLDRBLK
  1

  9
$DIMLUNIT
 70
     2
  9
$DIMLWD
 70
    -2
  9
$DIMLWE
 70
    -2
  9
$DIMTMOVE
 70
     0
  9
$LUNITS
 70
     2
  9
$LUPREC
 70
     4
  9
$SKETCHINC
 40
0.1
  9
$FILLETRAD
 40
0.5
  9
$AUNITS
 70
     0
  9
$AUPREC
 70
     2
  9
$MENU
  1
.
  9
$ELEVATION
 40
0.0
  9
$PELEVATION
 40
0.0
  9
$THICKNESS
 40
0.0
  9
$LIMCHECK
 70
     0
  9
$CHAMFERA
 40
0.0
  9
$CHAMFERB
 40
0.0
  9
$CHAMFERC
 40
0.0
  9
$CHAMFERD
 40
0.0
  9
$SKPOLY
 70
     0
  9
$TDCREATE
 40
2453353.550459155
  9
$TDUCREATE
 40
2453353.717125822
  9
$TDUPDATE
 40
2459488.509893356
  9
$TDUUPDATE
 40
2459488.676560023
  9
$TDINDWG
 40
0.0428125116
  9
$TDUSRTIMER
 40
0.0428125116
  9
$USRTIMER
 70
     1
  9
$ANGBASE
 50
0.0
  9
$ANGDIR
 70
     0
  9
$PDMODE
 70
     0
  9
$PDSIZE
 40
-1.0
  9
$PLINEWID
 40
0.0
  9
$SPLFRAME
 70
     0
  9
$SPLINETYPE
 70
     6
  9
$SPLINESEGS
 70
     8
  9
$HANDSEED
  5
2A6
  9
$SURFTAB1
 70
     6
  9
$SURFTAB2
 70
     6
  9
$SURFTYPE
 70
     6
  9
$SURFU
 70
     6
  9
$SURFV
 70
     6
  9
$UCSBASE
  2

  9
$UCSNAME
  2

  9
$UCSORG
 10
0.0
 20
0.0
 30
0.0
  9
$UCSXDIR
 10
1.0
 20
0.0
 30
0.0
  9
$UCSYDIR
 10
0.0
 20
1.0
 30
0.0
  9
$UCSORTHOREF
  2

  9
$UCSORTHOVIEW
 70
     0
  9
$UCSORGTOP
 10
0.0
 20
0.0
 30
0.0
  9
$UCSORGBOTTOM
 10
0.0
 20
0.0
 30
0.0
  9
$UCSORGLEFT
 10
0.0
 20
0.0
 30
0.0
  9
$UCSORGRIGHT
 10
0.0
 20
0.0
 30
0.0
  9
$UCSORGFRONT
 10
0.0
 20
0.0
 30
0.0
  9
$UCSORGBACK
 10
0.0
 20
0.0
 30
0.0
  9
$PUCSBASE
  2

  9
$PUCSNAME
  2

  9
$PUCSORG
 10
0.0
 20
0.0
 30
0.0
  9
$PUCSXDIR
 10
1.0
 20
0.0
 30
0.0
  9
$PUCSYDIR
 10
0.0
 20
1.0
 30
0.0
  9
$PUCSORTHOREF
  2

  9
$PUCSORTHOVIEW
 70
     0
  9
$PUCSORGTOP
 10
0.0
 20
0.0
 30
0.0
  9
$PUCSORGBOTTOM
 10
0.0
 20
0.0
 30
0.0
  9
$PUCSORGLEFT
 10
0.0
 20
0.0
 30
0.0
  9
$PUCSORGRIGHT
 10
0.0
 20
0.0
 30
0.0
  9
$PUCSORGFRONT
 10
0.0
 20
0.0
 30
0.0
  9
$PUCSORGBACK
 10
0.0
 20
0.0
 30
0.0
  9
$USERI1
 70
     0
  9
$USERI2
 70
     0
  9
$USERI3
 70
     0
  9
$USERI4
 70
     0
  9
$USERI5
 70
     0
  9
$USERR1
 40
0.0
  9
$USERR2
 40
0.0
  9
$USERR3
 40
0.0
  9
$USERR4
 40
0.0
  9
$USERR5
 40
0.0
  9
$WORLDVIEW
 70
     1
  9
$SHADEDGE
 70
     3
  9
$SHADEDIF
 70
    70
  9
$TILEMODE
 70
     1
  9
$MAXACTVP
 70
    64
  9
$PINSBASE
 10
0.0
 20
0.0
 30
0.0
  9
$PLIMCHECK
 70
     0
  9
$PEXTMIN
 10
1.000000000000000E+20
 20
1.000000000000000E+20
 30
1.000000000000000E+20
  9
$PEXTMAX
 10
-1.000000000000000E+20
 20
-1.000000000000000E+20
 30
-1.000000000000000E+20
  9
$PLIMMIN
 10
0.0
 20
0.0
  9
$PLIMMAX
 10
12.0
 20
9.0
  9
$UNITMODE
 70
     0
  9
$VISRETAIN
 70
     1
  9
$PLINEGEN
 70
     0
  9
$PSLTSCALE
 70
     1
  9
$TREEDEPTH
 70
  3020
  9
$CMLSTYLE
  2
Standard
  9
$CMLJUST
 70
     0
  9
$CMLSCALE
 40
1.0
  9
$PROXYGRAPHICS
 70
     1
  9
$MEASUREMENT
 70
     0
  9
$CELWEIGHT
370
    -1
  9
$ENDCAPS
280
     0
  9
$JOINSTYLE
280
     0
  9
$LWDISPLAY
290
     1
  9
$INSUNITS
 70
     1
  9
$HYPERLINKBASE
  1

  9
$STYLESHEET
  1

  9
$XEDIT
290
     0
  9
$CEPSNTYPE
380
     0
  9
$PSTYLEMODE
290
     1
  9
$FINGERPRINTGUID
  2
{5b584706-69ff-4a1c-868c-7ce09e800ec8}
  9
$VERSIONGUID
  2
{FAEB1C32-E019-11D5-929B-00C0DF256EC4}
  9
$EXTNAMES
290
     1
  9
$PSVPSCALE
 40
0.0
  9
$OLESTARTUP
290
     0
  9
$SORTENTS
280
   127
  9
$INDEXCTL
280
     0
  9
$HIDETEXT
280
     1
  9
$XCLIPFRAME
290
     0
  9
$HALOGAP
280
     0
  9
$OBSCOLOR
 70
   257
  9
$OBSLTYPE
280
     0
  9
$INTERSECTIONDISPLAY
280
     0
  9
$INTERSECTIONCOLOR
 70
   257
  9
$DIMASSOC
280
     2
  9
$PROJECTNAME
  1

  0
ENDSEC
  0
SECTION
  2
CLASSES
  0
CLASS
  1
ACDBDICTIONARYWDFLT
  2
AcDbDictionaryWithDefault
  3
ObjectDBX Classes
 90
        0
 91
        3
280
     0
281
     0
  0
CLASS
  1
ACDBPLACEHOLDER
  2
AcDbPlaceHolder
  3
ObjectDBX Classes
 90
        0
 91
        1
280
     0
281
     0
  0
CLASS
  1
LAYOUT
  2
AcDbLayout
  3
ObjectDBX Classes
 90
        0
 91
        1
280
     0
281
     0
  0
CLASS
  1
DICTIONARYVAR
  2
AcDbDictionaryVar
  3
ObjectDBX Classes
 90
        0
 91
        3
280
     0
281
     0
  0
CLASS
  1
TABLESTYLE
  2
AcDbTableStyle
  3
ObjectDBX Classes
 90
     2047
 91
        3
280
     0
281
     0
  0
CLASS
  1
SCALE
  2
AcDbScale
  3
ObjectDBX Classes
 90
     1153
 91
       67
280
     1
281
     0
  0
ENDSEC
  0
SECTION
  2
TABLES
  0
TABLE
  2
VPORT
  5
8
330
0
100
AcDbSymbolTable
 70
     2
  0
VPORT
  5
97
330
8
100
AcDbSymbolTableRecord
100
AcDbViewportTableRecord
  2
*Active
 70
     0
 10
0.0
 20
0.0
 11
1.0
 21
1.0
 12
25.0
 22
15.0
 13
0.0
 23
0.0
 14
0.5
 24
0.5
 15
0.5
 25
0.5
 16
0.0
 26
0.0
 36
1.0
 17
0.0
 27
0.0
 37
0.0
 40
30.26267716535433
 41
1.666666666666667
 42
50.0
 43
0.0
 44
0.0
 50
0.0
 51
0.0
 71
    16
 72
  2000
 73
     1
 74
     1
 75
     0
 76
     0
 77
     0
 78
     0
281
     0
 65
     0
110
0.0
120
0.0
130
0.0
111
1.0
121
0.0
131
0.0
112
0.0
122
1.0
132
0.0
 79
     0
146
0.0
  0
ENDTAB
  0
TABLE
  2
LTYPE
  5
5
330
0
100
AcDbSymbolTable
 70
     8
  0
LTYPE
  5
14
330
5
100
AcDbSymbolTableRecord
100
AcDbLinetypeTableRecord
  2
ByBlock
 70
     0
  3

 72
    65
 73
     0
 40
0.0
  0
LTYPE
  5
15
330
5
100
AcDbSymbolTableRecord
100
AcDbLinetypeTableRecord
  2
ByLayer
 70
     0
  3

 72
    65
 73
     0
 40
0.0
  0
LTYPE
  5
16
330
5
100
AcDbSymbolTableRecord
100
AcDbLinetypeTableRecord
  2
Continuous
 70
     0
  3
Solid line
 72
    65
 73
     0
 40
0.0
  0
LTYPE
  5
27E
330
5
100
AcDbSymbolTableRecord
100
AcDbLinetypeTableRecord
  2
SLD-Solid
 70
     0
  3
SolidWorks Line Style
 72
    65
 73
     0
 40
0.0
  0
LTYPE
  5
27F
330
5
100
AcDbSymbolTableRecord
100
AcDbLinetypeTableRecord
  2
SLD-Dashed
 70
     0
  3
SolidWorks Line Style
 72
    65
 73
     2
 40
0.075
 49
0.05
 74
     4
 75
     0
340
0
 46
1.0
 50
0.0
 44
0.0
 45
0.0
 49
-0.025
 74
     4
 75
     0
340
0
 46
1.0
 50
0.0
 44
0.0
 45
0.0
  0
LTYPE
  5
280
330
5
100
AcDbSymbolTableRecord
100
AcDbLinetypeTableRecord
  2
SLD-Phantom
 70
     0
  3
SolidWorks Line Style
 72
    65
 73
     6
 40
0.4999999999999999
 49
0.25
 74
     4
 75
     0
340
0
 46
1.0
 50
0.0
 44
0.0
 45
0.0
 49
-0.05
 74
     4
 75
     0
340
0
 46
1.0
 50
0.0
 44
0.0
 45
0.0
 49
0.05
 74
     4
 75
     0
340
0
 46
1.0
 50
0.0
 44
0.0
 45
0.0
 49
-0.05
 74
     4
 75
     0
340
0
 46
1.0
 50
0.0
 44
0.0
 45
0.0
 49
0.05
 74
     4
 75
     0
340
0
 46
1.0
 50
0.0
 44
0.0
 45
0.0
 49
-0.05
 74
     4
 75
     0
340
0
 46
1.0
 50
0.0
 44
0.0
 45
0.0
  0
LTYPE
  5
281
330
5
100
AcDbSymbolTableRecord
100
AcDbLinetypeTableRecord
  2
SLD-Chain
 70
     0
  3
SolidWorks Line Style
 72
    65
 73
     4
 40
0.4
 49
0.25
 74
     4
 75
     0
340
0
 46
1.0
 50
0.0
 44
0.0
 45
0.0
 49
-0.05
 74
     4
 75
     0
340
0
 46
1.0
 50
0.0
 44
0.0
 45
0.0
 49
0.05
 74
     4
 75
     0
340
0
 46
1.0
 50
0.0
 44
0.0
 45
0.0
 49
-0.05
 74
     4
 75
     0
340
0
 46
1.0
 50
0.0
 44
0.0
 45
0.0
  0
LTYPE
  5
282
330
5
100
AcDbSymbolTableRecord
100
AcDbLinetypeTableRecord
  2
SLD-Center
 70
     0
  3
SolidWorks Line Style
 72
    65
 73
     4
 40
0.7500000000000002
 49
0.6000000000000001
 74
     4
 75
     0
340
0
 46
1.0
 50
0.0
 44
0.0
 45
0.0
 49
-0.05
 74
     4
 75
     0
340
0
 46
1.0
 50
0.0
 44
0.0
 45
0.0
 49
0.05
 74
     4
 75
     0
340
0
 46
1.0
 50
0.0
 44
0.0
 45
0.0
 49
-0.05
 74
     4
 75
     0
340
0
 46
1.0
 50
0.0
 44
0.0
 45
0.0
  0
LTYPE
  5
283
330
5
100
AcDbSymbolTableRecord
100
AcDbLinetypeTableRecord
  2
SLD-Stitch
 70
     0
  3
SolidWorks Line Style
 72
    65
 73
     2
 40
0.025
 49
0.0
 74
     4
 75
     0
340
0
 46
1.0
 50
0.0
 44
0.0
 45
0.0
 49
-0.025
 74
     4
 75
     0
340
0
 46
1.0
 50
0.0
 44
0.0
 45
0.0
  0
LTYPE
  5
284
330
5
100
AcDbSymbolTableRecord
100
AcDbLinetypeTableRecord
  2
SLD-Thin-Thick-Chain
 70
     0
  3
SolidWorks Line Style
 72
    65
 73
     4
 40
0.4
 49
0.25
 74
     4
 75
     0
340
0
 46
1.0
 50
0.0
 44
0.0
 45
0.0
 49
-0.05
 74
     4
 75
     0
340
0
 46
1.0
 50
0.0
 44
0.0
 45
0.0
 49
0.05
 74
     4
 75
     0
340
0
 46
1.0
 50
0.0
 44
0.0
 45
0.0
 49
-0.05
 74
     4
 75
     0
340
0
 46
1.0
 50
0.0
 44
0.0
 45
0.0
  0
ENDTAB
  0
TABLE
  2
LAYER
  5
2
330
0
100
AcDbSymbolTable
 70
     6
  0
LAYER
  5
10
330
2
100
AcDbSymbolTableRecord
100
AcDbLayerTableRecord
  2
0
 70
     0
 62
     7
  6
Continuous
370
    -3
390
F
  0
LAYER
  5
285
330
2
100
AcDbSymbolTableRecord
100
AcDbLayerTableRecord
  2
FORMAT
 70
     0
 62
     7
  6
SLD-Solid
370
    -3
390
F
  0
LAYER
  5
286
330
2
100
AcDbSymbolTableRecord
100
AcDbLayerTableRecord
  2
NOTES
 70
     0
 62
     1
  6
SLD-Solid
370
    -3
390
F
  0
LAYER
  5
77
330
2
100
AcDbSymbolTableRecord
100
AcDbLayerTableRecord
  2
OBJECT
 70
     0
 62
     7
  6
SLD-Solid
370
    -3
390
F
  0
LAYER
  5
78
330
2
100
AcDbSymbolTableRecord
100
AcDbLayerTableRecord
  2
DIMS
 70
     0
 62
     5
  6
SLD-Solid
370
    -3
390
F
  0
LAYER
  5
79
330
2
100
AcDbSymbolTableRecord
100
AcDbLayerTableRecord
  2
TITLE
 70
     0
 62
     8
  6
SLD-Solid
370
    -3
390
F
  0
ENDTAB
  0
TABLE
  2
STYLE
  5
3
330
0
100
AcDbSymbolTable
 70
     5
  0
STYLE
  5
11
330
3
100
AcDbSymbolTableRecord
100
AcDbTextStyleTableRecord
  2
Standard
 70
     0
 40
0.0
 41
1.0
 50
0.0
 71
     0
 42
0.3
  3
GOTHIC.TTF
  4

1001
ACAD
1000
CENTURY GOTHIC
1071
       34
  0
STYLE
  5
D5
330
3
100
AcDbSymbolTableRecord
100
AcDbTextStyleTableRecord
  2
SLDTEXTSTYLE0
 70
     0
 40
0.0
 41
0.948
 50
0.0
 71
     0
 42
0.3
  3
ARIAL.TTF
  4

1001
ACAD
1000
Arial
1071
      290
  0
STYLE
  5
D9
330
3
100
AcDbSymbolTableRecord
100
AcDbTextStyleTableRecord
  2
SLDTEXTSTYLE1
 70
     0
 40
0.0
 41
0.913
 50
0.0
 71
     0
 42
0.3
  3
GOTHIC.TTF
  4

1001
ACAD
1000
Century Gothic
1071
      290
  0
STYLE
  5
E8
330
3
100
AcDbSymbolTableRecord
100
AcDbTextStyleTableRecord
  2
SLDTEXTSTYLE2
 70
     0
 40
0.0
 41
0.87
 50
0.0
 71
     0
 42
0.3
  3
ARIALNB.TTF
  4

1001
ACAD
1000
Arial Narrow
1071
 33554722
  0
STYLE
  5
EA
330
3
100
AcDbSymbolTableRecord
100
AcDbTextStyleTableRecord
  2
SLDTEXTSTYLE3
 70
     0
 40
0.0
 41
0.87
 50
0.0
 71
     0
 42
0.3
  3
ARIALN.TTF
  4

1001
ACAD
1000
Arial Narrow
1071
      290
  0
ENDTAB
  0
TABLE
  2
VIEW
  5
6
330
0
100
AcDbSymbolTable
 70
     0
  0
ENDTAB
  0
TABLE
  2
UCS
  5
7
330
0
100
AcDbSymbolTable
 70
     0
  0
ENDTAB
  0
TABLE
  2
APPID
  5
9
330
0
100
AcDbSymbolTable
 70
     1
  0
APPID
  5
12
330
9
100
AcDbSymbolTableRecord
100
AcDbRegAppTableRecord
  2
ACAD
 70
     0
  0
ENDTAB
  0
TABLE
  2
DIMSTYLE
  5
A
330
0
100
AcDbSymbolTable
 70
     5
100
AcDbDimStyleTable
  0
DIMSTYLE
105
27
330
A
100
AcDbSymbolTableRecord
100
AcDbDimStyleTableRecord
  2
Standard
 70
     0
340
11
  0
DIMSTYLE
105
16A
102
{ACAD_REACTORS
330
169
330
17B
330
1D3
102
}
330
A
100
AcDbSymbolTableRecord
100
AcDbDimStyleTableRecord
  2
SLDDIMSTYLE0
 70
     0
 41
0.2
 44
0.0
 45
0.000000001
 78
    12
 79
     3
140
0.3
147
0.075
173
     1
271
     2
272
     2
276
     2
277
     5
284
    12
340
D9
341
287
343
287
344
287
  0
DIMSTYLE
105
187
102
{ACAD_REACTORS
330
186
330
196
102
}
330
A
100
AcDbSymbolTableRecord
100
AcDbDimStyleTableRecord
  2
SLDDIMSTYLE1
 70
     0
 41
0.2
 44
0.0
 45
0.000000001
 78
    12
 79
     3
140
0.3
147
0.075
173
     1
271
     6
272
     2
276
     2
277
     5
284
    12
340
D9
341
287
343
287
344
287
  0
DIMSTYLE
105
1A6
102
{ACAD_REACTORS
330
1A5
102
}
330
A
100
AcDbSymbolTableRecord
100
AcDbDimStyleTableRecord
  2
SLDDIMSTYLE2
 70
     0
 41
0.2
 44
0.0
 45
0.000000001
 78
    12
 79
     3
140
0.3
141
0.0
147
0.075
173
     1
271
     2
272
     2
276
     2
277
     5
284
    12
340
D9
341
287
343
287
344
287
  0
DIMSTYLE
105
1B4
330
A
100
AcDbSymbolTableRecord
100
AcDbDimStyleTableRecord
  2
SLDDIMSTYLE3
 70
     0
 41
0.2
 44
0.0
 45
0.000000001
146
0.2
147
0.0
173
     1
271
     0
272
     0
276
     2
277
     5
340
11
341
287
343
287
344
287
  0
ENDTAB
  0
TABLE
  2
BLOCK_RECORD
  5
1
330
0
100
AcDbSymbolTable
 70
    10
  0
BLOCK_RECORD
  5
1F
330
1
100
AcDbSymbolTableRecord
100
AcDbBlockTableRecord
  2
*Model_Space
340
22
  0
BLOCK_RECORD
  5
73
330
1
100
AcDbSymbolTableRecord
100
AcDbBlockTableRecord
  2
*Paper_Space
340
74
  0
BLOCK_RECORD
  5
287
330
1
100
AcDbSymbolTableRecord
100
AcDbBlockTableRecord
  2
_Open90
340
0
102
{BLKREFS
331
174
331
175
331
17F
331
180
331
18B
331
18C
331
19A
331
19B
331
1AA
331
1D7
331
1D8
102
}
  0
BLOCK_RECORD
  5
23
330
1
100
AcDbSymbolTableRecord
100
AcDbBlockTableRecord
  2
*Paper_Space1
340
26
  0
BLOCK_RECORD
  5
DF
330
1
100
AcDbSymbolTableRecord
100
AcDbBlockTableRecord
  2
SW_NOTE_0
340
0
  0
BLOCK_RECORD
  5
E5
330
1
100
AcDbSymbolTableRecord
100
AcDbBlockTableRecord
  2
SW_NOTE_0_1
340
0
102
{BLKREFS
331
EE
102
}
  0
BLOCK_RECORD
  5
171
330
1
100
AcDbSymbolTableRecord
100
AcDbBlockTableRecord
  2
_D
340
0
  0
BLOCK_RECORD
  5
17C
330
1
100
AcDbSymbolTableRecord
100
AcDbBlockTableRecord
  2
_D_1
340
0
  0
BLOCK_RECORD
  5
188
330
1
100
AcDbSymbolTableRecord
100
AcDbBlockTableRecord
  2
_D_2
340
0
  0
BLOCK_RECORD
  5
197
330
1
100
AcDbSymbolTableRecord
100
AcDbBlockTableRecord
  2
_D_3
340
0
  0
BLOCK_RECORD
  5
1A7
330
1
100
AcDbSymbolTableRecord
100
AcDbBlockTableRecord
  2
_D_4
340
0
  0
BLOCK_RECORD
  5
1D4
330
1
100
AcDbSymbolTableRecord
100
AcDbBlockTableRecord
  2
_D_5
340
0
  0
ENDTAB
  0
ENDSEC
  0
SECTION
  2
BLOCKS
  0
BLOCK
  5
20
330
1F
100
AcDbEntity
  8
0
100
AcDbBlockBegin
  2
*Model_Space
 70
     0
 71
     0
 10
0.0
 20
0.0
 30
0.0
  3
*Model_Space
  1

  0
ENDBLK
  5
21
330
1F
100
AcDbEntity
  8
0
100
AcDbBlockEnd
  0
BLOCK
  5
75
330
73
100
AcDbEntity
 67
     1
  8
0
100
AcDbBlockBegin
  2
*Paper_Space
 70
     0
 71
     0
 10
0.0
 20
0.0
 30
0.0
  3
*Paper_Space
  1

  0
ENDBLK
  5
76
330
73
100
AcDbEntity
 67
     1
  8
0
100
AcDbBlockEnd
  0
BLOCK
  5
288
330
287
100
AcDbEntity
  8
0
100
AcDbBlockBegin
  2
_Open90
 70
     0
 71
     0
 10
0.0
 20
0.0
 30
0.0
  3
_Open90
  1

  0
LINE
  5
16E
330
287
100
AcDbEntity
  8
0
  6
ByBlock
 62
     0
370
    -2
100
AcDbLine
 10
-0.5
 20
0.5
 30
0.0
 11
0.0
 21
0.0
 31
0.0
  0
LINE
  5
16F
330
287
100
AcDbEntity
  8
0
  6
ByBlock
 62
     0
370
    -2
100
AcDbLine
 10
0.0
 20
0.0
 30
0.0
 11
-0.5
 21
-0.5
 31
0.0
  0
LINE
  5
170
330
287
100
AcDbEntity
  8
0
  6
ByBlock
 62
     0
370
    -2
100
AcDbLine
 10
0.0
 20
0.0
 30
0.0
 11
-1.0
 21
0.0
 31
0.0
  0
ENDBLK
  5
289
330
287
100
AcDbEntity
  8
0
100
AcDbBlockEnd
  0
BLOCK
  5
290
330
23
100
AcDbEntity
  8
0
100
AcDbBlockBegin
  2
*Paper_Space1
 70
     0
 71
     0
 10
0.0
 20
0.0
 30
0.0
  3
*Paper_Space1
  1

  0
ENDBLK
  5
291
330
23
100
AcDbEntity
  8
0
100
AcDbBlockEnd
  0
BLOCK
  5
292
330
DF
100
AcDbEntity
  8
0
100
AcDbBlockBegin
  2
SW_NOTE_0
 70
     0
 71
     0
 10
0.0
 20
0.0
 30
0.0
  3
SW_NOTE_0
  1

  0
MTEXT
  5
E2
330
DF
100
AcDbEntity
  8
NOTES
 62
     0
100
AcDbMText
 10
0.0
 20
0.3759780907668229
 30
0.0
 40
0.2916666666666666
 41
0.0
 71
     1
 72
     1
  1
FROST PRODUCTS LTD.
  7
SLDTEXTSTYLE0
 73
     1
 44
1.0
  0
MTEXT
  5
E3
330
DF
100
AcDbEntity
  8
NOTES
 62
     0
100
AcDbMText
 10
0.0
 20
-0.0495142708586375
 30
0.0
 40
0.2291666666666666
 41
0.0
 71
     1
 72
     1
  1
5280 JOHN LUCUS DRIVE, BURLINGTON, ON, L7L 5Z9
  7
SLDTEXTSTYLE0
 73
     1
 44
1.0
  0
ENDBLK
  5
293
330
DF
100
AcDbEntity
  8
0
100
AcDbBlockEnd
  0
BLOCK
  5
294
330
E5
100
AcDbEntity
  8
0
100
AcDbBlockBegin
  2
SW_NOTE_0_1
 70
     0
 71
     0
 10
0.0
 20
0.0
 30
0.0
  3
SW_NOTE_0_1
  1

  0
MTEXT
  5
E9
330
E5
100
AcDbEntity
  8
NOTES
 62
     0
100
AcDbMText
 10
0.0
 20
0.2381282770514712
 30
0.0
 40
0.1847290640394089
 41
0.0
 71
     1
 72
     1
  1
PROPRIETARY AND CONFIDENTIAL
  7
SLDTEXTSTYLE2
 73
     1
 44
1.0
  0
MTEXT
  5
EB
330
E5
100
AcDbEntity
  8
NOTES
 62
     0
100
AcDbMText
 10
0.0
 20
-0.0504364795553608
 30
0.0
 40
0.25
 41
0.0
 71
     1
 72
     1
  1
THE INFORMATION CONTAINED IN THIS DRAWING IS THE SOLE PROPERTY OF 
  7
SLDTEXTSTYLE3
 73
     1
 44
1.0
  0
MTEXT
  5
EC
330
E5
100
AcDbEntity
  8
NOTES
 62
     0
100
AcDbMText
 10
0.0
 20
-0.4231398940537119
 30
0.0
 40
0.25
 41
0.0
 71
     1
 72
     1
  1
FROST PRODUCTS LTD.  ANY REPRODUCTION IN PART OR AS A WHOLE WITHOUT 
  7
SLDTEXTSTYLE3
 73
     1
 44
1.0
  0
MTEXT
  5
ED
330
E5
100
AcDbEntity
  8
NOTES
 62
     0
100
AcDbMText
 10
0.0
 20
-0.7958433085520636
 30
0.0
 40
0.25
 41
0.0
 71
     1
 72
     1
  1
THE WRITTEN PERMISSION OF FROST PRODUCTS LTD. IS PROHIBITED.
  7
SLDTEXTSTYLE3
 73
     1
 44
1.0
  0
ENDBLK
  5
295
330
E5
100
AcDbEntity
  8
0
100
AcDbBlockEnd
  0
BLOCK
  5
296
330
171
100
AcDbEntity
  8
0
100
AcDbBlockBegin
  2
_D
 70
     0
 71
     0
 10
0.0
 20
0.0
 30
0.0
  3
_D
  1

  0
INSERT
  5
174
330
171
100
AcDbEntity
  8
DIMS
100
AcDbBlockReference
  2
_Open90
 10
2.438760853200351
 20
23.90960134810707
 30
0.0
 41
0.2
 42
0.2
 50
90.00000000000041
  0
INSERT
  5
175
330
171
100
AcDbEntity
  8
DIMS
100
AcDbBlockReference
  2
_Open90
 10
2.438760853200352
 20
3.909601348107074
 30
0.0
 41
0.2
 42
0.2
 50
270.0000000000004
  0
LINE
  5
176
330
171
100
AcDbEntity
  8
DIMS
100
AcDbLine
 10
3.433455800706909
 20
23.90960134810707
 30
0.0
 11
2.063760853200351
 21
23.90960134810707
 31
0.0
  0
LINE
  5
177
330
171
100
AcDbEntity
  8
DIMS
100
AcDbLine
 10
2.438760853200351
 20
23.90960134810707
 30
0.0
 11
2.438760853200352
 21
5.754625046753186
 31
0.0
  0
LINE
  5
178
330
171
100
AcDbEntity
  8
DIMS
100
AcDbLine
 10
2.438760853200352
 20
3.909601348107074
 30
0.0
 11
2.438760853200352
 21
4.325875018462101
 31
0.0
  0
MTEXT
  5
179
330
171
100
AcDbEntity
  8
DIMS
100
AcDbMText
 10
-7.444991635514151
 20
5.661578168433866
 30
0.0
 40
0.3
 41
0.0
 71
     1
 72
     1
  1
                                                                                      48" (1220mm) Max. height for barrier free installation  
  7
SLDTEXTSTYLE1
 73
     1
 44
1.0
  0
MTEXT
  5
17A
330
171
100
AcDbEntity
  8
DIMS
100
AcDbMText
 10
2.38334418546176
 20
4.709078198461466
 30
0.0
 40
0.3
 41
0.0
 71
     1
 72
     1
  1
 
  7
SLDTEXTSTYLE1
 73
     1
 44
1.0
  0
ENDBLK
  5
297
330
171
100
AcDbEntity
  8
0
100
AcDbBlockEnd
  0
BLOCK
  5
298
330
17C
100
AcDbEntity
  8
0
100
AcDbBlockBegin
  2
_D_1
 70
     0
 71
     0
 10
0.0
 20
0.0
 30
0.0
  3
_D_1
  1

  0
INSERT
  5
17F
330
17C
100
AcDbEntity
  8
DIMS
100
AcDbBlockReference
  2
_Open90
 10
5.197472467373577
 20
25.72062497015432
 30
0.0000000000000126
 41
0.2
 42
0.2
 50
180.0000000000004
  0
INSERT
  5
180
330
17C
100
AcDbEntity
  8
DIMS
100
AcDbBlockReference
  2
_Open90
 10
17.19747246737358
 20
25.72062497015432
 30
0.0000000000000126
 41
0.2
 42
0.2
 50
0.0000000000004071
  0
LINE
  5
181
330
17C
100
AcDbEntity
  8
DIMS
100
AcDbLine
 10
5.197472467373577
 20
20.40078020808257
 30
0.0
 11
5.197472467373577
 21
26.09562497015432
 31
0.0
  0
LINE
  5
182
330
17C
100
AcDbEntity
  8
DIMS
100
AcDbLine
 10
17.19747246737358
 20
20.40078020808257
 30
0.0
 11
17.19747246737358
 21
26.09562497015432
 31
0.0
  0
LINE
  5
183
330
17C
100
AcDbEntity
  8
DIMS
100
AcDbLine
 10
5.197472467373577
 20
25.72062497015432
 30
0.0
 11
10.91258079620449
 21
25.72062497015432
 31
0.0
  0
LINE
  5
184
330
17C
100
AcDbEntity
  8
DIMS
100
AcDbLine
 10
17.19747246737358
 20
25.72062497015432
 30
0.0
 11
11.47966413854266
 21
25.72062497015432
 31
0.0
  0
MTEXT
  5
185
330
17C
100
AcDbEntity
  8
DIMS
100
AcDbMText
 10
10.91258079620449
 20
25.8657030843281
 30
0.0
 40
0.3
 41
0.0
 71
     1
 72
     1
  1
12"
  7
SLDTEXTSTYLE1
 73
     1
 44
1.0
  0
ENDBLK
  5
299
330
17C
100
AcDbEntity
  8
0
100
AcDbBlockEnd
  0
BLOCK
  5
29A
330
188
100
AcDbEntity
  8
0
100
AcDbBlockBegin
  2
_D_2
 70
     0
 71
     0
 10
0.0
 20
0.0
 30
0.0
  3
_D_2
  1

  0
INSERT
  5
18B
330
188
100
AcDbEntity
  8
DIMS
100
AcDbBlockReference
  2
_Open90
 10
5.197472467373574
 20
25.72062497015432
 30
0.0000000000000126
 41
0.2
 42
0.2
 50
0.0000000000004326
  0
INSERT
  5
18C
330
188
100
AcDbEntity
  8
DIMS
100
AcDbBlockReference
  2
_Open90
 10
3.541222467373572
 20
25.72062497015432
 30
0.0000000000000126
 41
0.2
 42
0.2
 50
180.0000000000004
  0
LINE
  5
18D
330
188
100
AcDbEntity
  8
DIMS
100
AcDbLine
 10
4.18271759182939
 20
25.75139581760353
 30
0.0
 11
4.713967619783734
 21
25.75139581760353
 31
0.0
  0
LINE
  5
18E
330
188
100
AcDbEntity
  8
DIMS
100
AcDbLine
 10
5.197472467373577
 20
20.40078020808257
 30
0.0
 11
5.197472467373574
 21
26.09562497015432
 31
0.0
  0
LINE
  5
18F
330
188
100
AcDbEntity
  8
DIMS
100
AcDbLine
 10
3.541222467373573
 20
24.01736801477373
 30
0.0
 11
3.541222467373572
 21
26.09562497015432
 31
0.0
  0
LINE
  5
190
330
188
100
AcDbEntity
  8
DIMS
100
AcDbLine
 10
5.197472467373574
 20
25.72062497015432
 30
0.0
 11
4.881675981569095
 21
25.72062497015432
 31
0.0
  0
LINE
  5
191
330
188
100
AcDbEntity
  8
DIMS
100
AcDbLine
 10
3.541222467373572
 20
25.72062497015432
 30
0.0
 11
3.917092577852218
 21
25.72062497015432
 31
0.0
  0
MTEXT
  5
192
330
188
100
AcDbEntity
  8
DIMS
100
AcDbMText
 10
3.917092577852218
 20
25.88903641811277
 30
0.0
 40
0.3
 41
0.0
 71
     1
 72
     1
  1
1
  7
SLDTEXTSTYLE1
 73
     1
 44
1.0
  0
MTEXT
  5
193
330
188
100
AcDbEntity
  8
DIMS
100
AcDbMText
 10
4.226675934852193
 20
26.10822395603963
 30
0.0
 40
0.3
 41
0.0
 71
     1
 72
     1
  1
11
  7
SLDTEXTSTYLE1
 73
     1
 44
1.0
  0
MTEXT
  5
194
330
188
100
AcDbEntity
  8
DIMS
100
AcDbMText
 10
4.226675934852193
 20
25.71151560879622
 30
0.0
 40
0.3
 41
0.0
 71
     1
 72
     1
  1
16
  7
SLDTEXTSTYLE1
 73
     1
 44
1.0
  0
MTEXT
  5
195
330
188
100
AcDbEntity
  8
DIMS
100
AcDbMText
 10
4.757925944473416
 20
25.88903641811277
 30
0.0
 40
0.3
 41
0.0
 71
     1
 72
     1
  1
"
  7
SLDTEXTSTYLE1
 73
     1
 44
1.0
  0
ENDBLK
  5
29B
330
188
100
AcDbEntity
  8
0
100
AcDbBlockEnd
  0
BLOCK
  5
29C
330
197
100
AcDbEntity
  8
0
100
AcDbBlockBegin
  2
_D_3
 70
     0
 71
     0
 10
0.0
 20
0.0
 30
0.0
  3
_D_3
  1

  0
INSERT
  5
19A
330
197
100
AcDbEntity
  8
DIMS
100
AcDbBlockReference
  2
_Open90
 10
3.541222467373574
 20
26.42928638747717
 30
0.0000000000000126
 41
0.2
 42
0.2
 50
180.0000000000004
  0
INSERT
  5
19B
330
197
100
AcDbEntity
  8
DIMS
100
AcDbBlockReference
  2
_Open90
 10
18.85102246737358
 20
26.42928638747716
 30
0.0000000000000126
 41
0.2
 42
0.2
 50
0.0000000000004071
  0
LINE
  5
19C
330
197
100
AcDbEntity
  8
DIMS
100
AcDbLine
 10
11.09028912413605
 20
26.46005723492637
 30
0.0
 11
11.6215391520904
 21
26.46005723492637
 31
0.0
  0
LINE
  5
19D
330
197
100
AcDbEntity
  8
DIMS
100
AcDbLine
 10
3.541222467373573
 20
24.01736801477373
 30
0.0
 11
3.541222467373574
 21
26.80428638747717
 31
0.0
  0
LINE
  5
19E
330
197
100
AcDbEntity
  8
DIMS
100
AcDbLine
 10
18.85102246737357
 20
24.01736801477373
 30
0.0
 11
18.85102246737358
 21
26.80428638747716
 31
0.0
  0
LINE
  5
19F
330
197
100
AcDbEntity
  8
DIMS
100
AcDbLine
 10
3.541222467373574
 20
26.42928638747717
 30
0.0
 11
10.60299743920451
 21
26.42928638747716
 31
0.0
  0
LINE
  5
1A0
330
197
100
AcDbEntity
  8
DIMS
100
AcDbLine
 10
18.85102246737358
 20
26.42928638747716
 30
0.0
 11
11.78924749554264
 21
26.42928638747716
 31
0.0
  0
MTEXT
  5
1A1
330
197
100
AcDbEntity
  8
DIMS
100
AcDbMText
 10
10.60299743920451
 20
26.59769783543561
 30
0.0
 40
0.3
 41
0.0
 71
     1
 72
     1
  1
15
  7
SLDTEXTSTYLE1
 73
     1
 44
1.0
  0
MTEXT
  5
1A2
330
197
100
AcDbEntity
  8
DIMS
100
AcDbMText
 10
11.24508080263604
 20
26.81688537336247
 30
0.0
 40
0.3
 41
0.0
 71
     1
 72
     1
  1
5
  7
SLDTEXTSTYLE1
 73
     1
 44
1.0
  0
MTEXT
  5
1A3
330
197
100
AcDbEntity
  8
DIMS
100
AcDbMText
 10
11.13424746715886
 20
26.42017702611907
 30
0.0
 40
0.3
 41
0.0
 71
     1
 72
     1
  1
16
  7
SLDTEXTSTYLE1
 73
     1
 44
1.0
  0
MTEXT
  5
1A4
330
197
100
AcDbEntity
  8
DIMS
100
AcDbMText
 10
11.66549745844696
 20
26.59769783543561
 30
0.0
 40
0.3
 41
0.0
 71
     1
 72
     1
  1
"
  7
SLDTEXTSTYLE1
 73
     1
 44
1.0
  0
ENDBLK
  5
29D
330
197
100
AcDbEntity
  8
0
100
AcDbBlockEnd
  0
BLOCK
  5
29E
330
1A7
100
AcDbEntity
  8
0
100
AcDbBlockBegin
  2
_D_4
 70
     0
 71
     0
 10
0.0
 20
0.0
 30
0.0
  3
_D_4
  1

  0
INSERT
  5
1AA
330
1A7
100
AcDbEntity
  8
DIMS
100
AcDbBlockReference
  2
_Open90
 10
17.28407500775202
 20
20.1841135414159
 30
-0.0000000000001266
 41
0.2
 42
0.2
 50
150.0000000000004
  0
LINE
  5
1AB
330
1A7
100
AcDbEntity
  8
DIMS
100
AcDbLine
 10
20.23672286080446
 20
18.94110419509031
 30
0.0
 11
20.7679728887588
 21
18.94110419509031
 31
0.0
  0
LINE
  5
1AC
330
1A7
100
AcDbEntity
  8
DIMS
100
AcDbLine
 10
17.28407500775202
 20
20.1841135414159
 30
0.0
 11
19.49032702104489
 21
18.9103333476411
 31
0.0
  0
LINE
  5
1AD
330
1A7
100
AcDbEntity
  8
DIMS
100
AcDbLine
 10
19.49032702104489
 20
18.9103333476411
 30
0.0
 11
19.74032702104489
 21
18.9103333476411
 31
0.0
  0
MTEXT
  5
1AE
330
1A7
100
AcDbEntity
  8
DIMS
100
AcDbMText
 10
19.74032702104489
 20
19.0741614602133
 30
0.0
 40
0.3
 41
0.0
 71
     1
 72
     1
  1
%%c
  7
SLDTEXTSTYLE1
 73
     1
 44
1.0
  0
MTEXT
  5
1AF
330
1A7
100
AcDbEntity
  8
DIMS
100
AcDbMText
 10
20.39151453930445
 20
19.2979323335264
 30
0.0
 40
0.3
 41
0.0
 71
     1
 72
     1
  1
3
  7
SLDTEXTSTYLE1
 73
     1
 44
1.0
  0
MTEXT
  5
1B0
330
1A7
100
AcDbEntity
  8
DIMS
100
AcDbMText
 10
20.28068120382726
 20
18.901223986283
 30
0.0
 40
0.3
 41
0.0
 71
     1
 72
     1
  1
16
  7
SLDTEXTSTYLE1
 73
     1
 44
1.0
  0
MTEXT
  5
1B1
330
1A7
100
AcDbEntity
  8
DIMS
100
AcDbMText
 10
20.81193126844785
 20
19.07874479559955
 30
0.0
 40
0.3
 41
0.0
 71
     1
 72
     1
  1
"
  7
SLDTEXTSTYLE1
 73
     1
 44
1.0
  0
ENDBLK
  5
29F
330
1A7
100
AcDbEntity
  8
0
100
AcDbBlockEnd
  0
BLOCK
  5
2A0
330
1D4
100
AcDbEntity
  8
0
100
AcDbBlockBegin
  2
_D_5
 70
     0
 71
     0
 10
0.0
 20
0.0
 30
0.0
  3
_D_5
  1

  0
INSERT
  5
1D7
330
1D4
100
AcDbEntity
  8
DIMS
100
AcDbBlockReference
  2
_Open90
 10
21.52717998540782
 20
24.41489633824974
 30
0.1242299794661184
 41
0.2
 42
0.2
 50
180.0000000000005
  0
INSERT
  5
1D8
330
1D4
100
AcDbEntity
  8
DIMS
100
AcDbBlockReference
  2
_Open90
 10
23.49817998540782
 20
24.41489633824975
 30
0.1242299794661184
 41
0.2
 42
0.2
 50
0.0000000000005343
  0
LINE
  5
1D9
330
1D4
100
AcDbEntity
  8
DIMS
100
AcDbLine
 10
21.52717998540782
 20
24.04636801477374
 30
0.0
 11
21.52717998540782
 21
24.78989633824974
 31
0.0
  0
LINE
  5
1DA
330
1D4
100
AcDbEntity
  8
DIMS
100
AcDbLine
 10
23.49817998540782
 20
24.07626801477374
 30
0.0
 11
23.49817998540782
 21
24.78989633824975
 31
0.0
  0
LINE
  5
1DB
330
1D4
100
AcDbEntity
  8
DIMS
100
AcDbLine
 10
21.52717998540782
 20
24.41489633824974
 30
0.0
 11
22.34166339761011
 21
24.41489633824974
 31
0.0
  0
LINE
  5
1DC
330
1D4
100
AcDbEntity
  8
DIMS
100
AcDbLine
 10
23.49817998540782
 20
24.41489633824975
 30
0.0
 11
22.68708008732704
 21
24.41489633824974
 31
0.0
  0
MTEXT
  5
1DD
330
1D4
100
AcDbEntity
  8
DIMS
100
AcDbMText
 10
22.34166339761011
 20
24.55997445242352
 30
0.0
 40
0.3
 41
0.0
 71
     1
 72
     1
  1
2"
  7
SLDTEXTSTYLE1
 73
     1
 44
1.0
  0
ENDBLK
  5
2A1
330
1D4
100
AcDbEntity
  8
0
100
AcDbBlockEnd
  0
ENDSEC
  0
SECTION
  2
ENTITIES
  0
LINE
  5
7A
330
1F
100
AcDbEntity
  8
TITLE
370
    50
100
AcDbLine
 10
32.5182230240126
 20
1.48761176446163
 30
0.0
 11
49.49998645119504
 21
1.48761176446163
 31
0.0
  0
LINE
  5
7B
330
1F
100
AcDbEntity
  8
TITLE
370
    50
100
AcDbLine
 10
49.49993174424403
 20
5.475360393555786
 30
0.0
 11
39.31053507231783
 21
5.475360393555786
 31
0.0
  0
LINE
  5
7C
330
1F
100
AcDbEntity
  8
TITLE
  6
SLD-Solid
370
    18
100
AcDbLine
 10
0.5
 20
0.5
 30
0.0
 11
0.5
 21
29.5
 31
0.0
  0
LINE
  5
7D
330
1F
100
AcDbEntity
  8
TITLE
  6
SLD-Solid
370
    18
100
AcDbLine
 10
0.5
 20
29.5
 30
0.0
 11
49.50000000000001
 21
29.5
 31
0.0
  0
LINE
  5
7E
330
1F
100
AcDbEntity
  8
TITLE
370
    50
100
AcDbLine
 10
32.5182230240126
 20
2.542787723103441
 30
0.0
 11
25.50597912026433
 21
2.542787723103441
 31
0.0
  0
LINE
  5
7F
330
1F
100
AcDbEntity
  8
TITLE
370
    50
100
AcDbLine
 10
32.5182230240126
 20
1.48761176446163
 30
0.0
 11
25.50597912026433
 21
1.48761176446163
 31
0.0
  0
LINE
  5
80
330
1F
100
AcDbEntity
  8
TITLE
  6
SLD-Solid
370
    18
100
AcDbLine
 10
49.50000000000001
 20
29.5
 30
0.0
 11
49.50000000000001
 21
0.5
 31
0.0
  0
LINE
  5
81
330
1F
100
AcDbEntity
  8
TITLE
  6
SLD-Solid
370
    18
100
AcDbLine
 10
49.50000000000001
 20
0.5
 30
0.0
 11
0.5
 21
0.5
 31
0.0
  0
LINE
  5
82
330
1F
100
AcDbEntity
  8
TITLE
370
    50
100
AcDbLine
 10
32.5182230240126
 20
1.48761176446163
 30
0.0
 11
32.5182230240126
 21
3.597963681745254
 31
0.0
  0
LINE
  5
83
330
1F
100
AcDbEntity
  8
TITLE
370
    50
100
AcDbLine
 10
25.50597912026433
 20
3.597963681745254
 30
0.0
 11
25.50597912026433
 21
0.5
 31
0.0
  0
LINE
  5
84
330
1F
100
AcDbEntity
  8
TITLE
370
    50
100
AcDbLine
 10
25.50597912026433
 20
0.5
 30
0.0
 11
49.50000000000001
 21
0.5
 31
0.0
  0
LINE
  5
85
330
1F
100
AcDbEntity
  8
TITLE
370
    50
100
AcDbLine
 10
49.49993174424403
 20
5.475360393555786
 30
0.0
 11
49.50000000000001
 21
0.5
 31
0.0
  0
LINE
  5
86
330
1F
100
AcDbEntity
  8
TITLE
  6
SLD-Solid
370
    18
100
AcDbLine
 10
0.4999606299212599
 20
15.0
 30
0.0
 11
0.5000393700787401
 21
15.0
 31
0.0
  0
LINE
  5
87
330
1F
100
AcDbEntity
  8
TITLE
370
    50
100
AcDbLine
 10
32.5182230240126
 20
3.597963681745254
 30
0.0
 11
25.50597912026433
 21
3.597963681745254
 31
0.0
  0
LINE
  5
88
330
1F
100
AcDbEntity
  8
TITLE
370
    50
100
AcDbLine
 10
32.5182230240126
 20
3.597963681745254
 30
0.0
 11
49.49976156426075
 21
3.597964834324629
 31
0.0
  0
LINE
  5
89
330
1F
100
AcDbEntity
  8
TITLE
370
    50
100
AcDbLine
 10
39.31053507231783
 20
5.475360393555786
 30
0.0
 11
39.31053507231783
 21
0.4636772425222311
 31
0.0
  0
LINE
  5
8A
330
1F
100
AcDbEntity
  8
TITLE
  6
SLD-Solid
370
    18
100
AcDbLine
 10
25.0
 20
29.50003937007874
 30
0.0
 11
25.0
 21
29.49996062992126
 31
0.0
  0
LINE
  5
8B
330
1F
100
AcDbEntity
  8
TITLE
  6
SLD-Solid
370
    18
100
AcDbLine
 10
49.50003937007874
 20
15.0
 30
0.0
 11
49.49996062992127
 21
15.0
 31
0.0
  0
LINE
  5
8C
330
1F
100
AcDbEntity
  8
TITLE
  6
SLD-Solid
370
    18
100
AcDbLine
 10
25.0
 20
0.4999606299212599
 30
0.0
 11
25.0
 21
0.5000393700787401
 31
0.0
  0
LINE
  5
8D
330
1F
100
AcDbEntity
  8
TITLE
  6
SLD-Solid
370
    18
100
AcDbLine
 10
0.5
 20
3.188976377952754
 30
0.0
 11
0.1653543307086614
 21
3.188976377952754
 31
0.0
  0
LINE
  5
8E
330
1F
100
AcDbEntity
  8
TITLE
  6
SLD-Solid
370
    18
100
AcDbLine
 10
49.50000000000001
 20
3.188976377952754
 30
0.0
 11
49.83464566929134
 21
3.188976377952754
 31
0.0
  0
LINE
  5
8F
330
1F
100
AcDbEntity
  8
TITLE
  6
SLD-Solid
370
    18
100
AcDbLine
 10
0.5
 20
5.157480314960631
 30
0.0
 11
0.1653543307086614
 21
5.157480314960631
 31
0.0
  0
LINE
  5
90
330
1F
100
AcDbEntity
  8
TITLE
  6
SLD-Solid
370
    18
100
AcDbLine
 10
49.50000000000001
 20
5.157480314960631
 30
0.0
 11
49.83464566929134
 21
5.157480314960631
 31
0.0
  0
LINE
  5
91
330
1F
100
AcDbEntity
  8
TITLE
  6
SLD-Solid
370
    18
100
AcDbLine
 10
0.5
 20
7.125984251968504
 30
0.0
 11
0.1653543307086614
 21
7.125984251968504
 31
0.0
  0
LINE
  5
2A2
330
1F
100
AcDbEntity
  8
TITLE
  6
SLD-Solid
370
    18
100
AcDbLine
 10
49.50000000000001
 20
7.125984251968504
 30
0.0
 11
49.83464566929134
 21
7.125984251968504
 31
0.0
  0
LINE
  5
2A3
330
1F
100
AcDbEntity
  8
TITLE
  6
SLD-Solid
370
    18
100
AcDbLine
 10
0.5
 20
9.094488188976378
 30
0.0
 11
0.1653543307086614
 21
9.094488188976378
 31
0.0
  0
LINE
  5
94
330
1F
100
AcDbEntity
  8
TITLE
  6
SLD-Solid
370
    18
100
AcDbLine
 10
49.50000000000001
 20
9.094488188976378
 30
0.0
 11
49.83464566929134
 21
9.094488188976378
 31
0.0
  0
LINE
  5
95
330
1F
100
AcDbEntity
  8
TITLE
  6
SLD-Solid
370
    18
100
AcDbLine
 10
0.5
 20
11.06299212598425
 30
0.0
 11
0.1653543307086614
 21
11.06299212598425
 31
0.0
  0
LINE
  5
96
330
1F
100
AcDbEntity
  8
TITLE
  6
SLD-Solid
370
    18
100
AcDbLine
 10
49.50000000000001
 20
11.06299212598425
 30
0.0
 11
49.83464566929134
 21
11.06299212598425
 31
0.0
  0
LINE
  5
2A4
330
1F
100
AcDbEntity
  8
TITLE
  6
SLD-Solid
370
    18
100
AcDbLine
 10
0.5
 20
13.03149606299213
 30
0.0
 11
0.1653543307086614
 21
13.03149606299213
 31
0.0
  0
LINE
  5
2A5
330
1F
100
AcDbEntity
  8
TITLE
  6
SLD-Solid
370
    18
100
AcDbLine
 10
49.50000000000001
 20
13.03149606299213
 30
0.0
 11
49.83464566929134
 21
13.03149606299213
 31
0.0
  0
LINE
  5
99
330
1F
100
AcDbEntity
  8
TITLE
  6
SLD-Solid
370
    18
100
AcDbLine
 10
0.5
 20
15.0
 30
0.0
 11
0.1653543307086614
 21
15.0
 31
0.0
  0
LINE
  5
9A
330
1F
100
AcDbEntity
  8
TITLE
  6
SLD-Solid
370
    18
100
AcDbLine
 10
49.50000000000001
 20
15.0
 30
0.0
 11
49.83464566929134
 21
15.0
 31
0.0
  0
LINE
  5
9B
330
1F
100
AcDbEntity
  8
TITLE
  6
SLD-Solid
370
    18
100
AcDbLine
 10
0.5
 20
16.96850393700787
 30
0.0
 11
0.1653543307086614
 21
16.96850393700787
 31
0.0
  0
LINE
  5
9C
330
1F
100
AcDbEntity
  8
TITLE
  6
SLD-Solid
370
    18
100
AcDbLine
 10
49.50000000000001
 20
16.96850393700787
 30
0.0
 11
49.83464566929134
 21
16.96850393700787
 31
0.0
  0
LINE
  5
9D
330
1F
100
AcDbEntity
  8
TITLE
  6
SLD-Solid
370
    18
100
AcDbLine
 10
0.5
 20
18.93700787401575
 30
0.0
 11
0.1653543307086614
 21
18.93700787401575
 31
0.0
  0
LINE
  5
9E
330
1F
100
AcDbEntity
  8
TITLE
  6
SLD-Solid
370
    18
100
AcDbLine
 10
49.50000000000001
 20
18.93700787401575
 30
0.0
 11
49.83464566929134
 21
18.93700787401575
 31
0.0
  0
LINE
  5
9F
330
1F
100
AcDbEntity
  8
TITLE
  6
SLD-Solid
370
    18
100
AcDbLine
 10
0.5
 20
20.90551181102362
 30
0.0
 11
0.1653543307086614
 21
20.90551181102362
 31
0.0
  0
LINE
  5
A0
330
1F
100
AcDbEntity
  8
TITLE
  6
SLD-Solid
370
    18
100
AcDbLine
 10
49.50000000000001
 20
20.90551181102362
 30
0.0
 11
49.83464566929134
 21
20.90551181102362
 31
0.0
  0
LINE
  5
A1
330
1F
100
AcDbEntity
  8
TITLE
  6
SLD-Solid
370
    18
100
AcDbLine
 10
0.5
 20
22.8740157480315
 30
0.0
 11
0.1653543307086614
 21
22.8740157480315
 31
0.0
  0
LINE
  5
A2
330
1F
100
AcDbEntity
  8
TITLE
  6
SLD-Solid
370
    18
100
AcDbLine
 10
49.50000000000001
 20
22.8740157480315
 30
0.0
 11
49.83464566929134
 21
22.8740157480315
 31
0.0
  0
LINE
  5
A3
330
1F
100
AcDbEntity
  8
TITLE
  6
SLD-Solid
370
    18
100
AcDbLine
 10
0.5
 20
24.84251968503937
 30
0.0
 11
0.1653543307086614
 21
24.84251968503937
 31
0.0
  0
LINE
  5
A4
330
1F
100
AcDbEntity
  8
TITLE
  6
SLD-Solid
370
    18
100
AcDbLine
 10
49.50000000000001
 20
24.84251968503937
 30
0.0
 11
49.83464566929134
 21
24.84251968503937
 31
0.0
  0
LINE
  5
A5
330
1F
100
AcDbEntity
  8
TITLE
  6
SLD-Solid
370
    18
100
AcDbLine
 10
0.5
 20
26.81102362204725
 30
0.0
 11
0.1653543307086614
 21
26.81102362204725
 31
0.0
  0
LINE
  5
A6
330
1F
100
AcDbEntity
  8
TITLE
  6
SLD-Solid
370
    18
100
AcDbLine
 10
49.50000000000001
 20
26.81102362204725
 30
0.0
 11
49.83464566929134
 21
26.81102362204725
 31
0.0
  0
LINE
  5
A7
330
1F
100
AcDbEntity
  8
TITLE
  6
SLD-Solid
370
    18
100
AcDbLine
 10
3.346456692913384
 20
29.5
 30
0.0
 11
3.346456692913384
 21
29.83464566929134
 31
0.0
  0
LINE
  5
A8
330
1F
100
AcDbEntity
  8
TITLE
  6
SLD-Solid
370
    18
100
AcDbLine
 10
3.346456692913384
 20
0.5
 30
0.0
 11
3.346456692913384
 21
0.1653543307086614
 31
0.0
  0
LINE
  5
A9
330
1F
100
AcDbEntity
  8
TITLE
  6
SLD-Solid
370
    18
100
AcDbLine
 10
5.31496062992126
 20
29.5
 30
0.0
 11
5.31496062992126
 21
29.83464566929134
 31
0.0
  0
LINE
  5
AA
330
1F
100
AcDbEntity
  8
TITLE
  6
SLD-Solid
370
    18
100
AcDbLine
 10
5.31496062992126
 20
0.5
 30
0.0
 11
5.31496062992126
 21
0.1653543307086614
 31
0.0
  0
LINE
  5
AB
330
1F
100
AcDbEntity
  8
TITLE
  6
SLD-Solid
370
    18
100
AcDbLine
 10
7.283464566929134
 20
29.5
 30
0.0
 11
7.283464566929134
 21
29.83464566929134
 31
0.0
  0
LINE
  5
AC
330
1F
100
AcDbEntity
  8
TITLE
  6
SLD-Solid
370
    18
100
AcDbLine
 10
7.283464566929134
 20
0.5
 30
0.0
 11
7.283464566929134
 21
0.1653543307086614
 31
0.0
  0
LINE
  5
AD
330
1F
100
AcDbEntity
  8
TITLE
  6
SLD-Solid
370
    18
100
AcDbLine
 10
9.251968503937007
 20
29.5
 30
0.0
 11
9.251968503937007
 21
29.83464566929134
 31
0.0
  0
LINE
  5
AE
330
1F
100
AcDbEntity
  8
TITLE
  6
SLD-Solid
370
    18
100
AcDbLine
 10
9.251968503937007
 20
0.5
 30
0.0
 11
9.251968503937007
 21
0.1653543307086614
 31
0.0
  0
LINE
  5
AF
330
1F
100
AcDbEntity
  8
TITLE
  6
SLD-Solid
370
    18
100
AcDbLine
 10
11.22047244094488
 20
29.5
 30
0.0
 11
11.22047244094488
 21
29.83464566929134
 31
0.0
  0
LINE
  5
B0
330
1F
100
AcDbEntity
  8
TITLE
  6
SLD-Solid
370
    18
100
AcDbLine
 10
11.22047244094488
 20
0.5
 30
0.0
 11
11.22047244094488
 21
0.1653543307086614
 31
0.0
  0
LINE
  5
B1
330
1F
100
AcDbEntity
  8
TITLE
  6
SLD-Solid
370
    18
100
AcDbLine
 10
13.18897637795276
 20
29.5
 30
0.0
 11
13.18897637795276
 21
29.83464566929134
 31
0.0
  0
LINE
  5
B2
330
1F
100
AcDbEntity
  8
TITLE
  6
SLD-Solid
370
    18
100
AcDbLine
 10
13.18897637795276
 20
0.5
 30
0.0
 11
13.18897637795276
 21
0.1653543307086614
 31
0.0
  0
LINE
  5
B3
330
1F
100
AcDbEntity
  8
TITLE
  6
SLD-Solid
370
    18
100
AcDbLine
 10
15.15748031496063
 20
29.5
 30
0.0
 11
15.15748031496063
 21
29.83464566929134
 31
0.0
  0
LINE
  5
B4
330
1F
100
AcDbEntity
  8
TITLE
  6
SLD-Solid
370
    18
100
AcDbLine
 10
15.15748031496063
 20
0.5
 30
0.0
 11
15.15748031496063
 21
0.1653543307086614
 31
0.0
  0
LINE
  5
B5
330
1F
100
AcDbEntity
  8
TITLE
  6
SLD-Solid
370
    18
100
AcDbLine
 10
17.1259842519685
 20
29.5
 30
0.0
 11
17.1259842519685
 21
29.83464566929134
 31
0.0
  0
LINE
  5
B6
330
1F
100
AcDbEntity
  8
TITLE
  6
SLD-Solid
370
    18
100
AcDbLine
 10
17.1259842519685
 20
0.5
 30
0.0
 11
17.1259842519685
 21
0.1653543307086614
 31
0.0
  0
LINE
  5
B7
330
1F
100
AcDbEntity
  8
TITLE
  6
SLD-Solid
370
    18
100
AcDbLine
 10
19.09448818897638
 20
29.5
 30
0.0
 11
19.09448818897638
 21
29.83464566929134
 31
0.0
  0
LINE
  5
B8
330
1F
100
AcDbEntity
  8
TITLE
  6
SLD-Solid
370
    18
100
AcDbLine
 10
19.09448818897638
 20
0.5
 30
0.0
 11
19.09448818897638
 21
0.1653543307086614
 31
0.0
  0
LINE
  5
B9
330
1F
100
AcDbEntity
  8
TITLE
  6
SLD-Solid
370
    18
100
AcDbLine
 10
21.06299212598426
 20
29.5
 30
0.0
 11
21.06299212598426
 21
29.83464566929134
 31
0.0
  0
LINE
  5
BA
330
1F
100
AcDbEntity
  8
TITLE
  6
SLD-Solid
370
    18
100
AcDbLine
 10
21.06299212598426
 20
0.5
 30
0.0
 11
21.06299212598426
 21
0.1653543307086614
 31
0.0
  0
LINE
  5
BB
330
1F
100
AcDbEntity
  8
TITLE
  6
SLD-Solid
370
    18
100
AcDbLine
 10
23.03149606299213
 20
29.5
 30
0.0
 11
23.03149606299213
 21
29.83464566929134
 31
0.0
  0
LINE
  5
BC
330
1F
100
AcDbEntity
  8
TITLE
  6
SLD-Solid
370
    18
100
AcDbLine
 10
23.03149606299213
 20
0.5
 30
0.0
 11
23.03149606299213
 21
0.1653543307086614
 31
0.0
  0
LINE
  5
BD
330
1F
100
AcDbEntity
  8
TITLE
  6
SLD-Solid
370
    18
100
AcDbLine
 10
25.0
 20
29.5
 30
0.0
 11
25.0
 21
29.83464566929134
 31
0.0
  0
LINE
  5
BE
330
1F
100
AcDbEntity
  8
TITLE
  6
SLD-Solid
370
    18
100
AcDbLine
 10
25.0
 20
0.5
 30
0.0
 11
25.0
 21
0.1653543307086614
 31
0.0
  0
LINE
  5
BF
330
1F
100
AcDbEntity
  8
TITLE
  6
SLD-Solid
370
    18
100
AcDbLine
 10
26.96850393700788
 20
29.5
 30
0.0
 11
26.96850393700788
 21
29.83464566929134
 31
0.0
  0
LINE
  5
C0
330
1F
100
AcDbEntity
  8
TITLE
  6
SLD-Solid
370
    18
100
AcDbLine
 10
26.96850393700788
 20
0.5
 30
0.0
 11
26.96850393700788
 21
0.1653543307086614
 31
0.0
  0
LINE
  5
C1
330
1F
100
AcDbEntity
  8
TITLE
  6
SLD-Solid
370
    18
100
AcDbLine
 10
28.93700787401575
 20
29.5
 30
0.0
 11
28.93700787401575
 21
29.83464566929134
 31
0.0
  0
LINE
  5
C2
330
1F
100
AcDbEntity
  8
TITLE
  6
SLD-Solid
370
    18
100
AcDbLine
 10
28.93700787401575
 20
0.5
 30
0.0
 11
28.93700787401575
 21
0.1653543307086614
 31
0.0
  0
LINE
  5
C3
330
1F
100
AcDbEntity
  8
TITLE
  6
SLD-Solid
370
    18
100
AcDbLine
 10
30.90551181102363
 20
29.5
 30
0.0
 11
30.90551181102363
 21
29.83464566929134
 31
0.0
  0
LINE
  5
C4
330
1F
100
AcDbEntity
  8
TITLE
  6
SLD-Solid
370
    18
100
AcDbLine
 10
30.90551181102363
 20
0.5
 30
0.0
 11
30.90551181102363
 21
0.1653543307086614
 31
0.0
  0
LINE
  5
C5
330
1F
100
AcDbEntity
  8
TITLE
  6
SLD-Solid
370
    18
100
AcDbLine
 10
32.8740157480315
 20
29.5
 30
0.0
 11
32.8740157480315
 21
29.83464566929134
 31
0.0
  0
LINE
  5
C6
330
1F
100
AcDbEntity
  8
TITLE
  6
SLD-Solid
370
    18
100
AcDbLine
 10
32.8740157480315
 20
0.5
 30
0.0
 11
32.8740157480315
 21
0.1653543307086614
 31
0.0
  0
LINE
  5
C7
330
1F
100
AcDbEntity
  8
TITLE
  6
SLD-Solid
370
    18
100
AcDbLine
 10
34.84251968503937
 20
29.5
 30
0.0
 11
34.84251968503937
 21
29.83464566929134
 31
0.0
  0
LINE
  5
C8
330
1F
100
AcDbEntity
  8
TITLE
  6
SLD-Solid
370
    18
100
AcDbLine
 10
34.84251968503937
 20
0.5
 30
0.0
 11
34.84251968503937
 21
0.1653543307086614
 31
0.0
  0
LINE
  5
C9
330
1F
100
AcDbEntity
  8
TITLE
  6
SLD-Solid
370
    18
100
AcDbLine
 10
36.81102362204724
 20
29.5
 30
0.0
 11
36.81102362204724
 21
29.83464566929134
 31
0.0
  0
LINE
  5
CA
330
1F
100
AcDbEntity
  8
TITLE
  6
SLD-Solid
370
    18
100
AcDbLine
 10
36.81102362204724
 20
0.5
 30
0.0
 11
36.81102362204724
 21
0.1653543307086614
 31
0.0
  0
LINE
  5
CB
330
1F
100
AcDbEntity
  8
TITLE
  6
SLD-Solid
370
    18
100
AcDbLine
 10
38.77952755905513
 20
29.5
 30
0.0
 11
38.77952755905513
 21
29.83464566929134
 31
0.0
  0
LINE
  5
CC
330
1F
100
AcDbEntity
  8
TITLE
  6
SLD-Solid
370
    18
100
AcDbLine
 10
38.77952755905513
 20
0.5
 30
0.0
 11
38.77952755905513
 21
0.1653543307086614
 31
0.0
  0
LINE
  5
CD
330
1F
100
AcDbEntity
  8
TITLE
  6
SLD-Solid
370
    18
100
AcDbLine
 10
40.748031496063
 20
29.5
 30
0.0
 11
40.748031496063
 21
29.83464566929134
 31
0.0
  0
LINE
  5
CE
330
1F
100
AcDbEntity
  8
TITLE
  6
SLD-Solid
370
    18
100
AcDbLine
 10
40.748031496063
 20
0.5
 30
0.0
 11
40.748031496063
 21
0.1653543307086614
 31
0.0
  0
LINE
  5
CF
330
1F
100
AcDbEntity
  8
TITLE
  6
SLD-Solid
370
    18
100
AcDbLine
 10
42.71653543307087
 20
29.5
 30
0.0
 11
42.71653543307087
 21
29.83464566929134
 31
0.0
  0
LINE
  5
D0
330
1F
100
AcDbEntity
  8
TITLE
  6
SLD-Solid
370
    18
100
AcDbLine
 10
42.71653543307087
 20
0.5
 30
0.0
 11
42.71653543307087
 21
0.1653543307086614
 31
0.0
  0
LINE
  5
D1
330
1F
100
AcDbEntity
  8
TITLE
  6
SLD-Solid
370
    18
100
AcDbLine
 10
44.68503937007874
 20
29.5
 30
0.0
 11
44.68503937007874
 21
29.83464566929134
 31
0.0
  0
LINE
  5
D2
330
1F
100
AcDbEntity
  8
TITLE
  6
SLD-Solid
370
    18
100
AcDbLine
 10
44.68503937007874
 20
0.5
 30
0.0
 11
44.68503937007874
 21
0.1653543307086614
 31
0.0
  0
LINE
  5
D3
330
1F
100
AcDbEntity
  8
TITLE
  6
SLD-Solid
370
    18
100
AcDbLine
 10
46.65354330708661
 20
29.5
 30
0.0
 11
46.65354330708661
 21
29.83464566929134
 31
0.0
  0
LINE
  5
D4
330
1F
100
AcDbEntity
  8
TITLE
  6
SLD-Solid
370
    18
100
AcDbLine
 10
46.65354330708661
 20
0.5
 30
0.0
 11
46.65354330708661
 21
0.1653543307086614
 31
0.0
  0
MTEXT
  5
D6
330
1F
100
AcDbEntity
  8
NOTES
100
AcDbMText
 10
26.40829780303408
 20
1.07029033469434
 30
0.0
 40
0.25
 41
0.0
 71
     1
 72
     1
  1
UNLESS OTHERWISE SPECIFIED DIMENSIONS ARE IN INCHES.
  7
SLDTEXTSTYLE0
 73
     1
 44
1.0
  0
MTEXT
  5
D7
330
1F
100
AcDbEntity
  8
NOTES
100
AcDbMText
 10
26.43006992789031
 20
3.083062777580424
 30
0.0
 40
0.25
 41
0.0
 71
     1
 72
     1
  1
DATE:
  7
SLDTEXTSTYLE0
 73
     1
 44
1.0
  0
MTEXT
  5
D8
330
1F
100
AcDbEntity
  8
NOTES
100
AcDbMText
 10
28.53870118800532
 20
2.193032963662711
 30
0.0
 40
0.25
 41
0.0
 71
     2
 72
     1
  1
DO NOT SCALE DRAWING
  7
SLDTEXTSTYLE0
 73
     1
 44
1.0
  0
MTEXT
  5
DA
330
1F
100
AcDbEntity
  8
NOTES
100
AcDbMText
 10
32.83073730750539
 20
3.268275555297611
 30
0.0
 40
0.25
 41
0.0
 71
     1
 72
     1
  1
TITLE:
  7
SLDTEXTSTYLE1
 73
     1
 44
1.0
  0
MTEXT
  5
DB
330
1F
100
AcDbEntity
  8
NOTES
100
AcDbMText
 10
40.15618310516096
 20
3.268275555297607
 30
0.0
 40
0.25
 41
0.0
 71
     1
 72
     1
  1
DWG NO.
  7
SLDTEXTSTYLE1
 73
     1
 44
1.0
  0
MTEXT
  5
DC
330
1F
100
AcDbEntity
  8
NOTES
100
AcDbMText
 10
40.18317532028494
 20
1.064581557673834
 30
0.0
 40
0.25
 41
0.0
 71
     1
 72
     1
  1
SCALE:     1:1
  7
SLDTEXTSTYLE1
 73
     1
 44
1.0
  0
MTEXT
  5
DD
330
1F
100
AcDbEntity
  8
NOTES
100
AcDbMText
 10
44.19347339714017
 20
2.651034429460866
 30
0.0
 40
0.25
 41
0.0
 71
     2
 72
     1
  1
199 - W_ 199 - S CAD
  7
SLDTEXTSTYLE1
 73
     1
 44
1.0
  0
MTEXT
  5
DE
330
1F
100
AcDbEntity
  8
NOTES
100
AcDbMText
 10
36.45497616891836
 20
2.651034429460865
 30
0.0
 40
0.25
 41
0.0
 71
     2
 72
     1
  1
199 Seat Cover Dispenser
  7
SLDTEXTSTYLE1
 73
     1
 44
1.0
  0
INSERT
  5
EE
330
1F
100
AcDbEntity
  8
NOTES
100
AcDbBlockReference
  2
SW_NOTE_0_1
 10
26.61597262459081
 20
5.148152684778699
 30
0.0
  0
MTEXT
  5
EF
330
1F
100
AcDbEntity
  8
NOTES
100
AcDbMText
 10
29.50108793889975
 20
3.086473326765864
 30
0.0
 40
0.25
 41
0.0
 71
     2
 72
     1
  1
June 23, 2021
  7
SLDTEXTSTYLE1
 73
     1
 44
1.0
  0
MTEXT
  5
F0
330
1F
100
AcDbEntity
  8
TITLE
100
AcDbMText
 10
0.3276279775836454
 20
1.924366133493857
 30
0.0
 40
0.125
 41
0.0
 71
     2
 72
     1
  1
A
  7
SLDTEXTSTYLE1
 73
     1
 44
1.0
  0
MTEXT
  5
F1
330
1F
100
AcDbEntity
  8
TITLE
100
AcDbMText
 10
49.66227364687499
 20
1.924366133493858
 30
0.0
 40
0.125
 41
0.0
 71
     2
 72
     1
  1
A
  7
SLDTEXTSTYLE1
 73
     1
 44
1.0
  0
MTEXT
  5
F2
330
1F
100
AcDbEntity
  8
TITLE
100
AcDbMText
 10
0.3317512413046844
 20
4.253106290974173
 30
0.0
 40
0.125
 41
0.0
 71
     2
 72
     1
  1
B
  7
SLDTEXTSTYLE1
 73
     1
 44
1.0
  0
MTEXT
  5
F3
330
1F
100
AcDbEntity
  8
TITLE
100
AcDbMText
 10
49.66639691059603
 20
4.253106290974173
 30
0.0
 40
0.125
 41
0.0
 71
     2
 72
     1
  1
B
  7
SLDTEXTSTYLE1
 73
     1
 44
1.0
  0
MTEXT
  5
F4
330
1F
100
AcDbEntity
  8
TITLE
100
AcDbMText
 10
0.3313750816934456
 20
6.221610227982047
 30
0.0
 40
0.125
 41
0.0
 71
     2
 72
     1
  1
C
  7
SLDTEXTSTYLE1
 73
     1
 44
1.0
  0
MTEXT
  5
F5
330
1F
100
AcDbEntity
  8
TITLE
100
AcDbMText
 10
49.66602075098479
 20
6.221610227982047
 30
0.0
 40
0.125
 41
0.0
 71
     2
 72
     1
  1
C
  7
SLDTEXTSTYLE1
 73
     1
 44
1.0
  0
MTEXT
  5
F6
330
1F
100
AcDbEntity
  8
TITLE
100
AcDbMText
 10
0.3311870028448152
 20
8.19011416498992
 30
0.0
 40
0.125
 41
0.0
 71
     2
 72
     1
  1
D
  7
SLDTEXTSTYLE1
 73
     1
 44
1.0
  0
MTEXT
  5
F7
330
1F
100
AcDbEntity
  8
TITLE
100
AcDbMText
 10
49.66583267213617
 20
8.190114164989922
 30
0.0
 40
0.125
 41
0.0
 71
     2
 72
     1
  1
D
  7
SLDTEXTSTYLE1
 73
     1
 44
1.0
  0
MTEXT
  5
F8
330
1F
100
AcDbEntity
  8
TITLE
100
AcDbMText
 10
0.3329231160377541
 20
10.15861810199779
 30
0.0
 40
0.125
 41
0.0
 71
     2
 72
     1
  1
E
  7
SLDTEXTSTYLE1
 73
     1
 44
1.0
  0
MTEXT
  5
F9
330
1F
100
AcDbEntity
  8
TITLE
100
AcDbMText
 10
49.6675687853291
 20
10.15861810199779
 30
0.0
 40
0.125
 41
0.0
 71
     2
 72
     1
  1
E
  7
SLDTEXTSTYLE1
 73
     1
 44
1.0
  0
MTEXT
  5
FA
330
1F
100
AcDbEntity
  8
TITLE
100
AcDbMText
 10
0.3313461474003637
 20
12.12712203900567
 30
0.0
 40
0.125
 41
0.0
 71
     2
 72
     1
  1
F
  7
SLDTEXTSTYLE1
 73
     1
 44
1.0
  0
MTEXT
  5
FB
330
1F
100
AcDbEntity
  8
TITLE
100
AcDbMText
 10
49.66599181669172
 20
12.12712203900567
 30
0.0
 40
0.125
 41
0.0
 71
     2
 72
     1
  1
F
  7
SLDTEXTSTYLE1
 73
     1
 44
1.0
  0
MTEXT
  5
FC
330
1F
100
AcDbEntity
  8
TITLE
100
AcDbMText
 10
0.332257605436456
 20
14.09562597601354
 30
0.0
 40
0.125
 41
0.0
 71
     2
 72
     1
  1
G
  7
SLDTEXTSTYLE1
 73
     1
 44
1.0
  0
MTEXT
  5
FD
330
1F
100
AcDbEntity
  8
TITLE
100
AcDbMText
 10
49.6669032747278
 20
14.09562597601354
 30
0.0
 40
0.125
 41
0.0
 71
     2
 72
     1
  1
G
  7
SLDTEXTSTYLE1
 73
     1
 44
1.0
  0
MTEXT
  5
FE
330
1F
100
AcDbEntity
  8
TITLE
100
AcDbMText
 10
0.3323733456814149
 20
16.06412991302142
 30
0.0
 40
0.125
 41
0.0
 71
     2
 72
     1
  1
H
  7
SLDTEXTSTYLE1
 73
     1
 44
1.0
  0
MTEXT
  5
FF
330
1F
100
AcDbEntity
  8
TITLE
100
AcDbMText
 10
49.66701901497276
 20
16.06412991302142
 30
0.0
 40
0.125
 41
0.0
 71
     2
 72
     1
  1
H
  7
SLDTEXTSTYLE1
 73
     1
 44
1.0
  0
MTEXT
  5
100
330
1F
100
AcDbEntity
  8
TITLE
100
AcDbMText
 10
0.3315776305595839
 20
18.03263385002929
 30
0.0
 40
0.125
 41
0.0
 71
     2
 72
     1
  1
J
  7
SLDTEXTSTYLE1
 73
     1
 44
1.0
  0
MTEXT
  5
101
330
1F
100
AcDbEntity
  8
TITLE
100
AcDbMText
 10
49.66622329985093
 20
18.03263385002929
 30
0.0
 40
0.125
 41
0.0
 71
     2
 72
     1
  1
J
  7
SLDTEXTSTYLE1
 73
     1
 44
1.0
  0
MTEXT
  5
102
330
1F
100
AcDbEntity
  8
TITLE
100
AcDbMText
 10
0.3323154765159243
 20
20.00113778703717
 30
0.0
 40
0.125
 41
0.0
 71
     2
 72
     1
  1
K
  7
SLDTEXTSTYLE1
 73
     1
 44
1.0
  0
MTEXT
  5
103
330
1F
100
AcDbEntity
  8
TITLE
100
AcDbMText
 10
49.66696114580728
 20
20.00113778703717
 30
0.0
 40
0.125
 41
0.0
 71
     2
 72
     1
  1
K
  7
SLDTEXTSTYLE1
 73
     1
 44
1.0
  0
MTEXT
  5
104
330
1F
100
AcDbEntity
  8
TITLE
100
AcDbMText
 10
0.3312448739242835
 20
21.96964172404504
 30
0.0
 40
0.125
 41
0.0
 71
     2
 72
     1
  1
L
  7
SLDTEXTSTYLE1
 73
     1
 44
1.0
  0
MTEXT
  5
105
330
1F
100
AcDbEntity
  8
TITLE
100
AcDbMText
 10
49.66589054321563
 20
21.96964172404504
 30
0.0
 40
0.125
 41
0.0
 71
     2
 72
     1
  1
L
  7
SLDTEXTSTYLE1
 73
     1
 44
1.0
  0
MTEXT
  5
106
330
1F
100
AcDbEntity
  8
TITLE
100
AcDbMText
 10
0.3283224192293962
 20
23.93814566105292
 30
0.0
 40
0.125
 41
0.0
 71
     2
 72
     1
  1
M
  7
SLDTEXTSTYLE1
 73
     1
 44
1.0
  0
MTEXT
  5
107
330
1F
100
AcDbEntity
  8
TITLE
100
AcDbMText
 10
49.66296808852073
 20
23.93814566105291
 30
0.0
 40
0.125
 41
0.0
 71
     2
 72
     1
  1
M
  7
SLDTEXTSTYLE1
 73
     1
 44
1.0
  0
MTEXT
  5
108
330
1F
100
AcDbEntity
  8
TITLE
100
AcDbMText
 10
0.3315342275836453
 20
25.90664959806079
 30
0.0
 40
0.125
 41
0.0
 71
     2
 72
     1
  1
N
  7
SLDTEXTSTYLE1
 73
     1
 44
1.0
  0
MTEXT
  5
109
330
1F
100
AcDbEntity
  8
TITLE
100
AcDbMText
 10
49.66617989687499
 20
25.90664959806079
 30
0.0
 40
0.125
 41
0.0
 71
     2
 72
     1
  1
N
  7
SLDTEXTSTYLE1
 73
     1
 44
1.0
  0
MTEXT
  5
10A
330
1F
100
AcDbEntity
  8
TITLE
100
AcDbMText
 10
0.3321997349363143
 20
28.23538975554111
 30
0.0
 40
0.125
 41
0.0
 71
     2
 72
     1
  1
P
  7
SLDTEXTSTYLE1
 73
     1
 44
1.0
  0
MTEXT
  5
10B
330
1F
100
AcDbEntity
  8
TITLE
100
AcDbMText
 10
49.66684540422766
 20
28.2353897555411
 30
0.0
 40
0.125
 41
0.0
 71
     2
 72
     1
  1
P
  7
SLDTEXTSTYLE1
 73
     1
 44
1.0
  0
MTEXT
  5
10C
330
1F
100
AcDbEntity
  8
TITLE
100
AcDbMText
 10
1.920710985086799
 20
0.4125551098718104
 30
0.0
 40
0.125
 41
0.0
 71
     2
 72
     1
  1
24
  7
SLDTEXTSTYLE1
 73
     1
 44
1.0
  0
MTEXT
  5
10D
330
1F
100
AcDbEntity
  8
TITLE
100
AcDbMText
 10
1.920710985086799
 20
29.74720077916315
 30
0.0
 40
0.125
 41
0.0
 71
     2
 72
     1
  1
24
  7
SLDTEXTSTYLE1
 73
     1
 44
1.0
  0
MTEXT
  5
10E
330
1F
100
AcDbEntity
  8
TITLE
100
AcDbMText
 10
4.328191300047429
 20
0.4125551098718104
 30
0.0
 40
0.125
 41
0.0
 71
     2
 72
     1
  1
23
  7
SLDTEXTSTYLE1
 73
     1
 44
1.0
  0
MTEXT
  5
10F
330
1F
100
AcDbEntity
  8
TITLE
100
AcDbMText
 10
4.328191300047428
 20
29.74720077916314
 30
0.0
 40
0.125
 41
0.0
 71
     2
 72
     1
  1
23
  7
SLDTEXTSTYLE1
 73
     1
 44
1.0
  0
MTEXT
  5
110
330
1F
100
AcDbEntity
  8
TITLE
100
AcDbMText
 10
6.296695237055304
 20
0.4125551098718104
 30
0.0
 40
0.125
 41
0.0
 71
     2
 72
     1
  1
22
  7
SLDTEXTSTYLE1
 73
     1
 44
1.0
  0
MTEXT
  5
111
330
1F
100
AcDbEntity
  8
TITLE
100
AcDbMText
 10
6.296695237055304
 20
29.74720077916316
 30
0.0
 40
0.125
 41
0.0
 71
     2
 72
     1
  1
22
  7
SLDTEXTSTYLE1
 73
     1
 44
1.0
  0
MTEXT
  5
112
330
1F
100
AcDbEntity
  8
TITLE
100
AcDbMText
 10
8.265199174063177
 20
0.4125551098718104
 30
0.0
 40
0.125
 41
0.0
 71
     2
 72
     1
  1
21
  7
SLDTEXTSTYLE1
 73
     1
 44
1.0
  0
MTEXT
  5
113
330
1F
100
AcDbEntity
  8
TITLE
100
AcDbMText
 10
8.265199174063179
 20
29.74720077916315
 30
0.0
 40
0.125
 41
0.0
 71
     2
 72
     1
  1
21
  7
SLDTEXTSTYLE1
 73
     1
 44
1.0
  0
MTEXT
  5
114
330
1F
100
AcDbEntity
  8
TITLE
100
AcDbMText
 10
10.23370311107105
 20
0.4125551098718104
 30
0.0
 40
0.125
 41
0.0
 71
     2
 72
     1
  1
20
  7
SLDTEXTSTYLE1
 73
     1
 44
1.0
  0
MTEXT
  5
115
330
1F
100
AcDbEntity
  8
TITLE
100
AcDbMText
 10
10.23370311107105
 20
29.74720077916315
 30
0.0
 40
0.125
 41
0.0
 71
     2
 72
     1
  1
20
  7
SLDTEXTSTYLE1
 73
     1
 44
1.0
  0
MTEXT
  5
116
330
1F
100
AcDbEntity
  8
TITLE
100
AcDbMText
 10
12.20220704807892
 20
0.4125551098718104
 30
0.0
 40
0.125
 41
0.0
 71
     2
 72
     1
  1
19
  7
SLDTEXTSTYLE1
 73
     1
 44
1.0
  0
MTEXT
  5
117
330
1F
100
AcDbEntity
  8
TITLE
100
AcDbMText
 10
12.20220704807892
 20
29.74720077916315
 30
0.0
 40
0.125
 41
0.0
 71
     2
 72
     1
  1
19
  7
SLDTEXTSTYLE1
 73
     1
 44
1.0
  0
MTEXT
  5
118
330
1F
100
AcDbEntity
  8
TITLE
100
AcDbMText
 10
14.1707109850868
 20
0.4125551098718104
 30
0.0
 40
0.125
 41
0.0
 71
     2
 72
     1
  1
18
  7
SLDTEXTSTYLE1
 73
     1
 44
1.0
  0
MTEXT
  5
119
330
1F
100
AcDbEntity
  8
TITLE
100
AcDbMText
 10
14.1707109850868
 20
29.74720077916315
 30
0.0
 40
0.125
 41
0.0
 71
     2
 72
     1
  1
18
  7
SLDTEXTSTYLE1
 73
     1
 44
1.0
  0
MTEXT
  5
11A
330
1F
100
AcDbEntity
  8
TITLE
100
AcDbMText
 10
16.13921492209468
 20
0.4125551098718105
 30
0.0
 40
0.125
 41
0.0
 71
     2
 72
     1
  1
17
  7
SLDTEXTSTYLE1
 73
     1
 44
1.0
  0
MTEXT
  5
11B
330
1F
100
AcDbEntity
  8
TITLE
100
AcDbMText
 10
16.13921492209467
 20
29.74720077916315
 30
0.0
 40
0.125
 41
0.0
 71
     2
 72
     1
  1
17
  7
SLDTEXTSTYLE1
 73
     1
 44
1.0
  0
MTEXT
  5
11C
330
1F
100
AcDbEntity
  8
TITLE
100
AcDbMText
 10
18.10771885910255
 20
0.4125551098718105
 30
0.0
 40
0.125
 41
0.0
 71
     2
 72
     1
  1
16
  7
SLDTEXTSTYLE1
 73
     1
 44
1.0
  0
MTEXT
  5
11D
330
1F
100
AcDbEntity
  8
TITLE
100
AcDbMText
 10
18.10771885910255
 20
29.74720077916315
 30
0.0
 40
0.125
 41
0.0
 71
     2
 72
     1
  1
16
  7
SLDTEXTSTYLE1
 73
     1
 44
1.0
  0
MTEXT
  5
11E
330
1F
100
AcDbEntity
  8
TITLE
100
AcDbMText
 10
20.07622279611043
 20
0.4125551098718104
 30
0.0
 40
0.125
 41
0.0
 71
     2
 72
     1
  1
15
  7
SLDTEXTSTYLE1
 73
     1
 44
1.0
  0
MTEXT
  5
11F
330
1F
100
AcDbEntity
  8
TITLE
100
AcDbMText
 10
20.07622279611043
 20
29.74720077916315
 30
0.0
 40
0.125
 41
0.0
 71
     2
 72
     1
  1
15
  7
SLDTEXTSTYLE1
 73
     1
 44
1.0
  0
MTEXT
  5
120
330
1F
100
AcDbEntity
  8
TITLE
100
AcDbMText
 10
22.0447267331183
 20
0.4125551098718104
 30
0.0
 40
0.125
 41
0.0
 71
     2
 72
     1
  1
14
  7
SLDTEXTSTYLE1
 73
     1
 44
1.0
  0
MTEXT
  5
121
330
1F
100
AcDbEntity
  8
TITLE
100
AcDbMText
 10
22.0447267331183
 20
29.74720077916315
 30
0.0
 40
0.125
 41
0.0
 71
     2
 72
     1
  1
14
  7
SLDTEXTSTYLE1
 73
     1
 44
1.0
  0
MTEXT
  5
122
330
1F
100
AcDbEntity
  8
TITLE
100
AcDbMText
 10
24.01323067012617
 20
0.4125551098718104
 30
0.0
 40
0.125
 41
0.0
 71
     2
 72
     1
  1
13
  7
SLDTEXTSTYLE1
 73
     1
 44
1.0
  0
MTEXT
  5
123
330
1F
100
AcDbEntity
  8
TITLE
100
AcDbMText
 10
24.01323067012617
 20
29.74720077916315
 30
0.0
 40
0.125
 41
0.0
 71
     2
 72
     1
  1
13
  7
SLDTEXTSTYLE1
 73
     1
 44
1.0
  0
MTEXT
  5
124
330
1F
100
AcDbEntity
  8
TITLE
100
AcDbMText
 10
25.98173460713405
 20
0.4125551098718104
 30
0.0
 40
0.125
 41
0.0
 71
     2
 72
     1
  1
12
  7
SLDTEXTSTYLE1
 73
     1
 44
1.0
  0
MTEXT
  5
125
330
1F
100
AcDbEntity
  8
TITLE
100
AcDbMText
 10
25.98173460713405
 20
29.74720077916315
 30
0.0
 40
0.125
 41
0.0
 71
     2
 72
     1
  1
12
  7
SLDTEXTSTYLE1
 73
     1
 44
1.0
  0
MTEXT
  5
126
330
1F
100
AcDbEntity
  8
TITLE
100
AcDbMText
 10
27.95023854414192
 20
0.4125551098718104
 30
0.0
 40
0.125
 41
0.0
 71
     2
 72
     1
  1
11
  7
SLDTEXTSTYLE1
 73
     1
 44
1.0
  0
MTEXT
  5
127
330
1F
100
AcDbEntity
  8
TITLE
100
AcDbMText
 10
27.95023854414192
 20
29.74720077916315
 30
0.0
 40
0.125
 41
0.0
 71
     2
 72
     1
  1
11
  7
SLDTEXTSTYLE1
 73
     1
 44
1.0
  0
MTEXT
  5
128
330
1F
100
AcDbEntity
  8
TITLE
100
AcDbMText
 10
29.91874248114979
 20
0.4125551098718104
 30
0.0
 40
0.125
 41
0.0
 71
     2
 72
     1
  1
10
  7
SLDTEXTSTYLE1
 73
     1
 44
1.0
  0
MTEXT
  5
129
330
1F
100
AcDbEntity
  8
TITLE
100
AcDbMText
 10
29.9187424811498
 20
29.74720077916315
 30
0.0
 40
0.125
 41
0.0
 71
     2
 72
     1
  1
10
  7
SLDTEXTSTYLE1
 73
     1
 44
1.0
  0
MTEXT
  5
12A
330
1F
100
AcDbEntity
  8
TITLE
100
AcDbMText
 10
31.88850509884261
 20
0.4125551098718104
 30
0.0
 40
0.125
 41
0.0
 71
     2
 72
     1
  1
9
  7
SLDTEXTSTYLE1
 73
     1
 44
1.0
  0
MTEXT
  5
12B
330
1F
100
AcDbEntity
  8
TITLE
100
AcDbMText
 10
31.88850509884261
 20
29.74720077916316
 30
0.0
 40
0.125
 41
0.0
 71
     2
 72
     1
  1
9
  7
SLDTEXTSTYLE1
 73
     1
 44
1.0
  0
MTEXT
  5
12C
330
1F
100
AcDbEntity
  8
TITLE
100
AcDbMText
 10
33.85700903585049
 20
0.4125551098718104
 30
0.0
 40
0.125
 41
0.0
 71
     2
 72
     1
  1
8
  7
SLDTEXTSTYLE1
 73
     1
 44
1.0
  0
MTEXT
  5
12D
330
1F
100
AcDbEntity
  8
TITLE
100
AcDbMText
 10
33.85700903585049
 20
29.74720077916315
 30
0.0
 40
0.125
 41
0.0
 71
     2
 72
     1
  1
8
  7
SLDTEXTSTYLE1
 73
     1
 44
1.0
  0
MTEXT
  5
12E
330
1F
100
AcDbEntity
  8
TITLE
100
AcDbMText
 10
35.82551297285837
 20
0.4125551098718104
 30
0.0
 40
0.125
 41
0.0
 71
     2
 72
     1
  1
7
  7
SLDTEXTSTYLE1
 73
     1
 44
1.0
  0
MTEXT
  5
12F
330
1F
100
AcDbEntity
  8
TITLE
100
AcDbMText
 10
35.82551297285836
 20
29.74720077916315
 30
0.0
 40
0.125
 41
0.0
 71
     2
 72
     1
  1
7
  7
SLDTEXTSTYLE1
 73
     1
 44
1.0
  0
MTEXT
  5
130
330
1F
100
AcDbEntity
  8
TITLE
100
AcDbMText
 10
37.79401690986625
 20
0.4125551098718104
 30
0.0
 40
0.125
 41
0.0
 71
     2
 72
     1
  1
6
  7
SLDTEXTSTYLE1
 73
     1
 44
1.0
  0
MTEXT
  5
131
330
1F
100
AcDbEntity
  8
TITLE
100
AcDbMText
 10
37.79401690986624
 20
29.74720077916315
 30
0.0
 40
0.125
 41
0.0
 71
     2
 72
     1
  1
6
  7
SLDTEXTSTYLE1
 73
     1
 44
1.0
  0
MTEXT
  5
132
330
1F
100
AcDbEntity
  8
TITLE
100
AcDbMText
 10
39.76252084687412
 20
0.4125551098718104
 30
0.0
 40
0.125
 41
0.0
 71
     2
 72
     1
  1
5
  7
SLDTEXTSTYLE1
 73
     1
 44
1.0
  0
MTEXT
  5
133
330
1F
100
AcDbEntity
  8
TITLE
100
AcDbMText
 10
39.76252084687412
 20
29.74720077916315
 30
0.0
 40
0.125
 41
0.0
 71
     2
 72
     1
  1
5
  7
SLDTEXTSTYLE1
 73
     1
 44
1.0
  0
MTEXT
  5
134
330
1F
100
AcDbEntity
  8
TITLE
100
AcDbMText
 10
41.73102478388198
 20
0.4125551098718104
 30
0.0
 40
0.125
 41
0.0
 71
     2
 72
     1
  1
4
  7
SLDTEXTSTYLE1
 73
     1
 44
1.0
  0
MTEXT
  5
135
330
1F
100
AcDbEntity
  8
TITLE
100
AcDbMText
 10
41.73102478388198
 20
29.74720077916316
 30
0.0
 40
0.125
 41
0.0
 71
     2
 72
     1
  1
4
  7
SLDTEXTSTYLE1
 73
     1
 44
1.0
  0
MTEXT
  5
136
330
1F
100
AcDbEntity
  8
TITLE
100
AcDbMText
 10
43.69952872088985
 20
0.4125551098718105
 30
0.0
 40
0.125
 41
0.0
 71
     2
 72
     1
  1
3
  7
SLDTEXTSTYLE1
 73
     1
 44
1.0
  0
MTEXT
  5
137
330
1F
100
AcDbEntity
  8
TITLE
100
AcDbMText
 10
43.69952872088985
 20
29.74720077916315
 30
0.0
 40
0.125
 41
0.0
 71
     2
 72
     1
  1
3
  7
SLDTEXTSTYLE1
 73
     1
 44
1.0
  0
MTEXT
  5
138
330
1F
100
AcDbEntity
  8
TITLE
100
AcDbMText
 10
45.66803265789775
 20
0.4125551098718105
 30
0.0
 40
0.125
 41
0.0
 71
     2
 72
     1
  1
2
  7
SLDTEXTSTYLE1
 73
     1
 44
1.0
  0
MTEXT
  5
139
330
1F
100
AcDbEntity
  8
TITLE
100
AcDbMText
 10
45.66803265789774
 20
29.74720077916315
 30
0.0
 40
0.125
 41
0.0
 71
     2
 72
     1
  1
2
  7
SLDTEXTSTYLE1
 73
     1
 44
1.0
  0
MTEXT
  5
13A
330
1F
100
AcDbEntity
  8
TITLE
100
AcDbMText
 10
48.07551297285837
 20
0.4125551098718104
 30
0.0
 40
0.125
 41
0.0
 71
     2
 72
     1
  1
1
  7
SLDTEXTSTYLE1
 73
     1
 44
1.0
  0
MTEXT
  5
13B
330
1F
100
AcDbEntity
  8
TITLE
100
AcDbMText
 10
48.07551297285837
 20
29.74720077916315
 30
0.0
 40
0.125
 41
0.0
 71
     2
 72
     1
  1
1
  7
SLDTEXTSTYLE1
 73
     1
 44
1.0
  0
CIRCLE
  5
13C
330
1F
100
AcDbEntity
  8
0
  6
SLD-Solid
 62
     7
370
    25
100
AcDbCircle
 10
5.197472467373576
 20
20.2341135414159
 30
0.0
 40
0.0999999999999996
  0
CIRCLE
  5
13D
330
1F
100
AcDbEntity
  8
0
  6
SLD-Solid
 62
     7
370
    25
100
AcDbCircle
 10
17.19747246737358
 20
20.2341135414159
 30
0.0
 40
0.1000000000000014
  0
LINE
  5
13E
330
1F
100
AcDbEntity
  8
0
  6
SLD-Solid
 62
     7
370
    25
100
AcDbLine
 10
5.437354997924785
 20
19.33639064676467
 30
0.0
 11
16.95488993682236
 21
19.33639064676467
 31
0.0
  0
LINE
  5
13F
330
1F
100
AcDbEntity
  8
0
  6
SLD-Solid
 62
     7
370
    25
100
AcDbLine
 10
5.437354997924785
 20
19.32616424447923
 30
0.0
 11
16.95488993682236
 21
19.32616424447923
 31
0.0
  0
ARC
  5
140
330
1F
100
AcDbEntity
  8
0
  6
SLD-Solid
 62
     7
370
    25
100
AcDbCircle
 10
5.435119049111061
 20
19.12370561128429
 30
0.0
 40
0.2024709797039151
100
AcDbArc
 50
89.36725236126992
 51
147.8821411314911
  0
ARC
  5
141
330
1F
100
AcDbEntity
  8
0
  6
SLD-Solid
 62
     7
370
    25
100
AcDbCircle
 10
5.435119049111056
 20
19.13393201356973
 30
0.0
 40
0.2024709797039094
100
AcDbArc
 50
89.3672523612684
 51
147.8821411314911
  0
ARC
  5
142
330
1F
100
AcDbEntity
  8
0
  6
SLD-Solid
 62
     7
370
    25
100
AcDbCircle
 10
16.95712588563608
 20
19.12370561128428
 30
0.0
 40
0.20247097970392
100
AcDbArc
 50
32.11785886851052
 51
90.63274763873005
  0
ARC
  5
143
330
1F
100
AcDbEntity
  8
0
  6
SLD-Solid
 62
     7
370
    25
100
AcDbCircle
 10
17.48841298083873
 20
19.45126271744678
 30
0.0
 40
0.4216859133304777
100
AcDbArc
 50
211.4331859973924
 51
236.7905180979069
  0
ARC
  5
144
330
1F
100
AcDbEntity
  8
0
  6
SLD-Solid
 62
     7
370
    25
100
AcDbCircle
 10
4.903831953908389
 20
19.45126271744681
 30
0.0
 40
0.4216859133305183
100
AcDbArc
 50
303.2094819020959
 51
328.5668140026081
  0
ARC
  5
145
330
1F
100
AcDbEntity
  8
0
  6
SLD-Solid
 62
     7
370
    25
100
AcDbCircle
 10
16.95712588563609
 20
19.13393201356972
 30
0.0
 40
0.2024709797039165
100
AcDbArc
 50
32.1178588685102
 51
90.63274763873108
  0
ARC
  5
146
330
1F
100
AcDbEntity
  8
0
  6
SLD-Solid
 62
     7
370
    25
100
AcDbCircle
 10
17.4884129808387
 20
19.4614891197322
 30
0.0
 40
0.4216859133304442
100
AcDbArc
 50
211.4331859973923
 51
236.7905180979085
  0
ARC
  5
147
330
1F
100
AcDbEntity
  8
0
  6
SLD-Solid
 62
     7
370
    25
100
AcDbCircle
 10
4.903831953908398
 20
19.46148911973225
 30
0.0
 40
0.4216859133305135
100
AcDbArc
 50
303.2094819020951
 51
328.5668140026071
  0
LINE
  5
148
330
1F
100
AcDbEntity
  8
0
  6
SLD-Solid
 62
     7
370
    25
100
AcDbLine
 10
17.2808976627035
 20
19.08853062604456
 30
0.0
 11
17.25745489241944
 21
19.09844921020101
 31
0.0
  0
LINE
  5
149
330
1F
100
AcDbEntity
  8
0
  6
SLD-Solid
 62
     7
370
    25
100
AcDbLine
 10
17.2808976627035
 20
19.08853062604456
 30
0.0
 11
17.25745489241944
 21
19.10867561248645
 31
0.0
  0
LINE
  5
14A
330
1F
100
AcDbEntity
  8
0
  6
SLD-Solid
 62
     7
370
    25
100
AcDbLine
 10
5.111347272043649
 20
19.08853062604456
 30
0.0
 11
5.134790042327702
 21
19.09844921020101
 31
0.0
  0
LINE
  5
14B
330
1F
100
AcDbEntity
  8
0
  6
SLD-Solid
 62
     7
370
    25
100
AcDbLine
 10
5.111347272043649
 20
19.08853062604456
 30
0.0
 11
5.134790042327702
 21
19.10867561248645
 31
0.0
  0
SPLINE
  5
14C
330
1F
100
AcDbEntity
  8
0
  6
SLD-Solid
 62
     7
370
    25
100
AcDbSpline
210
0.0
220
0.0
230
1.0
 70
    12
 71
     3
 72
    11
 73
     7
 74
     0
 42
0.00000001
 43
0.00000001
 40
0.0
 40
0.0
 40
0.0
 40
0.0
 40
0.2499999999999994
 40
0.5000000000000072
 40
0.7500000000000034
 40
0.9999999999999999
 40
0.9999999999999999
 40
0.9999999999999999
 40
0.9999999999999999
 10
18.81405139956171
 20
12.81720134810707
 30
0.0
 41
1.0
 10
18.81222398854603
 20
12.8176372637179
 30
0.0
 41
1.0
 10
18.80856916651468
 20
12.81850909493957
 30
0.0
 41
1.0
 10
18.80308693346764
 20
12.82521532212012
 30
0.0
 41
1.0
 10
18.79760470042061
 20
12.83480112529593
 30
0.0
 41
1.0
 10
18.79394987838925
 20
12.84240127383669
 30
0.0
 41
1.0
 10
18.79212246737357
 20
12.84620134810707
 30
0.0
 41
1.0
  0
LINE
  5
14D
330
1F
100
AcDbEntity
  8
0
  6
SLD-Solid
 62
     7
370
    25
100
AcDbLine
 10
18.81405139956171
 20
12.78730134810707
 30
0.0
 11
18.81405139956171
 21
12.81720134810707
 31
0.0
  0
LINE
  5
14E
330
1F
100
AcDbEntity
  8
0
  6
SLD-Solid
 62
     7
370
    25
100
AcDbLine
 10
18.82112246737357
 20
12.82427241591894
 30
0.0
 11
18.85102246737357
 21
12.82427241591894
 31
0.0
  0
SPLINE
  5
14F
330
1F
100
AcDbEntity
  8
0
  6
SLD-Solid
 62
     7
370
    25
100
AcDbSpline
210
0.0
220
0.0
230
1.0
 70
    12
 71
     3
 72
    11
 73
     7
 74
     0
 42
0.00000001
 43
0.00000001
 40
0.0
 40
0.0
 40
0.0
 40
0.0
 40
0.2499999999999931
 40
0.4999999999999949
 40
0.7499999999999974
 40
1.0
 40
1.0
 40
1.0
 40
1.0
 10
18.79212246737357
 20
12.84620134810708
 30
0.0
 41
1.0
 10
18.79592254164395
 20
12.8443739370914
 30
0.0
 41
1.0
 10
18.80352269018471
 20
12.84071911506004
 30
0.0
 41
1.0
 10
18.81310849336052
 20
12.83523688201301
 30
0.0
 41
1.0
 10
18.81981472054108
 20
12.82975464896597
 30
0.0
 41
1.0
 10
18.82068655176274
 20
12.82609982693462
 30
0.0
 41
1.0
 10
18.82112246737357
 20
12.82427241591894
 30
0.0
 41
1.0
  0
SPLINE
  5
150
330
1F
100
AcDbEntity
  8
0
  6
SLD-Solid
 62
     7
370
    25
100
AcDbSpline
210
0.0
220
0.0
230
1.0
 70
    12
 71
     3
 72
    11
 73
     7
 74
     0
 42
0.00000001
 43
0.00000001
 40
0.0
 40
0.0
 40
0.0
 40
0.0
 40
0.2499999999999993
 40
0.5000000000000089
 40
0.7500000000000037
 40
1.0
 40
1.0
 40
1.0
 40
1.0
 10
3.578193535185437
 20
12.81720134810707
 30
0.0
 41
1.0
 10
3.580020946201116
 20
12.81763726371791
 30
0.0
 41
1.0
 10
3.583675768232474
 20
12.81850909493957
 30
0.0
 41
1.0
 10
3.589158001279505
 20
12.82521532212012
 30
0.0
 41
1.0
 10
3.594640234326542
 20
12.83480112529593
 30
0.0
 41
1.0
 10
3.598295056357898
 20
12.84240127383669
 30
0.0
 41
1.0
 10
3.600122467373575
 20
12.84620134810707
 30
0.0
 41
1.0
  0
LINE
  5
151
330
1F
100
AcDbEntity
  8
0
  6
SLD-Solid
 62
     7
370
    25
100
AcDbLine
 10
3.578193535185437
 20
12.78730134810707
 30
0.0
 11
3.578193535185437
 21
12.81720134810707
 31
0.0
  0
SPLINE
  5
152
330
1F
100
AcDbEntity
  8
0
  6
SLD-Solid
 62
     7
370
    25
100
AcDbSpline
210
0.0
220
0.0
230
1.0
 70
    12
 71
     3
 72
    11
 73
     7
 74
     0
 42
0.00000001
 43
0.00000001
 40
0.0
 40
0.0
 40
0.0
 40
0.0
 40
0.2499999999999933
 40
0.4999999999999966
 40
0.7499999999999971
 40
0.9999999999999999
 40
0.9999999999999999
 40
0.9999999999999999
 40
0.9999999999999999
 10
3.600122467373575
 20
12.84620134810708
 30
0.0
 41
1.0
 10
3.596322393103193
 20
12.8443739370914
 30
0.0
 41
1.0
 10
3.58872224456243
 20
12.84071911506004
 30
0.0
 41
1.0
 10
3.579136441386622
 20
12.83523688201301
 30
0.0
 41
1.0
 10
3.572430214206071
 20
12.82975464896597
 30
0.0
 41
1.0
 10
3.571558382984406
 20
12.82609982693462
 30
0.0
 41
1.0
 10
3.571122467373574
 20
12.82427241591894
 30
0.0
 41
1.0
  0
LINE
  5
153
330
1F
100
AcDbEntity
  8
0
  6
SLD-Solid
 62
     7
370
    25
100
AcDbLine
 10
3.571122467373578
 20
12.82427241591894
 30
0.0
 11
3.541222467373577
 21
12.82427241591894
 31
0.0
  0
LINE
  5
154
330
1F
100
AcDbEntity
  8
0
  6
SLD-Solid
 62
     7
370
    25
100
AcDbLine
 10
3.541222467373576
 20
23.83560134810707
 30
0.0
 11
3.541222467373578
 21
12.82427241591894
 31
0.0
  0
LINE
  5
155
330
1F
100
AcDbEntity
  8
0
  6
SLD-Solid
 62
     7
370
    25
100
AcDbLine
 10
18.85102246737357
 20
23.83560134810707
 30
0.0
 11
18.85102246737357
 21
12.82427241591894
 31
0.0
  0
LINE
  5
156
330
1F
100
AcDbEntity
  8
0
  6
SLD-Solid
 62
     7
370
    25
100
AcDbLine
 10
3.578193535185437
 20
12.78730134810707
 30
0.0
 11
18.81405139956171
 21
12.78730134810707
 31
0.0
  0
LINE
  5
157
330
1F
100
AcDbEntity
  8
0
  6
SLD-Solid
 62
     7
370
    25
100
AcDbLine
 10
4.446122467373574
 20
19.46209141539212
 30
0.0
 11
4.446122467373574
 21
20.01171920298589
 31
0.0
  0
ARC
  5
158
330
1F
100
AcDbEntity
  8
0
  6
SLD-Solid
 62
     7
370
    25
100
AcDbCircle
 10
4.883622467373574
 20
19.46209141539212
 30
0.0
 40
0.4375000000000005
100
AcDbArc
 50
180.0
 51
301.3667251313808
  0
ARC
  5
159
330
1F
100
AcDbEntity
  8
0
  6
SLD-Solid
 62
     7
370
    25
100
AcDbCircle
 10
17.50862246737357
 20
19.46209141539212
 30
0.0
 40
0.437500000000001
100
AcDbArc
 50
238.6332748686207
 51
0.0
  0
LINE
  5
15A
330
1F
100
AcDbEntity
  8
0
  6
SLD-Solid
 62
     7
370
    25
100
AcDbLine
 10
17.94612246737357
 20
19.46209141539212
 30
0.0
 11
17.94612246737357
 21
20.01171920298589
 31
0.0
  0
ARC
  5
15B
330
1F
100
AcDbEntity
  8
0
  6
SLD-Solid
 62
     7
370
    25
100
AcDbCircle
 10
17.04612246737357
 20
20.01171920298589
 30
0.0
 40
0.9000000000000061
100
AcDbArc
 50
0.0
 51
71.84843738366173
  0
ARC
  5
15C
330
1F
100
AcDbEntity
  8
0
  6
SLD-Solid
 62
     7
370
    25
100
AcDbCircle
 10
11.19612246737357
 20
2.168016519867735
 30
0.0
 40
19.67818482823935
100
AcDbArc
 50
71.84843738366168
 51
108.1515626163383
  0
ARC
  5
15D
330
1F
100
AcDbEntity
  8
0
  6
SLD-Solid
 62
     7
370
    25
100
AcDbCircle
 10
5.346122467373573
 20
20.01171920298589
 30
0.0
 40
0.9000000000000061
100
AcDbArc
 50
108.1515626163383
 51
180.0
  0
LINE
  5
15E
330
1F
100
AcDbEntity
  8
0
  6
SLD-Solid
 62
     7
370
    25
100
AcDbLine
 10
3.600122467373575
 20
23.90960134810707
 30
0.0
 11
18.79212246737357
 21
23.90960134810707
 31
0.0
  0
ARC
  5
15F
330
1F
100
AcDbEntity
  8
0
  6
SLD-Solid
 62
     7
370
    25
100
AcDbCircle
 10
3.600122467373575
 20
23.85070134810708
 30
0.0
 40
0.0589000000000031
100
AcDbArc
 50
90.0
 51
180.0000000000181
  0
ARC
  5
160
330
1F
100
AcDbEntity
  8
0
  6
SLD-Solid
 62
     7
370
    25
100
AcDbCircle
 10
18.79212246737357
 20
23.85070134810708
 30
0.0
 40
0.0589000000000048
100
AcDbArc
 50
359.9999999999835
 51
90.0
  0
LINE
  5
161
330
1F
100
AcDbEntity
  8
0
  6
SLD-Solid
 62
     7
370
    25
100
AcDbLine
 10
18.85102246737357
 20
23.83560134810707
 30
0.0
 11
18.85102246737357
 21
23.85070134810706
 31
0.0
  0
LINE
  5
162
330
1F
100
AcDbEntity
  8
0
  6
SLD-Solid
 62
     7
370
    25
100
AcDbLine
 10
3.541222467373572
 20
23.83560134810707
 30
0.0
 11
3.541222467373572
 21
23.85070134810706
 31
0.0
  0
LINE
  5
163
330
1F
100
AcDbEntity
  8
NOTES
100
AcDbLine
 10
2.153726612145603
 20
3.909601348107074
 30
0.0
 11
24.11251028163753
 21
3.909601348107074
 31
0.0
  0
LINE
  5
164
330
1F
100
AcDbEntity
  8
DIMS
100
AcDbLine
 10
2.43756518173834
 20
3.909601348107074
 30
0.0
 11
2.437565181738338
 21
4.383058307646978
 31
0.0
  0
LINE
  5
165
330
1F
100
AcDbEntity
  8
DIMS
100
AcDbLine
 10
2.437565181738338
 20
4.383058307646978
 30
0.0
 11
2.587131590392978
 21
4.50352749458213
 31
0.0
  0
LINE
  5
166
330
1F
100
AcDbEntity
  8
DIMS
100
AcDbLine
 10
2.587131590392978
 20
4.50352749458213
 30
0.0
 11
2.287998773083703
 21
4.87491060369014
 31
0.0
  0
LINE
  5
167
330
1F
100
AcDbEntity
  8
DIMS
100
AcDbLine
 10
2.287998773083703
 20
4.87491060369014
 30
0.0
 11
2.43756518173834
 21
4.995379790625299
 31
0.0
  0
LINE
  5
168
330
1F
100
AcDbEntity
  8
DIMS
100
AcDbLine
 10
2.43756518173834
 20
4.995379790625299
 30
0.0
 11
2.43756518173834
 21
5.301022536449143
 31
0.0
  0
DIMENSION
  5
169
330
1F
100
AcDbEntity
  8
DIMS
100
AcDbDimension
  2
_D
 10
2.438760853200351
 20
3.909601348107074
 30
0.0
 11
2.438760853200351
 21
4.563952657906208
 31
0.0
 70
    32
  1
                                                                                      48" (1220mm) Max. height for barrier free installation  ^M\P 
 71
     2
 42
-1.0
  3
SLDDIMSTYLE0
100
AcDbAlignedDimension
 13
3.600122467373576
 23
23.90960134810707
 33
0.0
 14
2.153726612145603
 24
3.909601348107074
 34
0.0
 50
90.0000000000002
100
AcDbRotatedDimension
  0
DIMENSION
  5
17B
330
1F
100
AcDbEntity
  8
DIMS
100
AcDbDimension
  2
_D_1
 10
17.19747246737358
 20
25.72062497015432
 30
0.0
 11
11.19612246737358
 21
25.72062497015432
 31
0.0
 70
    32
  1
<>
 71
     2
 42
-1.0
  3
SLDDIMSTYLE0
100
AcDbAlignedDimension
 13
5.197472467373577
 23
20.2341135414159
 33
0.0
 14
17.19747246737358
 24
20.2341135414159
 34
0.0
100
AcDbRotatedDimension
  0
DIMENSION
  5
186
330
1F
100
AcDbEntity
  8
DIMS
100
AcDbDimension
  2
_D_2
 10
3.541222467373572
 20
25.72062497015432
 30
0.0
 11
4.399384279710656
 21
25.72062497015432
 31
0.0
 70
    32
  1
<>
 71
     2
 42
-1.0
  3
SLDDIMSTYLE1
100
AcDbAlignedDimension
 13
5.197472467373577
 23
20.2341135414159
 33
0.0
 14
3.541222467373573
 24
23.85070134810706
 34
0.0
100
AcDbRotatedDimension
  0
DIMENSION
  5
196
330
1F
100
AcDbEntity
  8
DIMS
100
AcDbDimension
  2
_D_3
 10
18.85102246737357
 20
26.42928638747716
 30
0.0
 11
11.19612246737358
 21
26.42928638747716
 31
0.0
 70
    32
  1
<>
 71
     2
 42
-1.0
  3
SLDDIMSTYLE1
100
AcDbAlignedDimension
 13
3.541222467373573
 23
23.85070134810706
 33
0.0
 14
18.85102246737357
 24
23.85070134810706
 34
0.0
 50
-0.0000000000000266
100
AcDbRotatedDimension
  0
DIMENSION
  5
1A5
330
1F
100
AcDbEntity
  8
DIMS
100
AcDbDimension
  2
_D_4
 10
17.11086992699514
 20
20.2841135414159
 30
0.0
 11
20.33800416329421
 21
18.9103333476411
 31
0.0
 70
    35
  1
<>
 71
     1
 42
-1.0
  3
SLDDIMSTYLE2
100
AcDbDiametricDimension
 15
17.28407500775202
 25
20.1841135414159
 35
0.0
 40
0.0
  0
MTEXT
  5
1B2
330
1F
100
AcDbEntity
  8
NOTES
100
AcDbMText
 10
3.997801938529097
 20
12.00856731759283
 30
0.0
 40
0.3
 41
0.0
 71
     1
 72
     1
  1
Front view
  7
SLDTEXTSTYLE1
 73
     1
 44
1.0
  0
MTEXT
  5
1B3
330
1F
100
AcDbEntity
  8
NOTES
100
AcDbMText
 10
7.663873382837627
 20
25.06632303786082
 30
0.0
 40
0.3
 41
0.0
 71
     1
 72
     1
  1
mounting hole (2)
  7
SLDTEXTSTYLE1
 73
     1
 44
1.0
  0
LEADER
  5
1B5
330
1F
100
AcDbEntity
  8
NOTES
100
AcDbLeader
  3
SLDDIMSTYLE3
 76
     3
 10
5.231568620198392
 20
20.32812126643117
 30
0.0
 10
7.141780590309645
 20
24.91642191563101
 30
0.0
 10
7.641780590309646
 20
24.91642191563101
 30
0.0
1001
ACAD
1000
DSTYLE
1002
{
1070
   176
1070
     0
1070
    77
1070
     0
1070
    40
1040
1.0
1070
   147
1040
0.0
1002
}
  0
MTEXT
  5
1B6
330
1F
100
AcDbEntity
  8
NOTES
100
AcDbMText
 10
2.814535911221439
 20
4.300087571454219
 30
0.0
 40
0.3
 41
0.0
 71
     1
 72
     1
  1
Floor
  7
SLDTEXTSTYLE1
 73
     1
 44
1.0
  0
LINE
  5
1B7
330
1F
100
AcDbEntity
  8
0
  6
SLD-Solid
 62
     7
370
    25
100
AcDbLine
 10
23.49817998540788
 20
20.72210134810708
 30
0.0
 11
23.49774477397592
 21
20.72210134810708
 31
0.0
  0
LINE
  5
1B8
330
1F
100
AcDbEntity
  8
0
  6
SLD-Solid
 62
     7
370
    25
100
AcDbLine
 10
23.49817998540788
 20
20.72166613667515
 30
0.0
 11
23.49817998540788
 21
20.72210134810708
 31
0.0
  0
ARC
  5
1B9
330
1F
100
AcDbEntity
  8
0
  6
SLD-Solid
 62
     7
370
    25
100
AcDbCircle
 10
23.46817998540785
 20
12.85427241591893
 30
0.0
 40
0.0299999999999994
100
AcDbArc
 50
270.0000000000008
 51
0.0000000000016963
  0
LINE
  5
1BA
330
1F
100
AcDbEntity
  8
0
  6
SLD-Solid
 62
     7
370
    25
100
AcDbLine
 10
21.52717998540785
 20
12.82427241591894
 30
0.0
 11
23.46817998540785
 21
12.82427241591893
 31
0.0
  0
LINE
  5
1BB
330
1F
100
AcDbEntity
  8
0
  6
SLD-Solid
 62
     7
370
    25
100
AcDbLine
 10
23.49817998540784
 20
20.84566613667515
 30
0.0
 11
23.49817998540785
 21
23.48460134810707
 31
0.0
  0
LINE
  5
1BC
330
1F
100
AcDbEntity
  8
0
  6
SLD-Solid
 62
     7
370
    25
100
AcDbLine
 10
23.45739318884344
 20
20.80487934011075
 30
0.0
 11
23.49817998540784
 21
20.84566613667515
 31
0.0
  0
ARC
  5
1BD
330
1F
100
AcDbEntity
  8
0
  6
SLD-Solid
 62
     7
370
    25
100
AcDbCircle
 10
23.47860639227904
 20
20.78366613667515
 30
0.0
 40
0.0300000000000055
100
AcDbArc
 50
135.0
 51
224.999999999996
  0
LINE
  5
1BE
330
1F
100
AcDbEntity
  8
0
  6
SLD-Solid
 62
     7
370
    25
100
AcDbLine
 10
23.49817998540785
 20
20.72166613667515
 30
0.0
 11
23.45739318884344
 21
20.76245293323955
 31
0.0
  0
LINE
  5
1BF
330
1F
100
AcDbEntity
  8
0
  6
SLD-Solid
 62
     7
370
    25
100
AcDbLine
 10
23.49817998540784
 20
12.85427241591893
 30
0.0
 11
23.49817998540785
 21
20.72166613667515
 31
0.0
  0
LINE
  5
1C0
330
1F
100
AcDbEntity
  8
0
  6
SLD-Solid
 62
     7
370
    25
100
AcDbLine
 10
21.46827998540785
 20
12.84620134810707
 30
0.0
 11
21.46827998540785
 21
23.83560134810707
 31
0.0
  0
SPLINE
  5
1C1
330
1F
100
AcDbEntity
  8
0
  6
SLD-Solid
 62
     7
370
    25
100
AcDbSpline
210
0.0
220
0.0
230
1.0
 70
    12
 71
     3
 72
    11
 73
     7
 74
     0
 42
0.00000001
 43
0.00000001
 40
0.0
 40
0.0
 40
0.0
 40
0.0
 40
0.2499999999999955
 40
0.4999999999999966
 40
0.7500000000000001
 40
1.0
 40
1.0
 40
1.0
 40
1.0
 10
21.46827998540785
 20
12.84620134810708
 30
0.0
 41
1.0
 10
21.46916534504502
 20
12.8443739370914
 30
0.0
 41
1.0
 10
21.47093606431937
 20
12.84071911506004
 30
0.0
 41
1.0
 10
21.48455664297228
 20
12.835236882013
 30
0.0
 41
1.0
 10
21.50402573976729
 20
12.82975464896598
 30
0.0
 41
1.0
 10
21.51946190352766
 20
12.82609982693462
 30
0.0
 41
1.0
 10
21.52717998540785
 20
12.82427241591894
 30
0.0
 41
1.0
  0
LINE
  5
1C2
330
1F
100
AcDbEntity
  8
0
  6
SLD-Solid
 62
     7
370
    25
100
AcDbLine
 10
23.49817998540785
 20
23.85070134810708
 30
0.0
 11
23.49817998540785
 21
23.90960134810707
 31
0.0
  0
LINE
  5
1C3
330
1F
100
AcDbEntity
  8
0
  6
SLD-Solid
 62
     7
370
    25
100
AcDbLine
 10
21.54217998540785
 20
23.90960134810707
 30
0.0
 11
23.49817998540785
 21
23.90960134810707
 31
0.0
  0
LINE
  5
1C4
330
1F
100
AcDbEntity
  8
0
  6
SLD-Solid
 62
     7
370
    25
100
AcDbLine
 10
23.49817998540785
 20
23.85070134810708
 30
0.0
 11
23.49817998540784
 21
23.50470134810707
 31
0.0
  0
LINE
  5
1C5
330
1F
100
AcDbEntity
  8
0
  6
SLD-Solid
 62
     7
370
    25
100
AcDbLine
 10
21.52717998540785
 20
12.78730134810707
 30
0.0
 11
22.4182423144253
 21
12.78730134810707
 31
0.0
  0
SPLINE
  5
1C6
330
1F
100
AcDbEntity
  8
0
  6
SLD-Solid
 62
     7
370
    25
100
AcDbSpline
210
0.0
220
0.0
230
1.0
 70
    12
 71
     3
 72
    11
 73
     7
 74
     0
 42
0.00000001
 43
0.00000001
 40
0.0
 40
0.0
 40
0.0
 40
0.0
 40
0.2500000000000066
 40
0.50000000000001
 40
0.7500000000000095
 40
1.0
 40
1.0
 40
1.0
 40
1.0
 10
21.52717998540785
 20
12.78730134810707
 30
0.0
 41
1.0
 10
21.51946190352766
 20
12.78818670774425
 30
0.0
 41
1.0
 10
21.50402573976729
 20
12.7899574270186
 30
0.0
 41
1.0
 10
21.48455664297228
 20
12.8035780056715
 30
0.0
 41
1.0
 10
21.47093606431937
 20
12.82304710246651
 30
0.0
 41
1.0
 10
21.46916534504502
 20
12.83848326622689
 30
0.0
 41
1.0
 10
21.46827998540785
 20
12.84620134810707
 30
0.0
 41
1.0
  0
LINE
  5
1C7
330
1F
100
AcDbEntity
  8
0
  6
SLD-Solid
 62
     7
370
    25
100
AcDbLine
 10
22.4482423144253
 20
12.78730134810707
 30
0.0
 11
22.4182423144253
 21
12.78730134810707
 31
0.0
  0
ARC
  5
1C8
330
1F
100
AcDbEntity
  8
0
  6
SLD-Solid
 62
     7
370
    25
100
AcDbCircle
 10
21.52717998540785
 20
23.85070134810707
 30
0.0
 40
0.0589000000000013
100
AcDbArc
 50
90.0
 51
180.0
  0
LINE
  5
1C9
330
1F
100
AcDbEntity
  8
0
  6
SLD-Solid
 62
     7
370
    25
100
AcDbLine
 10
21.54217998540785
 20
23.90960134810707
 30
0.0
 11
21.52717998540785
 21
23.90960134810707
 31
0.0
  0
LINE
  5
1CA
330
1F
100
AcDbEntity
  8
0
  6
SLD-Solid
 62
     7
370
    25
100
AcDbLine
 10
21.46827998540785
 20
23.83560134810707
 30
0.0
 11
21.46827998540785
 21
23.85070134810707
 31
0.0
  0
ARC
  5
1CB
330
1F
100
AcDbEntity
  8
0
  6
SLD-Solid
 62
     7
370
    25
100
AcDbCircle
 10
22.46917998540785
 20
12.84620134810707
 30
0.0
 40
0.0588999999999995
100
AcDbArc
 50
270.0000000000043
 51
338.1419812286368
  0
LINE
  5
1CC
330
1F
100
AcDbEntity
  8
0
  6
SLD-Solid
 62
     7
370
    25
100
AcDbLine
 10
22.4482423144253
 20
12.78730134810707
 30
0.0
 11
22.46917998540785
 21
12.78730134810707
 31
0.0
  0
LINE
  5
1CD
330
1F
100
AcDbEntity
  8
0
  6
SLD-Solid
 62
     7
370
    25
100
AcDbLine
 10
21.44625527276298
 20
19.24157826071175
 30
0.0
 11
21.41815846340148
 21
19.23135185842631
 31
0.0
  0
LINE
  5
1CE
330
1F
100
AcDbEntity
  8
0
  6
SLD-Solid
 62
     7
370
    25
100
AcDbLine
 10
21.44625527276298
 20
19.24157826071175
 30
0.0
 11
21.46827998540784
 21
19.18106586005
 31
0.0
  0
LINE
  5
1CF
330
1F
100
AcDbEntity
  8
0
  6
SLD-Solid
 62
     7
370
    25
100
AcDbLine
 10
21.41815846340148
 20
19.23135185842631
 30
0.0
 11
21.46653107141064
 21
19.098449210201
 31
0.0
  0
LINE
  5
1D0
330
1F
100
AcDbEntity
  8
0
  6
SLD-Solid
 62
     7
370
    25
100
AcDbLine
 10
21.38364957703846
 20
19.32616424447923
 30
0.0
 11
21.41174638639995
 21
19.33639064676467
 31
0.0
  0
LINE
  5
1D1
330
1F
100
AcDbEntity
  8
0
  6
SLD-Solid
 62
     7
370
    25
100
AcDbLine
 10
21.41174638639995
 20
19.33639064676467
 30
0.0
 11
21.44625527276298
 21
19.24157826071175
 31
0.0
  0
LINE
  5
1D2
330
1F
100
AcDbEntity
  8
0
  6
SLD-Solid
 62
     7
370
    25
100
AcDbLine
 10
21.41815846340148
 20
19.23135185842631
 30
0.0
 11
21.38364957703846
 21
19.32616424447923
 31
0.0
  0
DIMENSION
  5
1D3
330
1F
100
AcDbEntity
  8
DIMS
100
AcDbDimension
  2
_D_5
 10
23.49817998540782
 20
24.41489633824975
 30
0.0
 11
22.51437174246857
 21
24.41489633824974
 31
0.0
 70
    32
  1
<>
 71
     2
 42
-1.0
  3
SLDDIMSTYLE0
100
AcDbAlignedDimension
 13
21.52717998540782
 23
23.87970134810707
 33
0.0
 14
23.49817998540782
 24
23.90960134810707
 34
0.0
 50
0.0000000000002066
100
AcDbRotatedDimension
  0
MTEXT
  5
1DE
330
1F
100
AcDbEntity
  8
NOTES
100
AcDbMText
 10
21.59875560856859
 20
12.11258945607952
 30
0.0
 40
0.3
 41
0.0
 71
     1
 72
     1
  1
Side view
  7
SLDTEXTSTYLE1
 73
     1
 44
1.0
  0
LINE
  5
1DF
330
1F
100
AcDbEntity
  8
0
  6
SLD-Solid
 62
   179
370
    25
100
AcDbLine
 10
31.8153413081722
 20
17.23489268865194
 30
0.0
 11
42.57321520834846
 21
11.02450427791439
 31
0.0
  0
LINE
  5
1E0
330
1F
100
AcDbEntity
  8
0
  6
SLD-Solid
 62
   179
370
    25
100
AcDbLine
 10
31.79364275504338
 20
26.26473589994117
 30
0.0
 11
31.79364275504346
 21
17.27247383593369
 31
0.0
  0
LINE
  5
1E1
330
1F
100
AcDbEntity
  8
0
  6
SLD-Solid
 62
   179
370
    25
100
AcDbLine
 10
33.21720406456885
 20
27.1233080793953
 30
0.0
 11
31.82548540410611
 21
26.31988599803001
 31
0.0
  0
LINE
  5
1E2
330
1F
100
AcDbEntity
  8
0
  6
SLD-Solid
 62
   179
370
    25
100
AcDbLine
 10
32.97715697827257
 20
21.79990037861493
 30
0.0
 11
32.95728953384335
 21
21.78008087225058
 31
0.0
  0
LINE
  5
1E3
330
1F
100
AcDbEntity
  8
0
  6
SLD-Solid
 62
   179
370
    25
100
AcDbLine
 10
42.55326038541759
 20
20.04157089807829
 30
0.0
 11
31.79364275504338
 21
26.2529659428323
 31
0.0
  0
LINE
  5
1E4
330
1F
100
AcDbEntity
  8
0
  6
SLD-Solid
 62
   179
370
    25
100
AcDbLine
 10
42.6059170270301
 20
20.12050890445322
 30
0.0
 11
42.59531042531229
 21
20.11438584361456
 31
0.0
  0
LINE
  5
1E5
330
1F
100
AcDbEntity
  8
0
  6
SLD-Solid
 62
     7
370
    18
100
AcDbLine
 10
31.82876818134551
 20
26.29302102531
 30
0.0
 11
31.82887420051145
 21
26.29295982174825
 31
0.0
  0
LINE
  5
1E6
330
1F
100
AcDbEntity
  8
0
  6
SLD-Solid
 62
   179
370
    25
100
AcDbLine
 10
42.55326038541759
 20
20.02924113181881
 30
0.0
 11
42.55326038541759
 21
20.04157089807829
 31
0.0
  0
LINE
  5
1E7
330
1F
100
AcDbEntity
  8
0
  6
SLD-Solid
 62
   179
370
    25
100
AcDbLine
 10
42.55326038541769
 20
11.05594753368173
 30
0.0
 11
42.55326038541759
 21
20.02924113181881
 31
0.0
  0
LINE
  5
1E8
330
1F
100
AcDbEntity
  8
0
  6
SLD-Solid
 62
   179
370
    25
100
AcDbLine
 10
42.6059170270301
 20
20.12050890445322
 30
0.0
 11
43.98901789103115
 21
20.91895603781573
 31
0.0
  0
LINE
  5
1E9
330
1F
100
AcDbEntity
  8
0
  6
SLD-Solid
 62
   179
370
    25
100
AcDbLine
 10
32.4091065025154
 20
22.31418716667365
 30
0.0
 11
32.4091065025154
 21
22.76298068659044
 31
0.0
  0
LINE
  5
1EA
330
1F
100
AcDbEntity
  8
0
  6
SLD-Solid
 62
   179
370
    25
100
AcDbLine
 10
32.87949147291111
 20
21.73761207309195
 30
0.0
 11
32.8259625109207
 21
21.73856533237642
 31
0.0
  0
LINE
  5
1EB
330
1F
100
AcDbEntity
  8
0
  6
SLD-Solid
 62
   179
370
    25
100
AcDbLine
 10
32.8259625109207
 20
21.73856533237642
 30
0.0
 11
32.76845960568909
 21
21.75419609815835
 31
0.0
  0
LINE
  5
1EC
330
1F
100
AcDbEntity
  8
0
  6
SLD-Solid
 62
   179
370
    25
100
AcDbLine
 10
32.76845960568909
 20
21.75419609815835
 30
0.0
 11
32.70910852560542
 21
21.78392653201961
 31
0.0
  0
LINE
  5
1ED
330
1F
100
AcDbEntity
  8
0
  6
SLD-Solid
 62
   179
370
    25
100
AcDbLine
 10
32.70910852560542
 20
21.78392653201961
 30
0.0
 11
32.65010336241855
 21
21.82665755877011
 31
0.0
  0
LINE
  5
1EE
330
1F
100
AcDbEntity
  8
0
  6
SLD-Solid
 62
   179
370
    25
100
AcDbLine
 10
32.65010336241855
 20
21.82665755877011
 30
0.0
 11
32.59362542001552
 21
21.88080949707834
 31
0.0
  0
LINE
  5
1EF
330
1F
100
AcDbEntity
  8
0
  6
SLD-Solid
 62
   179
370
    25
100
AcDbLine
 10
32.59362542001552
 20
21.88080949707834
 30
0.0
 11
32.54176257594202
 21
21.94438045715799
 31
0.0
  0
LINE
  5
1F0
330
1F
100
AcDbEntity
  8
0
  6
SLD-Solid
 62
   179
370
    25
100
AcDbLine
 10
32.54176257594202
 20
21.94438045715799
 30
0.0
 11
32.49643209670933
 21
22.01502034666398
 31
0.0
  0
LINE
  5
1F1
330
1F
100
AcDbEntity
  8
0
  6
SLD-Solid
 62
   179
370
    25
100
AcDbLine
 10
32.49643209670933
 20
22.01502034666398
 30
0.0
 11
32.45930976025301
 21
22.09011774894667
 31
0.0
  0
LINE
  5
1F2
330
1F
100
AcDbEntity
  8
0
  6
SLD-Solid
 62
   179
370
    25
100
AcDbLine
 10
32.45930976025301
 20
22.09011774894667
 30
0.0
 11
32.43176790574535
 21
22.16689646194747
 31
0.0
  0
LINE
  5
1F3
330
1F
100
AcDbEntity
  8
0
  6
SLD-Solid
 62
   179
370
    25
100
AcDbLine
 10
32.43176790574535
 20
22.16689646194747
 30
0.0
 11
32.41482470093728
 21
22.24251812888425
 31
0.0
  0
LINE
  5
1F4
330
1F
100
AcDbEntity
  8
0
  6
SLD-Solid
 62
   179
370
    25
100
AcDbLine
 10
32.41482470093728
 20
22.24251812888425
 30
0.0
 11
32.4091065025154
 21
22.31418716667365
 31
0.0
  0
LINE
  5
1F5
330
1F
100
AcDbEntity
  8
0
  6
SLD-Solid
 62
   179
370
    25
100
AcDbLine
 10
41.48466307813806
 20
16.76995224500698
 30
0.0
 11
41.53819204012847
 21
16.70910228029594
 31
0.0
  0
LINE
  5
1F6
330
1F
100
AcDbEntity
  8
0
  6
SLD-Solid
 62
   179
370
    25
100
AcDbLine
 10
41.53819204012847
 20
16.70910228029594
 30
0.0
 11
41.59569494536008
 21
16.65834160487902
 31
0.0
  0
LINE
  5
1F7
330
1F
100
AcDbEntity
  8
0
  6
SLD-Solid
 62
   179
370
    25
100
AcDbLine
 10
41.59569494536008
 20
16.65834160487902
 30
0.0
 11
41.65504602544375
 21
16.61954674027767
 31
0.0
  0
LINE
  5
1F8
330
1F
100
AcDbEntity
  8
0
  6
SLD-Solid
 62
   179
370
    25
100
AcDbLine
 10
41.65504602544375
 20
16.61954674027767
 30
0.0
 11
41.71405118863061
 21
16.59415185571339
 31
0.0
  0
LINE
  5
1F9
330
1F
100
AcDbEntity
  8
0
  6
SLD-Solid
 62
   179
370
    25
100
AcDbLine
 10
41.71405118863061
 20
16.59415185571339
 30
0.0
 11
41.77052913103365
 21
16.58309574971534
 31
0.0
  0
LINE
  5
1FA
330
1F
100
AcDbEntity
  8
0
  6
SLD-Solid
 62
   179
370
    25
100
AcDbLine
 10
41.77052913103365
 20
16.58309574971534
 30
0.0
 11
41.82239197510715
 21
16.58678714460011
 31
0.0
  0
LINE
  5
1FB
330
1F
100
AcDbEntity
  8
0
  6
SLD-Solid
 62
   179
370
    25
100
AcDbLine
 10
41.82239197510715
 20
16.58678714460011
 30
0.0
 11
41.86772245433984
 21
16.60508957681813
 31
0.0
  0
LINE
  5
1FC
330
1F
100
AcDbEntity
  8
0
  6
SLD-Solid
 62
   179
370
    25
100
AcDbLine
 10
41.86772245433984
 20
16.60508957681813
 30
0.0
 11
41.90484479079616
 21
16.63732644174055
 31
0.0
  0
LINE
  5
1FD
330
1F
100
AcDbEntity
  8
0
  6
SLD-Solid
 62
   179
370
    25
100
AcDbLine
 10
41.90484479079616
 20
16.63732644174055
 30
0.0
 11
41.93238664530381
 21
16.68230600639071
 31
0.0
  0
LINE
  5
1FE
330
1F
100
AcDbEntity
  8
0
  6
SLD-Solid
 62
   179
370
    25
100
AcDbLine
 10
41.93238664530381
 20
16.68230600639071
 30
0.0
 11
41.94932985011189
 21
16.73836546544938
 31
0.0
  0
LINE
  5
1FF
330
1F
100
AcDbEntity
  8
0
  6
SLD-Solid
 62
   179
370
    25
100
AcDbLine
 10
41.94932985011189
 20
16.73836546544938
 30
0.0
 11
41.95504804853378
 21
16.80343241187036
 31
0.0
  0
LINE
  5
200
330
1F
100
AcDbEntity
  8
0
  6
SLD-Solid
 62
   179
370
    25
100
AcDbLine
 10
41.95504804853378
 20
16.80343241187036
 30
0.0
 11
41.95504804853378
 21
17.25222593178714
 31
0.0
  0
LINE
  5
201
330
1F
100
AcDbEntity
  8
0
  6
SLD-Solid
 62
   179
370
    25
100
AcDbLine
 10
41.5169095106672
 20
18.20347357504602
 30
0.0
 11
41.15106468784735
 21
18.54675882570539
 31
0.0
  0
LINE
  5
202
330
1F
100
AcDbEntity
  8
0
  6
SLD-Solid
 62
   179
370
    25
100
AcDbLine
 10
41.15106468784735
 20
18.54675882570539
 30
0.0
 11
40.78220797336348
 21
18.88009602466447
 31
0.0
  0
LINE
  5
203
330
1F
100
AcDbEntity
  8
0
  6
SLD-Solid
 62
   179
370
    25
100
AcDbLine
 10
40.78220797336348
 20
18.88009602466447
 30
0.0
 11
40.4106192765094
 21
19.20323221684264
 31
0.0
  0
LINE
  5
204
330
1F
100
AcDbEntity
  8
0
  6
SLD-Solid
 62
   179
370
    25
100
AcDbLine
 10
40.4106192765094
 20
19.20323221684264
 30
0.0
 11
40.03658057976128
 21
19.515922188259
 31
0.0
  0
LINE
  5
205
330
1F
100
AcDbEntity
  8
0
  6
SLD-Solid
 62
   179
370
    25
100
AcDbLine
 10
40.03658057976128
 20
19.515922188259
 30
0.0
 11
39.66037572479352
 21
19.81792865211454
 31
0.0
  0
LINE
  5
206
330
1F
100
AcDbEntity
  8
0
  6
SLD-Solid
 62
   179
370
    25
100
AcDbLine
 10
39.66037572479352
 20
19.81792865211454
 30
0.0
 11
39.28229019708361
 21
20.1090224288588
 31
0.0
  0
LINE
  5
207
330
1F
100
AcDbEntity
  8
0
  6
SLD-Solid
 62
   179
370
    25
100
AcDbLine
 10
39.28229019708361
 20
20.1090224288588
 30
0.0
 11
38.9026109092697
 21
20.38898262010422
 31
0.0
  0
LINE
  5
208
330
1F
100
AcDbEntity
  8
0
  6
SLD-Solid
 62
   179
370
    25
100
AcDbLine
 10
38.9026109092697
 20
20.38898262010422
 30
0.0
 11
38.52162598342505
 21
20.65759677625632
 31
0.0
  0
LINE
  5
209
330
1F
100
AcDbEntity
  8
0
  6
SLD-Solid
 62
   179
370
    25
100
AcDbLine
 10
38.52162598342505
 20
20.65759677625632
 30
0.0
 11
38.13962453241471
 21
20.91466105773244
 31
0.0
  0
LINE
  5
20A
330
1F
100
AcDbEntity
  8
0
  6
SLD-Solid
 62
   179
370
    25
100
AcDbLine
 10
38.13962453241471
 20
20.91466105773244
 30
0.0
 11
37.75689644050048
 21
21.15998038964669
 31
0.0
  0
LINE
  5
20B
330
1F
100
AcDbEntity
  8
0
  6
SLD-Solid
 62
   179
370
    25
100
AcDbLine
 10
37.75689644050048
 20
21.15998038964669
 30
0.0
 11
37.37373214336021
 21
21.39336860984384
 31
0.0
  0
LINE
  5
20C
330
1F
100
AcDbEntity
  8
0
  6
SLD-Solid
 62
   179
370
    25
100
AcDbLine
 10
37.37373214336021
 20
21.39336860984384
 30
0.0
 11
36.99042240768895
 21
21.61464861016962
 31
0.0
  0
LINE
  5
20D
330
1F
100
AcDbEntity
  8
0
  6
SLD-Solid
 62
   179
370
    25
100
AcDbLine
 10
36.99042240768895
 20
21.61464861016962
 30
0.0
 11
36.60725811054868
 21
21.82365247087041
 31
0.0
  0
LINE
  5
20E
330
1F
100
AcDbEntity
  8
0
  6
SLD-Solid
 62
   179
370
    25
100
AcDbLine
 10
36.60725811054868
 20
21.82365247087041
 30
0.0
 11
36.22453001863445
 21
22.02022158802023
 31
0.0
  0
LINE
  5
20F
330
1F
100
AcDbEntity
  8
0
  6
SLD-Solid
 62
   179
370
    25
100
AcDbLine
 10
36.22453001863445
 20
22.02022158802023
 30
0.0
 11
35.84252856762412
 21
22.20420679387834
 31
0.0
  0
LINE
  5
210
330
1F
100
AcDbEntity
  8
0
  6
SLD-Solid
 62
   179
370
    25
100
AcDbLine
 10
35.84252856762412
 20
22.20420679387834
 30
0.0
 11
35.46154364177946
 21
22.37546847008612
 31
0.0
  0
LINE
  5
211
330
1F
100
AcDbEntity
  8
0
  6
SLD-Solid
 62
   179
370
    25
100
AcDbLine
 10
35.46154364177946
 20
22.37546847008612
 30
0.0
 11
35.08186435396556
 21
22.53387665361742
 31
0.0
  0
LINE
  5
212
330
1F
100
AcDbEntity
  8
0
  6
SLD-Solid
 62
   179
370
    25
100
AcDbLine
 10
35.08186435396556
 20
22.53387665361742
 30
0.0
 11
34.70377882625565
 21
22.67931113540177
 31
0.0
  0
LINE
  5
213
330
1F
100
AcDbEntity
  8
0
  6
SLD-Solid
 62
   179
370
    25
100
AcDbLine
 10
34.70377882625565
 20
22.67931113540177
 30
0.0
 11
34.32757397128789
 21
22.81166155154586
 31
0.0
  0
LINE
  5
214
330
1F
100
AcDbEntity
  8
0
  6
SLD-Solid
 62
   179
370
    25
100
AcDbLine
 10
34.32757397128789
 20
22.81166155154586
 30
0.0
 11
33.95353527453977
 21
22.93082746708387
 31
0.0
  0
LINE
  5
215
330
1F
100
AcDbEntity
  8
0
  6
SLD-Solid
 62
   179
370
    25
100
AcDbLine
 10
33.95353527453977
 20
22.93082746708387
 30
0.0
 11
33.58194657768568
 21
23.03671845219318
 31
0.0
  0
LINE
  5
216
330
1F
100
AcDbEntity
  8
0
  6
SLD-Solid
 62
   179
370
    25
100
AcDbLine
 10
33.58194657768568
 20
23.03671845219318
 30
0.0
 11
33.21308986320182
 21
23.12925415081766
 31
0.0
  0
LINE
  5
217
330
1F
100
AcDbEntity
  8
0
  6
SLD-Solid
 62
   179
370
    25
100
AcDbLine
 10
33.21308986320182
 20
23.12925415081766
 30
0.0
 11
32.84724504038196
 21
23.20836434164632
 31
0.0
  0
LINE
  5
218
330
1F
100
AcDbEntity
  8
0
  6
SLD-Solid
 62
   179
370
    25
100
AcDbLine
 10
32.84724504038196
 20
23.20836434164632
 30
0.0
 11
32.77316819512622
 21
23.21701092323158
 31
0.0
  0
LINE
  5
219
330
1F
100
AcDbEntity
  8
0
  6
SLD-Solid
 62
   179
370
    25
100
AcDbLine
 10
32.77316819512622
 20
23.21701092323158
 30
0.0
 11
32.70336818717382
 21
23.21275772638878
 31
0.0
  0
LINE
  5
21A
330
1F
100
AcDbEntity
  8
0
  6
SLD-Solid
 62
   179
370
    25
100
AcDbLine
 10
32.70336818717382
 20
23.21275772638878
 30
0.0
 11
32.63894118089591
 21
23.1956715448473
 31
0.0
  0
LINE
  5
21B
330
1F
100
AcDbEntity
  8
0
  6
SLD-Solid
 62
   179
370
    25
100
AcDbLine
 10
32.63894118089591
 20
23.1956715448473
 30
0.0
 11
32.58089896111736
 21
23.16602070613309
 31
0.0
  0
LINE
  5
21C
330
1F
100
AcDbEntity
  8
0
  6
SLD-Solid
 62
   179
370
    25
100
AcDbLine
 10
32.58089896111736
 20
23.16602070613309
 30
0.0
 11
32.53015304368484
 21
23.1242708576569
 31
0.0
  0
LINE
  5
21D
330
1F
100
AcDbEntity
  8
0
  6
SLD-Solid
 62
   179
370
    25
100
AcDbLine
 10
32.53015304368484
 20
23.1242708576569
 30
0.0
 11
32.4875003606948
 21
23.07107765402026
 31
0.0
  0
LINE
  5
21E
330
1F
100
AcDbEntity
  8
0
  6
SLD-Solid
 62
   179
370
    25
100
AcDbLine
 10
32.4875003606948
 20
23.07107765402026
 30
0.0
 11
32.45361074518595
 21
23.00727646038035
 31
0.0
  0
LINE
  5
21F
330
1F
100
AcDbEntity
  8
0
  6
SLD-Solid
 62
   179
370
    25
100
AcDbLine
 10
32.45361074518595
 20
23.00727646038035
 30
0.0
 11
32.42901641184081
 21
22.93386923357582
 31
0.0
  0
LINE
  5
220
330
1F
100
AcDbEntity
  8
0
  6
SLD-Solid
 62
   179
370
    25
100
AcDbLine
 10
32.42901641184081
 20
22.93386923357582
 30
0.0
 11
32.41410359889542
 21
22.85200878703707
 31
0.0
  0
LINE
  5
221
330
1F
100
AcDbEntity
  8
0
  6
SLD-Solid
 62
   179
370
    25
100
AcDbLine
 10
32.41410359889542
 20
22.85200878703707
 30
0.0
 11
32.4091065025154
 21
22.76298068659044
 31
0.0
  0
LINE
  5
222
330
1F
100
AcDbEntity
  8
0
  6
SLD-Solid
 62
   179
370
    25
100
AcDbLine
 10
33.24665167124498
 20
27.12039205522115
 30
0.0
 11
43.98901789103115
 21
20.91895603781573
 31
0.0
  0
LINE
  5
223
330
1F
100
AcDbEntity
  8
0
  6
SLD-Solid
 62
   179
370
    25
100
AcDbLine
 10
42.63655756424136
 20
11.03804166558886
 30
0.0
 11
44.00905182652446
 21
11.83036573811279
 31
0.0
  0
LINE
  5
224
330
1F
100
AcDbEntity
  8
0
  6
SLD-Solid
 62
   179
370
    25
100
AcDbLine
 10
44.03066648044287
 20
18.39308467381469
 30
0.0
 11
44.03066648044287
 21
20.84681856510258
 31
0.0
  0
LINE
  5
225
330
1F
100
AcDbEntity
  8
0
  6
SLD-Solid
 62
   179
370
    25
100
AcDbLine
 10
44.00182586007279
 20
18.3431312540119
 30
0.0
 11
44.03066648044287
 21
18.39308467381469
 31
0.0
  0
LINE
  5
226
330
1F
100
AcDbEntity
  8
0
  6
SLD-Solid
 62
   179
370
    25
100
AcDbLine
 10
44.00182586007279
 20
18.3084883612999
 30
0.0
 11
43.9991877260365
 21
18.31067747222004
 31
0.0
  0
LINE
  5
227
330
1F
100
AcDbEntity
  8
0
  6
SLD-Solid
 62
   179
370
    25
100
AcDbLine
 10
43.9991877260365
 20
18.31067747222004
 30
0.0
 11
43.99722741559965
 21
18.31378088295009
 31
0.0
  0
LINE
  5
228
330
1F
100
AcDbEntity
  8
0
  6
SLD-Solid
 62
   179
370
    25
100
AcDbLine
 10
43.99722741559965
 20
18.31378088295009
 30
0.0
 11
43.99602026239296
 21
18.31767933115612
 31
0.0
  0
LINE
  5
229
330
1F
100
AcDbEntity
  8
0
  6
SLD-Solid
 62
   179
370
    25
100
AcDbLine
 10
43.99602026239296
 20
18.31767933115612
 30
0.0
 11
43.9956126566372
 21
18.32222300165985
 31
0.0
  0
LINE
  5
22A
330
1F
100
AcDbEntity
  8
0
  6
SLD-Solid
 62
   179
370
    25
100
AcDbLine
 10
43.9956126566372
 20
18.32222300165985
 30
0.0
 11
43.99602026239296
 21
18.32723728375193
 31
0.0
  0
LINE
  5
22B
330
1F
100
AcDbEntity
  8
0
  6
SLD-Solid
 62
   179
370
    25
100
AcDbLine
 10
43.99602026239296
 20
18.32723728375193
 30
0.0
 11
43.99722741559965
 21
18.33252948138361
 31
0.0
  0
LINE
  5
22C
330
1F
100
AcDbEntity
  8
0
  6
SLD-Solid
 62
   179
370
    25
100
AcDbLine
 10
43.99722741559965
 20
18.33252948138361
 30
0.0
 11
43.9991877260365
 21
18.3378962183678
 31
0.0
  0
LINE
  5
22D
330
1F
100
AcDbEntity
  8
0
  6
SLD-Solid
 62
   179
370
    25
100
AcDbLine
 10
43.9991877260365
 20
18.3378962183678
 30
0.0
 11
44.00182586007279
 21
18.3431312540119
 31
0.0
  0
LINE
  5
22E
330
1F
100
AcDbEntity
  8
0
  6
SLD-Solid
 62
   179
370
    25
100
AcDbLine
 10
44.03066648050636
 20
18.29183361310421
 30
0.0
 11
44.00182586007279
 21
18.3084883612999
 31
0.0
  0
LINE
  5
22F
330
1F
100
AcDbEntity
  8
0
  6
SLD-Solid
 62
   179
370
    25
100
AcDbLine
 10
44.03066648050636
 20
11.86778555693307
 30
0.0
 11
44.03066648050636
 21
18.29183361310421
 31
0.0
  0
LINE
  5
230
330
1F
100
AcDbEntity
  8
0
  6
SLD-Solid
 62
   179
370
    25
100
AcDbLine
 10
41.48466307813806
 20
16.76995224500698
 30
0.0
 11
41.50580557089554
 21
16.78215754627873
 31
0.0
  0
LINE
  5
231
330
1F
100
AcDbEntity
  8
0
  6
SLD-Solid
 62
   179
370
    25
100
AcDbLine
 10
41.50580557089554
 20
16.78215754627873
 30
0.0
 11
41.55933453288595
 21
16.72130758156769
 31
0.0
  0
LINE
  5
232
330
1F
100
AcDbEntity
  8
0
  6
SLD-Solid
 62
   179
370
    25
100
AcDbLine
 10
41.55933453288595
 20
16.72130758156769
 30
0.0
 11
41.61683743811756
 21
16.67054690615077
 31
0.0
  0
LINE
  5
233
330
1F
100
AcDbEntity
  8
0
  6
SLD-Solid
 62
   179
370
    25
100
AcDbLine
 10
41.61683743811756
 20
16.67054690615077
 30
0.0
 11
41.67618851820122
 21
16.63175204154942
 31
0.0
  0
LINE
  5
234
330
1F
100
AcDbEntity
  8
0
  6
SLD-Solid
 62
   179
370
    25
100
AcDbLine
 10
41.67618851820122
 20
16.63175204154942
 30
0.0
 11
41.7351936813881
 21
16.60635715698514
 31
0.0
  0
LINE
  5
235
330
1F
100
AcDbEntity
  8
0
  6
SLD-Solid
 62
   179
370
    25
100
AcDbLine
 10
41.7351936813881
 20
16.60635715698514
 30
0.0
 11
41.79167162379112
 21
16.59530105098709
 31
0.0
  0
LINE
  5
236
330
1F
100
AcDbEntity
  8
0
  6
SLD-Solid
 62
   179
370
    25
100
AcDbLine
 10
41.79167162379112
 20
16.59530105098709
 30
0.0
 11
41.84353446786463
 21
16.59899244587185
 31
0.0
  0
LINE
  5
237
330
1F
100
AcDbEntity
  8
0
  6
SLD-Solid
 62
   179
370
    25
100
AcDbLine
 10
41.84353446786463
 20
16.59899244587185
 30
0.0
 11
41.87473678249612
 21
16.60967057850515
 31
0.0
  0
LINE
  5
238
330
1F
100
AcDbEntity
  8
0
  6
SLD-Solid
 62
   179
370
    25
100
AcDbLine
 10
32.95173388170164
 20
21.77160716610633
 30
0.0
 11
32.95668318808819
 21
21.77945342366363
 31
0.0
  0
LINE
  5
239
330
1F
100
AcDbEntity
  8
0
  6
SLD-Solid
 62
   179
370
    25
100
AcDbLine
 10
32.95668318808819
 20
21.77945342366363
 30
0.0
 11
32.9640837054731
 21
21.78486388606505
 31
0.0
  0
LINE
  5
23A
330
1F
100
AcDbEntity
  8
0
  6
SLD-Solid
 62
   179
370
    25
100
AcDbLine
 10
32.9640837054731
 20
21.78486388606505
 30
0.0
 11
32.97380755678064
 21
21.78774506334575
 31
0.0
  0
LINE
  5
23B
330
1F
100
AcDbEntity
  8
0
  6
SLD-Solid
 62
   179
370
    25
100
AcDbLine
 10
32.97380755678064
 20
21.78774506334575
 30
0.0
 11
32.9856867189382
 21
21.78804717026692
 31
0.0
  0
LINE
  5
23C
330
1F
100
AcDbEntity
  8
0
  6
SLD-Solid
 62
   179
370
    25
100
AcDbLine
 10
32.9856867189382
 20
21.78804717026692
 30
0.0
 11
32.99951592622722
 21
21.78576498657874
 31
0.0
  0
LINE
  5
23D
330
1F
100
AcDbEntity
  8
0
  6
SLD-Solid
 62
   179
370
    25
100
AcDbLine
 10
32.99951592622722
 20
21.78576498657874
 30
0.0
 11
33.01505621716765
 21
21.78093794722353
 31
0.0
  0
LINE
  5
23E
330
1F
100
AcDbEntity
  8
0
  6
SLD-Solid
 62
   179
370
    25
100
AcDbLine
 10
33.01505621716765
 20
21.78093794722353
 30
0.0
 11
33.03203906364747
 21
21.77364946092058
 31
0.0
  0
LINE
  5
23F
330
1F
100
AcDbEntity
  8
0
  6
SLD-Solid
 62
   179
370
    25
100
AcDbLine
 10
33.03203906364747
 20
21.77364946092058
 30
0.0
 11
33.05017101094827
 21
21.76402546890701
 31
0.0
  0
LINE
  5
240
330
1F
100
AcDbEntity
  8
0
  6
SLD-Solid
 62
   179
370
    25
100
AcDbLine
 10
33.05017101094827
 20
21.76402546890701
 30
0.0
 11
41.19429806879572
 21
17.06252099274828
 31
0.0
  0
LINE
  5
241
330
1F
100
AcDbEntity
  8
0
  6
SLD-Solid
 62
   179
370
    25
100
AcDbLine
 10
41.36140557758856
 20
16.94809577130109
 30
0.0
 11
41.34153813315933
 21
16.92827626493674
 31
0.0
  0
LINE
  5
242
330
1F
100
AcDbEntity
  8
0
  6
SLD-Solid
 62
   179
370
    25
100
AcDbLine
 10
41.19429806879572
 20
17.06252099274828
 30
0.0
 11
41.21416551322495
 21
17.08234049911263
 31
0.0
  0
LINE
  5
243
330
1F
100
AcDbEntity
  8
0
  6
SLD-Solid
 62
   179
370
    25
100
AcDbLine
 10
41.46684986735328
 20
16.78690669389148
 30
0.0
 11
41.48671731178249
 21
16.80672620025585
 31
0.0
  0
LINE
  5
244
330
1F
100
AcDbEntity
  8
0
  6
SLD-Solid
 62
   179
370
    25
100
AcDbLine
 10
41.48466307813806
 20
16.76995224500698
 30
0.0
 11
41.46684986735328
 21
16.78690669389148
 31
0.0
  0
LINE
  5
245
330
1F
100
AcDbEntity
  8
0
  6
SLD-Solid
 62
   179
370
    25
100
AcDbLine
 10
41.50580557089554
 20
16.78215754627873
 30
0.0
 11
41.48671731178249
 21
16.80672620025585
 31
0.0
  0
LINE
  5
246
330
1F
100
AcDbEntity
  8
0
  6
SLD-Solid
 62
   179
370
    25
100
AcDbLine
 10
32.87949147291111
 20
21.73761207309195
 30
0.0
 11
32.89483134580161
 21
21.73542765415296
 31
0.0
  0
LINE
  5
247
330
1F
100
AcDbEntity
  8
0
  6
SLD-Solid
 62
   179
370
    25
100
AcDbLine
 10
33.07003845537749
 20
21.78384497527136
 30
0.0
 11
41.21416551322495
 21
17.08234049911263
 31
0.0
  0
LINE
  5
248
330
1F
100
AcDbEntity
  8
0
  6
SLD-Solid
 62
   179
370
    25
100
AcDbLine
 10
42.61041507148389
 20
11.02294501969365
 30
0.0
 11
42.63655968851386
 21
11.03803798584225
 31
0.0
  0
LINE
  5
249
330
1F
100
AcDbEntity
  8
0
  6
SLD-Solid
 62
   179
370
    25
100
AcDbLine
 10
43.24091160998109
 20
11.38692782994358
 30
0.0
 11
43.24049128679201
 21
11.38668027646839
 31
0.0
  0
LINE
  5
24A
330
1F
100
AcDbEntity
  8
0
  6
SLD-Solid
 62
   179
370
    25
100
AcDbLine
 10
32.43024899527288
 20
22.77518598786219
 30
0.0
 11
32.43524609165289
 21
22.86421408830882
 31
0.0
  0
LINE
  5
24B
330
1F
100
AcDbEntity
  8
0
  6
SLD-Solid
 62
   179
370
    25
100
AcDbLine
 10
32.43524609165289
 20
22.86421408830882
 30
0.0
 11
32.45015890459829
 21
22.94607453484758
 31
0.0
  0
LINE
  5
24C
330
1F
100
AcDbEntity
  8
0
  6
SLD-Solid
 62
   179
370
    25
100
AcDbLine
 10
32.45015890459829
 20
22.94607453484758
 30
0.0
 11
32.47475323794342
 21
23.0194817616521
 31
0.0
  0
LINE
  5
24D
330
1F
100
AcDbEntity
  8
0
  6
SLD-Solid
 62
   179
370
    25
100
AcDbLine
 10
32.47475323794342
 20
23.0194817616521
 30
0.0
 11
32.50864285345228
 21
23.083282955292
 31
0.0
  0
LINE
  5
24E
330
1F
100
AcDbEntity
  8
0
  6
SLD-Solid
 62
   179
370
    25
100
AcDbLine
 10
32.50864285345228
 20
23.083282955292
 30
0.0
 11
32.55129553644231
 21
23.13647615892864
 31
0.0
  0
LINE
  5
24F
330
1F
100
AcDbEntity
  8
0
  6
SLD-Solid
 62
   179
370
    25
100
AcDbLine
 10
32.55129553644231
 20
23.13647615892864
 30
0.0
 11
32.60204145387484
 21
23.17822600740484
 31
0.0
  0
LINE
  5
250
330
1F
100
AcDbEntity
  8
0
  6
SLD-Solid
 62
   179
370
    25
100
AcDbLine
 10
32.60204145387484
 20
23.17822600740484
 30
0.0
 11
32.60623457715765
 21
23.18092859709839
 31
0.0
  0
LINE
  5
251
330
1F
100
AcDbEntity
  8
0
  6
SLD-Solid
 62
   179
370
    25
100
AcDbLine
 10
33.07003845537749
 20
21.78384497527136
 30
0.0
 11
33.05190650807668
 21
21.79346896728493
 31
0.0
  0
LINE
  5
252
330
1F
100
AcDbEntity
  8
0
  6
SLD-Solid
 62
   179
370
    25
100
AcDbLine
 10
33.05190650807668
 20
21.79346896728493
 30
0.0
 11
33.03492366159686
 21
21.80075745358789
 31
0.0
  0
LINE
  5
253
330
1F
100
AcDbEntity
  8
0
  6
SLD-Solid
 62
   179
370
    25
100
AcDbLine
 10
33.03492366159686
 20
21.80075745358789
 30
0.0
 11
33.01938337065644
 21
21.8055844929431
 31
0.0
  0
LINE
  5
254
330
1F
100
AcDbEntity
  8
0
  6
SLD-Solid
 62
   179
370
    25
100
AcDbLine
 10
33.01938337065644
 20
21.8055844929431
 30
0.0
 11
33.00555416336741
 21
21.80786667663128
 31
0.0
  0
LINE
  5
255
330
1F
100
AcDbEntity
  8
0
  6
SLD-Solid
 62
   179
370
    25
100
AcDbLine
 10
33.00555416336741
 20
21.80786667663128
 30
0.0
 11
32.99367500120986
 21
21.8075645697101
 31
0.0
  0
LINE
  5
256
330
1F
100
AcDbEntity
  8
0
  6
SLD-Solid
 62
   179
370
    25
100
AcDbLine
 10
32.99367500120986
 20
21.8075645697101
 30
0.0
 11
32.98395114990232
 21
21.8046833924294
 31
0.0
  0
LINE
  5
257
330
1F
100
AcDbEntity
  8
0
  6
SLD-Solid
 62
   179
370
    25
100
AcDbLine
 10
32.98395114990232
 20
21.8046833924294
 30
0.0
 11
32.97715697827257
 21
21.79990037861493
 31
0.0
  0
LINE
  5
258
330
1F
100
AcDbEntity
  8
0
  6
SLD-Solid
 62
   179
370
    25
100
AcDbLine
 10
32.90063396566858
 20
21.7498173743637
 30
0.0
 11
32.84710500367817
 21
21.75077063364817
 31
0.0
  0
LINE
  5
259
330
1F
100
AcDbEntity
  8
0
  6
SLD-Solid
 62
   179
370
    25
100
AcDbLine
 10
32.84710500367817
 20
21.75077063364817
 30
0.0
 11
32.78960209844657
 21
21.7664013994301
 31
0.0
  0
LINE
  5
25A
330
1F
100
AcDbEntity
  8
0
  6
SLD-Solid
 62
   179
370
    25
100
AcDbLine
 10
32.78960209844657
 20
21.7664013994301
 30
0.0
 11
32.7302510183629
 21
21.79613183329136
 31
0.0
  0
LINE
  5
25B
330
1F
100
AcDbEntity
  8
0
  6
SLD-Solid
 62
   179
370
    25
100
AcDbLine
 10
32.7302510183629
 20
21.79613183329136
 30
0.0
 11
32.67124585517602
 21
21.83886286004186
 31
0.0
  0
LINE
  5
25C
330
1F
100
AcDbEntity
  8
0
  6
SLD-Solid
 62
   179
370
    25
100
AcDbLine
 10
32.67124585517602
 20
21.83886286004186
 30
0.0
 11
32.614767912773
 21
21.89301479835009
 31
0.0
  0
LINE
  5
25D
330
1F
100
AcDbEntity
  8
0
  6
SLD-Solid
 62
   179
370
    25
100
AcDbLine
 10
32.614767912773
 20
21.89301479835009
 30
0.0
 11
32.56290506869949
 21
21.95658575842974
 31
0.0
  0
LINE
  5
25E
330
1F
100
AcDbEntity
  8
0
  6
SLD-Solid
 62
   179
370
    25
100
AcDbLine
 10
32.56290506869949
 20
21.95658575842974
 30
0.0
 11
32.5175745894668
 21
22.02722564793573
 31
0.0
  0
LINE
  5
25F
330
1F
100
AcDbEntity
  8
0
  6
SLD-Solid
 62
   179
370
    25
100
AcDbLine
 10
32.5175745894668
 20
22.02722564793573
 30
0.0
 11
32.48045225301049
 21
22.10232305021843
 31
0.0
  0
LINE
  5
260
330
1F
100
AcDbEntity
  8
0
  6
SLD-Solid
 62
   179
370
    25
100
AcDbLine
 10
32.48045225301049
 20
22.10232305021843
 30
0.0
 11
32.45291039850283
 21
22.17910176321922
 31
0.0
  0
LINE
  5
261
330
1F
100
AcDbEntity
  8
0
  6
SLD-Solid
 62
   179
370
    25
100
AcDbLine
 10
32.45291039850283
 20
22.17910176321922
 30
0.0
 11
32.43596719369475
 21
22.25472343015599
 31
0.0
  0
LINE
  5
262
330
1F
100
AcDbEntity
  8
0
  6
SLD-Solid
 62
   179
370
    25
100
AcDbLine
 10
32.43596719369475
 20
22.25472343015599
 30
0.0
 11
32.43024899527288
 21
22.3263924679454
 31
0.0
  0
LINE
  5
263
330
1F
100
AcDbEntity
  8
0
  6
SLD-Solid
 62
   179
370
    25
100
AcDbLine
 10
32.43024899527288
 20
22.3263924679454
 30
0.0
 11
32.43024899527288
 21
22.77518598786219
 31
0.0
  0
LINE
  5
264
330
1F
100
AcDbEntity
  8
0
  6
SLD-Solid
 62
   179
370
    25
100
AcDbLine
 10
32.90063396566858
 20
21.7498173743637
 30
0.0
 11
32.91469879023084
 21
21.75524716051731
 31
0.0
  0
LINE
  5
265
330
1F
100
AcDbEntity
  8
0
  6
SLD-Solid
 62
   179
370
    25
100
AcDbLine
 10
44.00912253720259
 20
18.30371680948557
 30
0.0
 11
44.00881823221829
 21
18.3035411379574
 31
0.0
  0
LINE
  5
266
330
1F
100
AcDbEntity
  8
0
  6
SLD-Solid
 62
   179
370
    25
100
AcDbLine
 10
44.00912253720259
 20
18.30336540932147
 30
0.0
 11
44.00912253720259
 21
18.30371680948557
 31
0.0
  0
LINE
  5
267
330
1F
100
AcDbEntity
  8
0
  6
SLD-Solid
 62
   179
370
    25
100
AcDbLine
 10
44.00912253720259
 20
18.30371680948557
 30
0.0
 11
43.99945019745544
 21
18.30930053236872
 31
0.0
  0
ARC
  5
268
330
1F
100
AcDbEntity
  8
0
  6
SLD-Solid
 62
   179
370
    25
100
AcDbCircle
 10
42.64370331954948
 20
20.03789008897846
 30
0.0
 40
0.0905178031660918
100
AcDbArc
 50
122.3183438866016
 51
177.6694861833926
  0
ARC
  5
269
330
1F
100
AcDbEntity
  8
0
  6
SLD-Solid
 62
   179
370
    25
100
AcDbCircle
 10
43.94024225207234
 20
20.84270376090444
 30
0.0
 40
0.0905178031659898
100
AcDbArc
 50
2.605478485650641
 51
57.39452165985394
  0
ARC
  5
26A
330
1F
100
AcDbEntity
  8
0
  6
SLD-Solid
 62
   179
370
    25
100
AcDbCircle
 10
40.55399626362779
 20
17.18343621925218
 30
0.0
 40
1.402739508440138
100
AcDbArc
 50
2.810886581913021
 51
46.65009929925881
  0
ARC
  5
26B
330
1F
100
AcDbEntity
  8
0
  6
SLD-Solid
 62
   179
370
    25
100
AcDbCircle
 10
43.98459227201876
 20
11.86944670929187
 30
0.0
 40
0.0461041442271543
100
AcDbArc
 50
302.0411587084228
 51
357.9351612326086
  0
ARC
  5
26C
330
1F
100
AcDbEntity
  8
0
  6
SLD-Solid
 62
   179
370
    25
100
AcDbCircle
 10
40.92005756102104
 20
16.61386403059251
 30
0.0
 40
0.5258335533183051
100
AcDbArc
 50
36.72186677159653
 51
58.56473936742868
  0
ARC
  5
26D
330
1F
100
AcDbEntity
  8
0
  6
SLD-Solid
 62
   179
370
    25
100
AcDbCircle
 10
42.30321045193901
 20
17.65449076825175
 30
0.0
 40
1.205073090535238
100
AcDbArc
 50
217.0585685050746
 51
226.0497840901801
  0
ARC
  5
26E
330
1F
100
AcDbEntity
  8
0
  6
SLD-Solid
 62
   179
370
    25
100
AcDbCircle
 10
32.89632850346062
 20
21.79591038741644
 30
0.0
 40
0.0605012603511541
100
AcDbArc
 50
268.5820200799037
 51
336.3156427929021
  0
ARC
  5
26F
330
1F
100
AcDbEntity
  8
0
  6
SLD-Solid
 62
   179
370
    25
100
AcDbCircle
 10
40.93992500545015
 20
16.63368353695673
 30
0.0
 40
0.5258335533184765
100
AcDbArc
 50
36.72186677159984
 51
58.56473936742557
  0
ARC
  5
270
330
1F
100
AcDbEntity
  8
0
  6
SLD-Solid
 62
   179
370
    25
100
AcDbCircle
 10
42.32307789636864
 20
17.67431027461645
 30
0.0
 40
1.205073090535774
100
AcDbArc
 50
217.0585685050763
 51
226.0497840901766
  0
ARC
  5
271
330
1F
100
AcDbEntity
  8
0
  6
SLD-Solid
 62
   179
370
    25
100
AcDbCircle
 10
31.85732287805311
 20
26.26473589994117
 30
0.0
 40
0.0636801230097331
100
AcDbArc
 50
119.9973117336501
 51
180.0
  0
ARC
  5
272
330
1F
100
AcDbEntity
  8
0
  6
SLD-Solid
 62
   179
370
    25
100
AcDbCircle
 10
33.22939868001428
 20
27.09630894493605
 30
0.0
 40
0.029625359194628
100
AcDbArc
 50
54.38242252481454
 51
114.3071190460794
  0
ARC
  5
273
330
1F
100
AcDbEntity
  8
0
  6
SLD-Solid
 62
   179
370
    25
100
AcDbCircle
 10
32.9122608956834
 20
21.83054003820135
 30
0.0
 40
0.0753323354195832
100
AcDbArc
 50
271.854521836932
 51
298.4750178657795
  0
SPLINE
  5
274
330
1F
100
AcDbEntity
  8
0
  6
SLD-Solid
 62
   179
370
    25
100
AcDbSpline
210
0.0
220
0.0
230
1.0
 70
    12
 71
     3
 72
    11
 73
     7
 74
     0
 42
0.00000001
 43
0.00000001
 40
0.0
 40
0.0
 40
0.0
 40
0.0
 40
0.2500000000000066
 40
0.50000000000001
 40
0.7500000000000095
 40
1.0
 40
1.0
 40
1.0
 40
1.0
 10
42.61041507148381
 20
11.0229450196937
 30
0.0
 41
1.0
 10
42.60366538872737
 20
11.02126335623173
 30
0.0
 41
1.0
 10
42.5901660232145
 20
11.0179000293078
 30
0.0
 41
1.0
 10
42.57252276868358
 20
11.02331229314803
 30
0.0
 41
1.0
 10
42.55901504099085
 20
11.03588749956702
 30
0.0
 41
1.0
 10
42.55517860394201
 20
11.04926085564349
 30
0.0
 41
1.0
 10
42.55326038541759
 20
11.05594753368173
 30
0.0
 41
1.0
  0
SPLINE
  5
275
330
1F
100
AcDbEntity
  8
0
  6
SLD-Solid
 62
   179
370
    25
100
AcDbSpline
210
0.0
220
0.0
230
1.0
 70
    12
 71
     3
 72
    10
 73
     6
 74
     0
 42
0.00000001
 43
0.00000001
 40
0.0
 40
0.0
 40
0.0
 40
0.0
 40
0.0001021259018164
 40
0.5000510629509064
 40
1.0
 40
1.0
 40
1.0
 40
1.0
 10
31.81534167493455
 20
17.23489353422749
 30
0.0
 41
1.0
 10
31.81534101883779
 20
17.2348935605614
 30
0.0
 41
1.0
 10
31.81212849506927
 20
17.23502250240478
 30
0.0
 41
1.0
 10
31.80915464477448
 20
17.24238912386696
 30
0.0
 41
1.0
 10
31.81031432534592
 20
17.25238540868035
 30
0.0
 41
1.0
 10
31.81089416563164
 20
17.25738355108704
 30
0.0
 41
1.0
  0
SPLINE
  5
276
330
1F
100
AcDbEntity
  8
0
  6
SLD-Solid
 62
   179
370
    25
100
AcDbSpline
210
0.0
220
0.0
230
1.0
 70
    12
 71
     3
 72
     9
 73
     5
 74
     0
 42
0.00000001
 43
0.00000001
 40
0.0
 40
0.0
 40
0.0
 40
0.0
 40
0.4999999999999944
 40
1.0
 40
1.0
 40
1.0
 40
1.0
 10
31.81089416563164
 20
17.25738355108704
 30
0.0
 41
1.0
 10
31.80594782565411
 20
17.25940335513478
 30
0.0
 41
1.0
 10
31.79605514569906
 20
17.26344296323026
 30
0.0
 41
1.0
 10
31.79444688526194
 20
17.26946354503255
 30
0.0
 41
1.0
 10
31.79364275504338
 20
17.27247383593369
 30
0.0
 41
1.0
  0
MTEXT
  5
277
330
1F
100
AcDbEntity
  8
NOTES
100
AcDbMText
 10
34.86819813700608
 20
11.96655872365172
 30
0.0
 40
0.3
 41
0.0
 71
     1
 72
     1
  1
3D view 199 - W / 199 - S
  7
SLDTEXTSTYLE1
 73
     1
 44
1.0
  0
MTEXT
  5
27B
330
1F
100
AcDbEntity
  8
NOTES
100
AcDbMText
 10
40.2661315570167
 20
4.986500874567165
 30
0.0
 40
0.2916666666666666
 41
0.0
 71
     1
 72
     1
  1
FROST PRODUCTS LTD.
  7
SLDTEXTSTYLE0
 73
     1
 44
1.0
  0
MTEXT
  5
27C
330
1F
100
AcDbEntity
  8
NOTES
100
AcDbMText
 10
40.2661315570167
 20
4.561008512941704
 30
0.0
 40
0.2291666666666666
 41
0.0
 71
     1
 72
     1
  1
5280 JOHN LUCAS DRIVE, BURLINGTON, ON, L7L 5Z9
  7
SLDTEXTSTYLE0
 73
     1
 44
1.0
  0
ENDSEC
  0
SECTION
  2
OBJECTS
  0
DICTIONARY
  5
C
330
0
100
AcDbDictionary
281
     1
  3
ACAD_COLOR
350
6C
  3
ACAD_GROUP
350
D
  3
ACAD_LAYOUT
350
1A
  3
ACAD_MATERIAL
350
6B
  3
ACAD_MLINESTYLE
350
17
  3
ACAD_PLOTSETTINGS
350
19
  3
ACAD_PLOTSTYLENAME
350
E
  3
ACAD_SCALELIST
350
47
  3
ACAD_TABLESTYLE
350
92
  3
AcDbVariableDictionary
350
59
  0
DICTIONARY
  5
6C
102
{ACAD_REACTORS
330
C
102
}
330
C
100
AcDbDictionary
281
     1
  0
DICTIONARY
  5
D
102
{ACAD_REACTORS
330
C
102
}
330
C
100
AcDbDictionary
281
     1
  0
DICTIONARY
  5
1A
102
{ACAD_REACTORS
330
C
102
}
330
C
100
AcDbDictionary
281
     1
  3
Layout1
350
74
  3
Layout2
350
26
  3
Model
350
22
  0
DICTIONARY
  5
6B
102
{ACAD_REACTORS
330
C
102
}
330
C
100
AcDbDictionary
281
     1
  0
DICTIONARY
  5
17
102
{ACAD_REACTORS
330
C
102
}
330
C
100
AcDbDictionary
281
     1
  3
Standard
350
18
  0
DICTIONARY
  5
19
102
{ACAD_REACTORS
330
C
102
}
330
C
100
AcDbDictionary
281
     1
  0
ACDBDICTIONARYWDFLT
  5
E
102
{ACAD_REACTORS
330
C
102
}
330
C
100
AcDbDictionary
281
     1
  3
Normal
350
F
100
AcDbDictionaryWithDefault
340
F
  0
DICTIONARY
  5
47
102
{ACAD_REACTORS
330
C
102
}
330
C
100
AcDbDictionary
281
     1
  3
A0
350
48
  3
A1
350
49
  3
A2
350
4A
  3
A3
350
4B
  3
A4
350
4C
  3
A5
350
4D
  3
A6
350
4E
  3
A7
350
4F
  3
A8
350
50
  3
A9
350
51
  3
B0
350
52
  3
B1
350
53
  3
B2
350
54
  3
B3
350
55
  3
B4
350
56
  3
B5
350
57
  3
B6
350
58
  3
B7
350
28D
  3
B8
350
28E
  3
B9
350
5B
  3
C0
350
5C
  3
C1
350
5D
  3
C2
350
28F
  3
C3
350
5F
  3
C4
350
60
  3
C5
350
61
  3
C6
350
62
  3
C7
350
63
  3
C8
350
64
  3
C9
350
65
  3
D0
350
66
  3
D1
350
67
  3
D2
350
68
  0
DICTIONARY
  5
92
102
{ACAD_REACTORS
330
C
102
}
330
C
100
AcDbDictionary
281
     1
  3
Standard
350
93
  0
DICTIONARY
  5
59
102
{ACAD_REACTORS
330
C
102
}
330
C
100
AcDbDictionary
281
     1
  3
CTABLESTYLE
350
98
  3
HIDETEXT
350
27A
  0
LAYOUT
  5
74
102
{ACAD_REACTORS
330
1A
102
}
330
1A
100
AcDbPlotSettings
  1

  2
none_device
  4

  6

 40
0.0
 41
0.0
 42
0.0
 43
0.0
 44
0.0
 45
0.0
 46
0.0
 47
0.0
 48
0.0
 49
0.0
140
0.0
141
0.0
142
1.0
143
1.0
 70
   688
 72
     0
 73
     0
 74
     5
  7

 75
    16
 76
     0
 77
     2
 78
   300
147
1.0
148
0.0
149
0.0
100
AcDbLayout
  1
Layout1
 70
     1
 71
     1
 10
0.0
 20
0.0
 11
12.0
 21
9.0
 12
0.0
 22
0.0
 32
0.0
 14
1.000000000000000E+20
 24
1.000000000000000E+20
 34
1.000000000000000E+20
 15
-1.000000000000000E+20
 25
-1.000000000000000E+20
 35
-1.000000000000000E+20
146
0.0
 13
0.0
 23
0.0
 33
0.0
 16
1.0
 26
0.0
 36
0.0
 17
0.0
 27
1.0
 37
0.0
 76
     0
330
73
  0
LAYOUT
  5
26
102
{ACAD_REACTORS
330
1A
102
}
330
1A
100
AcDbPlotSettings
  1

  2
none_device
  4

  6

 40
0.0
 41
0.0
 42
0.0
 43
0.0
 44
0.0
 45
0.0
 46
0.0
 47
0.0
 48
0.0
 49
0.0
140
0.0
141
0.0
142
1.0
143
1.0
 70
   688
 72
     0
 73
     0
 74
     5
  7

 75
    16
 76
     0
 77
     2
 78
   300
147
1.0
148
0.0
149
0.0
100
AcDbLayout
  1
Layout2
 70
     1
 71
     2
 10
0.0
 20
0.0
 11
0.0
 21
0.0
 12
0.0
 22
0.0
 32
0.0
 14
0.0
 24
0.0
 34
0.0
 15
0.0
 25
0.0
 35
0.0
146
0.0
 13
0.0
 23
0.0
 33
0.0
 16
1.0
 26
0.0
 36
0.0
 17
0.0
 27
1.0
 37
0.0
 76
     0
330
23
  0
LAYOUT
  5
22
102
{ACAD_REACTORS
330
1A
102
}
330
1A
100
AcDbPlotSettings
  1

  2
none_device
  4
Letter_(8.50_x_11.00_Inches)
  6

 40
6.35
 41
6.35
 42
6.35000508
 43
6.35000508
 44
215.9
 45
279.4
 46
0.0
 47
0.0
 48
0.0
 49
0.0
140
0.0
141
0.0
142
1.0
143
1.0
 70
 11952
 72
     0
 73
     0
 74
     0
  7

 75
     0
 76
     0
 77
     2
 78
   300
147
1.0
148
0.0
149
0.0
100
AcDbLayout
  1
Model
 70
     1
 71
     0
 10
0.0
 20
0.0
 11
50.0
 21
30.0
 12
0.0
 22
0.0
 32
0.0
 14
0.1653543307086614
 24
0.1653543307086614
 34
-0.0000000000001266
 15
49.83464566929134
 25
29.83464566929134
 35
0.1242299794661184
146
0.0
 13
0.0
 23
0.0
 33
0.0
 16
1.0
 26
0.0
 36
0.0
 17
0.0
 27
1.0
 37
0.0
 76
     0
330
1F
  0
MLINESTYLE
  5
18
102
{ACAD_REACTORS
330
17
102
}
330
17
100
AcDbMlineStyle
  2
Standard
 70
     0
  3

 62
   256
 51
90.0
 52
90.0
 71
     2
 49
0.5
 62
   256
  6
BYLAYER
 49
-0.5
 62
   256
  6
BYLAYER
  0
ACDBPLACEHOLDER
  5
F
102
{ACAD_REACTORS
330
E
102
}
330
E
  0
ACAD_PROXY_OBJECT
  5
48
102
{ACAD_REACTORS
330
47
102
}
330
47
100
AcDbProxyObject
 90
      499
 91
      505
 95
   393239
 70
     0
 93
       41
310
903313A31580
  0
ACAD_PROXY_OBJECT
  5
49
102
{ACAD_REACTORS
330
47
102
}
330
47
100
AcDbProxyObject
 90
      499
 91
      505
 95
   393239
 70
     0
 93
      105
310
903313A324000000000000004000
  0
ACAD_PROXY_OBJECT
  5
4A
102
{ACAD_REACTORS
330
47
102
}
330
47
100
AcDbProxyObject
 90
      499
 91
      505
 95
   393239
 70
     0
 93
      105
310
903313A344000000000000104000
  0
ACAD_PROXY_OBJECT
  5
4B
102
{ACAD_REACTORS
330
47
102
}
330
47
100
AcDbProxyObject
 90
      499
 91
      505
 95
   393239
 70
     0
 93
      105
310
903313A354000000000000144000
  0
ACAD_PROXY_OBJECT
  5
4C
102
{ACAD_REACTORS
330
47
102
}
330
47
100
AcDbProxyObject
 90
      499
 91
      505
 95
   393239
 70
     0
 93
      105
310
903313A384000000000000204000
  0
ACAD_PROXY_OBJECT
  5
4D
102
{ACAD_REACTORS
330
47
102
}
330
47
100
AcDbProxyObject
 90
      499
 91
      505
 95
   393239
 70
     0
 93
      113
310
904313A31304000000000000244000
  0
ACAD_PROXY_OBJECT
  5
4E
102
{ACAD_REACTORS
330
47
102
}
330
47
100
AcDbProxyObject
 90
      499
 91
      505
 95
   393239
 70
     0
 93
      113
310
904313A31364000000000000304000
  0
ACAD_PROXY_OBJECT
  5
4F
102
{ACAD_REACTORS
330
47
102
}
330
47
100
AcDbProxyObject
 90
      499
 91
      505
 95
   393239
 70
     0
 93
      113
310
904313A32304000000000000344000
  0
ACAD_PROXY_OBJECT
  5
50
102
{ACAD_REACTORS
330
47
102
}
330
47
100
AcDbProxyObject
 90
      499
 91
      505
 95
   393239
 70
     0
 93
      113
310
904313A333040000000000003E4000
  0
ACAD_PROXY_OBJECT
  5
51
102
{ACAD_REACTORS
330
47
102
}
330
47
100
AcDbProxyObject
 90
      499
 91
      505
 95
   393239
 70
     0
 93
      113
310
904313A34304000000000000444000
  0
ACAD_PROXY_OBJECT
  5
52
102
{ACAD_REACTORS
330
47
102
}
330
47
100
AcDbProxyObject
 90
      499
 91
      505
 95
   393239
 70
     0
 93
      113
310
904313A35304000000000000494000
  0
ACAD_PROXY_OBJECT
  5
53
102
{ACAD_REACTORS
330
47
102
}
330
47
100
AcDbProxyObject
 90
      499
 91
      505
 95
   393239
 70
     0
 93
      121
310
905313A3130304000000000000594000
  0
ACAD_PROXY_OBJECT
  5
54
102
{ACAD_REACTORS
330
47
102
}
330
47
100
AcDbProxyObject
 90
      499
 91
      505
 95
   393239
 70
     0
 93
      105
310
903323A310000000000000010100
  0
ACAD_PROXY_OBJECT
  5
55
102
{ACAD_REACTORS
330
47
102
}
330
47
100
AcDbProxyObject
 90
      499
 91
      505
 95
   393239
 70
     0
 93
      105
310
903343A310000000000000410100
  0
ACAD_PROXY_OBJECT
  5
56
102
{ACAD_REACTORS
330
47
102
}
330
47
100
AcDbProxyObject
 90
      499
 91
      505
 95
   393239
 70
     0
 93
      105
310
903383A310000000000000810100
  0
ACAD_PROXY_OBJECT
  5
57
102
{ACAD_REACTORS
330
47
102
}
330
47
100
AcDbProxyObject
 90
      499
 91
      505
 95
   393239
 70
     0
 93
      113
310
90431303A310000000000000910100
  0
ACAD_PROXY_OBJECT
  5
58
102
{ACAD_REACTORS
330
47
102
}
330
47
100
AcDbProxyObject
 90
      499
 91
      505
 95
   393239
 70
     0
 93
      121
310
9053130303A310000000000001650100
  0
ACAD_PROXY_OBJECT
  5
28D
102
{ACAD_REACTORS
330
47
102
}
330
47
100
AcDbProxyObject
 90
      499
 91
      505
 95
   393239
 70
     0
 93
      257
310
90E312F31323822203D2031272D3022000000000000200FC000000000000284000
  0
ACAD_PROXY_OBJECT
  5
28E
102
{ACAD_REACTORS
330
47
102
}
330
47
100
AcDbProxyObject
 90
      499
 91
      505
 95
   393239
 70
     0
 93
      249
310
90D312F363422203D2031272D3022000000000000240FC000000000000284000
  0
ACAD_PROXY_OBJECT
  5
5B
102
{ACAD_REACTORS
330
47
102
}
330
47
100
AcDbProxyObject
 90
      499
 91
      505
 95
   393239
 70
     0
 93
      249
310
90D312F333222203D2031272D3022000000000000280FC000000000000284000
  0
ACAD_PROXY_OBJECT
  5
5C
102
{ACAD_REACTORS
330
47
102
}
330
47
100
AcDbProxyObject
 90
      499
 91
      505
 95
   393239
 70
     0
 93
      249
310
90D312F313622203D2031272D30220000000000002C0FC000000000000284000
  0
ACAD_PROXY_OBJECT
  5
5D
102
{ACAD_REACTORS
330
47
102
}
330
47
100
AcDbProxyObject
 90
      499
 91
      505
 95
   393239
 70
     0
 93
      249
310
90D332F333222203D2031272D30220000000000002E0FC000000000000284000
  0
ACAD_PROXY_OBJECT
  5
28F
102
{ACAD_REACTORS
330
47
102
}
330
47
100
AcDbProxyObject
 90
      499
 91
      505
 95
   393239
 70
     0
 93
      241
310
90C312F3822203D2031272D3022000000000000300FC000000000000284000
  0
ACAD_PROXY_OBJECT
  5
5F
102
{ACAD_REACTORS
330
47
102
}
330
47
100
AcDbProxyObject
 90
      499
 91
      505
 95
   393239
 70
     0
 93
      249
310
90D332F313622203D2031272D3022000000000000320FC000000000000284000
  0
ACAD_PROXY_OBJECT
  5
60
102
{ACAD_REACTORS
330
47
102
}
330
47
100
AcDbProxyObject
 90
      499
 91
      505
 95
   393239
 70
     0
 93
      241
310
90C312F3422203D2031272D3022000000000000340FC000000000000284000
  0
ACAD_PROXY_OBJECT
  5
61
102
{ACAD_REACTORS
330
47
102
}
330
47
100
AcDbProxyObject
 90
      499
 91
      505
 95
   393239
 70
     0
 93
      241
310
90C332F3822203D2031272D3022000000000000360FC000000000000284000
  0
ACAD_PROXY_OBJECT
  5
62
102
{ACAD_REACTORS
330
47
102
}
330
47
100
AcDbProxyObject
 90
      499
 91
      505
 95
   393239
 70
     0
 93
      241
310
90C312F3222203D2031272D3022000000000000380FC000000000000284000
  0
ACAD_PROXY_OBJECT
  5
63
102
{ACAD_REACTORS
330
47
102
}
330
47
100
AcDbProxyObject
 90
      499
 91
      505
 95
   393239
 70
     0
 93
      241
310
90C332F3422203D2031272D30220000000000003A0FC000000000000284000
  0
ACAD_PROXY_OBJECT
  5
64
102
{ACAD_REACTORS
330
47
102
}
330
47
100
AcDbProxyObject
 90
      499
 91
      505
 95
   393239
 70
     0
 93
      161
310
90A3122203D2031272D30224000000000000284000
  0
ACAD_PROXY_OBJECT
  5
65
102
{ACAD_REACTORS
330
47
102
}
330
47
100
AcDbProxyObject
 90
      499
 91
      505
 95
   393239
 70
     0
 93
      257
310
90E312D312F3222203D2031272D30220000000000003E0FC000000000000284000
  0
ACAD_PROXY_OBJECT
  5
66
102
{ACAD_REACTORS
330
47
102
}
330
47
100
AcDbProxyObject
 90
      499
 91
      505
 95
   393239
 70
     0
 93
      225
310
90A3322203D2031272D302200000000000002100000000000000284000
  0
ACAD_PROXY_OBJECT
  5
67
102
{ACAD_REACTORS
330
47
102
}
330
47
100
AcDbProxyObject
 90
      499
 91
      505
 95
   393239
 70
     0
 93
      225
310
90A3622203D2031272D302200000000000006100000000000000284000
  0
ACAD_PROXY_OBJECT
  5
68
102
{ACAD_REACTORS
330
47
102
}
330
47
100
AcDbProxyObject
 90
      499
 91
      505
 95
   393239
 70
     0
 93
      249
310
90D31272D3022203D2031272D30220000000000000A100000000000000284000
  0
TABLESTYLE
  5
93
102
{ACAD_REACTORS
330
92
102
}
330
92
100
AcDbTableStyle
  3
Standard
 70
     0
 71
     0
 40
0.06
 41
0.06
280
     0
281
     0
  7
Standard
140
0.18
170
     2
 62
     0
 63
     7
283
     0
274
    -2
284
     1
 64
     0
275
    -2
285
     1
 65
     0
276
    -2
286
     1
 66
     0
277
    -2
287
     1
 67
     0
278
    -2
288
     1
 68
     0
279
    -2
289
     1
 69
     0
  7
Standard
140
0.25
170
     5
 62
     0
 63
     7
283
     0
274
    -2
284
     1
 64
     0
275
    -2
285
     1
 65
     0
276
    -2
286
     1
 66
     0
277
    -2
287
     1
 67
     0
278
    -2
288
     1
 68
     0
279
    -2
289
     1
 69
     0
  7
Standard
140
0.18
170
     5
 62
     0
 63
     7
283
     0
274
    -2
284
     1
 64
     0
275
    -2
285
     1
 65
     0
276
    -2
286
     1
 66
     0
277
    -2
287
     1
 67
     0
278
    -2
288
     1
 68
     0
279
    -2
289
     1
 69
     0
  0
DICTIONARYVAR
  5
98
102
{ACAD_REACTORS
330
59
102
}
330
59
100
DictionaryVariables
280
     0
  1
STANDARD
  0
DICTIONARYVAR
  5
27A
102
{ACAD_REACTORS
330
59
102
}
330
59
100
DictionaryVariables
280
     0
  1
2
  0
ENDSEC
  0
EOF
