  0
SECTION
  2
HEADER
  9
$ACADVER
  1
AC1018
  9
$ACADMAINTVER
 70
    39
  9
$DWGCODEPAGE
  3
ANSI_1252
  9
$LASTSAVEDBY
  1
fottrem
  9
$INSBASE
 10
0.0
 20
0.0
 30
0.0
  9
$EXTMIN
 10
0.1653543307086614
 20
0.1653543307086614
 30
-0.058395840384703
  9
$EXTMAX
 10
59.83464566929134
 20
23.83464566929134
 30
0.1219944171796882
  9
$LIMMIN
 10
0.0
 20
0.0
  9
$LIMMAX
 10
60.0
 20
24.0
  9
$ORTHOMODE
 70
     0
  9
$REGENMODE
 70
     1
  9
$FILLMODE
 70
     1
  9
$QTEXTMODE
 70
     0
  9
$MIRRTEXT
 70
     1
  9
$LTSCALE
 40
1.0
  9
$ATTMODE
 70
     1
  9
$TEXTSIZE
 40
0.7500000000000001
  9
$TRACEWID
 40
0.05
  9
$TEXTSTYLE
  7
Standard
  9
$CLAYER
  8
0
  9
$CELTYPE
  6
ByLayer
  9
$CECOLOR
 62
   256
  9
$CELTSCALE
 40
1.0
  9
$DISPSILH
 70
     0
  9
$DIMSCALE
 40
1.0
  9
$DIMASZ
 40
0.7500000000000001
  9
$DIMEXO
 40
0.1666666666666667
  9
$DIMDLI
 40
0.38
  9
$DIMRND
 40
0.0
  9
$DIMDLE
 40
0.0
  9
$DIMEXE
 40
0.3750000000000001
  9
$DIMTP
 40
0.0
  9
$DIMTM
 40
0.0
  9
$DIMTXT
 40
0.7500000000000001
  9
$DIMCEN
 40
0.09
  9
$DIMTSZ
 40
0.0
  9
$DIMTOL
 70
     0
  9
$DIMLIM
 70
     0
  9
$DIMTIH
 70
     1
  9
$DIMTOH
 70
     1
  9
$DIMSE1
 70
     0
  9
$DIMSE2
 70
     0
  9
$DIMTAD
 70
     0
  9
$DIMZIN
 70
     1
  9
$DIMBLK
  1

  9
$DIMASO
 70
     1
  9
$DIMSHO
 70
     1
  9
$DIMPOST
  1

  9
$DIMAPOST
  1

  9
$DIMALT
 70
     0
  9
$DIMALTD
 70
     2
  9
$DIMALTF
 40
25.4
  9
$DIMLFAC
 40
1.0
  9
$DIMTOFL
 70
     0
  9
$DIMTVP
 40
0.0
  9
$DIMTIX
 70
     0
  9
$DIMSOXD
 70
     0
  9
$DIMSAH
 70
     0
  9
$DIMBLK1
  1

  9
$DIMBLK2
  1

  9
$DIMSTYLE
  2
Standard
  9
$DIMCLRD
 70
     0
  9
$DIMCLRE
 70
     0
  9
$DIMCLRT
 70
     0
  9
$DIMTFAC
 40
1.0
  9
$DIMGAP
 40
0.125
  9
$DIMJUST
 70
     0
  9
$DIMSD1
 70
     0
  9
$DIMSD2
 70
     0
  9
$DIMTOLJ
 70
     1
  9
$DIMTZIN
 70
     1
  9
$DIMALTZ
 70
     0
  9
$DIMALTTZ
 70
     0
  9
$DIMUPT
 70
     0
  9
$DIMDEC
 70
     2
  9
$DIMTDEC
 70
     2
  9
$DIMALTU
 70
     2
  9
$DIMALTTD
 70
     2
  9
$DIMTXSTY
  7
Standard
  9
$DIMAUNIT
 70
     0
  9
$DIMADEC
 70
     2
  9
$DIMALTRND
 40
0.0
  9
$DIMAZIN
 70
     0
  9
$DIMDSEP
 70
    46
  9
$DIMATFIT
 70
     3
  9
$DIMFRAC
 70
     0
  9
$DIMLDRBLK
  1

  9
$DIMLUNIT
 70
     2
  9
$DIMLWD
 70
    -2
  9
$DIMLWE
 70
    -2
  9
$DIMTMOVE
 70
     0
  9
$LUNITS
 70
     2
  9
$LUPREC
 70
     4
  9
$SKETCHINC
 40
0.1
  9
$FILLETRAD
 40
0.5
  9
$AUNITS
 70
     0
  9
$AUPREC
 70
     2
  9
$MENU
  1
.
  9
$ELEVATION
 40
0.0
  9
$PELEVATION
 40
0.0
  9
$THICKNESS
 40
0.0
  9
$LIMCHECK
 70
     0
  9
$CHAMFERA
 40
0.0
  9
$CHAMFERB
 40
0.0
  9
$CHAMFERC
 40
0.0
  9
$CHAMFERD
 40
0.0
  9
$SKPOLY
 70
     0
  9
$TDCREATE
 40
2453353.550459155
  9
$TDUCREATE
 40
2453353.717125822
  9
$TDUPDATE
 40
2459488.566072349
  9
$TDUUPDATE
 40
2459488.732739016
  9
$TDINDWG
 40
0.0428009375
  9
$TDUSRTIMER
 40
0.0428009375
  9
$USRTIMER
 70
     1
  9
$ANGBASE
 50
0.0
  9
$ANGDIR
 70
     0
  9
$PDMODE
 70
     0
  9
$PDSIZE
 40
-1.0
  9
$PLINEWID
 40
0.0
  9
$SPLFRAME
 70
     0
  9
$SPLINETYPE
 70
     6
  9
$SPLINESEGS
 70
     8
  9
$HANDSEED
  5
469
  9
$SURFTAB1
 70
     6
  9
$SURFTAB2
 70
     6
  9
$SURFTYPE
 70
     6
  9
$SURFU
 70
     6
  9
$SURFV
 70
     6
  9
$UCSBASE
  2

  9
$UCSNAME
  2

  9
$UCSORG
 10
0.0
 20
0.0
 30
0.0
  9
$UCSXDIR
 10
1.0
 20
0.0
 30
0.0
  9
$UCSYDIR
 10
0.0
 20
1.0
 30
0.0
  9
$UCSORTHOREF
  2

  9
$UCSORTHOVIEW
 70
     0
  9
$UCSORGTOP
 10
0.0
 20
0.0
 30
0.0
  9
$UCSORGBOTTOM
 10
0.0
 20
0.0
 30
0.0
  9
$UCSORGLEFT
 10
0.0
 20
0.0
 30
0.0
  9
$UCSORGRIGHT
 10
0.0
 20
0.0
 30
0.0
  9
$UCSORGFRONT
 10
0.0
 20
0.0
 30
0.0
  9
$UCSORGBACK
 10
0.0
 20
0.0
 30
0.0
  9
$PUCSBASE
  2

  9
$PUCSNAME
  2

  9
$PUCSORG
 10
0.0
 20
0.0
 30
0.0
  9
$PUCSXDIR
 10
1.0
 20
0.0
 30
0.0
  9
$PUCSYDIR
 10
0.0
 20
1.0
 30
0.0
  9
$PUCSORTHOREF
  2

  9
$PUCSORTHOVIEW
 70
     0
  9
$PUCSORGTOP
 10
0.0
 20
0.0
 30
0.0
  9
$PUCSORGBOTTOM
 10
0.0
 20
0.0
 30
0.0
  9
$PUCSORGLEFT
 10
0.0
 20
0.0
 30
0.0
  9
$PUCSORGRIGHT
 10
0.0
 20
0.0
 30
0.0
  9
$PUCSORGFRONT
 10
0.0
 20
0.0
 30
0.0
  9
$PUCSORGBACK
 10
0.0
 20
0.0
 30
0.0
  9
$USERI1
 70
     0
  9
$USERI2
 70
     0
  9
$USERI3
 70
     0
  9
$USERI4
 70
     0
  9
$USERI5
 70
     0
  9
$USERR1
 40
0.0
  9
$USERR2
 40
0.0
  9
$USERR3
 40
0.0
  9
$USERR4
 40
0.0
  9
$USERR5
 40
0.0
  9
$WORLDVIEW
 70
     1
  9
$SHADEDGE
 70
     3
  9
$SHADEDIF
 70
    70
  9
$TILEMODE
 70
     1
  9
$MAXACTVP
 70
    64
  9
$PINSBASE
 10
0.0
 20
0.0
 30
0.0
  9
$PLIMCHECK
 70
     0
  9
$PEXTMIN
 10
1.000000000000000E+20
 20
1.000000000000000E+20
 30
1.000000000000000E+20
  9
$PEXTMAX
 10
-1.000000000000000E+20
 20
-1.000000000000000E+20
 30
-1.000000000000000E+20
  9
$PLIMMIN
 10
0.0
 20
0.0
  9
$PLIMMAX
 10
12.0
 20
9.0
  9
$UNITMODE
 70
     0
  9
$VISRETAIN
 70
     1
  9
$PLINEGEN
 70
     0
  9
$PSLTSCALE
 70
     1
  9
$TREEDEPTH
 70
  3020
  9
$CMLSTYLE
  2
Standard
  9
$CMLJUST
 70
     0
  9
$CMLSCALE
 40
1.0
  9
$PROXYGRAPHICS
 70
     1
  9
$MEASUREMENT
 70
     0
  9
$CELWEIGHT
370
    -1
  9
$ENDCAPS
280
     0
  9
$JOINSTYLE
280
     0
  9
$LWDISPLAY
290
     1
  9
$INSUNITS
 70
     1
  9
$HYPERLINKBASE
  1

  9
$STYLESHEET
  1

  9
$XEDIT
290
     0
  9
$CEPSNTYPE
380
     0
  9
$PSTYLEMODE
290
     1
  9
$FINGERPRINTGUID
  2
{615f3a5b-15b0-4a6b-b9a1-0b10faf3121e}
  9
$VERSIONGUID
  2
{FAEB1C32-E019-11D5-929B-00C0DF256EC4}
  9
$EXTNAMES
290
     1
  9
$PSVPSCALE
 40
0.0
  9
$OLESTARTUP
290
     0
  9
$SORTENTS
280
   127
  9
$INDEXCTL
280
     0
  9
$HIDETEXT
280
     1
  9
$XCLIPFRAME
290
     0
  9
$HALOGAP
280
     0
  9
$OBSCOLOR
 70
   257
  9
$OBSLTYPE
280
     0
  9
$INTERSECTIONDISPLAY
280
     0
  9
$INTERSECTIONCOLOR
 70
   257
  9
$DIMASSOC
280
     2
  9
$PROJECTNAME
  1

  0
ENDSEC
  0
SECTION
  2
CLASSES
  0
CLASS
  1
ACDBDICTIONARYWDFLT
  2
AcDbDictionaryWithDefault
  3
ObjectDBX Classes
 90
        0
 91
        3
280
     0
281
     0
  0
CLASS
  1
ACDBPLACEHOLDER
  2
AcDbPlaceHolder
  3
ObjectDBX Classes
 90
        0
 91
        1
280
     0
281
     0
  0
CLASS
  1
LAYOUT
  2
AcDbLayout
  3
ObjectDBX Classes
 90
        0
 91
        1
280
     0
281
     0
  0
CLASS
  1
DICTIONARYVAR
  2
AcDbDictionaryVar
  3
ObjectDBX Classes
 90
        0
 91
        3
280
     0
281
     0
  0
CLASS
  1
TABLESTYLE
  2
AcDbTableStyle
  3
ObjectDBX Classes
 90
     2047
 91
        3
280
     0
281
     0
  0
CLASS
  1
SCALE
  2
AcDbScale
  3
ObjectDBX Classes
 90
     1153
 91
       67
280
     1
281
     0
  0
ENDSEC
  0
SECTION
  2
TABLES
  0
TABLE
  2
VPORT
  5
8
330
0
100
AcDbSymbolTable
 70
     2
  0
VPORT
  5
97
330
8
100
AcDbSymbolTableRecord
100
AcDbViewportTableRecord
  2
*Active
 70
     0
 10
0.0
 20
0.0
 11
1.0
 21
1.0
 12
30.0
 22
12.0
 13
0.0
 23
0.0
 14
0.5
 24
0.5
 15
0.5
 25
0.5
 16
0.0
 26
0.0
 36
1.0
 17
0.0
 27
0.0
 37
0.0
 40
24.14267716535433
 41
2.5
 42
50.0
 43
0.0
 44
0.0
 50
0.0
 51
0.0
 71
    16
 72
  2000
 73
     1
 74
     1
 75
     0
 76
     0
 77
     0
 78
     0
281
     0
 65
     0
110
0.0
120
0.0
130
0.0
111
1.0
121
0.0
131
0.0
112
0.0
122
1.0
132
0.0
 79
     0
146
0.0
  0
ENDTAB
  0
TABLE
  2
LTYPE
  5
5
330
0
100
AcDbSymbolTable
 70
     8
  0
LTYPE
  5
14
330
5
100
AcDbSymbolTableRecord
100
AcDbLinetypeTableRecord
  2
ByBlock
 70
     0
  3

 72
    65
 73
     0
 40
0.0
  0
LTYPE
  5
15
330
5
100
AcDbSymbolTableRecord
100
AcDbLinetypeTableRecord
  2
ByLayer
 70
     0
  3

 72
    65
 73
     0
 40
0.0
  0
LTYPE
  5
16
330
5
100
AcDbSymbolTableRecord
100
AcDbLinetypeTableRecord
  2
Continuous
 70
     0
  3
Solid line
 72
    65
 73
     0
 40
0.0
  0
LTYPE
  5
445
330
5
100
AcDbSymbolTableRecord
100
AcDbLinetypeTableRecord
  2
SLD-Solid
 70
     0
  3
SolidWorks Line Style
 72
    65
 73
     0
 40
0.0
  0
LTYPE
  5
446
330
5
100
AcDbSymbolTableRecord
100
AcDbLinetypeTableRecord
  2
SLD-Dashed
 70
     0
  3
SolidWorks Line Style
 72
    65
 73
     2
 40
0.075
 49
0.05
 74
     4
 75
     0
340
0
 46
1.0
 50
0.0
 44
0.0
 45
0.0
 49
-0.025
 74
     4
 75
     0
340
0
 46
1.0
 50
0.0
 44
0.0
 45
0.0
  0
LTYPE
  5
447
330
5
100
AcDbSymbolTableRecord
100
AcDbLinetypeTableRecord
  2
SLD-Phantom
 70
     0
  3
SolidWorks Line Style
 72
    65
 73
     6
 40
0.4999999999999999
 49
0.25
 74
     4
 75
     0
340
0
 46
1.0
 50
0.0
 44
0.0
 45
0.0
 49
-0.05
 74
     4
 75
     0
340
0
 46
1.0
 50
0.0
 44
0.0
 45
0.0
 49
0.05
 74
     4
 75
     0
340
0
 46
1.0
 50
0.0
 44
0.0
 45
0.0
 49
-0.05
 74
     4
 75
     0
340
0
 46
1.0
 50
0.0
 44
0.0
 45
0.0
 49
0.05
 74
     4
 75
     0
340
0
 46
1.0
 50
0.0
 44
0.0
 45
0.0
 49
-0.05
 74
     4
 75
     0
340
0
 46
1.0
 50
0.0
 44
0.0
 45
0.0
  0
LTYPE
  5
448
330
5
100
AcDbSymbolTableRecord
100
AcDbLinetypeTableRecord
  2
SLD-Chain
 70
     0
  3
SolidWorks Line Style
 72
    65
 73
     4
 40
0.4
 49
0.25
 74
     4
 75
     0
340
0
 46
1.0
 50
0.0
 44
0.0
 45
0.0
 49
-0.05
 74
     4
 75
     0
340
0
 46
1.0
 50
0.0
 44
0.0
 45
0.0
 49
0.05
 74
     4
 75
     0
340
0
 46
1.0
 50
0.0
 44
0.0
 45
0.0
 49
-0.05
 74
     4
 75
     0
340
0
 46
1.0
 50
0.0
 44
0.0
 45
0.0
  0
LTYPE
  5
449
330
5
100
AcDbSymbolTableRecord
100
AcDbLinetypeTableRecord
  2
SLD-Center
 70
     0
  3
SolidWorks Line Style
 72
    65
 73
     4
 40
0.7500000000000002
 49
0.6000000000000001
 74
     4
 75
     0
340
0
 46
1.0
 50
0.0
 44
0.0
 45
0.0
 49
-0.05
 74
     4
 75
     0
340
0
 46
1.0
 50
0.0
 44
0.0
 45
0.0
 49
0.05
 74
     4
 75
     0
340
0
 46
1.0
 50
0.0
 44
0.0
 45
0.0
 49
-0.05
 74
     4
 75
     0
340
0
 46
1.0
 50
0.0
 44
0.0
 45
0.0
  0
LTYPE
  5
44A
330
5
100
AcDbSymbolTableRecord
100
AcDbLinetypeTableRecord
  2
SLD-Stitch
 70
     0
  3
SolidWorks Line Style
 72
    65
 73
     2
 40
0.025
 49
0.0
 74
     4
 75
     0
340
0
 46
1.0
 50
0.0
 44
0.0
 45
0.0
 49
-0.025
 74
     4
 75
     0
340
0
 46
1.0
 50
0.0
 44
0.0
 45
0.0
  0
LTYPE
  5
44B
330
5
100
AcDbSymbolTableRecord
100
AcDbLinetypeTableRecord
  2
SLD-Thin-Thick-Chain
 70
     0
  3
SolidWorks Line Style
 72
    65
 73
     4
 40
0.4
 49
0.25
 74
     4
 75
     0
340
0
 46
1.0
 50
0.0
 44
0.0
 45
0.0
 49
-0.05
 74
     4
 75
     0
340
0
 46
1.0
 50
0.0
 44
0.0
 45
0.0
 49
0.05
 74
     4
 75
     0
340
0
 46
1.0
 50
0.0
 44
0.0
 45
0.0
 49
-0.05
 74
     4
 75
     0
340
0
 46
1.0
 50
0.0
 44
0.0
 45
0.0
  0
ENDTAB
  0
TABLE
  2
LAYER
  5
2
330
0
100
AcDbSymbolTable
 70
     6
  0
LAYER
  5
10
330
2
100
AcDbSymbolTableRecord
100
AcDbLayerTableRecord
  2
0
 70
     0
 62
     7
  6
Continuous
370
    -3
390
F
  0
LAYER
  5
44C
330
2
100
AcDbSymbolTableRecord
100
AcDbLayerTableRecord
  2
FORMAT
 70
     0
 62
     7
  6
SLD-Solid
370
    -3
390
F
  0
LAYER
  5
44D
330
2
100
AcDbSymbolTableRecord
100
AcDbLayerTableRecord
  2
NOTES
 70
     0
 62
     1
  6
SLD-Solid
370
    -3
390
F
  0
LAYER
  5
77
330
2
100
AcDbSymbolTableRecord
100
AcDbLayerTableRecord
  2
OBJECT
 70
     0
 62
     7
  6
SLD-Solid
370
    -3
390
F
  0
LAYER
  5
78
330
2
100
AcDbSymbolTableRecord
100
AcDbLayerTableRecord
  2
DIMS
 70
     0
 62
     5
  6
SLD-Solid
370
    -3
390
F
  0
LAYER
  5
79
330
2
100
AcDbSymbolTableRecord
100
AcDbLayerTableRecord
  2
TITLE
 70
     0
 62
     8
  6
SLD-Solid
370
    -3
390
F
  0
ENDTAB
  0
TABLE
  2
STYLE
  5
3
330
0
100
AcDbSymbolTable
 70
     5
  0
STYLE
  5
11
330
3
100
AcDbSymbolTableRecord
100
AcDbTextStyleTableRecord
  2
Standard
 70
     0
 40
0.0
 41
1.0
 50
0.0
 71
     0
 42
0.7500000000000001
  3
GOTHIC.TTF
  4

1001
ACAD
1000
CENTURY GOTHIC
1071
       34
  0
STYLE
  5
DD
330
3
100
AcDbSymbolTableRecord
100
AcDbTextStyleTableRecord
  2
SLDTEXTSTYLE0
 70
     0
 40
0.0
 41
0.948
 50
0.0
 71
     0
 42
0.7500000000000001
  3
ARIAL.TTF
  4

1001
ACAD
1000
Arial
1071
      290
  0
STYLE
  5
E1
330
3
100
AcDbSymbolTableRecord
100
AcDbTextStyleTableRecord
  2
SLDTEXTSTYLE1
 70
     0
 40
0.0
 41
0.913
 50
0.0
 71
     0
 42
0.7500000000000001
  3
GOTHIC.TTF
  4

1001
ACAD
1000
Century Gothic
1071
      290
  0
STYLE
  5
F0
330
3
100
AcDbSymbolTableRecord
100
AcDbTextStyleTableRecord
  2
SLDTEXTSTYLE2
 70
     0
 40
0.0
 41
0.87
 50
0.0
 71
     0
 42
0.7500000000000001
  3
ARIALNB.TTF
  4

1001
ACAD
1000
Arial Narrow
1071
 33554722
  0
STYLE
  5
F2
330
3
100
AcDbSymbolTableRecord
100
AcDbTextStyleTableRecord
  2
SLDTEXTSTYLE3
 70
     0
 40
0.0
 41
0.87
 50
0.0
 71
     0
 42
0.7500000000000001
  3
ARIALN.TTF
  4

1001
ACAD
1000
Arial Narrow
1071
      290
  0
ENDTAB
  0
TABLE
  2
VIEW
  5
6
330
0
100
AcDbSymbolTable
 70
     0
  0
ENDTAB
  0
TABLE
  2
UCS
  5
7
330
0
100
AcDbSymbolTable
 70
     0
  0
ENDTAB
  0
TABLE
  2
APPID
  5
9
330
0
100
AcDbSymbolTable
 70
     1
  0
APPID
  5
12
330
9
100
AcDbSymbolTableRecord
100
AcDbRegAppTableRecord
  2
ACAD
 70
     0
  0
ENDTAB
  0
TABLE
  2
DIMSTYLE
  5
A
330
0
100
AcDbSymbolTable
 70
     2
100
AcDbDimStyleTable
  0
DIMSTYLE
105
27
330
A
100
AcDbSymbolTableRecord
100
AcDbDimStyleTableRecord
  2
Standard
 70
     0
340
11
  0
DIMSTYLE
105
231
102
{ACAD_REACTORS
330
230
330
2D8
330
42F
102
}
330
A
100
AcDbSymbolTableRecord
100
AcDbDimStyleTableRecord
  2
SLDDIMSTYLE0
 70
     0
 41
0.7500000000000001
 44
0.0
 45
0.000000001
 78
    12
 79
     3
140
0.7500000000000001
147
0.1875
173
     1
271
     6
272
     2
276
     2
277
     5
284
    12
340
E1
341
44E
343
44E
344
44E
  0
ENDTAB
  0
TABLE
  2
BLOCK_RECORD
  5
1
330
0
100
AcDbSymbolTable
 70
     8
  0
BLOCK_RECORD
  5
1F
330
1
100
AcDbSymbolTableRecord
100
AcDbBlockTableRecord
  2
*Model_Space
340
22
  0
BLOCK_RECORD
  5
73
330
1
100
AcDbSymbolTableRecord
100
AcDbBlockTableRecord
  2
*Paper_Space
340
74
  0
BLOCK_RECORD
  5
44E
330
1
100
AcDbSymbolTableRecord
100
AcDbBlockTableRecord
  2
_Open90
340
0
102
{BLKREFS
331
23B
331
23C
331
2DC
331
2DD
331
433
331
434
102
}
  0
BLOCK_RECORD
  5
23
330
1
100
AcDbSymbolTableRecord
100
AcDbBlockTableRecord
  2
*Paper_Space1
340
26
  0
BLOCK_RECORD
  5
E7
330
1
100
AcDbSymbolTableRecord
100
AcDbBlockTableRecord
  2
SW_NOTE_0
340
0
  0
BLOCK_RECORD
  5
ED
330
1
100
AcDbSymbolTableRecord
100
AcDbBlockTableRecord
  2
SW_NOTE_0_1
340
0
102
{BLKREFS
331
F6
102
}
  0
BLOCK_RECORD
  5
238
330
1
100
AcDbSymbolTableRecord
100
AcDbBlockTableRecord
  2
_D
340
0
  0
BLOCK_RECORD
  5
2D9
330
1
100
AcDbSymbolTableRecord
100
AcDbBlockTableRecord
  2
_D_1
340
0
  0
BLOCK_RECORD
  5
387
330
1
100
AcDbSymbolTableRecord
100
AcDbBlockTableRecord
  2
SW_NOTE_0_2
340
0
102
{BLKREFS
331
38C
102
}
  0
BLOCK_RECORD
  5
430
330
1
100
AcDbSymbolTableRecord
100
AcDbBlockTableRecord
  2
_D_2
340
0
  0
ENDTAB
  0
ENDSEC
  0
SECTION
  2
BLOCKS
  0
BLOCK
  5
20
330
1F
100
AcDbEntity
  8
0
100
AcDbBlockBegin
  2
*Model_Space
 70
     0
 71
     0
 10
0.0
 20
0.0
 30
0.0
  3
*Model_Space
  1

  0
ENDBLK
  5
21
330
1F
100
AcDbEntity
  8
0
100
AcDbBlockEnd
  0
BLOCK
  5
75
330
73
100
AcDbEntity
 67
     1
  8
0
100
AcDbBlockBegin
  2
*Paper_Space
 70
     0
 71
     0
 10
0.0
 20
0.0
 30
0.0
  3
*Paper_Space
  1

  0
ENDBLK
  5
76
330
73
100
AcDbEntity
 67
     1
  8
0
100
AcDbBlockEnd
  0
BLOCK
  5
44F
330
44E
100
AcDbEntity
  8
0
100
AcDbBlockBegin
  2
_Open90
 70
     0
 71
     0
 10
0.0
 20
0.0
 30
0.0
  3
_Open90
  1

  0
LINE
  5
235
330
44E
100
AcDbEntity
  8
0
  6
ByBlock
 62
     0
370
    -2
100
AcDbLine
 10
-0.5
 20
0.5
 30
0.0
 11
0.0
 21
0.0
 31
0.0
  0
LINE
  5
236
330
44E
100
AcDbEntity
  8
0
  6
ByBlock
 62
     0
370
    -2
100
AcDbLine
 10
0.0
 20
0.0
 30
0.0
 11
-0.5
 21
-0.5
 31
0.0
  0
LINE
  5
237
330
44E
100
AcDbEntity
  8
0
  6
ByBlock
 62
     0
370
    -2
100
AcDbLine
 10
0.0
 20
0.0
 30
0.0
 11
-1.0
 21
0.0
 31
0.0
  0
ENDBLK
  5
450
330
44E
100
AcDbEntity
  8
0
100
AcDbBlockEnd
  0
BLOCK
  5
457
330
23
100
AcDbEntity
  8
0
100
AcDbBlockBegin
  2
*Paper_Space1
 70
     0
 71
     0
 10
0.0
 20
0.0
 30
0.0
  3
*Paper_Space1
  1

  0
ENDBLK
  5
458
330
23
100
AcDbEntity
  8
0
100
AcDbBlockEnd
  0
BLOCK
  5
459
330
E7
100
AcDbEntity
  8
0
100
AcDbBlockBegin
  2
SW_NOTE_0
 70
     0
 71
     0
 10
0.0
 20
0.0
 30
0.0
  3
SW_NOTE_0
  1

  0
MTEXT
  5
EA
330
E7
100
AcDbEntity
  8
NOTES
 62
     0
100
AcDbMText
 10
0.0
 20
0.3759780907668229
 30
0.0
 40
0.2916666666666666
 41
0.0
 71
     1
 72
     1
  1
FROST PRODUCTS LTD.
  7
SLDTEXTSTYLE0
 73
     1
 44
1.0
  0
MTEXT
  5
EB
330
E7
100
AcDbEntity
  8
NOTES
 62
     0
100
AcDbMText
 10
0.0
 20
-0.0495142708586375
 30
0.0
 40
0.2291666666666666
 41
0.0
 71
     1
 72
     1
  1
5280 JOHN LUCUS DRIVE, BURLINGTON, ON, L7L 5Z9
  7
SLDTEXTSTYLE0
 73
     1
 44
1.0
  0
ENDBLK
  5
45A
330
E7
100
AcDbEntity
  8
0
100
AcDbBlockEnd
  0
BLOCK
  5
45B
330
ED
100
AcDbEntity
  8
0
100
AcDbBlockBegin
  2
SW_NOTE_0_1
 70
     0
 71
     0
 10
0.0
 20
0.0
 30
0.0
  3
SW_NOTE_0_1
  1

  0
MTEXT
  5
F1
330
ED
100
AcDbEntity
  8
NOTES
 62
     0
100
AcDbMText
 10
0.0
 20
0.2381282770514712
 30
0.0
 40
0.1847290640394089
 41
0.0
 71
     1
 72
     1
  1
PROPRIETARY AND CONFIDENTIAL
  7
SLDTEXTSTYLE2
 73
     1
 44
1.0
  0
MTEXT
  5
F3
330
ED
100
AcDbEntity
  8
NOTES
 62
     0
100
AcDbMText
 10
0.0
 20
-0.0504364795553608
 30
0.0
 40
0.25
 41
0.0
 71
     1
 72
     1
  1
THE INFORMATION CONTAINED IN THIS DRAWING IS THE SOLE PROPERTY OF 
  7
SLDTEXTSTYLE3
 73
     1
 44
1.0
  0
MTEXT
  5
F4
330
ED
100
AcDbEntity
  8
NOTES
 62
     0
100
AcDbMText
 10
0.0
 20
-0.4231398940537119
 30
0.0
 40
0.25
 41
0.0
 71
     1
 72
     1
  1
FROST PRODUCTS LTD.  ANY REPRODUCTION IN PART OR AS A WHOLE WITHOUT 
  7
SLDTEXTSTYLE3
 73
     1
 44
1.0
  0
MTEXT
  5
F5
330
ED
100
AcDbEntity
  8
NOTES
 62
     0
100
AcDbMText
 10
0.0
 20
-0.7958433085520636
 30
0.0
 40
0.25
 41
0.0
 71
     1
 72
     1
  1
THE WRITTEN PERMISSION OF FROST PRODUCTS LTD. IS PROHIBITED.
  7
SLDTEXTSTYLE3
 73
     1
 44
1.0
  0
ENDBLK
  5
45C
330
ED
100
AcDbEntity
  8
0
100
AcDbBlockEnd
  0
BLOCK
  5
45D
330
238
100
AcDbEntity
  8
0
100
AcDbBlockBegin
  2
_D
 70
     0
 71
     0
 10
0.0
 20
0.0
 30
0.0
  3
_D
  1

  0
INSERT
  5
23B
330
238
100
AcDbEntity
  8
DIMS
100
AcDbBlockReference
  2
_Open90
 10
12.14838802987959
 20
16.59783626544855
 30
-0.058395840384703
 41
0.7500000000000001
 42
0.7500000000000001
 50
90.00000000000041
  0
INSERT
  5
23C
330
238
100
AcDbEntity
  8
DIMS
100
AcDbBlockReference
  2
_Open90
 10
12.14838802987959
 20
9.416822670875751
 30
-0.058395840384703
 41
0.7500000000000001
 42
0.7500000000000001
 50
270.0000000000004
  0
LINE
  5
23D
330
238
100
AcDbEntity
  8
DIMS
100
AcDbLine
 10
11.60672132392625
 20
13.02209935636137
 30
0.0
 11
12.93484642131179
 21
13.02209935636137
 31
0.0
  0
LINE
  5
23E
330
238
100
AcDbEntity
  8
DIMS
100
AcDbLine
 10
9.936690285868622
 20
16.59783626544855
 30
0.0
 11
12.52338802987959
 21
16.59783626544855
 31
0.0
  0
LINE
  5
23F
330
238
100
AcDbEntity
  8
DIMS
100
AcDbLine
 10
9.830244446565795
 20
9.416822670875751
 30
0.0
 11
12.52338802987959
 21
9.416822670875751
 31
0.0
  0
LINE
  5
240
330
238
100
AcDbEntity
  8
DIMS
100
AcDbLine
 10
12.14838802987959
 20
16.59783626544855
 30
0.0
 11
12.14838802987959
 21
13.92595354329401
 31
0.0
  0
LINE
  5
241
330
238
100
AcDbEntity
  8
DIMS
100
AcDbLine
 10
12.14838802987959
 20
9.416822670875751
 30
0.0
 11
12.14838802987959
 21
11.96439093676596
 31
0.0
  0
MTEXT
  5
242
330
238
100
AcDbEntity
  8
DIMS
100
AcDbMText
 10
10.94265881189972
 20
13.36620094242515
 30
0.0
 40
0.7500000000000001
 41
0.0
 71
     1
 72
     1
  1
7
  7
SLDTEXTSTYLE1
 73
     1
 44
1.0
  0
MTEXT
  5
243
330
238
100
AcDbEntity
  8
DIMS
100
AcDbMText
 10
11.99370053850934
 20
13.91416967724356
 30
0.0
 40
0.7500000000000001
 41
0.0
 71
     1
 72
     1
  1
3
  7
SLDTEXTSTYLE1
 73
     1
 44
1.0
  0
MTEXT
  5
244
330
238
100
AcDbEntity
  8
DIMS
100
AcDbMText
 10
11.71661720439966
 20
12.92239881114024
 30
0.0
 40
0.7500000000000001
 41
0.0
 71
     1
 72
     1
  1
16
  7
SLDTEXTSTYLE1
 73
     1
 44
1.0
  0
MTEXT
  5
245
330
238
100
AcDbEntity
  8
DIMS
100
AcDbMText
 10
13.0447423017852
 20
13.36620094242515
 30
0.0
 40
0.7500000000000001
 41
0.0
 71
     1
 72
     1
  1
"
  7
SLDTEXTSTYLE1
 73
     1
 44
1.0
  0
ENDBLK
  5
45E
330
238
100
AcDbEntity
  8
0
100
AcDbBlockEnd
  0
BLOCK
  5
45F
330
2D9
100
AcDbEntity
  8
0
100
AcDbBlockBegin
  2
_D_1
 70
     0
 71
     0
 10
0.0
 20
0.0
 30
0.0
  3
_D_1
  1

  0
INSERT
  5
2DC
330
2D9
100
AcDbEntity
  8
DIMS
100
AcDbBlockReference
  2
_Open90
 10
20.09209106532262
 20
18.17264039930682
 30
0.1219944171796882
 41
0.7500000000000001
 42
0.7500000000000001
 50
180.0000000000004
  0
INSERT
  5
2DD
330
2D9
100
AcDbEntity
  8
DIMS
100
AcDbBlockReference
  2
_Open90
 10
24.1284997757322
 20
18.17264039930682
 30
0.1219944171796882
 41
0.7500000000000001
 42
0.7500000000000001
 50
0.0000000000004071
  0
LINE
  5
2DE
330
2D9
100
AcDbEntity
  8
DIMS
100
AcDbLine
 10
21.65585020595137
 20
18.2495675156382
 30
0.0
 11
22.98397530333691
 21
18.2495675156382
 31
0.0
  0
LINE
  5
2DF
330
2D9
100
AcDbEntity
  8
DIMS
100
AcDbLine
 10
20.09209106532262
 20
16.3139414115387
 30
0.0
 11
20.09209106532262
 21
18.54764039930682
 31
0.0
  0
LINE
  5
2E0
330
2D9
100
AcDbEntity
  8
DIMS
100
AcDbLine
 10
24.1284997757322
 20
16.3139414115387
 30
0.0
 11
24.1284997757322
 21
18.54764039930682
 31
0.0
  0
LINE
  5
2E1
330
2D9
100
AcDbEntity
  8
DIMS
100
AcDbLine
 10
20.09209106532262
 20
18.17264039930682
 30
0.0
 11
20.99178769392485
 21
18.17264039930682
 31
0.0
  0
LINE
  5
2E2
330
2D9
100
AcDbEntity
  8
DIMS
100
AcDbLine
 10
24.1284997757322
 20
18.17264039930682
 30
0.0
 11
23.40324612988454
 21
18.17264039930682
 31
0.0
  0
MTEXT
  5
2E3
330
2D9
100
AcDbEntity
  8
DIMS
100
AcDbMText
 10
20.99178769392484
 20
18.59366910170198
 30
0.0
 40
0.7500000000000001
 41
0.0
 71
     1
 72
     1
  1
4
  7
SLDTEXTSTYLE1
 73
     1
 44
1.0
  0
MTEXT
  5
2E4
330
2D9
100
AcDbEntity
  8
DIMS
100
AcDbMText
 10
22.04282942053446
 20
19.1416378365204
 30
0.0
 40
0.7500000000000001
 41
0.0
 71
     1
 72
     1
  1
1
  7
SLDTEXTSTYLE1
 73
     1
 44
1.0
  0
MTEXT
  5
2E5
330
2D9
100
AcDbEntity
  8
DIMS
100
AcDbMText
 10
21.76574608642478
 20
18.14986697041708
 30
0.0
 40
0.7500000000000001
 41
0.0
 71
     1
 72
     1
  1
16
  7
SLDTEXTSTYLE1
 73
     1
 44
1.0
  0
MTEXT
  5
2E6
330
2D9
100
AcDbEntity
  8
DIMS
100
AcDbMText
 10
23.09387118381032
 20
18.59366910170198
 30
0.0
 40
0.7500000000000001
 41
0.0
 71
     1
 72
     1
  1
"
  7
SLDTEXTSTYLE1
 73
     1
 44
1.0
  0
ENDBLK
  5
460
330
2D9
100
AcDbEntity
  8
0
100
AcDbBlockEnd
  0
BLOCK
  5
461
330
387
100
AcDbEntity
  8
0
100
AcDbBlockBegin
  2
SW_NOTE_0_2
 70
     0
 71
     0
 10
0.0
 20
0.0
 30
0.0
  3
SW_NOTE_0_2
  1

  0
MTEXT
  5
38A
330
387
100
AcDbEntity
  8
NOTES
 62
     0
100
AcDbMText
 10
0.0
 20
0.9580078124999996
 30
0.0
 40
0.7500000000000001
 41
0.0
 71
     1
 72
     1
  1
3D view
  7
SLDTEXTSTYLE1
 73
     1
 44
1.0
  0
MTEXT
  5
38B
330
387
100
AcDbEntity
  8
NOTES
 62
     0
100
AcDbMText
 10
0.0
 20
-0.291992227392873
 30
0.0
 40
0.7500000000000001
 41
0.0
 71
     1
 72
     1
  1
code 195
  7
SLDTEXTSTYLE1
 73
     1
 44
1.0
  0
ENDBLK
  5
462
330
387
100
AcDbEntity
  8
0
100
AcDbBlockEnd
  0
BLOCK
  5
463
330
430
100
AcDbEntity
  8
0
100
AcDbBlockBegin
  2
_D_2
 70
     0
 71
     0
 10
0.0
 20
0.0
 30
0.0
  3
_D_2
  1

  0
INSERT
  5
433
330
430
100
AcDbEntity
  8
DIMS
100
AcDbBlockReference
  2
_Open90
 10
34.56407027903062
 20
18.17264039930682
 30
0.0583958403847022
 41
0.7500000000000001
 42
0.7500000000000001
 50
180.0000000000004
  0
INSERT
  5
434
330
430
100
AcDbEntity
  8
DIMS
100
AcDbBlockReference
  2
_Open90
 10
38.26587027903064
 20
18.17264039930682
 30
0.0583958403847022
 41
0.7500000000000001
 42
0.7500000000000001
 50
0.0000000000004071
  0
LINE
  5
435
330
430
100
AcDbEntity
  8
DIMS
100
AcDbLine
 10
35.9493086662673
 20
18.2495675156382
 30
0.0
 11
37.27743376365284
 21
18.2495675156382
 31
0.0
  0
LINE
  5
436
330
430
100
AcDbEntity
  8
DIMS
100
AcDbLine
 10
34.56407027903062
 20
16.66960308836674
 30
0.0
 11
34.56407027903062
 21
18.54764039930682
 31
0.0
  0
LINE
  5
437
330
430
100
AcDbEntity
  8
DIMS
100
AcDbLine
 10
38.26587027903064
 20
16.66960293211521
 30
0.0
 11
38.26587027903064
 21
18.54764039930682
 31
0.0
  0
LINE
  5
438
330
430
100
AcDbEntity
  8
DIMS
100
AcDbLine
 10
34.56407027903062
 20
18.17264039930682
 30
0.0
 11
35.28524615424078
 21
18.17264039930682
 31
0.0
  0
LINE
  5
439
330
430
100
AcDbEntity
  8
DIMS
100
AcDbLine
 10
38.26587027903064
 20
18.17264039930682
 30
0.0
 11
37.69670459020047
 21
18.17264039930682
 31
0.0
  0
MTEXT
  5
43A
330
430
100
AcDbEntity
  8
DIMS
100
AcDbMText
 10
35.28524615424077
 20
18.59366910170198
 30
0.0
 40
0.7500000000000001
 41
0.0
 71
     1
 72
     1
  1
3
  7
SLDTEXTSTYLE1
 73
     1
 44
1.0
  0
MTEXT
  5
43B
330
430
100
AcDbEntity
  8
DIMS
100
AcDbMText
 10
36.05920454674071
 20
19.1416378365204
 30
0.0
 40
0.7500000000000001
 41
0.0
 71
     1
 72
     1
  1
11
  7
SLDTEXTSTYLE1
 73
     1
 44
1.0
  0
MTEXT
  5
43C
330
430
100
AcDbEntity
  8
DIMS
100
AcDbMText
 10
36.05920454674071
 20
18.14986697041708
 30
0.0
 40
0.7500000000000001
 41
0.0
 71
     1
 72
     1
  1
16
  7
SLDTEXTSTYLE1
 73
     1
 44
1.0
  0
MTEXT
  5
43D
330
430
100
AcDbEntity
  8
DIMS
100
AcDbMText
 10
37.38732964412625
 20
18.59366910170198
 30
0.0
 40
0.7500000000000001
 41
0.0
 71
     1
 72
     1
  1
"
  7
SLDTEXTSTYLE1
 73
     1
 44
1.0
  0
ENDBLK
  5
464
330
430
100
AcDbEntity
  8
0
100
AcDbBlockEnd
  0
ENDSEC
  0
SECTION
  2
ENTITIES
  0
LINE
  5
7A
330
1F
100
AcDbEntity
  8
TITLE
370
    50
100
AcDbLine
 10
42.5182230240126
 20
1.48761176446163
 30
0.0
 11
59.49998645119504
 21
1.48761176446163
 31
0.0
  0
LINE
  5
7B
330
1F
100
AcDbEntity
  8
TITLE
370
    50
100
AcDbLine
 10
59.49993174424403
 20
5.475360393555786
 30
0.0
 11
49.31053507231783
 21
5.475360393555786
 31
0.0
  0
LINE
  5
7C
330
1F
100
AcDbEntity
  8
TITLE
  6
SLD-Solid
370
    18
100
AcDbLine
 10
0.5
 20
0.5
 30
0.0
 11
0.5
 21
23.5
 31
0.0
  0
LINE
  5
7D
330
1F
100
AcDbEntity
  8
TITLE
  6
SLD-Solid
370
    18
100
AcDbLine
 10
0.5
 20
23.5
 30
0.0
 11
59.50000000000001
 21
23.5
 31
0.0
  0
LINE
  5
7E
330
1F
100
AcDbEntity
  8
TITLE
370
    50
100
AcDbLine
 10
42.5182230240126
 20
2.54278772310344
 30
0.0
 11
35.50597912026433
 21
2.54278772310344
 31
0.0
  0
LINE
  5
7F
330
1F
100
AcDbEntity
  8
TITLE
370
    50
100
AcDbLine
 10
42.5182230240126
 20
1.48761176446163
 30
0.0
 11
35.50597912026433
 21
1.48761176446163
 31
0.0
  0
LINE
  5
80
330
1F
100
AcDbEntity
  8
TITLE
  6
SLD-Solid
370
    18
100
AcDbLine
 10
59.50000000000001
 20
23.5
 30
0.0
 11
59.50000000000001
 21
0.5
 31
0.0
  0
LINE
  5
81
330
1F
100
AcDbEntity
  8
TITLE
  6
SLD-Solid
370
    18
100
AcDbLine
 10
59.50000000000001
 20
0.5
 30
0.0
 11
0.5
 21
0.5
 31
0.0
  0
LINE
  5
82
330
1F
100
AcDbEntity
  8
TITLE
370
    50
100
AcDbLine
 10
42.5182230240126
 20
1.48761176446163
 30
0.0
 11
42.5182230240126
 21
3.597963681745254
 31
0.0
  0
LINE
  5
83
330
1F
100
AcDbEntity
  8
TITLE
370
    50
100
AcDbLine
 10
35.50597912026433
 20
3.597963681745254
 30
0.0
 11
35.50597912026433
 21
0.4999999999999994
 31
0.0
  0
LINE
  5
84
330
1F
100
AcDbEntity
  8
TITLE
370
    50
100
AcDbLine
 10
35.50597912026433
 20
0.4999999999999994
 30
0.0
 11
59.50000000000001
 21
0.4999999999999994
 31
0.0
  0
LINE
  5
85
330
1F
100
AcDbEntity
  8
TITLE
370
    50
100
AcDbLine
 10
59.49993174424403
 20
5.475360393555786
 30
0.0
 11
59.50000000000001
 21
0.4999999999999994
 31
0.0
  0
LINE
  5
86
330
1F
100
AcDbEntity
  8
TITLE
  6
SLD-Solid
370
    18
100
AcDbLine
 10
0.4999606299212599
 20
12.0
 30
0.0
 11
0.5000393700787401
 21
12.0
 31
0.0
  0
LINE
  5
87
330
1F
100
AcDbEntity
  8
TITLE
370
    50
100
AcDbLine
 10
42.5182230240126
 20
3.597963681745254
 30
0.0
 11
35.50597912026433
 21
3.597963681745254
 31
0.0
  0
LINE
  5
88
330
1F
100
AcDbEntity
  8
TITLE
370
    50
100
AcDbLine
 10
42.5182230240126
 20
3.597963681745254
 30
0.0
 11
59.49976156426075
 21
3.597964834324629
 31
0.0
  0
LINE
  5
89
330
1F
100
AcDbEntity
  8
TITLE
370
    50
100
AcDbLine
 10
49.31053507231783
 20
5.475360393555786
 30
0.0
 11
49.31053507231783
 21
0.4636772425222306
 31
0.0
  0
LINE
  5
8A
330
1F
100
AcDbEntity
  8
TITLE
  6
SLD-Solid
370
    18
100
AcDbLine
 10
30.0
 20
23.50003937007874
 30
0.0
 11
30.0
 21
23.49996062992126
 31
0.0
  0
LINE
  5
8B
330
1F
100
AcDbEntity
  8
TITLE
  6
SLD-Solid
370
    18
100
AcDbLine
 10
59.50003937007875
 20
12.0
 30
0.0
 11
59.49996062992127
 21
12.0
 31
0.0
  0
LINE
  5
8C
330
1F
100
AcDbEntity
  8
TITLE
  6
SLD-Solid
370
    18
100
AcDbLine
 10
30.0
 20
0.4999606299212599
 30
0.0
 11
30.0
 21
0.5000393700787401
 31
0.0
  0
LINE
  5
8D
330
1F
100
AcDbEntity
  8
TITLE
  6
SLD-Solid
370
    18
100
AcDbLine
 10
0.5
 20
2.157480314960631
 30
0.0
 11
0.1653543307086614
 21
2.157480314960631
 31
0.0
  0
LINE
  5
8E
330
1F
100
AcDbEntity
  8
TITLE
  6
SLD-Solid
370
    18
100
AcDbLine
 10
59.50000000000001
 20
2.157480314960631
 30
0.0
 11
59.83464566929134
 21
2.157480314960631
 31
0.0
  0
LINE
  5
8F
330
1F
100
AcDbEntity
  8
TITLE
  6
SLD-Solid
370
    18
100
AcDbLine
 10
0.5
 20
4.125984251968505
 30
0.0
 11
0.1653543307086614
 21
4.125984251968505
 31
0.0
  0
LINE
  5
90
330
1F
100
AcDbEntity
  8
TITLE
  6
SLD-Solid
370
    18
100
AcDbLine
 10
59.50000000000001
 20
4.125984251968505
 30
0.0
 11
59.83464566929134
 21
4.125984251968505
 31
0.0
  0
LINE
  5
91
330
1F
100
AcDbEntity
  8
TITLE
  6
SLD-Solid
370
    18
100
AcDbLine
 10
0.5
 20
6.094488188976378
 30
0.0
 11
0.1653543307086614
 21
6.094488188976378
 31
0.0
  0
LINE
  5
465
330
1F
100
AcDbEntity
  8
TITLE
  6
SLD-Solid
370
    18
100
AcDbLine
 10
59.50000000000001
 20
6.094488188976378
 30
0.0
 11
59.83464566929134
 21
6.094488188976378
 31
0.0
  0
LINE
  5
466
330
1F
100
AcDbEntity
  8
TITLE
  6
SLD-Solid
370
    18
100
AcDbLine
 10
0.5
 20
8.062992125984252
 30
0.0
 11
0.1653543307086614
 21
8.062992125984252
 31
0.0
  0
LINE
  5
94
330
1F
100
AcDbEntity
  8
TITLE
  6
SLD-Solid
370
    18
100
AcDbLine
 10
59.50000000000001
 20
8.062992125984252
 30
0.0
 11
59.83464566929134
 21
8.062992125984252
 31
0.0
  0
LINE
  5
95
330
1F
100
AcDbEntity
  8
TITLE
  6
SLD-Solid
370
    18
100
AcDbLine
 10
0.5
 20
10.03149606299213
 30
0.0
 11
0.1653543307086614
 21
10.03149606299213
 31
0.0
  0
LINE
  5
96
330
1F
100
AcDbEntity
  8
TITLE
  6
SLD-Solid
370
    18
100
AcDbLine
 10
59.50000000000001
 20
10.03149606299213
 30
0.0
 11
59.83464566929134
 21
10.03149606299213
 31
0.0
  0
LINE
  5
467
330
1F
100
AcDbEntity
  8
TITLE
  6
SLD-Solid
370
    18
100
AcDbLine
 10
0.5
 20
12.0
 30
0.0
 11
0.1653543307086614
 21
12.0
 31
0.0
  0
LINE
  5
468
330
1F
100
AcDbEntity
  8
TITLE
  6
SLD-Solid
370
    18
100
AcDbLine
 10
59.50000000000001
 20
12.0
 30
0.0
 11
59.83464566929134
 21
12.0
 31
0.0
  0
LINE
  5
99
330
1F
100
AcDbEntity
  8
TITLE
  6
SLD-Solid
370
    18
100
AcDbLine
 10
0.5
 20
13.96850393700787
 30
0.0
 11
0.1653543307086614
 21
13.96850393700787
 31
0.0
  0
LINE
  5
9A
330
1F
100
AcDbEntity
  8
TITLE
  6
SLD-Solid
370
    18
100
AcDbLine
 10
59.50000000000001
 20
13.96850393700787
 30
0.0
 11
59.83464566929134
 21
13.96850393700787
 31
0.0
  0
LINE
  5
9B
330
1F
100
AcDbEntity
  8
TITLE
  6
SLD-Solid
370
    18
100
AcDbLine
 10
0.5
 20
15.93700787401575
 30
0.0
 11
0.1653543307086614
 21
15.93700787401575
 31
0.0
  0
LINE
  5
9C
330
1F
100
AcDbEntity
  8
TITLE
  6
SLD-Solid
370
    18
100
AcDbLine
 10
59.50000000000001
 20
15.93700787401575
 30
0.0
 11
59.83464566929134
 21
15.93700787401575
 31
0.0
  0
LINE
  5
9D
330
1F
100
AcDbEntity
  8
TITLE
  6
SLD-Solid
370
    18
100
AcDbLine
 10
0.5
 20
17.90551181102363
 30
0.0
 11
0.1653543307086614
 21
17.90551181102363
 31
0.0
  0
LINE
  5
9E
330
1F
100
AcDbEntity
  8
TITLE
  6
SLD-Solid
370
    18
100
AcDbLine
 10
59.50000000000001
 20
17.90551181102363
 30
0.0
 11
59.83464566929134
 21
17.90551181102363
 31
0.0
  0
LINE
  5
9F
330
1F
100
AcDbEntity
  8
TITLE
  6
SLD-Solid
370
    18
100
AcDbLine
 10
0.5
 20
19.8740157480315
 30
0.0
 11
0.1653543307086614
 21
19.8740157480315
 31
0.0
  0
LINE
  5
A0
330
1F
100
AcDbEntity
  8
TITLE
  6
SLD-Solid
370
    18
100
AcDbLine
 10
59.50000000000001
 20
19.8740157480315
 30
0.0
 11
59.83464566929134
 21
19.8740157480315
 31
0.0
  0
LINE
  5
A1
330
1F
100
AcDbEntity
  8
TITLE
  6
SLD-Solid
370
    18
100
AcDbLine
 10
0.5
 20
21.84251968503937
 30
0.0
 11
0.1653543307086614
 21
21.84251968503937
 31
0.0
  0
LINE
  5
A2
330
1F
100
AcDbEntity
  8
TITLE
  6
SLD-Solid
370
    18
100
AcDbLine
 10
59.50000000000001
 20
21.84251968503937
 30
0.0
 11
59.83464566929134
 21
21.84251968503937
 31
0.0
  0
LINE
  5
A3
330
1F
100
AcDbEntity
  8
TITLE
  6
SLD-Solid
370
    18
100
AcDbLine
 10
2.440944881889762
 20
23.5
 30
0.0
 11
2.440944881889762
 21
23.83464566929134
 31
0.0
  0
LINE
  5
A4
330
1F
100
AcDbEntity
  8
TITLE
  6
SLD-Solid
370
    18
100
AcDbLine
 10
2.440944881889762
 20
0.5
 30
0.0
 11
2.440944881889762
 21
0.1653543307086614
 31
0.0
  0
LINE
  5
A5
330
1F
100
AcDbEntity
  8
TITLE
  6
SLD-Solid
370
    18
100
AcDbLine
 10
4.409448818897637
 20
23.5
 30
0.0
 11
4.409448818897637
 21
23.83464566929134
 31
0.0
  0
LINE
  5
A6
330
1F
100
AcDbEntity
  8
TITLE
  6
SLD-Solid
370
    18
100
AcDbLine
 10
4.409448818897637
 20
0.5
 30
0.0
 11
4.409448818897637
 21
0.1653543307086614
 31
0.0
  0
LINE
  5
A7
330
1F
100
AcDbEntity
  8
TITLE
  6
SLD-Solid
370
    18
100
AcDbLine
 10
6.377952755905508
 20
23.5
 30
0.0
 11
6.377952755905508
 21
23.83464566929134
 31
0.0
  0
LINE
  5
A8
330
1F
100
AcDbEntity
  8
TITLE
  6
SLD-Solid
370
    18
100
AcDbLine
 10
6.377952755905508
 20
0.5
 30
0.0
 11
6.377952755905508
 21
0.1653543307086614
 31
0.0
  0
LINE
  5
A9
330
1F
100
AcDbEntity
  8
TITLE
  6
SLD-Solid
370
    18
100
AcDbLine
 10
8.346456692913385
 20
23.5
 30
0.0
 11
8.346456692913385
 21
23.83464566929134
 31
0.0
  0
LINE
  5
AA
330
1F
100
AcDbEntity
  8
TITLE
  6
SLD-Solid
370
    18
100
AcDbLine
 10
8.346456692913385
 20
0.5
 30
0.0
 11
8.346456692913385
 21
0.1653543307086614
 31
0.0
  0
LINE
  5
AB
330
1F
100
AcDbEntity
  8
TITLE
  6
SLD-Solid
370
    18
100
AcDbLine
 10
10.31496062992126
 20
23.5
 30
0.0
 11
10.31496062992126
 21
23.83464566929134
 31
0.0
  0
LINE
  5
AC
330
1F
100
AcDbEntity
  8
TITLE
  6
SLD-Solid
370
    18
100
AcDbLine
 10
10.31496062992126
 20
0.5
 30
0.0
 11
10.31496062992126
 21
0.1653543307086614
 31
0.0
  0
LINE
  5
AD
330
1F
100
AcDbEntity
  8
TITLE
  6
SLD-Solid
370
    18
100
AcDbLine
 10
12.28346456692913
 20
23.5
 30
0.0
 11
12.28346456692913
 21
23.83464566929134
 31
0.0
  0
LINE
  5
AE
330
1F
100
AcDbEntity
  8
TITLE
  6
SLD-Solid
370
    18
100
AcDbLine
 10
12.28346456692913
 20
0.5
 30
0.0
 11
12.28346456692913
 21
0.1653543307086614
 31
0.0
  0
LINE
  5
AF
330
1F
100
AcDbEntity
  8
TITLE
  6
SLD-Solid
370
    18
100
AcDbLine
 10
14.25196850393701
 20
23.5
 30
0.0
 11
14.25196850393701
 21
23.83464566929134
 31
0.0
  0
LINE
  5
B0
330
1F
100
AcDbEntity
  8
TITLE
  6
SLD-Solid
370
    18
100
AcDbLine
 10
14.25196850393701
 20
0.5
 30
0.0
 11
14.25196850393701
 21
0.1653543307086614
 31
0.0
  0
LINE
  5
B1
330
1F
100
AcDbEntity
  8
TITLE
  6
SLD-Solid
370
    18
100
AcDbLine
 10
16.22047244094488
 20
23.5
 30
0.0
 11
16.22047244094488
 21
23.83464566929134
 31
0.0
  0
LINE
  5
B2
330
1F
100
AcDbEntity
  8
TITLE
  6
SLD-Solid
370
    18
100
AcDbLine
 10
16.22047244094488
 20
0.5
 30
0.0
 11
16.22047244094488
 21
0.1653543307086614
 31
0.0
  0
LINE
  5
B3
330
1F
100
AcDbEntity
  8
TITLE
  6
SLD-Solid
370
    18
100
AcDbLine
 10
18.18897637795276
 20
23.5
 30
0.0
 11
18.18897637795276
 21
23.83464566929134
 31
0.0
  0
LINE
  5
B4
330
1F
100
AcDbEntity
  8
TITLE
  6
SLD-Solid
370
    18
100
AcDbLine
 10
18.18897637795276
 20
0.5
 30
0.0
 11
18.18897637795276
 21
0.1653543307086614
 31
0.0
  0
LINE
  5
B5
330
1F
100
AcDbEntity
  8
TITLE
  6
SLD-Solid
370
    18
100
AcDbLine
 10
20.15748031496063
 20
23.5
 30
0.0
 11
20.15748031496063
 21
23.83464566929134
 31
0.0
  0
LINE
  5
B6
330
1F
100
AcDbEntity
  8
TITLE
  6
SLD-Solid
370
    18
100
AcDbLine
 10
20.15748031496063
 20
0.5
 30
0.0
 11
20.15748031496063
 21
0.1653543307086614
 31
0.0
  0
LINE
  5
B7
330
1F
100
AcDbEntity
  8
TITLE
  6
SLD-Solid
370
    18
100
AcDbLine
 10
22.12598425196851
 20
23.5
 30
0.0
 11
22.12598425196851
 21
23.83464566929134
 31
0.0
  0
LINE
  5
B8
330
1F
100
AcDbEntity
  8
TITLE
  6
SLD-Solid
370
    18
100
AcDbLine
 10
22.12598425196851
 20
0.5
 30
0.0
 11
22.12598425196851
 21
0.1653543307086614
 31
0.0
  0
LINE
  5
B9
330
1F
100
AcDbEntity
  8
TITLE
  6
SLD-Solid
370
    18
100
AcDbLine
 10
24.09448818897638
 20
23.5
 30
0.0
 11
24.09448818897638
 21
23.83464566929134
 31
0.0
  0
LINE
  5
BA
330
1F
100
AcDbEntity
  8
TITLE
  6
SLD-Solid
370
    18
100
AcDbLine
 10
24.09448818897638
 20
0.5
 30
0.0
 11
24.09448818897638
 21
0.1653543307086614
 31
0.0
  0
LINE
  5
BB
330
1F
100
AcDbEntity
  8
TITLE
  6
SLD-Solid
370
    18
100
AcDbLine
 10
26.06299212598426
 20
23.5
 30
0.0
 11
26.06299212598426
 21
23.83464566929134
 31
0.0
  0
LINE
  5
BC
330
1F
100
AcDbEntity
  8
TITLE
  6
SLD-Solid
370
    18
100
AcDbLine
 10
26.06299212598426
 20
0.5
 30
0.0
 11
26.06299212598426
 21
0.1653543307086614
 31
0.0
  0
LINE
  5
BD
330
1F
100
AcDbEntity
  8
TITLE
  6
SLD-Solid
370
    18
100
AcDbLine
 10
28.03149606299213
 20
23.5
 30
0.0
 11
28.03149606299213
 21
23.83464566929134
 31
0.0
  0
LINE
  5
BE
330
1F
100
AcDbEntity
  8
TITLE
  6
SLD-Solid
370
    18
100
AcDbLine
 10
28.03149606299213
 20
0.5
 30
0.0
 11
28.03149606299213
 21
0.1653543307086614
 31
0.0
  0
LINE
  5
BF
330
1F
100
AcDbEntity
  8
TITLE
  6
SLD-Solid
370
    18
100
AcDbLine
 10
30.0
 20
23.5
 30
0.0
 11
30.0
 21
23.83464566929134
 31
0.0
  0
LINE
  5
C0
330
1F
100
AcDbEntity
  8
TITLE
  6
SLD-Solid
370
    18
100
AcDbLine
 10
30.0
 20
0.5
 30
0.0
 11
30.0
 21
0.1653543307086614
 31
0.0
  0
LINE
  5
C1
330
1F
100
AcDbEntity
  8
TITLE
  6
SLD-Solid
370
    18
100
AcDbLine
 10
31.96850393700788
 20
23.5
 30
0.0
 11
31.96850393700788
 21
23.83464566929134
 31
0.0
  0
LINE
  5
C2
330
1F
100
AcDbEntity
  8
TITLE
  6
SLD-Solid
370
    18
100
AcDbLine
 10
31.96850393700788
 20
0.5
 30
0.0
 11
31.96850393700788
 21
0.1653543307086614
 31
0.0
  0
LINE
  5
C3
330
1F
100
AcDbEntity
  8
TITLE
  6
SLD-Solid
370
    18
100
AcDbLine
 10
33.93700787401575
 20
23.5
 30
0.0
 11
33.93700787401575
 21
23.83464566929134
 31
0.0
  0
LINE
  5
C4
330
1F
100
AcDbEntity
  8
TITLE
  6
SLD-Solid
370
    18
100
AcDbLine
 10
33.93700787401575
 20
0.5
 30
0.0
 11
33.93700787401575
 21
0.1653543307086614
 31
0.0
  0
LINE
  5
C5
330
1F
100
AcDbEntity
  8
TITLE
  6
SLD-Solid
370
    18
100
AcDbLine
 10
35.90551181102362
 20
23.5
 30
0.0
 11
35.90551181102362
 21
23.83464566929134
 31
0.0
  0
LINE
  5
C6
330
1F
100
AcDbEntity
  8
TITLE
  6
SLD-Solid
370
    18
100
AcDbLine
 10
35.90551181102362
 20
0.5
 30
0.0
 11
35.90551181102362
 21
0.1653543307086614
 31
0.0
  0
LINE
  5
C7
330
1F
100
AcDbEntity
  8
TITLE
  6
SLD-Solid
370
    18
100
AcDbLine
 10
37.8740157480315
 20
23.5
 30
0.0
 11
37.8740157480315
 21
23.83464566929134
 31
0.0
  0
LINE
  5
C8
330
1F
100
AcDbEntity
  8
TITLE
  6
SLD-Solid
370
    18
100
AcDbLine
 10
37.8740157480315
 20
0.5
 30
0.0
 11
37.8740157480315
 21
0.1653543307086614
 31
0.0
  0
LINE
  5
C9
330
1F
100
AcDbEntity
  8
TITLE
  6
SLD-Solid
370
    18
100
AcDbLine
 10
39.84251968503937
 20
23.5
 30
0.0
 11
39.84251968503937
 21
23.83464566929134
 31
0.0
  0
LINE
  5
CA
330
1F
100
AcDbEntity
  8
TITLE
  6
SLD-Solid
370
    18
100
AcDbLine
 10
39.84251968503937
 20
0.5
 30
0.0
 11
39.84251968503937
 21
0.1653543307086614
 31
0.0
  0
LINE
  5
CB
330
1F
100
AcDbEntity
  8
TITLE
  6
SLD-Solid
370
    18
100
AcDbLine
 10
41.81102362204724
 20
23.5
 30
0.0
 11
41.81102362204724
 21
23.83464566929134
 31
0.0
  0
LINE
  5
CC
330
1F
100
AcDbEntity
  8
TITLE
  6
SLD-Solid
370
    18
100
AcDbLine
 10
41.81102362204724
 20
0.5
 30
0.0
 11
41.81102362204724
 21
0.1653543307086614
 31
0.0
  0
LINE
  5
CD
330
1F
100
AcDbEntity
  8
TITLE
  6
SLD-Solid
370
    18
100
AcDbLine
 10
43.77952755905513
 20
23.5
 30
0.0
 11
43.77952755905513
 21
23.83464566929134
 31
0.0
  0
LINE
  5
CE
330
1F
100
AcDbEntity
  8
TITLE
  6
SLD-Solid
370
    18
100
AcDbLine
 10
43.77952755905513
 20
0.5
 30
0.0
 11
43.77952755905513
 21
0.1653543307086614
 31
0.0
  0
LINE
  5
CF
330
1F
100
AcDbEntity
  8
TITLE
  6
SLD-Solid
370
    18
100
AcDbLine
 10
45.74803149606299
 20
23.5
 30
0.0
 11
45.74803149606299
 21
23.83464566929134
 31
0.0
  0
LINE
  5
D0
330
1F
100
AcDbEntity
  8
TITLE
  6
SLD-Solid
370
    18
100
AcDbLine
 10
45.74803149606299
 20
0.5
 30
0.0
 11
45.74803149606299
 21
0.1653543307086614
 31
0.0
  0
LINE
  5
D1
330
1F
100
AcDbEntity
  8
TITLE
  6
SLD-Solid
370
    18
100
AcDbLine
 10
47.71653543307087
 20
23.5
 30
0.0
 11
47.71653543307087
 21
23.83464566929134
 31
0.0
  0
LINE
  5
D2
330
1F
100
AcDbEntity
  8
TITLE
  6
SLD-Solid
370
    18
100
AcDbLine
 10
47.71653543307087
 20
0.5
 30
0.0
 11
47.71653543307087
 21
0.1653543307086614
 31
0.0
  0
LINE
  5
D3
330
1F
100
AcDbEntity
  8
TITLE
  6
SLD-Solid
370
    18
100
AcDbLine
 10
49.68503937007874
 20
23.5
 30
0.0
 11
49.68503937007874
 21
23.83464566929134
 31
0.0
  0
LINE
  5
D4
330
1F
100
AcDbEntity
  8
TITLE
  6
SLD-Solid
370
    18
100
AcDbLine
 10
49.68503937007874
 20
0.5
 30
0.0
 11
49.68503937007874
 21
0.1653543307086614
 31
0.0
  0
LINE
  5
D5
330
1F
100
AcDbEntity
  8
TITLE
  6
SLD-Solid
370
    18
100
AcDbLine
 10
51.65354330708661
 20
23.5
 30
0.0
 11
51.65354330708661
 21
23.83464566929134
 31
0.0
  0
LINE
  5
D6
330
1F
100
AcDbEntity
  8
TITLE
  6
SLD-Solid
370
    18
100
AcDbLine
 10
51.65354330708661
 20
0.5
 30
0.0
 11
51.65354330708661
 21
0.1653543307086614
 31
0.0
  0
LINE
  5
D7
330
1F
100
AcDbEntity
  8
TITLE
  6
SLD-Solid
370
    18
100
AcDbLine
 10
53.6220472440945
 20
23.5
 30
0.0
 11
53.6220472440945
 21
23.83464566929134
 31
0.0
  0
LINE
  5
D8
330
1F
100
AcDbEntity
  8
TITLE
  6
SLD-Solid
370
    18
100
AcDbLine
 10
53.6220472440945
 20
0.5
 30
0.0
 11
53.6220472440945
 21
0.1653543307086614
 31
0.0
  0
LINE
  5
D9
330
1F
100
AcDbEntity
  8
TITLE
  6
SLD-Solid
370
    18
100
AcDbLine
 10
55.59055118110236
 20
23.5
 30
0.0
 11
55.59055118110236
 21
23.83464566929134
 31
0.0
  0
LINE
  5
DA
330
1F
100
AcDbEntity
  8
TITLE
  6
SLD-Solid
370
    18
100
AcDbLine
 10
55.59055118110236
 20
0.5
 30
0.0
 11
55.59055118110236
 21
0.1653543307086614
 31
0.0
  0
LINE
  5
DB
330
1F
100
AcDbEntity
  8
TITLE
  6
SLD-Solid
370
    18
100
AcDbLine
 10
57.55905511811024
 20
23.5
 30
0.0
 11
57.55905511811024
 21
23.83464566929134
 31
0.0
  0
LINE
  5
DC
330
1F
100
AcDbEntity
  8
TITLE
  6
SLD-Solid
370
    18
100
AcDbLine
 10
57.55905511811024
 20
0.5
 30
0.0
 11
57.55905511811024
 21
0.1653543307086614
 31
0.0
  0
MTEXT
  5
DE
330
1F
100
AcDbEntity
  8
NOTES
100
AcDbMText
 10
36.40829780303407
 20
1.070290334694341
 30
0.0
 40
0.25
 41
0.0
 71
     1
 72
     1
  1
UNLESS OTHERWISE SPECIFIED DIMENSIONS ARE IN INCHES.
  7
SLDTEXTSTYLE0
 73
     1
 44
1.0
  0
MTEXT
  5
DF
330
1F
100
AcDbEntity
  8
NOTES
100
AcDbMText
 10
36.43006992789031
 20
3.083062777580424
 30
0.0
 40
0.25
 41
0.0
 71
     1
 72
     1
  1
DATE:
  7
SLDTEXTSTYLE0
 73
     1
 44
1.0
  0
MTEXT
  5
E0
330
1F
100
AcDbEntity
  8
NOTES
100
AcDbMText
 10
38.53870118800533
 20
2.193032963662711
 30
0.0
 40
0.25
 41
0.0
 71
     2
 72
     1
  1
DO NOT SCALE DRAWING
  7
SLDTEXTSTYLE0
 73
     1
 44
1.0
  0
MTEXT
  5
E2
330
1F
100
AcDbEntity
  8
NOTES
100
AcDbMText
 10
42.83073730750539
 20
3.268275555297603
 30
0.0
 40
0.25
 41
0.0
 71
     1
 72
     1
  1
TITLE:
  7
SLDTEXTSTYLE1
 73
     1
 44
1.0
  0
MTEXT
  5
E3
330
1F
100
AcDbEntity
  8
NOTES
100
AcDbMText
 10
50.15618310516096
 20
3.268275555297601
 30
0.0
 40
0.25
 41
0.0
 71
     1
 72
     1
  1
DWG NO.
  7
SLDTEXTSTYLE1
 73
     1
 44
1.0
  0
MTEXT
  5
E4
330
1F
100
AcDbEntity
  8
NOTES
100
AcDbMText
 10
50.18317532028495
 20
1.064581557673831
 30
0.0
 40
0.25
 41
0.0
 71
     1
 72
     1
  1
SCALE:     1:1
  7
SLDTEXTSTYLE1
 73
     1
 44
1.0
  0
MTEXT
  5
E5
330
1F
100
AcDbEntity
  8
NOTES
100
AcDbMText
 10
54.18146537911116
 20
2.651034429460864
 30
0.0
 40
0.25
 41
0.0
 71
     2
 72
     1
  1
195 CAD
  7
SLDTEXTSTYLE1
 73
     1
 44
1.0
  0
MTEXT
  5
E6
330
1F
100
AcDbEntity
  8
NOTES
100
AcDbMText
 10
46.46831508650605
 20
2.651034429460864
 30
0.0
 40
0.25
 41
0.0
 71
     2
 72
     1
  1
195 Table Napkin Dispenser
  7
SLDTEXTSTYLE1
 73
     1
 44
1.0
  0
INSERT
  5
F6
330
1F
100
AcDbEntity
  8
NOTES
100
AcDbBlockReference
  2
SW_NOTE_0_1
 10
36.61597262459082
 20
5.148152684778704
 30
0.0
  0
MTEXT
  5
F7
330
1F
100
AcDbEntity
  8
NOTES
100
AcDbMText
 10
39.50557287490805
 20
3.08647332676587
 30
0.0
 40
0.25
 41
0.0
 71
     2
 72
     1
  1
July 8, 2021
  7
SLDTEXTSTYLE1
 73
     1
 44
1.0
  0
MTEXT
  5
F8
330
1F
100
AcDbEntity
  8
TITLE
100
AcDbMText
 10
0.3276279775836454
 20
1.408618101997795
 30
0.0
 40
0.125
 41
0.0
 71
     2
 72
     1
  1
A
  7
SLDTEXTSTYLE1
 73
     1
 44
1.0
  0
MTEXT
  5
F9
330
1F
100
AcDbEntity
  8
TITLE
100
AcDbMText
 10
59.66227364687498
 20
1.408618101997795
 30
0.0
 40
0.125
 41
0.0
 71
     2
 72
     1
  1
A
  7
SLDTEXTSTYLE1
 73
     1
 44
1.0
  0
MTEXT
  5
FA
330
1F
100
AcDbEntity
  8
TITLE
100
AcDbMText
 10
0.3317512413046844
 20
3.221610227982048
 30
0.0
 40
0.125
 41
0.0
 71
     2
 72
     1
  1
B
  7
SLDTEXTSTYLE1
 73
     1
 44
1.0
  0
MTEXT
  5
FB
330
1F
100
AcDbEntity
  8
TITLE
100
AcDbMText
 10
59.66639691059603
 20
3.221610227982048
 30
0.0
 40
0.125
 41
0.0
 71
     2
 72
     1
  1
B
  7
SLDTEXTSTYLE1
 73
     1
 44
1.0
  0
MTEXT
  5
FC
330
1F
100
AcDbEntity
  8
TITLE
100
AcDbMText
 10
0.3313750816934456
 20
5.19011416498992
 30
0.0
 40
0.125
 41
0.0
 71
     2
 72
     1
  1
C
  7
SLDTEXTSTYLE1
 73
     1
 44
1.0
  0
MTEXT
  5
FD
330
1F
100
AcDbEntity
  8
TITLE
100
AcDbMText
 10
59.66602075098479
 20
5.19011416498992
 30
0.0
 40
0.125
 41
0.0
 71
     2
 72
     1
  1
C
  7
SLDTEXTSTYLE1
 73
     1
 44
1.0
  0
MTEXT
  5
FE
330
1F
100
AcDbEntity
  8
TITLE
100
AcDbMText
 10
0.3311870028448152
 20
7.158618101997797
 30
0.0
 40
0.125
 41
0.0
 71
     2
 72
     1
  1
D
  7
SLDTEXTSTYLE1
 73
     1
 44
1.0
  0
MTEXT
  5
FF
330
1F
100
AcDbEntity
  8
TITLE
100
AcDbMText
 10
59.66583267213617
 20
7.158618101997795
 30
0.0
 40
0.125
 41
0.0
 71
     2
 72
     1
  1
D
  7
SLDTEXTSTYLE1
 73
     1
 44
1.0
  0
MTEXT
  5
100
330
1F
100
AcDbEntity
  8
TITLE
100
AcDbMText
 10
0.3329231160377542
 20
9.12712203900567
 30
0.0
 40
0.125
 41
0.0
 71
     2
 72
     1
  1
E
  7
SLDTEXTSTYLE1
 73
     1
 44
1.0
  0
MTEXT
  5
101
330
1F
100
AcDbEntity
  8
TITLE
100
AcDbMText
 10
59.6675687853291
 20
9.127122039005672
 30
0.0
 40
0.125
 41
0.0
 71
     2
 72
     1
  1
E
  7
SLDTEXTSTYLE1
 73
     1
 44
1.0
  0
MTEXT
  5
102
330
1F
100
AcDbEntity
  8
TITLE
100
AcDbMText
 10
0.3313461474003637
 20
11.09562597601354
 30
0.0
 40
0.125
 41
0.0
 71
     2
 72
     1
  1
F
  7
SLDTEXTSTYLE1
 73
     1
 44
1.0
  0
MTEXT
  5
103
330
1F
100
AcDbEntity
  8
TITLE
100
AcDbMText
 10
59.66599181669172
 20
11.09562597601354
 30
0.0
 40
0.125
 41
0.0
 71
     2
 72
     1
  1
F
  7
SLDTEXTSTYLE1
 73
     1
 44
1.0
  0
MTEXT
  5
104
330
1F
100
AcDbEntity
  8
TITLE
100
AcDbMText
 10
0.332257605436456
 20
13.06412991302141
 30
0.0
 40
0.125
 41
0.0
 71
     2
 72
     1
  1
G
  7
SLDTEXTSTYLE1
 73
     1
 44
1.0
  0
MTEXT
  5
105
330
1F
100
AcDbEntity
  8
TITLE
100
AcDbMText
 10
59.6669032747278
 20
13.06412991302141
 30
0.0
 40
0.125
 41
0.0
 71
     2
 72
     1
  1
G
  7
SLDTEXTSTYLE1
 73
     1
 44
1.0
  0
MTEXT
  5
106
330
1F
100
AcDbEntity
  8
TITLE
100
AcDbMText
 10
0.3323733456814148
 20
15.03263385002929
 30
0.0
 40
0.125
 41
0.0
 71
     2
 72
     1
  1
H
  7
SLDTEXTSTYLE1
 73
     1
 44
1.0
  0
MTEXT
  5
107
330
1F
100
AcDbEntity
  8
TITLE
100
AcDbMText
 10
59.66701901497276
 20
15.03263385002929
 30
0.0
 40
0.125
 41
0.0
 71
     2
 72
     1
  1
H
  7
SLDTEXTSTYLE1
 73
     1
 44
1.0
  0
MTEXT
  5
108
330
1F
100
AcDbEntity
  8
TITLE
100
AcDbMText
 10
0.3315776305595839
 20
17.00113778703717
 30
0.0
 40
0.125
 41
0.0
 71
     2
 72
     1
  1
J
  7
SLDTEXTSTYLE1
 73
     1
 44
1.0
  0
MTEXT
  5
109
330
1F
100
AcDbEntity
  8
TITLE
100
AcDbMText
 10
59.66622329985093
 20
17.00113778703716
 30
0.0
 40
0.125
 41
0.0
 71
     2
 72
     1
  1
J
  7
SLDTEXTSTYLE1
 73
     1
 44
1.0
  0
MTEXT
  5
10A
330
1F
100
AcDbEntity
  8
TITLE
100
AcDbMText
 10
0.3323154765159243
 20
18.96964172404504
 30
0.0
 40
0.125
 41
0.0
 71
     2
 72
     1
  1
K
  7
SLDTEXTSTYLE1
 73
     1
 44
1.0
  0
MTEXT
  5
10B
330
1F
100
AcDbEntity
  8
TITLE
100
AcDbMText
 10
59.66696114580727
 20
18.96964172404504
 30
0.0
 40
0.125
 41
0.0
 71
     2
 72
     1
  1
K
  7
SLDTEXTSTYLE1
 73
     1
 44
1.0
  0
MTEXT
  5
10C
330
1F
100
AcDbEntity
  8
TITLE
100
AcDbMText
 10
0.3312448739242835
 20
20.93814566105292
 30
0.0
 40
0.125
 41
0.0
 71
     2
 72
     1
  1
L
  7
SLDTEXTSTYLE1
 73
     1
 44
1.0
  0
MTEXT
  5
10D
330
1F
100
AcDbEntity
  8
TITLE
100
AcDbMText
 10
59.66589054321562
 20
20.93814566105291
 30
0.0
 40
0.125
 41
0.0
 71
     2
 72
     1
  1
L
  7
SLDTEXTSTYLE1
 73
     1
 44
1.0
  0
MTEXT
  5
10E
330
1F
100
AcDbEntity
  8
TITLE
100
AcDbMText
 10
0.3283224192293962
 20
22.75113778703717
 30
0.0
 40
0.125
 41
0.0
 71
     2
 72
     1
  1
M
  7
SLDTEXTSTYLE1
 73
     1
 44
1.0
  0
MTEXT
  5
10F
330
1F
100
AcDbEntity
  8
TITLE
100
AcDbMText
 10
59.66296808852074
 20
22.75113778703717
 30
0.0
 40
0.125
 41
0.0
 71
     2
 72
     1
  1
M
  7
SLDTEXTSTYLE1
 73
     1
 44
1.0
  0
MTEXT
  5
110
330
1F
100
AcDbEntity
  8
TITLE
100
AcDbMText
 10
1.467955079574987
 20
0.4125551098718104
 30
0.0
 40
0.125
 41
0.0
 71
     2
 72
     1
  1
30
  7
SLDTEXTSTYLE1
 73
     1
 44
1.0
  0
MTEXT
  5
111
330
1F
100
AcDbEntity
  8
TITLE
100
AcDbMText
 10
1.467955079574987
 20
23.74720077916315
 30
0.0
 40
0.125
 41
0.0
 71
     2
 72
     1
  1
30
  7
SLDTEXTSTYLE1
 73
     1
 44
1.0
  0
MTEXT
  5
112
330
1F
100
AcDbEntity
  8
TITLE
100
AcDbMText
 10
3.422679489023806
 20
0.4125551098718104
 30
0.0
 40
0.125
 41
0.0
 71
     2
 72
     1
  1
29
  7
SLDTEXTSTYLE1
 73
     1
 44
1.0
  0
MTEXT
  5
113
330
1F
100
AcDbEntity
  8
TITLE
100
AcDbMText
 10
3.422679489023806
 20
23.74720077916315
 30
0.0
 40
0.125
 41
0.0
 71
     2
 72
     1
  1
29
  7
SLDTEXTSTYLE1
 73
     1
 44
1.0
  0
MTEXT
  5
114
330
1F
100
AcDbEntity
  8
TITLE
100
AcDbMText
 10
5.39118342603168
 20
0.4125551098718104
 30
0.0
 40
0.125
 41
0.0
 71
     2
 72
     1
  1
28
  7
SLDTEXTSTYLE1
 73
     1
 44
1.0
  0
MTEXT
  5
115
330
1F
100
AcDbEntity
  8
TITLE
100
AcDbMText
 10
5.39118342603168
 20
23.74720077916315
 30
0.0
 40
0.125
 41
0.0
 71
     2
 72
     1
  1
28
  7
SLDTEXTSTYLE1
 73
     1
 44
1.0
  0
MTEXT
  5
116
330
1F
100
AcDbEntity
  8
TITLE
100
AcDbMText
 10
7.359687363039554
 20
0.4125551098718104
 30
0.0
 40
0.125
 41
0.0
 71
     2
 72
     1
  1
27
  7
SLDTEXTSTYLE1
 73
     1
 44
1.0
  0
MTEXT
  5
117
330
1F
100
AcDbEntity
  8
TITLE
100
AcDbMText
 10
7.359687363039554
 20
23.74720077916315
 30
0.0
 40
0.125
 41
0.0
 71
     2
 72
     1
  1
27
  7
SLDTEXTSTYLE1
 73
     1
 44
1.0
  0
MTEXT
  5
118
330
1F
100
AcDbEntity
  8
TITLE
100
AcDbMText
 10
9.328191300047429
 20
0.4125551098718105
 30
0.0
 40
0.125
 41
0.0
 71
     2
 72
     1
  1
26
  7
SLDTEXTSTYLE1
 73
     1
 44
1.0
  0
MTEXT
  5
119
330
1F
100
AcDbEntity
  8
TITLE
100
AcDbMText
 10
9.328191300047429
 20
23.74720077916315
 30
0.0
 40
0.125
 41
0.0
 71
     2
 72
     1
  1
26
  7
SLDTEXTSTYLE1
 73
     1
 44
1.0
  0
MTEXT
  5
11A
330
1F
100
AcDbEntity
  8
TITLE
100
AcDbMText
 10
11.2966952370553
 20
0.4125551098718104
 30
0.0
 40
0.125
 41
0.0
 71
     2
 72
     1
  1
25
  7
SLDTEXTSTYLE1
 73
     1
 44
1.0
  0
MTEXT
  5
11B
330
1F
100
AcDbEntity
  8
TITLE
100
AcDbMText
 10
11.2966952370553
 20
23.74720077916315
 30
0.0
 40
0.125
 41
0.0
 71
     2
 72
     1
  1
25
  7
SLDTEXTSTYLE1
 73
     1
 44
1.0
  0
MTEXT
  5
11C
330
1F
100
AcDbEntity
  8
TITLE
100
AcDbMText
 10
13.26519917406318
 20
0.4125551098718104
 30
0.0
 40
0.125
 41
0.0
 71
     2
 72
     1
  1
24
  7
SLDTEXTSTYLE1
 73
     1
 44
1.0
  0
MTEXT
  5
11D
330
1F
100
AcDbEntity
  8
TITLE
100
AcDbMText
 10
13.26519917406318
 20
23.74720077916315
 30
0.0
 40
0.125
 41
0.0
 71
     2
 72
     1
  1
24
  7
SLDTEXTSTYLE1
 73
     1
 44
1.0
  0
MTEXT
  5
11E
330
1F
100
AcDbEntity
  8
TITLE
100
AcDbMText
 10
15.23370311107105
 20
0.4125551098718104
 30
0.0
 40
0.125
 41
0.0
 71
     2
 72
     1
  1
23
  7
SLDTEXTSTYLE1
 73
     1
 44
1.0
  0
MTEXT
  5
11F
330
1F
100
AcDbEntity
  8
TITLE
100
AcDbMText
 10
15.23370311107105
 20
23.74720077916315
 30
0.0
 40
0.125
 41
0.0
 71
     2
 72
     1
  1
23
  7
SLDTEXTSTYLE1
 73
     1
 44
1.0
  0
MTEXT
  5
120
330
1F
100
AcDbEntity
  8
TITLE
100
AcDbMText
 10
17.20220704807892
 20
0.4125551098718104
 30
0.0
 40
0.125
 41
0.0
 71
     2
 72
     1
  1
22
  7
SLDTEXTSTYLE1
 73
     1
 44
1.0
  0
MTEXT
  5
121
330
1F
100
AcDbEntity
  8
TITLE
100
AcDbMText
 10
17.20220704807893
 20
23.74720077916315
 30
0.0
 40
0.125
 41
0.0
 71
     2
 72
     1
  1
22
  7
SLDTEXTSTYLE1
 73
     1
 44
1.0
  0
MTEXT
  5
122
330
1F
100
AcDbEntity
  8
TITLE
100
AcDbMText
 10
19.1707109850868
 20
0.4125551098718104
 30
0.0
 40
0.125
 41
0.0
 71
     2
 72
     1
  1
21
  7
SLDTEXTSTYLE1
 73
     1
 44
1.0
  0
MTEXT
  5
123
330
1F
100
AcDbEntity
  8
TITLE
100
AcDbMText
 10
19.1707109850868
 20
23.74720077916315
 30
0.0
 40
0.125
 41
0.0
 71
     2
 72
     1
  1
21
  7
SLDTEXTSTYLE1
 73
     1
 44
1.0
  0
MTEXT
  5
124
330
1F
100
AcDbEntity
  8
TITLE
100
AcDbMText
 10
21.13921492209468
 20
0.4125551098718104
 30
0.0
 40
0.125
 41
0.0
 71
     2
 72
     1
  1
20
  7
SLDTEXTSTYLE1
 73
     1
 44
1.0
  0
MTEXT
  5
125
330
1F
100
AcDbEntity
  8
TITLE
100
AcDbMText
 10
21.13921492209468
 20
23.74720077916315
 30
0.0
 40
0.125
 41
0.0
 71
     2
 72
     1
  1
20
  7
SLDTEXTSTYLE1
 73
     1
 44
1.0
  0
MTEXT
  5
126
330
1F
100
AcDbEntity
  8
TITLE
100
AcDbMText
 10
23.10771885910255
 20
0.4125551098718104
 30
0.0
 40
0.125
 41
0.0
 71
     2
 72
     1
  1
19
  7
SLDTEXTSTYLE1
 73
     1
 44
1.0
  0
MTEXT
  5
127
330
1F
100
AcDbEntity
  8
TITLE
100
AcDbMText
 10
23.10771885910255
 20
23.74720077916315
 30
0.0
 40
0.125
 41
0.0
 71
     2
 72
     1
  1
19
  7
SLDTEXTSTYLE1
 73
     1
 44
1.0
  0
MTEXT
  5
128
330
1F
100
AcDbEntity
  8
TITLE
100
AcDbMText
 10
25.07622279611043
 20
0.4125551098718104
 30
0.0
 40
0.125
 41
0.0
 71
     2
 72
     1
  1
18
  7
SLDTEXTSTYLE1
 73
     1
 44
1.0
  0
MTEXT
  5
129
330
1F
100
AcDbEntity
  8
TITLE
100
AcDbMText
 10
25.07622279611043
 20
23.74720077916315
 30
0.0
 40
0.125
 41
0.0
 71
     2
 72
     1
  1
18
  7
SLDTEXTSTYLE1
 73
     1
 44
1.0
  0
MTEXT
  5
12A
330
1F
100
AcDbEntity
  8
TITLE
100
AcDbMText
 10
27.0447267331183
 20
0.4125551098718104
 30
0.0
 40
0.125
 41
0.0
 71
     2
 72
     1
  1
17
  7
SLDTEXTSTYLE1
 73
     1
 44
1.0
  0
MTEXT
  5
12B
330
1F
100
AcDbEntity
  8
TITLE
100
AcDbMText
 10
27.0447267331183
 20
23.74720077916315
 30
0.0
 40
0.125
 41
0.0
 71
     2
 72
     1
  1
17
  7
SLDTEXTSTYLE1
 73
     1
 44
1.0
  0
MTEXT
  5
12C
330
1F
100
AcDbEntity
  8
TITLE
100
AcDbMText
 10
29.01323067012617
 20
0.4125551098718104
 30
0.0
 40
0.125
 41
0.0
 71
     2
 72
     1
  1
16
  7
SLDTEXTSTYLE1
 73
     1
 44
1.0
  0
MTEXT
  5
12D
330
1F
100
AcDbEntity
  8
TITLE
100
AcDbMText
 10
29.01323067012617
 20
23.74720077916315
 30
0.0
 40
0.125
 41
0.0
 71
     2
 72
     1
  1
16
  7
SLDTEXTSTYLE1
 73
     1
 44
1.0
  0
MTEXT
  5
12E
330
1F
100
AcDbEntity
  8
TITLE
100
AcDbMText
 10
30.98173460713405
 20
0.4125551098718105
 30
0.0
 40
0.125
 41
0.0
 71
     2
 72
     1
  1
15
  7
SLDTEXTSTYLE1
 73
     1
 44
1.0
  0
MTEXT
  5
12F
330
1F
100
AcDbEntity
  8
TITLE
100
AcDbMText
 10
30.98173460713405
 20
23.74720077916315
 30
0.0
 40
0.125
 41
0.0
 71
     2
 72
     1
  1
15
  7
SLDTEXTSTYLE1
 73
     1
 44
1.0
  0
MTEXT
  5
130
330
1F
100
AcDbEntity
  8
TITLE
100
AcDbMText
 10
32.95023854414192
 20
0.4125551098718104
 30
0.0
 40
0.125
 41
0.0
 71
     2
 72
     1
  1
14
  7
SLDTEXTSTYLE1
 73
     1
 44
1.0
  0
MTEXT
  5
131
330
1F
100
AcDbEntity
  8
TITLE
100
AcDbMText
 10
32.95023854414192
 20
23.74720077916315
 30
0.0
 40
0.125
 41
0.0
 71
     2
 72
     1
  1
14
  7
SLDTEXTSTYLE1
 73
     1
 44
1.0
  0
MTEXT
  5
132
330
1F
100
AcDbEntity
  8
TITLE
100
AcDbMText
 10
34.91874248114979
 20
0.4125551098718104
 30
0.0
 40
0.125
 41
0.0
 71
     2
 72
     1
  1
13
  7
SLDTEXTSTYLE1
 73
     1
 44
1.0
  0
MTEXT
  5
133
330
1F
100
AcDbEntity
  8
TITLE
100
AcDbMText
 10
34.91874248114979
 20
23.74720077916315
 30
0.0
 40
0.125
 41
0.0
 71
     2
 72
     1
  1
13
  7
SLDTEXTSTYLE1
 73
     1
 44
1.0
  0
MTEXT
  5
134
330
1F
100
AcDbEntity
  8
TITLE
100
AcDbMText
 10
36.88724641815767
 20
0.4125551098718104
 30
0.0
 40
0.125
 41
0.0
 71
     2
 72
     1
  1
12
  7
SLDTEXTSTYLE1
 73
     1
 44
1.0
  0
MTEXT
  5
135
330
1F
100
AcDbEntity
  8
TITLE
100
AcDbMText
 10
36.88724641815767
 20
23.74720077916316
 30
0.0
 40
0.125
 41
0.0
 71
     2
 72
     1
  1
12
  7
SLDTEXTSTYLE1
 73
     1
 44
1.0
  0
MTEXT
  5
136
330
1F
100
AcDbEntity
  8
TITLE
100
AcDbMText
 10
38.85575035516555
 20
0.4125551098718105
 30
0.0
 40
0.125
 41
0.0
 71
     2
 72
     1
  1
11
  7
SLDTEXTSTYLE1
 73
     1
 44
1.0
  0
MTEXT
  5
137
330
1F
100
AcDbEntity
  8
TITLE
100
AcDbMText
 10
38.85575035516554
 20
23.74720077916315
 30
0.0
 40
0.125
 41
0.0
 71
     2
 72
     1
  1
11
  7
SLDTEXTSTYLE1
 73
     1
 44
1.0
  0
MTEXT
  5
138
330
1F
100
AcDbEntity
  8
TITLE
100
AcDbMText
 10
40.82425429217341
 20
0.4125551098718105
 30
0.0
 40
0.125
 41
0.0
 71
     2
 72
     1
  1
10
  7
SLDTEXTSTYLE1
 73
     1
 44
1.0
  0
MTEXT
  5
139
330
1F
100
AcDbEntity
  8
TITLE
100
AcDbMText
 10
40.82425429217341
 20
23.74720077916315
 30
0.0
 40
0.125
 41
0.0
 71
     2
 72
     1
  1
10
  7
SLDTEXTSTYLE1
 73
     1
 44
1.0
  0
MTEXT
  5
13A
330
1F
100
AcDbEntity
  8
TITLE
100
AcDbMText
 10
42.79401690986624
 20
0.4125551098718104
 30
0.0
 40
0.125
 41
0.0
 71
     2
 72
     1
  1
9
  7
SLDTEXTSTYLE1
 73
     1
 44
1.0
  0
MTEXT
  5
13B
330
1F
100
AcDbEntity
  8
TITLE
100
AcDbMText
 10
42.79401690986624
 20
23.74720077916315
 30
0.0
 40
0.125
 41
0.0
 71
     2
 72
     1
  1
9
  7
SLDTEXTSTYLE1
 73
     1
 44
1.0
  0
MTEXT
  5
13C
330
1F
100
AcDbEntity
  8
TITLE
100
AcDbMText
 10
44.76252084687411
 20
0.4125551098718104
 30
0.0
 40
0.125
 41
0.0
 71
     2
 72
     1
  1
8
  7
SLDTEXTSTYLE1
 73
     1
 44
1.0
  0
MTEXT
  5
13D
330
1F
100
AcDbEntity
  8
TITLE
100
AcDbMText
 10
44.76252084687411
 20
23.74720077916315
 30
0.0
 40
0.125
 41
0.0
 71
     2
 72
     1
  1
8
  7
SLDTEXTSTYLE1
 73
     1
 44
1.0
  0
MTEXT
  5
13E
330
1F
100
AcDbEntity
  8
TITLE
100
AcDbMText
 10
46.73102478388198
 20
0.4125551098718104
 30
0.0
 40
0.125
 41
0.0
 71
     2
 72
     1
  1
7
  7
SLDTEXTSTYLE1
 73
     1
 44
1.0
  0
MTEXT
  5
13F
330
1F
100
AcDbEntity
  8
TITLE
100
AcDbMText
 10
46.73102478388198
 20
23.74720077916315
 30
0.0
 40
0.125
 41
0.0
 71
     2
 72
     1
  1
7
  7
SLDTEXTSTYLE1
 73
     1
 44
1.0
  0
MTEXT
  5
140
330
1F
100
AcDbEntity
  8
TITLE
100
AcDbMText
 10
48.69952872088987
 20
0.4125551098718105
 30
0.0
 40
0.125
 41
0.0
 71
     2
 72
     1
  1
6
  7
SLDTEXTSTYLE1
 73
     1
 44
1.0
  0
MTEXT
  5
141
330
1F
100
AcDbEntity
  8
TITLE
100
AcDbMText
 10
48.69952872088987
 20
23.74720077916315
 30
0.0
 40
0.125
 41
0.0
 71
     2
 72
     1
  1
6
  7
SLDTEXTSTYLE1
 73
     1
 44
1.0
  0
MTEXT
  5
142
330
1F
100
AcDbEntity
  8
TITLE
100
AcDbMText
 10
50.66803265789773
 20
0.4125551098718104
 30
0.0
 40
0.125
 41
0.0
 71
     2
 72
     1
  1
5
  7
SLDTEXTSTYLE1
 73
     1
 44
1.0
  0
MTEXT
  5
143
330
1F
100
AcDbEntity
  8
TITLE
100
AcDbMText
 10
50.66803265789773
 20
23.74720077916315
 30
0.0
 40
0.125
 41
0.0
 71
     2
 72
     1
  1
5
  7
SLDTEXTSTYLE1
 73
     1
 44
1.0
  0
MTEXT
  5
144
330
1F
100
AcDbEntity
  8
TITLE
100
AcDbMText
 10
52.6365365949056
 20
0.4125551098718104
 30
0.0
 40
0.125
 41
0.0
 71
     2
 72
     1
  1
4
  7
SLDTEXTSTYLE1
 73
     1
 44
1.0
  0
MTEXT
  5
145
330
1F
100
AcDbEntity
  8
TITLE
100
AcDbMText
 10
52.63653659490561
 20
23.74720077916315
 30
0.0
 40
0.125
 41
0.0
 71
     2
 72
     1
  1
4
  7
SLDTEXTSTYLE1
 73
     1
 44
1.0
  0
MTEXT
  5
146
330
1F
100
AcDbEntity
  8
TITLE
100
AcDbMText
 10
54.60504053191348
 20
0.4125551098718104
 30
0.0
 40
0.125
 41
0.0
 71
     2
 72
     1
  1
3
  7
SLDTEXTSTYLE1
 73
     1
 44
1.0
  0
MTEXT
  5
147
330
1F
100
AcDbEntity
  8
TITLE
100
AcDbMText
 10
54.60504053191348
 20
23.74720077916315
 30
0.0
 40
0.125
 41
0.0
 71
     2
 72
     1
  1
3
  7
SLDTEXTSTYLE1
 73
     1
 44
1.0
  0
MTEXT
  5
148
330
1F
100
AcDbEntity
  8
TITLE
100
AcDbMText
 10
56.57354446892136
 20
0.4125551098718104
 30
0.0
 40
0.125
 41
0.0
 71
     2
 72
     1
  1
2
  7
SLDTEXTSTYLE1
 73
     1
 44
1.0
  0
MTEXT
  5
149
330
1F
100
AcDbEntity
  8
TITLE
100
AcDbMText
 10
56.57354446892136
 20
23.74720077916315
 30
0.0
 40
0.125
 41
0.0
 71
     2
 72
     1
  1
2
  7
SLDTEXTSTYLE1
 73
     1
 44
1.0
  0
MTEXT
  5
14A
330
1F
100
AcDbEntity
  8
TITLE
100
AcDbMText
 10
58.52826887837016
 20
0.4125551098718104
 30
0.0
 40
0.125
 41
0.0
 71
     2
 72
     1
  1
1
  7
SLDTEXTSTYLE1
 73
     1
 44
1.0
  0
MTEXT
  5
14B
330
1F
100
AcDbEntity
  8
TITLE
100
AcDbMText
 10
58.52826887837018
 20
23.74720077916315
 30
0.0
 40
0.125
 41
0.0
 71
     2
 72
     1
  1
1
  7
SLDTEXTSTYLE1
 73
     1
 44
1.0
  0
LINE
  5
14C
330
1F
100
AcDbEntity
  8
0
  6
SLD-Solid
 62
     7
370
    25
100
AcDbLine
 10
7.880023462951381
 20
9.518036265448538
 30
0.0
 11
7.972353969065762
 21
9.4880362654493
 31
0.0
  0
LINE
  5
14D
330
1F
100
AcDbEntity
  8
0
  6
SLD-Solid
 62
     7
370
    25
100
AcDbLine
 10
8.167692956835147
 20
9.488036265449301
 30
0.0
 11
8.26002346294953
 21
9.51803626544854
 31
0.0
  0
LINE
  5
14E
330
1F
100
AcDbEntity
  8
0
  6
SLD-Solid
 62
     7
370
    25
100
AcDbLine
 10
7.880023462950455
 20
9.548036265448538
 30
0.0
 11
7.880023462950455
 21
9.518036265448538
 31
0.0
  0
LINE
  5
14F
330
1F
100
AcDbEntity
  8
0
  6
SLD-Solid
 62
     7
370
    25
100
AcDbLine
 10
8.260023462950455
 20
9.51803626544854
 30
0.0
 11
8.260023462950455
 21
9.54803626544854
 31
0.0
  0
LINE
  5
150
330
1F
100
AcDbEntity
  8
0
  6
SLD-Solid
 62
     7
370
    25
100
AcDbLine
 10
6.974023462950452
 20
9.518036265448533
 30
0.0
 11
6.974023462950452
 21
9.548036265448534
 31
0.0
  0
LINE
  5
151
330
1F
100
AcDbEntity
  8
0
  6
SLD-Solid
 62
     7
370
    25
100
AcDbLine
 10
6.881692956835145
 20
9.488036265449294
 30
0.0
 11
6.974023462949527
 21
9.518036265448533
 31
0.0
  0
LINE
  5
152
330
1F
100
AcDbEntity
  8
0
  6
SLD-Solid
 62
     7
370
    25
100
AcDbLine
 10
6.828023462950433
 20
9.533036265448533
 30
0.0
 11
6.828023462950433
 21
9.54803626544853
 31
0.0
  0
LINE
  5
153
330
1F
100
AcDbEntity
  8
0
  6
SLD-Solid
 62
     7
370
    25
100
AcDbLine
 10
6.340023462950434
 20
9.548036265448529
 30
0.0
 11
6.340023462950434
 21
9.533036265448528
 31
0.0
  0
ARC
  5
154
330
1F
100
AcDbEntity
  8
0
  6
SLD-Solid
 62
     7
370
    25
100
AcDbCircle
 10
6.818023462950434
 20
9.533036265448533
 30
0.0
 40
0.0100000000000016
100
AcDbArc
 50
270.0000000000008
 51
0.0
  0
ARC
  5
155
330
1F
100
AcDbEntity
  8
0
  6
SLD-Solid
 62
     7
370
    25
100
AcDbCircle
 10
6.350023462950434
 20
9.533036265448528
 30
0.0
 40
0.0099999999999998
100
AcDbArc
 50
180.0
 51
270.0000000000008
  0
ARC
  5
156
330
1F
100
AcDbEntity
  8
0
  6
SLD-Solid
 62
     7
370
    25
100
AcDbCircle
 10
6.815093926752258
 20
9.513036265448532
 30
0.0
 40
0.0099999999999998
100
AcDbArc
 50
90.0
 51
164.2548215002295
  0
ARC
  5
157
330
1F
100
AcDbEntity
  8
0
  6
SLD-Solid
 62
     7
370
    25
100
AcDbCircle
 10
6.352952999148609
 20
9.513036265448529
 30
0.0
 40
0.0099999999999998
100
AcDbArc
 50
15.74517849977055
 51
90.0
  0
LINE
  5
158
330
1F
100
AcDbEntity
  8
0
  6
SLD-Solid
 62
     7
370
    25
100
AcDbLine
 10
6.362577779899066
 20
9.515749860021344
 30
0.0
 11
6.390469146001801
 21
9.416822670875712
 31
0.0
  0
LINE
  5
159
330
1F
100
AcDbEntity
  8
0
  6
SLD-Solid
 62
     7
370
    25
100
AcDbLine
 10
6.777577779899067
 20
9.416822670875716
 30
0.0
 11
6.805469146001801
 21
9.515749860021348
 31
0.0
  0
ARC
  5
15A
330
1F
100
AcDbEntity
  8
0
  6
SLD-Solid
 62
     7
370
    25
100
AcDbCircle
 10
6.76795299914861
 20
9.419536265448532
 30
0.0
 40
0.0099999999999998
100
AcDbArc
 50
270.0000000000008
 51
344.2548215002303
  0
ARC
  5
15B
330
1F
100
AcDbEntity
  8
0
  6
SLD-Solid
 62
     7
370
    25
100
AcDbCircle
 10
6.400093926752259
 20
9.41953626544853
 30
0.0
 40
0.0100000000000016
100
AcDbArc
 50
195.7451784997798
 51
270.0000000000008
  0
ARC
  5
15C
330
1F
100
AcDbEntity
  8
0
  6
SLD-Solid
 62
     7
370
    25
100
AcDbCircle
 10
9.704023462950493
 20
9.533036265448569
 30
0.0
 40
0.0099999999999998
100
AcDbArc
 50
270.0000000000008
 51
0.0
  0
ARC
  5
15D
330
1F
100
AcDbEntity
  8
0
  6
SLD-Solid
 62
     7
370
    25
100
AcDbCircle
 10
9.236023462950493
 20
9.533036265448562
 30
0.0
 40
0.0100000000000016
100
AcDbArc
 50
180.0
 51
270.0000000000008
  0
LINE
  5
15E
330
1F
100
AcDbEntity
  8
0
  6
SLD-Solid
 62
     7
370
    25
100
AcDbLine
 10
9.714023462950493
 20
9.533036265448569
 30
0.0
 11
9.714023462950493
 21
9.548036265448571
 31
0.0
  0
LINE
  5
15F
330
1F
100
AcDbEntity
  8
0
  6
SLD-Solid
 62
     7
370
    25
100
AcDbLine
 10
9.226023462950494
 20
9.54803626544856
 30
0.0
 11
9.226023462950494
 21
9.533036265448562
 31
0.0
  0
ARC
  5
160
330
1F
100
AcDbEntity
  8
0
  6
SLD-Solid
 62
     7
370
    25
100
AcDbCircle
 10
9.70109392675232
 20
9.51303626544857
 30
0.0
 40
0.0100000000000024
100
AcDbArc
 50
90.00000000001017
 51
164.254821500235
  0
ARC
  5
161
330
1F
100
AcDbEntity
  8
0
  6
SLD-Solid
 62
     7
370
    25
100
AcDbCircle
 10
9.238952999148669
 20
9.51303626544856
 30
0.0
 40
0.0100000000000007
100
AcDbArc
 50
15.74517849976778
 51
90.0
  0
LINE
  5
162
330
1F
100
AcDbEntity
  8
0
  6
SLD-Solid
 62
     7
370
    25
100
AcDbLine
 10
9.248577779899128
 20
9.515749860021376
 30
0.0
 11
9.276469146001862
 21
9.416822670875744
 31
0.0
  0
LINE
  5
163
330
1F
100
AcDbEntity
  8
0
  6
SLD-Solid
 62
     7
370
    25
100
AcDbLine
 10
9.663577779899128
 20
9.416822670875753
 30
0.0
 11
9.69146914600186
 21
9.515749860021385
 31
0.0
  0
ARC
  5
164
330
1F
100
AcDbEntity
  8
0
  6
SLD-Solid
 62
     7
370
    25
100
AcDbCircle
 10
9.653952999148672
 20
9.419536265448569
 30
0.0
 40
0.0099999999999998
100
AcDbArc
 50
270.0000000000008
 51
344.2548215002303
  0
ARC
  5
165
330
1F
100
AcDbEntity
  8
0
  6
SLD-Solid
 62
     7
370
    25
100
AcDbCircle
 10
9.28609392675232
 20
9.419536265448562
 30
0.0
 40
0.0100000000000012
100
AcDbArc
 50
195.7451784997784
 51
270.0000000000008
  0
LINE
  5
166
330
1F
100
AcDbEntity
  8
0
  6
SLD-Solid
 62
     7
370
    25
100
AcDbLine
 10
9.698094530762269
 20
16.42393626544854
 30
0.0
 11
9.683952395138556
 21
16.42393626544854
 31
0.0
  0
LINE
  5
167
330
1F
100
AcDbEntity
  8
0
  6
SLD-Solid
 62
     7
370
    25
100
AcDbLine
 10
6.344094530762308
 20
16.42393626544854
 30
0.0
 11
6.329952395138577
 21
16.42393626544854
 31
0.0
  0
LINE
  5
168
330
1F
100
AcDbEntity
  8
0
  6
SLD-Solid
 62
     7
370
    25
100
AcDbLine
 10
9.764023462950442
 20
9.634000539034204
 30
0.0
 11
9.764023462950442
 21
9.657385802884745
 31
0.0
  0
LINE
  5
169
330
1F
100
AcDbEntity
  8
0
  6
SLD-Solid
 62
     7
370
    25
100
AcDbLine
 10
6.264023462950441
 20
9.668229101756873
 30
0.0
 11
6.264023462950441
 21
9.623936265448538
 31
0.0
  0
LINE
  5
16A
330
1F
100
AcDbEntity
  8
0
  6
SLD-Solid
 62
     7
370
    25
100
AcDbLine
 10
7.887302329875022
 20
9.518036265448538
 30
0.0
 11
8.26002346294953
 21
9.51803626544854
 31
0.0
  0
LINE
  5
16B
330
1F
100
AcDbEntity
  8
0
  6
SLD-Solid
 62
     7
370
    25
100
AcDbLine
 10
7.880023462951381
 20
9.518036265448538
 30
0.0
 11
7.887302329875022
 21
9.518036265448538
 31
0.0
  0
LINE
  5
16C
330
1F
100
AcDbEntity
  8
0
  6
SLD-Solid
 62
     7
370
    25
100
AcDbLine
 10
8.096798447869547
 20
9.4880362654493
 30
0.0
 11
8.167692956835147
 21
9.488036265449301
 31
0.0
  0
LINE
  5
16D
330
1F
100
AcDbEntity
  8
0
  6
SLD-Solid
 62
     7
370
    25
100
AcDbLine
 10
7.972353969065762
 20
9.4880362654493
 30
0.0
 11
8.096798447869547
 21
9.4880362654493
 31
0.0
  0
LINE
  5
16E
330
1F
100
AcDbEntity
  8
0
  6
SLD-Solid
 62
     7
370
    25
100
AcDbLine
 10
6.806433672714414
 20
9.518036265448531
 30
0.0
 11
6.974023462950452
 21
9.518036265448533
 31
0.0
  0
LINE
  5
16F
330
1F
100
AcDbEntity
  8
0
  6
SLD-Solid
 62
     7
370
    25
100
AcDbLine
 10
6.797655621540956
 20
9.488036265449294
 30
0.0
 11
6.881692956835145
 21
9.488036265449294
 31
0.0
  0
LINE
  5
170
330
1F
100
AcDbEntity
  8
0
  6
SLD-Solid
 62
     7
370
    25
100
AcDbLine
 10
6.818023457756332
 20
9.523036265448532
 30
0.0
 11
6.350023462950434
 21
9.523036265448528
 31
0.0
  0
LINE
  5
171
330
1F
100
AcDbEntity
  8
0
  6
SLD-Solid
 62
     7
370
    25
100
AcDbLine
 10
6.767952997506357
 20
9.409536265448532
 30
0.0
 11
6.400093926752259
 21
9.409536265448528
 31
0.0
  0
LINE
  5
172
330
1F
100
AcDbEntity
  8
0
  6
SLD-Solid
 62
     7
370
    25
100
AcDbLine
 10
9.470023462950493
 20
9.523036265448566
 30
0.0
 11
9.236023462950493
 21
9.52303626544856
 31
0.0
  0
LINE
  5
173
330
1F
100
AcDbEntity
  8
0
  6
SLD-Solid
 62
     7
370
    25
100
AcDbLine
 10
9.704023462950493
 20
9.52303626544857
 30
0.0
 11
9.470023462950493
 21
9.523036265448566
 31
0.0
  0
LINE
  5
174
330
1F
100
AcDbEntity
  8
0
  6
SLD-Solid
 62
     7
370
    25
100
AcDbLine
 10
9.470023462950495
 20
9.409536265448565
 30
0.0
 11
9.28609392675232
 21
9.409536265448562
 31
0.0
  0
LINE
  5
175
330
1F
100
AcDbEntity
  8
0
  6
SLD-Solid
 62
     7
370
    25
100
AcDbLine
 10
9.653952999148672
 20
9.409536265448569
 30
0.0
 11
9.470023462950495
 21
9.409536265448565
 31
0.0
  0
LINE
  5
176
330
1F
100
AcDbEntity
  8
0
  6
SLD-Solid
 62
     7
370
    25
100
AcDbLine
 10
9.451944736154006
 20
9.998597786025083
 30
0.0
 11
9.442653132434826
 21
9.998597786025083
 31
0.0
  0
LINE
  5
177
330
1F
100
AcDbEntity
  8
0
  6
SLD-Solid
 62
     7
370
    25
100
AcDbLine
 10
9.442653132434804
 20
16.14727474487203
 30
0.0
 11
9.442653132434826
 21
9.998597786025083
 31
0.0
  0
LINE
  5
178
330
1F
100
AcDbEntity
  8
0
  6
SLD-Solid
 62
     7
370
    25
100
AcDbLine
 10
9.442653132434804
 20
16.14727474487203
 30
0.0
 11
9.451944736153985
 21
16.14727474487203
 31
0.0
  0
LINE
  5
179
330
1F
100
AcDbEntity
  8
0
  6
SLD-Solid
 62
     7
370
    25
100
AcDbLine
 10
9.451944736153985
 20
16.14727474487203
 30
0.0
 11
9.451944736154006
 21
9.998597786025083
 31
0.0
  0
ARC
  5
17A
330
1F
100
AcDbEntity
  8
0
  6
SLD-Solid
 62
     7
370
    25
100
AcDbCircle
 10
9.502804131480652
 20
9.998443985118556
 30
0.0
 40
0.0508596278762522
100
AcDbArc
 50
179.8267357307131
 51
224.7547622205143
  0
ARC
  5
17B
330
1F
100
AcDbEntity
  8
0
  6
SLD-Solid
 62
     7
370
    25
100
AcDbCircle
 10
9.502804131480623
 20
16.14742854577856
 30
0.0
 40
0.0508596278762449
100
AcDbArc
 50
135.245237779488
 51
180.1732642692917
  0
LINE
  5
17C
330
1F
100
AcDbEntity
  8
0
  6
SLD-Solid
 62
     7
370
    25
100
AcDbLine
 10
9.466687343738766
 20
16.18323747470585
 30
0.0
 11
9.772348864315282
 21
16.48889899528237
 31
0.0
  0
ARC
  5
17D
330
1F
100
AcDbEntity
  8
0
  6
SLD-Solid
 62
     7
370
    25
100
AcDbCircle
 10
9.80604332346479
 20
16.45547897148738
 30
0.0
 40
0.047457502755996
100
AcDbArc
 50
90.16995941160424
 51
135.2342847510265
  0
LINE
  5
17E
330
1F
100
AcDbEntity
  8
0
  6
SLD-Solid
 62
     7
370
    25
100
AcDbLine
 10
9.816820818977593
 20
16.50293626544855
 30
0.0
 11
9.805902548044955
 21
16.50293626544855
 31
0.0
  0
LINE
  5
17F
330
1F
100
AcDbEntity
  8
0
  6
SLD-Solid
 62
     7
370
    25
100
AcDbLine
 10
9.816820818977607
 20
9.642940462945743
 30
0.0
 11
9.816820818977593
 21
16.50293626544855
 31
0.0
  0
ARC
  5
180
330
1F
100
AcDbEntity
  8
0
  6
SLD-Solid
 62
     7
370
    25
100
AcDbCircle
 10
9.817849690942664
 20
9.718888630744717
 30
0.0
 40
0.0759551365579816
100
AcDbArc
 50
224.7703956520852
 51
269.2238599408739
  0
LINE
  5
181
330
1F
100
AcDbEntity
  8
0
  6
SLD-Solid
 62
     7
370
    25
100
AcDbLine
 10
9.763926502215613
 20
9.66539589771444
 30
0.0
 11
9.466687343738789
 21
9.96263505619126
 31
0.0
  0
LINE
  5
182
330
1F
100
AcDbEntity
  8
0
  6
SLD-Solid
 62
     7
370
    25
100
AcDbLine
 10
9.466687343738766
 20
16.18323747470585
 30
0.0
 11
9.457395740019583
 21
16.18323747470585
 31
0.0
  0
ARC
  5
183
330
1F
100
AcDbEntity
  8
0
  6
SLD-Solid
 62
     7
370
    25
100
AcDbCircle
 10
9.49351252776143
 20
16.14742854577857
 30
0.0
 40
0.0508596278762334
100
AcDbArc
 50
135.2452377794824
 51
180.1732642692957
  0
LINE
  5
184
330
1F
100
AcDbEntity
  8
0
  6
SLD-Solid
 62
     7
370
    25
100
AcDbLine
 10
9.414361942373905
 20
16.1848575386521
 30
0.0
 11
9.414361942373905
 21
16.17556593493293
 31
0.0
  0
LINE
  5
185
330
1F
100
AcDbEntity
  8
0
  6
SLD-Solid
 62
     7
370
    25
100
AcDbLine
 10
6.61368498352696
 20
16.17556593493293
 30
0.0
 11
9.414361942373905
 21
16.17556593493293
 31
0.0
  0
LINE
  5
186
330
1F
100
AcDbEntity
  8
0
  6
SLD-Solid
 62
     7
370
    25
100
AcDbLine
 10
6.61368498352696
 20
16.17556593493293
 30
0.0
 11
6.61368498352696
 21
16.18485753865211
 31
0.0
  0
LINE
  5
187
330
1F
100
AcDbEntity
  8
0
  6
SLD-Solid
 62
     7
370
    25
100
AcDbLine
 10
6.61368498352696
 20
16.18485753865211
 30
0.0
 11
9.414361942373905
 21
16.1848575386521
 31
0.0
  0
LINE
  5
188
330
1F
100
AcDbEntity
  8
0
  6
SLD-Solid
 62
     7
370
    25
100
AcDbLine
 10
6.576102189746875
 20
16.14727474487202
 30
0.0
 11
6.585393793466055
 21
16.14727474487202
 31
0.0
  0
ARC
  5
189
330
1F
100
AcDbEntity
  8
0
  6
SLD-Solid
 62
     7
370
    25
100
AcDbCircle
 10
6.525242794420194
 20
16.14742854577853
 30
0.0
 40
0.0508596278762875
100
AcDbArc
 50
359.8267357307261
 51
44.75476222049455
  0
LINE
  5
18A
330
1F
100
AcDbEntity
  8
0
  6
SLD-Solid
 62
     7
370
    25
100
AcDbLine
 10
6.570651185881274
 20
16.18323747470584
 30
0.0
 11
6.561359582162091
 21
16.18323747470584
 31
0.0
  0
ARC
  5
18B
330
1F
100
AcDbEntity
  8
0
  6
SLD-Solid
 62
     7
370
    25
100
AcDbCircle
 10
6.534534398139389
 20
16.14742854577854
 30
0.0
 40
0.0508596278762733
100
AcDbArc
 50
359.826735730722
 51
44.75476222050157
  0
ARC
  5
18C
330
1F
100
AcDbEntity
  8
0
  6
SLD-Solid
 62
     7
370
    25
100
AcDbCircle
 10
9.414515743280427
 20
16.23571693397876
 30
0.0
 40
0.0508596278762608
100
AcDbArc
 50
269.82673573072
 51
314.7547622205087
  0
ARC
  5
18D
330
1F
100
AcDbEntity
  8
0
  6
SLD-Solid
 62
     7
370
    25
100
AcDbCircle
 10
6.613531182620423
 20
16.23571693397873
 30
0.0
 40
0.050859627876229
100
AcDbArc
 50
225.2452377794825
 51
270.1732642692978
  0
LINE
  5
18E
330
1F
100
AcDbEntity
  8
0
  6
SLD-Solid
 62
     7
370
    25
100
AcDbLine
 10
6.27206073311661
 20
16.50526166681342
 30
0.0
 11
6.577722253693141
 21
16.19960014623689
 31
0.0
  0
ARC
  5
18F
330
1F
100
AcDbEntity
  8
0
  6
SLD-Solid
 62
     7
370
    25
100
AcDbCircle
 10
6.305480756911618
 20
16.53895612596294
 30
0.0
 40
0.0474575027560211
100
AcDbArc
 50
180.1699594116243
 51
225.2342847510196
  0
LINE
  5
190
330
1F
100
AcDbEntity
  8
0
  6
SLD-Solid
 62
     7
370
    25
100
AcDbLine
 10
6.25802346295043
 20
16.54973362147571
 30
0.0
 11
6.258023462950429
 21
16.53881535054309
 31
0.0
  0
LINE
  5
191
330
1F
100
AcDbEntity
  8
0
  6
SLD-Solid
 62
     7
370
    25
100
AcDbLine
 10
6.25802346295043
 20
16.54973362147571
 30
0.0
 11
9.77002346295043
 21
16.54973362147571
 31
0.0
  0
LINE
  5
192
330
1F
100
AcDbEntity
  8
0
  6
SLD-Solid
 62
     7
370
    25
100
AcDbLine
 10
9.77002346295043
 20
16.53881535054309
 30
0.0
 11
9.77002346295043
 21
16.54973362147571
 31
0.0
  0
ARC
  5
193
330
1F
100
AcDbEntity
  8
0
  6
SLD-Solid
 62
     7
370
    25
100
AcDbCircle
 10
9.722566168989216
 20
16.53895612596294
 30
0.0
 40
0.047457502756044
100
AcDbArc
 50
314.7657152490019
 51
359.8300405883774
  0
LINE
  5
194
330
1F
100
AcDbEntity
  8
0
  6
SLD-Solid
 62
     7
370
    25
100
AcDbLine
 10
9.450324672207724
 20
16.19960014623689
 30
0.0
 11
9.75598619278425
 21
16.50526166681341
 31
0.0
  0
LINE
  5
195
330
1F
100
AcDbEntity
  8
0
  6
SLD-Solid
 62
     7
370
    25
100
AcDbLine
 10
9.450324672207724
 20
16.19030854251771
 30
0.0
 11
9.450324672207724
 21
16.19960014623689
 31
0.0
  0
ARC
  5
196
330
1F
100
AcDbEntity
  8
0
  6
SLD-Solid
 62
     7
370
    25
100
AcDbCircle
 10
9.414515743280434
 20
16.22642533025957
 30
0.0
 40
0.0508596278762502
100
AcDbArc
 50
269.8267357307119
 51
314.7547622205086
  0
LINE
  5
197
330
1F
100
AcDbEntity
  8
0
  6
SLD-Solid
 62
     7
370
    25
100
AcDbLine
 10
6.577722253693141
 20
16.19960014623689
 30
0.0
 11
6.577722253693139
 21
16.19030854251771
 31
0.0
  0
ARC
  5
198
330
1F
100
AcDbEntity
  8
0
  6
SLD-Solid
 62
     7
370
    25
100
AcDbCircle
 10
6.613531182620432
 20
16.22642533025957
 30
0.0
 40
0.0508596278762541
100
AcDbArc
 50
225.2452377794937
 51
270.1732642692876
  0
LINE
  5
199
330
1F
100
AcDbEntity
  8
0
  6
SLD-Solid
 62
     7
370
    25
100
AcDbLine
 10
6.585393793466033
 20
9.998597786025075
 30
0.0
 11
6.576102189746853
 21
9.998597786025075
 31
0.0
  0
LINE
  5
19A
330
1F
100
AcDbEntity
  8
0
  6
SLD-Solid
 62
     7
370
    25
100
AcDbLine
 10
6.576102189746853
 20
9.998597786025075
 30
0.0
 11
6.576102189746875
 21
16.14727474487202
 31
0.0
  0
LINE
  5
19B
330
1F
100
AcDbEntity
  8
0
  6
SLD-Solid
 62
     7
370
    25
100
AcDbLine
 10
6.585393793466033
 20
9.998597786025075
 30
0.0
 11
6.585393793466055
 21
16.14727474487202
 31
0.0
  0
ARC
  5
19C
330
1F
100
AcDbEntity
  8
0
  6
SLD-Solid
 62
     7
370
    25
100
AcDbCircle
 10
6.52524279442022
 20
9.998443985118543
 30
0.0
 40
0.0508596278762396
100
AcDbArc
 50
315.2452377794838
 51
0.1732642692909158
  0
LINE
  5
19D
330
1F
100
AcDbEntity
  8
0
  6
SLD-Solid
 62
     7
370
    25
100
AcDbLine
 10
6.561359582162071
 20
9.962635056191255
 30
0.0
 11
6.285960335062529
 21
9.68723580909171
 31
0.0
  0
ARC
  5
19E
330
1F
100
AcDbEntity
  8
0
  6
SLD-Solid
 62
     7
370
    25
100
AcDbCircle
 10
6.232049200423313
 20
9.7407078471637
 30
0.0
 40
0.0759320044096032
100
AcDbArc
 50
270.1699594116079
 51
315.234284751022
  0
LINE
  5
19F
330
1F
100
AcDbEntity
  8
0
  6
SLD-Solid
 62
     7
370
    25
100
AcDbLine
 10
6.232274441095052
 20
9.664776176825825
 30
0.0
 11
6.211226106923252
 21
9.664776176825825
 31
0.0
  0
LINE
  5
1A0
330
1F
100
AcDbEntity
  8
0
  6
SLD-Solid
 62
     7
370
    25
100
AcDbLine
 10
6.211226106923252
 20
9.664776176825825
 30
0.0
 11
6.211226106923252
 21
9.682936265448552
 31
0.0
  0
LINE
  5
1A1
330
1F
100
AcDbEntity
  8
0
  6
SLD-Solid
 62
     7
370
    25
100
AcDbLine
 10
6.211226106923273
 20
16.50293626544855
 30
0.0
 11
6.211226106923252
 21
9.682936265448552
 31
0.0
  0
LINE
  5
1A2
330
1F
100
AcDbEntity
  8
0
  6
SLD-Solid
 62
     7
370
    25
100
AcDbLine
 10
6.222144377855891
 20
16.50293626544855
 30
0.0
 11
6.211226106923273
 21
16.50293626544855
 31
0.0
  0
ARC
  5
1A3
330
1F
100
AcDbEntity
  8
0
  6
SLD-Solid
 62
     7
370
    25
100
AcDbCircle
 10
6.222003602436055
 20
16.45547897148738
 30
0.0
 40
0.047457502755996
100
AcDbArc
 50
44.76571524897883
 51
89.8300405883947
  0
LINE
  5
1A4
330
1F
100
AcDbEntity
  8
0
  6
SLD-Solid
 62
     7
370
    25
100
AcDbLine
 10
6.25569806158556
 20
16.48889899528237
 30
0.0
 11
6.561359582162091
 21
16.18323747470584
 31
0.0
  0
LINE
  5
1A5
330
1F
100
AcDbEntity
  8
0
  6
SLD-Solid
 62
     7
370
    25
100
AcDbLine
 10
6.561359582162071
 20
9.962635056191255
 30
0.0
 11
6.570651185881252
 21
9.962635056191255
 31
0.0
  0
ARC
  5
1A6
330
1F
100
AcDbEntity
  8
0
  6
SLD-Solid
 62
     7
370
    25
100
AcDbCircle
 10
6.534534398139392
 20
9.998443985118547
 30
0.0
 40
0.0508596278762478
100
AcDbArc
 50
315.245237779488
 51
0.1732642692868863
  0
LINE
  5
1A7
330
1F
100
AcDbEntity
  8
0
  6
SLD-Solid
 62
     7
370
    25
100
AcDbLine
 10
9.45032467220774
 20
9.946272384660213
 30
0.0
 11
9.45032467220774
 21
9.955563988379396
 31
0.0
  0
ARC
  5
1A8
330
1F
100
AcDbEntity
  8
0
  6
SLD-Solid
 62
     7
370
    25
100
AcDbCircle
 10
9.414515743280447
 20
9.910155596918353
 30
0.0
 40
0.0508596278762502
100
AcDbArc
 50
45.24523777948652
 51
90.17326426928487
  0
LINE
  5
1A9
330
1F
100
AcDbEntity
  8
0
  6
SLD-Solid
 62
     7
370
    25
100
AcDbLine
 10
9.41436194237392
 20
9.970306595964175
 30
0.0
 11
9.41436194237392
 21
9.961014992244996
 31
0.0
  0
ARC
  5
1AA
330
1F
100
AcDbEntity
  8
0
  6
SLD-Solid
 62
     7
370
    25
100
AcDbCircle
 10
9.414515743280448
 20
9.91944720063753
 30
0.0
 40
0.0508596278762522
100
AcDbArc
 50
45.24523777949217
 51
90.17326426928688
  0
ARC
  5
1AB
330
1F
100
AcDbEntity
  8
0
  6
SLD-Solid
 62
     7
370
    25
100
AcDbCircle
 10
6.613531182620501
 20
9.910155596918292
 30
0.0
 40
0.0508596278762893
100
AcDbArc
 50
89.82673573073326
 51
134.754762220496
  0
LINE
  5
1AC
330
1F
100
AcDbEntity
  8
0
  6
SLD-Solid
 62
     7
370
    25
100
AcDbLine
 10
9.41436194237392
 20
9.961014992244996
 30
0.0
 11
6.613684983527011
 21
9.961014992244975
 31
0.0
  0
LINE
  5
1AD
330
1F
100
AcDbEntity
  8
0
  6
SLD-Solid
 62
     7
370
    25
100
AcDbLine
 10
9.45032467220774
 20
9.946272384660213
 30
0.0
 11
9.747563830684562
 21
9.649033226183393
 31
0.0
  0
ARC
  5
1AE
330
1F
100
AcDbEntity
  8
0
  6
SLD-Solid
 62
     7
370
    25
100
AcDbCircle
 10
9.694071097654279
 20
9.595110037456335
 30
0.0
 40
0.0759551365579916
100
AcDbArc
 50
0.7761400591294468
 51
45.2296043479156
  0
LINE
  5
1AF
330
1F
100
AcDbEntity
  8
0
  6
SLD-Solid
 62
     7
370
    25
100
AcDbLine
 10
6.28402346295045
 20
9.596138909421375
 30
0.0
 11
9.770019265453262
 21
9.596138909421395
 31
0.0
  0
LINE
  5
1B0
330
1F
100
AcDbEntity
  8
0
  6
SLD-Solid
 62
     7
370
    25
100
AcDbLine
 10
6.284023462950452
 20
9.621347332215866
 30
0.0
 11
6.28402346295045
 21
9.596138909421375
 31
0.0
  0
ARC
  5
1B1
330
1F
100
AcDbEntity
  8
0
  6
SLD-Solid
 62
     7
370
    25
100
AcDbCircle
 10
6.359955133288334
 20
9.621122091544121
 30
0.0
 40
0.0759320044096105
100
AcDbArc
 50
134.7657152489803
 51
179.8300405883896
  0
LINE
  5
1B2
330
1F
100
AcDbEntity
  8
0
  6
SLD-Solid
 62
     7
370
    25
100
AcDbLine
 10
6.306483095216339
 20
9.675033226183341
 30
0.0
 11
6.577722253693191
 21
9.946272384660192
 31
0.0
  0
LINE
  5
1B3
330
1F
100
AcDbEntity
  8
0
  6
SLD-Solid
 62
     7
370
    25
100
AcDbLine
 10
9.457395740019606
 20
9.962635056191262
 30
0.0
 11
9.466687343738789
 21
9.96263505619126
 31
0.0
  0
ARC
  5
1B4
330
1F
100
AcDbEntity
  8
0
  6
SLD-Solid
 62
     7
370
    25
100
AcDbCircle
 10
9.493512527761489
 20
9.998443985118563
 30
0.0
 40
0.0508596278762699
100
AcDbArc
 50
179.8267357307212
 51
224.7547622205031
  0
LINE
  5
1B5
330
1F
100
AcDbEntity
  8
0
  6
SLD-Solid
 62
     7
370
    25
100
AcDbLine
 10
6.613684983527011
 20
9.961014992244975
 30
0.0
 11
6.613684983527011
 21
9.970306595964153
 31
0.0
  0
LINE
  5
1B6
330
1F
100
AcDbEntity
  8
0
  6
SLD-Solid
 62
     7
370
    25
100
AcDbLine
 10
9.41436194237392
 20
9.970306595964175
 30
0.0
 11
6.613684983527011
 21
9.970306595964153
 31
0.0
  0
LINE
  5
1B7
330
1F
100
AcDbEntity
  8
0
  6
SLD-Solid
 62
     7
370
    25
100
AcDbLine
 10
6.577722253693191
 20
9.955563988379373
 30
0.0
 11
6.577722253693191
 21
9.946272384660192
 31
0.0
  0
ARC
  5
1B8
330
1F
100
AcDbEntity
  8
0
  6
SLD-Solid
 62
     7
370
    25
100
AcDbCircle
 10
6.61353118262049
 20
9.919447200637494
 30
0.0
 40
0.0508596278762667
100
AcDbArc
 50
89.82673573072118
 51
134.7547622205043
  0
LINE
  5
1B9
330
1F
100
AcDbEntity
  8
0
  6
SLD-Solid
 62
     7
370
    25
100
AcDbLine
 10
9.763057260596101
 20
16.48889899528237
 30
0.0
 11
9.457395740019583
 21
16.18323747470585
 31
0.0
  0
LINE
  5
1BA
330
1F
100
AcDbEntity
  8
0
  6
SLD-Solid
 62
     7
370
    25
100
AcDbLine
 10
9.763057260596101
 20
16.48889899528237
 30
0.0
 11
9.772348864315282
 21
16.48889899528237
 31
0.0
  0
LINE
  5
1BB
330
1F
100
AcDbEntity
  8
0
  6
SLD-Solid
 62
     7
370
    25
100
AcDbLine
 10
9.75598619278425
 20
16.50526166681341
 30
0.0
 11
9.75598619278425
 21
16.49597006309423
 31
0.0
  0
LINE
  5
1BC
330
1F
100
AcDbEntity
  8
0
  6
SLD-Solid
 62
     7
370
    25
100
AcDbLine
 10
9.450324672207724
 20
16.19030854251771
 30
0.0
 11
9.75598619278425
 21
16.49597006309423
 31
0.0
  0
LINE
  5
1BD
330
1F
100
AcDbEntity
  8
0
  6
SLD-Solid
 62
     7
370
    25
100
AcDbLine
 10
6.29525193878171
 20
9.68723580909171
 30
0.0
 11
6.570651185881252
 21
9.962635056191255
 31
0.0
  0
LINE
  5
1BE
330
1F
100
AcDbEntity
  8
0
  6
SLD-Solid
 62
     7
370
    25
100
AcDbLine
 10
6.29525193878171
 20
9.68723580909171
 30
0.0
 11
6.285960335062529
 21
9.68723580909171
 31
0.0
  0
LINE
  5
1BF
330
1F
100
AcDbEntity
  8
0
  6
SLD-Solid
 62
     7
370
    25
100
AcDbLine
 10
6.25569806158556
 20
16.48889899528237
 30
0.0
 11
6.264989665304744
 21
16.48889899528237
 31
0.0
  0
LINE
  5
1C0
330
1F
100
AcDbEntity
  8
0
  6
SLD-Solid
 62
     7
370
    25
100
AcDbLine
 10
6.570651185881274
 20
16.18323747470584
 30
0.0
 11
6.264989665304744
 21
16.48889899528237
 31
0.0
  0
LINE
  5
1C1
330
1F
100
AcDbEntity
  8
0
  6
SLD-Solid
 62
     7
370
    25
100
AcDbLine
 10
6.272060733116609
 20
16.49597006309424
 30
0.0
 11
6.577722253693139
 21
16.19030854251771
 31
0.0
  0
LINE
  5
1C2
330
1F
100
AcDbEntity
  8
0
  6
SLD-Solid
 62
     7
370
    25
100
AcDbLine
 10
6.272060733116609
 20
16.49597006309424
 30
0.0
 11
6.27206073311661
 21
16.50526166681342
 31
0.0
  0
LINE
  5
1C3
330
1F
100
AcDbEntity
  8
0
  6
SLD-Solid
 62
     7
370
    25
100
AcDbLine
 10
9.763926502215613
 20
9.66539589771444
 30
0.0
 11
9.754634898496432
 21
9.66539589771444
 31
0.0
  0
LINE
  5
1C4
330
1F
100
AcDbEntity
  8
0
  6
SLD-Solid
 62
     7
370
    25
100
AcDbLine
 10
9.457395740019606
 20
9.962635056191262
 30
0.0
 11
9.754634898496432
 21
9.66539589771444
 31
0.0
  0
LINE
  5
1C5
330
1F
100
AcDbEntity
  8
0
  6
SLD-Solid
 62
     7
370
    25
100
AcDbLine
 10
9.747563830684562
 20
9.658324829902574
 30
0.0
 11
9.45032467220774
 21
9.955563988379396
 31
0.0
  0
LINE
  5
1C6
330
1F
100
AcDbEntity
  8
0
  6
SLD-Solid
 62
     7
370
    25
100
AcDbLine
 10
9.747563830684562
 20
9.658324829902574
 30
0.0
 11
9.747563830684562
 21
9.649033226183393
 31
0.0
  0
LINE
  5
1C7
330
1F
100
AcDbEntity
  8
0
  6
SLD-Solid
 62
     7
370
    25
100
AcDbLine
 10
6.306483095216339
 20
9.675033226183341
 30
0.0
 11
6.30648309521634
 21
9.684324829902524
 31
0.0
  0
LINE
  5
1C8
330
1F
100
AcDbEntity
  8
0
  6
SLD-Solid
 62
     7
370
    25
100
AcDbLine
 10
6.577722253693191
 20
9.955563988379373
 30
0.0
 11
6.30648309521634
 21
9.684324829902524
 31
0.0
  0
LINE
  5
1C9
330
1F
100
AcDbEntity
  8
0
  6
SLD-Solid
 62
     7
370
    25
100
AcDbLine
 10
6.284023462950452
 20
9.630638935935046
 30
0.0
 11
6.284023462950452
 21
9.621347332215866
 31
0.0
  0
ARC
  5
1CA
330
1F
100
AcDbEntity
  8
0
  6
SLD-Solid
 62
     7
370
    25
100
AcDbCircle
 10
6.359955133288332
 20
9.630413695263304
 30
0.0
 40
0.0759320044096078
100
AcDbArc
 50
134.7657152489784
 51
179.830040588391
  0
LINE
  5
1CB
330
1F
100
AcDbEntity
  8
0
  6
SLD-Solid
 62
     7
370
    25
100
AcDbLine
 10
6.232274441095052
 20
9.664776176825825
 30
0.0
 11
6.241566044814233
 21
9.664776176825825
 31
0.0
  0
ARC
  5
1CC
330
1F
100
AcDbEntity
  8
0
  6
SLD-Solid
 62
     7
370
    25
100
AcDbCircle
 10
6.241340804142492
 20
9.740707847163703
 30
0.0
 40
0.0759320044096063
100
AcDbArc
 50
270.1699594116085
 51
315.2342847510205
  0
LINE
  5
1CD
330
1F
100
AcDbEntity
  8
0
  6
SLD-Solid
 62
     7
370
    25
100
AcDbLine
 10
9.770023462950453
 20
9.595348671392525
 30
0.0
 11
9.770023462950451
 21
9.604641933399044
 31
0.0
  0
LINE
  5
1CE
330
1F
100
AcDbEntity
  8
0
  6
SLD-Solid
 62
     7
370
    25
100
AcDbLine
 10
9.770019265453262
 20
9.596138909421395
 30
0.0
 11
9.770023462950453
 21
9.595348671392525
 31
0.0
  0
LINE
  5
1CF
330
1F
100
AcDbEntity
  8
0
  6
SLD-Solid
 62
     7
370
    25
100
AcDbLine
 10
9.770023462950451
 20
9.604641933399044
 30
0.0
 11
9.770019265453262
 21
9.605430513140574
 31
0.0
  0
ARC
  5
1D0
330
1F
100
AcDbEntity
  8
0
  6
SLD-Solid
 62
     7
370
    25
100
AcDbCircle
 10
9.694071097654296
 20
9.604401641175523
 30
0.0
 40
0.0759551365579741
100
AcDbArc
 50
0.776140059122929
 51
45.22960434792135
  0
LINE
  5
1D1
330
1F
100
AcDbEntity
  8
0
  6
SLD-Solid
 62
     7
370
    25
100
AcDbLine
 10
9.81761105700648
 20
9.642936265448553
 30
0.0
 11
9.816820818977607
 21
9.642940462945743
 31
0.0
  0
LINE
  5
1D2
330
1F
100
AcDbEntity
  8
0
  6
SLD-Solid
 62
     7
370
    25
100
AcDbLine
 10
9.808317794999962
 20
9.642936265448553
 30
0.0
 11
9.81761105700648
 21
9.642936265448553
 31
0.0
  0
LINE
  5
1D3
330
1F
100
AcDbEntity
  8
0
  6
SLD-Solid
 62
     7
370
    25
100
AcDbLine
 10
9.807529215258427
 20
9.642940462945743
 30
0.0
 11
9.808317794999962
 21
9.642936265448553
 31
0.0
  0
ARC
  5
1D4
330
1F
100
AcDbEntity
  8
0
  6
SLD-Solid
 62
     7
370
    25
100
AcDbCircle
 10
9.808558087223469
 20
9.718888630744688
 30
0.0
 40
0.075955136557952
100
AcDbArc
 50
224.7703956520775
 51
269.2238599408844
  0
LINE
  5
1D5
330
1F
100
AcDbEntity
  8
0
  6
SLD-Solid
 62
     7
370
    25
100
AcDbLine
 10
9.805902548044955
 20
16.50293626544855
 30
0.0
 11
9.796610944325774
 21
16.50293626544855
 31
0.0
  0
ARC
  5
1D6
330
1F
100
AcDbEntity
  8
0
  6
SLD-Solid
 62
     7
370
    25
100
AcDbCircle
 10
9.796751719745616
 20
16.45547897148737
 30
0.0
 40
0.0474575027560102
100
AcDbArc
 50
90.16995941161277
 51
135.2342847510203
  0
LINE
  5
1D7
330
1F
100
AcDbEntity
  8
0
  6
SLD-Solid
 62
     7
370
    25
100
AcDbLine
 10
9.77002346295043
 20
16.5295237468239
 30
0.0
 11
9.77002346295043
 21
16.53881535054309
 31
0.0
  0
ARC
  5
1D8
330
1F
100
AcDbEntity
  8
0
  6
SLD-Solid
 62
     7
370
    25
100
AcDbCircle
 10
9.722566168989246
 20
16.52966452224375
 30
0.0
 40
0.0474575027560161
100
AcDbArc
 50
314.765715248982
 51
359.8300405883816
  0
LINE
  5
1D9
330
1F
100
AcDbEntity
  8
0
  6
SLD-Solid
 62
     7
370
    25
100
AcDbLine
 10
6.258023462950429
 20
16.53881535054309
 30
0.0
 11
6.258023462950429
 21
16.52952374682391
 31
0.0
  0
ARC
  5
1DA
330
1F
100
AcDbEntity
  8
0
  6
SLD-Solid
 62
     7
370
    25
100
AcDbCircle
 10
6.305480756911616
 20
16.52966452224376
 30
0.0
 40
0.047457502756018
100
AcDbArc
 50
180.16995941162
 51
225.2342847510173
  0
LINE
  5
1DB
330
1F
100
AcDbEntity
  8
0
  6
SLD-Solid
 62
     7
370
    25
100
AcDbLine
 10
6.231435981575071
 20
16.50293626544855
 30
0.0
 11
6.222144377855891
 21
16.50293626544855
 31
0.0
  0
ARC
  5
1DC
330
1F
100
AcDbEntity
  8
0
  6
SLD-Solid
 62
     7
370
    25
100
AcDbCircle
 10
6.231295206155237
 20
16.45547897148739
 30
0.0
 40
0.0474575027559889
100
AcDbArc
 50
44.76571524896895
 51
89.83004058839681
  0
LINE
  5
1DD
330
1F
100
AcDbEntity
  8
0
  6
SLD-Solid
 62
     7
370
    25
100
AcDbLine
 10
6.163123462950406
 20
9.682936265448552
 30
0.0
 11
6.211226106923252
 21
9.682936265448552
 31
0.0
  0
LINE
  5
1DE
330
1F
100
AcDbEntity
  8
0
  6
SLD-Solid
 62
     7
370
    25
100
AcDbLine
 10
6.163123462950429
 20
16.50293626544855
 30
0.0
 11
6.163123462950406
 21
9.682936265448552
 31
0.0
  0
LINE
  5
1DF
330
1F
100
AcDbEntity
  8
0
  6
SLD-Solid
 62
     7
370
    25
100
AcDbLine
 10
6.211226106923273
 20
16.50293626544855
 30
0.0
 11
6.163123462950429
 21
16.50293626544855
 31
0.0
  0
LINE
  5
1E0
330
1F
100
AcDbEntity
  8
0
  6
SLD-Solid
 62
     7
370
    25
100
AcDbLine
 10
9.770023619201956
 20
16.59783626544855
 30
0.0
 11
9.77002346295043
 21
16.59783624618815
 31
0.0
  0
LINE
  5
1E1
330
1F
100
AcDbEntity
  8
0
  6
SLD-Solid
 62
     7
370
    25
100
AcDbLine
 10
9.770023619201956
 20
16.59783626544855
 30
0.0
 11
6.25802346295043
 21
16.59783626544855
 31
0.0
  0
LINE
  5
1E2
330
1F
100
AcDbEntity
  8
0
  6
SLD-Solid
 62
     7
370
    25
100
AcDbLine
 10
6.25802346295043
 20
16.59783626544855
 30
0.0
 11
6.25802346295043
 21
16.54973362147571
 31
0.0
  0
LINE
  5
1E3
330
1F
100
AcDbEntity
  8
0
  6
SLD-Solid
 62
     7
370
    25
100
AcDbLine
 10
9.77002346295043
 20
16.54973362147571
 30
0.0
 11
9.77002346295043
 21
16.59783624618815
 31
0.0
  0
LINE
  5
1E4
330
1F
100
AcDbEntity
  8
0
  6
SLD-Solid
 62
     7
370
    25
100
AcDbLine
 10
9.864923443690037
 20
16.50293626544855
 30
0.0
 11
9.816820818977593
 21
16.50293626544855
 31
0.0
  0
LINE
  5
1E5
330
1F
100
AcDbEntity
  8
0
  6
SLD-Solid
 62
     7
370
    25
100
AcDbLine
 10
9.864923443690037
 20
16.50293626544855
 30
0.0
 11
9.864923462950438
 21
16.50293642170008
 31
0.0
  0
LINE
  5
1E6
330
1F
100
AcDbEntity
  8
0
  6
SLD-Solid
 62
     7
370
    25
100
AcDbLine
 10
9.864923462950438
 20
9.642936265448553
 30
0.0
 11
9.864923462950438
 21
16.50293642170008
 31
0.0
  0
LINE
  5
1E7
330
1F
100
AcDbEntity
  8
0
  6
SLD-Solid
 62
     7
370
    25
100
AcDbLine
 10
9.81761105700648
 20
9.642936265448553
 30
0.0
 11
9.864923462950438
 21
9.642936265448553
 31
0.0
  0
LINE
  5
1E8
330
1F
100
AcDbEntity
  8
0
  6
SLD-Solid
 62
     7
370
    25
100
AcDbLine
 10
9.770023462950453
 20
9.548036265448552
 30
0.0
 11
9.770023462950453
 21
9.595348671392525
 31
0.0
  0
LINE
  5
1E9
330
1F
100
AcDbEntity
  8
0
  6
SLD-Solid
 62
     7
370
    25
100
AcDbLine
 10
6.284023462950452
 20
9.548036265448498
 30
0.0
 11
9.770023462950453
 21
9.548036265448552
 31
0.0
  0
LINE
  5
1EA
330
1F
100
AcDbEntity
  8
0
  6
SLD-Solid
 62
     7
370
    25
100
AcDbLine
 10
6.28402346295045
 20
9.596138909421375
 30
0.0
 11
6.284023462950452
 21
9.548036265448498
 31
0.0
  0
LINE
  5
1EB
330
1F
100
AcDbEntity
  8
0
  6
SLD-Solid
 62
     7
370
    25
100
AcDbLine
 10
9.77802346295043
 20
16.59783626544855
 30
0.0
 11
9.770023619201956
 21
16.59783626544855
 31
0.0
  0
LINE
  5
1EC
330
1F
100
AcDbEntity
  8
0
  6
SLD-Solid
 62
     7
370
    25
100
AcDbLine
 10
9.77802346295043
 20
16.56193626544855
 30
0.0
 11
9.77802346295043
 21
16.59783626544855
 31
0.0
  0
LINE
  5
1ED
330
1F
100
AcDbEntity
  8
0
  6
SLD-Solid
 62
     7
370
    25
100
AcDbLine
 10
9.770023619201956
 20
16.56193626544855
 30
0.0
 11
9.77802346295043
 21
16.56193626544855
 31
0.0
  0
LINE
  5
1EE
330
1F
100
AcDbEntity
  8
0
  6
SLD-Solid
 62
     7
370
    25
100
AcDbLine
 10
9.86492346295043
 20
16.51093626544855
 30
0.0
 11
9.82902346295043
 21
16.51093626544855
 31
0.0
  0
LINE
  5
1EF
330
1F
100
AcDbEntity
  8
0
  6
SLD-Solid
 62
     7
370
    25
100
AcDbLine
 10
9.864923462950438
 20
16.50293642170008
 30
0.0
 11
9.86492346295043
 21
16.51093626544855
 31
0.0
  0
LINE
  5
1F0
330
1F
100
AcDbEntity
  8
0
  6
SLD-Solid
 62
     7
370
    25
100
AcDbLine
 10
9.82902346295043
 20
16.51093626544855
 30
0.0
 11
9.829023462950438
 21
16.50293642170008
 31
0.0
  0
LINE
  5
1F1
330
1F
100
AcDbEntity
  8
0
  6
SLD-Solid
 62
     7
370
    25
100
AcDbLine
 10
9.785023462950454
 20
9.548036265448554
 30
0.0
 11
9.785023462950452
 21
9.583936265448564
 31
0.0
  0
LINE
  5
1F2
330
1F
100
AcDbEntity
  8
0
  6
SLD-Solid
 62
     7
370
    25
100
AcDbLine
 10
9.770023462950453
 20
9.548036265448552
 30
0.0
 11
9.785023462950454
 21
9.548036265448554
 31
0.0
  0
LINE
  5
1F3
330
1F
100
AcDbEntity
  8
0
  6
SLD-Solid
 62
     7
370
    25
100
AcDbLine
 10
9.785023462950452
 20
9.583936265448564
 30
0.0
 11
9.770023462950453
 21
9.583936265448564
 31
0.0
  0
LINE
  5
1F4
330
1F
100
AcDbEntity
  8
0
  6
SLD-Solid
 62
     7
370
    25
100
AcDbLine
 10
9.829023462950438
 20
9.627936265448554
 30
0.0
 11
9.864923462950454
 21
9.627936265448554
 31
0.0
  0
LINE
  5
1F5
330
1F
100
AcDbEntity
  8
0
  6
SLD-Solid
 62
     7
370
    25
100
AcDbLine
 10
9.864923462950454
 20
9.627936265448554
 30
0.0
 11
9.864923462950454
 21
9.642936265448553
 31
0.0
  0
LINE
  5
1F6
330
1F
100
AcDbEntity
  8
0
  6
SLD-Solid
 62
     7
370
    25
100
AcDbLine
 10
9.829023462950438
 20
9.642936265448553
 30
0.0
 11
9.829023462950438
 21
9.627936265448554
 31
0.0
  0
LINE
  5
1F7
330
1F
100
AcDbEntity
  8
0
  6
SLD-Solid
 62
     7
370
    25
100
AcDbLine
 10
9.809156260316806
 20
16.56046065485621
 30
0.0
 11
9.820462033608283
 21
16.59453395070915
 31
0.0
  0
LINE
  5
1F8
330
1F
100
AcDbEntity
  8
0
  6
SLD-Solid
 62
     7
370
    25
100
AcDbLine
 10
9.820462033608283
 20
16.59453395070915
 30
0.0
 11
9.845914693049437
 21
16.57882749554756
 31
0.0
  0
LINE
  5
1F9
330
1F
100
AcDbEntity
  8
0
  6
SLD-Solid
 62
     7
370
    25
100
AcDbLine
 10
9.809156260316806
 20
16.56046065485621
 30
0.0
 11
9.82052955960484
 21
16.55344236210296
 31
0.0
  0
ARC
  5
1FA
330
1F
100
AcDbEntity
  8
0
  6
SLD-Solid
 62
     7
370
    25
100
AcDbCircle
 10
9.80002346295043
 20
16.53293626544855
 30
0.0
 40
0.0649000000000015
100
AcDbArc
 50
71.64377134997433
 51
90.0
  0
LINE
  5
1FB
330
1F
100
AcDbEntity
  8
0
  6
SLD-Solid
 62
     7
370
    25
100
AcDbLine
 10
9.80002346295043
 20
16.59783626544855
 30
0.0
 11
9.80002346295043
 21
16.56193626544855
 31
0.0
  0
ARC
  5
1FC
330
1F
100
AcDbEntity
  8
0
  6
SLD-Solid
 62
     7
370
    25
100
AcDbCircle
 10
9.80002346295043
 20
16.53293626544855
 30
0.0
 40
0.0289999999999999
100
AcDbArc
 50
71.64377134997105
 51
90.0
  0
LINE
  5
1FD
330
1F
100
AcDbEntity
  8
0
  6
SLD-Solid
 62
     7
370
    25
100
AcDbLine
 10
9.82902346295043
 20
16.53293626544855
 30
0.0
 11
9.86492346295043
 21
16.53293626544855
 31
0.0
  0
LINE
  5
1FE
330
1F
100
AcDbEntity
  8
0
  6
SLD-Solid
 62
     7
370
    25
100
AcDbLine
 10
9.82052955960484
 20
16.55344236210296
 30
0.0
 11
9.845914693049437
 21
16.57882749554756
 31
0.0
  0
ARC
  5
1FF
330
1F
100
AcDbEntity
  8
0
  6
SLD-Solid
 62
     7
370
    25
100
AcDbCircle
 10
9.80002346295043
 20
16.53293626544855
 30
0.0
 40
0.0648999999999997
100
AcDbArc
 50
0.0
 51
44.99999999999889
  0
ARC
  5
200
330
1F
100
AcDbEntity
  8
0
  6
SLD-Solid
 62
     7
370
    25
100
AcDbCircle
 10
9.80002346295043
 20
16.53293626544855
 30
0.0
 40
0.0289999999999999
100
AcDbArc
 50
0.0
 51
44.99999999999752
  0
LINE
  5
201
330
1F
100
AcDbEntity
  8
0
  6
SLD-Solid
 62
     7
370
    25
100
AcDbLine
 10
9.77802346295043
 20
16.59783626544855
 30
0.0
 11
9.80002346295043
 21
16.59783626544855
 31
0.0
  0
LINE
  5
202
330
1F
100
AcDbEntity
  8
0
  6
SLD-Solid
 62
     7
370
    25
100
AcDbLine
 10
9.80002346295043
 20
16.56193626544855
 30
0.0
 11
9.77802346295043
 21
16.56193626544855
 31
0.0
  0
LINE
  5
203
330
1F
100
AcDbEntity
  8
0
  6
SLD-Solid
 62
     7
370
    25
100
AcDbLine
 10
9.86492346295043
 20
16.51093626544855
 30
0.0
 11
9.86492346295043
 21
16.53293626544855
 31
0.0
  0
LINE
  5
204
330
1F
100
AcDbEntity
  8
0
  6
SLD-Solid
 62
     7
370
    25
100
AcDbLine
 10
9.82902346295043
 20
16.53293626544855
 30
0.0
 11
9.82902346295043
 21
16.51093626544855
 31
0.0
  0
LINE
  5
205
330
1F
100
AcDbEntity
  8
0
  6
SLD-Solid
 62
     7
370
    25
100
AcDbLine
 10
6.284023462950451
 20
9.62393626544855
 30
0.0
 11
6.228023462950405
 21
9.62393626544855
 31
0.0
  0
ARC
  5
206
330
1F
100
AcDbEntity
  8
0
  6
SLD-Solid
 62
     7
370
    25
100
AcDbCircle
 10
6.228023462950405
 20
9.652936265448552
 30
0.0
 40
0.0649000000000015
100
AcDbArc
 50
180.0
 51
270.0000000000008
  0
LINE
  5
207
330
1F
100
AcDbEntity
  8
0
  6
SLD-Solid
 62
     7
370
    25
100
AcDbLine
 10
6.199023462950407
 20
9.664986265448553
 30
0.0
 11
6.163123462950406
 21
9.664986265448553
 31
0.0
  0
ARC
  5
208
330
1F
100
AcDbEntity
  8
0
  6
SLD-Solid
 62
     7
370
    25
100
AcDbCircle
 10
6.228023462950405
 20
9.652936265448552
 30
0.0
 40
0.0290000000000017
100
AcDbArc
 50
180.0
 51
270.0000000000008
  0
LINE
  5
209
330
1F
100
AcDbEntity
  8
0
  6
SLD-Solid
 62
     7
370
    25
100
AcDbLine
 10
6.28402346295045
 20
9.588036265448551
 30
0.0
 11
6.228023462950405
 21
9.588036265448551
 31
0.0
  0
LINE
  5
20A
330
1F
100
AcDbEntity
  8
0
  6
SLD-Solid
 62
     7
370
    25
100
AcDbLine
 10
6.163123462950406
 20
9.652936265448552
 30
0.0
 11
6.163123462950406
 21
9.664986265448553
 31
0.0
  0
LINE
  5
20B
330
1F
100
AcDbEntity
  8
0
  6
SLD-Solid
 62
     7
370
    25
100
AcDbLine
 10
6.199023462950406
 20
9.652936265448552
 30
0.0
 11
6.199023462950407
 21
9.664986265448553
 31
0.0
  0
LINE
  5
20C
330
1F
100
AcDbEntity
  8
0
  6
SLD-Solid
 62
     7
370
    25
100
AcDbLine
 10
6.250023462950429
 20
16.59783626544855
 30
0.0
 11
6.250023462950429
 21
16.56193626544855
 31
0.0
  0
LINE
  5
20D
330
1F
100
AcDbEntity
  8
0
  6
SLD-Solid
 62
     7
370
    25
100
AcDbLine
 10
6.25802346295043
 20
16.59783626544855
 30
0.0
 11
6.250023462950429
 21
16.59783626544855
 31
0.0
  0
LINE
  5
20E
330
1F
100
AcDbEntity
  8
0
  6
SLD-Solid
 62
     7
370
    25
100
AcDbLine
 10
6.250023462950429
 20
16.56193626544855
 30
0.0
 11
6.25802346295043
 21
16.56193626544855
 31
0.0
  0
LINE
  5
20F
330
1F
100
AcDbEntity
  8
0
  6
SLD-Solid
 62
     7
370
    25
100
AcDbLine
 10
6.199023462950429
 20
16.51093626544855
 30
0.0
 11
6.16312346295043
 21
16.51093626544855
 31
0.0
  0
LINE
  5
210
330
1F
100
AcDbEntity
  8
0
  6
SLD-Solid
 62
     7
370
    25
100
AcDbLine
 10
6.16312346295043
 20
16.51093626544855
 30
0.0
 11
6.16312346295043
 21
16.50293626544855
 31
0.0
  0
LINE
  5
211
330
1F
100
AcDbEntity
  8
0
  6
SLD-Solid
 62
     7
370
    25
100
AcDbLine
 10
6.199023462950429
 20
16.50293626544855
 30
0.0
 11
6.199023462950429
 21
16.51093626544855
 31
0.0
  0
ARC
  5
212
330
1F
100
AcDbEntity
  8
0
  6
SLD-Solid
 62
     7
370
    25
100
AcDbCircle
 10
6.228023462950429
 20
16.53293626544855
 30
0.0
 40
0.0649000000000015
100
AcDbArc
 50
90.0
 51
108.1260612759914
  0
LINE
  5
213
330
1F
100
AcDbEntity
  8
0
  6
SLD-Solid
 62
     7
370
    25
100
AcDbLine
 10
6.228023462950429
 20
16.56193626544855
 30
0.0
 11
6.228023462950429
 21
16.59783626544855
 31
0.0
  0
ARC
  5
214
330
1F
100
AcDbEntity
  8
0
  6
SLD-Solid
 62
     7
370
    25
100
AcDbCircle
 10
6.228023462950429
 20
16.53293626544855
 30
0.0
 40
0.0289999999999999
100
AcDbArc
 50
90.0
 51
108.1260612759907
  0
LINE
  5
215
330
1F
100
AcDbEntity
  8
0
  6
SLD-Solid
 62
     7
370
    25
100
AcDbLine
 10
6.219001309363404
 20
16.56049712074464
 30
0.0
 11
6.207832505440154
 21
16.59461555885256
 31
0.0
  0
LINE
  5
216
330
1F
100
AcDbEntity
  8
0
  6
SLD-Solid
 62
     7
370
    25
100
AcDbLine
 10
6.182132232851423
 20
16.57882749554756
 30
0.0
 11
6.207832505440154
 21
16.59461555885256
 31
0.0
  0
LINE
  5
217
330
1F
100
AcDbEntity
  8
0
  6
SLD-Solid
 62
     7
370
    25
100
AcDbLine
 10
6.207517366296019
 20
16.55344236210296
 30
0.0
 11
6.219001309363404
 21
16.56049712074464
 31
0.0
  0
LINE
  5
218
330
1F
100
AcDbEntity
  8
0
  6
SLD-Solid
 62
     7
370
    25
100
AcDbLine
 10
6.16312346295043
 20
16.53293626544855
 30
0.0
 11
6.199023462950429
 21
16.53293626544855
 31
0.0
  0
LINE
  5
219
330
1F
100
AcDbEntity
  8
0
  6
SLD-Solid
 62
     7
370
    25
100
AcDbLine
 10
6.16312346295043
 20
16.51093626544855
 30
0.0
 11
6.16312346295043
 21
16.53293626544855
 31
0.0
  0
LINE
  5
21A
330
1F
100
AcDbEntity
  8
0
  6
SLD-Solid
 62
     7
370
    25
100
AcDbLine
 10
6.199023462950429
 20
16.53293626544855
 30
0.0
 11
6.199023462950429
 21
16.51093626544855
 31
0.0
  0
LINE
  5
21B
330
1F
100
AcDbEntity
  8
0
  6
SLD-Solid
 62
     7
370
    25
100
AcDbLine
 10
6.163123462950406
 20
9.664986265448553
 30
0.0
 11
6.163123462950406
 21
9.682936265448552
 31
0.0
  0
LINE
  5
21C
330
1F
100
AcDbEntity
  8
0
  6
SLD-Solid
 62
     7
370
    25
100
AcDbLine
 10
6.199023462950407
 20
9.682936265448552
 30
0.0
 11
6.199023462950406
 21
9.664986265448553
 31
0.0
  0
LINE
  5
21D
330
1F
100
AcDbEntity
  8
0
  6
SLD-Solid
 62
     7
370
    25
100
AcDbLine
 10
6.207517366296019
 20
16.55344236210296
 30
0.0
 11
6.182132232851423
 21
16.57882749554756
 31
0.0
  0
ARC
  5
21E
330
1F
100
AcDbEntity
  8
0
  6
SLD-Solid
 62
     7
370
    25
100
AcDbCircle
 10
6.228023462950429
 20
16.53293626544855
 30
0.0
 40
0.0648999999999997
100
AcDbArc
 50
135.0000000000006
 51
180.0
  0
ARC
  5
21F
330
1F
100
AcDbEntity
  8
0
  6
SLD-Solid
 62
     7
370
    25
100
AcDbCircle
 10
6.228023462950429
 20
16.53293626544855
 30
0.0
 40
0.0290000000000008
100
AcDbArc
 50
135.0000000000025
 51
179.9999999999991
  0
LINE
  5
220
330
1F
100
AcDbEntity
  8
0
  6
SLD-Solid
 62
     7
370
    25
100
AcDbLine
 10
6.228023462950429
 20
16.59783626544855
 30
0.0
 11
6.250023462950429
 21
16.59783626544855
 31
0.0
  0
LINE
  5
221
330
1F
100
AcDbEntity
  8
0
  6
SLD-Solid
 62
     7
370
    25
100
AcDbLine
 10
6.250023462950429
 20
16.56193626544855
 30
0.0
 11
6.228023462950429
 21
16.56193626544855
 31
0.0
  0
ARC
  5
222
330
1F
100
AcDbEntity
  8
0
  6
SLD-Solid
 62
     7
370
    25
100
AcDbCircle
 10
9.800023462950453
 20
9.612936265448553
 30
0.0
 40
0.0289999999999999
100
AcDbArc
 50
270.0000000000008
 51
0.0
  0
ARC
  5
223
330
1F
100
AcDbEntity
  8
0
  6
SLD-Solid
 62
     7
370
    25
100
AcDbCircle
 10
9.800023462950453
 20
9.612936265448553
 30
0.0
 40
0.0649000000000015
100
AcDbArc
 50
270.0000000000008
 51
0.0
  0
LINE
  5
224
330
1F
100
AcDbEntity
  8
0
  6
SLD-Solid
 62
     7
370
    25
100
AcDbLine
 10
9.785023462950454
 20
9.548036265448554
 30
0.0
 11
9.800023462950453
 21
9.548036265448554
 31
0.0
  0
LINE
  5
225
330
1F
100
AcDbEntity
  8
0
  6
SLD-Solid
 62
     7
370
    25
100
AcDbLine
 10
9.785023462950452
 20
9.583936265448564
 30
0.0
 11
9.800023462950453
 21
9.583936265448553
 31
0.0
  0
LINE
  5
226
330
1F
100
AcDbEntity
  8
0
  6
SLD-Solid
 62
     7
370
    25
100
AcDbLine
 10
9.864923462950454
 20
9.612936265448553
 30
0.0
 11
9.864923462950454
 21
9.627936265448554
 31
0.0
  0
LINE
  5
227
330
1F
100
AcDbEntity
  8
0
  6
SLD-Solid
 62
     7
370
    25
100
AcDbLine
 10
9.829023462950452
 20
9.612936265448553
 30
0.0
 11
9.829023462950438
 21
9.627936265448554
 31
0.0
  0
LINE
  5
228
330
1F
100
AcDbEntity
  8
0
  6
SLD-Solid
 62
     8
370
    25
100
AcDbLine
 10
6.340023462950434
 20
9.533036265448528
 30
0.0
 11
6.828023462950433
 21
9.533036265448533
 31
0.0
  0
LINE
  5
229
330
1F
100
AcDbEntity
  8
0
  6
SLD-Solid
 62
     8
370
    25
100
AcDbLine
 10
6.805469146001801
 20
9.515749860021348
 30
0.0
 11
6.362577779899066
 21
9.515749860021344
 31
0.0
  0
LINE
  5
22A
330
1F
100
AcDbEntity
  8
0
  6
SLD-Solid
 62
     8
370
    25
100
AcDbLine
 10
6.390469146001801
 20
9.416822670875712
 30
0.0
 11
6.777577779899067
 21
9.416822670875716
 31
0.0
  0
LINE
  5
22B
330
1F
100
AcDbEntity
  8
0
  6
SLD-Solid
 62
     8
370
    25
100
AcDbLine
 10
9.470023462950493
 20
9.533036265448565
 30
0.0
 11
9.714023462950493
 21
9.533036265448569
 31
0.0
  0
LINE
  5
22C
330
1F
100
AcDbEntity
  8
0
  6
SLD-Solid
 62
     8
370
    25
100
AcDbLine
 10
9.226023462950494
 20
9.533036265448562
 30
0.0
 11
9.470023462950493
 21
9.533036265448565
 31
0.0
  0
LINE
  5
22D
330
1F
100
AcDbEntity
  8
0
  6
SLD-Solid
 62
     8
370
    25
100
AcDbLine
 10
9.69146914600186
 20
9.515749860021385
 30
0.0
 11
9.248577779899128
 21
9.515749860021376
 31
0.0
  0
LINE
  5
22E
330
1F
100
AcDbEntity
  8
0
  6
SLD-Solid
 62
     8
370
    25
100
AcDbLine
 10
9.470023462950495
 20
9.41682267087575
 30
0.0
 11
9.663577779899128
 21
9.416822670875753
 31
0.0
  0
LINE
  5
22F
330
1F
100
AcDbEntity
  8
0
  6
SLD-Solid
 62
     8
370
    25
100
AcDbLine
 10
9.276469146001862
 20
9.416822670875744
 30
0.0
 11
9.470023462950495
 21
9.41682267087575
 31
0.0
  0
DIMENSION
  5
230
330
1F
100
AcDbEntity
  8
DIMS
100
AcDbDimension
  2
_D
 10
12.14838802987959
 20
9.416822670875751
 30
0.0
 11
12.14838802987959
 21
12.94517224002998
 31
0.0
 70
    32
  1
<>
 71
     2
 42
-1.0
  3
SLDDIMSTYLE0
100
AcDbAlignedDimension
 13
9.770023619201956
 23
16.59783626544855
 33
0.0
 14
9.663577779899128
 24
9.416822670875751
 34
0.0
 50
90.0000000000002
100
AcDbRotatedDimension
  0
MTEXT
  5
246
330
1F
100
AcDbEntity
  8
NOTES
100
AcDbMText
 10
5.859606783256499
 20
9.038784374508396
 30
0.0
 40
0.7500000000000001
 41
0.0
 71
     1
 72
     1
  1
Front view
  7
SLDTEXTSTYLE1
 73
     1
 44
1.0
  0
LINE
  5
247
330
1F
100
AcDbEntity
  8
0
  6
SLD-Solid
 62
     7
370
    25
100
AcDbLine
 10
22.48279542052834
 20
9.51803626544854
 30
0.0
 11
22.57512592664272
 21
9.4880362654493
 31
0.0
  0
LINE
  5
248
330
1F
100
AcDbEntity
  8
0
  6
SLD-Solid
 62
     7
370
    25
100
AcDbLine
 10
22.77046491441211
 20
9.4880362654493
 30
0.0
 11
22.86279542052649
 21
9.51803626544854
 31
0.0
  0
LINE
  5
249
330
1F
100
AcDbEntity
  8
0
  6
SLD-Solid
 62
     7
370
    25
100
AcDbLine
 10
22.48279542052742
 20
9.54803626544854
 30
0.0
 11
22.48279542052742
 21
9.51803626544854
 31
0.0
  0
LINE
  5
24A
330
1F
100
AcDbEntity
  8
0
  6
SLD-Solid
 62
     7
370
    25
100
AcDbLine
 10
22.86279542052742
 20
9.51803626544854
 30
0.0
 11
22.86279542052742
 21
9.54803626544854
 31
0.0
  0
LINE
  5
24B
330
1F
100
AcDbEntity
  8
0
  6
SLD-Solid
 62
     7
370
    25
100
AcDbLine
 10
23.02804293787695
 20
9.518036265448531
 30
0.0
 11
23.12037344399133
 21
9.488036265449292
 31
0.0
  0
LINE
  5
24C
330
1F
100
AcDbEntity
  8
0
  6
SLD-Solid
 62
     7
370
    25
100
AcDbLine
 10
23.31571243176072
 20
9.488036265449292
 30
0.0
 11
23.40594670566636
 21
9.517355158316045
 31
0.0
  0
LINE
  5
24D
330
1F
100
AcDbEntity
  8
0
  6
SLD-Solid
 62
     7
370
    25
100
AcDbLine
 10
23.02804293787602
 20
9.54803626544853
 30
0.0
 11
23.02804293787602
 21
9.518036265448531
 31
0.0
  0
LINE
  5
24E
330
1F
100
AcDbEntity
  8
0
  6
SLD-Solid
 62
     7
370
    25
100
AcDbLine
 10
20.81254790317974
 20
9.518036265448531
 30
0.0
 11
20.90487840929412
 21
9.488036265449294
 31
0.0
  0
LINE
  5
24F
330
1F
100
AcDbEntity
  8
0
  6
SLD-Solid
 62
     7
370
    25
100
AcDbLine
 10
21.10021739706351
 20
9.488036265449294
 30
0.0
 11
21.19254790317789
 21
9.518036265448531
 31
0.0
  0
LINE
  5
250
330
1F
100
AcDbEntity
  8
0
  6
SLD-Solid
 62
     7
370
    25
100
AcDbLine
 10
20.81254790317881
 20
9.527103517350104
 30
0.0
 11
20.81254790317881
 21
9.518036265448531
 31
0.0
  0
LINE
  5
251
330
1F
100
AcDbEntity
  8
0
  6
SLD-Solid
 62
     7
370
    25
100
AcDbLine
 10
21.19254790317881
 20
9.518036265448531
 30
0.0
 11
21.19254790317881
 21
9.54803626544853
 31
0.0
  0
ARC
  5
252
330
1F
100
AcDbEntity
  8
0
  6
SLD-Solid
 62
     7
370
    25
100
AcDbCircle
 10
23.86199790317879
 20
9.53303626544855
 30
0.0
 40
0.0100000000000051
100
AcDbArc
 50
270.0000000000008
 51
0.0
  0
ARC
  5
253
330
1F
100
AcDbEntity
  8
0
  6
SLD-Solid
 62
     7
370
    25
100
AcDbCircle
 10
23.39399790317879
 20
9.53303626544855
 30
0.0
 40
0.0099999999999998
100
AcDbArc
 50
179.9999999999987
 51
270.0000000000008
  0
LINE
  5
254
330
1F
100
AcDbEntity
  8
0
  6
SLD-Solid
 62
     7
370
    25
100
AcDbLine
 10
23.87199790317879
 20
9.53303626544855
 30
0.0
 11
23.87199790317879
 21
9.54803626544855
 31
0.0
  0
LINE
  5
255
330
1F
100
AcDbEntity
  8
0
  6
SLD-Solid
 62
     7
370
    25
100
AcDbLine
 10
23.38399790317879
 20
9.54803626544855
 30
0.0
 11
23.38399790317879
 21
9.53303626544855
 31
0.0
  0
ARC
  5
256
330
1F
100
AcDbEntity
  8
0
  6
SLD-Solid
 62
     7
370
    25
100
AcDbCircle
 10
23.85906836698061
 20
9.51303626544855
 30
0.0
 40
0.0099999999999998
100
AcDbArc
 50
90.0
 51
164.2548215002295
  0
ARC
  5
257
330
1F
100
AcDbEntity
  8
0
  6
SLD-Solid
 62
     7
370
    25
100
AcDbCircle
 10
23.39692743937696
 20
9.51303626544855
 30
0.0
 40
0.0099999999999998
100
AcDbArc
 50
15.74517849977055
 51
90.0
  0
LINE
  5
258
330
1F
100
AcDbEntity
  8
0
  6
SLD-Solid
 62
     7
370
    25
100
AcDbLine
 10
23.40655222012742
 20
9.515749860021366
 30
0.0
 11
23.43444358623015
 21
9.416822670875733
 31
0.0
  0
LINE
  5
259
330
1F
100
AcDbEntity
  8
0
  6
SLD-Solid
 62
     7
370
    25
100
AcDbLine
 10
23.82155222012742
 20
9.416822670875733
 30
0.0
 11
23.84944358623016
 21
9.515749860021366
 31
0.0
  0
ARC
  5
25A
330
1F
100
AcDbEntity
  8
0
  6
SLD-Solid
 62
     7
370
    25
100
AcDbCircle
 10
23.81192743937696
 20
9.41953626544855
 30
0.0
 40
0.0099999999999998
100
AcDbArc
 50
270.0000000000008
 51
344.2548215002303
  0
ARC
  5
25B
330
1F
100
AcDbEntity
  8
0
  6
SLD-Solid
 62
     7
370
    25
100
AcDbCircle
 10
23.44406836698061
 20
9.41953626544855
 30
0.0
 40
0.0100000000000024
100
AcDbArc
 50
195.7451784997658
 51
270.0000000000008
  0
ARC
  5
25C
330
1F
100
AcDbEntity
  8
0
  6
SLD-Solid
 62
     7
370
    25
100
AcDbCircle
 10
20.80449790317881
 20
9.533036265448565
 30
0.0
 40
0.0100000000000016
100
AcDbArc
 50
270.0000000000008
 51
0.0
  0
ARC
  5
25D
330
1F
100
AcDbEntity
  8
0
  6
SLD-Solid
 62
     7
370
    25
100
AcDbCircle
 10
20.33649790317881
 20
9.533036265448565
 30
0.0
 40
0.0099999999999998
100
AcDbArc
 50
180.0
 51
270.0000000000008
  0
LINE
  5
25E
330
1F
100
AcDbEntity
  8
0
  6
SLD-Solid
 62
     7
370
    25
100
AcDbLine
 10
20.81449790317881
 20
9.533036265448565
 30
0.0
 11
20.81449790317881
 21
9.548036265448566
 31
0.0
  0
LINE
  5
25F
330
1F
100
AcDbEntity
  8
0
  6
SLD-Solid
 62
     7
370
    25
100
AcDbLine
 10
20.32649790317881
 20
9.548036265448566
 30
0.0
 11
20.32649790317881
 21
9.533036265448565
 31
0.0
  0
ARC
  5
260
330
1F
100
AcDbEntity
  8
0
  6
SLD-Solid
 62
     7
370
    25
100
AcDbCircle
 10
20.80156836698063
 20
9.513036265448566
 30
0.0
 40
0.0099999999999998
100
AcDbArc
 50
90.0
 51
164.2548215002295
  0
ARC
  5
261
330
1F
100
AcDbEntity
  8
0
  6
SLD-Solid
 62
     7
370
    25
100
AcDbCircle
 10
20.33942743937698
 20
9.513036265448566
 30
0.0
 40
0.0099999999999998
100
AcDbArc
 50
15.74517849977055
 51
90.0
  0
LINE
  5
262
330
1F
100
AcDbEntity
  8
0
  6
SLD-Solid
 62
     7
370
    25
100
AcDbLine
 10
20.34905222012744
 20
9.515749860021382
 30
0.0
 11
20.37694358623017
 21
9.41682267087575
 31
0.0
  0
LINE
  5
263
330
1F
100
AcDbEntity
  8
0
  6
SLD-Solid
 62
     7
370
    25
100
AcDbLine
 10
20.76405222012744
 20
9.41682267087575
 30
0.0
 11
20.79194358623018
 21
9.515749860021382
 31
0.0
  0
ARC
  5
264
330
1F
100
AcDbEntity
  8
0
  6
SLD-Solid
 62
     7
370
    25
100
AcDbCircle
 10
20.75442743937698
 20
9.419536265448565
 30
0.0
 40
0.0099999999999998
100
AcDbArc
 50
270.0000000000008
 51
344.2548215002303
  0
ARC
  5
265
330
1F
100
AcDbEntity
  8
0
  6
SLD-Solid
 62
     7
370
    25
100
AcDbCircle
 10
20.38656836698063
 20
9.419536265448565
 30
0.0
 40
0.0099999999999998
100
AcDbArc
 50
195.7451784997714
 51
270.0000000000008
  0
LINE
  5
266
330
1F
100
AcDbEntity
  8
0
  6
SLD-Solid
 62
     7
370
    25
100
AcDbLine
 10
22.57886762795102
 20
9.4880362654493
 30
0.0
 11
22.77046491441211
 21
9.4880362654493
 31
0.0
  0
LINE
  5
267
330
1F
100
AcDbEntity
  8
0
  6
SLD-Solid
 62
     7
370
    25
100
AcDbLine
 10
22.57512592664272
 20
9.4880362654493
 30
0.0
 11
22.57886762795102
 21
9.4880362654493
 31
0.0
  0
LINE
  5
268
330
1F
100
AcDbEntity
  8
0
  6
SLD-Solid
 62
     7
370
    25
100
AcDbLine
 10
23.12037344399133
 20
9.488036265449292
 30
0.0
 11
23.31571243176072
 21
9.488036265449292
 31
0.0
  0
LINE
  5
269
330
1F
100
AcDbEntity
  8
0
  6
SLD-Solid
 62
     7
370
    25
100
AcDbLine
 10
20.90487840929412
 20
9.488036265449294
 30
0.0
 11
21.10021739706351
 21
9.488036265449294
 31
0.0
  0
LINE
  5
26A
330
1F
100
AcDbEntity
  8
0
  6
SLD-Solid
 62
     7
370
    25
100
AcDbLine
 10
23.86199790317879
 20
9.52303626544855
 30
0.0
 11
23.39399790317879
 21
9.52303626544855
 31
0.0
  0
LINE
  5
26B
330
1F
100
AcDbEntity
  8
0
  6
SLD-Solid
 62
     7
370
    25
100
AcDbLine
 10
23.81192743937696
 20
9.40953626544855
 30
0.0
 11
23.44406836698061
 21
9.40953626544855
 31
0.0
  0
LINE
  5
26C
330
1F
100
AcDbEntity
  8
0
  6
SLD-Solid
 62
     7
370
    25
100
AcDbLine
 10
20.8044978979847
 20
9.523036265448566
 30
0.0
 11
20.33649790317881
 21
9.523036265448566
 31
0.0
  0
LINE
  5
26D
330
1F
100
AcDbEntity
  8
0
  6
SLD-Solid
 62
     7
370
    25
100
AcDbLine
 10
20.75442743773473
 20
9.409536265448565
 30
0.0
 11
20.38656836698063
 21
9.409536265448565
 31
0.0
  0
LINE
  5
26E
330
1F
100
AcDbEntity
  8
0
  6
SLD-Solid
 62
     7
370
    25
100
AcDbLine
 10
23.96509293787603
 20
9.642936265448553
 30
0.0
 11
23.96804293787602
 21
9.642936265448553
 31
0.0
  0
LINE
  5
26F
330
1F
100
AcDbEntity
  8
0
  6
SLD-Solid
 62
     7
370
    25
100
AcDbLine
 10
23.95009293787602
 20
9.612936265448553
 30
0.0
 11
23.95009293787602
 21
9.627936265448554
 31
0.0
  0
LINE
  5
270
330
1F
100
AcDbEntity
  8
0
  6
SLD-Solid
 62
     7
370
    25
100
AcDbLine
 10
20.27049790317881
 20
9.612936265448553
 30
0.0
 11
20.27049790317881
 21
9.627936265448554
 31
0.0
  0
ARC
  5
271
330
1F
100
AcDbEntity
  8
0
  6
SLD-Solid
 62
     7
370
    25
100
AcDbCircle
 10
20.25549790317881
 20
9.627936265448554
 30
0.0
 40
0.0150000000000006
100
AcDbArc
 50
0.0
 51
90.0
  0
LINE
  5
272
330
1F
100
AcDbEntity
  8
0
  6
SLD-Solid
 62
     7
370
    25
100
AcDbLine
 10
20.25549790317881
 20
9.642936265448553
 30
0.0
 11
20.25254790317881
 21
9.642936265448553
 31
0.0
  0
LINE
  5
273
330
1F
100
AcDbEntity
  8
0
  6
SLD-Solid
 62
     7
370
    25
100
AcDbLine
 10
20.25254790317881
 20
9.642936265448553
 30
0.0
 11
20.25254790317881
 21
16.50293642170008
 31
0.0
  0
ARC
  5
274
330
1F
100
AcDbEntity
  8
0
  6
SLD-Solid
 62
     7
370
    25
100
AcDbCircle
 10
20.25249790317881
 20
16.51093626544855
 30
0.0
 40
0.0080000000000027
100
AcDbArc
 50
270.3581009533816
 51
0.0
  0
LINE
  5
275
330
1F
100
AcDbEntity
  8
0
  6
SLD-Solid
 62
     7
370
    25
100
AcDbLine
 10
20.26049790317881
 20
16.51093626544855
 30
0.0
 11
20.26049790317881
 21
16.53293626544855
 31
0.0
  0
LINE
  5
276
330
1F
100
AcDbEntity
  8
0
  6
SLD-Solid
 62
     7
370
    25
100
AcDbLine
 10
23.96009293787603
 20
16.51093626544855
 30
0.0
 11
23.96009293787603
 21
16.53293626544855
 31
0.0
  0
ARC
  5
277
330
1F
100
AcDbEntity
  8
0
  6
SLD-Solid
 62
     7
370
    25
100
AcDbCircle
 10
23.96809293787603
 20
16.51093626544855
 30
0.0
 40
0.0080000000000013
100
AcDbArc
 50
180.0
 51
269.64189904662
  0
ARC
  5
278
330
1F
100
AcDbEntity
  8
0
  6
SLD-Solid
 62
     7
370
    25
100
AcDbCircle
 10
23.96509293787603
 20
9.627936265448554
 30
0.0
 40
0.0150000000000041
100
AcDbArc
 50
90.0
 51
180.0
  0
LINE
  5
279
330
1F
100
AcDbEntity
  8
0
  6
SLD-Solid
 62
     7
370
    25
100
AcDbLine
 10
23.95009293787602
 20
9.548036265448554
 30
0.0
 11
20.27049790317881
 21
9.548036265448554
 31
0.0
  0
LINE
  5
27A
330
1F
100
AcDbEntity
  8
0
  6
SLD-Solid
 62
     7
370
    25
100
AcDbLine
 10
20.27049790317881
 20
9.612936265448553
 30
0.0
 11
20.27049790317881
 21
9.548036265448554
 31
0.0
  0
LINE
  5
27B
330
1F
100
AcDbEntity
  8
0
  6
SLD-Solid
 62
     7
370
    25
100
AcDbLine
 10
23.95009293787602
 20
9.612936265448553
 30
0.0
 11
23.95009293787602
 21
9.548036265448554
 31
0.0
  0
LINE
  5
27C
330
1F
100
AcDbEntity
  8
0
  6
SLD-Solid
 62
     7
370
    25
100
AcDbLine
 10
23.96809293787603
 20
16.50293626544855
 30
0.0
 11
23.96804293787602
 21
16.50293642170008
 31
0.0
  0
LINE
  5
27D
330
1F
100
AcDbEntity
  8
0
  6
SLD-Solid
 62
     7
370
    25
100
AcDbLine
 10
23.96809293787603
 20
16.50293626544855
 30
0.0
 11
24.03073152400219
 21
16.50293626544855
 31
0.0
  0
LINE
  5
27E
330
1F
100
AcDbEntity
  8
0
  6
SLD-Solid
 62
     7
370
    25
100
AcDbLine
 10
24.0305144236541
 20
9.642936265448553
 30
0.0
 11
24.03073152400219
 21
9.642940462945743
 31
0.0
  0
LINE
  5
27F
330
1F
100
AcDbEntity
  8
0
  6
SLD-Solid
 62
     7
370
    25
100
AcDbLine
 10
24.0305144236541
 20
9.642936265448553
 30
0.0
 11
23.96804293787602
 21
9.642936265448553
 31
0.0
  0
LINE
  5
280
330
1F
100
AcDbEntity
  8
0
  6
SLD-Solid
 62
     7
370
    25
100
AcDbLine
 10
20.26049790317881
 20
16.59783626544855
 30
0.0
 11
23.96009293787603
 21
16.59783626544855
 31
0.0
  0
LINE
  5
281
330
1F
100
AcDbEntity
  8
0
  6
SLD-Solid
 62
     7
370
    25
100
AcDbLine
 10
20.26049790317881
 20
16.57882749554756
 30
0.0
 11
20.26049790317881
 21
16.53293626544855
 31
0.0
  0
LINE
  5
282
330
1F
100
AcDbEntity
  8
0
  6
SLD-Solid
 62
     7
370
    25
100
AcDbLine
 10
20.26049790317881
 20
16.59783626544855
 30
0.0
 11
20.26049790317881
 21
16.59453395070915
 31
0.0
  0
LINE
  5
283
330
1F
100
AcDbEntity
  8
0
  6
SLD-Solid
 62
     7
370
    25
100
AcDbLine
 10
23.96009293787603
 20
16.53293626544855
 30
0.0
 11
23.96009293787603
 21
16.59783626544855
 31
0.0
  0
LINE
  5
284
330
1F
100
AcDbEntity
  8
0
  6
SLD-Solid
 62
     7
370
    25
100
AcDbLine
 10
20.19007641740074
 20
9.642936265448553
 30
0.0
 11
20.18985931705265
 21
9.642940462945743
 31
0.0
  0
LINE
  5
285
330
1F
100
AcDbEntity
  8
0
  6
SLD-Solid
 62
     7
370
    25
100
AcDbLine
 10
20.25249790317881
 20
16.50293626544855
 30
0.0
 11
20.18985931705265
 21
16.50293626544855
 31
0.0
  0
LINE
  5
286
330
1F
100
AcDbEntity
  8
0
  6
SLD-Solid
 62
     7
370
    25
100
AcDbLine
 10
20.25249790317881
 20
16.50293626544855
 30
0.0
 11
20.25254790317881
 21
16.50293642170008
 31
0.0
  0
LINE
  5
287
330
1F
100
AcDbEntity
  8
0
  6
SLD-Solid
 62
     7
370
    25
100
AcDbLine
 10
20.19007641740074
 20
9.642936265448553
 30
0.0
 11
20.25254790317881
 21
9.642936265448553
 31
0.0
  0
LINE
  5
288
330
1F
100
AcDbEntity
  8
0
  6
SLD-Solid
 62
     7
370
    25
100
AcDbLine
 10
20.26049790317881
 20
16.58320937596184
 30
0.0
 11
20.26049790317881
 21
16.59453395070915
 31
0.0
  0
LWPOLYLINE
  5
289
330
1F
100
AcDbEntity
  8
0
  6
SLD-Solid
 62
     7
370
    25
100
AcDbPolyline
 90
        9
 70
   128
 43
0.0
 10
24.03073152400219
 20
9.642940462945743
 10
24.03268892999074
 20
9.64337662476186
 10
24.0346268827002
 20
9.644526172085063
 10
24.03652800513688
 20
9.646378797297151
 10
24.03837525055214
 20
9.648917888508418
 10
24.0401520552952
 20
9.652120678511073
 10
24.0418424873339
 20
9.655958448925412
 10
24.04343138911214
 20
9.66039678770823
 10
24.04490451346276
 20
9.66539589771444
  0
LWPOLYLINE
  5
28A
330
1F
100
AcDbEntity
  8
0
  6
SLD-Solid
 62
     7
370
    25
100
AcDbPolyline
 90
        9
 70
   128
 43
0.0
 10
20.18985931705265
 20
9.642940462945743
 10
20.1879019110641
 20
9.64337662476186
 10
20.18596395835463
 20
9.644526172085063
 10
20.18406283591796
 20
9.646378797297151
 10
20.18221559050269
 20
9.648917888508418
 10
20.18043878575963
 20
9.652120678511073
 10
20.17874835372093
 20
9.655958448925412
 10
20.17715945194269
 20
9.66039678770823
 10
20.17568632759208
 20
9.66539589771444
  0
LINE
  5
28B
330
1F
100
AcDbEntity
  8
0
  6
SLD-Solid
 62
     7
370
    25
100
AcDbLine
 10
24.03073152400219
 20
16.50293626544855
 30
0.0
 11
24.03365706588133
 21
16.50293626544855
 31
0.0
  0
LWPOLYLINE
  5
28C
330
1F
100
AcDbEntity
  8
0
  6
SLD-Solid
 62
     7
370
    25
100
AcDbPolyline
 90
        9
 70
   128
 43
0.0
 10
24.04264774833979
 20
16.48889899528237
 10
24.04171408489695
 20
16.49206333275383
 10
24.04070621193955
 20
16.49486728871621
 10
24.03963341252409
 20
16.49728503721448
 10
24.038505567715
 20
16.49929430947379
 10
24.03733306557459
 20
16.50087659900696
 10
24.03612670548346
 20
16.5020173320693
 10
24.03489759867228
 20
16.50270600189068
 10
24.03365706588133
 20
16.50293626544855
  0
LINE
  5
28D
330
1F
100
AcDbEntity
  8
0
  6
SLD-Solid
 62
     7
370
    25
100
AcDbLine
 10
24.12454950593553
 20
16.18323747470585
 30
0.0
 11
24.04264774833979
 21
16.48889899528237
 31
0.0
  0
ARC
  5
28E
330
1F
100
AcDbEntity
  8
0
  6
SLD-Solid
 62
     7
370
    25
100
AcDbCircle
 10
23.98232672354656
 20
16.14941691515508
 30
0.0
 40
0.1461887481264852
100
AcDbArc
 50
359.1603888079603
 51
13.37648139555809
  0
LINE
  5
28F
330
1F
100
AcDbEntity
  8
0
  6
SLD-Solid
 62
     7
370
    25
100
AcDbLine
 10
24.12849977573221
 20
16.14727474487203
 30
0.0
 11
24.12849977573221
 21
9.998597786025083
 31
0.0
  0
ARC
  5
290
330
1F
100
AcDbEntity
  8
0
  6
SLD-Solid
 62
     7
370
    25
100
AcDbCircle
 10
23.98232672354651
 20
9.996455615742043
 30
0.0
 40
0.1461887481265385
100
AcDbArc
 50
346.6235186044449
 51
0.8396111920388635
  0
LINE
  5
291
330
1F
100
AcDbEntity
  8
0
  6
SLD-Solid
 62
     7
370
    25
100
AcDbLine
 10
24.04490451346276
 20
9.66539589771444
 30
0.0
 11
24.12454950593553
 21
9.96263505619126
 31
0.0
  0
ARC
  5
292
330
1F
100
AcDbEntity
  8
0
  6
SLD-Solid
 62
     7
370
    25
100
AcDbCircle
 10
20.23826411750811
 20
9.99645561574202
 30
0.0
 40
0.1461887481263154
100
AcDbArc
 50
179.1603888079508
 51
193.3764813955683
  0
LINE
  5
293
330
1F
100
AcDbEntity
  8
0
  6
SLD-Solid
 62
     7
370
    25
100
AcDbLine
 10
20.09209106532263
 20
16.14727474487203
 30
0.0
 11
20.09209106532263
 21
9.998597786025083
 31
0.0
  0
ARC
  5
294
330
1F
100
AcDbEntity
  8
0
  6
SLD-Solid
 62
     7
370
    25
100
AcDbCircle
 10
20.23826411750834
 20
16.14941691515508
 30
0.0
 40
0.1461887481265528
100
AcDbArc
 50
166.6235186044511
 51
180.8396111920437
  0
LINE
  5
295
330
1F
100
AcDbEntity
  8
0
  6
SLD-Solid
 62
     7
370
    25
100
AcDbLine
 10
20.0960413351193
 20
16.18323747470585
 30
0.0
 11
20.17794309271505
 21
16.48889899528237
 31
0.0
  0
LWPOLYLINE
  5
296
330
1F
100
AcDbEntity
  8
0
  6
SLD-Solid
 62
     7
370
    25
100
AcDbPolyline
 90
        9
 70
   128
 43
0.0
 10
20.17794309271505
 20
16.48889899528237
 10
20.17887675615788
 20
16.49206333275383
 10
20.17988462911528
 20
16.49486728871621
 10
20.18095742853074
 20
16.49728503721448
 10
20.18208527333984
 20
16.49929430947379
 10
20.18325777548024
 20
16.50087659900696
 10
20.18446413557137
 20
16.5020173320693
 10
20.18569324238256
 20
16.50270600189068
 10
20.1869337751735
 20
16.50293626544855
  0
LINE
  5
297
330
1F
100
AcDbEntity
  8
0
  6
SLD-Solid
 62
     7
370
    25
100
AcDbLine
 10
20.18985931705265
 20
16.50293626544855
 30
0.0
 11
20.1869337751735
 21
16.50293626544855
 31
0.0
  0
LINE
  5
298
330
1F
100
AcDbEntity
  8
0
  6
SLD-Solid
 62
     7
370
    25
100
AcDbLine
 10
20.17568632759208
 20
9.66539589771444
 30
0.0
 11
20.0960413351193
 21
9.96263505619126
 31
0.0
  0
LINE
  5
299
330
1F
100
AcDbEntity
  8
0
  6
SLD-Solid
 62
     7
370
    25
100
AcDbLine
 10
23.95009293787602
 20
9.583936265448564
 30
0.0
 11
23.96509293787603
 21
9.583936265448564
 31
0.0
  0
LINE
  5
29A
330
1F
100
AcDbEntity
  8
0
  6
SLD-Solid
 62
     7
370
    25
100
AcDbLine
 10
23.96509293787603
 20
9.548036265448552
 30
0.0
 11
23.95009293787602
 21
9.548036265448554
 31
0.0
  0
LINE
  5
29B
330
1F
100
AcDbEntity
  8
0
  6
SLD-Solid
 62
     7
370
    25
100
AcDbLine
 10
20.27049790317881
 20
9.583936265448564
 30
0.0
 11
20.25549790317881
 21
9.583936265448564
 31
0.0
  0
LINE
  5
29C
330
1F
100
AcDbEntity
  8
0
  6
SLD-Solid
 62
     7
370
    25
100
AcDbLine
 10
20.25549790317881
 20
9.548036265448552
 30
0.0
 11
20.27049790317881
 21
9.548036265448554
 31
0.0
  0
LINE
  5
29D
330
1F
100
AcDbEntity
  8
0
  6
SLD-Solid
 62
     7
370
    25
100
AcDbLine
 10
23.96804293787603
 20
16.59783626544855
 30
0.0
 11
23.96809293787603
 21
16.59783624618815
 31
0.0
  0
LINE
  5
29E
330
1F
100
AcDbEntity
  8
0
  6
SLD-Solid
 62
     7
370
    25
100
AcDbLine
 10
23.96809293787603
 20
16.56193622234507
 30
0.0
 11
23.96804293787603
 21
16.56193626544855
 31
0.0
  0
LINE
  5
29F
330
1F
100
AcDbEntity
  8
0
  6
SLD-Solid
 62
     7
370
    25
100
AcDbLine
 10
23.96804293787603
 20
16.56193626544855
 30
0.0
 11
23.96009293787603
 21
16.56193626544855
 31
0.0
  0
LINE
  5
2A0
330
1F
100
AcDbEntity
  8
0
  6
SLD-Solid
 62
     7
370
    25
100
AcDbLine
 10
23.96009293787603
 20
16.59783626544855
 30
0.0
 11
23.96804293787603
 21
16.59783626544855
 31
0.0
  0
LINE
  5
2A1
330
1F
100
AcDbEntity
  8
0
  6
SLD-Solid
 62
     7
370
    25
100
AcDbLine
 10
20.25249790317881
 20
16.59783624618815
 30
0.0
 11
20.25249790317881
 21
16.56193622234507
 31
0.0
  0
LINE
  5
2A2
330
1F
100
AcDbEntity
  8
0
  6
SLD-Solid
 62
     7
370
    25
100
AcDbLine
 10
20.25254790317881
 20
16.59783626544855
 30
0.0
 11
20.25249790317881
 21
16.59783624618815
 31
0.0
  0
LINE
  5
2A3
330
1F
100
AcDbEntity
  8
0
  6
SLD-Solid
 62
     7
370
    25
100
AcDbLine
 10
20.25249790317881
 20
16.56193622234507
 30
0.0
 11
20.25254790317881
 21
16.56193626544855
 31
0.0
  0
LINE
  5
2A4
330
1F
100
AcDbEntity
  8
0
  6
SLD-Solid
 62
     7
370
    25
100
AcDbLine
 10
20.25254790317881
 20
16.56193626544855
 30
0.0
 11
20.26049790317881
 21
16.56193626544855
 31
0.0
  0
LINE
  5
2A5
330
1F
100
AcDbEntity
  8
0
  6
SLD-Solid
 62
     7
370
    25
100
AcDbLine
 10
20.26049790317881
 20
16.59783626544855
 30
0.0
 11
20.25254790317881
 21
16.59783626544855
 31
0.0
  0
LINE
  5
2A6
330
1F
100
AcDbEntity
  8
0
  6
SLD-Solid
 62
     7
370
    25
100
AcDbLine
 10
23.99605478683841
 20
9.605430513140574
 30
0.0
 11
24.00610442288085
 21
9.642936265448553
 31
0.0
  0
LINE
  5
2A7
330
1F
100
AcDbEntity
  8
0
  6
SLD-Solid
 62
     7
370
    25
100
AcDbLine
 10
24.04490451346276
 20
9.649033226183393
 30
0.0
 11
24.03073152400219
 21
9.596138909421395
 31
0.0
  0
LINE
  5
2A8
330
1F
100
AcDbEntity
  8
0
  6
SLD-Solid
 62
     7
370
    25
100
AcDbLine
 10
24.03073152400219
 20
9.596138909421395
 30
0.0
 11
24.0305144236541
 21
9.595348671392525
 31
0.0
  0
LINE
  5
2A9
330
1F
100
AcDbEntity
  8
0
  6
SLD-Solid
 62
     7
370
    25
100
AcDbLine
 10
23.99583149767772
 20
9.604641933399044
 30
0.0
 11
23.99605478683841
 21
9.605430513140574
 31
0.0
  0
LINE
  5
2AA
330
1F
100
AcDbEntity
  8
0
  6
SLD-Solid
 62
     7
370
    25
100
AcDbLine
 10
20.18985931705265
 20
9.596138909421395
 30
0.0
 11
20.19007641740073
 21
9.595348671392525
 31
0.0
  0
LINE
  5
2AB
330
1F
100
AcDbEntity
  8
0
  6
SLD-Solid
 62
     7
370
    25
100
AcDbLine
 10
20.17568632759208
 20
9.649033226183393
 30
0.0
 11
20.18985931705265
 21
9.596138909421395
 31
0.0
  0
LINE
  5
2AC
330
1F
100
AcDbEntity
  8
0
  6
SLD-Solid
 62
     7
370
    25
100
AcDbLine
 10
20.22453605421643
 20
9.605430513140574
 30
0.0
 11
20.21448641817398
 21
9.642936265448553
 31
0.0
  0
LINE
  5
2AD
330
1F
100
AcDbEntity
  8
0
  6
SLD-Solid
 62
     7
370
    25
100
AcDbLine
 10
20.22475934337711
 20
9.604641933399044
 30
0.0
 11
20.22453605421643
 21
9.605430513140574
 31
0.0
  0
ARC
  5
2AE
330
1F
100
AcDbEntity
  8
0
  6
SLD-Solid
 62
     7
370
    25
100
AcDbCircle
 10
23.96804293787602
 20
9.612936265448571
 30
0.0
 40
0.0649000000000193
100
AcDbArc
 50
270.0000000000008
 51
344.2764992614315
  0
ARC
  5
2AF
330
1F
100
AcDbEntity
  8
0
  6
SLD-Solid
 62
     7
370
    25
100
AcDbCircle
 10
23.96804293787602
 20
9.612936265448571
 30
0.0
 40
0.029000000000007
100
AcDbArc
 50
270.0000000000008
 51
343.380682706058
  0
LINE
  5
2B0
330
1F
100
AcDbEntity
  8
0
  6
SLD-Solid
 62
     7
370
    25
100
AcDbLine
 10
23.96804293787602
 20
9.583936265448564
 30
0.0
 11
23.96509293787603
 21
9.583936265448564
 31
0.0
  0
LINE
  5
2B1
330
1F
100
AcDbEntity
  8
0
  6
SLD-Solid
 62
     7
370
    25
100
AcDbLine
 10
23.96804293787602
 20
9.548036265448552
 30
0.0
 11
23.96509293787603
 21
9.548036265448552
 31
0.0
  0
ARC
  5
2B2
330
1F
100
AcDbEntity
  8
0
  6
SLD-Solid
 62
     7
370
    25
100
AcDbCircle
 10
20.25254790317881
 20
9.612936265448571
 30
0.0
 40
0.0649000000000193
100
AcDbArc
 50
195.7235007385702
 51
270.0000000000008
  0
ARC
  5
2B3
330
1F
100
AcDbEntity
  8
0
  6
SLD-Solid
 62
     7
370
    25
100
AcDbCircle
 10
20.25254790317881
 20
9.612936265448571
 30
0.0
 40
0.0290000000000108
100
AcDbArc
 50
196.6193172939396
 51
270.0000000000008
  0
LINE
  5
2B4
330
1F
100
AcDbEntity
  8
0
  6
SLD-Solid
 62
     7
370
    25
100
AcDbLine
 10
20.25254790317881
 20
9.583936265448564
 30
0.0
 11
20.25549790317881
 21
9.583936265448564
 31
0.0
  0
LINE
  5
2B5
330
1F
100
AcDbEntity
  8
0
  6
SLD-Solid
 62
     7
370
    25
100
AcDbLine
 10
20.25254790317881
 20
9.548036265448552
 30
0.0
 11
20.25549790317881
 21
9.548036265448552
 31
0.0
  0
LINE
  5
2B6
330
1F
100
AcDbEntity
  8
0
  6
SLD-Solid
 62
     7
370
    25
100
AcDbLine
 10
24.03365706588133
 20
16.53881535054309
 30
0.0
 11
24.04264774833978
 21
16.50526166681341
 31
0.0
  0
LINE
  5
2B7
330
1F
100
AcDbEntity
  8
0
  6
SLD-Solid
 62
     7
370
    25
100
AcDbLine
 10
24.00610442288085
 20
16.50293626544855
 30
0.0
 11
23.99898032871755
 21
16.5295237468239
 31
0.0
  0
ARC
  5
2B8
330
1F
100
AcDbEntity
  8
0
  6
SLD-Solid
 62
     7
370
    25
100
AcDbCircle
 10
23.96804293787603
 20
16.53293626544855
 30
0.0
 40
0.0649000000000002
100
AcDbArc
 50
15.00000000000184
 51
89.95585840895315
  0
ARC
  5
2B9
330
1F
100
AcDbEntity
  8
0
  6
SLD-Solid
 62
     7
370
    25
100
AcDbCircle
 10
23.96804293787603
 20
16.53293626544855
 30
0.0
 40
0.0290000000000003
100
AcDbArc
 50
15.00000000000427
 51
89.90121412431434
  0
LINE
  5
2BA
330
1F
100
AcDbEntity
  8
0
  6
SLD-Solid
 62
     7
370
    25
100
AcDbLine
 10
24.03365706588133
 20
16.53881535054309
 30
0.0
 11
24.03073152400219
 21
16.54973362147571
 31
0.0
  0
LINE
  5
2BB
330
1F
100
AcDbEntity
  8
0
  6
SLD-Solid
 62
     7
370
    25
100
AcDbLine
 10
23.99898032871755
 20
16.5295237468239
 30
0.0
 11
23.99605478683841
 21
16.54044201775653
 31
0.0
  0
LINE
  5
2BC
330
1F
100
AcDbEntity
  8
0
  6
SLD-Solid
 62
     7
370
    25
100
AcDbLine
 10
20.1869337751735
 20
16.53881535054309
 30
0.0
 11
20.17794309271505
 21
16.50526166681341
 31
0.0
  0
LINE
  5
2BD
330
1F
100
AcDbEntity
  8
0
  6
SLD-Solid
 62
     7
370
    25
100
AcDbLine
 10
20.21448641817398
 20
16.50293626544855
 30
0.0
 11
20.22161051233728
 21
16.5295237468239
 31
0.0
  0
ARC
  5
2BE
330
1F
100
AcDbEntity
  8
0
  6
SLD-Solid
 62
     7
370
    25
100
AcDbCircle
 10
20.25254790317881
 20
16.53293626544855
 30
0.0
 40
0.0649000000000038
100
AcDbArc
 50
90.04414159104999
 51
164.9999999999998
  0
ARC
  5
2BF
330
1F
100
AcDbEntity
  8
0
  6
SLD-Solid
 62
     7
370
    25
100
AcDbCircle
 10
20.25254790317881
 20
16.53293626544855
 30
0.0
 40
0.0290000000000032
100
AcDbArc
 50
90.09878587569268
 51
164.9999999999993
  0
LINE
  5
2C0
330
1F
100
AcDbEntity
  8
0
  6
SLD-Solid
 62
     7
370
    25
100
AcDbLine
 10
20.1869337751735
 20
16.53881535054309
 30
0.0
 11
20.18985931705264
 21
16.54973362147571
 31
0.0
  0
LINE
  5
2C1
330
1F
100
AcDbEntity
  8
0
  6
SLD-Solid
 62
     7
370
    25
100
AcDbLine
 10
20.22161051233728
 20
16.5295237468239
 30
0.0
 11
20.22453605421642
 21
16.54044201775653
 31
0.0
  0
LINE
  5
2C2
330
1F
100
AcDbEntity
  8
0
  6
SLD-Solid
 62
     7
370
    25
100
AcDbLine
 10
24.12454950593553
 20
16.19960014623689
 30
0.0
 11
24.04264774833978
 21
16.50526166681341
 31
0.0
  0
LINE
  5
2C3
330
1F
100
AcDbEntity
  8
0
  6
SLD-Solid
 62
     7
370
    25
100
AcDbLine
 10
20.0960413351193
 20
16.19960014623689
 30
0.0
 11
20.17794309271505
 21
16.50526166681341
 31
0.0
  0
LINE
  5
2C4
330
1F
100
AcDbEntity
  8
0
  6
SLD-Solid
 62
     7
370
    25
100
AcDbLine
 10
24.12454950593553
 20
9.946272384660213
 30
0.0
 11
24.04490451346276
 21
9.649033226183393
 31
0.0
  0
LINE
  5
2C5
330
1F
100
AcDbEntity
  8
0
  6
SLD-Solid
 62
     7
370
    25
100
AcDbLine
 10
20.0960413351193
 20
9.946272384660213
 30
0.0
 11
20.17568632759208
 21
9.649033226183393
 31
0.0
  0
LINE
  5
2C6
330
1F
100
AcDbEntity
  8
0
  6
SLD-Solid
 62
     7
370
    25
100
AcDbLine
 10
24.12440910784945
 20
9.96211108340068
 30
0.0
 11
24.12849977573221
 21
9.961014992244996
 31
0.0
  0
LINE
  5
2C7
330
1F
100
AcDbEntity
  8
0
  6
SLD-Solid
 62
     7
370
    25
100
AcDbLine
 10
24.12849977573221
 20
9.961014992244996
 30
0.0
 11
24.12454950593553
 21
9.946272384660213
 31
0.0
  0
LINE
  5
2C8
330
1F
100
AcDbEntity
  8
0
  6
SLD-Solid
 62
     7
370
    25
100
AcDbLine
 10
20.09618173320539
 20
9.962111083400686
 30
0.0
 11
20.09209106532263
 21
9.961014992244996
 31
0.0
  0
LINE
  5
2C9
330
1F
100
AcDbEntity
  8
0
  6
SLD-Solid
 62
     7
370
    25
100
AcDbLine
 10
20.09209106532263
 20
9.961014992244996
 30
0.0
 11
20.0960413351193
 21
9.946272384660213
 31
0.0
  0
LINE
  5
2CA
330
1F
100
AcDbEntity
  8
0
  6
SLD-Solid
 62
     7
370
    25
100
AcDbLine
 10
24.12849977573221
 20
16.1848575386521
 30
0.0
 11
24.12440910784944
 21
16.18376144749642
 31
0.0
  0
LINE
  5
2CB
330
1F
100
AcDbEntity
  8
0
  6
SLD-Solid
 62
     7
370
    25
100
AcDbLine
 10
24.12454950593553
 20
16.19960014623689
 30
0.0
 11
24.12849977573221
 21
16.1848575386521
 31
0.0
  0
LINE
  5
2CC
330
1F
100
AcDbEntity
  8
0
  6
SLD-Solid
 62
     7
370
    25
100
AcDbLine
 10
20.09209106532263
 20
16.1848575386521
 30
0.0
 11
20.09618173320539
 21
16.18376144749642
 31
0.0
  0
LINE
  5
2CD
330
1F
100
AcDbEntity
  8
0
  6
SLD-Solid
 62
     7
370
    25
100
AcDbLine
 10
20.0960413351193
 20
16.19960014623689
 30
0.0
 11
20.09209106532263
 21
16.1848575386521
 31
0.0
  0
LINE
  5
2CE
330
1F
100
AcDbEntity
  8
0
  6
SLD-Solid
 62
     7
370
    25
100
AcDbLine
 10
20.26199790317881
 20
9.623936265448538
 30
0.0
 11
20.26199790317881
 21
9.588036265448538
 31
0.0
  0
LINE
  5
2CF
330
1F
100
AcDbEntity
  8
0
  6
SLD-Solid
 62
     7
370
    25
100
AcDbLine
 10
23.95859293787603
 20
9.588036265448538
 30
0.0
 11
23.95009293787602
 21
9.588036265448538
 31
0.0
  0
LINE
  5
2D0
330
1F
100
AcDbEntity
  8
0
  6
SLD-Solid
 62
     7
370
    25
100
AcDbLine
 10
20.27049790317881
 20
9.588036265448538
 30
0.0
 11
20.26199790317881
 21
9.588036265448538
 31
0.0
  0
LINE
  5
2D1
330
1F
100
AcDbEntity
  8
0
  6
SLD-Solid
 62
     7
370
    25
100
AcDbLine
 10
23.95859293787603
 20
9.623936265448538
 30
0.0
 11
23.95859293787603
 21
9.588036265448538
 31
0.0
  0
LINE
  5
2D2
330
1F
100
AcDbEntity
  8
0
  6
SLD-Solid
 62
     7
370
    25
100
AcDbLine
 10
20.26199790317881
 20
9.64145477128315
 30
0.0
 11
20.26199790317881
 21
9.62393626544855
 31
0.0
  0
LINE
  5
2D3
330
1F
100
AcDbEntity
  8
0
  6
SLD-Solid
 62
     7
370
    25
100
AcDbLine
 10
23.95859293787603
 20
9.64145477128315
 30
0.0
 11
23.95859293787603
 21
9.62393626544855
 31
0.0
  0
LINE
  5
2D4
330
1F
100
AcDbEntity
  8
0
  6
SLD-Solid
 62
     8
370
    25
100
AcDbLine
 10
24.12045883805278
 20
16.1985040550812
 30
0.0
 11
24.12454950593553
 21
16.19960014623689
 31
0.0
  0
LINE
  5
2D5
330
1F
100
AcDbEntity
  8
0
  6
SLD-Solid
 62
     8
370
    25
100
AcDbLine
 10
20.10013200300206
 20
16.1985040550812
 30
0.0
 11
20.0960413351193
 21
16.19960014623689
 31
0.0
  0
LINE
  5
2D6
330
1F
100
AcDbEntity
  8
0
  6
SLD-Solid
 62
     8
370
    25
100
AcDbLine
 10
24.12454950593553
 20
9.946272384660213
 30
0.0
 11
24.12045883805277
 21
9.947368475815903
 31
0.0
  0
LINE
  5
2D7
330
1F
100
AcDbEntity
  8
0
  6
SLD-Solid
 62
     8
370
    25
100
AcDbLine
 10
20.0960413351193
 20
9.946272384660213
 30
0.0
 11
20.10013200300206
 21
9.947368475815903
 31
0.0
  0
DIMENSION
  5
2D8
330
1F
100
AcDbEntity
  8
DIMS
100
AcDbDimension
  2
_D_1
 10
24.1284997757322
 20
18.17264039930682
 30
0.0
 11
22.19751691190469
 21
18.17264039930682
 31
0.0
 70
    32
  1
<>
 71
     2
 42
-1.0
  3
SLDDIMSTYLE0
100
AcDbAlignedDimension
 13
20.09209106532262
 23
16.14727474487203
 33
0.0
 14
24.1284997757322
 24
16.14727474487203
 34
0.0
100
AcDbRotatedDimension
  0
MTEXT
  5
2E7
330
1F
100
AcDbEntity
  8
NOTES
100
AcDbMText
 10
19.74486402611182
 20
9.031508644602004
 30
0.0
 40
0.7500000000000001
 41
0.0
 71
     1
 72
     1
  1
Side view
  7
SLDTEXTSTYLE1
 73
     1
 44
1.0
  0
LINE
  5
2E8
330
1F
100
AcDbEntity
  8
0
  6
SLD-Solid
 62
     7
370
    25
100
AcDbLine
 10
49.02611742116795
 20
14.67161107074668
 30
0.0
 11
49.00816742116795
 21
14.65366301566656
 31
0.0
  0
LINE
  5
2E9
330
1F
100
AcDbEntity
  8
0
  6
SLD-Solid
 62
     7
370
    25
100
AcDbLine
 10
48.99573253922904
 20
14.67518848097279
 30
0.0
 11
49.02025269522697
 21
14.68175669208423
 31
0.0
  0
LINE
  5
2EA
330
1F
100
AcDbEntity
  8
0
  6
SLD-Solid
 62
     7
370
    25
100
AcDbLine
 10
49.41613490321515
 20
17.89472264798882
 30
0.0
 11
46.83589033904568
 21
16.40517916691827
 31
0.0
  0
LINE
  5
2EB
330
1F
100
AcDbEntity
  8
0
  6
SLD-Solid
 62
     7
370
    25
100
AcDbLine
 10
46.76912309831214
 20
16.30466697238545
 30
0.0
 11
46.76912309831212
 21
10.73585863532464
 31
0.0
  0
LINE
  5
2EC
330
1F
100
AcDbEntity
  8
0
  6
SLD-Solid
 62
     7
370
    25
100
AcDbLine
 10
52.05196025520985
 20
10.76177225801574
 30
0.0
 11
52.05196025520985
 21
16.36324222755198
 31
0.0
  0
LINE
  5
2ED
330
1F
100
AcDbEntity
  8
0
  6
SLD-Solid
 62
     7
370
    25
100
AcDbLine
 10
51.99829441464829
 20
16.45619114475441
 30
0.0
 11
49.51493539912113
 21
17.88980378911508
 31
0.0
  0
LINE
  5
2EE
330
1F
100
AcDbEntity
  8
0
  6
SLD-Solid
 62
     7
370
    25
100
AcDbLine
 10
52.02180374460293
 20
16.39423395259601
 30
0.0
 11
52.01898294090476
 21
16.3932937865766
 31
0.0
  0
LINE
  5
2EF
330
1F
100
AcDbEntity
  8
0
  6
SLD-Solid
 62
     7
370
    25
100
AcDbLine
 10
52.0078392843149
 20
16.41259872911499
 30
0.0
 11
52.01006044610968
 21
16.414568245605
 31
0.0
  0
LINE
  5
2F0
330
1F
100
AcDbEntity
  8
0
  6
SLD-Solid
 62
     7
370
    25
100
AcDbLine
 10
49.40494845030684
 20
9.171716582412365
 30
0.0
 11
52.0068150513616
 21
10.67374219968704
 31
0.0
  0
LINE
  5
2F1
330
1F
100
AcDbEntity
  8
0
  6
SLD-Solid
 62
     7
370
    25
100
AcDbLine
 10
46.84117371518456
 20
10.59963478019304
 30
0.0
 11
49.30614795440086
 21
9.176635441286104
 31
0.0
  0
LINE
  5
2F2
330
1F
100
AcDbEntity
  8
0
  6
SLD-Solid
 62
     7
370
    25
100
AcDbLine
 10
46.85252998366514
 20
10.68330577891592
 30
0.0
 11
46.82800982766721
 21
10.66156362051531
 31
0.0
  0
LINE
  5
2F3
330
1F
100
AcDbEntity
  8
0
  6
SLD-Solid
 62
     7
370
    25
100
AcDbLine
 10
46.81400922334699
 20
10.68083073540177
 30
0.0
 11
46.84509953534285
 21
10.6911930498337
 31
0.0
  0
LINE
  5
2F4
330
1F
100
AcDbEntity
  8
0
  6
SLD-Solid
 62
     7
370
    25
100
AcDbLine
 10
49.30381154715162
 20
14.83295298296784
 30
0.0
 11
49.29381137542853
 21
14.83872595922233
 31
0.0
  0
ARC
  5
2F5
330
1F
100
AcDbEntity
  8
0
  6
SLD-Solid
 62
     7
370
    25
100
AcDbCircle
 10
49.05576026976054
 20
9.61435903284597
 30
0.0
 40
0.0555869320175714
100
AcDbArc
 50
182.3370872622282
 51
220.4139028189387
  0
LINE
  5
2F6
330
1F
100
AcDbEntity
  8
0
  6
SLD-Solid
 62
     7
370
    25
100
AcDbLine
 10
49.00021957447008
 20
14.63273795394518
 30
0.0
 11
49.0002195744701
 21
9.612092277945083
 31
0.0
  0
ARC
  5
2F7
330
1F
100
AcDbEntity
  8
0
  6
SLD-Solid
 62
     7
370
    25
100
AcDbCircle
 10
49.02788289092899
 20
14.634067941058
 30
0.0
 40
0.0276952693293606
100
AcDbArc
 50
121.4386765268087
 51
182.7525266774971
  0
LINE
  5
2F8
330
1F
100
AcDbEntity
  8
0
  6
SLD-Solid
 62
     7
370
    25
100
AcDbLine
 10
49.01343743482639
 20
14.65769751450345
 30
0.0
 11
49.28748605696089
 21
14.81594297787871
 31
0.0
  0
ARC
  5
2F9
330
1F
100
AcDbEntity
  8
0
  6
SLD-Solid
 62
     7
370
    25
100
AcDbCircle
 10
49.30413355062308
 20
14.78300352499101
 30
0.0
 40
0.0369072703105152
100
AcDbArc
 50
68.65116289220892
 51
116.8118873023269
  0
LINE
  5
2FA
330
1F
100
AcDbEntity
  8
0
  6
SLD-Solid
 62
     7
370
    25
100
AcDbLine
 10
49.3273585207105
 20
14.81411560069516
 30
0.0
 11
49.3175694667938
 21
14.8173782651126
 31
0.0
  0
LINE
  5
2FB
330
1F
100
AcDbEntity
  8
0
  6
SLD-Solid
 62
     7
370
    25
100
AcDbLine
 10
49.3273585207105
 20
9.212649058586678
 30
0.0
 11
49.3273585207105
 21
14.81411560069516
 31
0.0
  0
ARC
  5
2FC
330
1F
100
AcDbEntity
  8
0
  6
SLD-Solid
 62
     7
370
    25
100
AcDbCircle
 10
49.36361682094641
 20
9.313019559343934
 30
0.0
 40
0.1067187975862712
100
AcDbArc
 50
218.3591639966633
 51
250.1380204571252
  0
LINE
  5
2FD
330
1F
100
AcDbEntity
  8
0
  6
SLD-Solid
 62
     7
370
    25
100
AcDbLine
 10
49.27993477368461
 20
9.246791040378668
 30
0.0
 11
49.01343743482641
 21
9.578321765271072
 31
0.0
  0
ARC
  5
2FE
330
1F
100
AcDbEntity
  8
0
  6
SLD-Solid
 62
     7
370
    25
100
AcDbCircle
 10
48.98862437713678
 20
14.70205679542275
 30
0.0
 40
0.0276911015309744
100
AcDbArc
 50
237.2508069533907
 51
298.570302901348
  0
LINE
  5
2FF
330
1F
100
AcDbEntity
  8
0
  6
SLD-Solid
 62
     7
370
    25
100
AcDbLine
 10
46.99326685661866
 20
15.82201498164361
 30
0.0
 11
48.97364452613225
 21
14.6787672877448
 31
0.0
  0
ARC
  5
300
330
1F
100
AcDbEntity
  8
0
  6
SLD-Solid
 62
     7
370
    25
100
AcDbCircle
 10
47.02299521828754
 20
15.86897653596429
 30
0.0
 40
0.0555802399394846
100
AcDbArc
 50
199.5852132355789
 51
237.6647107737227
  0
LINE
  5
301
330
1F
100
AcDbEntity
  8
0
  6
SLD-Solid
 62
     7
370
    25
100
AcDbLine
 10
46.81240858328353
 20
16.25813557898897
 30
0.0
 11
46.97063062904393
 21
15.85034557074295
 31
0.0
  0
ARC
  5
302
330
1F
100
AcDbEntity
  8
0
  6
SLD-Solid
 62
     7
370
    25
100
AcDbCircle
 10
46.87426267495029
 20
16.28270590786825
 30
0.0
 40
0.0665554634658686
100
AcDbArc
 50
169.4133475808886
 51
201.6644830059613
  0
LINE
  5
303
330
1F
100
AcDbEntity
  8
0
  6
SLD-Solid
 62
     7
370
    25
100
AcDbLine
 10
46.81090877739493
 20
16.30504306667658
 30
0.0
 11
46.80884010689355
 21
16.29493363480407
 31
0.0
  0
LINE
  5
304
330
1F
100
AcDbEntity
  8
0
  6
SLD-Solid
 62
     7
370
    25
100
AcDbLine
 10
46.81090877739493
 20
16.30504306667658
 30
0.0
 11
49.29426779292208
 21
14.8714304223159
 31
0.0
  0
LINE
  5
305
330
1F
100
AcDbEntity
  8
0
  6
SLD-Solid
 62
     7
370
    25
100
AcDbLine
 10
49.2921991224207
 20
14.86132099044338
 30
0.0
 11
49.29426779292208
 21
14.8714304223159
 31
0.0
  0
ARC
  5
306
330
1F
100
AcDbEntity
  8
0
  6
SLD-Solid
 62
     7
370
    25
100
AcDbCircle
 10
49.2557058704268
 20
14.86687200353967
 30
0.0
 40
0.0369130219229631
100
AcDbArc
 50
303.1959511544073
 51
351.3509996599311
  0
LINE
  5
307
330
1F
100
AcDbEntity
  8
0
  6
SLD-Solid
 62
     7
370
    25
100
AcDbLine
 10
49.00186727882847
 20
14.67773761248453
 30
0.0
 11
49.27591590096297
 21
14.8359830758598
 31
0.0
  0
LINE
  5
308
330
1F
100
AcDbEntity
  8
0
  6
SLD-Solid
 62
     7
370
    25
100
AcDbLine
 10
49.36543001962092
 20
14.92729702996254
 30
0.0
 11
51.9814387562994
 21
16.43748672835545
 31
0.0
  0
ARC
  5
309
330
1F
100
AcDbEntity
  8
0
  6
SLD-Solid
 62
     7
370
    25
100
AcDbCircle
 10
51.92769446141966
 20
16.3534668171237
 30
0.0
 40
0.0997386320114282
100
AcDbArc
 50
2.605478485654396
 51
57.39452165997596
  0
LINE
  5
30A
330
1F
100
AcDbEntity
  8
0
  6
SLD-Solid
 62
     7
370
    25
100
AcDbLine
 10
52.02732998639841
 20
16.35800078643542
 30
0.0
 11
49.41132124971993
 21
14.84781108804251
 31
0.0
  0
ARC
  5
30B
330
1F
100
AcDbEntity
  8
0
  6
SLD-Solid
 62
     7
370
    25
100
AcDbCircle
 10
49.31773771147964
 20
14.84461421619282
 30
0.0
 40
0.0936381258846725
100
AcDbArc
 50
1.956498643063687
 51
31.14372779935726
  0
LINE
  5
30C
330
1F
100
AcDbEntity
  8
0
  6
SLD-Solid
 62
     7
370
    25
100
AcDbLine
 10
49.4146724983317
 20
14.90273669891265
 30
0.0
 11
49.39788001962091
 21
14.89304260729746
 31
0.0
  0
LINE
  5
30D
330
1F
100
AcDbEntity
  8
0
  6
SLD-Solid
 62
     7
370
    25
100
AcDbLine
 10
49.37988227153085
 20
14.91625744776456
 30
0.0
 11
49.4146724983317
 21
14.90273669891265
 31
0.0
  0
ARC
  5
30E
330
1F
100
AcDbEntity
  8
0
  6
SLD-Solid
 62
     7
370
    25
100
AcDbCircle
 10
49.32693439580478
 20
14.86192150939799
 30
0.0
 40
0.0758674616820613
100
AcDbArc
 50
45.74126460171024
 51
59.50878508469512
  0
ARC
  5
30F
330
1F
100
AcDbEntity
  8
0
  6
SLD-Solid
 62
     7
370
    25
100
AcDbCircle
 10
49.34411912692303
 20
14.86103711929473
 30
0.0
 40
0.041841381365963
100
AcDbArc
 50
1.956498643030153
 51
31.14372779937545
  0
LINE
  5
310
330
1F
100
AcDbEntity
  8
0
  6
SLD-Solid
 62
     7
370
    25
100
AcDbLine
 10
49.37993001962091
 20
14.88267692425671
 30
0.0
 11
49.39788001962091
 21
14.89304260729746
 31
0.0
  0
LINE
  5
311
330
1F
100
AcDbEntity
  8
0
  6
SLD-Solid
 62
     7
370
    25
100
AcDbLine
 10
49.3280708165078
 20
9.212411674033023
 30
0.0
 11
49.3273585207105
 21
9.212649058586678
 31
0.0
  0
ARC
  5
312
330
1F
100
AcDbEntity
  8
0
  6
SLD-Solid
 62
     7
370
    25
100
AcDbCircle
 10
49.35941883198488
 20
14.91068328057531
 30
0.0
 40
0.1017505791455016
100
AcDbArc
 50
251.6339182686065
 51
297.0327121092659
  0
LINE
  5
313
330
1F
100
AcDbEntity
  8
0
  6
SLD-Solid
 62
     7
370
    25
100
AcDbLine
 10
49.40566438185127
 20
14.82004923910081
 30
0.0
 11
49.4056997508095
 21
14.82006976902718
 31
0.0
  0
LINE
  5
314
330
1F
100
AcDbEntity
  8
0
  6
SLD-Solid
 62
     7
370
    25
100
AcDbLine
 10
49.4056997508095
 20
9.218599671905192
 30
0.0
 11
49.4056997508095
 21
14.82006976902718
 31
0.0
  0
ARC
  5
315
330
1F
100
AcDbEntity
  8
0
  6
SLD-Solid
 62
     7
370
    25
100
AcDbCircle
 10
49.35941790451821
 20
9.30918454886306
 30
0.0
 40
0.1017232973787356
100
AcDbArc
 50
252.0515997953135
 51
297.0635085336057
  0
ARC
  5
316
330
1F
100
AcDbEntity
  8
0
  6
SLD-Solid
 62
     7
370
    25
100
AcDbCircle
 10
49.35963502897669
 20
14.875225444335
 30
0.0
 40
0.045477344148221
100
AcDbArc
 50
251.6376664514194
 51
296.9970594655285
  0
LINE
  5
317
330
1F
100
AcDbEntity
  8
0
  6
SLD-Solid
 62
     7
370
    25
100
AcDbLine
 10
49.3385954277614
 20
14.93629786561288
 30
0.0
 11
49.33855996193583
 21
14.93627750346568
 31
0.0
  0
ARC
  5
318
330
1F
100
AcDbEntity
  8
0
  6
SLD-Solid
 62
     7
370
    25
100
AcDbCircle
 10
49.39391260374929
 20
14.85092040561006
 30
0.0
 40
0.1017337166826478
100
AcDbArc
 50
122.9627301752042
 51
168.3691745423612
  0
ARC
  5
319
330
1F
100
AcDbEntity
  8
0
  6
SLD-Solid
 62
     7
370
    25
100
AcDbCircle
 10
46.91053519400577
 20
16.28454234106841
 30
0.0
 40
0.101713827168085
100
AcDbArc
 50
122.9339140379589
 51
168.3722118527979
  0
ARC
  5
31A
330
1F
100
AcDbEntity
  8
0
  6
SLD-Solid
 62
     7
370
    25
100
AcDbCircle
 10
49.36332352283418
 20
14.86882878242077
 30
0.0
 40
0.0454698087894265
100
AcDbArc
 50
122.9983895340824
 51
168.3654252217335
  0
LINE
  5
31B
330
1F
100
AcDbEntity
  8
0
  6
SLD-Solid
 62
     7
370
    25
100
AcDbLine
 10
49.30543605696089
 20
14.83389103295883
 30
0.0
 11
49.03138743482639
 21
14.67564556958356
 31
0.0
  0
LINE
  5
31C
330
1F
100
AcDbEntity
  8
0
  6
SLD-Solid
 62
     7
370
    25
100
AcDbLine
 10
49.0263874348264
 20
14.68430582359598
 30
0.0
 11
49.3004360569609
 21
14.84255128697125
 31
0.0
  0
ARC
  5
31D
330
1F
100
AcDbEntity
  8
0
  6
SLD-Solid
 62
     7
370
    25
100
AcDbCircle
 10
49.34822858525015
 20
14.86877073259145
 30
0.0
 40
0.0339007147730302
100
AcDbArc
 50
45.74126460165132
 51
59.5087850846941
  0
LINE
  5
31E
330
1F
100
AcDbEntity
  8
0
  6
SLD-Solid
 62
     7
370
    25
100
AcDbLine
 10
52.03086552030436
 20
10.73407561282215
 30
0.0
 11
52.03295148530885
 21
10.73527981478709
 31
0.0
  0
ARC
  5
31F
330
1F
100
AcDbEntity
  8
0
  6
SLD-Solid
 62
     7
370
    25
100
AcDbCircle
 10
52.04328716010707
 20
10.71465652702129
 30
0.0
 40
0.0230520721135749
100
AcDbArc
 50
122.6054783400277
 51
177.3945215143585
  0
LINE
  5
320
330
1F
100
AcDbEntity
  8
0
  6
SLD-Solid
 62
     7
370
    25
100
AcDbLine
 10
52.02025891858656
 20
10.7034563276269
 30
0.0
 11
52.02025891858656
 21
10.71570443980519
 31
0.0
  0
LINE
  5
321
330
1F
100
AcDbEntity
  8
0
  6
SLD-Solid
 62
     7
370
    25
100
AcDbLine
 10
49.41839231753181
 20
9.201430710352223
 30
0.0
 11
49.4183923175318
 21
9.21367882253051
 31
0.0
  0
ARC
  5
322
330
1F
100
AcDbEntity
  8
0
  6
SLD-Solid
 62
     7
370
    25
100
AcDbCircle
 10
49.4119262020204
 20
9.214727730484016
 30
0.0
 40
0.0065506379614287
100
AcDbArc
 50
350.7859630095694
 51
129.203285235679
  0
LINE
  5
323
330
1F
100
AcDbEntity
  8
0
  6
SLD-Solid
 62
     7
370
    25
100
AcDbLine
 10
49.40778571581401
 20
9.219803873870124
 30
0.0
 11
49.4056997508095
 21
9.218599671905192
 31
0.0
  0
ARC
  5
324
330
1F
100
AcDbEntity
  8
0
  6
SLD-Solid
 62
     7
370
    25
100
AcDbCircle
 10
49.39902820481202
 20
14.83041029687953
 30
0.0
 40
0.0123059352453081
100
AcDbArc
 50
302.8294717853569
 51
357.377289365454
  0
LINE
  5
325
330
1F
100
AcDbEntity
  8
0
  6
SLD-Solid
 62
     7
370
    25
100
AcDbLine
 10
49.41132124971993
 20
14.82984719018102
 30
0.0
 11
49.41132124971993
 21
14.84781108804251
 31
0.0
  0
LINE
  5
326
330
1F
100
AcDbEntity
  8
0
  6
SLD-Solid
 62
     7
370
    25
100
AcDbLine
 10
52.02732998639841
 20
16.34003688857393
 30
0.0
 11
52.02732998639841
 21
16.35800078643542
 31
0.0
  0
ARC
  5
327
330
1F
100
AcDbEntity
  8
0
  6
SLD-Solid
 62
     7
370
    25
100
AcDbCircle
 10
52.03077214383254
 20
16.3394732555698
 30
0.0
 40
0.0034879979880599
100
AcDbArc
 50
170.7006791083577
 51
308.6683580498607
  0
LINE
  5
328
330
1F
100
AcDbEntity
  8
0
  6
SLD-Solid
 62
     7
370
    25
100
AcDbLine
 10
49.34987367043481
 20
14.93627751919259
 30
0.0
 11
49.36543001962092
 21
14.92729702996254
 31
0.0
  0
ARC
  5
329
330
1F
100
AcDbEntity
  8
0
  6
SLD-Solid
 62
     7
370
    25
100
AcDbCircle
 10
49.34421481329768
 20
14.92534792298215
 30
0.0
 40
0.0123076698615867
100
AcDbArc
 50
62.62689545433123
 51
117.1663768168528
  0
LINE
  5
32A
330
1F
100
AcDbEntity
  8
0
  6
SLD-Solid
 62
     7
370
    25
100
AcDbLine
 10
46.86227201422054
 20
16.37397220411238
 30
0.0
 11
46.85523630174774
 21
16.36991057375606
 31
0.0
  0
ARC
  5
32B
330
1F
100
AcDbEntity
  8
0
  6
SLD-Solid
 62
     7
370
    25
100
AcDbCircle
 10
46.86103259800618
 20
16.37723783655967
 30
0.0
 40
0.0034929225346728
100
AcDbArc
 50
290.7834207993897
 51
69.21657920063186
  0
LINE
  5
32C
330
1F
100
AcDbEntity
  8
0
  6
SLD-Solid
 62
     7
370
    25
100
AcDbLine
 10
46.84671566503444
 20
16.38948395823701
 30
0.0
 11
46.86227201422054
 21
16.38050346900696
 31
0.0
  0
LINE
  5
32D
330
1F
100
AcDbEntity
  8
0
  6
SLD-Solid
 62
     7
370
    25
100
AcDbLine
 10
49.4485822660892
 20
17.8915095755117
 30
0.0
 11
49.4641386152753
 21
17.88252908628165
 31
0.0
  0
ARC
  5
32E
330
1F
100
AcDbEntity
  8
0
  6
SLD-Solid
 62
     7
370
    25
100
AcDbCircle
 10
49.46979546952479
 20
17.8934467749613
 30
0.0
 40
0.0122961752633037
100
AcDbArc
 50
242.6096722366138
 51
297.3903277633879
  0
LINE
  5
32F
330
1F
100
AcDbEntity
  8
0
  6
SLD-Solid
 62
     7
370
    25
100
AcDbLine
 10
49.47545232377428
 20
17.88252908628165
 30
0.0
 11
49.48248803624708
 21
17.88659071663796
 31
0.0
  0
ARC
  5
330
330
1F
100
AcDbEntity
  8
0
  6
SLD-Solid
 62
     7
370
    25
100
AcDbCircle
 10
51.96711494925645
 20
16.44972938055372
 30
0.0
 40
0.0034872435197258
100
AcDbArc
 50
111.3183676326752
 51
249.3019445855857
  0
LINE
  5
331
330
1F
100
AcDbEntity
  8
0
  6
SLD-Solid
 62
     7
370
    25
100
AcDbLine
 10
51.96588240711331
 20
16.4464672175855
 30
0.0
 11
51.9814387562994
 21
16.43748672835545
 31
0.0
  0
LINE
  5
332
330
1F
100
AcDbEntity
  8
0
  6
SLD-Solid
 62
     7
370
    25
100
AcDbLine
 10
49.38593611627532
 20
14.86246561364972
 30
0.0
 11
49.38593611627532
 21
14.84450171578824
 31
0.0
  0
LINE
  5
333
330
1F
100
AcDbEntity
  8
0
  6
SLD-Solid
 62
     7
370
    25
100
AcDbLine
 10
49.36543001962092
 20
14.89798321481584
 30
0.0
 11
49.34987367043481
 21
14.90696370404589
 31
0.0
  0
LINE
  5
334
330
1F
100
AcDbEntity
  8
0
  6
SLD-Solid
 62
     7
370
    25
100
AcDbLine
 10
49.3453085207105
 20
14.83206365577528
 30
0.0
 11
49.3355194667938
 21
14.83532632019272
 31
0.0
  0
LINE
  5
335
330
1F
100
AcDbEntity
  8
0
  6
SLD-Solid
 62
     7
370
    25
100
AcDbLine
 10
49.31671927841862
 20
14.86788920155483
 30
0.0
 11
49.31878794892001
 21
14.87799863342734
 31
0.0
  0
ARC
  5
336
330
1F
100
AcDbEntity
  8
0
  6
SLD-Solid
 62
     7
370
    25
100
AcDbCircle
 10
49.32208355062307
 20
14.80095158007115
 30
0.0
 40
0.0369072703104961
100
AcDbArc
 50
68.6511628921866
 51
116.8118873023295
  0
ARC
  5
337
330
1F
100
AcDbEntity
  8
0
  6
SLD-Solid
 62
     7
370
    25
100
AcDbCircle
 10
49.28022602642477
 20
14.8734402146511
 30
0.0
 40
0.0369130219229241
100
AcDbArc
 50
303.1959511543778
 51
351.3509996599511
  0
LINE
  5
338
330
1F
100
AcDbEntity
  8
0
  6
SLD-Solid
 62
     7
370
    25
100
AcDbLine
 10
49.3803146173649
 20
14.8347242946344
 30
0.0
 11
49.38027923154708
 21
14.83470377444087
 31
0.0
  0
ARC
  5
339
330
1F
100
AcDbEntity
  8
0
  6
SLD-Solid
 62
     7
370
    25
100
AcDbCircle
 10
49.37364307136742
 20
14.84506482248675
 30
0.0
 40
0.0123059352453094
100
AcDbArc
 50
302.8294717853524
 51
357.377289365454
  0
ARC
  5
33A
330
1F
100
AcDbEntity
  8
0
  6
SLD-Solid
 62
     7
370
    25
100
AcDbCircle
 10
49.34421481329769
 20
14.89603410783543
 30
0.0
 40
0.0123076698616
100
AcDbArc
 50
62.6268954544204
 51
117.1663768168776
  0
LINE
  5
33B
330
1F
100
AcDbEntity
  8
0
  6
SLD-Solid
 62
     7
370
    25
100
AcDbLine
 10
49.33855996193583
 20
14.90696366885014
 30
0.0
 11
49.3385954277614
 21
14.90698405046618
 31
0.0
  0
LWPOLYLINE
  5
33C
330
1F
100
AcDbEntity
  8
0
  6
SLD-Solid
 62
     7
370
    25
100
AcDbPolyline
 90
        3
 70
   128
 43
0.0
 10
49.03138743482639
 20
14.67564556958356
 10
49.02841890695185
 20
14.67364592079178
 10
49.02611742116795
 20
14.67161107074668
  0
LWPOLYLINE
  5
33D
330
1F
100
AcDbEntity
  8
0
  6
SLD-Solid
 62
     7
370
    25
100
AcDbPolyline
 90
        3
 70
   128
 43
0.0
 10
49.02025269522697
 20
14.68175669208423
 10
49.02317165730883
 20
14.6827344237468
 10
49.0263874348264
 20
14.68430582359598
  0
ARC
  5
33E
330
1F
100
AcDbEntity
  8
0
  6
SLD-Solid
 62
     7
370
    25
100
AcDbCircle
 10
46.94213255131601
 20
10.7824390064006
 30
0.0
 40
0.0248193710182842
100
AcDbArc
 50
313.00363448272
 51
8.302410031640294
  0
LINE
  5
33F
330
1F
100
AcDbEntity
  8
0
  6
SLD-Solid
 62
     7
370
    25
100
AcDbLine
 10
46.95906047304599
 20
10.76428834129854
 30
0.0
 11
46.81650333273348
 21
10.68195531042862
 31
0.0
  0
ARC
  5
340
330
1F
100
AcDbEntity
  8
0
  6
SLD-Solid
 62
     7
370
    25
100
AcDbCircle
 10
46.80883002967514
 20
10.70497979925436
 30
0.0
 40
0.0242694595224503
100
AcDbArc
 50
214.0157579130577
 51
288.4315298561138
  0
LINE
  5
341
330
1F
100
AcDbEntity
  8
0
  6
SLD-Solid
 62
     7
370
    25
100
AcDbLine
 10
46.7887134691092
 20
10.69140295659825
 30
0.0
 11
46.77781804960652
 21
10.70229719555955
 31
0.0
  0
LINE
  5
342
330
1F
100
AcDbEntity
  8
0
  6
SLD-Solid
 62
     7
370
    25
100
AcDbLine
 10
46.77781804960652
 20
10.70229719555955
 30
0.0
 11
46.77781804960652
 21
10.71712564906747
 31
0.0
  0
LINE
  5
343
330
1F
100
AcDbEntity
  8
0
  6
SLD-Solid
 62
     7
370
    25
100
AcDbLine
 10
46.78346976252043
 20
16.28028288558924
 30
0.0
 11
46.77781804960652
 21
16.28593398612827
 31
0.0
  0
ARC
  5
344
330
1F
100
AcDbEntity
  8
0
  6
SLD-Solid
 62
     7
370
    25
100
AcDbCircle
 10
46.72037212324184
 20
16.22262154564724
 30
0.0
 40
0.0854759744398217
100
AcDbArc
 50
19.71353361326611
 51
42.4224123735104
  0
LINE
  5
345
330
1F
100
AcDbEntity
  8
0
  6
SLD-Solid
 62
     7
370
    25
100
AcDbLine
 10
46.8008384272856
 20
16.25145409877691
 30
0.0
 11
46.959060473046
 21
15.84366409053089
 31
0.0
  0
ARC
  5
346
330
1F
100
AcDbEntity
  8
0
  6
SLD-Solid
 62
     7
370
    25
100
AcDbCircle
 10
46.86037496586679
 20
15.80402266879178
 30
0.0
 40
0.106349760905781
100
AcDbArc
 50
1.425609361190274
 51
21.88505498063022
  0
LINE
  5
347
330
1F
100
AcDbEntity
  8
0
  6
SLD-Solid
 62
     7
370
    25
100
AcDbLine
 10
46.96669180828081
 20
10.78602286955091
 30
0.0
 11
46.96669180828083
 21
15.80666854555099
 31
0.0
  0
LINE
  5
348
330
1F
100
AcDbEntity
  8
0
  6
SLD-Solid
 62
     7
370
    25
100
AcDbLine
 10
46.9977821202767
 20
15.81703085998293
 30
0.0
 11
46.99774032310801
 21
15.81943250440888
 31
0.0
  0
LINE
  5
349
330
1F
100
AcDbEntity
  8
0
  6
SLD-Solid
 62
     7
370
    25
100
AcDbLine
 10
46.99778212027667
 20
10.79638518398285
 30
0.0
 11
46.9977821202767
 21
15.81703085998293
 31
0.0
  0
ARC
  5
34A
330
1F
100
AcDbEntity
  8
0
  6
SLD-Solid
 62
     7
370
    25
100
AcDbCircle
 10
46.822458785018
 20
16.34874187897734
 30
0.0
 40
0.0474163816685045
100
AcDbArc
 50
59.23142183166586
 51
77.85011402709334
  0
ARC
  5
34B
330
1F
100
AcDbEntity
  8
0
  6
SLD-Solid
 62
     7
370
    25
100
AcDbCircle
 10
46.83651715809061
 20
16.3440950001965
 30
0.0
 40
0.018971244182438
100
AcDbArc
 50
67.4860472216362
 51
78.38710422528408
  0
LINE
  5
34C
330
1F
100
AcDbEntity
  8
0
  6
SLD-Solid
 62
     7
370
    25
100
AcDbLine
 10
46.84033603905215
 20
16.36267790239264
 30
0.0
 11
46.83243850206028
 21
16.39509615060671
 31
0.0
  0
ARC
  5
34D
330
1F
100
AcDbEntity
  8
0
  6
SLD-Solid
 62
     7
370
    25
100
AcDbCircle
 10
49.4295717545294
 20
17.86497317725189
 30
0.0
 40
0.0326432226100407
100
AcDbArc
 50
54.38242252481967
 51
114.3071190460975
  0
LINE
  5
34E
330
1F
100
AcDbEntity
  8
0
  6
SLD-Solid
 62
     7
370
    25
100
AcDbLine
 10
46.83589137981001
 20
16.40517976749129
 30
0.0
 11
46.83243850206028
 21
16.39509615060671
 31
0.0
  0
LINE
  5
34F
330
1F
100
AcDbEntity
  8
0
  6
SLD-Solid
 62
     7
370
    25
100
AcDbLine
 10
46.81426566503443
 20
16.39269550808628
 30
0.0
 11
46.83589137981001
 21
16.40517976749129
 31
0.0
  0
ARC
  5
350
330
1F
100
AcDbEntity
  8
0
  6
SLD-Solid
 62
     7
370
    25
100
AcDbCircle
 10
46.83331724124692
 20
16.36618051884691
 30
0.0
 40
0.0326497658574201
100
AcDbArc
 50
125.6980385287994
 51
185.6203789636483
  0
LINE
  5
351
330
1F
100
AcDbEntity
  8
0
  6
SLD-Solid
 62
     7
370
    25
100
AcDbLine
 10
46.80908317778004
 20
16.29612150332425
 30
0.0
 11
46.80890836160239
 21
16.29629630056021
 31
0.0
  0
LWPOLYLINE
  5
352
330
1F
100
AcDbEntity
  8
0
  6
SLD-Solid
 62
     7
370
    25
100
AcDbPolyline
 90
        9
 70
   128
 43
0.0
 10
46.77781804960652
 20
16.28593398612827
 10
46.77328280366559
 20
16.29146958177185
 10
46.77037013361397
 20
16.29735772374297
 10
46.76915784658492
 20
16.30344112012775
 10
46.76967832680897
 20
16.30955726311556
 10
46.77191767052312
 20
16.3155427701248
 10
46.77581605738666
 20
16.3212377482966
 10
46.78126934848213
 20
16.32649006576652
 10
46.78813186821313
 20
16.33115941561409
  0
LWPOLYLINE
  5
353
330
1F
100
AcDbEntity
  8
0
  6
SLD-Solid
 62
     7
370
    25
100
AcDbPolyline
 90
        9
 70
   128
 43
0.0
 10
46.80890836160239
 20
16.29629630056021
 10
46.80688182643618
 20
16.2987698332823
 10
46.80558032518044
 20
16.30140089826169
 10
46.80503862527532
 20
16.304119210976
 10
46.8052711973323
 20
16.30685215622479
 10
46.8062718285759
 20
16.30952672792383
 10
46.80801378880768
 20
16.31207147934112
 10
46.81045054445897
 20
16.31441843167745
 10
46.81351700165773
 20
16.31650489000688
  0
ARC
  5
354
330
1F
100
AcDbEntity
  8
0
  6
SLD-Solid
 62
     7
370
    25
100
AcDbCircle
 10
46.79526037639429
 20
10.73660592054861
 30
0.0
 40
0.0261479586344816
100
AcDbArc
 50
181.6376850156261
 51
228.1592378733613
  0
LINE
  5
355
330
1F
100
AcDbEntity
  8
0
  6
SLD-Solid
 62
     7
370
    25
100
AcDbLine
 10
46.83221566503443
 20
16.36160519618167
 30
0.0
 11
46.83956393837993
 21
16.36584726408907
 31
0.0
  0
ARC
  5
356
330
1F
100
AcDbEntity
  8
0
  6
SLD-Solid
 62
     7
370
    25
100
AcDbCircle
 10
46.84072869600765
 20
16.34975720407164
 30
0.0
 40
0.0145892636342768
100
AcDbArc
 50
125.698038528811
 51
185.6203789636902
  0
LINE
  5
357
330
1F
100
AcDbEntity
  8
0
  6
SLD-Solid
 62
     7
370
    25
100
AcDbLine
 10
46.81417801370432
 20
16.31688648413891
 30
0.0
 11
46.81351700165773
 21
16.31650489000688
 31
0.0
  0
LINE
  5
358
330
1F
100
AcDbEntity
  8
0
  6
SLD-Solid
 62
     7
370
    25
100
AcDbLine
 10
46.82620956838003
 20
16.34832837716706
 30
0.0
 11
46.82620956838002
 21
16.34120646185637
 31
0.0
  0
LINE
  5
359
330
1F
100
AcDbEntity
  8
0
  6
SLD-Solid
 62
     7
370
    25
100
AcDbLine
 10
46.80082443493543
 20
16.34501900491279
 30
0.0
 11
46.80082443493543
 21
16.36298290277427
 31
0.0
  0
LINE
  5
35A
330
1F
100
AcDbEntity
  8
0
  6
SLD-Solid
 62
     7
370
    25
100
AcDbLine
 10
46.78813186821313
 20
16.33115941561409
 30
0.0
 11
46.79516758068593
 21
16.33522104597041
 31
0.0
  0
ARC
  5
35B
330
1F
100
AcDbEntity
  8
0
  6
SLD-Solid
 62
     7
370
    25
100
AcDbCircle
 10
46.78854270612447
 20
16.34557789173088
 30
0.0
 40
0.0122944384605914
100
AcDbArc
 50
302.6054783400553
 51
357.3945215143045
  0
LINE
  5
35C
330
1F
100
AcDbEntity
  8
0
  6
SLD-Solid
 62
     7
370
    25
100
AcDbLine
 10
52.03298682702875
 20
16.3367702023883
 30
0.0
 11
52.03295148530885
 21
16.33674991190908
 31
0.0
  0
LINE
  5
35D
330
1F
100
AcDbEntity
  8
0
  6
SLD-Solid
 62
     7
370
    25
100
AcDbLine
 10
51.96584716226076
 20
16.45297800849478
 30
0.0
 11
51.96588240711331
 21
16.45299846675318
 31
0.0
  0
LWPOLYLINE
  5
35E
330
1F
100
AcDbEntity
  8
0
  6
SLD-Solid
 62
     7
370
    25
100
AcDbPolyline
 90
        9
 70
   128
 43
0.0
 10
52.03298682702875
 20
16.3367702023883
 10
52.03983947645323
 20
16.34143966866004
 10
52.04528387224521
 20
16.34669087016837
 10
52.04917474719594
 20
16.35238369450874
 10
52.05140828509414
 20
16.35836624590914
 10
52.05192489074716
 20
16.36447889810866
 10
52.05071078009811
 20
16.37055855350067
 10
52.04779834801172
 20
16.3764429948984
 10
52.04326530391545
 20
16.38197521380916
  0
ARC
  5
35F
330
1F
100
AcDbEntity
  8
0
  6
SLD-Solid
 62
     7
370
    25
100
AcDbCircle
 10
52.01916344039321
 20
10.76523874333974
 30
0.0
 40
0.0329795024616596
100
AcDbArc
 50
294.7133803638566
 51
353.966478678523
  0
ARC
  5
360
330
1F
100
AcDbEntity
  8
0
  6
SLD-Solid
 62
     7
370
    25
100
AcDbCircle
 10
49.50143961572854
 20
17.86064944673103
 30
0.0
 40
0.0321264976184209
100
AcDbArc
 50
65.16019605570521
 51
126.1502623733741
  0
LWPOLYLINE
  5
361
330
1F
100
AcDbEntity
  8
0
  6
SLD-Solid
 62
     7
370
    25
100
AcDbPolyline
 90
        9
 70
   128
 43
0.0
 10
52.01017457612704
 20
16.4392900354299
 10
52.00764953688353
 20
16.44598277543183
 10
52.00400912495896
 20
16.45144819276186
 10
51.99935047371746
 20
16.45554045931515
 10
51.99379788515478
 20
16.45815038535561
 10
51.98749951327603
 20
16.45920833291321
 10
51.98062341105483
 20
16.45868607386227
 10
51.97335304644889
 20
16.45659754310345
 10
51.96588240711331
 20
16.45299846675318
  0
LINE
  5
362
330
1F
100
AcDbEntity
  8
0
  6
SLD-Solid
 62
     7
370
    25
100
AcDbLine
 10
52.04326530391545
 20
16.38197521380916
 30
0.0
 11
52.03761359100154
 21
16.38762631434821
 31
0.0
  0
LINE
  5
363
330
1F
100
AcDbEntity
  8
0
  6
SLD-Solid
 62
     7
370
    25
100
AcDbLine
 10
52.01224324662844
 20
16.43156903967899
 30
0.0
 11
52.01017457612704
 21
16.4392900354299
 31
0.0
  0
ARC
  5
364
330
1F
100
AcDbEntity
  8
0
  6
SLD-Solid
 62
     7
370
    25
100
AcDbCircle
 10
52.0244023266979
 20
16.37823385158559
 30
0.0
 40
0.0162097458724066
100
AcDbArc
 50
35.41067745054011
 51
99.22488206742446
  0
ARC
  5
365
330
1F
100
AcDbEntity
  8
0
  6
SLD-Solid
 62
     7
370
    25
100
AcDbCircle
 10
51.99749923008077
 20
16.42482155711097
 30
0.0
 40
0.0162146398345312
100
AcDbArc
 50
320.7763580831386
 51
24.59082648727507
  0
ARC
  5
366
330
1F
100
AcDbEntity
  8
0
  6
SLD-Solid
 62
     7
370
    25
100
AcDbCircle
 10
46.97788935310073
 20
10.72052380716667
 30
0.0
 40
0.0248100371947003
100
AcDbArc
 50
51.69775559018617
 51
107.012005299396
  0
LINE
  5
367
330
1F
100
AcDbEntity
  8
0
  6
SLD-Solid
 62
     7
370
    25
100
AcDbLine
 10
48.97364452613227
 20
9.596745841852465
 30
0.0
 11
46.9932668566187
 21
10.73999353575124
 31
0.0
  0
ARC
  5
368
330
1F
100
AcDbEntity
  8
0
  6
SLD-Solid
 62
     7
370
    25
100
AcDbCircle
 10
48.91820656782629
 20
9.506008234165693
 30
0.0
 40
0.106332876712025
100
AcDbArc
 50
38.11427877121722
 51
58.5763204304039
  0
LINE
  5
369
330
1F
100
AcDbEntity
  8
0
  6
SLD-Solid
 62
     7
370
    25
100
AcDbLine
 10
49.00186727882848
 20
9.57164028505901
 30
0.0
 11
49.26836461768668
 21
9.240109560166607
 31
0.0
  0
ARC
  5
36A
330
1F
100
AcDbEntity
  8
0
  6
SLD-Solid
 62
     7
370
    25
100
AcDbCircle
 10
49.16312648663774
 20
9.151094589211732
 30
0.0
 40
0.1378358780607274
100
AcDbArc
 50
17.93447134337515
 51
40.22598862774317
  0
LINE
  5
36B
330
1F
100
AcDbEntity
  8
0
  6
SLD-Solid
 62
     7
370
    25
100
AcDbLine
 10
46.82451734683722
 20
10.63436234999694
 30
0.0
 11
46.8292935537058
 21
10.61653588951757
 31
0.0
  0
ARC
  5
36C
330
1F
100
AcDbEntity
  8
0
  6
SLD-Solid
 62
     7
370
    25
100
AcDbCircle
 10
46.84634247900903
 20
10.64499933199629
 30
0.0
 40
0.0242792458773294
100
AcDbArc
 50
131.5871958104052
 51
205.983357920471
  0
LINE
  5
36D
330
1F
100
AcDbEntity
  8
0
  6
SLD-Solid
 62
     7
370
    25
100
AcDbLine
 10
46.83022690906119
 20
10.66315890758681
 30
0.0
 11
46.97063062904397
 21
10.7442482433174
 31
0.0
  0
LINE
  5
36E
330
1F
100
AcDbEntity
  8
0
  6
SLD-Solid
 62
     7
370
    25
100
AcDbLine
 10
49.0002195744701
 20
9.617253653015862
 30
0.0
 11
48.9981646821302
 21
9.61848800025307
 31
0.0
  0
LINE
  5
36F
330
1F
100
AcDbEntity
  8
0
  6
SLD-Solid
 62
     7
370
    25
100
AcDbLine
 10
48.9981646821302
 20
9.61848800025307
 30
0.0
 11
47.01778701261663
 21
10.76173569415184
 31
0.0
  0
LINE
  5
370
330
1F
100
AcDbEntity
  8
0
  6
SLD-Solid
 62
     7
370
    25
100
AcDbLine
 10
49.29426482484337
 20
9.193538264045982
 30
0.0
 11
49.29442130605042
 21
9.192979910251555
 31
0.0
  0
LINE
  5
371
330
1F
100
AcDbEntity
  8
0
  6
SLD-Solid
 62
     7
370
    25
100
AcDbLine
 10
49.31894583819971
 20
9.214725949009857
 30
0.0
 11
49.3187849808413
 21
9.215280422446588
 31
0.0
  0
LINE
  5
372
330
1F
100
AcDbEntity
  8
0
  6
SLD-Solid
 62
     7
370
    25
100
AcDbLine
 10
49.36631456218088
 20
9.20781487504463
 30
0.0
 11
49.3725010874328
 21
9.204243470036184
 31
0.0
  0
LWPOLYLINE
  5
373
330
1F
100
AcDbEntity
  8
0
  6
SLD-Solid
 62
     7
370
    25
100
AcDbPolyline
 90
        9
 70
   128
 43
0.0
 10
49.39279731279198
 20
9.212827207964029
 10
49.39261316518997
 20
9.211693021139174
 10
49.39144625042351
 20
9.207924521206676
 10
49.38955128366788
 20
9.20492455750096
 10
49.3870010874328
 20
9.202808416944832
 10
49.38389366432941
 20
9.201657421633119
 10
49.38034843088492
 20
9.201515803670167
 10
49.3765016284324
 20
9.20238900535487
 10
49.3725010874328
 20
9.204243470036184
  0
ARC
  5
374
330
1F
100
AcDbEntity
  8
0
  6
SLD-Solid
 62
     7
370
    25
100
AcDbCircle
 10
49.39041559108583
 20
9.196892435273378
 30
0.0
 40
0.0283424269131162
100
AcDbArc
 50
230.796714764294
 51
9.214036990444571
  0
LINE
  5
375
330
1F
100
AcDbEntity
  8
0
  6
SLD-Solid
 62
     7
370
    25
100
AcDbLine
 10
49.36189448571501
 20
9.181052715728155
 30
0.0
 11
49.3725010874328
 21
9.174929654889485
 31
0.0
  0
ARC
  5
376
330
1F
100
AcDbEntity
  8
0
  6
SLD-Solid
 62
     7
370
    25
100
AcDbCircle
 10
51.98938692600561
 20
10.69952572217207
 30
0.0
 40
0.0311212079643479
100
AcDbArc
 50
304.0563508338431
 51
7.255829559537294
  0
LWPOLYLINE
  5
377
330
1F
100
AcDbEntity
  8
0
  6
SLD-Solid
 62
     7
370
    25
100
AcDbPolyline
 90
        9
 70
   128
 43
0.0
 10
49.3385953172749
 20
9.209162328909924
 10
49.33532646402436
 20
9.207578060463952
 10
49.33214121070586
 20
9.206639909940128
 10
49.32912101920855
 20
9.206371870254024
 10
49.32634313001544
 20
9.20678079643945
 10
49.32387858680148
 20
9.207856230333034
 10
49.3217904195131
 20
9.209570668038596
 10
49.32013203239639
 20
9.211880263330954
 10
49.31894583819971
 20
9.214725949009857
  0
LINE
  5
378
330
1F
100
AcDbEntity
  8
0
  6
SLD-Solid
 62
     7
370
    25
100
AcDbLine
 10
49.3385953172749
 20
9.209162328909924
 30
0.0
 11
49.33926988393841
 21
9.209551747955743
 31
0.0
  0
LINE
  5
379
330
1F
100
AcDbEntity
  8
0
  6
SLD-Solid
 62
     7
370
    25
100
AcDbLine
 10
49.3385953172749
 20
9.179848513763217
 30
0.0
 11
49.34068128227941
 21
9.181052715728153
 31
0.0
  0
LWPOLYLINE
  5
37A
330
1F
100
AcDbEntity
  8
0
  6
SLD-Solid
 62
     7
370
    25
100
AcDbPolyline
 90
        9
 70
   128
 43
0.0
 10
49.3385953172749
 20
9.179848513763217
 10
49.33119132166541
 20
9.176268534107304
 10
49.32398132225255
 20
9.174170867544074
 10
49.317154232231
 20
9.173610476198919
 10
49.31088893197402
 20
9.174602043196373
 10
49.30534958208959
 20
9.177119587939421
 10
49.30068132215721
 20
9.181097146841537
 10
49.29700646784528
 20
9.186430501675213
 10
49.29442130605042
 20
9.192979910251555
  0
ARC
  5
37B
330
1F
100
AcDbEntity
  8
0
  6
SLD-Solid
 62
     7
370
    25
100
AcDbCircle
 10
46.85489275434205
 20
10.62190416262693
 30
0.0
 40
0.0261560209013451
100
AcDbArc
 50
191.8435742471281
 51
238.3648798970441
  0
ARC
  5
37C
330
1F
100
AcDbEntity
  8
0
  6
SLD-Solid
 62
     7
370
    25
100
AcDbCircle
 10
49.3512878839972
 20
9.1605820494538
 30
0.0
 40
0.0230553286186969
100
AcDbArc
 50
62.60967223661104
 51
117.3903277633753
  0
LINE
  5
37D
330
1F
100
AcDbEntity
  8
0
  6
SLD-Solid
 62
     7
370
    25
100
AcDbLine
 10
46.85355036402846
 20
10.68412493353144
 30
0.0
 11
46.84269497462845
 21
10.69039161644196
 31
0.0
  0
ARC
  5
37E
330
1F
100
AcDbEntity
  8
0
  6
SLD-Solid
 62
     7
370
    25
100
AcDbCircle
 10
46.88831869402541
 20
10.73834124143307
 30
0.0
 40
0.0899335048654914
100
AcDbArc
 50
218.639565435154
 51
232.7417656962387
  0
ARC
  5
37F
330
1F
100
AcDbEntity
  8
0
  6
SLD-Solid
 62
     7
370
    25
100
AcDbCircle
 10
47.00240950909865
 20
10.74226596556728
 30
0.0
 40
0.0248100371946907
100
AcDbArc
 50
51.69775559015803
 51
107.0120052993694
  0
ARC
  5
380
330
1F
100
AcDbEntity
  8
0
  6
SLD-Solid
 62
     7
370
    25
100
AcDbCircle
 10
46.97322286331192
 20
10.79280132083252
 30
0.0
 40
0.0248193710182377
100
AcDbArc
 50
313.0036344826612
 51
8.302410031693395
  0
LINE
  5
381
330
1F
100
AcDbEntity
  8
0
  6
SLD-Solid
 62
     7
370
    25
100
AcDbLine
 10
46.9951507850419
 20
10.76599040171801
 30
0.0
 11
46.85474706505912
 21
10.68490106598742
 31
0.0
  0
LINE
  5
382
330
1F
100
AcDbEntity
  8
0
  6
SLD-Solid
 62
     7
370
    25
100
AcDbLine
 10
46.84759364472934
 20
10.69231762486056
 30
0.0
 11
46.99015078504185
 21
10.77465065573048
 31
0.0
  0
LINE
  5
383
330
1F
100
AcDbEntity
  8
0
  6
SLD-Solid
 62
     7
370
    25
100
AcDbLine
 10
46.85474706505912
 20
10.68490106598742
 30
0.0
 11
46.85252998366514
 21
10.68330577891592
 31
0.0
  0
LINE
  5
384
330
1F
100
AcDbEntity
  8
0
  6
SLD-Solid
 62
     7
370
    25
100
AcDbLine
 10
46.84509953534285
 20
10.6911930498337
 30
0.0
 11
46.84759364472934
 21
10.69231762486056
 31
0.0
  0
LINE
  5
385
330
1F
100
AcDbEntity
  8
0
  6
SLD-Solid
 62
     8
370
    25
100
AcDbLine
 10
46.81351700165773
 20
16.31650489000688
 30
0.0
 11
46.81351700165773
 21
16.31491001022898
 31
0.0
  0
LINE
  5
386
330
1F
100
AcDbEntity
  8
0
  6
SLD-Solid
 62
     8
370
    25
100
AcDbLine
 10
49.33718582003883
 20
9.209976014344527
 30
0.0
 11
49.3385953172749
 21
9.209162328909924
 31
0.0
  0
INSERT
  5
38C
330
1F
100
AcDbEntity
  8
NOTES
100
AcDbBlockReference
  2
SW_NOTE_0_2
 10
45.23025758463038
 20
8.087776494241487
 30
0.0
  0
LINE
  5
38D
330
1F
100
AcDbEntity
  8
0
  6
SLD-Solid
 62
     7
370
    25
100
AcDbLine
 10
36.16897027903062
 20
9.54803626544854
 30
0.0
 11
36.16897027903062
 21
9.51803626544854
 31
0.0
  0
LINE
  5
38E
330
1F
100
AcDbEntity
  8
0
  6
SLD-Solid
 62
     7
370
    25
100
AcDbLine
 10
36.54897027903063
 20
9.518036265448538
 30
0.0
 11
36.54897027903063
 21
9.548036265448538
 31
0.0
  0
LINE
  5
38F
330
1F
100
AcDbEntity
  8
0
  6
SLD-Solid
 62
     7
370
    25
100
AcDbLine
 10
36.16897027903156
 20
9.51803626544854
 30
0.0
 11
36.26130078514593
 21
9.488036265449301
 31
0.0
  0
LINE
  5
390
330
1F
100
AcDbEntity
  8
0
  6
SLD-Solid
 62
     7
370
    25
100
AcDbLine
 10
36.45663977291532
 20
9.4880362654493
 30
0.0
 11
36.5489702790297
 21
9.518036265448538
 31
0.0
  0
LINE
  5
391
330
1F
100
AcDbEntity
  8
0
  6
SLD-Solid
 62
     7
370
    25
100
AcDbLine
 10
37.45497027903063
 20
9.548036265448532
 30
0.0
 11
37.45497027903063
 21
9.518036265448531
 31
0.0
  0
LINE
  5
392
330
1F
100
AcDbEntity
  8
0
  6
SLD-Solid
 62
     7
370
    25
100
AcDbLine
 10
37.45497027903156
 20
9.518036265448531
 30
0.0
 11
37.54730078514594
 21
9.488036265449294
 31
0.0
  0
ARC
  5
393
330
1F
100
AcDbEntity
  8
0
  6
SLD-Solid
 62
     7
370
    25
100
AcDbCircle
 10
35.19297027903061
 20
9.533036265448548
 30
0.0
 40
0.0100000000000051
100
AcDbArc
 50
270.0000000000008
 51
0.0
  0
ARC
  5
394
330
1F
100
AcDbEntity
  8
0
  6
SLD-Solid
 62
     7
370
    25
100
AcDbCircle
 10
34.72497027903061
 20
9.533036265448553
 30
0.0
 40
0.0100000000000051
100
AcDbArc
 50
180.0
 51
270.0000000000008
  0
LINE
  5
395
330
1F
100
AcDbEntity
  8
0
  6
SLD-Solid
 62
     7
370
    25
100
AcDbLine
 10
35.20297027903062
 20
9.533036265448548
 30
0.0
 11
35.20297027903062
 21
9.548036265448548
 31
0.0
  0
LINE
  5
396
330
1F
100
AcDbEntity
  8
0
  6
SLD-Solid
 62
     7
370
    25
100
AcDbLine
 10
34.71497027903061
 20
9.548036265448552
 30
0.0
 11
34.71497027903061
 21
9.533036265448553
 31
0.0
  0
ARC
  5
397
330
1F
100
AcDbEntity
  8
0
  6
SLD-Solid
 62
     7
370
    25
100
AcDbCircle
 10
35.19004074283244
 20
9.513036265448548
 30
0.0
 40
0.0100000000000016
100
AcDbArc
 50
90.0
 51
164.2548215002295
  0
ARC
  5
398
330
1F
100
AcDbEntity
  8
0
  6
SLD-Solid
 62
     7
370
    25
100
AcDbCircle
 10
34.72789981522879
 20
9.513036265448552
 30
0.0
 40
0.0099999999999998
100
AcDbArc
 50
15.74517849977055
 51
90.0
  0
LINE
  5
399
330
1F
100
AcDbEntity
  8
0
  6
SLD-Solid
 62
     7
370
    25
100
AcDbLine
 10
34.73752459597925
 20
9.515749860021367
 30
0.0
 11
34.76541596208197
 21
9.416822670875735
 31
0.0
  0
LINE
  5
39A
330
1F
100
AcDbEntity
  8
0
  6
SLD-Solid
 62
     7
370
    25
100
AcDbLine
 10
35.15252459597924
 20
9.416822670875732
 30
0.0
 11
35.18041596208198
 21
9.515749860021364
 31
0.0
  0
ARC
  5
39B
330
1F
100
AcDbEntity
  8
0
  6
SLD-Solid
 62
     7
370
    25
100
AcDbCircle
 10
35.14289981522879
 20
9.41953626544855
 30
0.0
 40
0.0100000000000016
100
AcDbArc
 50
270.0000000000008
 51
344.2548215002204
  0
ARC
  5
39C
330
1F
100
AcDbEntity
  8
0
  6
SLD-Solid
 62
     7
370
    25
100
AcDbCircle
 10
34.77504074283244
 20
9.419536265448551
 30
0.0
 40
0.0100000000000058
100
AcDbArc
 50
195.7451784997603
 51
270.0000000000008
  0
LINE
  5
39D
330
1F
100
AcDbEntity
  8
0
  6
SLD-Solid
 62
     7
370
    25
100
AcDbLine
 10
38.08897027903061
 20
9.533036265448528
 30
0.0
 11
38.08897027903061
 21
9.548036265448529
 31
0.0
  0
LINE
  5
39E
330
1F
100
AcDbEntity
  8
0
  6
SLD-Solid
 62
     7
370
    25
100
AcDbLine
 10
37.60097027903061
 20
9.54803626544853
 30
0.0
 11
37.60097027903061
 21
9.533036265448532
 31
0.0
  0
ARC
  5
39F
330
1F
100
AcDbEntity
  8
0
  6
SLD-Solid
 62
     7
370
    25
100
AcDbCircle
 10
38.07897027903061
 20
9.533036265448528
 30
0.0
 40
0.0099999999999998
100
AcDbArc
 50
270.0000000000008
 51
0.0
  0
ARC
  5
3A0
330
1F
100
AcDbEntity
  8
0
  6
SLD-Solid
 62
     7
370
    25
100
AcDbCircle
 10
37.61097027903061
 20
9.533036265448532
 30
0.0
 40
0.0099999999999998
100
AcDbArc
 50
180.0
 51
270.0000000000008
  0
ARC
  5
3A1
330
1F
100
AcDbEntity
  8
0
  6
SLD-Solid
 62
     7
370
    25
100
AcDbCircle
 10
38.07604074283243
 20
9.513036265448529
 30
0.0
 40
0.0099999999999998
100
AcDbArc
 50
90.0
 51
164.2548215002295
  0
ARC
  5
3A2
330
1F
100
AcDbEntity
  8
0
  6
SLD-Solid
 62
     7
370
    25
100
AcDbCircle
 10
37.61389981522879
 20
9.51303626544853
 30
0.0
 40
0.0100000000000016
100
AcDbArc
 50
15.74517849979139
 51
90.0
  0
LINE
  5
3A3
330
1F
100
AcDbEntity
  8
0
  6
SLD-Solid
 62
     7
370
    25
100
AcDbLine
 10
37.62352459597924
 20
9.515749860021348
 30
0.0
 11
37.65141596208198
 21
9.416822670875714
 31
0.0
  0
LINE
  5
3A4
330
1F
100
AcDbEntity
  8
0
  6
SLD-Solid
 62
     7
370
    25
100
AcDbLine
 10
38.03852459597925
 20
9.416822670875712
 30
0.0
 11
38.06641596208198
 21
9.515749860021344
 31
0.0
  0
ARC
  5
3A5
330
1F
100
AcDbEntity
  8
0
  6
SLD-Solid
 62
     7
370
    25
100
AcDbCircle
 10
38.02889981522879
 20
9.419536265448528
 30
0.0
 40
0.0099999999999998
100
AcDbArc
 50
270.0000000000008
 51
344.2548215002303
  0
ARC
  5
3A6
330
1F
100
AcDbEntity
  8
0
  6
SLD-Solid
 62
     7
370
    25
100
AcDbCircle
 10
37.66104074283243
 20
9.419536265448532
 30
0.0
 40
0.0100000000000016
100
AcDbArc
 50
195.7451784997811
 51
270.0000000000008
  0
LINE
  5
3A7
330
1F
100
AcDbEntity
  8
0
  6
SLD-Solid
 62
     7
370
    25
100
AcDbLine
 10
34.66497027903064
 20
9.634000539034206
 30
0.0
 11
34.66497027903064
 21
9.657385802884745
 31
0.0
  0
LINE
  5
3A8
330
1F
100
AcDbEntity
  8
0
  6
SLD-Solid
 62
     7
370
    25
100
AcDbLine
 10
38.08489921121878
 20
16.42393626544854
 30
0.0
 11
38.0990413468425
 21
16.42393626544854
 31
0.0
  0
LINE
  5
3A9
330
1F
100
AcDbEntity
  8
0
  6
SLD-Solid
 62
     7
370
    25
100
AcDbLine
 10
38.16497027903064
 20
9.668229101756873
 30
0.0
 11
38.16497027903064
 21
9.623936265448538
 31
0.0
  0
LINE
  5
3AA
330
1F
100
AcDbEntity
  8
0
  6
SLD-Solid
 62
     7
370
    25
100
AcDbLine
 10
36.26130078514593
 20
9.488036265449301
 30
0.0
 11
36.45663977291532
 21
9.4880362654493
 31
0.0
  0
LINE
  5
3AB
330
1F
100
AcDbEntity
  8
0
  6
SLD-Solid
 62
     7
370
    25
100
AcDbLine
 10
37.54730078514594
 20
9.488036265449294
 30
0.0
 11
37.63133812044008
 21
9.488036265449292
 31
0.0
  0
LINE
  5
3AC
330
1F
100
AcDbEntity
  8
0
  6
SLD-Solid
 62
     7
370
    25
100
AcDbLine
 10
35.19297027903061
 20
9.52303626544855
 30
0.0
 11
34.72497027903061
 21
9.523036265448551
 31
0.0
  0
LINE
  5
3AD
330
1F
100
AcDbEntity
  8
0
  6
SLD-Solid
 62
     7
370
    25
100
AcDbLine
 10
35.14289981522879
 20
9.409536265448548
 30
0.0
 11
34.77504074283244
 21
9.40953626544855
 31
0.0
  0
LINE
  5
3AE
330
1F
100
AcDbEntity
  8
0
  6
SLD-Solid
 62
     7
370
    25
100
AcDbLine
 10
38.07897027903061
 20
9.523036265448528
 30
0.0
 11
37.61097027903061
 21
9.523036265448532
 31
0.0
  0
LINE
  5
3AF
330
1F
100
AcDbEntity
  8
0
  6
SLD-Solid
 62
     7
370
    25
100
AcDbLine
 10
38.02889981522879
 20
9.409536265448528
 30
0.0
 11
37.66104074283243
 21
9.40953626544853
 31
0.0
  0
ARC
  5
3B0
330
1F
100
AcDbEntity
  8
0
  6
SLD-Solid
 62
     7
370
    25
100
AcDbCircle
 10
37.90375094756087
 20
16.14742854577853
 30
0.0
 40
0.050859627876275
100
AcDbArc
 50
135.2452377794935
 51
180.1732642692756
  0
LINE
  5
3B1
330
1F
100
AcDbEntity
  8
0
  6
SLD-Solid
 62
     7
370
    25
100
AcDbLine
 10
38.17329568039552
 20
16.48889899528237
 30
0.0
 11
37.86763415981899
 21
16.18323747470584
 31
0.0
  0
ARC
  5
3B2
330
1F
100
AcDbEntity
  8
0
  6
SLD-Solid
 62
     7
370
    25
100
AcDbCircle
 10
38.20699013954503
 20
16.45547897148737
 30
0.0
 40
0.0474575027560102
100
AcDbArc
 50
90.16995941160634
 51
135.2342847510112
  0
LINE
  5
3B3
330
1F
100
AcDbEntity
  8
0
  6
SLD-Solid
 62
     7
370
    25
100
AcDbLine
 10
38.20684936412519
 20
16.50293626544855
 30
0.0
 11
38.21776763505781
 21
16.50293626544855
 31
0.0
  0
LINE
  5
3B4
330
1F
100
AcDbEntity
  8
0
  6
SLD-Solid
 62
     7
370
    25
100
AcDbLine
 10
38.21776763505783
 20
9.664776176825825
 30
0.0
 11
38.21776763505783
 21
9.682936265448552
 31
0.0
  0
LINE
  5
3B5
330
1F
100
AcDbEntity
  8
0
  6
SLD-Solid
 62
     7
370
    25
100
AcDbLine
 10
38.19671930088603
 20
9.664776176825825
 30
0.0
 11
38.21776763505783
 21
9.664776176825825
 31
0.0
  0
ARC
  5
3B6
330
1F
100
AcDbEntity
  8
0
  6
SLD-Solid
 62
     7
370
    25
100
AcDbCircle
 10
38.19694454155777
 20
9.740707847163712
 30
0.0
 40
0.0759320044096157
100
AcDbArc
 50
224.7657152489835
 51
269.8300405883945
  0
LINE
  5
3B7
330
1F
100
AcDbEntity
  8
0
  6
SLD-Solid
 62
     7
370
    25
100
AcDbLine
 10
37.86763415981901
 20
9.962635056191255
 30
0.0
 11
38.14303340691855
 21
9.68723580909171
 31
0.0
  0
ARC
  5
3B8
330
1F
100
AcDbEntity
  8
0
  6
SLD-Solid
 62
     7
370
    25
100
AcDbCircle
 10
37.90375094756087
 20
9.998443985118552
 30
0.0
 40
0.0508596278762472
100
AcDbArc
 50
179.8267357307191
 51
224.7547622205228
  0
LINE
  5
3B9
330
1F
100
AcDbEntity
  8
0
  6
SLD-Solid
 62
     7
370
    25
100
AcDbLine
 10
37.85289155223423
 20
9.998597786025075
 30
0.0
 11
37.8528915522342
 21
16.14727474487202
 31
0.0
  0
ARC
  5
3BA
330
1F
100
AcDbEntity
  8
0
  6
SLD-Solid
 62
     7
370
    25
100
AcDbCircle
 10
34.70642757299185
 20
16.53895612596293
 30
0.0
 40
0.0474575027560249
100
AcDbArc
 50
180.1699594116157
 51
225.2342847510089
  0
LINE
  5
3BB
330
1F
100
AcDbEntity
  8
0
  6
SLD-Solid
 62
     7
370
    25
100
AcDbLine
 10
34.65897027903065
 20
16.53881535054309
 30
0.0
 11
34.65897027903065
 21
16.54973362147571
 31
0.0
  0
LINE
  5
3BC
330
1F
100
AcDbEntity
  8
0
  6
SLD-Solid
 62
     7
370
    25
100
AcDbLine
 10
38.17097027903066
 20
16.54973362147571
 30
0.0
 11
38.17097027903066
 21
16.53881535054309
 31
0.0
  0
ARC
  5
3BD
330
1F
100
AcDbEntity
  8
0
  6
SLD-Solid
 62
     7
370
    25
100
AcDbCircle
 10
38.12351298506946
 20
16.53895612596294
 30
0.0
 40
0.0474575027560245
100
AcDbArc
 50
314.7657152489836
 51
359.8300405883774
  0
LINE
  5
3BE
330
1F
100
AcDbEntity
  8
0
  6
SLD-Solid
 62
     7
370
    25
100
AcDbLine
 10
38.15693300886447
 20
16.50526166681342
 30
0.0
 11
37.85127148828794
 21
16.19960014623689
 31
0.0
  0
ARC
  5
3BF
330
1F
100
AcDbEntity
  8
0
  6
SLD-Solid
 62
     7
370
    25
100
AcDbCircle
 10
37.81546255936066
 20
16.23571693397873
 30
0.0
 40
0.0508596278762258
100
AcDbArc
 50
269.8267357307018
 51
314.7547622205212
  0
LINE
  5
3C0
330
1F
100
AcDbEntity
  8
0
  6
SLD-Solid
 62
     7
370
    25
100
AcDbLine
 10
37.81530875845412
 20
16.18485753865211
 30
0.0
 11
35.01463179960718
 21
16.1848575386521
 31
0.0
  0
ARC
  5
3C1
330
1F
100
AcDbEntity
  8
0
  6
SLD-Solid
 62
     7
370
    25
100
AcDbCircle
 10
35.01447799870066
 20
16.23571693397876
 30
0.0
 40
0.0508596278762635
100
AcDbArc
 50
225.2452377794887
 51
270.1732642692756
  0
LINE
  5
3C2
330
1F
100
AcDbEntity
  8
0
  6
SLD-Solid
 62
     7
370
    25
100
AcDbLine
 10
34.97866906977336
 20
16.19960014623689
 30
0.0
 11
34.67300754919683
 21
16.50526166681341
 31
0.0
  0
ARC
  5
3C3
330
1F
100
AcDbEntity
  8
0
  6
SLD-Solid
 62
     7
370
    25
100
AcDbCircle
 10
38.0690386086927
 20
9.621122091544104
 30
0.0
 40
0.0759320044096576
100
AcDbArc
 50
0.1699594116236629
 51
45.23428475100296
  0
LINE
  5
3C4
330
1F
100
AcDbEntity
  8
0
  6
SLD-Solid
 62
     7
370
    25
100
AcDbLine
 10
38.14497027903063
 20
9.621347332215866
 30
0.0
 11
38.14497027903063
 21
9.596138909421375
 31
0.0
  0
ARC
  5
3C5
330
1F
100
AcDbEntity
  8
0
  6
SLD-Solid
 62
     7
370
    25
100
AcDbCircle
 10
34.73492264432682
 20
9.595110037456328
 30
0.0
 40
0.0759551365580056
100
AcDbArc
 50
134.7703956520873
 51
179.2238599408653
  0
LINE
  5
3C6
330
1F
100
AcDbEntity
  8
0
  6
SLD-Solid
 62
     7
370
    25
100
AcDbLine
 10
34.97866906977334
 20
9.946272384660213
 30
0.0
 11
34.68142991129652
 21
9.649033226183393
 31
0.0
  0
ARC
  5
3C7
330
1F
100
AcDbEntity
  8
0
  6
SLD-Solid
 62
     7
370
    25
100
AcDbCircle
 10
35.01447799870063
 20
9.91015559691835
 30
0.0
 40
0.0508596278762522
100
AcDbArc
 50
89.82673573071713
 51
134.7547622205135
  0
LINE
  5
3C8
330
1F
100
AcDbEntity
  8
0
  6
SLD-Solid
 62
     7
370
    25
100
AcDbLine
 10
35.01463179960716
 20
9.961014992244996
 30
0.0
 11
37.81530875845407
 21
9.961014992244975
 31
0.0
  0
ARC
  5
3C9
330
1F
100
AcDbEntity
  8
0
  6
SLD-Solid
 62
     7
370
    25
100
AcDbCircle
 10
37.81546255936058
 20
9.910155596918276
 30
0.0
 40
0.0508596278763052
100
AcDbArc
 50
45.24523777951173
 51
90.17326426925868
  0
LINE
  5
3CA
330
1F
100
AcDbEntity
  8
0
  6
SLD-Solid
 62
     7
370
    25
100
AcDbLine
 10
38.12251064676474
 20
9.675033226183341
 30
0.0
 11
37.85127148828789
 21
9.946272384660192
 31
0.0
  0
ARC
  5
3CB
330
1F
100
AcDbEntity
  8
0
  6
SLD-Solid
 62
     7
370
    25
100
AcDbCircle
 10
37.81546255936066
 20
16.22642533025956
 30
0.0
 40
0.0508596278762431
100
AcDbArc
 50
269.8267357307019
 51
314.7547622205071
  0
LINE
  5
3CC
330
1F
100
AcDbEntity
  8
0
  6
SLD-Solid
 62
     7
370
    25
100
AcDbLine
 10
37.84359994851505
 20
9.998597786025075
 30
0.0
 11
37.84359994851503
 21
16.14727474487202
 31
0.0
  0
ARC
  5
3CD
330
1F
100
AcDbEntity
  8
0
  6
SLD-Solid
 62
     7
370
    25
100
AcDbCircle
 10
37.89445934384167
 20
16.14742854577855
 30
0.0
 40
0.0508596278762538
100
AcDbArc
 50
135.2452377794964
 51
180.1732642692957
  0
LINE
  5
3CE
330
1F
100
AcDbEntity
  8
0
  6
SLD-Solid
 62
     7
370
    25
100
AcDbLine
 10
37.81530875845412
 20
16.17556593493293
 30
0.0
 11
35.01463179960718
 21
16.17556593493293
 31
0.0
  0
ARC
  5
3CF
330
1F
100
AcDbEntity
  8
0
  6
SLD-Solid
 62
     7
370
    25
100
AcDbCircle
 10
37.8944593438417
 20
9.998443985118545
 30
0.0
 40
0.0508596278762538
100
AcDbArc
 50
179.8267357307111
 51
224.7547622205058
  0
LINE
  5
3D0
330
1F
100
AcDbEntity
  8
0
  6
SLD-Solid
 62
     7
370
    25
100
AcDbLine
 10
35.01463179960716
 20
9.970306595964175
 30
0.0
 11
37.81530875845407
 21
9.970306595964153
 31
0.0
  0
ARC
  5
3D1
330
1F
100
AcDbEntity
  8
0
  6
SLD-Solid
 62
     7
370
    25
100
AcDbCircle
 10
37.81546255936058
 20
9.919447200637476
 30
0.0
 40
0.0508596278762862
100
AcDbArc
 50
45.24523777950191
 51
90.17326426926675
  0
ARC
  5
3D2
330
1F
100
AcDbEntity
  8
0
  6
SLD-Solid
 62
     7
370
    25
100
AcDbCircle
 10
34.61114405103842
 20
9.71888863074473
 30
0.0
 40
0.0759551365579949
100
AcDbArc
 50
270.7761400591315
 51
315.2296043479107
  0
LINE
  5
3D3
330
1F
100
AcDbEntity
  8
0
  6
SLD-Solid
 62
     7
370
    25
100
AcDbLine
 10
34.61217292300348
 20
16.50293626544855
 30
0.0
 11
34.62309119393613
 21
16.50293626544855
 31
0.0
  0
ARC
  5
3D4
330
1F
100
AcDbEntity
  8
0
  6
SLD-Solid
 62
     7
370
    25
100
AcDbCircle
 10
34.6229504185163
 20
16.45547897148739
 30
0.0
 40
0.0474575027559853
100
AcDbArc
 50
44.76571524897043
 51
89.83004058840216
  0
LINE
  5
3D5
330
1F
100
AcDbEntity
  8
0
  6
SLD-Solid
 62
     7
370
    25
100
AcDbLine
 10
34.96230639824232
 20
16.18323747470585
 30
0.0
 11
34.6566448776658
 21
16.48889899528237
 31
0.0
  0
ARC
  5
3D6
330
1F
100
AcDbEntity
  8
0
  6
SLD-Solid
 62
     7
370
    25
100
AcDbCircle
 10
34.92618961050042
 20
16.14742854577855
 30
0.0
 40
0.0508596278762837
100
AcDbArc
 50
359.82673573073
 51
44.75476222049525
  0
LINE
  5
3D7
330
1F
100
AcDbEntity
  8
0
  6
SLD-Solid
 62
     7
370
    25
100
AcDbLine
 10
34.9770490058271
 20
16.14727474487203
 30
0.0
 11
34.97704900582708
 21
9.998597786025083
 31
0.0
  0
ARC
  5
3D8
330
1F
100
AcDbEntity
  8
0
  6
SLD-Solid
 62
     7
370
    25
100
AcDbCircle
 10
34.92618961050042
 20
9.998443985118564
 30
0.0
 40
0.0508596278762623
100
AcDbArc
 50
315.2452377794845
 51
0.1732642692768352
  0
LINE
  5
3D9
330
1F
100
AcDbEntity
  8
0
  6
SLD-Solid
 62
     7
370
    25
100
AcDbLine
 10
34.66506723976547
 20
9.66539589771444
 30
0.0
 11
34.96230639824229
 21
9.96263505619126
 31
0.0
  0
LINE
  5
3DA
330
1F
100
AcDbEntity
  8
0
  6
SLD-Solid
 62
     7
370
    25
100
AcDbLine
 10
34.98634060954628
 20
16.14727474487203
 30
0.0
 11
34.98634060954625
 21
9.998597786025083
 31
0.0
  0
ARC
  5
3DB
330
1F
100
AcDbEntity
  8
0
  6
SLD-Solid
 62
     7
370
    25
100
AcDbCircle
 10
35.01447799870065
 20
16.22642533025957
 30
0.0
 40
0.0508596278762502
100
AcDbArc
 50
225.2452377794944
 51
270.1732642692917
  0
ARC
  5
3DC
330
1F
100
AcDbEntity
  8
0
  6
SLD-Solid
 62
     7
370
    25
100
AcDbCircle
 10
34.93548121421969
 20
16.14742854577858
 30
0.0
 40
0.0508596278761906
100
AcDbArc
 50
359.8267357306857
 51
44.75476222053725
  0
ARC
  5
3DD
330
1F
100
AcDbEntity
  8
0
  6
SLD-Solid
 62
     7
370
    25
100
AcDbCircle
 10
35.01447799870063
 20
9.919447200637524
 30
0.0
 40
0.0508596278762585
100
AcDbArc
 50
89.82673573071715
 51
134.7547622205064
  0
ARC
  5
3DE
330
1F
100
AcDbEntity
  8
0
  6
SLD-Solid
 62
     7
370
    25
100
AcDbCircle
 10
34.93548121421961
 20
9.998443985118547
 30
0.0
 40
0.0508596278762467
100
AcDbArc
 50
315.2452377794944
 51
0.173264269296895
  0
LINE
  5
3DF
330
1F
100
AcDbEntity
  8
0
  6
SLD-Solid
 62
     7
370
    25
100
AcDbLine
 10
37.85834255609981
 20
16.18323747470584
 30
0.0
 11
38.16400407667633
 21
16.48889899528237
 31
0.0
  0
LINE
  5
3E0
330
1F
100
AcDbEntity
  8
0
  6
SLD-Solid
 62
     7
370
    25
100
AcDbLine
 10
38.13374180319937
 20
9.68723580909171
 30
0.0
 11
37.85834255609983
 21
9.962635056191255
 31
0.0
  0
LINE
  5
3E1
330
1F
100
AcDbEntity
  8
0
  6
SLD-Solid
 62
     7
370
    25
100
AcDbLine
 10
38.15693300886447
 20
16.49597006309424
 30
0.0
 11
37.85127148828794
 21
16.19030854251771
 31
0.0
  0
LINE
  5
3E2
330
1F
100
AcDbEntity
  8
0
  6
SLD-Solid
 62
     7
370
    25
100
AcDbLine
 10
37.85127148828789
 20
9.955563988379373
 30
0.0
 11
38.12251064676474
 21
9.684324829902524
 31
0.0
  0
LINE
  5
3E3
330
1F
100
AcDbEntity
  8
0
  6
SLD-Solid
 62
     7
370
    25
100
AcDbLine
 10
34.66593648138497
 20
16.48889899528237
 30
0.0
 11
34.9715980019615
 21
16.18323747470585
 31
0.0
  0
LINE
  5
3E4
330
1F
100
AcDbEntity
  8
0
  6
SLD-Solid
 62
     7
370
    25
100
AcDbLine
 10
34.97866906977336
 20
16.19030854251771
 30
0.0
 11
34.67300754919683
 21
16.49597006309423
 31
0.0
  0
LINE
  5
3E5
330
1F
100
AcDbEntity
  8
0
  6
SLD-Solid
 62
     7
370
    25
100
AcDbLine
 10
34.68142991129652
 20
9.658324829902574
 30
0.0
 11
34.97866906977334
 21
9.955563988379396
 31
0.0
  0
LINE
  5
3E6
330
1F
100
AcDbEntity
  8
0
  6
SLD-Solid
 62
     7
370
    25
100
AcDbLine
 10
34.97159800196147
 20
9.962635056191262
 30
0.0
 11
34.67435884348465
 21
9.66539589771444
 31
0.0
  0
LINE
  5
3E7
330
1F
100
AcDbEntity
  8
0
  6
SLD-Solid
 62
     7
370
    25
100
AcDbLine
 10
38.14497027903063
 20
9.630638935935046
 30
0.0
 11
38.14497027903063
 21
9.621347332215866
 31
0.0
  0
ARC
  5
3E8
330
1F
100
AcDbEntity
  8
0
  6
SLD-Solid
 62
     7
370
    25
100
AcDbCircle
 10
38.06903860869274
 20
9.630413695263293
 30
0.0
 40
0.075932004409617
100
AcDbArc
 50
0.1699594116170565
 51
45.23428475102583
  0
LINE
  5
3E9
330
1F
100
AcDbEntity
  8
0
  6
SLD-Solid
 62
     7
370
    25
100
AcDbLine
 10
38.19671930088603
 20
9.664776176825825
 30
0.0
 11
38.18742769716685
 21
9.664776176825825
 31
0.0
  0
ARC
  5
3EA
330
1F
100
AcDbEntity
  8
0
  6
SLD-Solid
 62
     7
370
    25
100
AcDbCircle
 10
38.18765293783859
 20
9.740707847163712
 30
0.0
 40
0.0759320044096149
100
AcDbArc
 50
224.7657152489873
 51
269.8300405883945
  0
LINE
  5
3EB
330
1F
100
AcDbEntity
  8
0
  6
SLD-Solid
 62
     7
370
    25
100
AcDbLine
 10
34.65897447652782
 20
9.596138909421395
 30
0.0
 11
34.65897027903063
 21
9.595348671392525
 31
0.0
  0
LINE
  5
3EC
330
1F
100
AcDbEntity
  8
0
  6
SLD-Solid
 62
     7
370
    25
100
AcDbLine
 10
34.65897027903063
 20
9.595348671392525
 30
0.0
 11
34.65897027903063
 21
9.604641933399044
 31
0.0
  0
LINE
  5
3ED
330
1F
100
AcDbEntity
  8
0
  6
SLD-Solid
 62
     7
370
    25
100
AcDbLine
 10
34.65897027903063
 20
9.604641933399044
 30
0.0
 11
34.65897447652782
 21
9.605430513140574
 31
0.0
  0
ARC
  5
3EE
330
1F
100
AcDbEntity
  8
0
  6
SLD-Solid
 62
     7
370
    25
100
AcDbCircle
 10
34.73492264432679
 20
9.604401641175519
 30
0.0
 40
0.0759551365579779
100
AcDbArc
 50
134.7703956520777
 51
179.2238599408744
  0
LINE
  5
3EF
330
1F
100
AcDbEntity
  8
0
  6
SLD-Solid
 62
     7
370
    25
100
AcDbLine
 10
34.62146452672265
 20
9.642940462945743
 30
0.0
 11
34.62067594698112
 21
9.642936265448553
 31
0.0
  0
LINE
  5
3F0
330
1F
100
AcDbEntity
  8
0
  6
SLD-Solid
 62
     7
370
    25
100
AcDbLine
 10
34.62067594698112
 20
9.642936265448553
 30
0.0
 11
34.6113826849746
 21
9.642936265448553
 31
0.0
  0
LINE
  5
3F1
330
1F
100
AcDbEntity
  8
0
  6
SLD-Solid
 62
     7
370
    25
100
AcDbLine
 10
34.6113826849746
 20
9.642936265448553
 30
0.0
 11
34.61217292300348
 21
9.642940462945743
 31
0.0
  0
ARC
  5
3F2
330
1F
100
AcDbEntity
  8
0
  6
SLD-Solid
 62
     7
370
    25
100
AcDbCircle
 10
34.62043565475761
 20
9.718888630744683
 30
0.0
 40
0.0759551365579466
100
AcDbArc
 50
270.776140059116
 51
315.2296043479251
  0
LINE
  5
3F3
330
1F
100
AcDbEntity
  8
0
  6
SLD-Solid
 62
     7
370
    25
100
AcDbLine
 10
38.19755776040601
 20
16.50293626544855
 30
0.0
 11
38.20684936412519
 21
16.50293626544855
 31
0.0
  0
ARC
  5
3F4
330
1F
100
AcDbEntity
  8
0
  6
SLD-Solid
 62
     7
370
    25
100
AcDbCircle
 10
38.19769853582584
 20
16.45547897148739
 30
0.0
 40
0.0474575027559924
100
AcDbArc
 50
90.16995941159782
 51
135.2342847510295
  0
LINE
  5
3F5
330
1F
100
AcDbEntity
  8
0
  6
SLD-Solid
 62
     7
370
    25
100
AcDbLine
 10
38.17097027903066
 20
16.53881535054309
 30
0.0
 11
38.17097027903066
 21
16.52952374682391
 31
0.0
  0
ARC
  5
3F6
330
1F
100
AcDbEntity
  8
0
  6
SLD-Solid
 62
     7
370
    25
100
AcDbCircle
 10
38.12351298506945
 20
16.52966452224376
 30
0.0
 40
0.0474575027560316
100
AcDbArc
 50
314.7657152489866
 51
359.8300405883731
  0
LINE
  5
3F7
330
1F
100
AcDbEntity
  8
0
  6
SLD-Solid
 62
     7
370
    25
100
AcDbLine
 10
34.62309119393613
 20
16.50293626544855
 30
0.0
 11
34.63238279765531
 21
16.50293626544855
 31
0.0
  0
ARC
  5
3F8
330
1F
100
AcDbEntity
  8
0
  6
SLD-Solid
 62
     7
370
    25
100
AcDbCircle
 10
34.63224202223547
 20
16.45547897148739
 30
0.0
 40
0.0474575027559873
100
AcDbArc
 50
44.76571524896438
 51
89.83004058838502
  0
LINE
  5
3F9
330
1F
100
AcDbEntity
  8
0
  6
SLD-Solid
 62
     7
370
    25
100
AcDbLine
 10
34.65897027903065
 20
16.5295237468239
 30
0.0
 11
34.65897027903065
 21
16.53881535054309
 31
0.0
  0
ARC
  5
3FA
330
1F
100
AcDbEntity
  8
0
  6
SLD-Solid
 62
     7
370
    25
100
AcDbCircle
 10
34.70642757299184
 20
16.52966452224375
 30
0.0
 40
0.0474575027560124
100
AcDbArc
 50
180.1699594116157
 51
225.2342847510181
  0
LINE
  5
3FB
330
1F
100
AcDbEntity
  8
0
  6
SLD-Solid
 62
     7
370
    25
100
AcDbLine
 10
38.26587027903067
 20
9.682936265448552
 30
0.0
 11
38.21776763505783
 21
9.682936265448552
 31
0.0
  0
LINE
  5
3FC
330
1F
100
AcDbEntity
  8
0
  6
SLD-Solid
 62
     7
370
    25
100
AcDbLine
 10
38.21776763505781
 20
16.50293626544855
 30
0.0
 11
38.26587027903065
 21
16.50293626544855
 31
0.0
  0
LINE
  5
3FD
330
1F
100
AcDbEntity
  8
0
  6
SLD-Solid
 62
     7
370
    25
100
AcDbLine
 10
38.26587027903065
 20
16.50293626544855
 30
0.0
 11
38.26587027903067
 21
9.682936265448552
 31
0.0
  0
LINE
  5
3FE
330
1F
100
AcDbEntity
  8
0
  6
SLD-Solid
 62
     7
370
    25
100
AcDbLine
 10
34.65897027903065
 20
16.54973362147571
 30
0.0
 11
34.65897027903065
 21
16.59783624618815
 31
0.0
  0
LINE
  5
3FF
330
1F
100
AcDbEntity
  8
0
  6
SLD-Solid
 62
     7
370
    25
100
AcDbLine
 10
34.65897012277913
 20
16.59783626544855
 30
0.0
 11
34.65897027903065
 21
16.59783624618815
 31
0.0
  0
LINE
  5
400
330
1F
100
AcDbEntity
  8
0
  6
SLD-Solid
 62
     7
370
    25
100
AcDbLine
 10
34.65897012277913
 20
16.59783626544855
 30
0.0
 11
38.17097027903066
 21
16.59783626544855
 31
0.0
  0
LINE
  5
401
330
1F
100
AcDbEntity
  8
0
  6
SLD-Solid
 62
     7
370
    25
100
AcDbLine
 10
38.17097027903066
 20
16.59783626544855
 30
0.0
 11
38.17097027903066
 21
16.54973362147571
 31
0.0
  0
LINE
  5
402
330
1F
100
AcDbEntity
  8
0
  6
SLD-Solid
 62
     7
370
    25
100
AcDbLine
 10
38.14497027903063
 20
9.596138909421375
 30
0.0
 11
38.14497027903063
 21
9.548036265448498
 31
0.0
  0
LINE
  5
403
330
1F
100
AcDbEntity
  8
0
  6
SLD-Solid
 62
     7
370
    25
100
AcDbLine
 10
38.14497027903063
 20
9.548036265448498
 30
0.0
 11
34.65897027903063
 21
9.548036265448552
 31
0.0
  0
LINE
  5
404
330
1F
100
AcDbEntity
  8
0
  6
SLD-Solid
 62
     7
370
    25
100
AcDbLine
 10
34.65897027903063
 20
9.548036265448552
 30
0.0
 11
34.65897027903063
 21
9.595348671392525
 31
0.0
  0
LINE
  5
405
330
1F
100
AcDbEntity
  8
0
  6
SLD-Solid
 62
     7
370
    25
100
AcDbLine
 10
34.56407027903064
 20
9.642936265448553
 30
0.0
 11
34.56407027903064
 21
16.50293642170008
 31
0.0
  0
LINE
  5
406
330
1F
100
AcDbEntity
  8
0
  6
SLD-Solid
 62
     7
370
    25
100
AcDbLine
 10
34.56407029829105
 20
16.50293626544855
 30
0.0
 11
34.56407027903064
 21
16.50293642170008
 31
0.0
  0
LINE
  5
407
330
1F
100
AcDbEntity
  8
0
  6
SLD-Solid
 62
     7
370
    25
100
AcDbLine
 10
34.56407029829105
 20
16.50293626544855
 30
0.0
 11
34.61217292300348
 21
16.50293626544855
 31
0.0
  0
LINE
  5
408
330
1F
100
AcDbEntity
  8
0
  6
SLD-Solid
 62
     7
370
    25
100
AcDbLine
 10
34.6113826849746
 20
9.642936265448553
 30
0.0
 11
34.56407027903064
 21
9.642936265448553
 31
0.0
  0
LINE
  5
409
330
1F
100
AcDbEntity
  8
0
  6
SLD-Solid
 62
     7
370
    25
100
AcDbLine
 10
34.65897012277913
 20
16.56193626544855
 30
0.0
 11
34.65097027903065
 21
16.56193626544855
 31
0.0
  0
LINE
  5
40A
330
1F
100
AcDbEntity
  8
0
  6
SLD-Solid
 62
     7
370
    25
100
AcDbLine
 10
34.65097027903065
 20
16.59783626544855
 30
0.0
 11
34.65897012277913
 21
16.59783626544855
 31
0.0
  0
LINE
  5
40B
330
1F
100
AcDbEntity
  8
0
  6
SLD-Solid
 62
     7
370
    25
100
AcDbLine
 10
34.56407027903064
 20
16.50293642170008
 30
0.0
 11
34.56407027903065
 21
16.51093626544855
 31
0.0
  0
LINE
  5
40C
330
1F
100
AcDbEntity
  8
0
  6
SLD-Solid
 62
     7
370
    25
100
AcDbLine
 10
34.59997027903065
 20
16.51093626544855
 30
0.0
 11
34.59997027903064
 21
16.50293642170008
 31
0.0
  0
LINE
  5
40D
330
1F
100
AcDbEntity
  8
0
  6
SLD-Solid
 62
     7
370
    25
100
AcDbLine
 10
34.64397027903063
 20
9.583936265448564
 30
0.0
 11
34.65897027903063
 21
9.583936265448564
 31
0.0
  0
LINE
  5
40E
330
1F
100
AcDbEntity
  8
0
  6
SLD-Solid
 62
     7
370
    25
100
AcDbLine
 10
34.65897027903063
 20
9.548036265448552
 30
0.0
 11
34.64397027903063
 21
9.548036265448554
 31
0.0
  0
LINE
  5
40F
330
1F
100
AcDbEntity
  8
0
  6
SLD-Solid
 62
     7
370
    25
100
AcDbLine
 10
34.56407027903062
 20
9.627936265448554
 30
0.0
 11
34.56407027903062
 21
9.642936265448553
 31
0.0
  0
LINE
  5
410
330
1F
100
AcDbEntity
  8
0
  6
SLD-Solid
 62
     7
370
    25
100
AcDbLine
 10
34.59997027903064
 20
9.642936265448553
 30
0.0
 11
34.59997027903064
 21
9.627936265448554
 31
0.0
  0
LINE
  5
411
330
1F
100
AcDbEntity
  8
0
  6
SLD-Solid
 62
     7
370
    25
100
AcDbLine
 10
34.62897027903065
 20
16.56193626544855
 30
0.0
 11
34.65097027903065
 21
16.56193626544855
 31
0.0
  0
LINE
  5
412
330
1F
100
AcDbEntity
  8
0
  6
SLD-Solid
 62
     7
370
    25
100
AcDbLine
 10
34.65097027903065
 20
16.59783626544855
 30
0.0
 11
34.62897027903065
 21
16.59783626544855
 31
0.0
  0
ARC
  5
413
330
1F
100
AcDbEntity
  8
0
  6
SLD-Solid
 62
     7
370
    25
100
AcDbCircle
 10
34.62897027903065
 20
16.53293626544855
 30
0.0
 40
0.0290000000000035
100
AcDbArc
 50
90.0
 51
180.0
  0
ARC
  5
414
330
1F
100
AcDbEntity
  8
0
  6
SLD-Solid
 62
     7
370
    25
100
AcDbCircle
 10
34.62897027903065
 20
16.53293626544855
 30
0.0
 40
0.0649000000000015
100
AcDbArc
 50
90.0
 51
180.0
  0
LINE
  5
415
330
1F
100
AcDbEntity
  8
0
  6
SLD-Solid
 62
     7
370
    25
100
AcDbLine
 10
34.56407027903065
 20
16.51093626544855
 30
0.0
 11
34.56407027903065
 21
16.53293626544855
 31
0.0
  0
LINE
  5
416
330
1F
100
AcDbEntity
  8
0
  6
SLD-Solid
 62
     7
370
    25
100
AcDbLine
 10
34.59997027903065
 20
16.53293626544855
 30
0.0
 11
34.59997027903065
 21
16.51093626544855
 31
0.0
  0
ARC
  5
417
330
1F
100
AcDbEntity
  8
0
  6
SLD-Solid
 62
     7
370
    25
100
AcDbCircle
 10
38.20097027903068
 20
9.652936265448552
 30
0.0
 40
0.0649000000000015
100
AcDbArc
 50
270.0000000000008
 51
0.0
  0
LINE
  5
418
330
1F
100
AcDbEntity
  8
0
  6
SLD-Solid
 62
     7
370
    25
100
AcDbLine
 10
38.14497027903066
 20
9.588036265448551
 30
0.0
 11
38.20097027903068
 21
9.588036265448551
 31
0.0
  0
LINE
  5
419
330
1F
100
AcDbEntity
  8
0
  6
SLD-Solid
 62
     7
370
    25
100
AcDbLine
 10
38.14497027903066
 20
9.62393626544855
 30
0.0
 11
38.20097027903068
 21
9.62393626544855
 31
0.0
  0
ARC
  5
41A
330
1F
100
AcDbEntity
  8
0
  6
SLD-Solid
 62
     7
370
    25
100
AcDbCircle
 10
38.20097027903068
 20
9.652936265448552
 30
0.0
 40
0.0290000000000017
100
AcDbArc
 50
270.0000000000008
 51
0.0
  0
LINE
  5
41B
330
1F
100
AcDbEntity
  8
0
  6
SLD-Solid
 62
     7
370
    25
100
AcDbLine
 10
38.22997027903067
 20
9.652936265448552
 30
0.0
 11
38.22997027903067
 21
9.664986265448553
 31
0.0
  0
LINE
  5
41C
330
1F
100
AcDbEntity
  8
0
  6
SLD-Solid
 62
     7
370
    25
100
AcDbLine
 10
38.26587027903067
 20
9.652936265448552
 30
0.0
 11
38.26587027903067
 21
9.664986265448553
 31
0.0
  0
LINE
  5
41D
330
1F
100
AcDbEntity
  8
0
  6
SLD-Solid
 62
     7
370
    25
100
AcDbLine
 10
38.22997027903065
 20
16.50293626544855
 30
0.0
 11
38.22997027903065
 21
16.51093626544855
 31
0.0
  0
LINE
  5
41E
330
1F
100
AcDbEntity
  8
0
  6
SLD-Solid
 62
     7
370
    25
100
AcDbLine
 10
38.26587027903065
 20
16.51093626544855
 30
0.0
 11
38.26587027903065
 21
16.50293626544855
 31
0.0
  0
LINE
  5
41F
330
1F
100
AcDbEntity
  8
0
  6
SLD-Solid
 62
     7
370
    25
100
AcDbLine
 10
38.17897027903065
 20
16.56193626544855
 30
0.0
 11
38.17097027903066
 21
16.56193626544855
 31
0.0
  0
LINE
  5
420
330
1F
100
AcDbEntity
  8
0
  6
SLD-Solid
 62
     7
370
    25
100
AcDbLine
 10
38.17097027903066
 20
16.59783626544855
 30
0.0
 11
38.17897027903065
 21
16.59783626544855
 31
0.0
  0
LINE
  5
421
330
1F
100
AcDbEntity
  8
0
  6
SLD-Solid
 62
     7
370
    25
100
AcDbLine
 10
38.22997027903065
 20
16.53293626544855
 30
0.0
 11
38.22997027903065
 21
16.51093626544855
 31
0.0
  0
LINE
  5
422
330
1F
100
AcDbEntity
  8
0
  6
SLD-Solid
 62
     7
370
    25
100
AcDbLine
 10
38.26587027903065
 20
16.51093626544855
 30
0.0
 11
38.26587027903065
 21
16.53293626544855
 31
0.0
  0
LINE
  5
423
330
1F
100
AcDbEntity
  8
0
  6
SLD-Solid
 62
     7
370
    25
100
AcDbLine
 10
38.22997027903067
 20
9.682936265448552
 30
0.0
 11
38.22997027903067
 21
9.664986265448553
 31
0.0
  0
LINE
  5
424
330
1F
100
AcDbEntity
  8
0
  6
SLD-Solid
 62
     7
370
    25
100
AcDbLine
 10
38.26587027903067
 20
9.664986265448553
 30
0.0
 11
38.26587027903067
 21
9.682936265448552
 31
0.0
  0
ARC
  5
425
330
1F
100
AcDbEntity
  8
0
  6
SLD-Solid
 62
     7
370
    25
100
AcDbCircle
 10
38.20097027903066
 20
16.53293626544855
 30
0.0
 40
0.0649000000000015
100
AcDbArc
 50
0.0
 51
90.0
  0
ARC
  5
426
330
1F
100
AcDbEntity
  8
0
  6
SLD-Solid
 62
     7
370
    25
100
AcDbCircle
 10
38.20097027903066
 20
16.53293626544855
 30
0.0
 40
0.0289999999999999
100
AcDbArc
 50
0.0
 51
90.0
  0
LINE
  5
427
330
1F
100
AcDbEntity
  8
0
  6
SLD-Solid
 62
     7
370
    25
100
AcDbLine
 10
38.17897027903065
 20
16.56193626544855
 30
0.0
 11
38.20097027903066
 21
16.56193626544855
 31
0.0
  0
LINE
  5
428
330
1F
100
AcDbEntity
  8
0
  6
SLD-Solid
 62
     7
370
    25
100
AcDbLine
 10
38.20097027903066
 20
16.59783626544855
 30
0.0
 11
38.17897027903065
 21
16.59783626544855
 31
0.0
  0
ARC
  5
429
330
1F
100
AcDbEntity
  8
0
  6
SLD-Solid
 62
     7
370
    25
100
AcDbCircle
 10
34.62897027903063
 20
9.612936265448553
 30
0.0
 40
0.0649000000000086
100
AcDbArc
 50
180.0
 51
270.0000000000008
  0
ARC
  5
42A
330
1F
100
AcDbEntity
  8
0
  6
SLD-Solid
 62
     7
370
    25
100
AcDbCircle
 10
34.62897027903063
 20
9.612936265448553
 30
0.0
 40
0.0290000000000035
100
AcDbArc
 50
180.0
 51
270.0000000000008
  0
LINE
  5
42B
330
1F
100
AcDbEntity
  8
0
  6
SLD-Solid
 62
     7
370
    25
100
AcDbLine
 10
34.56407027903062
 20
9.612936265448553
 30
0.0
 11
34.56407027903062
 21
9.627936265448554
 31
0.0
  0
LINE
  5
42C
330
1F
100
AcDbEntity
  8
0
  6
SLD-Solid
 62
     7
370
    25
100
AcDbLine
 10
34.59997027903063
 20
9.612936265448553
 30
0.0
 11
34.59997027903064
 21
9.627936265448554
 31
0.0
  0
LINE
  5
42D
330
1F
100
AcDbEntity
  8
0
  6
SLD-Solid
 62
     7
370
    25
100
AcDbLine
 10
34.64397027903063
 20
9.583936265448564
 30
0.0
 11
34.62897027903063
 21
9.583936265448553
 31
0.0
  0
LINE
  5
42E
330
1F
100
AcDbEntity
  8
0
  6
SLD-Solid
 62
     7
370
    25
100
AcDbLine
 10
34.64397027903063
 20
9.548036265448554
 30
0.0
 11
34.62897027903063
 21
9.548036265448554
 31
0.0
  0
DIMENSION
  5
42F
330
1F
100
AcDbEntity
  8
DIMS
100
AcDbDimension
  2
_D_2
 10
38.26587027903064
 20
18.17264039930682
 30
0.0
 11
36.49097537222064
 21
18.17264039930682
 31
0.0
 70
    32
  1
<>
 71
     2
 42
-1.0
  3
SLDDIMSTYLE0
100
AcDbAlignedDimension
 13
34.56407027903062
 23
16.50293642170008
 33
0.0
 14
38.26587027903064
 24
16.50293626544855
 34
0.0
100
AcDbRotatedDimension
  0
MTEXT
  5
43E
330
1F
100
AcDbEntity
  8
NOTES
100
AcDbMText
 10
34.10965829274946
 20
9.023858852240041
 30
0.0
 40
0.7500000000000001
 41
0.0
 71
     1
 72
     1
  1
Back view
  7
SLDTEXTSTYLE1
 73
     1
 44
1.0
  0
MTEXT
  5
442
330
1F
100
AcDbEntity
  8
NOTES
100
AcDbMText
 10
50.2661315570167
 20
4.986500874567161
 30
0.0
 40
0.2916666666666666
 41
0.0
 71
     1
 72
     1
  1
FROST PRODUCTS LTD.
  7
SLDTEXTSTYLE0
 73
     1
 44
1.0
  0
MTEXT
  5
443
330
1F
100
AcDbEntity
  8
NOTES
100
AcDbMText
 10
50.2661315570167
 20
4.561008512941702
 30
0.0
 40
0.2291666666666666
 41
0.0
 71
     1
 72
     1
  1
5280 JOHN LUCAS DRIVE, BURLINGTON, ON, L7L 5Z9
  7
SLDTEXTSTYLE0
 73
     1
 44
1.0
  0
ENDSEC
  0
SECTION
  2
OBJECTS
  0
DICTIONARY
  5
C
330
0
100
AcDbDictionary
281
     1
  3
ACAD_COLOR
350
6C
  3
ACAD_GROUP
350
D
  3
ACAD_LAYOUT
350
1A
  3
ACAD_MATERIAL
350
6B
  3
ACAD_MLINESTYLE
350
17
  3
ACAD_PLOTSETTINGS
350
19
  3
ACAD_PLOTSTYLENAME
350
E
  3
ACAD_SCALELIST
350
47
  3
ACAD_TABLESTYLE
350
92
  3
AcDbVariableDictionary
350
59
  0
DICTIONARY
  5
6C
102
{ACAD_REACTORS
330
C
102
}
330
C
100
AcDbDictionary
281
     1
  0
DICTIONARY
  5
D
102
{ACAD_REACTORS
330
C
102
}
330
C
100
AcDbDictionary
281
     1
  0
DICTIONARY
  5
1A
102
{ACAD_REACTORS
330
C
102
}
330
C
100
AcDbDictionary
281
     1
  3
Layout1
350
74
  3
Layout2
350
26
  3
Model
350
22
  0
DICTIONARY
  5
6B
102
{ACAD_REACTORS
330
C
102
}
330
C
100
AcDbDictionary
281
     1
  0
DICTIONARY
  5
17
102
{ACAD_REACTORS
330
C
102
}
330
C
100
AcDbDictionary
281
     1
  3
Standard
350
18
  0
DICTIONARY
  5
19
102
{ACAD_REACTORS
330
C
102
}
330
C
100
AcDbDictionary
281
     1
  0
ACDBDICTIONARYWDFLT
  5
E
102
{ACAD_REACTORS
330
C
102
}
330
C
100
AcDbDictionary
281
     1
  3
Normal
350
F
100
AcDbDictionaryWithDefault
340
F
  0
DICTIONARY
  5
47
102
{ACAD_REACTORS
330
C
102
}
330
C
100
AcDbDictionary
281
     1
  3
A0
350
48
  3
A1
350
49
  3
A2
350
4A
  3
A3
350
4B
  3
A4
350
4C
  3
A5
350
4D
  3
A6
350
4E
  3
A7
350
4F
  3
A8
350
50
  3
A9
350
51
  3
B0
350
52
  3
B1
350
53
  3
B2
350
54
  3
B3
350
55
  3
B4
350
56
  3
B5
350
57
  3
B6
350
58
  3
B7
350
454
  3
B8
350
455
  3
B9
350
5B
  3
C0
350
5C
  3
C1
350
5D
  3
C2
350
456
  3
C3
350
5F
  3
C4
350
60
  3
C5
350
61
  3
C6
350
62
  3
C7
350
63
  3
C8
350
64
  3
C9
350
65
  3
D0
350
66
  3
D1
350
67
  3
D2
350
68
  0
DICTIONARY
  5
92
102
{ACAD_REACTORS
330
C
102
}
330
C
100
AcDbDictionary
281
     1
  3
Standard
350
93
  0
DICTIONARY
  5
59
102
{ACAD_REACTORS
330
C
102
}
330
C
100
AcDbDictionary
281
     1
  3
CTABLESTYLE
350
98
  3
HIDETEXT
350
441
  0
LAYOUT
  5
74
102
{ACAD_REACTORS
330
1A
102
}
330
1A
100
AcDbPlotSettings
  1

  2
none_device
  4

  6

 40
0.0
 41
0.0
 42
0.0
 43
0.0
 44
0.0
 45
0.0
 46
0.0
 47
0.0
 48
0.0
 49
0.0
140
0.0
141
0.0
142
1.0
143
1.0
 70
   688
 72
     0
 73
     0
 74
     5
  7

 75
    16
 76
     0
 77
     2
 78
   300
147
1.0
148
0.0
149
0.0
100
AcDbLayout
  1
Layout1
 70
     1
 71
     1
 10
0.0
 20
0.0
 11
12.0
 21
9.0
 12
0.0
 22
0.0
 32
0.0
 14
1.000000000000000E+20
 24
1.000000000000000E+20
 34
1.000000000000000E+20
 15
-1.000000000000000E+20
 25
-1.000000000000000E+20
 35
-1.000000000000000E+20
146
0.0
 13
0.0
 23
0.0
 33
0.0
 16
1.0
 26
0.0
 36
0.0
 17
0.0
 27
1.0
 37
0.0
 76
     0
330
73
  0
LAYOUT
  5
26
102
{ACAD_REACTORS
330
1A
102
}
330
1A
100
AcDbPlotSettings
  1

  2
none_device
  4

  6

 40
0.0
 41
0.0
 42
0.0
 43
0.0
 44
0.0
 45
0.0
 46
0.0
 47
0.0
 48
0.0
 49
0.0
140
0.0
141
0.0
142
1.0
143
1.0
 70
   688
 72
     0
 73
     0
 74
     5
  7

 75
    16
 76
     0
 77
     2
 78
   300
147
1.0
148
0.0
149
0.0
100
AcDbLayout
  1
Layout2
 70
     1
 71
     2
 10
0.0
 20
0.0
 11
0.0
 21
0.0
 12
0.0
 22
0.0
 32
0.0
 14
0.0
 24
0.0
 34
0.0
 15
0.0
 25
0.0
 35
0.0
146
0.0
 13
0.0
 23
0.0
 33
0.0
 16
1.0
 26
0.0
 36
0.0
 17
0.0
 27
1.0
 37
0.0
 76
     0
330
23
  0
LAYOUT
  5
22
102
{ACAD_REACTORS
330
1A
102
}
330
1A
100
AcDbPlotSettings
  1

  2
none_device
  4
Letter_(8.50_x_11.00_Inches)
  6

 40
6.35
 41
6.35
 42
6.35000508
 43
6.35000508
 44
215.9
 45
279.4
 46
0.0
 47
0.0
 48
0.0
 49
0.0
140
0.0
141
0.0
142
1.0
143
1.0
 70
 11952
 72
     0
 73
     0
 74
     0
  7

 75
     0
 76
     0
 77
     2
 78
   300
147
1.0
148
0.0
149
0.0
100
AcDbLayout
  1
Model
 70
     1
 71
     0
 10
0.0
 20
0.0
 11
60.0
 21
24.0
 12
0.0
 22
0.0
 32
0.0
 14
0.1653543307086614
 24
0.1653543307086614
 34
-0.058395840384703
 15
59.83464566929134
 25
23.83464566929134
 35
0.1219944171796882
146
0.0
 13
0.0
 23
0.0
 33
0.0
 16
1.0
 26
0.0
 36
0.0
 17
0.0
 27
1.0
 37
0.0
 76
     0
330
1F
  0
MLINESTYLE
  5
18
102
{ACAD_REACTORS
330
17
102
}
330
17
100
AcDbMlineStyle
  2
Standard
 70
     0
  3

 62
   256
 51
90.0
 52
90.0
 71
     2
 49
0.5
 62
   256
  6
BYLAYER
 49
-0.5
 62
   256
  6
BYLAYER
  0
ACDBPLACEHOLDER
  5
F
102
{ACAD_REACTORS
330
E
102
}
330
E
  0
ACAD_PROXY_OBJECT
  5
48
102
{ACAD_REACTORS
330
47
102
}
330
47
100
AcDbProxyObject
 90
      499
 91
      505
 95
   393239
 70
     0
 93
       41
310
903313A31580
  0
ACAD_PROXY_OBJECT
  5
49
102
{ACAD_REACTORS
330
47
102
}
330
47
100
AcDbProxyObject
 90
      499
 91
      505
 95
   393239
 70
     0
 93
      105
310
903313A324000000000000004000
  0
ACAD_PROXY_OBJECT
  5
4A
102
{ACAD_REACTORS
330
47
102
}
330
47
100
AcDbProxyObject
 90
      499
 91
      505
 95
   393239
 70
     0
 93
      105
310
903313A344000000000000104000
  0
ACAD_PROXY_OBJECT
  5
4B
102
{ACAD_REACTORS
330
47
102
}
330
47
100
AcDbProxyObject
 90
      499
 91
      505
 95
   393239
 70
     0
 93
      105
310
903313A354000000000000144000
  0
ACAD_PROXY_OBJECT
  5
4C
102
{ACAD_REACTORS
330
47
102
}
330
47
100
AcDbProxyObject
 90
      499
 91
      505
 95
   393239
 70
     0
 93
      105
310
903313A384000000000000204000
  0
ACAD_PROXY_OBJECT
  5
4D
102
{ACAD_REACTORS
330
47
102
}
330
47
100
AcDbProxyObject
 90
      499
 91
      505
 95
   393239
 70
     0
 93
      113
310
904313A31304000000000000244000
  0
ACAD_PROXY_OBJECT
  5
4E
102
{ACAD_REACTORS
330
47
102
}
330
47
100
AcDbProxyObject
 90
      499
 91
      505
 95
   393239
 70
     0
 93
      113
310
904313A31364000000000000304000
  0
ACAD_PROXY_OBJECT
  5
4F
102
{ACAD_REACTORS
330
47
102
}
330
47
100
AcDbProxyObject
 90
      499
 91
      505
 95
   393239
 70
     0
 93
      113
310
904313A32304000000000000344000
  0
ACAD_PROXY_OBJECT
  5
50
102
{ACAD_REACTORS
330
47
102
}
330
47
100
AcDbProxyObject
 90
      499
 91
      505
 95
   393239
 70
     0
 93
      113
310
904313A333040000000000003E4000
  0
ACAD_PROXY_OBJECT
  5
51
102
{ACAD_REACTORS
330
47
102
}
330
47
100
AcDbProxyObject
 90
      499
 91
      505
 95
   393239
 70
     0
 93
      113
310
904313A34304000000000000444000
  0
ACAD_PROXY_OBJECT
  5
52
102
{ACAD_REACTORS
330
47
102
}
330
47
100
AcDbProxyObject
 90
      499
 91
      505
 95
   393239
 70
     0
 93
      113
310
904313A35304000000000000494000
  0
ACAD_PROXY_OBJECT
  5
53
102
{ACAD_REACTORS
330
47
102
}
330
47
100
AcDbProxyObject
 90
      499
 91
      505
 95
   393239
 70
     0
 93
      121
310
905313A3130304000000000000594000
  0
ACAD_PROXY_OBJECT
  5
54
102
{ACAD_REACTORS
330
47
102
}
330
47
100
AcDbProxyObject
 90
      499
 91
      505
 95
   393239
 70
     0
 93
      105
310
903323A310000000000000010100
  0
ACAD_PROXY_OBJECT
  5
55
102
{ACAD_REACTORS
330
47
102
}
330
47
100
AcDbProxyObject
 90
      499
 91
      505
 95
   393239
 70
     0
 93
      105
310
903343A310000000000000410100
  0
ACAD_PROXY_OBJECT
  5
56
102
{ACAD_REACTORS
330
47
102
}
330
47
100
AcDbProxyObject
 90
      499
 91
      505
 95
   393239
 70
     0
 93
      105
310
903383A310000000000000810100
  0
ACAD_PROXY_OBJECT
  5
57
102
{ACAD_REACTORS
330
47
102
}
330
47
100
AcDbProxyObject
 90
      499
 91
      505
 95
   393239
 70
     0
 93
      113
310
90431303A310000000000000910100
  0
ACAD_PROXY_OBJECT
  5
58
102
{ACAD_REACTORS
330
47
102
}
330
47
100
AcDbProxyObject
 90
      499
 91
      505
 95
   393239
 70
     0
 93
      121
310
9053130303A310000000000001650100
  0
ACAD_PROXY_OBJECT
  5
454
102
{ACAD_REACTORS
330
47
102
}
330
47
100
AcDbProxyObject
 90
      499
 91
      505
 95
   393239
 70
     0
 93
      257
310
90E312F31323822203D2031272D3022000000000000200FC000000000000284000
  0
ACAD_PROXY_OBJECT
  5
455
102
{ACAD_REACTORS
330
47
102
}
330
47
100
AcDbProxyObject
 90
      499
 91
      505
 95
   393239
 70
     0
 93
      249
310
90D312F363422203D2031272D3022000000000000240FC000000000000284000
  0
ACAD_PROXY_OBJECT
  5
5B
102
{ACAD_REACTORS
330
47
102
}
330
47
100
AcDbProxyObject
 90
      499
 91
      505
 95
   393239
 70
     0
 93
      249
310
90D312F333222203D2031272D3022000000000000280FC000000000000284000
  0
ACAD_PROXY_OBJECT
  5
5C
102
{ACAD_REACTORS
330
47
102
}
330
47
100
AcDbProxyObject
 90
      499
 91
      505
 95
   393239
 70
     0
 93
      249
310
90D312F313622203D2031272D30220000000000002C0FC000000000000284000
  0
ACAD_PROXY_OBJECT
  5
5D
102
{ACAD_REACTORS
330
47
102
}
330
47
100
AcDbProxyObject
 90
      499
 91
      505
 95
   393239
 70
     0
 93
      249
310
90D332F333222203D2031272D30220000000000002E0FC000000000000284000
  0
ACAD_PROXY_OBJECT
  5
456
102
{ACAD_REACTORS
330
47
102
}
330
47
100
AcDbProxyObject
 90
      499
 91
      505
 95
   393239
 70
     0
 93
      241
310
90C312F3822203D2031272D3022000000000000300FC000000000000284000
  0
ACAD_PROXY_OBJECT
  5
5F
102
{ACAD_REACTORS
330
47
102
}
330
47
100
AcDbProxyObject
 90
      499
 91
      505
 95
   393239
 70
     0
 93
      249
310
90D332F313622203D2031272D3022000000000000320FC000000000000284000
  0
ACAD_PROXY_OBJECT
  5
60
102
{ACAD_REACTORS
330
47
102
}
330
47
100
AcDbProxyObject
 90
      499
 91
      505
 95
   393239
 70
     0
 93
      241
310
90C312F3422203D2031272D3022000000000000340FC000000000000284000
  0
ACAD_PROXY_OBJECT
  5
61
102
{ACAD_REACTORS
330
47
102
}
330
47
100
AcDbProxyObject
 90
      499
 91
      505
 95
   393239
 70
     0
 93
      241
310
90C332F3822203D2031272D3022000000000000360FC000000000000284000
  0
ACAD_PROXY_OBJECT
  5
62
102
{ACAD_REACTORS
330
47
102
}
330
47
100
AcDbProxyObject
 90
      499
 91
      505
 95
   393239
 70
     0
 93
      241
310
90C312F3222203D2031272D3022000000000000380FC000000000000284000
  0
ACAD_PROXY_OBJECT
  5
63
102
{ACAD_REACTORS
330
47
102
}
330
47
100
AcDbProxyObject
 90
      499
 91
      505
 95
   393239
 70
     0
 93
      241
310
90C332F3422203D2031272D30220000000000003A0FC000000000000284000
  0
ACAD_PROXY_OBJECT
  5
64
102
{ACAD_REACTORS
330
47
102
}
330
47
100
AcDbProxyObject
 90
      499
 91
      505
 95
   393239
 70
     0
 93
      161
310
90A3122203D2031272D30224000000000000284000
  0
ACAD_PROXY_OBJECT
  5
65
102
{ACAD_REACTORS
330
47
102
}
330
47
100
AcDbProxyObject
 90
      499
 91
      505
 95
   393239
 70
     0
 93
      257
310
90E312D312F3222203D2031272D30220000000000003E0FC000000000000284000
  0
ACAD_PROXY_OBJECT
  5
66
102
{ACAD_REACTORS
330
47
102
}
330
47
100
AcDbProxyObject
 90
      499
 91
      505
 95
   393239
 70
     0
 93
      225
310
90A3322203D2031272D302200000000000002100000000000000284000
  0
ACAD_PROXY_OBJECT
  5
67
102
{ACAD_REACTORS
330
47
102
}
330
47
100
AcDbProxyObject
 90
      499
 91
      505
 95
   393239
 70
     0
 93
      225
310
90A3622203D2031272D302200000000000006100000000000000284000
  0
ACAD_PROXY_OBJECT
  5
68
102
{ACAD_REACTORS
330
47
102
}
330
47
100
AcDbProxyObject
 90
      499
 91
      505
 95
   393239
 70
     0
 93
      249
310
90D31272D3022203D2031272D30220000000000000A100000000000000284000
  0
TABLESTYLE
  5
93
102
{ACAD_REACTORS
330
92
102
}
330
92
100
AcDbTableStyle
  3
Standard
 70
     0
 71
     0
 40
0.06
 41
0.06
280
     0
281
     0
  7
Standard
140
0.18
170
     2
 62
     0
 63
     7
283
     0
274
    -2
284
     1
 64
     0
275
    -2
285
     1
 65
     0
276
    -2
286
     1
 66
     0
277
    -2
287
     1
 67
     0
278
    -2
288
     1
 68
     0
279
    -2
289
     1
 69
     0
  7
Standard
140
0.25
170
     5
 62
     0
 63
     7
283
     0
274
    -2
284
     1
 64
     0
275
    -2
285
     1
 65
     0
276
    -2
286
     1
 66
     0
277
    -2
287
     1
 67
     0
278
    -2
288
     1
 68
     0
279
    -2
289
     1
 69
     0
  7
Standard
140
0.18
170
     5
 62
     0
 63
     7
283
     0
274
    -2
284
     1
 64
     0
275
    -2
285
     1
 65
     0
276
    -2
286
     1
 66
     0
277
    -2
287
     1
 67
     0
278
    -2
288
     1
 68
     0
279
    -2
289
     1
 69
     0
  0
DICTIONARYVAR
  5
98
102
{ACAD_REACTORS
330
59
102
}
330
59
100
DictionaryVariables
280
     0
  1
STANDARD
  0
DICTIONARYVAR
  5
441
102
{ACAD_REACTORS
330
59
102
}
330
59
100
DictionaryVariables
280
     0
  1
2
  0
ENDSEC
  0
EOF
