  0
SECTION
  2
HEADER
  9
$ACADVER
  1
AC1018
  9
$ACADMAINTVER
 70
    39
  9
$DWGCODEPAGE
  3
ANSI_1252
  9
$LASTSAVEDBY
  1
fottrem
  9
$INSBASE
 10
0.0
 20
0.0
 30
0.0
  9
$EXTMIN
 10
0.1653543307086614
 20
0.1653543307086614
 30
-0.2015639397791229
  9
$EXTMAX
 10
80.20964566929135
 20
59.83464566929134
 30
0.2015639397791228
  9
$LIMMIN
 10
0.0
 20
0.0
  9
$LIMMAX
 10
80.375
 20
60.0
  9
$ORTHOMODE
 70
     0
  9
$REGENMODE
 70
     1
  9
$FILLMODE
 70
     1
  9
$QTEXTMODE
 70
     0
  9
$MIRRTEXT
 70
     1
  9
$LTSCALE
 40
1.0
  9
$ATTMODE
 70
     1
  9
$TEXTSIZE
 40
0.7500000000000001
  9
$TRACEWID
 40
0.05
  9
$TEXTSTYLE
  7
Standard
  9
$CLAYER
  8
0
  9
$CELTYPE
  6
ByLayer
  9
$CECOLOR
 62
   256
  9
$CELTSCALE
 40
1.0
  9
$DISPSILH
 70
     0
  9
$DIMSCALE
 40
1.0
  9
$DIMASZ
 40
0.7500000000000001
  9
$DIMEXO
 40
0.1666666666666667
  9
$DIMDLI
 40
0.38
  9
$DIMRND
 40
0.0
  9
$DIMDLE
 40
0.0
  9
$DIMEXE
 40
0.3750000000000001
  9
$DIMTP
 40
0.0
  9
$DIMTM
 40
0.0
  9
$DIMTXT
 40
0.7500000000000001
  9
$DIMCEN
 40
0.09
  9
$DIMTSZ
 40
0.0
  9
$DIMTOL
 70
     0
  9
$DIMLIM
 70
     0
  9
$DIMTIH
 70
     1
  9
$DIMTOH
 70
     1
  9
$DIMSE1
 70
     0
  9
$DIMSE2
 70
     0
  9
$DIMTAD
 70
     0
  9
$DIMZIN
 70
     1
  9
$DIMBLK
  1

  9
$DIMASO
 70
     1
  9
$DIMSHO
 70
     1
  9
$DIMPOST
  1

  9
$DIMAPOST
  1

  9
$DIMALT
 70
     0
  9
$DIMALTD
 70
     2
  9
$DIMALTF
 40
25.4
  9
$DIMLFAC
 40
1.0
  9
$DIMTOFL
 70
     0
  9
$DIMTVP
 40
0.0
  9
$DIMTIX
 70
     0
  9
$DIMSOXD
 70
     0
  9
$DIMSAH
 70
     0
  9
$DIMBLK1
  1

  9
$DIMBLK2
  1

  9
$DIMSTYLE
  2
Standard
  9
$DIMCLRD
 70
     0
  9
$DIMCLRE
 70
     0
  9
$DIMCLRT
 70
     0
  9
$DIMTFAC
 40
1.0
  9
$DIMGAP
 40
0.125
  9
$DIMJUST
 70
     0
  9
$DIMSD1
 70
     0
  9
$DIMSD2
 70
     0
  9
$DIMTOLJ
 70
     1
  9
$DIMTZIN
 70
     1
  9
$DIMALTZ
 70
     0
  9
$DIMALTTZ
 70
     0
  9
$DIMUPT
 70
     0
  9
$DIMDEC
 70
     2
  9
$DIMTDEC
 70
     2
  9
$DIMALTU
 70
     2
  9
$DIMALTTD
 70
     2
  9
$DIMTXSTY
  7
Standard
  9
$DIMAUNIT
 70
     0
  9
$DIMADEC
 70
     2
  9
$DIMALTRND
 40
0.0
  9
$DIMAZIN
 70
     0
  9
$DIMDSEP
 70
    46
  9
$DIMATFIT
 70
     3
  9
$DIMFRAC
 70
     0
  9
$DIMLDRBLK
  1

  9
$DIMLUNIT
 70
     2
  9
$DIMLWD
 70
    -2
  9
$DIMLWE
 70
    -2
  9
$DIMTMOVE
 70
     0
  9
$LUNITS
 70
     2
  9
$LUPREC
 70
     4
  9
$SKETCHINC
 40
0.1
  9
$FILLETRAD
 40
0.5
  9
$AUNITS
 70
     0
  9
$AUPREC
 70
     2
  9
$MENU
  1
.
  9
$ELEVATION
 40
0.0
  9
$PELEVATION
 40
0.0
  9
$THICKNESS
 40
0.0
  9
$LIMCHECK
 70
     0
  9
$CHAMFERA
 40
0.0
  9
$CHAMFERB
 40
0.0
  9
$CHAMFERC
 40
0.0
  9
$CHAMFERD
 40
0.0
  9
$SKPOLY
 70
     0
  9
$TDCREATE
 40
2453353.550459155
  9
$TDUCREATE
 40
2453353.717125822
  9
$TDUPDATE
 40
2459488.514306806
  9
$TDUUPDATE
 40
2459488.680973472
  9
$TDINDWG
 40
0.0427430671
  9
$TDUSRTIMER
 40
0.0427430671
  9
$USRTIMER
 70
     1
  9
$ANGBASE
 50
0.0
  9
$ANGDIR
 70
     0
  9
$PDMODE
 70
     0
  9
$PDSIZE
 40
-1.0
  9
$PLINEWID
 40
0.0
  9
$SPLFRAME
 70
     0
  9
$SPLINETYPE
 70
     6
  9
$SPLINESEGS
 70
     8
  9
$HANDSEED
  5
670
  9
$SURFTAB1
 70
     6
  9
$SURFTAB2
 70
     6
  9
$SURFTYPE
 70
     6
  9
$SURFU
 70
     6
  9
$SURFV
 70
     6
  9
$UCSBASE
  2

  9
$UCSNAME
  2

  9
$UCSORG
 10
0.0
 20
0.0
 30
0.0
  9
$UCSXDIR
 10
1.0
 20
0.0
 30
0.0
  9
$UCSYDIR
 10
0.0
 20
1.0
 30
0.0
  9
$UCSORTHOREF
  2

  9
$UCSORTHOVIEW
 70
     0
  9
$UCSORGTOP
 10
0.0
 20
0.0
 30
0.0
  9
$UCSORGBOTTOM
 10
0.0
 20
0.0
 30
0.0
  9
$UCSORGLEFT
 10
0.0
 20
0.0
 30
0.0
  9
$UCSORGRIGHT
 10
0.0
 20
0.0
 30
0.0
  9
$UCSORGFRONT
 10
0.0
 20
0.0
 30
0.0
  9
$UCSORGBACK
 10
0.0
 20
0.0
 30
0.0
  9
$PUCSBASE
  2

  9
$PUCSNAME
  2

  9
$PUCSORG
 10
0.0
 20
0.0
 30
0.0
  9
$PUCSXDIR
 10
1.0
 20
0.0
 30
0.0
  9
$PUCSYDIR
 10
0.0
 20
1.0
 30
0.0
  9
$PUCSORTHOREF
  2

  9
$PUCSORTHOVIEW
 70
     0
  9
$PUCSORGTOP
 10
0.0
 20
0.0
 30
0.0
  9
$PUCSORGBOTTOM
 10
0.0
 20
0.0
 30
0.0
  9
$PUCSORGLEFT
 10
0.0
 20
0.0
 30
0.0
  9
$PUCSORGRIGHT
 10
0.0
 20
0.0
 30
0.0
  9
$PUCSORGFRONT
 10
0.0
 20
0.0
 30
0.0
  9
$PUCSORGBACK
 10
0.0
 20
0.0
 30
0.0
  9
$USERI1
 70
     0
  9
$USERI2
 70
     0
  9
$USERI3
 70
     0
  9
$USERI4
 70
     0
  9
$USERI5
 70
     0
  9
$USERR1
 40
0.0
  9
$USERR2
 40
0.0
  9
$USERR3
 40
0.0
  9
$USERR4
 40
0.0
  9
$USERR5
 40
0.0
  9
$WORLDVIEW
 70
     1
  9
$SHADEDGE
 70
     3
  9
$SHADEDIF
 70
    70
  9
$TILEMODE
 70
     1
  9
$MAXACTVP
 70
    64
  9
$PINSBASE
 10
0.0
 20
0.0
 30
0.0
  9
$PLIMCHECK
 70
     0
  9
$PEXTMIN
 10
1.000000000000000E+20
 20
1.000000000000000E+20
 30
1.000000000000000E+20
  9
$PEXTMAX
 10
-1.000000000000000E+20
 20
-1.000000000000000E+20
 30
-1.000000000000000E+20
  9
$PLIMMIN
 10
0.0
 20
0.0
  9
$PLIMMAX
 10
12.0
 20
9.0
  9
$UNITMODE
 70
     0
  9
$VISRETAIN
 70
     1
  9
$PLINEGEN
 70
     0
  9
$PSLTSCALE
 70
     1
  9
$TREEDEPTH
 70
  3020
  9
$CMLSTYLE
  2
Standard
  9
$CMLJUST
 70
     0
  9
$CMLSCALE
 40
1.0
  9
$PROXYGRAPHICS
 70
     1
  9
$MEASUREMENT
 70
     0
  9
$CELWEIGHT
370
    -1
  9
$ENDCAPS
280
     0
  9
$JOINSTYLE
280
     0
  9
$LWDISPLAY
290
     1
  9
$INSUNITS
 70
     1
  9
$HYPERLINKBASE
  1

  9
$STYLESHEET
  1

  9
$XEDIT
290
     0
  9
$CEPSNTYPE
380
     0
  9
$PSTYLEMODE
290
     1
  9
$FINGERPRINTGUID
  2
{0c715bd8-7a4a-46f8-a4ba-83addd4df8c7}
  9
$VERSIONGUID
  2
{FAEB1C32-E019-11D5-929B-00C0DF256EC4}
  9
$EXTNAMES
290
     1
  9
$PSVPSCALE
 40
0.0
  9
$OLESTARTUP
290
     0
  9
$SORTENTS
280
   127
  9
$INDEXCTL
280
     0
  9
$HIDETEXT
280
     1
  9
$XCLIPFRAME
290
     0
  9
$HALOGAP
280
     0
  9
$OBSCOLOR
 70
   257
  9
$OBSLTYPE
280
     0
  9
$INTERSECTIONDISPLAY
280
     0
  9
$INTERSECTIONCOLOR
 70
   257
  9
$DIMASSOC
280
     2
  9
$PROJECTNAME
  1

  0
ENDSEC
  0
SECTION
  2
CLASSES
  0
CLASS
  1
ACDBDICTIONARYWDFLT
  2
AcDbDictionaryWithDefault
  3
ObjectDBX Classes
 90
        0
 91
        3
280
     0
281
     0
  0
CLASS
  1
ACDBPLACEHOLDER
  2
AcDbPlaceHolder
  3
ObjectDBX Classes
 90
        0
 91
        1
280
     0
281
     0
  0
CLASS
  1
LAYOUT
  2
AcDbLayout
  3
ObjectDBX Classes
 90
        0
 91
        1
280
     0
281
     0
  0
CLASS
  1
DICTIONARYVAR
  2
AcDbDictionaryVar
  3
ObjectDBX Classes
 90
        0
 91
        3
280
     0
281
     0
  0
CLASS
  1
TABLESTYLE
  2
AcDbTableStyle
  3
ObjectDBX Classes
 90
     2047
 91
        3
280
     0
281
     0
  0
CLASS
  1
SCALE
  2
AcDbScale
  3
ObjectDBX Classes
 90
     1153
 91
       67
280
     1
281
     0
  0
ENDSEC
  0
SECTION
  2
TABLES
  0
TABLE
  2
VPORT
  5
8
330
0
100
AcDbSymbolTable
 70
     2
  0
VPORT
  5
97
330
8
100
AcDbSymbolTableRecord
100
AcDbViewportTableRecord
  2
*Active
 70
     0
 10
0.0
 20
0.0
 11
1.0
 21
1.0
 12
40.18750000000001
 22
30.0
 13
0.0
 23
0.0
 14
0.5
 24
0.5
 15
0.5
 25
0.5
 16
0.0
 26
0.0
 36
1.0
 17
0.0
 27
0.0
 37
0.0
 40
60.86267716535433
 41
1.339583333333333
 42
50.0
 43
0.0
 44
0.0
 50
0.0
 51
0.0
 71
    16
 72
  2000
 73
     1
 74
     1
 75
     0
 76
     0
 77
     0
 78
     0
281
     0
 65
     0
110
0.0
120
0.0
130
0.0
111
1.0
121
0.0
131
0.0
112
0.0
122
1.0
132
0.0
 79
     0
146
0.0
  0
ENDTAB
  0
TABLE
  2
LTYPE
  5
5
330
0
100
AcDbSymbolTable
 70
     8
  0
LTYPE
  5
14
330
5
100
AcDbSymbolTableRecord
100
AcDbLinetypeTableRecord
  2
ByBlock
 70
     0
  3

 72
    65
 73
     0
 40
0.0
  0
LTYPE
  5
15
330
5
100
AcDbSymbolTableRecord
100
AcDbLinetypeTableRecord
  2
ByLayer
 70
     0
  3

 72
    65
 73
     0
 40
0.0
  0
LTYPE
  5
16
330
5
100
AcDbSymbolTableRecord
100
AcDbLinetypeTableRecord
  2
Continuous
 70
     0
  3
Solid line
 72
    65
 73
     0
 40
0.0
  0
LTYPE
  5
63E
330
5
100
AcDbSymbolTableRecord
100
AcDbLinetypeTableRecord
  2
SLD-Solid
 70
     0
  3
SolidWorks Line Style
 72
    65
 73
     0
 40
0.0
  0
LTYPE
  5
63F
330
5
100
AcDbSymbolTableRecord
100
AcDbLinetypeTableRecord
  2
SLD-Dashed
 70
     0
  3
SolidWorks Line Style
 72
    65
 73
     2
 40
0.075
 49
0.05
 74
     4
 75
     0
340
0
 46
1.0
 50
0.0
 44
0.0
 45
0.0
 49
-0.025
 74
     4
 75
     0
340
0
 46
1.0
 50
0.0
 44
0.0
 45
0.0
  0
LTYPE
  5
640
330
5
100
AcDbSymbolTableRecord
100
AcDbLinetypeTableRecord
  2
SLD-Phantom
 70
     0
  3
SolidWorks Line Style
 72
    65
 73
     6
 40
0.4999999999999999
 49
0.25
 74
     4
 75
     0
340
0
 46
1.0
 50
0.0
 44
0.0
 45
0.0
 49
-0.05
 74
     4
 75
     0
340
0
 46
1.0
 50
0.0
 44
0.0
 45
0.0
 49
0.05
 74
     4
 75
     0
340
0
 46
1.0
 50
0.0
 44
0.0
 45
0.0
 49
-0.05
 74
     4
 75
     0
340
0
 46
1.0
 50
0.0
 44
0.0
 45
0.0
 49
0.05
 74
     4
 75
     0
340
0
 46
1.0
 50
0.0
 44
0.0
 45
0.0
 49
-0.05
 74
     4
 75
     0
340
0
 46
1.0
 50
0.0
 44
0.0
 45
0.0
  0
LTYPE
  5
641
330
5
100
AcDbSymbolTableRecord
100
AcDbLinetypeTableRecord
  2
SLD-Chain
 70
     0
  3
SolidWorks Line Style
 72
    65
 73
     4
 40
0.4
 49
0.25
 74
     4
 75
     0
340
0
 46
1.0
 50
0.0
 44
0.0
 45
0.0
 49
-0.05
 74
     4
 75
     0
340
0
 46
1.0
 50
0.0
 44
0.0
 45
0.0
 49
0.05
 74
     4
 75
     0
340
0
 46
1.0
 50
0.0
 44
0.0
 45
0.0
 49
-0.05
 74
     4
 75
     0
340
0
 46
1.0
 50
0.0
 44
0.0
 45
0.0
  0
LTYPE
  5
642
330
5
100
AcDbSymbolTableRecord
100
AcDbLinetypeTableRecord
  2
SLD-Center
 70
     0
  3
SolidWorks Line Style
 72
    65
 73
     4
 40
0.7500000000000002
 49
0.6000000000000001
 74
     4
 75
     0
340
0
 46
1.0
 50
0.0
 44
0.0
 45
0.0
 49
-0.05
 74
     4
 75
     0
340
0
 46
1.0
 50
0.0
 44
0.0
 45
0.0
 49
0.05
 74
     4
 75
     0
340
0
 46
1.0
 50
0.0
 44
0.0
 45
0.0
 49
-0.05
 74
     4
 75
     0
340
0
 46
1.0
 50
0.0
 44
0.0
 45
0.0
  0
LTYPE
  5
643
330
5
100
AcDbSymbolTableRecord
100
AcDbLinetypeTableRecord
  2
SLD-Stitch
 70
     0
  3
SolidWorks Line Style
 72
    65
 73
     2
 40
0.025
 49
0.0
 74
     4
 75
     0
340
0
 46
1.0
 50
0.0
 44
0.0
 45
0.0
 49
-0.025
 74
     4
 75
     0
340
0
 46
1.0
 50
0.0
 44
0.0
 45
0.0
  0
LTYPE
  5
644
330
5
100
AcDbSymbolTableRecord
100
AcDbLinetypeTableRecord
  2
SLD-Thin-Thick-Chain
 70
     0
  3
SolidWorks Line Style
 72
    65
 73
     4
 40
0.4
 49
0.25
 74
     4
 75
     0
340
0
 46
1.0
 50
0.0
 44
0.0
 45
0.0
 49
-0.05
 74
     4
 75
     0
340
0
 46
1.0
 50
0.0
 44
0.0
 45
0.0
 49
0.05
 74
     4
 75
     0
340
0
 46
1.0
 50
0.0
 44
0.0
 45
0.0
 49
-0.05
 74
     4
 75
     0
340
0
 46
1.0
 50
0.0
 44
0.0
 45
0.0
  0
ENDTAB
  0
TABLE
  2
LAYER
  5
2
330
0
100
AcDbSymbolTable
 70
     6
  0
LAYER
  5
10
330
2
100
AcDbSymbolTableRecord
100
AcDbLayerTableRecord
  2
0
 70
     0
 62
     7
  6
Continuous
370
    -3
390
F
  0
LAYER
  5
645
330
2
100
AcDbSymbolTableRecord
100
AcDbLayerTableRecord
  2
FORMAT
 70
     0
 62
     7
  6
SLD-Solid
370
    -3
390
F
  0
LAYER
  5
646
330
2
100
AcDbSymbolTableRecord
100
AcDbLayerTableRecord
  2
NOTES
 70
     0
 62
     1
  6
SLD-Solid
370
    -3
390
F
  0
LAYER
  5
77
330
2
100
AcDbSymbolTableRecord
100
AcDbLayerTableRecord
  2
OBJECT
 70
     0
 62
     7
  6
SLD-Solid
370
    -3
390
F
  0
LAYER
  5
78
330
2
100
AcDbSymbolTableRecord
100
AcDbLayerTableRecord
  2
DIMS
 70
     0
 62
     5
  6
SLD-Solid
370
    -3
390
F
  0
LAYER
  5
79
330
2
100
AcDbSymbolTableRecord
100
AcDbLayerTableRecord
  2
TITLE
 70
     0
 62
     8
  6
SLD-Solid
370
    -3
390
F
  0
ENDTAB
  0
TABLE
  2
STYLE
  5
3
330
0
100
AcDbSymbolTable
 70
     5
  0
STYLE
  5
11
330
3
100
AcDbSymbolTableRecord
100
AcDbTextStyleTableRecord
  2
Standard
 70
     0
 40
0.0
 41
1.0
 50
0.0
 71
     0
 42
0.7500000000000001
  3
GOTHIC.TTF
  4

1001
ACAD
1000
CENTURY GOTHIC
1071
       34
  0
STYLE
  5
11D
330
3
100
AcDbSymbolTableRecord
100
AcDbTextStyleTableRecord
  2
SLDTEXTSTYLE0
 70
     0
 40
0.0
 41
0.948
 50
0.0
 71
     0
 42
0.7500000000000001
  3
ARIAL.TTF
  4

1001
ACAD
1000
Arial
1071
      290
  0
STYLE
  5
121
330
3
100
AcDbSymbolTableRecord
100
AcDbTextStyleTableRecord
  2
SLDTEXTSTYLE1
 70
     0
 40
0.0
 41
0.913
 50
0.0
 71
     0
 42
0.7500000000000001
  3
GOTHIC.TTF
  4

1001
ACAD
1000
Century Gothic
1071
      290
  0
STYLE
  5
130
330
3
100
AcDbSymbolTableRecord
100
AcDbTextStyleTableRecord
  2
SLDTEXTSTYLE2
 70
     0
 40
0.0
 41
0.87
 50
0.0
 71
     0
 42
0.7500000000000001
  3
ARIALNB.TTF
  4

1001
ACAD
1000
Arial Narrow
1071
 33554722
  0
STYLE
  5
132
330
3
100
AcDbSymbolTableRecord
100
AcDbTextStyleTableRecord
  2
SLDTEXTSTYLE3
 70
     0
 40
0.0
 41
0.87
 50
0.0
 71
     0
 42
0.7500000000000001
  3
ARIALN.TTF
  4

1001
ACAD
1000
Arial Narrow
1071
      290
  0
ENDTAB
  0
TABLE
  2
VIEW
  5
6
330
0
100
AcDbSymbolTable
 70
     0
  0
ENDTAB
  0
TABLE
  2
UCS
  5
7
330
0
100
AcDbSymbolTable
 70
     0
  0
ENDTAB
  0
TABLE
  2
APPID
  5
9
330
0
100
AcDbSymbolTable
 70
     1
  0
APPID
  5
12
330
9
100
AcDbSymbolTableRecord
100
AcDbRegAppTableRecord
  2
ACAD
 70
     0
  0
ENDTAB
  0
TABLE
  2
DIMSTYLE
  5
A
330
0
100
AcDbSymbolTable
 70
     6
100
AcDbDimStyleTable
  0
DIMSTYLE
105
27
330
A
100
AcDbSymbolTableRecord
100
AcDbDimStyleTableRecord
  2
Standard
 70
     0
340
11
  0
DIMSTYLE
105
242
102
{ACAD_REACTORS
330
241
102
}
330
A
100
AcDbSymbolTableRecord
100
AcDbDimStyleTableRecord
  2
SLDDIMSTYLE0
 70
     0
 41
0.7500000000000001
 44
0.0
 45
0.000000001
 78
    12
 79
     3
140
0.7500000000000001
147
0.1875
173
     1
271
     2
272
     2
276
     2
277
     5
284
    12
340
121
341
647
343
647
344
647
  0
DIMSTYLE
105
255
102
{ACAD_REACTORS
330
254
330
4EF
330
4FE
102
}
330
A
100
AcDbSymbolTableRecord
100
AcDbDimStyleTableRecord
  2
SLDDIMSTYLE1
 70
     0
 41
0.7500000000000001
 44
0.0
 45
0.000000001
 78
    12
 79
     3
140
0.7500000000000001
147
0.1875
173
     1
271
     6
272
     2
276
     2
277
     5
284
    12
340
121
341
647
343
647
344
647
  0
DIMSTYLE
105
265
102
{ACAD_REACTORS
330
264
330
2EC
330
50D
102
}
330
A
100
AcDbSymbolTableRecord
100
AcDbDimStyleTableRecord
  2
SLDDIMSTYLE2
 70
     0
 41
0.7500000000000001
 44
0.0
 45
0.000000001
 78
    12
 79
     3
140
0.7500000000000001
147
0.1875
172
     1
173
     1
271
     6
272
     2
276
     2
277
     5
284
    12
289
     0
340
121
341
647
343
647
344
647
  0
DIMSTYLE
105
275
330
A
100
AcDbSymbolTableRecord
100
AcDbDimStyleTableRecord
  2
SLDDIMSTYLE3
 70
     0
 41
0.7500000000000001
 44
0.0
 45
0.000000001
146
0.7500000000000001
147
0.0
173
     1
271
     0
272
     0
276
     2
277
     5
340
11
341
647
343
647
344
647
  0
DIMSTYLE
105
51D
102
{ACAD_REACTORS
330
51C
102
}
330
A
100
AcDbSymbolTableRecord
100
AcDbDimStyleTableRecord
  2
SLDDIMSTYLE4
 70
     0
 41
0.7500000000000001
 44
0.0
 45
0.000000001
 78
    12
 79
     3
140
0.7500000000000001
141
0.0
147
0.1875
173
     1
271
     2
272
     2
276
     2
277
     5
284
    12
340
121
341
647
343
647
344
647
  0
ENDTAB
  0
TABLE
  2
BLOCK_RECORD
  5
1
330
0
100
AcDbSymbolTable
 70
    15
  0
BLOCK_RECORD
  5
1F
330
1
100
AcDbSymbolTableRecord
100
AcDbBlockTableRecord
  2
*Model_Space
340
22
  0
BLOCK_RECORD
  5
73
330
1
100
AcDbSymbolTableRecord
100
AcDbBlockTableRecord
  2
*Paper_Space
340
74
  0
BLOCK_RECORD
  5
647
330
1
100
AcDbSymbolTableRecord
100
AcDbBlockTableRecord
  2
_Open90
340
0
102
{BLKREFS
331
24C
331
24D
331
259
331
25A
331
269
331
26A
331
2F0
331
2F1
331
4F3
331
4F4
331
502
331
503
331
511
331
512
331
521
102
}
  0
BLOCK_RECORD
  5
23
330
1
100
AcDbSymbolTableRecord
100
AcDbBlockTableRecord
  2
*Paper_Space1
340
26
  0
BLOCK_RECORD
  5
7A
330
1
100
AcDbSymbolTableRecord
100
AcDbBlockTableRecord
  2
Block1
340
0
102
{BLKREFS
331
240
102
}
  0
BLOCK_RECORD
  5
127
330
1
100
AcDbSymbolTableRecord
100
AcDbBlockTableRecord
  2
SW_NOTE_0
340
0
  0
BLOCK_RECORD
  5
12D
330
1
100
AcDbSymbolTableRecord
100
AcDbBlockTableRecord
  2
SW_NOTE_0_1
340
0
102
{BLKREFS
331
136
102
}
  0
BLOCK_RECORD
  5
249
330
1
100
AcDbSymbolTableRecord
100
AcDbBlockTableRecord
  2
_D
340
0
  0
BLOCK_RECORD
  5
256
330
1
100
AcDbSymbolTableRecord
100
AcDbBlockTableRecord
  2
_D_1
340
0
  0
BLOCK_RECORD
  5
266
330
1
100
AcDbSymbolTableRecord
100
AcDbBlockTableRecord
  2
_D_2
340
0
  0
BLOCK_RECORD
  5
2ED
330
1
100
AcDbSymbolTableRecord
100
AcDbBlockTableRecord
  2
_D_3
340
0
  0
BLOCK_RECORD
  5
3BA
330
1
100
AcDbSymbolTableRecord
100
AcDbBlockTableRecord
  2
SW_NOTE_0_2
340
0
102
{BLKREFS
331
3BF
102
}
  0
BLOCK_RECORD
  5
4F0
330
1
100
AcDbSymbolTableRecord
100
AcDbBlockTableRecord
  2
_D_4
340
0
  0
BLOCK_RECORD
  5
4FF
330
1
100
AcDbSymbolTableRecord
100
AcDbBlockTableRecord
  2
_D_5
340
0
  0
BLOCK_RECORD
  5
50E
330
1
100
AcDbSymbolTableRecord
100
AcDbBlockTableRecord
  2
_D_6
340
0
  0
BLOCK_RECORD
  5
51E
330
1
100
AcDbSymbolTableRecord
100
AcDbBlockTableRecord
  2
_D_7
340
0
  0
BLOCK_RECORD
  5
62F
330
1
100
AcDbSymbolTableRecord
100
AcDbBlockTableRecord
  2
SW_NOTE_0_3
340
0
102
{BLKREFS
331
634
102
}
  0
ENDTAB
  0
ENDSEC
  0
SECTION
  2
BLOCKS
  0
BLOCK
  5
20
330
1F
100
AcDbEntity
  8
0
100
AcDbBlockBegin
  2
*Model_Space
 70
     0
 71
     0
 10
0.0
 20
0.0
 30
0.0
  3
*Model_Space
  1

  0
ENDBLK
  5
21
330
1F
100
AcDbEntity
  8
0
100
AcDbBlockEnd
  0
BLOCK
  5
75
330
73
100
AcDbEntity
 67
     1
  8
0
100
AcDbBlockBegin
  2
*Paper_Space
 70
     0
 71
     0
 10
0.0
 20
0.0
 30
0.0
  3
*Paper_Space
  1

  0
ENDBLK
  5
76
330
73
100
AcDbEntity
 67
     1
  8
0
100
AcDbBlockEnd
  0
BLOCK
  5
648
330
647
100
AcDbEntity
  8
0
100
AcDbBlockBegin
  2
_Open90
 70
     0
 71
     0
 10
0.0
 20
0.0
 30
0.0
  3
_Open90
  1

  0
LINE
  5
246
330
647
100
AcDbEntity
  8
0
  6
ByBlock
 62
     0
370
    -2
100
AcDbLine
 10
-0.5
 20
0.5
 30
0.0
 11
0.0
 21
0.0
 31
0.0
  0
LINE
  5
247
330
647
100
AcDbEntity
  8
0
  6
ByBlock
 62
     0
370
    -2
100
AcDbLine
 10
0.0
 20
0.0
 30
0.0
 11
-0.5
 21
-0.5
 31
0.0
  0
LINE
  5
248
330
647
100
AcDbEntity
  8
0
  6
ByBlock
 62
     0
370
    -2
100
AcDbLine
 10
0.0
 20
0.0
 30
0.0
 11
-1.0
 21
0.0
 31
0.0
  0
ENDBLK
  5
649
330
647
100
AcDbEntity
  8
0
100
AcDbBlockEnd
  0
BLOCK
  5
650
330
23
100
AcDbEntity
  8
0
100
AcDbBlockBegin
  2
*Paper_Space1
 70
     0
 71
     0
 10
0.0
 20
0.0
 30
0.0
  3
*Paper_Space1
  1

  0
ENDBLK
  5
651
330
23
100
AcDbEntity
  8
0
100
AcDbBlockEnd
  0
BLOCK
  5
652
330
7A
100
AcDbEntity
  8
0
100
AcDbBlockBegin
  2
Block1
 70
     0
 71
     0
 10
0.0
 20
0.0
 30
0.0
  3
Block1
  1

  0
LINE
  5
7D
330
7A
100
AcDbEntity
  8
0
  6
SLD-Solid
 62
     7
370
    18
100
AcDbLine
 10
2.963089247949337
 20
20.08696744053173
 30
0.0
 11
2.963089247949337
 21
23.51741714461016
 31
0.0
  0
LINE
  5
7E
330
7A
100
AcDbEntity
  8
0
  6
SLD-Solid
 62
     7
370
    18
100
AcDbLine
 10
2.963089247949337
 20
23.51741714461016
 30
0.0
 11
7.071916310683577
 21
24.53386616546352
 31
0.0
  0
LINE
  5
7F
330
7A
100
AcDbEntity
  8
0
  6
SLD-Solid
 62
     7
370
    18
100
AcDbLine
 10
7.071916310683577
 20
24.53386616546352
 30
0.0
 11
-1.145737814784901
 21
25.89643666796373
 31
0.0
  0
LINE
  5
80
330
7A
100
AcDbEntity
  8
0
  6
SLD-Solid
 62
     7
370
    18
100
AcDbLine
 10
-1.145737814784901
 20
25.89643666796373
 30
0.0
 11
2.963089247949337
 21
26.80481700296388
 31
0.0
  0
LINE
  5
81
330
7A
100
AcDbEntity
  8
0
  6
SLD-Solid
 62
     7
370
    18
100
AcDbLine
 10
2.963089247949337
 20
26.80481700296388
 30
0.0
 11
2.963089247949337
 21
29.89331014196438
 31
0.0
  0
ENDBLK
  5
653
330
7A
100
AcDbEntity
  8
0
100
AcDbBlockEnd
  0
BLOCK
  5
654
330
127
100
AcDbEntity
  8
0
100
AcDbBlockBegin
  2
SW_NOTE_0
 70
     0
 71
     0
 10
0.0
 20
0.0
 30
0.0
  3
SW_NOTE_0
  1

  0
MTEXT
  5
12A
330
127
100
AcDbEntity
  8
NOTES
 62
     0
100
AcDbMText
 10
0.0
 20
0.3759780907668229
 30
0.0
 40
0.2916666666666666
 41
0.0
 71
     1
 72
     1
  1
FROST PRODUCTS LTD.
  7
SLDTEXTSTYLE0
 73
     1
 44
1.0
  0
MTEXT
  5
12B
330
127
100
AcDbEntity
  8
NOTES
 62
     0
100
AcDbMText
 10
0.0
 20
-0.0495142708586375
 30
0.0
 40
0.2291666666666666
 41
0.0
 71
     1
 72
     1
  1
5280 JOHN LUCUS DRIVE, BURLINGTON, ON, L7L 5Z9
  7
SLDTEXTSTYLE0
 73
     1
 44
1.0
  0
ENDBLK
  5
655
330
127
100
AcDbEntity
  8
0
100
AcDbBlockEnd
  0
BLOCK
  5
656
330
12D
100
AcDbEntity
  8
0
100
AcDbBlockBegin
  2
SW_NOTE_0_1
 70
     0
 71
     0
 10
0.0
 20
0.0
 30
0.0
  3
SW_NOTE_0_1
  1

  0
MTEXT
  5
131
330
12D
100
AcDbEntity
  8
NOTES
 62
     0
100
AcDbMText
 10
0.0
 20
0.2381282770514712
 30
0.0
 40
0.1847290640394089
 41
0.0
 71
     1
 72
     1
  1
PROPRIETARY AND CONFIDENTIAL
  7
SLDTEXTSTYLE2
 73
     1
 44
1.0
  0
MTEXT
  5
133
330
12D
100
AcDbEntity
  8
NOTES
 62
     0
100
AcDbMText
 10
0.0
 20
-0.0504364795553608
 30
0.0
 40
0.25
 41
0.0
 71
     1
 72
     1
  1
THE INFORMATION CONTAINED IN THIS DRAWING IS THE SOLE PROPERTY OF 
  7
SLDTEXTSTYLE3
 73
     1
 44
1.0
  0
MTEXT
  5
134
330
12D
100
AcDbEntity
  8
NOTES
 62
     0
100
AcDbMText
 10
0.0
 20
-0.4231398940537119
 30
0.0
 40
0.25
 41
0.0
 71
     1
 72
     1
  1
FROST PRODUCTS LTD.  ANY REPRODUCTION IN PART OR AS A WHOLE WITHOUT 
  7
SLDTEXTSTYLE3
 73
     1
 44
1.0
  0
MTEXT
  5
135
330
12D
100
AcDbEntity
  8
NOTES
 62
     0
100
AcDbMText
 10
0.0
 20
-0.7958433085520636
 30
0.0
 40
0.25
 41
0.0
 71
     1
 72
     1
  1
THE WRITTEN PERMISSION OF FROST PRODUCTS LTD. IS PROHIBITED.
  7
SLDTEXTSTYLE3
 73
     1
 44
1.0
  0
ENDBLK
  5
657
330
12D
100
AcDbEntity
  8
0
100
AcDbBlockEnd
  0
BLOCK
  5
658
330
249
100
AcDbEntity
  8
0
100
AcDbBlockBegin
  2
_D
 70
     0
 71
     0
 10
0.0
 20
0.0
 30
0.0
  3
_D
  1

  0
INSERT
  5
24C
330
249
100
AcDbEntity
  8
DIMS
100
AcDbBlockReference
  2
_Open90
 10
12.30527049173618
 20
24.09073854506248
 30
0.0
 41
0.7500000000000001
 42
0.7500000000000001
 50
89.99999999999945
  0
INSERT
  5
24D
330
249
100
AcDbEntity
  8
DIMS
100
AcDbBlockReference
  2
_Open90
 10
12.30527049173598
 20
12.09073854506232
 30
0.0
 41
0.7500000000000001
 42
0.7500000000000001
 50
269.9999999999995
  0
LINE
  5
24E
330
249
100
AcDbEntity
  8
DIMS
100
AcDbLine
 10
18.44304981214104
 20
24.09073854506238
 30
0.0
 11
11.93027049173618
 21
24.09073854506248
 31
0.0
  0
LINE
  5
24F
330
249
100
AcDbEntity
  8
DIMS
100
AcDbLine
 10
12.30527049173618
 20
24.09073854506248
 30
0.0
 11
12.30527049173607
 21
17.36900372121822
 31
0.0
  0
LINE
  5
250
330
249
100
AcDbEntity
  8
DIMS
100
AcDbLine
 10
12.30527049173598
 20
12.09073854506232
 30
0.0
 11
12.30527049173599
 21
12.60650372469125
 31
0.0
  0
MTEXT
  5
251
330
249
100
AcDbEntity
  8
DIMS
100
AcDbMText
 10
-22.08380061611334
 20
17.13638653458648
 30
0.0
 40
0.7500000000000001
 41
0.0
 71
     1
 72
     1
  1
                                                                                                                          48" (1220mm) Max. height to bottom of dispenser for unrestricted access
  7
SLDTEXTSTYLE1
 73
     1
 44
1.0
  0
MTEXT
  5
252
330
249
100
AcDbEntity
  8
DIMS
100
AcDbMText
 10
12.16672882468118
 20
14.75513653632299
 30
0.0
 40
0.7500000000000001
 41
0.0
 71
     1
 72
     1
  1
 
  7
SLDTEXTSTYLE1
 73
     1
 44
1.0
  0
MTEXT
  5
253
330
249
100
AcDbEntity
  8
DIMS
100
AcDbMText
 10
12.16672882468118
 20
13.56451153719125
 30
0.0
 40
0.7500000000000001
 41
0.0
 71
     1
 72
     1
  1
 
  7
SLDTEXTSTYLE1
 73
     1
 44
1.0
  0
ENDBLK
  5
659
330
249
100
AcDbEntity
  8
0
100
AcDbBlockEnd
  0
BLOCK
  5
65A
330
256
100
AcDbEntity
  8
0
100
AcDbBlockBegin
  2
_D_1
 70
     0
 71
     0
 10
0.0
 20
0.0
 30
0.0
  3
_D_1
  1

  0
INSERT
  5
259
330
256
100
AcDbEntity
  8
DIMS
100
AcDbBlockReference
  2
_Open90
 10
12.32467918678923
 20
42.35712342609905
 30
-0.2015639397791229
 41
0.7500000000000001
 42
0.7500000000000001
 50
90.00000000000098
  0
INSERT
  5
25A
330
256
100
AcDbEntity
  8
DIMS
100
AcDbBlockReference
  2
_Open90
 10
12.32467918678942
 20
24.09073854506232
 30
-0.2015639397791229
 41
0.7500000000000001
 42
0.7500000000000001
 50
270.000000000001
  0
LINE
  5
25B
330
256
100
AcDbEntity
  8
DIMS
100
AcDbLine
 10
12.33717922238786
 20
32.49946196309381
 30
0.0
 11
13.1111376148878
 21
32.49946196309381
 31
0.0
  0
LINE
  5
25C
330
256
100
AcDbEntity
  8
DIMS
100
AcDbLine
 10
18.00977157897156
 20
42.35712342609911
 30
0.0
 11
11.94967918678923
 21
42.35712342609905
 31
0.0
  0
LINE
  5
25D
330
256
100
AcDbEntity
  8
DIMS
100
AcDbLine
 10
18.44304981214104
 20
24.09073854506238
 30
0.0
 11
11.94967918678942
 21
24.09073854506231
 31
0.0
  0
LINE
  5
25E
330
256
100
AcDbEntity
  8
DIMS
100
AcDbLine
 10
12.32467918678923
 20
42.35712342609905
 30
0.0
 11
12.32467918678933
 21
33.40331615002644
 31
0.0
  0
LINE
  5
25F
330
256
100
AcDbEntity
  8
DIMS
100
AcDbLine
 10
12.32467918678942
 20
24.09073854506232
 30
0.0
 11
12.32467918678934
 21
31.44175354349841
 31
0.0
  0
MTEXT
  5
260
330
256
100
AcDbEntity
  8
DIMS
100
AcDbMText
 10
11.11895004214197
 20
32.84356354915759
 30
0.0
 40
0.7500000000000001
 41
0.0
 71
     1
 72
     1
  1
18
  7
SLDTEXTSTYLE1
 73
     1
 44
1.0
  0
MTEXT
  5
261
330
256
100
AcDbEntity
  8
DIMS
100
AcDbMText
 10
12.44707508452815
 20
33.39153228397601
 30
0.0
 40
0.7500000000000001
 41
0.0
 71
     1
 72
     1
  1
1
  7
SLDTEXTSTYLE1
 73
     1
 44
1.0
  0
MTEXT
  5
262
330
256
100
AcDbEntity
  8
DIMS
100
AcDbMText
 10
12.44707508452815
 20
32.39976141787268
 30
0.0
 40
0.7500000000000001
 41
0.0
 71
     1
 72
     1
  1
4
  7
SLDTEXTSTYLE1
 73
     1
 44
1.0
  0
MTEXT
  5
263
330
256
100
AcDbEntity
  8
DIMS
100
AcDbMText
 10
13.22103338536248
 20
32.84356354915759
 30
0.0
 40
0.7500000000000001
 41
0.0
 71
     1
 72
     1
  1
"
  7
SLDTEXTSTYLE1
 73
     1
 44
1.0
  0
ENDBLK
  5
65B
330
256
100
AcDbEntity
  8
0
100
AcDbBlockEnd
  0
BLOCK
  5
65C
330
266
100
AcDbEntity
  8
0
100
AcDbBlockBegin
  2
_D_2
 70
     0
 71
     0
 10
0.0
 20
0.0
 30
0.0
  3
_D_2
  1

  0
INSERT
  5
269
330
266
100
AcDbEntity
  8
DIMS
100
AcDbBlockReference
  2
_Open90
 10
17.89648273350516
 20
43.45948563082352
 30
-0.2015639397791229
 41
0.7500000000000001
 42
0.7500000000000001
 50
0.0000000000010178
  0
INSERT
  5
26A
330
266
100
AcDbEntity
  8
DIMS
100
AcDbBlockReference
  2
_Open90
 10
20.64639375714693
 20
43.45948563082356
 30
-0.2015639397791229
 41
0.7500000000000001
 42
0.7500000000000001
 50
180.0000000000011
  0
LINE
  5
26B
330
266
100
AcDbEntity
  8
DIMS
100
AcDbLine
 10
19.17074412807473
 20
43.53641274715493
 30
0.0
 11
19.94470252057467
 21
43.53641274715493
 31
0.0
  0
LINE
  5
26C
330
266
100
AcDbEntity
  8
DIMS
100
AcDbLine
 10
17.89648273350517
 20
42.46810885195378
 30
0.0
 11
17.89648273350516
 21
43.83448563082352
 31
0.0
  0
LINE
  5
26D
330
266
100
AcDbEntity
  8
DIMS
100
AcDbLine
 10
20.64639375714695
 20
42.46810885195382
 30
0.0
 11
20.64639375714693
 21
43.83448563082356
 31
0.0
  0
LINE
  5
26E
330
266
100
AcDbEntity
  8
DIMS
100
AcDbLine
 10
17.89648273350516
 20
43.45948563082352
 30
0.0
 11
16.45417504119747
 21
43.45948563082351
 31
0.0
  0
LINE
  5
26F
330
266
100
AcDbEntity
  8
DIMS
100
AcDbLine
 10
20.64639375714693
 20
43.45948563082356
 30
0.0
 11
22.08870144945462
 21
43.45948563082357
 31
0.0
  0
MTEXT
  5
270
330
266
100
AcDbEntity
  8
DIMS
100
AcDbMText
 10
18.5066816160482
 20
43.88051433321871
 30
0.0
 40
0.7500000000000001
 41
0.0
 71
     1
 72
     1
  1
2
  7
SLDTEXTSTYLE1
 73
     1
 44
1.0
  0
MTEXT
  5
271
330
266
100
AcDbEntity
  8
DIMS
100
AcDbMText
 10
19.28063999021502
 20
44.42848306803712
 30
0.0
 40
0.7500000000000001
 41
0.0
 71
     1
 72
     1
  1
3
  7
SLDTEXTSTYLE1
 73
     1
 44
1.0
  0
MTEXT
  5
272
330
266
100
AcDbEntity
  8
DIMS
100
AcDbMText
 10
19.28063999021502
 20
43.4367122019338
 30
0.0
 40
0.7500000000000001
 41
0.0
 71
     1
 72
     1
  1
4
  7
SLDTEXTSTYLE1
 73
     1
 44
1.0
  0
MTEXT
  5
273
330
266
100
AcDbEntity
  8
DIMS
100
AcDbMText
 10
20.05459840104808
 20
43.88051433321871
 30
0.0
 40
0.7500000000000001
 41
0.0
 71
     1
 72
     1
  1
"
  7
SLDTEXTSTYLE1
 73
     1
 44
1.0
  0
ENDBLK
  5
65D
330
266
100
AcDbEntity
  8
0
100
AcDbBlockEnd
  0
BLOCK
  5
65E
330
2ED
100
AcDbEntity
  8
0
100
AcDbBlockBegin
  2
_D_3
 70
     0
 71
     0
 10
0.0
 20
0.0
 30
0.0
  3
_D_3
  1

  0
INSERT
  5
2F0
330
2ED
100
AcDbEntity
  8
DIMS
100
AcDbBlockReference
  2
_Open90
 10
27.72668421207277
 20
43.45948563082356
 30
0.0472179897650023
 41
0.7500000000000001
 42
0.7500000000000001
 50
180.0000000000012
  0
INSERT
  5
2F1
330
2ED
100
AcDbEntity
  8
DIMS
100
AcDbBlockReference
  2
_Open90
 10
24.96315837810502
 20
43.45948563082353
 30
0.0472179897650023
 41
0.7500000000000001
 42
0.7500000000000001
 50
0.0000000000011959
  0
LINE
  5
2F2
330
2ED
100
AcDbEntity
  8
DIMS
100
AcDbLine
 10
26.08033794157839
 20
43.53641274715493
 30
0.0
 11
26.85429633407832
 21
43.53641274715493
 31
0.0
  0
LINE
  5
2F3
330
2ED
100
AcDbEntity
  8
DIMS
100
AcDbLine
 10
27.72668421207279
 20
42.52379009276581
 30
0.0
 11
27.72668421207277
 21
43.83448563082356
 31
0.0
  0
LINE
  5
2F4
330
2ED
100
AcDbEntity
  8
DIMS
100
AcDbLine
 10
24.96315837810504
 20
42.44088160534074
 30
0.0
 11
24.96315837810502
 21
43.83448563082353
 31
0.0
  0
LINE
  5
2F5
330
2ED
100
AcDbEntity
  8
DIMS
100
AcDbLine
 10
27.72668421207277
 20
43.45948563082356
 30
0.0
 11
29.16899190438047
 21
43.45948563082359
 31
0.0
  0
LINE
  5
2F6
330
2ED
100
AcDbEntity
  8
DIMS
100
AcDbLine
 10
24.96315837810502
 20
43.45948563082353
 30
0.0
 11
23.52085068579733
 21
43.45948563082352
 31
0.0
  0
MTEXT
  5
2F7
330
2ED
100
AcDbEntity
  8
DIMS
100
AcDbMText
 10
25.41627542955186
 20
43.88051433321872
 30
0.0
 40
0.7500000000000001
 41
0.0
 71
     1
 72
     1
  1
2
  7
SLDTEXTSTYLE1
 73
     1
 44
1.0
  0
MTEXT
  5
2F8
330
2ED
100
AcDbEntity
  8
DIMS
100
AcDbMText
 10
26.19023380371867
 20
44.42848306803713
 30
0.0
 40
0.7500000000000001
 41
0.0
 71
     1
 72
     1
  1
3
  7
SLDTEXTSTYLE1
 73
     1
 44
1.0
  0
MTEXT
  5
2F9
330
2ED
100
AcDbEntity
  8
DIMS
100
AcDbMText
 10
26.19023380371867
 20
43.43671220193381
 30
0.0
 40
0.7500000000000001
 41
0.0
 71
     1
 72
     1
  1
4
  7
SLDTEXTSTYLE1
 73
     1
 44
1.0
  0
MTEXT
  5
2FA
330
2ED
100
AcDbEntity
  8
DIMS
100
AcDbMText
 10
26.96419221455173
 20
43.88051433321872
 30
0.0
 40
0.7500000000000001
 41
0.0
 71
     1
 72
     1
  1
"
  7
SLDTEXTSTYLE1
 73
     1
 44
1.0
  0
ENDBLK
  5
65F
330
2ED
100
AcDbEntity
  8
0
100
AcDbBlockEnd
  0
BLOCK
  5
660
330
3BA
100
AcDbEntity
  8
0
100
AcDbBlockBegin
  2
SW_NOTE_0_2
 70
     0
 71
     0
 10
0.0
 20
0.0
 30
0.0
  3
SW_NOTE_0_2
  1

  0
MTEXT
  5
3BD
330
3BA
100
AcDbEntity
  8
NOTES
 62
     0
100
AcDbMText
 10
0.0
 20
0.9580078125000017
 30
0.0
 40
0.7500000000000001
 41
0.0
 71
     1
 72
     1
  1
3D view
  7
SLDTEXTSTYLE1
 73
     1
 44
1.0
  0
MTEXT
  5
3BE
330
3BA
100
AcDbEntity
  8
NOTES
 62
     0
100
AcDbMText
 10
0.0
 20
-0.2919922273928708
 30
0.0
 40
0.7500000000000001
 41
0.0
 71
     1
 72
     1
  1
Code 185
  7
SLDTEXTSTYLE1
 73
     1
 44
1.0
  0
ENDBLK
  5
661
330
3BA
100
AcDbEntity
  8
0
100
AcDbBlockEnd
  0
BLOCK
  5
662
330
4F0
100
AcDbEntity
  8
0
100
AcDbBlockBegin
  2
_D_4
 70
     0
 71
     0
 10
0.0
 20
0.0
 30
0.0
  3
_D_4
  1

  0
INSERT
  5
4F3
330
4F0
100
AcDbEntity
  8
DIMS
100
AcDbBlockReference
  2
_Open90
 10
37.951834528472
 20
43.45948563082351
 30
0.2015639397791225
 41
0.7500000000000001
 42
0.7500000000000001
 50
359.9999999999996
  0
INSERT
  5
4F4
330
4F0
100
AcDbEntity
  8
DIMS
100
AcDbBlockReference
  2
_Open90
 10
36.20183452847201
 20
43.45948563082353
 30
0.2015639397791225
 41
0.7500000000000001
 42
0.7500000000000001
 50
179.9999999999995
  0
LINE
  5
4F5
330
4F0
100
AcDbEntity
  8
DIMS
100
AcDbLine
 10
34.05672029103526
 20
43.53641274715495
 30
0.0
 11
34.8306786835352
 21
43.53641274715495
 31
0.0
  0
LINE
  5
4F6
330
4F0
100
AcDbEntity
  8
DIMS
100
AcDbLine
 10
37.95183452847195
 20
39.77379009278549
 30
0.0
 11
37.95183452847201
 21
43.83448563082351
 31
0.0
  0
LINE
  5
4F7
330
4F0
100
AcDbEntity
  8
DIMS
100
AcDbLine
 10
36.20183452847195
 20
39.77379009278551
 30
0.0
 11
36.20183452847201
 21
43.83448563082353
 31
0.0
  0
LINE
  5
4F8
330
4F0
100
AcDbEntity
  8
DIMS
100
AcDbLine
 10
37.951834528472
 20
43.45948563082351
 30
0.0
 11
36.20183452847201
 21
43.45948563082353
 31
0.0
  0
LINE
  5
4F9
330
4F0
100
AcDbEntity
  8
DIMS
100
AcDbLine
 10
36.20183452847201
 20
43.45948563082353
 30
0.0
 11
35.24994951008283
 21
43.45948563082354
 31
0.0
  0
MTEXT
  5
4FA
330
4F0
100
AcDbEntity
  8
DIMS
100
AcDbMText
 10
33.39265777900873
 20
43.88051433321873
 30
0.0
 40
0.7500000000000001
 41
0.0
 71
     1
 72
     1
  1
1
  7
SLDTEXTSTYLE1
 73
     1
 44
1.0
  0
MTEXT
  5
4FB
330
4F0
100
AcDbEntity
  8
DIMS
100
AcDbMText
 10
34.16661615317555
 20
44.42848306803715
 30
0.0
 40
0.7500000000000001
 41
0.0
 71
     1
 72
     1
  1
3
  7
SLDTEXTSTYLE1
 73
     1
 44
1.0
  0
MTEXT
  5
4FC
330
4F0
100
AcDbEntity
  8
DIMS
100
AcDbMText
 10
34.16661615317555
 20
43.43671220193382
 30
0.0
 40
0.7500000000000001
 41
0.0
 71
     1
 72
     1
  1
4
  7
SLDTEXTSTYLE1
 73
     1
 44
1.0
  0
MTEXT
  5
4FD
330
4F0
100
AcDbEntity
  8
DIMS
100
AcDbMText
 10
34.94057456400861
 20
43.88051433321873
 30
0.0
 40
0.7500000000000001
 41
0.0
 71
     1
 72
     1
  1
"
  7
SLDTEXTSTYLE1
 73
     1
 44
1.0
  0
ENDBLK
  5
663
330
4F0
100
AcDbEntity
  8
0
100
AcDbBlockEnd
  0
BLOCK
  5
664
330
4FF
100
AcDbEntity
  8
0
100
AcDbBlockBegin
  2
_D_5
 70
     0
 71
     0
 10
0.0
 20
0.0
 30
0.0
  3
_D_5
  1

  0
INSERT
  5
502
330
4FF
100
AcDbEntity
  8
DIMS
100
AcDbBlockReference
  2
_Open90
 10
34.32130364454582
 20
39.60712342611885
 30
0.2015639397791225
 41
0.7500000000000001
 42
0.7500000000000001
 50
90.00000000000011
  0
INSERT
  5
503
330
4FF
100
AcDbEntity
  8
DIMS
100
AcDbBlockReference
  2
_Open90
 10
34.32130364454576
 20
26.85712342611884
 30
0.2015639397791225
 41
0.7500000000000001
 42
0.7500000000000001
 50
270.0000000000001
  0
LINE
  5
504
330
4FF
100
AcDbEntity
  8
DIMS
100
AcDbLine
 10
34.33380368014431
 20
33.30905054245021
 30
0.0
 11
35.10776207264425
 21
33.30905054245021
 31
0.0
  0
LINE
  5
505
330
4FF
100
AcDbEntity
  8
DIMS
100
AcDbLine
 10
36.03516786180528
 20
39.60712342611885
 30
0.0
 11
33.94630364454582
 21
39.60712342611885
 31
0.0
  0
LINE
  5
506
330
4FF
100
AcDbEntity
  8
DIMS
100
AcDbLine
 10
36.03516786180521
 20
26.85712342611884
 30
0.0
 11
33.94630364454576
 21
26.85712342611884
 31
0.0
  0
LINE
  5
507
330
4FF
100
AcDbEntity
  8
DIMS
100
AcDbLine
 10
34.32130364454582
 20
39.60712342611885
 30
0.0
 11
34.3213036445458
 21
34.21290472938284
 31
0.0
  0
LINE
  5
508
330
4FF
100
AcDbEntity
  8
DIMS
100
AcDbLine
 10
34.32130364454576
 20
26.85712342611884
 30
0.0
 11
34.32130364454578
 21
32.25134212285481
 31
0.0
  0
MTEXT
  5
509
330
4FF
100
AcDbEntity
  8
DIMS
100
AcDbMText
 10
33.11557449989842
 20
33.65315212851399
 30
0.0
 40
0.7500000000000001
 41
0.0
 71
     1
 72
     1
  1
12
  7
SLDTEXTSTYLE1
 73
     1
 44
1.0
  0
MTEXT
  5
50A
330
4FF
100
AcDbEntity
  8
DIMS
100
AcDbMText
 10
34.44369954228461
 20
34.20112086333241
 30
0.0
 40
0.7500000000000001
 41
0.0
 71
     1
 72
     1
  1
3
  7
SLDTEXTSTYLE1
 73
     1
 44
1.0
  0
MTEXT
  5
50B
330
4FF
100
AcDbEntity
  8
DIMS
100
AcDbMText
 10
34.44369954228461
 20
33.20934999722908
 30
0.0
 40
0.7500000000000001
 41
0.0
 71
     1
 72
     1
  1
4
  7
SLDTEXTSTYLE1
 73
     1
 44
1.0
  0
MTEXT
  5
50C
330
4FF
100
AcDbEntity
  8
DIMS
100
AcDbMText
 10
35.21765784311894
 20
33.65315212851399
 30
0.0
 40
0.7500000000000001
 41
0.0
 71
     1
 72
     1
  1
"
  7
SLDTEXTSTYLE1
 73
     1
 44
1.0
  0
ENDBLK
  5
665
330
4FF
100
AcDbEntity
  8
0
100
AcDbBlockEnd
  0
BLOCK
  5
666
330
50E
100
AcDbEntity
  8
0
100
AcDbBlockBegin
  2
_D_6
 70
     0
 71
     0
 10
0.0
 20
0.0
 30
0.0
  3
_D_6
  1

  0
INSERT
  5
511
330
50E
100
AcDbEntity
  8
DIMS
100
AcDbBlockReference
  2
_Open90
 10
34.32130364454585
 20
26.8571234261188
 30
0.2015639397791225
 41
0.7500000000000001
 42
0.7500000000000001
 50
270.0000000000014
  0
INSERT
  5
512
330
50E
100
AcDbEntity
  8
DIMS
100
AcDbBlockReference
  2
_Open90
 10
34.32130364454589
 20
24.09073854506232
 30
0.2015639397791225
 41
0.7500000000000001
 42
0.7500000000000001
 50
90.00000000000135
  0
LINE
  5
513
330
50E
100
AcDbEntity
  8
DIMS
100
AcDbLine
 10
34.05672029103535
 20
25.52394585495943
 30
0.0
 11
34.83067868353528
 21
25.52394585495943
 31
0.0
  0
LINE
  5
514
330
50E
100
AcDbEntity
  8
DIMS
100
AcDbLine
 10
36.03516786180521
 20
26.85712342611883
 30
0.0
 11
33.94630364454585
 21
26.8571234261188
 31
0.0
  0
LINE
  5
515
330
50E
100
AcDbEntity
  8
DIMS
100
AcDbLine
 10
36.24844609530358
 20
24.09073854506235
 30
0.0
 11
33.94630364454589
 21
24.09073854506232
 31
0.0
  0
LINE
  5
516
330
50E
100
AcDbEntity
  8
DIMS
100
AcDbLine
 10
34.32130364454585
 20
26.8571234261188
 30
0.0
 11
34.32130364454583
 21
28.2994311184265
 31
0.0
  0
LINE
  5
517
330
50E
100
AcDbEntity
  8
DIMS
100
AcDbLine
 10
34.32130364454589
 20
24.09073854506232
 30
0.0
 11
34.32130364454591
 21
22.64843085275463
 31
0.0
  0
MTEXT
  5
518
330
50E
100
AcDbEntity
  8
DIMS
100
AcDbMText
 10
33.39265777900882
 20
25.86804744102322
 30
0.0
 40
0.7500000000000001
 41
0.0
 71
     1
 72
     1
  1
2
  7
SLDTEXTSTYLE1
 73
     1
 44
1.0
  0
MTEXT
  5
519
330
50E
100
AcDbEntity
  8
DIMS
100
AcDbMText
 10
34.16661615317564
 20
26.41601617584163
 30
0.0
 40
0.7500000000000001
 41
0.0
 71
     1
 72
     1
  1
3
  7
SLDTEXTSTYLE1
 73
     1
 44
1.0
  0
MTEXT
  5
51A
330
50E
100
AcDbEntity
  8
DIMS
100
AcDbMText
 10
34.16661615317564
 20
25.42424530973831
 30
0.0
 40
0.7500000000000001
 41
0.0
 71
     1
 72
     1
  1
4
  7
SLDTEXTSTYLE1
 73
     1
 44
1.0
  0
MTEXT
  5
51B
330
50E
100
AcDbEntity
  8
DIMS
100
AcDbMText
 10
34.9405745640087
 20
25.86804744102322
 30
0.0
 40
0.7500000000000001
 41
0.0
 71
     1
 72
     1
  1
"
  7
SLDTEXTSTYLE1
 73
     1
 44
1.0
  0
ENDBLK
  5
667
330
50E
100
AcDbEntity
  8
0
100
AcDbBlockEnd
  0
BLOCK
  5
668
330
51E
100
AcDbEntity
  8
0
100
AcDbBlockBegin
  2
_D_7
 70
     0
 71
     0
 10
0.0
 20
0.0
 30
0.0
  3
_D_7
  1

  0
INSERT
  5
521
330
51E
100
AcDbEntity
  8
DIMS
100
AcDbBlockReference
  2
_Open90
 10
37.99858452847194
 20
39.68809680137267
 30
0.2015639397791228
 41
0.7500000000000001
 42
0.7500000000000001
 50
240.0000000000015
  0
LINE
  5
522
330
51E
100
AcDbEntity
  8
DIMS
100
AcDbLine
 10
40.74149510959911
 20
41.93341465718046
 30
0.0
 11
42.06962020698465
 21
41.93341465718046
 31
0.0
  0
LINE
  5
523
330
51E
100
AcDbEntity
  8
DIMS
100
AcDbLine
 10
37.99858452847194
 20
39.68809680137267
 30
0.0
 11
39.25050550561691
 21
41.85648754084907
 31
0.0
  0
LINE
  5
524
330
51E
100
AcDbEntity
  8
DIMS
100
AcDbLine
 10
39.25050550561691
 20
41.85648754084907
 30
0.0
 11
39.50050550561691
 21
41.85648754084907
 31
0.0
  0
MTEXT
  5
525
330
51E
100
AcDbEntity
  8
DIMS
100
AcDbMText
 10
39.50050550561691
 20
42.26605791394517
 30
0.0
 40
0.7500000000000001
 41
0.0
 71
     1
 72
     1
  1
%%c
  7
SLDTEXTSTYLE1
 73
     1
 44
1.0
  0
MTEXT
  5
526
330
51E
100
AcDbEntity
  8
DIMS
100
AcDbMText
 10
41.1284743241822
 20
42.82548497806265
 30
0.0
 40
0.7500000000000001
 41
0.0
 71
     1
 72
     1
  1
3
  7
SLDTEXTSTYLE1
 73
     1
 44
1.0
  0
MTEXT
  5
527
330
51E
100
AcDbEntity
  8
DIMS
100
AcDbMText
 10
40.85139099007252
 20
41.83371411195933
 30
0.0
 40
0.7500000000000001
 41
0.0
 71
     1
 72
     1
  1
16
  7
SLDTEXTSTYLE1
 73
     1
 44
1.0
  0
MTEXT
  5
528
330
51E
100
AcDbEntity
  8
DIMS
100
AcDbMText
 10
42.17951605079182
 20
42.27751624324424
 30
0.0
 40
0.7500000000000001
 41
0.0
 71
     1
 72
     1
  1
"
  7
SLDTEXTSTYLE1
 73
     1
 44
1.0
  0
ENDBLK
  5
669
330
51E
100
AcDbEntity
  8
0
100
AcDbBlockEnd
  0
BLOCK
  5
66A
330
62F
100
AcDbEntity
  8
0
100
AcDbBlockBegin
  2
SW_NOTE_0_3
 70
     0
 71
     0
 10
0.0
 20
0.0
 30
0.0
  3
SW_NOTE_0_3
  1

  0
MTEXT
  5
632
330
62F
100
AcDbEntity
  8
NOTES
 62
     0
100
AcDbMText
 10
0.0
 20
0.9580078125000017
 30
0.0
 40
0.7500000000000001
 41
0.0
 71
     1
 72
     1
  1
3D view - open
  7
SLDTEXTSTYLE1
 73
     1
 44
1.0
  0
MTEXT
  5
633
330
62F
100
AcDbEntity
  8
NOTES
 62
     0
100
AcDbMText
 10
0.0
 20
-0.2919922273928708
 30
0.0
 40
0.7500000000000001
 41
0.0
 71
     1
 72
     1
  1
Code 185
  7
SLDTEXTSTYLE1
 73
     1
 44
1.0
  0
ENDBLK
  5
66B
330
62F
100
AcDbEntity
  8
0
100
AcDbBlockEnd
  0
ENDSEC
  0
SECTION
  2
ENTITIES
  0
LINE
  5
82
330
1F
100
AcDbEntity
  8
TITLE
370
    50
100
AcDbLine
 10
62.89322302401259
 20
1.48761176446163
 30
0.0
 11
79.87498645119503
 21
1.48761176446163
 31
0.0
  0
LINE
  5
83
330
1F
100
AcDbEntity
  8
TITLE
370
    50
100
AcDbLine
 10
79.87493174424402
 20
5.475360393555786
 30
0.0
 11
69.68553507231782
 21
5.475360393555786
 31
0.0
  0
LINE
  5
84
330
1F
100
AcDbEntity
  8
TITLE
  6
SLD-Solid
370
    18
100
AcDbLine
 10
0.5
 20
0.5
 30
0.0
 11
0.5
 21
59.50000000000001
 31
0.0
  0
LINE
  5
85
330
1F
100
AcDbEntity
  8
TITLE
  6
SLD-Solid
370
    18
100
AcDbLine
 10
0.5
 20
59.50000000000001
 30
0.0
 11
79.875
 21
59.50000000000001
 31
0.0
  0
LINE
  5
86
330
1F
100
AcDbEntity
  8
TITLE
370
    50
100
AcDbLine
 10
62.89322302401259
 20
2.542787723103441
 30
0.0
 11
55.88097912026432
 21
2.54278772310344
 31
0.0
  0
LINE
  5
87
330
1F
100
AcDbEntity
  8
TITLE
370
    50
100
AcDbLine
 10
62.89322302401259
 20
1.48761176446163
 30
0.0
 11
55.88097912026432
 21
1.487611764461628
 31
0.0
  0
LINE
  5
88
330
1F
100
AcDbEntity
  8
TITLE
  6
SLD-Solid
370
    18
100
AcDbLine
 10
79.875
 20
59.50000000000001
 30
0.0
 11
79.875
 21
0.5
 31
0.0
  0
LINE
  5
89
330
1F
100
AcDbEntity
  8
TITLE
  6
SLD-Solid
370
    18
100
AcDbLine
 10
79.875
 20
0.5
 30
0.0
 11
0.5
 21
0.5
 31
0.0
  0
LINE
  5
8A
330
1F
100
AcDbEntity
  8
TITLE
370
    50
100
AcDbLine
 10
62.89322302401259
 20
1.48761176446163
 30
0.0
 11
62.89322302401259
 21
3.597963681745253
 31
0.0
  0
LINE
  5
8B
330
1F
100
AcDbEntity
  8
TITLE
370
    50
100
AcDbLine
 10
55.88097912026432
 20
3.597963681745253
 30
0.0
 11
55.88097912026432
 21
0.5
 31
0.0
  0
LINE
  5
8C
330
1F
100
AcDbEntity
  8
TITLE
370
    50
100
AcDbLine
 10
55.88097912026432
 20
0.5
 30
0.0
 11
79.875
 21
0.5
 31
0.0
  0
LINE
  5
8D
330
1F
100
AcDbEntity
  8
TITLE
370
    50
100
AcDbLine
 10
79.87493174424402
 20
5.475360393555786
 30
0.0
 11
79.875
 21
0.5
 31
0.0
  0
LINE
  5
8E
330
1F
100
AcDbEntity
  8
TITLE
  6
SLD-Solid
370
    18
100
AcDbLine
 10
0.4999606299212599
 20
30.0
 30
0.0
 11
0.5000393700787401
 21
30.0
 31
0.0
  0
LINE
  5
8F
330
1F
100
AcDbEntity
  8
TITLE
370
    50
100
AcDbLine
 10
62.89322302401259
 20
3.597963681745253
 30
0.0
 11
55.88097912026432
 21
3.597963681745253
 31
0.0
  0
LINE
  5
90
330
1F
100
AcDbEntity
  8
TITLE
370
    50
100
AcDbLine
 10
62.89322302401259
 20
3.597963681745253
 30
0.0
 11
79.87476156426074
 21
3.597964834324628
 31
0.0
  0
LINE
  5
91
330
1F
100
AcDbEntity
  8
TITLE
370
    50
100
AcDbLine
 10
69.68553507231782
 20
5.475360393555786
 30
0.0
 11
69.68553507231782
 21
0.4636772425222311
 31
0.0
  0
LINE
  5
66C
330
1F
100
AcDbEntity
  8
TITLE
  6
SLD-Solid
370
    18
100
AcDbLine
 10
40.1875
 20
59.50003937007875
 30
0.0
 11
40.1875
 21
59.49996062992127
 31
0.0
  0
LINE
  5
66D
330
1F
100
AcDbEntity
  8
TITLE
  6
SLD-Solid
370
    18
100
AcDbLine
 10
79.87503937007874
 20
30.0
 30
0.0
 11
79.87496062992125
 21
30.0
 31
0.0
  0
LINE
  5
94
330
1F
100
AcDbEntity
  8
TITLE
  6
SLD-Solid
370
    18
100
AcDbLine
 10
40.1875
 20
0.4999606299212599
 30
0.0
 11
40.1875
 21
0.5000393700787401
 31
0.0
  0
LINE
  5
95
330
1F
100
AcDbEntity
  8
TITLE
  6
SLD-Solid
370
    18
100
AcDbLine
 10
0.5
 20
2.440944881889762
 30
0.0
 11
0.1653543307086614
 21
2.440944881889762
 31
0.0
  0
LINE
  5
96
330
1F
100
AcDbEntity
  8
TITLE
  6
SLD-Solid
370
    18
100
AcDbLine
 10
79.875
 20
2.440944881889762
 30
0.0
 11
80.20964566929135
 21
2.440944881889762
 31
0.0
  0
LINE
  5
66E
330
1F
100
AcDbEntity
  8
TITLE
  6
SLD-Solid
370
    18
100
AcDbLine
 10
0.5
 20
4.409448818897637
 30
0.0
 11
0.1653543307086614
 21
4.409448818897637
 31
0.0
  0
LINE
  5
66F
330
1F
100
AcDbEntity
  8
TITLE
  6
SLD-Solid
370
    18
100
AcDbLine
 10
79.875
 20
4.409448818897637
 30
0.0
 11
80.20964566929135
 21
4.409448818897637
 31
0.0
  0
LINE
  5
99
330
1F
100
AcDbEntity
  8
TITLE
  6
SLD-Solid
370
    18
100
AcDbLine
 10
0.5
 20
6.377952755905508
 30
0.0
 11
0.1653543307086614
 21
6.377952755905508
 31
0.0
  0
LINE
  5
9A
330
1F
100
AcDbEntity
  8
TITLE
  6
SLD-Solid
370
    18
100
AcDbLine
 10
79.875
 20
6.377952755905508
 30
0.0
 11
80.20964566929135
 21
6.377952755905508
 31
0.0
  0
LINE
  5
9B
330
1F
100
AcDbEntity
  8
TITLE
  6
SLD-Solid
370
    18
100
AcDbLine
 10
0.5
 20
8.346456692913385
 30
0.0
 11
0.1653543307086614
 21
8.346456692913385
 31
0.0
  0
LINE
  5
9C
330
1F
100
AcDbEntity
  8
TITLE
  6
SLD-Solid
370
    18
100
AcDbLine
 10
79.875
 20
8.346456692913385
 30
0.0
 11
80.20964566929135
 21
8.346456692913385
 31
0.0
  0
LINE
  5
9D
330
1F
100
AcDbEntity
  8
TITLE
  6
SLD-Solid
370
    18
100
AcDbLine
 10
0.5
 20
10.31496062992126
 30
0.0
 11
0.1653543307086614
 21
10.31496062992126
 31
0.0
  0
LINE
  5
9E
330
1F
100
AcDbEntity
  8
TITLE
  6
SLD-Solid
370
    18
100
AcDbLine
 10
79.875
 20
10.31496062992126
 30
0.0
 11
80.20964566929135
 21
10.31496062992126
 31
0.0
  0
LINE
  5
9F
330
1F
100
AcDbEntity
  8
TITLE
  6
SLD-Solid
370
    18
100
AcDbLine
 10
0.5
 20
12.28346456692913
 30
0.0
 11
0.1653543307086614
 21
12.28346456692913
 31
0.0
  0
LINE
  5
A0
330
1F
100
AcDbEntity
  8
TITLE
  6
SLD-Solid
370
    18
100
AcDbLine
 10
79.875
 20
12.28346456692913
 30
0.0
 11
80.20964566929135
 21
12.28346456692913
 31
0.0
  0
LINE
  5
A1
330
1F
100
AcDbEntity
  8
TITLE
  6
SLD-Solid
370
    18
100
AcDbLine
 10
0.5
 20
14.25196850393701
 30
0.0
 11
0.1653543307086614
 21
14.25196850393701
 31
0.0
  0
LINE
  5
A2
330
1F
100
AcDbEntity
  8
TITLE
  6
SLD-Solid
370
    18
100
AcDbLine
 10
79.875
 20
14.25196850393701
 30
0.0
 11
80.20964566929135
 21
14.25196850393701
 31
0.0
  0
LINE
  5
A3
330
1F
100
AcDbEntity
  8
TITLE
  6
SLD-Solid
370
    18
100
AcDbLine
 10
0.5
 20
16.22047244094488
 30
0.0
 11
0.1653543307086614
 21
16.22047244094488
 31
0.0
  0
LINE
  5
A4
330
1F
100
AcDbEntity
  8
TITLE
  6
SLD-Solid
370
    18
100
AcDbLine
 10
79.875
 20
16.22047244094488
 30
0.0
 11
80.20964566929135
 21
16.22047244094488
 31
0.0
  0
LINE
  5
A5
330
1F
100
AcDbEntity
  8
TITLE
  6
SLD-Solid
370
    18
100
AcDbLine
 10
0.5
 20
18.18897637795276
 30
0.0
 11
0.1653543307086614
 21
18.18897637795276
 31
0.0
  0
LINE
  5
A6
330
1F
100
AcDbEntity
  8
TITLE
  6
SLD-Solid
370
    18
100
AcDbLine
 10
79.875
 20
18.18897637795276
 30
0.0
 11
80.20964566929135
 21
18.18897637795276
 31
0.0
  0
LINE
  5
A7
330
1F
100
AcDbEntity
  8
TITLE
  6
SLD-Solid
370
    18
100
AcDbLine
 10
0.5
 20
20.15748031496063
 30
0.0
 11
0.1653543307086614
 21
20.15748031496063
 31
0.0
  0
LINE
  5
A8
330
1F
100
AcDbEntity
  8
TITLE
  6
SLD-Solid
370
    18
100
AcDbLine
 10
79.875
 20
20.15748031496063
 30
0.0
 11
80.20964566929135
 21
20.15748031496063
 31
0.0
  0
LINE
  5
A9
330
1F
100
AcDbEntity
  8
TITLE
  6
SLD-Solid
370
    18
100
AcDbLine
 10
0.5
 20
22.12598425196851
 30
0.0
 11
0.1653543307086614
 21
22.12598425196851
 31
0.0
  0
LINE
  5
AA
330
1F
100
AcDbEntity
  8
TITLE
  6
SLD-Solid
370
    18
100
AcDbLine
 10
79.875
 20
22.12598425196851
 30
0.0
 11
80.20964566929135
 21
22.12598425196851
 31
0.0
  0
LINE
  5
AB
330
1F
100
AcDbEntity
  8
TITLE
  6
SLD-Solid
370
    18
100
AcDbLine
 10
0.5
 20
24.09448818897638
 30
0.0
 11
0.1653543307086614
 21
24.09448818897638
 31
0.0
  0
LINE
  5
AC
330
1F
100
AcDbEntity
  8
TITLE
  6
SLD-Solid
370
    18
100
AcDbLine
 10
79.875
 20
24.09448818897638
 30
0.0
 11
80.20964566929135
 21
24.09448818897638
 31
0.0
  0
LINE
  5
AD
330
1F
100
AcDbEntity
  8
TITLE
  6
SLD-Solid
370
    18
100
AcDbLine
 10
0.5
 20
26.06299212598426
 30
0.0
 11
0.1653543307086614
 21
26.06299212598426
 31
0.0
  0
LINE
  5
AE
330
1F
100
AcDbEntity
  8
TITLE
  6
SLD-Solid
370
    18
100
AcDbLine
 10
79.875
 20
26.06299212598426
 30
0.0
 11
80.20964566929135
 21
26.06299212598426
 31
0.0
  0
LINE
  5
AF
330
1F
100
AcDbEntity
  8
TITLE
  6
SLD-Solid
370
    18
100
AcDbLine
 10
0.5
 20
28.03149606299213
 30
0.0
 11
0.1653543307086614
 21
28.03149606299213
 31
0.0
  0
LINE
  5
B0
330
1F
100
AcDbEntity
  8
TITLE
  6
SLD-Solid
370
    18
100
AcDbLine
 10
79.875
 20
28.03149606299213
 30
0.0
 11
80.20964566929135
 21
28.03149606299213
 31
0.0
  0
LINE
  5
B1
330
1F
100
AcDbEntity
  8
TITLE
  6
SLD-Solid
370
    18
100
AcDbLine
 10
0.5
 20
30.0
 30
0.0
 11
0.1653543307086614
 21
30.0
 31
0.0
  0
LINE
  5
B2
330
1F
100
AcDbEntity
  8
TITLE
  6
SLD-Solid
370
    18
100
AcDbLine
 10
79.875
 20
30.0
 30
0.0
 11
80.20964566929135
 21
30.0
 31
0.0
  0
LINE
  5
B3
330
1F
100
AcDbEntity
  8
TITLE
  6
SLD-Solid
370
    18
100
AcDbLine
 10
0.5
 20
31.96850393700788
 30
0.0
 11
0.1653543307086614
 21
31.96850393700788
 31
0.0
  0
LINE
  5
B4
330
1F
100
AcDbEntity
  8
TITLE
  6
SLD-Solid
370
    18
100
AcDbLine
 10
79.875
 20
31.96850393700788
 30
0.0
 11
80.20964566929135
 21
31.96850393700788
 31
0.0
  0
LINE
  5
B5
330
1F
100
AcDbEntity
  8
TITLE
  6
SLD-Solid
370
    18
100
AcDbLine
 10
0.5
 20
33.93700787401575
 30
0.0
 11
0.1653543307086614
 21
33.93700787401575
 31
0.0
  0
LINE
  5
B6
330
1F
100
AcDbEntity
  8
TITLE
  6
SLD-Solid
370
    18
100
AcDbLine
 10
79.875
 20
33.93700787401575
 30
0.0
 11
80.20964566929135
 21
33.93700787401575
 31
0.0
  0
LINE
  5
B7
330
1F
100
AcDbEntity
  8
TITLE
  6
SLD-Solid
370
    18
100
AcDbLine
 10
0.5
 20
35.90551181102362
 30
0.0
 11
0.1653543307086614
 21
35.90551181102362
 31
0.0
  0
LINE
  5
B8
330
1F
100
AcDbEntity
  8
TITLE
  6
SLD-Solid
370
    18
100
AcDbLine
 10
79.875
 20
35.90551181102362
 30
0.0
 11
80.20964566929135
 21
35.90551181102362
 31
0.0
  0
LINE
  5
B9
330
1F
100
AcDbEntity
  8
TITLE
  6
SLD-Solid
370
    18
100
AcDbLine
 10
0.5
 20
37.8740157480315
 30
0.0
 11
0.1653543307086614
 21
37.8740157480315
 31
0.0
  0
LINE
  5
BA
330
1F
100
AcDbEntity
  8
TITLE
  6
SLD-Solid
370
    18
100
AcDbLine
 10
79.875
 20
37.8740157480315
 30
0.0
 11
80.20964566929135
 21
37.8740157480315
 31
0.0
  0
LINE
  5
BB
330
1F
100
AcDbEntity
  8
TITLE
  6
SLD-Solid
370
    18
100
AcDbLine
 10
0.5
 20
39.84251968503937
 30
0.0
 11
0.1653543307086614
 21
39.84251968503937
 31
0.0
  0
LINE
  5
BC
330
1F
100
AcDbEntity
  8
TITLE
  6
SLD-Solid
370
    18
100
AcDbLine
 10
79.875
 20
39.84251968503937
 30
0.0
 11
80.20964566929135
 21
39.84251968503937
 31
0.0
  0
LINE
  5
BD
330
1F
100
AcDbEntity
  8
TITLE
  6
SLD-Solid
370
    18
100
AcDbLine
 10
0.5
 20
41.81102362204724
 30
0.0
 11
0.1653543307086614
 21
41.81102362204724
 31
0.0
  0
LINE
  5
BE
330
1F
100
AcDbEntity
  8
TITLE
  6
SLD-Solid
370
    18
100
AcDbLine
 10
79.875
 20
41.81102362204724
 30
0.0
 11
80.20964566929135
 21
41.81102362204724
 31
0.0
  0
LINE
  5
BF
330
1F
100
AcDbEntity
  8
TITLE
  6
SLD-Solid
370
    18
100
AcDbLine
 10
0.5
 20
43.77952755905513
 30
0.0
 11
0.1653543307086614
 21
43.77952755905513
 31
0.0
  0
LINE
  5
C0
330
1F
100
AcDbEntity
  8
TITLE
  6
SLD-Solid
370
    18
100
AcDbLine
 10
79.875
 20
43.77952755905513
 30
0.0
 11
80.20964566929135
 21
43.77952755905513
 31
0.0
  0
LINE
  5
C1
330
1F
100
AcDbEntity
  8
TITLE
  6
SLD-Solid
370
    18
100
AcDbLine
 10
0.5
 20
45.74803149606299
 30
0.0
 11
0.1653543307086614
 21
45.74803149606299
 31
0.0
  0
LINE
  5
C2
330
1F
100
AcDbEntity
  8
TITLE
  6
SLD-Solid
370
    18
100
AcDbLine
 10
79.875
 20
45.74803149606299
 30
0.0
 11
80.20964566929135
 21
45.74803149606299
 31
0.0
  0
LINE
  5
C3
330
1F
100
AcDbEntity
  8
TITLE
  6
SLD-Solid
370
    18
100
AcDbLine
 10
0.5
 20
47.71653543307087
 30
0.0
 11
0.1653543307086614
 21
47.71653543307087
 31
0.0
  0
LINE
  5
C4
330
1F
100
AcDbEntity
  8
TITLE
  6
SLD-Solid
370
    18
100
AcDbLine
 10
79.875
 20
47.71653543307087
 30
0.0
 11
80.20964566929135
 21
47.71653543307087
 31
0.0
  0
LINE
  5
C5
330
1F
100
AcDbEntity
  8
TITLE
  6
SLD-Solid
370
    18
100
AcDbLine
 10
0.5
 20
49.68503937007874
 30
0.0
 11
0.1653543307086614
 21
49.68503937007874
 31
0.0
  0
LINE
  5
C6
330
1F
100
AcDbEntity
  8
TITLE
  6
SLD-Solid
370
    18
100
AcDbLine
 10
79.875
 20
49.68503937007874
 30
0.0
 11
80.20964566929135
 21
49.68503937007874
 31
0.0
  0
LINE
  5
C7
330
1F
100
AcDbEntity
  8
TITLE
  6
SLD-Solid
370
    18
100
AcDbLine
 10
0.5
 20
51.65354330708661
 30
0.0
 11
0.1653543307086614
 21
51.65354330708661
 31
0.0
  0
LINE
  5
C8
330
1F
100
AcDbEntity
  8
TITLE
  6
SLD-Solid
370
    18
100
AcDbLine
 10
79.875
 20
51.65354330708661
 30
0.0
 11
80.20964566929135
 21
51.65354330708661
 31
0.0
  0
LINE
  5
C9
330
1F
100
AcDbEntity
  8
TITLE
  6
SLD-Solid
370
    18
100
AcDbLine
 10
0.5
 20
53.6220472440945
 30
0.0
 11
0.1653543307086614
 21
53.6220472440945
 31
0.0
  0
LINE
  5
CA
330
1F
100
AcDbEntity
  8
TITLE
  6
SLD-Solid
370
    18
100
AcDbLine
 10
79.875
 20
53.6220472440945
 30
0.0
 11
80.20964566929135
 21
53.6220472440945
 31
0.0
  0
LINE
  5
CB
330
1F
100
AcDbEntity
  8
TITLE
  6
SLD-Solid
370
    18
100
AcDbLine
 10
0.5
 20
55.59055118110236
 30
0.0
 11
0.1653543307086614
 21
55.59055118110236
 31
0.0
  0
LINE
  5
CC
330
1F
100
AcDbEntity
  8
TITLE
  6
SLD-Solid
370
    18
100
AcDbLine
 10
79.875
 20
55.59055118110236
 30
0.0
 11
80.20964566929135
 21
55.59055118110236
 31
0.0
  0
LINE
  5
CD
330
1F
100
AcDbEntity
  8
TITLE
  6
SLD-Solid
370
    18
100
AcDbLine
 10
0.5
 20
57.55905511811024
 30
0.0
 11
0.1653543307086614
 21
57.55905511811024
 31
0.0
  0
LINE
  5
CE
330
1F
100
AcDbEntity
  8
TITLE
  6
SLD-Solid
370
    18
100
AcDbLine
 10
79.875
 20
57.55905511811024
 30
0.0
 11
80.20964566929135
 21
57.55905511811024
 31
0.0
  0
LINE
  5
CF
330
1F
100
AcDbEntity
  8
TITLE
  6
SLD-Solid
370
    18
100
AcDbLine
 10
2.785925196850392
 20
59.50000000000001
 30
0.0
 11
2.785925196850392
 21
59.83464566929134
 31
0.0
  0
LINE
  5
D0
330
1F
100
AcDbEntity
  8
TITLE
  6
SLD-Solid
370
    18
100
AcDbLine
 10
2.785925196850392
 20
0.5
 30
0.0
 11
2.785925196850392
 21
0.1653543307086614
 31
0.0
  0
LINE
  5
D1
330
1F
100
AcDbEntity
  8
TITLE
  6
SLD-Solid
370
    18
100
AcDbLine
 10
4.754429133858268
 20
59.50000000000001
 30
0.0
 11
4.754429133858268
 21
59.83464566929134
 31
0.0
  0
LINE
  5
D2
330
1F
100
AcDbEntity
  8
TITLE
  6
SLD-Solid
370
    18
100
AcDbLine
 10
4.754429133858268
 20
0.5
 30
0.0
 11
4.754429133858268
 21
0.1653543307086614
 31
0.0
  0
LINE
  5
D3
330
1F
100
AcDbEntity
  8
TITLE
  6
SLD-Solid
370
    18
100
AcDbLine
 10
6.722933070866139
 20
59.50000000000001
 30
0.0
 11
6.722933070866139
 21
59.83464566929134
 31
0.0
  0
LINE
  5
D4
330
1F
100
AcDbEntity
  8
TITLE
  6
SLD-Solid
370
    18
100
AcDbLine
 10
6.722933070866139
 20
0.5
 30
0.0
 11
6.722933070866139
 21
0.1653543307086614
 31
0.0
  0
LINE
  5
D5
330
1F
100
AcDbEntity
  8
TITLE
  6
SLD-Solid
370
    18
100
AcDbLine
 10
8.691437007874015
 20
59.50000000000001
 30
0.0
 11
8.691437007874015
 21
59.83464566929134
 31
0.0
  0
LINE
  5
D6
330
1F
100
AcDbEntity
  8
TITLE
  6
SLD-Solid
370
    18
100
AcDbLine
 10
8.691437007874015
 20
0.5
 30
0.0
 11
8.691437007874015
 21
0.1653543307086614
 31
0.0
  0
LINE
  5
D7
330
1F
100
AcDbEntity
  8
TITLE
  6
SLD-Solid
370
    18
100
AcDbLine
 10
10.65994094488189
 20
59.50000000000001
 30
0.0
 11
10.65994094488189
 21
59.83464566929134
 31
0.0
  0
LINE
  5
D8
330
1F
100
AcDbEntity
  8
TITLE
  6
SLD-Solid
370
    18
100
AcDbLine
 10
10.65994094488189
 20
0.5
 30
0.0
 11
10.65994094488189
 21
0.1653543307086614
 31
0.0
  0
LINE
  5
D9
330
1F
100
AcDbEntity
  8
TITLE
  6
SLD-Solid
370
    18
100
AcDbLine
 10
12.62844488188976
 20
59.50000000000001
 30
0.0
 11
12.62844488188976
 21
59.83464566929134
 31
0.0
  0
LINE
  5
DA
330
1F
100
AcDbEntity
  8
TITLE
  6
SLD-Solid
370
    18
100
AcDbLine
 10
12.62844488188976
 20
0.5
 30
0.0
 11
12.62844488188976
 21
0.1653543307086614
 31
0.0
  0
LINE
  5
DB
330
1F
100
AcDbEntity
  8
TITLE
  6
SLD-Solid
370
    18
100
AcDbLine
 10
14.59694881889764
 20
59.50000000000001
 30
0.0
 11
14.59694881889764
 21
59.83464566929134
 31
0.0
  0
LINE
  5
DC
330
1F
100
AcDbEntity
  8
TITLE
  6
SLD-Solid
370
    18
100
AcDbLine
 10
14.59694881889764
 20
0.5
 30
0.0
 11
14.59694881889764
 21
0.1653543307086614
 31
0.0
  0
LINE
  5
DD
330
1F
100
AcDbEntity
  8
TITLE
  6
SLD-Solid
370
    18
100
AcDbLine
 10
16.56545275590551
 20
59.50000000000001
 30
0.0
 11
16.56545275590551
 21
59.83464566929134
 31
0.0
  0
LINE
  5
DE
330
1F
100
AcDbEntity
  8
TITLE
  6
SLD-Solid
370
    18
100
AcDbLine
 10
16.56545275590551
 20
0.5
 30
0.0
 11
16.56545275590551
 21
0.1653543307086614
 31
0.0
  0
LINE
  5
DF
330
1F
100
AcDbEntity
  8
TITLE
  6
SLD-Solid
370
    18
100
AcDbLine
 10
18.53395669291339
 20
59.50000000000001
 30
0.0
 11
18.53395669291339
 21
59.83464566929134
 31
0.0
  0
LINE
  5
E0
330
1F
100
AcDbEntity
  8
TITLE
  6
SLD-Solid
370
    18
100
AcDbLine
 10
18.53395669291339
 20
0.5
 30
0.0
 11
18.53395669291339
 21
0.1653543307086614
 31
0.0
  0
LINE
  5
E1
330
1F
100
AcDbEntity
  8
TITLE
  6
SLD-Solid
370
    18
100
AcDbLine
 10
20.50246062992126
 20
59.50000000000001
 30
0.0
 11
20.50246062992126
 21
59.83464566929134
 31
0.0
  0
LINE
  5
E2
330
1F
100
AcDbEntity
  8
TITLE
  6
SLD-Solid
370
    18
100
AcDbLine
 10
20.50246062992126
 20
0.5
 30
0.0
 11
20.50246062992126
 21
0.1653543307086614
 31
0.0
  0
LINE
  5
E3
330
1F
100
AcDbEntity
  8
TITLE
  6
SLD-Solid
370
    18
100
AcDbLine
 10
22.47096456692914
 20
59.50000000000001
 30
0.0
 11
22.47096456692914
 21
59.83464566929134
 31
0.0
  0
LINE
  5
E4
330
1F
100
AcDbEntity
  8
TITLE
  6
SLD-Solid
370
    18
100
AcDbLine
 10
22.47096456692914
 20
0.5
 30
0.0
 11
22.47096456692914
 21
0.1653543307086614
 31
0.0
  0
LINE
  5
E5
330
1F
100
AcDbEntity
  8
TITLE
  6
SLD-Solid
370
    18
100
AcDbLine
 10
24.43946850393701
 20
59.50000000000001
 30
0.0
 11
24.43946850393701
 21
59.83464566929134
 31
0.0
  0
LINE
  5
E6
330
1F
100
AcDbEntity
  8
TITLE
  6
SLD-Solid
370
    18
100
AcDbLine
 10
24.43946850393701
 20
0.5
 30
0.0
 11
24.43946850393701
 21
0.1653543307086614
 31
0.0
  0
LINE
  5
E7
330
1F
100
AcDbEntity
  8
TITLE
  6
SLD-Solid
370
    18
100
AcDbLine
 10
26.40797244094488
 20
59.50000000000001
 30
0.0
 11
26.40797244094488
 21
59.83464566929134
 31
0.0
  0
LINE
  5
E8
330
1F
100
AcDbEntity
  8
TITLE
  6
SLD-Solid
370
    18
100
AcDbLine
 10
26.40797244094488
 20
0.5
 30
0.0
 11
26.40797244094488
 21
0.1653543307086614
 31
0.0
  0
LINE
  5
E9
330
1F
100
AcDbEntity
  8
TITLE
  6
SLD-Solid
370
    18
100
AcDbLine
 10
28.37647637795276
 20
59.50000000000001
 30
0.0
 11
28.37647637795276
 21
59.83464566929134
 31
0.0
  0
LINE
  5
EA
330
1F
100
AcDbEntity
  8
TITLE
  6
SLD-Solid
370
    18
100
AcDbLine
 10
28.37647637795276
 20
0.5
 30
0.0
 11
28.37647637795276
 21
0.1653543307086614
 31
0.0
  0
LINE
  5
EB
330
1F
100
AcDbEntity
  8
TITLE
  6
SLD-Solid
370
    18
100
AcDbLine
 10
30.34498031496063
 20
59.50000000000001
 30
0.0
 11
30.34498031496063
 21
59.83464566929134
 31
0.0
  0
LINE
  5
EC
330
1F
100
AcDbEntity
  8
TITLE
  6
SLD-Solid
370
    18
100
AcDbLine
 10
30.34498031496063
 20
0.5
 30
0.0
 11
30.34498031496063
 21
0.1653543307086614
 31
0.0
  0
LINE
  5
ED
330
1F
100
AcDbEntity
  8
TITLE
  6
SLD-Solid
370
    18
100
AcDbLine
 10
32.31348425196851
 20
59.50000000000001
 30
0.0
 11
32.31348425196851
 21
59.83464566929134
 31
0.0
  0
LINE
  5
EE
330
1F
100
AcDbEntity
  8
TITLE
  6
SLD-Solid
370
    18
100
AcDbLine
 10
32.31348425196851
 20
0.5
 30
0.0
 11
32.31348425196851
 21
0.1653543307086614
 31
0.0
  0
LINE
  5
EF
330
1F
100
AcDbEntity
  8
TITLE
  6
SLD-Solid
370
    18
100
AcDbLine
 10
34.28198818897638
 20
59.50000000000001
 30
0.0
 11
34.28198818897638
 21
59.83464566929134
 31
0.0
  0
LINE
  5
F0
330
1F
100
AcDbEntity
  8
TITLE
  6
SLD-Solid
370
    18
100
AcDbLine
 10
34.28198818897638
 20
0.5
 30
0.0
 11
34.28198818897638
 21
0.1653543307086614
 31
0.0
  0
LINE
  5
F1
330
1F
100
AcDbEntity
  8
TITLE
  6
SLD-Solid
370
    18
100
AcDbLine
 10
36.25049212598425
 20
59.50000000000001
 30
0.0
 11
36.25049212598425
 21
59.83464566929134
 31
0.0
  0
LINE
  5
F2
330
1F
100
AcDbEntity
  8
TITLE
  6
SLD-Solid
370
    18
100
AcDbLine
 10
36.25049212598425
 20
0.5
 30
0.0
 11
36.25049212598425
 21
0.1653543307086614
 31
0.0
  0
LINE
  5
F3
330
1F
100
AcDbEntity
  8
TITLE
  6
SLD-Solid
370
    18
100
AcDbLine
 10
38.21899606299213
 20
59.50000000000001
 30
0.0
 11
38.21899606299213
 21
59.83464566929134
 31
0.0
  0
LINE
  5
F4
330
1F
100
AcDbEntity
  8
TITLE
  6
SLD-Solid
370
    18
100
AcDbLine
 10
38.21899606299213
 20
0.5
 30
0.0
 11
38.21899606299213
 21
0.1653543307086614
 31
0.0
  0
LINE
  5
F5
330
1F
100
AcDbEntity
  8
TITLE
  6
SLD-Solid
370
    18
100
AcDbLine
 10
40.1875
 20
59.50000000000001
 30
0.0
 11
40.1875
 21
59.83464566929134
 31
0.0
  0
LINE
  5
F6
330
1F
100
AcDbEntity
  8
TITLE
  6
SLD-Solid
370
    18
100
AcDbLine
 10
40.1875
 20
0.5
 30
0.0
 11
40.1875
 21
0.1653543307086614
 31
0.0
  0
LINE
  5
F7
330
1F
100
AcDbEntity
  8
TITLE
  6
SLD-Solid
370
    18
100
AcDbLine
 10
42.15600393700788
 20
59.50000000000001
 30
0.0
 11
42.15600393700788
 21
59.83464566929134
 31
0.0
  0
LINE
  5
F8
330
1F
100
AcDbEntity
  8
TITLE
  6
SLD-Solid
370
    18
100
AcDbLine
 10
42.15600393700788
 20
0.5
 30
0.0
 11
42.15600393700788
 21
0.1653543307086614
 31
0.0
  0
LINE
  5
F9
330
1F
100
AcDbEntity
  8
TITLE
  6
SLD-Solid
370
    18
100
AcDbLine
 10
44.12450787401576
 20
59.50000000000001
 30
0.0
 11
44.12450787401576
 21
59.83464566929134
 31
0.0
  0
LINE
  5
FA
330
1F
100
AcDbEntity
  8
TITLE
  6
SLD-Solid
370
    18
100
AcDbLine
 10
44.12450787401576
 20
0.5
 30
0.0
 11
44.12450787401576
 21
0.1653543307086614
 31
0.0
  0
LINE
  5
FB
330
1F
100
AcDbEntity
  8
TITLE
  6
SLD-Solid
370
    18
100
AcDbLine
 10
46.09301181102362
 20
59.50000000000001
 30
0.0
 11
46.09301181102362
 21
59.83464566929134
 31
0.0
  0
LINE
  5
FC
330
1F
100
AcDbEntity
  8
TITLE
  6
SLD-Solid
370
    18
100
AcDbLine
 10
46.09301181102362
 20
0.5
 30
0.0
 11
46.09301181102362
 21
0.1653543307086614
 31
0.0
  0
LINE
  5
FD
330
1F
100
AcDbEntity
  8
TITLE
  6
SLD-Solid
370
    18
100
AcDbLine
 10
48.0615157480315
 20
59.50000000000001
 30
0.0
 11
48.0615157480315
 21
59.83464566929134
 31
0.0
  0
LINE
  5
FE
330
1F
100
AcDbEntity
  8
TITLE
  6
SLD-Solid
370
    18
100
AcDbLine
 10
48.0615157480315
 20
0.5
 30
0.0
 11
48.0615157480315
 21
0.1653543307086614
 31
0.0
  0
LINE
  5
FF
330
1F
100
AcDbEntity
  8
TITLE
  6
SLD-Solid
370
    18
100
AcDbLine
 10
50.03001968503937
 20
59.50000000000001
 30
0.0
 11
50.03001968503937
 21
59.83464566929134
 31
0.0
  0
LINE
  5
100
330
1F
100
AcDbEntity
  8
TITLE
  6
SLD-Solid
370
    18
100
AcDbLine
 10
50.03001968503937
 20
0.5
 30
0.0
 11
50.03001968503937
 21
0.1653543307086614
 31
0.0
  0
LINE
  5
101
330
1F
100
AcDbEntity
  8
TITLE
  6
SLD-Solid
370
    18
100
AcDbLine
 10
51.99852362204725
 20
59.50000000000001
 30
0.0
 11
51.99852362204725
 21
59.83464566929134
 31
0.0
  0
LINE
  5
102
330
1F
100
AcDbEntity
  8
TITLE
  6
SLD-Solid
370
    18
100
AcDbLine
 10
51.99852362204725
 20
0.5
 30
0.0
 11
51.99852362204725
 21
0.1653543307086614
 31
0.0
  0
LINE
  5
103
330
1F
100
AcDbEntity
  8
TITLE
  6
SLD-Solid
370
    18
100
AcDbLine
 10
53.96702755905513
 20
59.50000000000001
 30
0.0
 11
53.96702755905513
 21
59.83464566929134
 31
0.0
  0
LINE
  5
104
330
1F
100
AcDbEntity
  8
TITLE
  6
SLD-Solid
370
    18
100
AcDbLine
 10
53.96702755905513
 20
0.5
 30
0.0
 11
53.96702755905513
 21
0.1653543307086614
 31
0.0
  0
LINE
  5
105
330
1F
100
AcDbEntity
  8
TITLE
  6
SLD-Solid
370
    18
100
AcDbLine
 10
55.93553149606299
 20
59.50000000000001
 30
0.0
 11
55.93553149606299
 21
59.83464566929134
 31
0.0
  0
LINE
  5
106
330
1F
100
AcDbEntity
  8
TITLE
  6
SLD-Solid
370
    18
100
AcDbLine
 10
55.93553149606299
 20
0.5
 30
0.0
 11
55.93553149606299
 21
0.1653543307086614
 31
0.0
  0
LINE
  5
107
330
1F
100
AcDbEntity
  8
TITLE
  6
SLD-Solid
370
    18
100
AcDbLine
 10
57.90403543307087
 20
59.50000000000001
 30
0.0
 11
57.90403543307087
 21
59.83464566929134
 31
0.0
  0
LINE
  5
108
330
1F
100
AcDbEntity
  8
TITLE
  6
SLD-Solid
370
    18
100
AcDbLine
 10
57.90403543307087
 20
0.5
 30
0.0
 11
57.90403543307087
 21
0.1653543307086614
 31
0.0
  0
LINE
  5
109
330
1F
100
AcDbEntity
  8
TITLE
  6
SLD-Solid
370
    18
100
AcDbLine
 10
59.87253937007874
 20
59.50000000000001
 30
0.0
 11
59.87253937007874
 21
59.83464566929134
 31
0.0
  0
LINE
  5
10A
330
1F
100
AcDbEntity
  8
TITLE
  6
SLD-Solid
370
    18
100
AcDbLine
 10
59.87253937007874
 20
0.5
 30
0.0
 11
59.87253937007874
 21
0.1653543307086614
 31
0.0
  0
LINE
  5
10B
330
1F
100
AcDbEntity
  8
TITLE
  6
SLD-Solid
370
    18
100
AcDbLine
 10
61.84104330708662
 20
59.50000000000001
 30
0.0
 11
61.84104330708662
 21
59.83464566929134
 31
0.0
  0
LINE
  5
10C
330
1F
100
AcDbEntity
  8
TITLE
  6
SLD-Solid
370
    18
100
AcDbLine
 10
61.84104330708662
 20
0.5
 30
0.0
 11
61.84104330708662
 21
0.1653543307086614
 31
0.0
  0
LINE
  5
10D
330
1F
100
AcDbEntity
  8
TITLE
  6
SLD-Solid
370
    18
100
AcDbLine
 10
63.8095472440945
 20
59.50000000000001
 30
0.0
 11
63.8095472440945
 21
59.83464566929134
 31
0.0
  0
LINE
  5
10E
330
1F
100
AcDbEntity
  8
TITLE
  6
SLD-Solid
370
    18
100
AcDbLine
 10
63.8095472440945
 20
0.5
 30
0.0
 11
63.8095472440945
 21
0.1653543307086614
 31
0.0
  0
LINE
  5
10F
330
1F
100
AcDbEntity
  8
TITLE
  6
SLD-Solid
370
    18
100
AcDbLine
 10
65.77805118110236
 20
59.50000000000001
 30
0.0
 11
65.77805118110236
 21
59.83464566929134
 31
0.0
  0
LINE
  5
110
330
1F
100
AcDbEntity
  8
TITLE
  6
SLD-Solid
370
    18
100
AcDbLine
 10
65.77805118110236
 20
0.5
 30
0.0
 11
65.77805118110236
 21
0.1653543307086614
 31
0.0
  0
LINE
  5
111
330
1F
100
AcDbEntity
  8
TITLE
  6
SLD-Solid
370
    18
100
AcDbLine
 10
67.74655511811025
 20
59.50000000000001
 30
0.0
 11
67.74655511811025
 21
59.83464566929134
 31
0.0
  0
LINE
  5
112
330
1F
100
AcDbEntity
  8
TITLE
  6
SLD-Solid
370
    18
100
AcDbLine
 10
67.74655511811025
 20
0.5
 30
0.0
 11
67.74655511811025
 21
0.1653543307086614
 31
0.0
  0
LINE
  5
113
330
1F
100
AcDbEntity
  8
TITLE
  6
SLD-Solid
370
    18
100
AcDbLine
 10
69.71505905511812
 20
59.50000000000001
 30
0.0
 11
69.71505905511812
 21
59.83464566929134
 31
0.0
  0
LINE
  5
114
330
1F
100
AcDbEntity
  8
TITLE
  6
SLD-Solid
370
    18
100
AcDbLine
 10
69.71505905511812
 20
0.5
 30
0.0
 11
69.71505905511812
 21
0.1653543307086614
 31
0.0
  0
LINE
  5
115
330
1F
100
AcDbEntity
  8
TITLE
  6
SLD-Solid
370
    18
100
AcDbLine
 10
71.68356299212599
 20
59.50000000000001
 30
0.0
 11
71.68356299212599
 21
59.83464566929134
 31
0.0
  0
LINE
  5
116
330
1F
100
AcDbEntity
  8
TITLE
  6
SLD-Solid
370
    18
100
AcDbLine
 10
71.68356299212599
 20
0.5
 30
0.0
 11
71.68356299212599
 21
0.1653543307086614
 31
0.0
  0
LINE
  5
117
330
1F
100
AcDbEntity
  8
TITLE
  6
SLD-Solid
370
    18
100
AcDbLine
 10
73.65206692913387
 20
59.50000000000001
 30
0.0
 11
73.65206692913387
 21
59.83464566929134
 31
0.0
  0
LINE
  5
118
330
1F
100
AcDbEntity
  8
TITLE
  6
SLD-Solid
370
    18
100
AcDbLine
 10
73.65206692913387
 20
0.5
 30
0.0
 11
73.65206692913387
 21
0.1653543307086614
 31
0.0
  0
LINE
  5
119
330
1F
100
AcDbEntity
  8
TITLE
  6
SLD-Solid
370
    18
100
AcDbLine
 10
75.62057086614173
 20
59.50000000000001
 30
0.0
 11
75.62057086614173
 21
59.83464566929134
 31
0.0
  0
LINE
  5
11A
330
1F
100
AcDbEntity
  8
TITLE
  6
SLD-Solid
370
    18
100
AcDbLine
 10
75.62057086614173
 20
0.5
 30
0.0
 11
75.62057086614173
 21
0.1653543307086614
 31
0.0
  0
LINE
  5
11B
330
1F
100
AcDbEntity
  8
TITLE
  6
SLD-Solid
370
    18
100
AcDbLine
 10
77.58907480314961
 20
59.50000000000001
 30
0.0
 11
77.58907480314961
 21
59.83464566929134
 31
0.0
  0
LINE
  5
11C
330
1F
100
AcDbEntity
  8
TITLE
  6
SLD-Solid
370
    18
100
AcDbLine
 10
77.58907480314961
 20
0.5
 30
0.0
 11
77.58907480314961
 21
0.1653543307086614
 31
0.0
  0
MTEXT
  5
11E
330
1F
100
AcDbEntity
  8
NOTES
100
AcDbMText
 10
56.78329780303407
 20
1.07029033469434
 30
0.0
 40
0.25
 41
0.0
 71
     1
 72
     1
  1
UNLESS OTHERWISE SPECIFIED DIMENSIONS ARE IN INCHES.
  7
SLDTEXTSTYLE0
 73
     1
 44
1.0
  0
MTEXT
  5
11F
330
1F
100
AcDbEntity
  8
NOTES
100
AcDbMText
 10
56.8050699278903
 20
3.083062777580423
 30
0.0
 40
0.25
 41
0.0
 71
     1
 72
     1
  1
DATE:
  7
SLDTEXTSTYLE0
 73
     1
 44
1.0
  0
MTEXT
  5
120
330
1F
100
AcDbEntity
  8
NOTES
100
AcDbMText
 10
58.91370118800531
 20
2.193032963662711
 30
0.0
 40
0.25
 41
0.0
 71
     2
 72
     1
  1
DO NOT SCALE DRAWING
  7
SLDTEXTSTYLE0
 73
     1
 44
1.0
  0
MTEXT
  5
122
330
1F
100
AcDbEntity
  8
NOTES
100
AcDbMText
 10
63.20573730750537
 20
3.268275555297605
 30
0.0
 40
0.25
 41
0.0
 71
     1
 72
     1
  1
TITLE:
  7
SLDTEXTSTYLE1
 73
     1
 44
1.0
  0
MTEXT
  5
123
330
1F
100
AcDbEntity
  8
NOTES
100
AcDbMText
 10
70.53118310516095
 20
3.268275555297605
 30
0.0
 40
0.25
 41
0.0
 71
     1
 72
     1
  1
DWG NO.
  7
SLDTEXTSTYLE1
 73
     1
 44
1.0
  0
MTEXT
  5
124
330
1F
100
AcDbEntity
  8
NOTES
100
AcDbMText
 10
70.55817532028493
 20
1.064581557673831
 30
0.0
 40
0.25
 41
0.0
 71
     1
 72
     1
  1
SCALE:     1:1
  7
SLDTEXTSTYLE1
 73
     1
 44
1.0
  0
MTEXT
  5
125
330
1F
100
AcDbEntity
  8
NOTES
100
AcDbMText
 10
74.55553948314052
 20
2.651034429460866
 30
0.0
 40
0.25
 41
0.0
 71
     2
 72
     1
  1
185 CAD
  7
SLDTEXTSTYLE1
 73
     1
 44
1.0
  0
MTEXT
  5
126
330
1F
100
AcDbEntity
  8
NOTES
100
AcDbMText
 10
66.83385338183513
 20
2.651034429460864
 30
0.0
 40
0.25
 41
0.0
 71
     2
 72
     1
  1
185 Paper Cup Dispenser
  7
SLDTEXTSTYLE1
 73
     1
 44
1.0
  0
INSERT
  5
136
330
1F
100
AcDbEntity
  8
NOTES
100
AcDbBlockReference
  2
SW_NOTE_0_1
 10
56.99097262459081
 20
5.148152684778704
 30
0.0
  0
MTEXT
  5
137
330
1F
100
AcDbEntity
  8
NOTES
100
AcDbMText
 10
59.87608793889974
 20
3.086473326765869
 30
0.0
 40
0.25
 41
0.0
 71
     2
 72
     1
  1
June 23, 2021
  7
SLDTEXTSTYLE1
 73
     1
 44
1.0
  0
MTEXT
  5
138
330
1F
100
AcDbEntity
  8
TITLE
100
AcDbMText
 10
0.3276279775836454
 20
1.550350385462361
 30
0.0
 40
0.125
 41
0.0
 71
     2
 72
     1
  1
A
  7
SLDTEXTSTYLE1
 73
     1
 44
1.0
  0
MTEXT
  5
139
330
1F
100
AcDbEntity
  8
TITLE
100
AcDbMText
 10
80.03727364687498
 20
1.550350385462361
 30
0.0
 40
0.125
 41
0.0
 71
     2
 72
     1
  1
A
  7
SLDTEXTSTYLE1
 73
     1
 44
1.0
  0
MTEXT
  5
13A
330
1F
100
AcDbEntity
  8
TITLE
100
AcDbMText
 10
0.3317512413046844
 20
3.50507479491118
 30
0.0
 40
0.125
 41
0.0
 71
     2
 72
     1
  1
B
  7
SLDTEXTSTYLE1
 73
     1
 44
1.0
  0
MTEXT
  5
13B
330
1F
100
AcDbEntity
  8
TITLE
100
AcDbMText
 10
80.04139691059602
 20
3.50507479491118
 30
0.0
 40
0.125
 41
0.0
 71
     2
 72
     1
  1
B
  7
SLDTEXTSTYLE1
 73
     1
 44
1.0
  0
MTEXT
  5
13C
330
1F
100
AcDbEntity
  8
TITLE
100
AcDbMText
 10
0.3313750816934456
 20
5.473578731919052
 30
0.0
 40
0.125
 41
0.0
 71
     2
 72
     1
  1
C
  7
SLDTEXTSTYLE1
 73
     1
 44
1.0
  0
MTEXT
  5
13D
330
1F
100
AcDbEntity
  8
TITLE
100
AcDbMText
 10
80.04102075098477
 20
5.473578731919052
 30
0.0
 40
0.125
 41
0.0
 71
     2
 72
     1
  1
C
  7
SLDTEXTSTYLE1
 73
     1
 44
1.0
  0
MTEXT
  5
13E
330
1F
100
AcDbEntity
  8
TITLE
100
AcDbMText
 10
0.3311870028448152
 20
7.442082668926926
 30
0.0
 40
0.125
 41
0.0
 71
     2
 72
     1
  1
D
  7
SLDTEXTSTYLE1
 73
     1
 44
1.0
  0
MTEXT
  5
13F
330
1F
100
AcDbEntity
  8
TITLE
100
AcDbMText
 10
80.04083267213615
 20
7.442082668926926
 30
0.0
 40
0.125
 41
0.0
 71
     2
 72
     1
  1
D
  7
SLDTEXTSTYLE1
 73
     1
 44
1.0
  0
MTEXT
  5
140
330
1F
100
AcDbEntity
  8
TITLE
100
AcDbMText
 10
0.3329231160377542
 20
9.410586605934803
 30
0.0
 40
0.125
 41
0.0
 71
     2
 72
     1
  1
E
  7
SLDTEXTSTYLE1
 73
     1
 44
1.0
  0
MTEXT
  5
141
330
1F
100
AcDbEntity
  8
TITLE
100
AcDbMText
 10
80.04256878532908
 20
9.410586605934803
 30
0.0
 40
0.125
 41
0.0
 71
     2
 72
     1
  1
E
  7
SLDTEXTSTYLE1
 73
     1
 44
1.0
  0
MTEXT
  5
142
330
1F
100
AcDbEntity
  8
TITLE
100
AcDbMText
 10
0.3313461474003637
 20
11.37909054294268
 30
0.0
 40
0.125
 41
0.0
 71
     2
 72
     1
  1
F
  7
SLDTEXTSTYLE1
 73
     1
 44
1.0
  0
MTEXT
  5
143
330
1F
100
AcDbEntity
  8
TITLE
100
AcDbMText
 10
80.0409918166917
 20
11.37909054294268
 30
0.0
 40
0.125
 41
0.0
 71
     2
 72
     1
  1
F
  7
SLDTEXTSTYLE1
 73
     1
 44
1.0
  0
MTEXT
  5
144
330
1F
100
AcDbEntity
  8
TITLE
100
AcDbMText
 10
0.332257605436456
 20
13.34759447995055
 30
0.0
 40
0.125
 41
0.0
 71
     2
 72
     1
  1
G
  7
SLDTEXTSTYLE1
 73
     1
 44
1.0
  0
MTEXT
  5
145
330
1F
100
AcDbEntity
  8
TITLE
100
AcDbMText
 10
80.0419032747278
 20
13.34759447995055
 30
0.0
 40
0.125
 41
0.0
 71
     2
 72
     1
  1
G
  7
SLDTEXTSTYLE1
 73
     1
 44
1.0
  0
MTEXT
  5
146
330
1F
100
AcDbEntity
  8
TITLE
100
AcDbMText
 10
0.3323733456814149
 20
15.31609841695843
 30
0.0
 40
0.125
 41
0.0
 71
     2
 72
     1
  1
H
  7
SLDTEXTSTYLE1
 73
     1
 44
1.0
  0
MTEXT
  5
147
330
1F
100
AcDbEntity
  8
TITLE
100
AcDbMText
 10
80.04201901497274
 20
15.31609841695842
 30
0.0
 40
0.125
 41
0.0
 71
     2
 72
     1
  1
H
  7
SLDTEXTSTYLE1
 73
     1
 44
1.0
  0
MTEXT
  5
148
330
1F
100
AcDbEntity
  8
TITLE
100
AcDbMText
 10
0.3315776305595839
 20
17.2846023539663
 30
0.0
 40
0.125
 41
0.0
 71
     2
 72
     1
  1
J
  7
SLDTEXTSTYLE1
 73
     1
 44
1.0
  0
MTEXT
  5
149
330
1F
100
AcDbEntity
  8
TITLE
100
AcDbMText
 10
80.04122329985091
 20
17.2846023539663
 30
0.0
 40
0.125
 41
0.0
 71
     2
 72
     1
  1
J
  7
SLDTEXTSTYLE1
 73
     1
 44
1.0
  0
MTEXT
  5
14A
330
1F
100
AcDbEntity
  8
TITLE
100
AcDbMText
 10
0.3323154765159243
 20
19.25310629097417
 30
0.0
 40
0.125
 41
0.0
 71
     2
 72
     1
  1
K
  7
SLDTEXTSTYLE1
 73
     1
 44
1.0
  0
MTEXT
  5
14B
330
1F
100
AcDbEntity
  8
TITLE
100
AcDbMText
 10
80.04196114580725
 20
19.25310629097417
 30
0.0
 40
0.125
 41
0.0
 71
     2
 72
     1
  1
K
  7
SLDTEXTSTYLE1
 73
     1
 44
1.0
  0
MTEXT
  5
14C
330
1F
100
AcDbEntity
  8
TITLE
100
AcDbMText
 10
0.3312448739242835
 20
21.22161022798205
 30
0.0
 40
0.125
 41
0.0
 71
     2
 72
     1
  1
L
  7
SLDTEXTSTYLE1
 73
     1
 44
1.0
  0
MTEXT
  5
14D
330
1F
100
AcDbEntity
  8
TITLE
100
AcDbMText
 10
80.04089054321562
 20
21.22161022798205
 30
0.0
 40
0.125
 41
0.0
 71
     2
 72
     1
  1
L
  7
SLDTEXTSTYLE1
 73
     1
 44
1.0
  0
MTEXT
  5
14E
330
1F
100
AcDbEntity
  8
TITLE
100
AcDbMText
 10
0.3283224192293962
 20
23.19011416498992
 30
0.0
 40
0.125
 41
0.0
 71
     2
 72
     1
  1
M
  7
SLDTEXTSTYLE1
 73
     1
 44
1.0
  0
MTEXT
  5
14F
330
1F
100
AcDbEntity
  8
TITLE
100
AcDbMText
 10
80.03796808852074
 20
23.19011416498992
 30
0.0
 40
0.125
 41
0.0
 71
     2
 72
     1
  1
M
  7
SLDTEXTSTYLE1
 73
     1
 44
1.0
  0
MTEXT
  5
150
330
1F
100
AcDbEntity
  8
TITLE
100
AcDbMText
 10
0.3315342275836453
 20
25.1586181019978
 30
0.0
 40
0.125
 41
0.0
 71
     2
 72
     1
  1
N
  7
SLDTEXTSTYLE1
 73
     1
 44
1.0
  0
MTEXT
  5
151
330
1F
100
AcDbEntity
  8
TITLE
100
AcDbMText
 10
80.04117989687497
 20
25.1586181019978
 30
0.0
 40
0.125
 41
0.0
 71
     2
 72
     1
  1
N
  7
SLDTEXTSTYLE1
 73
     1
 44
1.0
  0
MTEXT
  5
152
330
1F
100
AcDbEntity
  8
TITLE
100
AcDbMText
 10
0.3321997349363143
 20
27.12712203900567
 30
0.0
 40
0.125
 41
0.0
 71
     2
 72
     1
  1
P
  7
SLDTEXTSTYLE1
 73
     1
 44
1.0
  0
MTEXT
  5
153
330
1F
100
AcDbEntity
  8
TITLE
100
AcDbMText
 10
80.04184540422764
 20
27.12712203900567
 30
0.0
 40
0.125
 41
0.0
 71
     2
 72
     1
  1
P
  7
SLDTEXTSTYLE1
 73
     1
 44
1.0
  0
MTEXT
  5
154
330
1F
100
AcDbEntity
  8
TITLE
100
AcDbMText
 10
0.3309265867271643
 20
29.09562597601354
 30
0.0
 40
0.125
 41
0.0
 71
     2
 72
     1
  1
R
  7
SLDTEXTSTYLE1
 73
     1
 44
1.0
  0
MTEXT
  5
155
330
1F
100
AcDbEntity
  8
TITLE
100
AcDbMText
 10
80.04057225601849
 20
29.09562597601355
 30
0.0
 40
0.125
 41
0.0
 71
     2
 72
     1
  1
R
  7
SLDTEXTSTYLE1
 73
     1
 44
1.0
  0
MTEXT
  5
156
330
1F
100
AcDbEntity
  8
TITLE
100
AcDbMText
 10
0.3323010070777432
 20
31.06412991302142
 30
0.0
 40
0.125
 41
0.0
 71
     2
 72
     1
  1
T
  7
SLDTEXTSTYLE1
 73
     1
 44
1.0
  0
MTEXT
  5
157
330
1F
100
AcDbEntity
  8
TITLE
100
AcDbMText
 10
80.04194667636908
 20
31.06412991302142
 30
0.0
 40
0.125
 41
0.0
 71
     2
 72
     1
  1
T
  7
SLDTEXTSTYLE1
 73
     1
 44
1.0
  0
MTEXT
  5
158
330
1F
100
AcDbEntity
  8
TITLE
100
AcDbMText
 10
0.3328507755201046
 20
33.03263385002929
 30
0.0
 40
0.125
 41
0.0
 71
     2
 72
     1
  1
U
  7
SLDTEXTSTYLE1
 73
     1
 44
1.0
  0
MTEXT
  5
159
330
1F
100
AcDbEntity
  8
TITLE
100
AcDbMText
 10
80.04249644481143
 20
33.03263385002929
 30
0.0
 40
0.125
 41
0.0
 71
     2
 72
     1
  1
U
  7
SLDTEXTSTYLE1
 73
     1
 44
1.0
  0
MTEXT
  5
15A
330
1F
100
AcDbEntity
  8
TITLE
100
AcDbMText
 10
0.3307529773167152
 20
35.00113778703717
 30
0.0
 40
0.125
 41
0.0
 71
     2
 72
     1
  1
V
  7
SLDTEXTSTYLE1
 73
     1
 44
1.0
  0
MTEXT
  5
15B
330
1F
100
AcDbEntity
  8
TITLE
100
AcDbMText
 10
80.04039864660804
 20
35.00113778703717
 30
0.0
 40
0.125
 41
0.0
 71
     2
 72
     1
  1
V
  7
SLDTEXTSTYLE1
 73
     1
 44
1.0
  0
MTEXT
  5
15C
330
1F
100
AcDbEntity
  8
TITLE
100
AcDbMText
 10
0.3327784409203867
 20
36.96964172404505
 30
0.0
 40
0.125
 41
0.0
 71
     2
 72
     1
  1
W
  7
SLDTEXTSTYLE1
 73
     1
 44
1.0
  0
MTEXT
  5
15D
330
1F
100
AcDbEntity
  8
TITLE
100
AcDbMText
 10
80.04242411021173
 20
36.96964172404505
 30
0.0
 40
0.125
 41
0.0
 71
     2
 72
     1
  1
W
  7
SLDTEXTSTYLE1
 73
     1
 44
1.0
  0
MTEXT
  5
15E
330
1F
100
AcDbEntity
  8
TITLE
100
AcDbMText
 10
0.3321997349363143
 20
38.93814566105291
 30
0.0
 40
0.125
 41
0.0
 71
     2
 72
     1
  1
Y
  7
SLDTEXTSTYLE1
 73
     1
 44
1.0
  0
MTEXT
  5
15F
330
1F
100
AcDbEntity
  8
TITLE
100
AcDbMText
 10
80.04184540422764
 20
38.93814566105291
 30
0.0
 40
0.125
 41
0.0
 71
     2
 72
     1
  1
Y
  7
SLDTEXTSTYLE1
 73
     1
 44
1.0
  0
MTEXT
  5
160
330
1F
100
AcDbEntity
  8
TITLE
100
AcDbMText
 10
0.32257878981296
 20
40.90664959806079
 30
0.0
 40
0.125
 41
0.0
 71
     2
 72
     1
  1
AA
  7
SLDTEXTSTYLE1
 73
     1
 44
1.0
  0
MTEXT
  5
161
330
1F
100
AcDbEntity
  8
TITLE
100
AcDbMText
 10
80.03222445910428
 20
40.90664959806079
 30
0.0
 40
0.125
 41
0.0
 71
     2
 72
     1
  1
AA
  7
SLDTEXTSTYLE1
 73
     1
 44
1.0
  0
MTEXT
  5
162
330
1F
100
AcDbEntity
  8
TITLE
100
AcDbMText
 10
0.3267020535339989
 20
42.87515353506867
 30
0.0
 40
0.125
 41
0.0
 71
     2
 72
     1
  1
AB
  7
SLDTEXTSTYLE1
 73
     1
 44
1.0
  0
MTEXT
  5
163
330
1F
100
AcDbEntity
  8
TITLE
100
AcDbMText
 10
80.03634772282533
 20
42.87515353506867
 30
0.0
 40
0.125
 41
0.0
 71
     2
 72
     1
  1
AB
  7
SLDTEXTSTYLE1
 73
     1
 44
1.0
  0
MTEXT
  5
164
330
1F
100
AcDbEntity
  8
TITLE
100
AcDbMText
 10
0.3263258985060407
 20
44.84365747207654
 30
0.0
 40
0.125
 41
0.0
 71
     2
 72
     1
  1
AC
  7
SLDTEXTSTYLE1
 73
     1
 44
1.0
  0
MTEXT
  5
165
330
1F
100
AcDbEntity
  8
TITLE
100
AcDbMText
 10
80.03597156779738
 20
44.84365747207654
 30
0.0
 40
0.125
 41
0.0
 71
     2
 72
     1
  1
AC
  7
SLDTEXTSTYLE1
 73
     1
 44
1.0
  0
MTEXT
  5
166
330
1F
100
AcDbEntity
  8
TITLE
100
AcDbMText
 10
0.3261378196574102
 20
46.8121614090844
 30
0.0
 40
0.125
 41
0.0
 71
     2
 72
     1
  1
AD
  7
SLDTEXTSTYLE1
 73
     1
 44
1.0
  0
MTEXT
  5
167
330
1F
100
AcDbEntity
  8
TITLE
100
AcDbMText
 10
80.03578348894874
 20
46.8121614090844
 30
0.0
 40
0.125
 41
0.0
 71
     2
 72
     1
  1
AD
  7
SLDTEXTSTYLE1
 73
     1
 44
1.0
  0
MTEXT
  5
168
330
1F
100
AcDbEntity
  8
TITLE
100
AcDbMText
 10
0.3278739282670687
 20
48.78066534609229
 30
0.0
 40
0.125
 41
0.0
 71
     2
 72
     1
  1
AE
  7
SLDTEXTSTYLE1
 73
     1
 44
1.0
  0
MTEXT
  5
169
330
1F
100
AcDbEntity
  8
TITLE
100
AcDbMText
 10
80.0375195975584
 20
48.7806653460923
 30
0.0
 40
0.125
 41
0.0
 71
     2
 72
     1
  1
AE
  7
SLDTEXTSTYLE1
 73
     1
 44
1.0
  0
MTEXT
  5
16A
330
1F
100
AcDbEntity
  8
TITLE
100
AcDbMText
 10
0.3262969596296784
 20
50.74916928310016
 30
0.0
 40
0.125
 41
0.0
 71
     2
 72
     1
  1
AF
  7
SLDTEXTSTYLE1
 73
     1
 44
1.0
  0
MTEXT
  5
16B
330
1F
100
AcDbEntity
  8
TITLE
100
AcDbMText
 10
80.035942628921
 20
50.74916928310016
 30
0.0
 40
0.125
 41
0.0
 71
     2
 72
     1
  1
AF
  7
SLDTEXTSTYLE1
 73
     1
 44
1.0
  0
MTEXT
  5
16C
330
1F
100
AcDbEntity
  8
TITLE
100
AcDbMText
 10
0.3272084176657706
 20
52.71767322010803
 30
0.0
 40
0.125
 41
0.0
 71
     2
 72
     1
  1
AG
  7
SLDTEXTSTYLE1
 73
     1
 44
1.0
  0
MTEXT
  5
16D
330
1F
100
AcDbEntity
  8
TITLE
100
AcDbMText
 10
80.0368540869571
 20
52.71767322010804
 30
0.0
 40
0.125
 41
0.0
 71
     2
 72
     1
  1
AG
  7
SLDTEXTSTYLE1
 73
     1
 44
1.0
  0
MTEXT
  5
16E
330
1F
100
AcDbEntity
  8
TITLE
100
AcDbMText
 10
0.3273241624940099
 20
54.68617715711591
 30
0.0
 40
0.125
 41
0.0
 71
     2
 72
     1
  1
AH
  7
SLDTEXTSTYLE1
 73
     1
 44
1.0
  0
MTEXT
  5
16F
330
1F
100
AcDbEntity
  8
TITLE
100
AcDbMText
 10
80.03696983178533
 20
54.6861771571159
 30
0.0
 40
0.125
 41
0.0
 71
     2
 72
     1
  1
AH
  7
SLDTEXTSTYLE1
 73
     1
 44
1.0
  0
MTEXT
  5
170
330
1F
100
AcDbEntity
  8
TITLE
100
AcDbMText
 10
0.3265284427888984
 20
56.65468109412379
 30
0.0
 40
0.125
 41
0.0
 71
     2
 72
     1
  1
AJ
  7
SLDTEXTSTYLE1
 73
     1
 44
1.0
  0
MTEXT
  5
171
330
1F
100
AcDbEntity
  8
TITLE
100
AcDbMText
 10
80.03617411208022
 20
56.65468109412379
 30
0.0
 40
0.125
 41
0.0
 71
     2
 72
     1
  1
AJ
  7
SLDTEXTSTYLE1
 73
     1
 44
1.0
  0
MTEXT
  5
172
330
1F
100
AcDbEntity
  8
TITLE
100
AcDbMText
 10
0.327266288745239
 20
58.6094055035726
 30
0.0
 40
0.125
 41
0.0
 71
     2
 72
     1
  1
AK
  7
SLDTEXTSTYLE1
 73
     1
 44
1.0
  0
MTEXT
  5
173
330
1F
100
AcDbEntity
  8
TITLE
100
AcDbMText
 10
80.03691195803657
 20
58.6094055035726
 30
0.0
 40
0.125
 41
0.0
 71
     2
 72
     1
  1
AK
  7
SLDTEXTSTYLE1
 73
     1
 44
1.0
  0
MTEXT
  5
174
330
1F
100
AcDbEntity
  8
TITLE
100
AcDbMText
 10
1.640445237055303
 20
0.4125551098718104
 30
0.0
 40
0.125
 41
0.0
 71
     2
 72
     1
  1
40
  7
SLDTEXTSTYLE1
 73
     1
 44
1.0
  0
MTEXT
  5
175
330
1F
100
AcDbEntity
  8
TITLE
100
AcDbMText
 10
1.640445237055303
 20
59.74720077916317
 30
0.0
 40
0.125
 41
0.0
 71
     2
 72
     1
  1
40
  7
SLDTEXTSTYLE1
 73
     1
 44
1.0
  0
MTEXT
  5
176
330
1F
100
AcDbEntity
  8
TITLE
100
AcDbMText
 10
3.767659803984436
 20
0.4125551098718104
 30
0.0
 40
0.125
 41
0.0
 71
     2
 72
     1
  1
39
  7
SLDTEXTSTYLE1
 73
     1
 44
1.0
  0
MTEXT
  5
177
330
1F
100
AcDbEntity
  8
TITLE
100
AcDbMText
 10
3.767659803984436
 20
59.74720077916316
 30
0.0
 40
0.125
 41
0.0
 71
     2
 72
     1
  1
39
  7
SLDTEXTSTYLE1
 73
     1
 44
1.0
  0
MTEXT
  5
178
330
1F
100
AcDbEntity
  8
TITLE
100
AcDbMText
 10
5.736163740992311
 20
0.4125551098718105
 30
0.0
 40
0.125
 41
0.0
 71
     2
 72
     1
  1
38
  7
SLDTEXTSTYLE1
 73
     1
 44
1.0
  0
MTEXT
  5
179
330
1F
100
AcDbEntity
  8
TITLE
100
AcDbMText
 10
5.736163740992311
 20
59.74720077916316
 30
0.0
 40
0.125
 41
0.0
 71
     2
 72
     1
  1
38
  7
SLDTEXTSTYLE1
 73
     1
 44
1.0
  0
MTEXT
  5
17A
330
1F
100
AcDbEntity
  8
TITLE
100
AcDbMText
 10
7.704667678000185
 20
0.4125551098718104
 30
0.0
 40
0.125
 41
0.0
 71
     2
 72
     1
  1
37
  7
SLDTEXTSTYLE1
 73
     1
 44
1.0
  0
MTEXT
  5
17B
330
1F
100
AcDbEntity
  8
TITLE
100
AcDbMText
 10
7.704667678000184
 20
59.74720077916316
 30
0.0
 40
0.125
 41
0.0
 71
     2
 72
     1
  1
37
  7
SLDTEXTSTYLE1
 73
     1
 44
1.0
  0
MTEXT
  5
17C
330
1F
100
AcDbEntity
  8
TITLE
100
AcDbMText
 10
9.673171615008059
 20
0.4125551098718104
 30
0.0
 40
0.125
 41
0.0
 71
     2
 72
     1
  1
36
  7
SLDTEXTSTYLE1
 73
     1
 44
1.0
  0
MTEXT
  5
17D
330
1F
100
AcDbEntity
  8
TITLE
100
AcDbMText
 10
9.67317161500806
 20
59.74720077916316
 30
0.0
 40
0.125
 41
0.0
 71
     2
 72
     1
  1
36
  7
SLDTEXTSTYLE1
 73
     1
 44
1.0
  0
MTEXT
  5
17E
330
1F
100
AcDbEntity
  8
TITLE
100
AcDbMText
 10
11.64167555201593
 20
0.4125551098718104
 30
0.0
 40
0.125
 41
0.0
 71
     2
 72
     1
  1
35
  7
SLDTEXTSTYLE1
 73
     1
 44
1.0
  0
MTEXT
  5
17F
330
1F
100
AcDbEntity
  8
TITLE
100
AcDbMText
 10
11.64167555201593
 20
59.74720077916316
 30
0.0
 40
0.125
 41
0.0
 71
     2
 72
     1
  1
35
  7
SLDTEXTSTYLE1
 73
     1
 44
1.0
  0
MTEXT
  5
180
330
1F
100
AcDbEntity
  8
TITLE
100
AcDbMText
 10
13.61017948902381
 20
0.4125551098718104
 30
0.0
 40
0.125
 41
0.0
 71
     2
 72
     1
  1
34
  7
SLDTEXTSTYLE1
 73
     1
 44
1.0
  0
MTEXT
  5
181
330
1F
100
AcDbEntity
  8
TITLE
100
AcDbMText
 10
13.6101794890238
 20
59.74720077916316
 30
0.0
 40
0.125
 41
0.0
 71
     2
 72
     1
  1
34
  7
SLDTEXTSTYLE1
 73
     1
 44
1.0
  0
MTEXT
  5
182
330
1F
100
AcDbEntity
  8
TITLE
100
AcDbMText
 10
15.57868342603168
 20
0.4125551098718104
 30
0.0
 40
0.125
 41
0.0
 71
     2
 72
     1
  1
33
  7
SLDTEXTSTYLE1
 73
     1
 44
1.0
  0
MTEXT
  5
183
330
1F
100
AcDbEntity
  8
TITLE
100
AcDbMText
 10
15.57868342603168
 20
59.74720077916317
 30
0.0
 40
0.125
 41
0.0
 71
     2
 72
     1
  1
33
  7
SLDTEXTSTYLE1
 73
     1
 44
1.0
  0
MTEXT
  5
184
330
1F
100
AcDbEntity
  8
TITLE
100
AcDbMText
 10
17.54718736303955
 20
0.4125551098718104
 30
0.0
 40
0.125
 41
0.0
 71
     2
 72
     1
  1
32
  7
SLDTEXTSTYLE1
 73
     1
 44
1.0
  0
MTEXT
  5
185
330
1F
100
AcDbEntity
  8
TITLE
100
AcDbMText
 10
17.54718736303955
 20
59.74720077916316
 30
0.0
 40
0.125
 41
0.0
 71
     2
 72
     1
  1
32
  7
SLDTEXTSTYLE1
 73
     1
 44
1.0
  0
MTEXT
  5
186
330
1F
100
AcDbEntity
  8
TITLE
100
AcDbMText
 10
19.51569130004743
 20
0.4125551098718104
 30
0.0
 40
0.125
 41
0.0
 71
     2
 72
     1
  1
31
  7
SLDTEXTSTYLE1
 73
     1
 44
1.0
  0
MTEXT
  5
187
330
1F
100
AcDbEntity
  8
TITLE
100
AcDbMText
 10
19.51569130004743
 20
59.74720077916316
 30
0.0
 40
0.125
 41
0.0
 71
     2
 72
     1
  1
31
  7
SLDTEXTSTYLE1
 73
     1
 44
1.0
  0
MTEXT
  5
188
330
1F
100
AcDbEntity
  8
TITLE
100
AcDbMText
 10
21.48419523705531
 20
0.4125551098718104
 30
0.0
 40
0.125
 41
0.0
 71
     2
 72
     1
  1
30
  7
SLDTEXTSTYLE1
 73
     1
 44
1.0
  0
MTEXT
  5
189
330
1F
100
AcDbEntity
  8
TITLE
100
AcDbMText
 10
21.48419523705531
 20
59.74720077916316
 30
0.0
 40
0.125
 41
0.0
 71
     2
 72
     1
  1
30
  7
SLDTEXTSTYLE1
 73
     1
 44
1.0
  0
MTEXT
  5
18A
330
1F
100
AcDbEntity
  8
TITLE
100
AcDbMText
 10
23.45269917406318
 20
0.4125551098718104
 30
0.0
 40
0.125
 41
0.0
 71
     2
 72
     1
  1
29
  7
SLDTEXTSTYLE1
 73
     1
 44
1.0
  0
MTEXT
  5
18B
330
1F
100
AcDbEntity
  8
TITLE
100
AcDbMText
 10
23.45269917406318
 20
59.74720077916316
 30
0.0
 40
0.125
 41
0.0
 71
     2
 72
     1
  1
29
  7
SLDTEXTSTYLE1
 73
     1
 44
1.0
  0
MTEXT
  5
18C
330
1F
100
AcDbEntity
  8
TITLE
100
AcDbMText
 10
25.42120311107105
 20
0.4125551098718104
 30
0.0
 40
0.125
 41
0.0
 71
     2
 72
     1
  1
28
  7
SLDTEXTSTYLE1
 73
     1
 44
1.0
  0
MTEXT
  5
18D
330
1F
100
AcDbEntity
  8
TITLE
100
AcDbMText
 10
25.42120311107105
 20
59.74720077916317
 30
0.0
 40
0.125
 41
0.0
 71
     2
 72
     1
  1
28
  7
SLDTEXTSTYLE1
 73
     1
 44
1.0
  0
MTEXT
  5
18E
330
1F
100
AcDbEntity
  8
TITLE
100
AcDbMText
 10
27.38970704807892
 20
0.4125551098718104
 30
0.0
 40
0.125
 41
0.0
 71
     2
 72
     1
  1
27
  7
SLDTEXTSTYLE1
 73
     1
 44
1.0
  0
MTEXT
  5
18F
330
1F
100
AcDbEntity
  8
TITLE
100
AcDbMText
 10
27.38970704807893
 20
59.74720077916316
 30
0.0
 40
0.125
 41
0.0
 71
     2
 72
     1
  1
27
  7
SLDTEXTSTYLE1
 73
     1
 44
1.0
  0
MTEXT
  5
190
330
1F
100
AcDbEntity
  8
TITLE
100
AcDbMText
 10
29.3582109850868
 20
0.4125551098718104
 30
0.0
 40
0.125
 41
0.0
 71
     2
 72
     1
  1
26
  7
SLDTEXTSTYLE1
 73
     1
 44
1.0
  0
MTEXT
  5
191
330
1F
100
AcDbEntity
  8
TITLE
100
AcDbMText
 10
29.3582109850868
 20
59.74720077916316
 30
0.0
 40
0.125
 41
0.0
 71
     2
 72
     1
  1
26
  7
SLDTEXTSTYLE1
 73
     1
 44
1.0
  0
MTEXT
  5
192
330
1F
100
AcDbEntity
  8
TITLE
100
AcDbMText
 10
31.32671492209467
 20
0.4125551098718104
 30
0.0
 40
0.125
 41
0.0
 71
     2
 72
     1
  1
25
  7
SLDTEXTSTYLE1
 73
     1
 44
1.0
  0
MTEXT
  5
193
330
1F
100
AcDbEntity
  8
TITLE
100
AcDbMText
 10
31.32671492209468
 20
59.74720077916316
 30
0.0
 40
0.125
 41
0.0
 71
     2
 72
     1
  1
25
  7
SLDTEXTSTYLE1
 73
     1
 44
1.0
  0
MTEXT
  5
194
330
1F
100
AcDbEntity
  8
TITLE
100
AcDbMText
 10
33.29521885910255
 20
0.4125551098718104
 30
0.0
 40
0.125
 41
0.0
 71
     2
 72
     1
  1
24
  7
SLDTEXTSTYLE1
 73
     1
 44
1.0
  0
MTEXT
  5
195
330
1F
100
AcDbEntity
  8
TITLE
100
AcDbMText
 10
33.29521885910255
 20
59.74720077916316
 30
0.0
 40
0.125
 41
0.0
 71
     2
 72
     1
  1
24
  7
SLDTEXTSTYLE1
 73
     1
 44
1.0
  0
MTEXT
  5
196
330
1F
100
AcDbEntity
  8
TITLE
100
AcDbMText
 10
35.26372279611042
 20
0.4125551098718104
 30
0.0
 40
0.125
 41
0.0
 71
     2
 72
     1
  1
23
  7
SLDTEXTSTYLE1
 73
     1
 44
1.0
  0
MTEXT
  5
197
330
1F
100
AcDbEntity
  8
TITLE
100
AcDbMText
 10
35.26372279611042
 20
59.74720077916316
 30
0.0
 40
0.125
 41
0.0
 71
     2
 72
     1
  1
23
  7
SLDTEXTSTYLE1
 73
     1
 44
1.0
  0
MTEXT
  5
198
330
1F
100
AcDbEntity
  8
TITLE
100
AcDbMText
 10
37.2322267331183
 20
0.4125551098718104
 30
0.0
 40
0.125
 41
0.0
 71
     2
 72
     1
  1
22
  7
SLDTEXTSTYLE1
 73
     1
 44
1.0
  0
MTEXT
  5
199
330
1F
100
AcDbEntity
  8
TITLE
100
AcDbMText
 10
37.2322267331183
 20
59.74720077916316
 30
0.0
 40
0.125
 41
0.0
 71
     2
 72
     1
  1
22
  7
SLDTEXTSTYLE1
 73
     1
 44
1.0
  0
MTEXT
  5
19A
330
1F
100
AcDbEntity
  8
TITLE
100
AcDbMText
 10
39.20073067012617
 20
0.4125551098718104
 30
0.0
 40
0.125
 41
0.0
 71
     2
 72
     1
  1
21
  7
SLDTEXTSTYLE1
 73
     1
 44
1.0
  0
MTEXT
  5
19B
330
1F
100
AcDbEntity
  8
TITLE
100
AcDbMText
 10
39.20073067012617
 20
59.74720077916316
 30
0.0
 40
0.125
 41
0.0
 71
     2
 72
     1
  1
21
  7
SLDTEXTSTYLE1
 73
     1
 44
1.0
  0
MTEXT
  5
19C
330
1F
100
AcDbEntity
  8
TITLE
100
AcDbMText
 10
41.16923460713404
 20
0.4125551098718104
 30
0.0
 40
0.125
 41
0.0
 71
     2
 72
     1
  1
20
  7
SLDTEXTSTYLE1
 73
     1
 44
1.0
  0
MTEXT
  5
19D
330
1F
100
AcDbEntity
  8
TITLE
100
AcDbMText
 10
41.16923460713404
 20
59.74720077916315
 30
0.0
 40
0.125
 41
0.0
 71
     2
 72
     1
  1
20
  7
SLDTEXTSTYLE1
 73
     1
 44
1.0
  0
MTEXT
  5
19E
330
1F
100
AcDbEntity
  8
TITLE
100
AcDbMText
 10
43.13773854414192
 20
0.4125551098718104
 30
0.0
 40
0.125
 41
0.0
 71
     2
 72
     1
  1
19
  7
SLDTEXTSTYLE1
 73
     1
 44
1.0
  0
MTEXT
  5
19F
330
1F
100
AcDbEntity
  8
TITLE
100
AcDbMText
 10
43.13773854414192
 20
59.74720077916315
 30
0.0
 40
0.125
 41
0.0
 71
     2
 72
     1
  1
19
  7
SLDTEXTSTYLE1
 73
     1
 44
1.0
  0
MTEXT
  5
1A0
330
1F
100
AcDbEntity
  8
TITLE
100
AcDbMText
 10
45.10624248114979
 20
0.4125551098718104
 30
0.0
 40
0.125
 41
0.0
 71
     2
 72
     1
  1
18
  7
SLDTEXTSTYLE1
 73
     1
 44
1.0
  0
MTEXT
  5
1A1
330
1F
100
AcDbEntity
  8
TITLE
100
AcDbMText
 10
45.10624248114981
 20
59.74720077916317
 30
0.0
 40
0.125
 41
0.0
 71
     2
 72
     1
  1
18
  7
SLDTEXTSTYLE1
 73
     1
 44
1.0
  0
MTEXT
  5
1A2
330
1F
100
AcDbEntity
  8
TITLE
100
AcDbMText
 10
47.07474641815766
 20
0.4125551098718104
 30
0.0
 40
0.125
 41
0.0
 71
     2
 72
     1
  1
17
  7
SLDTEXTSTYLE1
 73
     1
 44
1.0
  0
MTEXT
  5
1A3
330
1F
100
AcDbEntity
  8
TITLE
100
AcDbMText
 10
47.07474641815766
 20
59.74720077916316
 30
0.0
 40
0.125
 41
0.0
 71
     2
 72
     1
  1
17
  7
SLDTEXTSTYLE1
 73
     1
 44
1.0
  0
MTEXT
  5
1A4
330
1F
100
AcDbEntity
  8
TITLE
100
AcDbMText
 10
49.04325035516555
 20
0.4125551098718104
 30
0.0
 40
0.125
 41
0.0
 71
     2
 72
     1
  1
16
  7
SLDTEXTSTYLE1
 73
     1
 44
1.0
  0
MTEXT
  5
1A5
330
1F
100
AcDbEntity
  8
TITLE
100
AcDbMText
 10
49.04325035516555
 20
59.74720077916316
 30
0.0
 40
0.125
 41
0.0
 71
     2
 72
     1
  1
16
  7
SLDTEXTSTYLE1
 73
     1
 44
1.0
  0
MTEXT
  5
1A6
330
1F
100
AcDbEntity
  8
TITLE
100
AcDbMText
 10
51.01175429217341
 20
0.4125551098718104
 30
0.0
 40
0.125
 41
0.0
 71
     2
 72
     1
  1
15
  7
SLDTEXTSTYLE1
 73
     1
 44
1.0
  0
MTEXT
  5
1A7
330
1F
100
AcDbEntity
  8
TITLE
100
AcDbMText
 10
51.01175429217341
 20
59.74720077916315
 30
0.0
 40
0.125
 41
0.0
 71
     2
 72
     1
  1
15
  7
SLDTEXTSTYLE1
 73
     1
 44
1.0
  0
MTEXT
  5
1A8
330
1F
100
AcDbEntity
  8
TITLE
100
AcDbMText
 10
52.9802582291813
 20
0.4125551098718104
 30
0.0
 40
0.125
 41
0.0
 71
     2
 72
     1
  1
14
  7
SLDTEXTSTYLE1
 73
     1
 44
1.0
  0
MTEXT
  5
1A9
330
1F
100
AcDbEntity
  8
TITLE
100
AcDbMText
 10
52.9802582291813
 20
59.74720077916316
 30
0.0
 40
0.125
 41
0.0
 71
     2
 72
     1
  1
14
  7
SLDTEXTSTYLE1
 73
     1
 44
1.0
  0
MTEXT
  5
1AA
330
1F
100
AcDbEntity
  8
TITLE
100
AcDbMText
 10
54.94876216618916
 20
0.4125551098718104
 30
0.0
 40
0.125
 41
0.0
 71
     2
 72
     1
  1
13
  7
SLDTEXTSTYLE1
 73
     1
 44
1.0
  0
MTEXT
  5
1AB
330
1F
100
AcDbEntity
  8
TITLE
100
AcDbMText
 10
54.94876216618916
 20
59.74720077916316
 30
0.0
 40
0.125
 41
0.0
 71
     2
 72
     1
  1
13
  7
SLDTEXTSTYLE1
 73
     1
 44
1.0
  0
MTEXT
  5
1AC
330
1F
100
AcDbEntity
  8
TITLE
100
AcDbMText
 10
56.91726610319703
 20
0.4125551098718104
 30
0.0
 40
0.125
 41
0.0
 71
     2
 72
     1
  1
12
  7
SLDTEXTSTYLE1
 73
     1
 44
1.0
  0
MTEXT
  5
1AD
330
1F
100
AcDbEntity
  8
TITLE
100
AcDbMText
 10
56.91726610319703
 20
59.74720077916315
 30
0.0
 40
0.125
 41
0.0
 71
     2
 72
     1
  1
12
  7
SLDTEXTSTYLE1
 73
     1
 44
1.0
  0
MTEXT
  5
1AE
330
1F
100
AcDbEntity
  8
TITLE
100
AcDbMText
 10
58.88577004020492
 20
0.4125551098718104
 30
0.0
 40
0.125
 41
0.0
 71
     2
 72
     1
  1
11
  7
SLDTEXTSTYLE1
 73
     1
 44
1.0
  0
MTEXT
  5
1AF
330
1F
100
AcDbEntity
  8
TITLE
100
AcDbMText
 10
58.88577004020492
 20
59.74720077916316
 30
0.0
 40
0.125
 41
0.0
 71
     2
 72
     1
  1
11
  7
SLDTEXTSTYLE1
 73
     1
 44
1.0
  0
MTEXT
  5
1B0
330
1F
100
AcDbEntity
  8
TITLE
100
AcDbMText
 10
60.85427397721278
 20
0.4125551098718104
 30
0.0
 40
0.125
 41
0.0
 71
     2
 72
     1
  1
10
  7
SLDTEXTSTYLE1
 73
     1
 44
1.0
  0
MTEXT
  5
1B1
330
1F
100
AcDbEntity
  8
TITLE
100
AcDbMText
 10
60.85427397721278
 20
59.74720077916317
 30
0.0
 40
0.125
 41
0.0
 71
     2
 72
     1
  1
10
  7
SLDTEXTSTYLE1
 73
     1
 44
1.0
  0
MTEXT
  5
1B2
330
1F
100
AcDbEntity
  8
TITLE
100
AcDbMText
 10
62.82403659490561
 20
0.4125551098718105
 30
0.0
 40
0.125
 41
0.0
 71
     2
 72
     1
  1
9
  7
SLDTEXTSTYLE1
 73
     1
 44
1.0
  0
MTEXT
  5
1B3
330
1F
100
AcDbEntity
  8
TITLE
100
AcDbMText
 10
62.82403659490561
 20
59.74720077916317
 30
0.0
 40
0.125
 41
0.0
 71
     2
 72
     1
  1
9
  7
SLDTEXTSTYLE1
 73
     1
 44
1.0
  0
MTEXT
  5
1B4
330
1F
100
AcDbEntity
  8
TITLE
100
AcDbMText
 10
64.79254053191349
 20
0.4125551098718104
 30
0.0
 40
0.125
 41
0.0
 71
     2
 72
     1
  1
8
  7
SLDTEXTSTYLE1
 73
     1
 44
1.0
  0
MTEXT
  5
1B5
330
1F
100
AcDbEntity
  8
TITLE
100
AcDbMText
 10
64.79254053191349
 20
59.74720077916316
 30
0.0
 40
0.125
 41
0.0
 71
     2
 72
     1
  1
8
  7
SLDTEXTSTYLE1
 73
     1
 44
1.0
  0
MTEXT
  5
1B6
330
1F
100
AcDbEntity
  8
TITLE
100
AcDbMText
 10
66.76104446892136
 20
0.4125551098718104
 30
0.0
 40
0.125
 41
0.0
 71
     2
 72
     1
  1
7
  7
SLDTEXTSTYLE1
 73
     1
 44
1.0
  0
MTEXT
  5
1B7
330
1F
100
AcDbEntity
  8
TITLE
100
AcDbMText
 10
66.76104446892136
 20
59.74720077916316
 30
0.0
 40
0.125
 41
0.0
 71
     2
 72
     1
  1
7
  7
SLDTEXTSTYLE1
 73
     1
 44
1.0
  0
MTEXT
  5
1B8
330
1F
100
AcDbEntity
  8
TITLE
100
AcDbMText
 10
68.72954840592924
 20
0.4125551098718104
 30
0.0
 40
0.125
 41
0.0
 71
     2
 72
     1
  1
6
  7
SLDTEXTSTYLE1
 73
     1
 44
1.0
  0
MTEXT
  5
1B9
330
1F
100
AcDbEntity
  8
TITLE
100
AcDbMText
 10
68.72954840592924
 20
59.74720077916316
 30
0.0
 40
0.125
 41
0.0
 71
     2
 72
     1
  1
6
  7
SLDTEXTSTYLE1
 73
     1
 44
1.0
  0
MTEXT
  5
1BA
330
1F
100
AcDbEntity
  8
TITLE
100
AcDbMText
 10
70.69805234293709
 20
0.4125551098718104
 30
0.0
 40
0.125
 41
0.0
 71
     2
 72
     1
  1
5
  7
SLDTEXTSTYLE1
 73
     1
 44
1.0
  0
MTEXT
  5
1BB
330
1F
100
AcDbEntity
  8
TITLE
100
AcDbMText
 10
70.6980523429371
 20
59.74720077916316
 30
0.0
 40
0.125
 41
0.0
 71
     2
 72
     1
  1
5
  7
SLDTEXTSTYLE1
 73
     1
 44
1.0
  0
MTEXT
  5
1BC
330
1F
100
AcDbEntity
  8
TITLE
100
AcDbMText
 10
72.66655627994497
 20
0.4125551098718104
 30
0.0
 40
0.125
 41
0.0
 71
     2
 72
     1
  1
4
  7
SLDTEXTSTYLE1
 73
     1
 44
1.0
  0
MTEXT
  5
1BD
330
1F
100
AcDbEntity
  8
TITLE
100
AcDbMText
 10
72.66655627994497
 20
59.74720077916315
 30
0.0
 40
0.125
 41
0.0
 71
     2
 72
     1
  1
4
  7
SLDTEXTSTYLE1
 73
     1
 44
1.0
  0
MTEXT
  5
1BE
330
1F
100
AcDbEntity
  8
TITLE
100
AcDbMText
 10
74.63506021695285
 20
0.4125551098718104
 30
0.0
 40
0.125
 41
0.0
 71
     2
 72
     1
  1
3
  7
SLDTEXTSTYLE1
 73
     1
 44
1.0
  0
MTEXT
  5
1BF
330
1F
100
AcDbEntity
  8
TITLE
100
AcDbMText
 10
74.63506021695285
 20
59.74720077916315
 30
0.0
 40
0.125
 41
0.0
 71
     2
 72
     1
  1
3
  7
SLDTEXTSTYLE1
 73
     1
 44
1.0
  0
MTEXT
  5
1C0
330
1F
100
AcDbEntity
  8
TITLE
100
AcDbMText
 10
76.60356415396072
 20
0.4125551098718104
 30
0.0
 40
0.125
 41
0.0
 71
     2
 72
     1
  1
2
  7
SLDTEXTSTYLE1
 73
     1
 44
1.0
  0
MTEXT
  5
1C1
330
1F
100
AcDbEntity
  8
TITLE
100
AcDbMText
 10
76.60356415396073
 20
59.74720077916316
 30
0.0
 40
0.125
 41
0.0
 71
     2
 72
     1
  1
2
  7
SLDTEXTSTYLE1
 73
     1
 44
1.0
  0
MTEXT
  5
1C2
330
1F
100
AcDbEntity
  8
TITLE
100
AcDbMText
 10
78.73077872088987
 20
0.4125551098718104
 30
0.0
 40
0.125
 41
0.0
 71
     2
 72
     1
  1
1
  7
SLDTEXTSTYLE1
 73
     1
 44
1.0
  0
MTEXT
  5
1C3
330
1F
100
AcDbEntity
  8
TITLE
100
AcDbMText
 10
78.73077872088986
 20
59.74720077916315
 30
0.0
 40
0.125
 41
0.0
 71
     2
 72
     1
  1
1
  7
SLDTEXTSTYLE1
 73
     1
 44
1.0
  0
ARC
  5
1C4
330
1F
100
AcDbEntity
  8
0
  6
SLD-Solid
 62
     7
370
    25
100
AcDbCircle
 10
20.64889375714712
 20
24.76306354459537
 30
0.0
 40
0.0025000000000015
100
AcDbArc
 50
32.98629416266377
 51
179.9999999998371
  0
ARC
  5
1C5
330
1F
100
AcDbEntity
  8
0
  6
SLD-Solid
 62
     7
370
    25
100
AcDbCircle
 10
20.64889375714713
 20
24.51318330764227
 30
0.0
 40
0.0024999999999986
100
AcDbArc
 50
180.0000000000822
 51
327.0137058372927
  0
ARC
  5
1C6
330
1F
100
AcDbEntity
  8
0
  6
SLD-Solid
 62
     7
370
    25
100
AcDbCircle
 10
20.4564020538329
 20
24.63812342611882
 30
0.0
 40
0.2319843982708833
100
AcDbArc
 50
327.0137058375634
 51
32.98629416244206
  0
ARC
  5
1C7
330
1F
100
AcDbEntity
  8
0
  6
SLD-Solid
 62
     7
370
    25
100
AcDbCircle
 10
17.89398273350532
 20
24.51318330764222
 30
0.0
 40
0.0025000000000024
100
AcDbArc
 50
212.9862941628455
 51
359.9999999997565
  0
ARC
  5
1C8
330
1F
100
AcDbEntity
  8
0
  6
SLD-Solid
 62
     7
370
    25
100
AcDbCircle
 10
17.89398273350532
 20
24.76306354459533
 30
0.0
 40
0.0025000000000013
100
AcDbArc
 50
0.0000000001628444
 51
147.0137058372236
  0
ARC
  5
1C9
330
1F
100
AcDbEntity
  8
0
  6
SLD-Solid
 62
     7
370
    25
100
AcDbCircle
 10
18.08647443681955
 20
24.6381234261188
 30
0.0
 40
0.2319843982708833
100
AcDbArc
 50
147.0137058375628
 51
212.9862941624429
  0
ARC
  5
1CA
330
1F
100
AcDbEntity
  8
0
  6
SLD-Solid
 62
     7
370
    25
100
AcDbCircle
 10
19.93856136502588
 20
24.42117541839354
 30
0.0
 40
0.3092708402677301
100
AcDbArc
 50
268.9992898281033
 51
303.6506100288403
  0
LINE
  5
1CB
330
1F
100
AcDbEntity
  8
0
  6
SLD-Solid
 62
     7
370
    25
100
AcDbLine
 10
18.60971647880764
 20
24.11195174849794
 30
0.0
 11
19.93316001184466
 21
24.11195174849792
 31
0.0
  0
ARC
  5
1CC
330
1F
100
AcDbEntity
  8
0
  6
SLD-Solid
 62
     7
370
    25
100
AcDbCircle
 10
18.60431512565668
 20
24.42117541838472
 30
0.0
 40
0.3092708402583563
100
AcDbArc
 50
236.3493899708363
 51
271.0007101663227
  0
LINE
  5
1CD
330
1F
100
AcDbEntity
  8
0
  6
SLD-Solid
 62
     7
370
    25
100
AcDbLine
 10
18.01310032534791
 20
24.46059977164548
 30
0.0
 11
18.14961559164185
 21
24.36406890111355
 31
0.0
  0
LINE
  5
1CE
330
1F
100
AcDbEntity
  8
0
  6
SLD-Solid
 62
     7
370
    25
100
AcDbLine
 10
18.40692178304694
 20
24.18212594832973
 30
0.0
 11
18.43293978349275
 21
24.16372844378158
 31
0.0
  0
LINE
  5
1CF
330
1F
100
AcDbEntity
  8
0
  6
SLD-Solid
 62
     7
370
    25
100
AcDbLine
 10
20.10993670719354
 20
24.16372844378163
 30
0.0
 11
20.13595470765031
 21
24.18212594833745
 31
0.0
  0
LINE
  5
1D0
330
1F
100
AcDbEntity
  8
0
  6
SLD-Solid
 62
     7
370
    25
100
AcDbLine
 10
20.39326089892929
 20
24.36406890103219
 30
0.0
 11
20.52977616533836
 21
24.46059977164554
 31
0.0
  0
LINE
  5
1D1
330
1F
100
AcDbEntity
  8
0
  6
SLD-Solid
 62
     7
370
    25
100
AcDbLine
 10
18.60971647880771
 20
24.09073854506238
 30
0.0
 11
18.60971647880764
 21
24.11195174849794
 31
0.0
  0
ARC
  5
1D2
330
1F
100
AcDbEntity
  8
0
  6
SLD-Solid
 62
     7
370
    25
100
AcDbCircle
 10
18.60431512565633
 20
24.39996221494814
 30
0.0
 40
0.3092708402573477
100
AcDbArc
 50
236.3493899707893
 51
271.000710166403
  0
LINE
  5
1D3
330
1F
100
AcDbEntity
  8
0
  6
SLD-Solid
 62
     7
370
    25
100
AcDbLine
 10
18.43293978349275
 20
24.14251524034599
 30
0.0
 11
18.43293978349275
 21
24.16372844378158
 31
0.0
  0
LINE
  5
1D4
330
1F
100
AcDbEntity
  8
0
  6
SLD-Solid
 62
     7
370
    25
100
AcDbLine
 10
19.93316001184473
 20
24.09073854506235
 30
0.0
 11
19.93316001184466
 21
24.11195174849792
 31
0.0
  0
LINE
  5
1D5
330
1F
100
AcDbEntity
  8
0
  6
SLD-Solid
 62
     7
370
    25
100
AcDbLine
 10
18.60971647880771
 20
24.09073854506238
 30
0.0
 11
19.93316001184473
 21
24.09073854506235
 31
0.0
  0
LINE
  5
1D6
330
1F
100
AcDbEntity
  8
0
  6
SLD-Solid
 62
     7
370
    25
100
AcDbLine
 10
20.10993670719354
 20
24.14251524034604
 30
0.0
 11
20.10993670719354
 21
24.16372844378163
 31
0.0
  0
ARC
  5
1D7
330
1F
100
AcDbEntity
  8
0
  6
SLD-Solid
 62
     7
370
    25
100
AcDbCircle
 10
19.93856136502597
 20
24.39996221495786
 30
0.0
 40
0.3092708402676069
100
AcDbArc
 50
268.9992898280989
 51
303.6506100288357
  0
LINE
  5
1D8
330
1F
100
AcDbEntity
  8
0
  6
SLD-Solid
 62
     7
370
    25
100
AcDbLine
 10
18.01310032534791
 20
24.46059977164548
 30
0.0
 11
18.01310032534792
 21
24.43938656820988
 31
0.0
  0
LINE
  5
1D9
330
1F
100
AcDbEntity
  8
0
  6
SLD-Solid
 62
     7
370
    25
100
AcDbLine
 10
18.01310032534792
 20
24.43938656820988
 30
0.0
 11
18.22204199847226
 21
24.29164249427119
 31
0.0
  0
LINE
  5
1DA
330
1F
100
AcDbEntity
  8
0
  6
SLD-Solid
 62
     7
370
    25
100
AcDbLine
 10
18.36079547522116
 20
24.19352896994884
 30
0.0
 11
18.43293978349275
 21
24.14251524034599
 31
0.0
  0
LINE
  5
1DB
330
1F
100
AcDbEntity
  8
0
  6
SLD-Solid
 62
     7
370
    25
100
AcDbLine
 10
20.52977616533843
 20
24.43938656820994
 30
0.0
 11
20.52977616533836
 21
24.46059977164554
 31
0.0
  0
LINE
  5
1DC
330
1F
100
AcDbEntity
  8
0
  6
SLD-Solid
 62
     7
370
    25
100
AcDbLine
 10
20.10993670719354
 20
24.14251524034604
 30
0.0
 11
20.18208101549451
 21
24.19352896996958
 31
0.0
  0
LINE
  5
1DD
330
1F
100
AcDbEntity
  8
0
  6
SLD-Solid
 62
     7
370
    25
100
AcDbLine
 10
20.32083449209871
 20
24.29164249418969
 30
0.0
 11
20.52977616533843
 21
24.43938656820994
 31
0.0
  0
LINE
  5
1DE
330
1F
100
AcDbEntity
  8
0
  6
SLD-Solid
 62
     7
370
    25
100
AcDbLine
 10
18.01310032534792
 20
24.43938656820988
 30
0.0
 11
17.98843824532351
 21
24.4685910884635
 31
0.0
  0
LINE
  5
1DF
330
1F
100
AcDbEntity
  8
0
  6
SLD-Solid
 62
     7
370
    25
100
AcDbLine
 10
17.98843824532351
 20
24.47728806893327
 30
0.0
 11
17.98843824532351
 21
24.4685910884635
 31
0.0
  0
LINE
  5
1E0
330
1F
100
AcDbEntity
  8
0
  6
SLD-Solid
 62
     7
370
    25
100
AcDbLine
 10
18.01310032534791
 20
24.46059977164548
 30
0.0
 11
17.98843824532351
 21
24.47728806893327
 31
0.0
  0
LINE
  5
1E1
330
1F
100
AcDbEntity
  8
0
  6
SLD-Solid
 62
     7
370
    25
100
AcDbLine
 10
20.55443824536282
 20
24.48212342611881
 30
0.0
 11
20.55443824536288
 21
24.47728806893326
 31
0.0
  0
LINE
  5
1E2
330
1F
100
AcDbEntity
  8
0
  6
SLD-Solid
 62
     7
370
    25
100
AcDbLine
 10
20.55443824536288
 20
24.47728806893326
 30
0.0
 11
20.52977616533836
 21
24.46059977164553
 31
0.0
  0
LINE
  5
1E3
330
1F
100
AcDbEntity
  8
0
  6
SLD-Solid
 62
     7
370
    25
100
AcDbLine
 10
17.98843824532351
 20
24.47728806893327
 30
0.0
 11
17.98843824532344
 21
24.4821234261188
 31
0.0
  0
LINE
  5
1E4
330
1F
100
AcDbEntity
  8
0
  6
SLD-Solid
 62
     7
370
    25
100
AcDbLine
 10
20.55443824536288
 20
24.46859108846348
 30
0.0
 11
20.52977616533843
 21
24.43938656820994
 31
0.0
  0
LINE
  5
1E5
330
1F
100
AcDbEntity
  8
0
  6
SLD-Solid
 62
     7
370
    25
100
AcDbLine
 10
20.55443824536288
 20
24.47728806893326
 30
0.0
 11
20.55443824536288
 21
24.46859108846348
 31
0.0
  0
ARC
  5
1E6
330
1F
100
AcDbEntity
  8
0
  6
SLD-Solid
 62
     7
370
    25
100
AcDbCircle
 10
18.17643824563823
 20
42.23212342609911
 30
0.0
 40
0.1250000000000001
100
AcDbArc
 50
90.0
 51
126.799930209858
  0
LINE
  5
1E7
330
1F
100
AcDbEntity
  8
0
  6
SLD-Solid
 62
     7
370
    25
100
AcDbLine
 10
20.36643824563822
 20
42.35712342609914
 30
0.0
 11
18.17643824563823
 21
42.35712342609911
 31
0.0
  0
ARC
  5
1E8
330
1F
100
AcDbEntity
  8
0
  6
SLD-Solid
 62
     7
370
    25
100
AcDbCircle
 10
20.36643824563822
 20
42.23212342609914
 30
0.0
 40
0.124999999999998
100
AcDbArc
 50
53.20006979014333
 51
90.0
  0
LINE
  5
1E9
330
1F
100
AcDbEntity
  8
0
  6
SLD-Solid
 62
     7
370
    25
100
AcDbLine
 10
17.95448273350537
 20
24.48212342611878
 30
0.0
 11
18.10215765304747
 21
24.48212342611879
 31
0.0
  0
LINE
  5
1EA
330
1F
100
AcDbEntity
  8
0
  6
SLD-Solid
 62
     7
370
    25
100
AcDbLine
 10
17.95448273350517
 20
42.26475720344203
 30
0.0
 11
17.95448273350537
 21
24.48212342611878
 31
0.0
  0
LINE
  5
1EB
330
1F
100
AcDbEntity
  8
0
  6
SLD-Solid
 62
     7
370
    25
100
AcDbLine
 10
17.97994973958628
 20
42.26475720344203
 30
0.0
 11
17.97994973958628
 21
42.27421493867406
 31
0.0
  0
LINE
  5
1EC
330
1F
100
AcDbEntity
  8
0
  6
SLD-Solid
 62
     7
370
    25
100
AcDbLine
 10
17.97994973958628
 20
42.27421493867406
 30
0.0
 11
20.56292675106584
 21
42.27421493867408
 31
0.0
  0
LINE
  5
1ED
330
1F
100
AcDbEntity
  8
0
  6
SLD-Solid
 62
     7
370
    25
100
AcDbLine
 10
20.56292675106584
 20
42.26475720344205
 30
0.0
 11
20.56292675106584
 21
42.27421493867408
 31
0.0
  0
LINE
  5
1EE
330
1F
100
AcDbEntity
  8
0
  6
SLD-Solid
 62
     7
370
    25
100
AcDbLine
 10
20.58839375714694
 20
42.26475720344205
 30
0.0
 11
20.56292675106584
 21
42.26475720344205
 31
0.0
  0
LINE
  5
1EF
330
1F
100
AcDbEntity
  8
0
  6
SLD-Solid
 62
     7
370
    25
100
AcDbLine
 10
20.58839375714694
 20
42.26475720344205
 30
0.0
 11
20.58839375714713
 21
24.48212342611883
 31
0.0
  0
LINE
  5
1F0
330
1F
100
AcDbEntity
  8
0
  6
SLD-Solid
 62
     7
370
    25
100
AcDbLine
 10
20.58839375714713
 20
24.48212342611883
 30
0.0
 11
20.44071883760503
 21
24.4821234261188
 31
0.0
  0
LINE
  5
1F1
330
1F
100
AcDbEntity
  8
0
  6
SLD-Solid
 62
     7
370
    25
100
AcDbLine
 10
20.44071883760503
 20
24.4821234261188
 30
0.0
 11
20.44071883760503
 21
24.46329705231312
 31
0.0
  0
LINE
  5
1F2
330
1F
100
AcDbEntity
  8
0
  6
SLD-Solid
 62
     7
370
    25
100
AcDbLine
 10
18.10215765304746
 20
24.46329705231312
 30
0.0
 11
20.44071883760503
 21
24.46329705231312
 31
0.0
  0
LINE
  5
1F3
330
1F
100
AcDbEntity
  8
0
  6
SLD-Solid
 62
     7
370
    25
100
AcDbLine
 10
18.10215765304747
 20
24.48212342611879
 30
0.0
 11
18.10215765304746
 21
24.46329705231312
 31
0.0
  0
LINE
  5
1F4
330
1F
100
AcDbEntity
  8
0
  6
SLD-Solid
 62
     7
370
    25
100
AcDbLine
 10
19.42743824533612
 20
27.98212342611881
 30
0.0
 11
19.42743824533611
 21
29.85712342611882
 31
0.0
  0
ARC
  5
1F5
330
1F
100
AcDbEntity
  8
0
  6
SLD-Solid
 62
     7
370
    25
100
AcDbCircle
 10
19.27143824533612
 20
29.8571234261188
 30
0.0
 40
0.1560000000197697
100
AcDbArc
 50
0.0000000000091702
 51
180.0000000000058
  0
LINE
  5
1F6
330
1F
100
AcDbEntity
  8
0
  6
SLD-Solid
 62
     7
370
    25
100
AcDbLine
 10
19.11543824531637
 20
27.9821234261188
 30
0.0
 11
19.11543824531635
 21
29.85712342611879
 31
0.0
  0
ARC
  5
1F7
330
1F
100
AcDbEntity
  8
0
  6
SLD-Solid
 62
     7
370
    25
100
AcDbCircle
 10
19.27143824533612
 20
27.9821234261188
 30
0.0
 40
0.1560000000197554
100
AcDbArc
 50
179.9999999999985
 51
0.0000000000065242
  0
LINE
  5
1F8
330
1F
100
AcDbEntity
  8
0
  6
SLD-Solid
 62
     7
370
    25
100
AcDbLine
 10
17.95448273350517
 20
42.26475720344203
 30
0.0
 11
17.97994973958628
 21
42.26475720344203
 31
0.0
  0
LINE
  5
1F9
330
1F
100
AcDbEntity
  8
0
  6
SLD-Solid
 62
     7
370
    25
100
AcDbLine
 10
17.97994973958629
 20
42.33221493867405
 30
0.0
 11
17.97994973958628
 21
42.27421493867406
 31
0.0
  0
LINE
  5
1FA
330
1F
100
AcDbEntity
  8
0
  6
SLD-Solid
 62
     7
370
    25
100
AcDbLine
 10
17.97994973958629
 20
42.33221493867405
 30
0.0
 11
20.56292675106585
 21
42.33221493867408
 31
0.0
  0
LINE
  5
1FB
330
1F
100
AcDbEntity
  8
0
  6
SLD-Solid
 62
     7
370
    25
100
AcDbLine
 10
20.56292675106584
 20
42.27421493867408
 30
0.0
 11
20.56292675106585
 21
42.33221493867408
 31
0.0
  0
LINE
  5
1FC
330
1F
100
AcDbEntity
  8
0
  6
SLD-Solid
 62
     7
370
    25
100
AcDbLine
 10
17.89648273350537
 20
24.48212342611879
 30
0.0
 11
17.95448273350537
 21
24.48212342611878
 31
0.0
  0
LINE
  5
1FD
330
1F
100
AcDbEntity
  8
0
  6
SLD-Solid
 62
     7
370
    25
100
AcDbLine
 10
17.89648273350519
 20
42.26475720344202
 30
0.0
 11
17.89648273350537
 21
24.48212342611879
 31
0.0
  0
LINE
  5
1FE
330
1F
100
AcDbEntity
  8
0
  6
SLD-Solid
 62
     7
370
    25
100
AcDbLine
 10
17.95448273350517
 20
42.26475720344203
 30
0.0
 11
17.89648273350519
 21
42.26475720344202
 31
0.0
  0
LINE
  5
1FF
330
1F
100
AcDbEntity
  8
0
  6
SLD-Solid
 62
     7
370
    25
100
AcDbLine
 10
20.64639375714696
 20
42.26475720344205
 30
0.0
 11
20.64639375714714
 21
24.48212342611881
 31
0.0
  0
LINE
  5
200
330
1F
100
AcDbEntity
  8
0
  6
SLD-Solid
 62
     7
370
    25
100
AcDbLine
 10
20.58839375714713
 20
24.48212342611883
 30
0.0
 11
20.64639375714714
 21
24.48212342611881
 31
0.0
  0
LINE
  5
201
330
1F
100
AcDbEntity
  8
0
  6
SLD-Solid
 62
     7
370
    25
100
AcDbLine
 10
20.64639375714696
 20
42.26475720344205
 30
0.0
 11
20.58839375714694
 21
42.26475720344205
 31
0.0
  0
LINE
  5
202
330
1F
100
AcDbEntity
  8
0
  6
SLD-Solid
 62
     7
370
    25
100
AcDbLine
 10
18.10215765304748
 20
24.4222848590043
 30
0.0
 11
20.44071883760504
 21
24.42228485900432
 31
0.0
  0
LINE
  5
203
330
1F
100
AcDbEntity
  8
0
  6
SLD-Solid
 62
     7
370
    25
100
AcDbLine
 10
20.44071883760504
 20
24.42228485900432
 30
0.0
 11
20.44071883760503
 21
24.46329705231312
 31
0.0
  0
LINE
  5
204
330
1F
100
AcDbEntity
  8
0
  6
SLD-Solid
 62
     7
370
    25
100
AcDbLine
 10
18.10215765304746
 20
24.46329705231312
 30
0.0
 11
18.10215765304748
 21
24.4222848590043
 31
0.0
  0
LINE
  5
205
330
1F
100
AcDbEntity
  8
0
  6
SLD-Solid
 62
     7
370
    25
100
AcDbLine
 10
20.44071883760504
 20
24.42228485900432
 30
0.0
 11
20.44071883760504
 21
24.41152683971575
 31
0.0
  0
LINE
  5
206
330
1F
100
AcDbEntity
  8
0
  6
SLD-Solid
 62
     7
370
    25
100
AcDbLine
 10
20.44071883760504
 20
24.41152683971575
 30
0.0
 11
20.28103093494242
 21
24.25183893702684
 31
0.0
  0
ARC
  5
207
330
1F
100
AcDbEntity
  8
0
  6
SLD-Solid
 62
     7
370
    25
100
AcDbCircle
 10
20.08614817633547
 20
24.46807245587431
 30
0.0
 40
0.2910948716061645
100
AcDbArc
 50
268.1807256422118
 51
312.0270930665604
  0
LINE
  5
208
330
1F
100
AcDbEntity
  8
0
  6
SLD-Solid
 62
     7
370
    25
100
AcDbLine
 10
20.07690678968642
 20
24.17712431436415
 30
0.0
 11
18.46596970096608
 21
24.17712431436411
 31
0.0
  0
ARC
  5
209
330
1F
100
AcDbEntity
  8
0
  6
SLD-Solid
 62
     7
370
    25
100
AcDbCircle
 10
18.45672831431704
 20
24.46807245587428
 30
0.0
 40
0.291094871606175
100
AcDbArc
 50
227.9729069334421
 51
271.8192743577883
  0
LINE
  5
20A
330
1F
100
AcDbEntity
  8
0
  6
SLD-Solid
 62
     7
370
    25
100
AcDbLine
 10
18.10215765304748
 20
24.41152683971574
 30
0.0
 11
18.26184555571009
 21
24.2518389370268
 31
0.0
  0
LINE
  5
20B
330
1F
100
AcDbEntity
  8
0
  6
SLD-Solid
 62
     7
370
    25
100
AcDbLine
 10
18.10215765304748
 20
24.4222848590043
 30
0.0
 11
18.10215765304748
 21
24.41152683971574
 31
0.0
  0
LINE
  5
20C
330
1F
100
AcDbEntity
  8
0
  6
SLD-Solid
 62
     7
370
    25
100
AcDbLine
 10
17.89648273350518
 20
42.30144218528712
 30
0.0
 11
17.92548273350518
 21
42.30144218528712
 31
0.0
  0
LINE
  5
20D
330
1F
100
AcDbEntity
  8
0
  6
SLD-Solid
 62
     7
370
    25
100
AcDbLine
 10
17.89648273350518
 20
42.30144218528712
 30
0.0
 11
17.89648273350519
 21
42.26475720344202
 31
0.0
  0
LINE
  5
20E
330
1F
100
AcDbEntity
  8
0
  6
SLD-Solid
 62
     7
370
    25
100
AcDbLine
 10
17.92548273350518
 20
42.30144218528712
 30
0.0
 11
17.92548273350519
 21
42.26475720344202
 31
0.0
  0
LINE
  5
20F
330
1F
100
AcDbEntity
  8
0
  6
SLD-Solid
 62
     7
370
    25
100
AcDbLine
 10
20.64639375714695
 20
42.30144218528715
 30
0.0
 11
20.61739375714695
 21
42.30144218528714
 31
0.0
  0
LINE
  5
210
330
1F
100
AcDbEntity
  8
0
  6
SLD-Solid
 62
     7
370
    25
100
AcDbLine
 10
20.61739375714695
 20
42.30144218528714
 30
0.0
 11
20.61739375714696
 21
42.26475720344206
 31
0.0
  0
LINE
  5
211
330
1F
100
AcDbEntity
  8
0
  6
SLD-Solid
 62
     7
370
    25
100
AcDbLine
 10
20.64639375714695
 20
42.30144218528715
 30
0.0
 11
20.64639375714696
 21
42.26475720344206
 31
0.0
  0
ARC
  5
212
330
1F
100
AcDbEntity
  8
0
  6
SLD-Solid
 62
     7
370
    25
100
AcDbCircle
 10
17.98994973958629
 20
42.27421493867406
 30
0.0
 40
0.058000000000002
100
AcDbArc
 50
99.92819184228414
 51
179.9999999999879
  0
ARC
  5
213
330
1F
100
AcDbEntity
  8
0
  6
SLD-Solid
 62
     7
370
    25
100
AcDbCircle
 10
17.98994973958629
 20
42.27421493867406
 30
0.0
 40
0.0289999999999964
100
AcDbArc
 50
110.1712713464649
 51
179.9999999999781
  0
LINE
  5
214
330
1F
100
AcDbEntity
  8
0
  6
SLD-Solid
 62
     7
370
    25
100
AcDbLine
 10
17.96094973958629
 20
42.27421493867406
 30
0.0
 11
17.93194973958629
 21
42.27421493867406
 31
0.0
  0
LINE
  5
215
330
1F
100
AcDbEntity
  8
0
  6
SLD-Solid
 62
     7
370
    25
100
AcDbLine
 10
17.96094973958629
 20
42.27421493867406
 30
0.0
 11
17.96094973958629
 21
42.26475720344203
 31
0.0
  0
LINE
  5
216
330
1F
100
AcDbEntity
  8
0
  6
SLD-Solid
 62
     7
370
    25
100
AcDbLine
 10
17.93194973958629
 20
42.27421493867406
 30
0.0
 11
17.93194973958628
 21
42.26475720344202
 31
0.0
  0
LINE
  5
217
330
1F
100
AcDbEntity
  8
0
  6
SLD-Solid
 62
     7
370
    25
100
AcDbLine
 10
20.58192675106585
 20
42.27421493867408
 30
0.0
 11
20.61092675106585
 21
42.27421493867408
 31
0.0
  0
LINE
  5
218
330
1F
100
AcDbEntity
  8
0
  6
SLD-Solid
 62
     7
370
    25
100
AcDbLine
 10
20.61092675106585
 20
42.27421493867408
 30
0.0
 11
20.61092675106584
 21
42.26475720344205
 31
0.0
  0
LINE
  5
219
330
1F
100
AcDbEntity
  8
0
  6
SLD-Solid
 62
     7
370
    25
100
AcDbLine
 10
20.58192675106585
 20
42.27421493867408
 30
0.0
 11
20.58192675106585
 21
42.26475720344205
 31
0.0
  0
ARC
  5
21A
330
1F
100
AcDbEntity
  8
0
  6
SLD-Solid
 62
     7
370
    25
100
AcDbCircle
 10
20.55292675106585
 20
42.27421493867406
 30
0.0
 40
0.0580000000000039
100
AcDbArc
 50
0.0000000000321778
 51
80.07180815770549
  0
ARC
  5
21B
330
1F
100
AcDbEntity
  8
0
  6
SLD-Solid
 62
     7
370
    25
100
AcDbCircle
 10
20.55292675106585
 20
42.27421493867406
 30
0.0
 40
0.0290000000000035
100
AcDbArc
 50
0.0000000000612167
 51
69.8287286535153
  0
LINE
  5
21C
330
1F
100
AcDbEntity
  8
0
  6
SLD-Solid
 62
     7
370
    25
100
AcDbLine
 10
17.89648273350537
 20
24.46329705231311
 30
0.0
 11
17.92548273350537
 21
24.46329705231308
 31
0.0
  0
LINE
  5
21D
330
1F
100
AcDbEntity
  8
0
  6
SLD-Solid
 62
     7
370
    25
100
AcDbLine
 10
17.89648273350537
 20
24.46329705231311
 30
0.0
 11
17.89648273350535
 21
24.48212342611879
 31
0.0
  0
LINE
  5
21E
330
1F
100
AcDbEntity
  8
0
  6
SLD-Solid
 62
     7
370
    25
100
AcDbLine
 10
17.92548273350537
 20
24.46329705231308
 30
0.0
 11
17.92548273350535
 21
24.48212342611877
 31
0.0
  0
LINE
  5
21F
330
1F
100
AcDbEntity
  8
0
  6
SLD-Solid
 62
     7
370
    25
100
AcDbLine
 10
17.91347054019654
 20
24.42228485900429
 30
0.0
 11
17.93397663685095
 21
24.44279095565869
 31
0.0
  0
ARC
  5
220
330
1F
100
AcDbEntity
  8
0
  6
SLD-Solid
 62
     7
370
    25
100
AcDbCircle
 10
17.95448273350537
 20
24.46329705231309
 30
0.0
 40
0.0290000000000026
100
AcDbArc
 50
180.0000000000452
 51
224.999999999981
  0
ARC
  5
221
330
1F
100
AcDbEntity
  8
0
  6
SLD-Solid
 62
     7
370
    25
100
AcDbCircle
 10
17.95448273350537
 20
24.46329705231309
 30
0.0
 40
0.0579999999999998
100
AcDbArc
 50
179.9999999999615
 51
224.9999999999785
  0
LINE
  5
222
330
1F
100
AcDbEntity
  8
0
  6
SLD-Solid
 62
     7
370
    25
100
AcDbLine
 10
17.9447346561395
 20
24.43203293637014
 30
0.0
 11
17.92422855948509
 21
24.41152683971573
 31
0.0
  0
LINE
  5
223
330
1F
100
AcDbEntity
  8
0
  6
SLD-Solid
 62
     7
370
    25
100
AcDbLine
 10
17.9447346561395
 20
24.43203293637014
 30
0.0
 11
17.93397663685095
 21
24.44279095565869
 31
0.0
  0
LINE
  5
224
330
1F
100
AcDbEntity
  8
0
  6
SLD-Solid
 62
     7
370
    25
100
AcDbLine
 10
17.92422855948509
 20
24.41152683971573
 30
0.0
 11
17.91347054019654
 21
24.42228485900429
 31
0.0
  0
LINE
  5
225
330
1F
100
AcDbEntity
  8
0
  6
SLD-Solid
 62
     7
370
    25
100
AcDbLine
 10
18.08391646217402
 20
24.25183893702684
 30
0.0
 11
18.10442255882843
 21
24.27234503368124
 31
0.0
  0
LINE
  5
226
330
1F
100
AcDbEntity
  8
0
  6
SLD-Solid
 62
     7
370
    25
100
AcDbLine
 10
18.10442255882843
 20
24.27234503368124
 30
0.0
 11
17.9447346561395
 21
24.43203293637014
 31
0.0
  0
LINE
  5
227
330
1F
100
AcDbEntity
  8
0
  6
SLD-Solid
 62
     7
370
    25
100
AcDbLine
 10
18.08391646217402
 20
24.25183893702684
 30
0.0
 11
17.92422855948509
 21
24.41152683971573
 31
0.0
  0
LINE
  5
228
330
1F
100
AcDbEntity
  8
0
  6
SLD-Solid
 62
     7
370
    25
100
AcDbLine
 10
20.61739375714714
 20
24.46329705231314
 30
0.0
 11
20.64639375714714
 21
24.46329705231312
 31
0.0
  0
LINE
  5
229
330
1F
100
AcDbEntity
  8
0
  6
SLD-Solid
 62
     7
370
    25
100
AcDbLine
 10
20.61739375714714
 20
24.46329705231314
 30
0.0
 11
20.61739375714712
 21
24.48212342611882
 31
0.0
  0
LINE
  5
22A
330
1F
100
AcDbEntity
  8
0
  6
SLD-Solid
 62
     7
370
    25
100
AcDbLine
 10
20.64639375714714
 20
24.46329705231312
 30
0.0
 11
20.64639375714712
 21
24.48212342611879
 31
0.0
  0
LINE
  5
22B
330
1F
100
AcDbEntity
  8
0
  6
SLD-Solid
 62
     7
370
    25
100
AcDbLine
 10
20.60889985380154
 20
24.44279095565872
 30
0.0
 11
20.62940595045595
 21
24.4222848590043
 31
0.0
  0
ARC
  5
22C
330
1F
100
AcDbEntity
  8
0
  6
SLD-Solid
 62
     7
370
    25
100
AcDbCircle
 10
20.58839375714714
 20
24.46329705231313
 30
0.0
 40
0.0290000000000035
100
AcDbArc
 50
314.999999999981
 51
0.0000000000119339
  0
ARC
  5
22D
330
1F
100
AcDbEntity
  8
0
  6
SLD-Solid
 62
     7
370
    25
100
AcDbCircle
 10
20.58839375714714
 20
24.46329705231313
 30
0.0
 40
0.0580000000000052
100
AcDbArc
 50
314.9999999999859
 51
359.9999999999782
  0
LINE
  5
22E
330
1F
100
AcDbEntity
  8
0
  6
SLD-Solid
 62
     7
370
    25
100
AcDbLine
 10
20.598141834513
 20
24.43203293637018
 30
0.0
 11
20.61864793116742
 21
24.41152683971578
 31
0.0
  0
LINE
  5
22F
330
1F
100
AcDbEntity
  8
0
  6
SLD-Solid
 62
     7
370
    25
100
AcDbLine
 10
20.61864793116742
 20
24.41152683971578
 30
0.0
 11
20.62940595045595
 21
24.4222848590043
 31
0.0
  0
LINE
  5
230
330
1F
100
AcDbEntity
  8
0
  6
SLD-Solid
 62
     7
370
    25
100
AcDbLine
 10
20.598141834513
 20
24.43203293637018
 30
0.0
 11
20.60889985380154
 21
24.44279095565872
 31
0.0
  0
LINE
  5
231
330
1F
100
AcDbEntity
  8
0
  6
SLD-Solid
 62
     7
370
    25
100
AcDbLine
 10
20.45896002847849
 20
24.25183893702685
 30
0.0
 11
20.43845393182408
 21
24.27234503368125
 31
0.0
  0
LINE
  5
232
330
1F
100
AcDbEntity
  8
0
  6
SLD-Solid
 62
     7
370
    25
100
AcDbLine
 10
20.45896002847849
 20
24.25183893702685
 30
0.0
 11
20.61864793116742
 21
24.41152683971578
 31
0.0
  0
LINE
  5
233
330
1F
100
AcDbEntity
  8
0
  6
SLD-Solid
 62
     7
370
    25
100
AcDbLine
 10
20.43845393182408
 20
24.27234503368125
 30
0.0
 11
20.598141834513
 21
24.43203293637018
 31
0.0
  0
LINE
  5
234
330
1F
100
AcDbEntity
  8
0
  6
SLD-Solid
 62
     7
370
    25
100
AcDbLine
 10
18.15863108483671
 20
24.17712431436412
 30
0.0
 11
18.17913718149113
 21
24.19763041101853
 31
0.0
  0
LINE
  5
235
330
1F
100
AcDbEntity
  8
0
  6
SLD-Solid
 62
     7
370
    25
100
AcDbLine
 10
18.17913718149113
 20
24.19763041101853
 30
0.0
 11
18.10442255882843
 21
24.27234503368124
 31
0.0
  0
LINE
  5
236
330
1F
100
AcDbEntity
  8
0
  6
SLD-Solid
 62
     7
370
    25
100
AcDbLine
 10
18.15863108483671
 20
24.17712431436412
 30
0.0
 11
18.08391646217402
 21
24.25183893702684
 31
0.0
  0
LINE
  5
237
330
1F
100
AcDbEntity
  8
0
  6
SLD-Solid
 62
     7
370
    25
100
AcDbLine
 10
20.3842454058158
 20
24.17712431436415
 30
0.0
 11
20.36373930916138
 21
24.19763041101856
 31
0.0
  0
LINE
  5
238
330
1F
100
AcDbEntity
  8
0
  6
SLD-Solid
 62
     7
370
    25
100
AcDbLine
 10
20.3842454058158
 20
24.17712431436415
 30
0.0
 11
20.45896002847849
 21
24.25183893702685
 31
0.0
  0
LINE
  5
239
330
1F
100
AcDbEntity
  8
0
  6
SLD-Solid
 62
     7
370
    25
100
AcDbLine
 10
20.36373930916138
 20
24.19763041101856
 30
0.0
 11
20.43845393182408
 21
24.27234503368125
 31
0.0
  0
LINE
  5
23A
330
1F
100
AcDbEntity
  8
0
  6
SLD-Solid
 62
     8
370
    25
100
AcDbLine
 10
20.65099075921747
 20
24.76442464059382
 30
0.0
 11
20.65099075921747
 21
24.51182221164384
 31
0.0
  0
LINE
  5
23B
330
1F
100
AcDbEntity
  8
0
  6
SLD-Solid
 62
     8
370
    25
100
AcDbLine
 10
17.89188573143498
 20
24.60398231042914
 30
0.0
 11
17.89188573143498
 21
24.76442464059378
 31
0.0
  0
LINE
  5
23C
330
1F
100
AcDbEntity
  8
0
  6
SLD-Solid
 62
     8
370
    25
100
AcDbLine
 10
17.89188573143498
 20
24.51182221164379
 30
0.0
 11
17.89188573143498
 21
24.60398231042914
 31
0.0
  0
LINE
  5
23D
330
1F
100
AcDbEntity
  8
0
  6
SLD-Solid
 62
     8
370
    25
100
AcDbLine
 10
20.52977616533836
 20
24.46059977164554
 30
0.0
 11
20.44071883760504
 21
24.4605997716455
 31
0.0
  0
LINE
  5
23E
330
1F
100
AcDbEntity
  8
0
  6
SLD-Solid
 62
     8
370
    25
100
AcDbLine
 10
18.10215765304748
 20
24.46059977164548
 30
0.0
 11
18.01310032534791
 21
24.46059977164548
 31
0.0
  0
LINE
  5
23F
330
1F
100
AcDbEntity
  8
DIMS
100
AcDbLine
 10
10.75820086073827
 20
12.09073854506234
 30
0.0
 11
53.36748704926059
 21
12.09073854506234
 31
0.0
  0
INSERT
  5
240
330
1F
100
AcDbEntity
  8
DIMS
100
AcDbBlockReference
  2
Block1
 10
11.12943465047891
 20
4.055951568849644
 30
0.0
 41
0.4000000000000001
 42
0.4000000000000001
 43
0.4000000000000001
  0
DIMENSION
  5
241
330
1F
100
AcDbEntity
  8
DIMS
100
AcDbDimension
  2
_D
 10
12.30527049173598
 20
12.09073854506232
 30
0.0
 11
12.30527049173603
 21
14.98775372295473
 31
0.0
 70
    32
  1
                                                                                                                          48" (1220mm) Max. height to bottom of dispenser for unrestricted access\P\P \P 
 71
     2
 42
-1.0
  3
SLDDIMSTYLE0
100
AcDbAlignedDimension
 13
18.60971647880771
 23
24.09073854506238
 33
0.0
 14
10.75820086073827
 24
12.09073854506234
 34
0.0
 50
90.0000000000002
100
AcDbRotatedDimension
  0
DIMENSION
  5
254
330
1F
100
AcDbEntity
  8
DIMS
100
AcDbDimension
  2
_D_1
 10
12.32467918678942
 20
24.09073854506231
 30
0.0
 11
12.32467918678933
 21
32.42253484676242
 31
0.0
 70
    32
  1
<>
 71
     2
 42
-1.0
  3
SLDDIMSTYLE1
100
AcDbAlignedDimension
 13
18.17643824563823
 23
42.35712342609911
 33
0.0
 14
18.60971647880771
 24
24.09073854506238
 34
0.0
 50
90.0000000000002
100
AcDbRotatedDimension
  0
DIMENSION
  5
264
330
1F
100
AcDbEntity
  8
DIMS
100
AcDbDimension
  2
_D_2
 10
20.64639375714693
 20
43.45948563082356
 30
0.0
 11
19.43532748158525
 21
43.45948563082354
 31
0.0
 70
    32
  1
<>
 71
     2
 42
-1.0
  3
SLDDIMSTYLE2
100
AcDbAlignedDimension
 13
17.89648273350518
 23
42.30144218528712
 33
0.0
 14
20.64639375714695
 24
42.30144218528715
 34
0.0
 50
0.0000000000005922
100
AcDbRotatedDimension
  0
MTEXT
  5
274
330
1F
100
AcDbEntity
  8
NOTES
100
AcDbMText
 10
25.36595627899596
 20
20.75887305477736
 30
0.0
 40
0.7500000000000001
 41
0.0
 71
     1
 72
     1
  1
level gauge slot
  7
SLDTEXTSTYLE1
 73
     1
 44
1.0
  0
LEADER
  5
276
330
1F
100
AcDbEntity
  8
NOTES
100
AcDbLeader
  3
SLDDIMSTYLE3
 76
     3
 10
19.42743824533612
 20
28.65131421713046
 30
0.0
 10
24.84400374322959
 20
20.39236205830081
 30
0.0
 10
25.34400374322959
 20
20.39236205830081
 30
0.0
1001
ACAD
1000
DSTYLE
1002
{
1070
   176
1070
     0
1070
    77
1070
     0
1070
    40
1040
1.0
1070
   147
1040
0.0
1002
}
  0
MTEXT
  5
277
330
1F
100
AcDbEntity
  8
NOTES
100
AcDbMText
 10
13.8650680263116
 20
13.4277206507692
 30
0.0
 40
0.7500000000000001
 41
0.0
 71
     1
 72
     1
  1
Floor
  7
SLDTEXTSTYLE1
 73
     1
 44
1.0
  0
MTEXT
  5
278
330
1F
100
AcDbEntity
  8
NOTES
100
AcDbMText
 10
17.90226224269218
 20
23.45729437810515
 30
0.0
 40
0.7500000000000001
 41
0.0
 71
     1
 72
     1
  1
front view
  7
SLDTEXTSTYLE1
 73
     1
 44
1.0
  0
CIRCLE
  5
279
330
1F
100
AcDbEntity
  8
0
  6
SLD-Solid
 62
     7
370
    25
100
AcDbCircle
 10
27.41278424970069
 20
24.63812342611882
 30
0.0
 40
0.1274401184765595
  0
CIRCLE
  5
27A
330
1F
100
AcDbEntity
  8
0
  6
SLD-Solid
 62
     7
370
    25
100
AcDbCircle
 10
27.4127842497007
 20
24.63812342611883
 30
0.0
 40
0.1263012144749991
  0
ARC
  5
27B
330
1F
100
AcDbEntity
  8
0
  6
SLD-Solid
 62
     7
370
    25
100
AcDbCircle
 10
27.42578424970051
 20
39.83212342611884
 30
0.0
 40
0.0800000000000011
100
AcDbArc
 50
135.6564017598359
 51
224.3435982401469
  0
LINE
  5
27C
330
1F
100
AcDbEntity
  8
0
  6
SLD-Solid
 62
     7
370
    25
100
AcDbLine
 10
27.69668421207304
 20
24.51439858322514
 30
0.0
 11
27.67578424964167
 21
24.51439858322517
 31
0.0
  0
LINE
  5
27D
330
1F
100
AcDbEntity
  8
0
  6
SLD-Solid
 62
     7
370
    25
100
AcDbLine
 10
27.67578424964167
 20
24.51439858322517
 30
0.0
 11
27.67578424964167
 21
24.48212342609919
 31
0.0
  0
LINE
  5
27E
330
1F
100
AcDbEntity
  8
0
  6
SLD-Solid
 62
     7
370
    25
100
AcDbLine
 10
27.67578424964167
 20
24.48212342609919
 30
0.0
 11
27.48778424964167
 21
24.48212342609915
 31
0.0
  0
LINE
  5
27F
330
1F
100
AcDbEntity
  8
0
  6
SLD-Solid
 62
     7
370
    25
100
AcDbLine
 10
27.61278424970049
 20
41.70712342609918
 30
0.0
 11
27.6966842120728
 21
41.70712342609915
 31
0.0
  0
LINE
  5
280
330
1F
100
AcDbEntity
  8
0
  6
SLD-Solid
 62
     7
370
    25
100
AcDbLine
 10
27.6966842120728
 20
41.70712342609915
 30
0.0
 11
27.69668421207304
 21
24.51439858322514
 31
0.0
  0
LINE
  5
281
330
1F
100
AcDbEntity
  8
0
  6
SLD-Solid
 62
     7
370
    25
100
AcDbLine
 10
27.7266842120728
 20
41.70712342609915
 30
0.0
 11
27.72668421207305
 21
24.51439858322511
 31
0.0
  0
LINE
  5
282
330
1F
100
AcDbEntity
  8
0
  6
SLD-Solid
 62
     7
370
    25
100
AcDbLine
 10
27.69668421207304
 20
24.51439858322514
 30
0.0
 11
27.72668421207305
 21
24.51439858322511
 31
0.0
  0
LINE
  5
283
330
1F
100
AcDbEntity
  8
0
  6
SLD-Solid
 62
     7
370
    25
100
AcDbLine
 10
27.6966842120728
 20
41.70712342609915
 30
0.0
 11
27.7266842120728
 21
41.70712342609915
 31
0.0
  0
LINE
  5
284
330
1F
100
AcDbEntity
  8
0
  6
SLD-Solid
 62
     7
370
    25
100
AcDbLine
 10
27.72367821180827
 20
24.46859108846348
 30
0.0
 11
27.70618168675611
 21
24.43938656820994
 31
0.0
  0
LINE
  5
285
330
1F
100
AcDbEntity
  8
0
  6
SLD-Solid
 62
     7
370
    25
100
AcDbLine
 10
27.70618168675611
 20
24.43938656820994
 30
0.0
 11
27.68496848332051
 21
24.46059977164554
 31
0.0
  0
LINE
  5
286
330
1F
100
AcDbEntity
  8
0
  6
SLD-Solid
 62
     7
370
    25
100
AcDbLine
 10
27.69496649763603
 20
24.47728806893326
 30
0.0
 11
27.68496848332051
 21
24.46059977164553
 31
0.0
  0
LINE
  5
287
330
1F
100
AcDbEntity
  8
0
  6
SLD-Solid
 62
     7
370
    25
100
AcDbLine
 10
27.69496649763603
 20
24.47728806893326
 30
0.0
 11
27.72367821180827
 21
24.46859108846348
 31
0.0
  0
LINE
  5
288
330
1F
100
AcDbEntity
  8
0
  6
SLD-Solid
 62
     7
370
    25
100
AcDbLine
 10
27.72668421207305
 20
24.48888404289296
 30
0.0
 11
27.69668421207304
 21
24.48888404289296
 31
0.0
  0
ARC
  5
289
330
1F
100
AcDbEntity
  8
0
  6
SLD-Solid
 62
     7
370
    25
100
AcDbCircle
 10
27.65668421207304
 20
24.48888404289296
 30
0.0
 40
0.0700000000000038
100
AcDbArc
 50
343.1480697094721
 51
0.0000000000536151
  0
ARC
  5
28A
330
1F
100
AcDbEntity
  8
0
  6
SLD-Solid
 62
     7
370
    25
100
AcDbCircle
 10
27.65668421207304
 20
24.48888404289296
 30
0.0
 40
0.0400000000000079
100
AcDbArc
 50
343.148069709473
 51
0.0000000000938264
  0
LINE
  5
28B
330
1F
100
AcDbEntity
  8
0
  6
SLD-Solid
 62
     7
370
    25
100
AcDbLine
 10
27.69668421207304
 20
24.48888404289296
 30
0.0
 11
27.69668421207304
 21
24.51439858322511
 31
0.0
  0
LINE
  5
28C
330
1F
100
AcDbEntity
  8
0
  6
SLD-Solid
 62
     7
370
    25
100
AcDbLine
 10
27.72668421207305
 20
24.48888404289296
 30
0.0
 11
27.72668421207305
 21
24.51439858322511
 31
0.0
  0
LINE
  5
28D
330
1F
100
AcDbEntity
  8
0
  6
SLD-Solid
 62
     7
370
    25
100
AcDbLine
 10
27.7266842120728
 20
41.70732342609915
 30
0.0
 11
27.6966842120728
 21
41.70732342609915
 31
0.0
  0
LINE
  5
28E
330
1F
100
AcDbEntity
  8
0
  6
SLD-Solid
 62
     7
370
    25
100
AcDbLine
 10
27.6966842120728
 20
41.70712342609915
 30
0.0
 11
27.6966842120728
 21
41.70732342609915
 31
0.0
  0
LINE
  5
28F
330
1F
100
AcDbEntity
  8
0
  6
SLD-Solid
 62
     7
370
    25
100
AcDbLine
 10
27.7266842120728
 20
41.70712342609915
 30
0.0
 11
27.7266842120728
 21
41.70732342609915
 31
0.0
  0
LINE
  5
290
330
1F
100
AcDbEntity
  8
0
  6
SLD-Solid
 62
     7
370
    25
100
AcDbLine
 10
27.40931035889221
 20
24.14251524034604
 30
0.0
 11
27.3880971554566
 21
24.16372844378163
 31
0.0
  0
LINE
  5
291
330
1F
100
AcDbEntity
  8
0
  6
SLD-Solid
 62
     7
370
    25
100
AcDbLine
 10
27.3880971554566
 20
24.16372844378163
 30
0.0
 11
27.68496848332051
 21
24.46059977164554
 31
0.0
  0
LINE
  5
292
330
1F
100
AcDbEntity
  8
0
  6
SLD-Solid
 62
     7
370
    25
100
AcDbLine
 10
27.40931035889221
 20
24.14251524034604
 30
0.0
 11
27.70618168675611
 21
24.43938656820994
 31
0.0
  0
LINE
  5
293
330
1F
100
AcDbEntity
  8
0
  6
SLD-Solid
 62
     7
370
    25
100
AcDbLine
 10
27.7266842120728
 20
42.23212342609914
 30
0.0
 11
27.6966842120728
 21
42.23212342609914
 31
0.0
  0
LINE
  5
294
330
1F
100
AcDbEntity
  8
0
  6
SLD-Solid
 62
     7
370
    25
100
AcDbLine
 10
27.6966842120728
 20
41.70732342609914
 30
0.0
 11
27.6966842120728
 21
42.23212342609914
 31
0.0
  0
LINE
  5
295
330
1F
100
AcDbEntity
  8
0
  6
SLD-Solid
 62
     7
370
    25
100
AcDbLine
 10
27.7266842120728
 20
41.70732342609914
 30
0.0
 11
27.7266842120728
 21
42.23212342609914
 31
0.0
  0
LINE
  5
296
330
1F
100
AcDbEntity
  8
0
  6
SLD-Solid
 62
     7
370
    25
100
AcDbLine
 10
27.7266842120728
 20
42.35712342609914
 30
0.0
 11
27.69668421207279
 21
42.35712342609914
 31
0.0
  0
LINE
  5
297
330
1F
100
AcDbEntity
  8
0
  6
SLD-Solid
 62
     7
370
    25
100
AcDbLine
 10
27.6966842120728
 20
42.23212342609914
 30
0.0
 11
27.69668421207279
 21
42.35712342609914
 31
0.0
  0
LINE
  5
298
330
1F
100
AcDbEntity
  8
0
  6
SLD-Solid
 62
     7
370
    25
100
AcDbLine
 10
27.7266842120728
 20
42.23212342609914
 30
0.0
 11
27.7266842120728
 21
42.35712342609914
 31
0.0
  0
LINE
  5
299
330
1F
100
AcDbEntity
  8
0
  6
SLD-Solid
 62
     7
370
    25
100
AcDbLine
 10
27.35753366360852
 20
24.09073854506235
 30
0.0
 11
27.33632046017292
 21
24.11195174849792
 31
0.0
  0
LINE
  5
29A
330
1F
100
AcDbEntity
  8
0
  6
SLD-Solid
 62
     7
370
    25
100
AcDbLine
 10
27.33632046017292
 20
24.11195174849792
 30
0.0
 11
27.3880971554566
 21
24.16372844378163
 31
0.0
  0
LINE
  5
29B
330
1F
100
AcDbEntity
  8
0
  6
SLD-Solid
 62
     7
370
    25
100
AcDbLine
 10
27.35753366360852
 20
24.09073854506235
 30
0.0
 11
27.40931035889221
 21
24.14251524034604
 31
0.0
  0
LINE
  5
29C
330
1F
100
AcDbEntity
  8
0
  6
SLD-Solid
 62
     7
370
    25
100
AcDbLine
 10
25.15850365743178
 20
24.48212342611879
 30
0.0
 11
25.02115837810525
 21
24.48212342611881
 31
0.0
  0
LINE
  5
29D
330
1F
100
AcDbEntity
  8
0
  6
SLD-Solid
 62
     7
370
    25
100
AcDbLine
 10
25.02115837810502
 20
42.26475720344205
 30
0.0
 11
25.02115837810525
 21
24.48212342611881
 31
0.0
  0
LINE
  5
29E
330
1F
100
AcDbEntity
  8
0
  6
SLD-Solid
 62
     7
370
    25
100
AcDbLine
 10
25.02889435483366
 20
42.26475720344206
 30
0.0
 11
25.02115837810502
 21
42.26475720344205
 31
0.0
  0
LINE
  5
29F
330
1F
100
AcDbEntity
  8
0
  6
SLD-Solid
 62
     7
370
    25
100
AcDbLine
 10
25.02889435483362
 20
42.30144218528715
 30
0.0
 11
25.02889435483366
 21
42.26475720344206
 31
0.0
  0
LINE
  5
2A0
330
1F
100
AcDbEntity
  8
0
  6
SLD-Solid
 62
     7
370
    25
100
AcDbLine
 10
25.02889435483362
 20
42.30144218528715
 30
0.0
 11
27.61278424970048
 21
42.30144218528719
 31
0.0
  0
LINE
  5
2A1
330
1F
100
AcDbEntity
  8
0
  6
SLD-Solid
 62
     7
370
    25
100
AcDbLine
 10
27.61278424970048
 20
42.30144218528719
 30
0.0
 11
27.61278424970073
 21
24.6071234362753
 31
0.0
  0
ARC
  5
2A2
330
1F
100
AcDbEntity
  8
0
  6
SLD-Solid
 62
     7
370
    25
100
AcDbCircle
 10
27.48778424970073
 20
24.6071234362753
 30
0.0
 40
0.1250000000000036
100
AcDbArc
 50
269.9999999999992
 51
359.9999999999922
  0
LINE
  5
2A3
330
1F
100
AcDbEntity
  8
0
  6
SLD-Solid
 62
     7
370
    25
100
AcDbLine
 10
27.48778424970073
 20
24.4821234362753
 30
0.0
 11
27.23778424970073
 21
24.48212343627529
 31
0.0
  0
LINE
  5
2A4
330
1F
100
AcDbEntity
  8
0
  6
SLD-Solid
 62
     7
370
    25
100
AcDbLine
 10
27.23778424970073
 20
24.48212343627529
 30
0.0
 11
27.22979257821686
 21
24.46329705231316
 31
0.0
  0
LINE
  5
2A5
330
1F
100
AcDbEntity
  8
0
  6
SLD-Solid
 62
     7
370
    25
100
AcDbLine
 10
25.1585036574318
 20
24.46329705231312
 30
0.0
 11
27.22979257821686
 21
24.46329705231316
 31
0.0
  0
LINE
  5
2A6
330
1F
100
AcDbEntity
  8
0
  6
SLD-Solid
 62
     7
370
    25
100
AcDbLine
 10
25.1585036574318
 20
24.46329705231312
 30
0.0
 11
25.15850365743178
 21
24.48212342611879
 31
0.0
  0
CIRCLE
  5
2A7
330
1F
100
AcDbEntity
  8
0
  6
SLD-Solid
 62
     7
370
    25
100
AcDbCircle
 10
27.34778424970047
 20
39.83212342611886
 30
0.0
 40
0.0961880215351769
  0
SPLINE
  5
2A8
330
1F
100
AcDbEntity
  8
0
  6
SLD-Solid
 62
     7
370
    25
100
AcDbSpline
210
0.0
220
0.0
230
1.0
 70
    12
 71
     3
 72
     9
 73
     5
 74
     0
 42
0.00000001
 43
0.00000001
 40
0.0
 40
0.0
 40
0.0
 40
0.0
 40
0.5000000000005738
 40
1.0
 40
1.0
 40
1.0
 40
1.0
 10
27.21503590020364
 20
24.42228485900433
 30
0.0
 41
1.0
 10
27.21649573507389
 20
24.42563184729766
 30
0.0
 41
1.0
 10
27.21941540481439
 20
24.43232582388431
 30
0.0
 41
1.0
 10
27.22233507455489
 20
24.44063385398252
 30
0.0
 41
1.0
 10
27.22379490942514
 20
24.44478786903162
 30
0.0
 41
1.0
  0
LINE
  5
2A9
330
1F
100
AcDbEntity
  8
0
  6
SLD-Solid
 62
     7
370
    25
100
AcDbLine
 10
25.15850365743184
 20
24.4222848590043
 30
0.0
 11
27.21503590020364
 21
24.42228485900433
 31
0.0
  0
LINE
  5
2AA
330
1F
100
AcDbEntity
  8
0
  6
SLD-Solid
 62
     7
370
    25
100
AcDbLine
 10
25.1585036574318
 20
24.46329705231312
 30
0.0
 11
25.15850365743184
 21
24.4222848590043
 31
0.0
  0
LINE
  5
2AB
330
1F
100
AcDbEntity
  8
0
  6
SLD-Solid
 62
     7
370
    25
100
AcDbLine
 10
27.22379490942514
 20
24.44478786903162
 30
0.0
 11
27.22979257821686
 21
24.46329705231316
 31
0.0
  0
LINE
  5
2AC
330
1F
100
AcDbEntity
  8
0
  6
SLD-Solid
 62
     7
370
    25
100
AcDbLine
 10
25.02115837810502
 20
42.26475720344205
 30
0.0
 11
24.96315837810502
 21
42.26475720344205
 31
0.0
  0
LINE
  5
2AD
330
1F
100
AcDbEntity
  8
0
  6
SLD-Solid
 62
     7
370
    25
100
AcDbLine
 10
24.96315837810528
 20
24.48212342611883
 30
0.0
 11
25.02115837810525
 21
24.48212342611881
 31
0.0
  0
LINE
  5
2AE
330
1F
100
AcDbEntity
  8
0
  6
SLD-Solid
 62
     7
370
    25
100
AcDbLine
 10
24.96315837810502
 20
42.26475720344205
 30
0.0
 11
24.96315837810528
 21
24.48212342611883
 31
0.0
  0
CIRCLE
  5
2AF
330
1F
100
AcDbEntity
  8
0
  6
SLD-Solid
 62
     7
370
    25
100
AcDbCircle
 10
27.34778424970047
 20
39.83212342611886
 30
0.0
 40
0.0702072594216432
  0
CIRCLE
  5
2B0
330
1F
100
AcDbEntity
  8
0
  6
SLD-Solid
 62
     7
370
    25
100
AcDbCircle
 10
27.34778424970049
 20
39.83212342611886
 30
0.0
 40
0.0615470053837939
  0
LINE
  5
2B1
330
1F
100
AcDbEntity
  8
0
  6
SLD-Solid
 62
     7
370
    25
100
AcDbLine
 10
27.21503590020364
 20
24.42228485900434
 30
0.0
 11
27.1321184826378
 21
24.2881682178979
 31
0.0
  0
LINE
  5
2B2
330
1F
100
AcDbEntity
  8
0
  6
SLD-Solid
 62
     7
370
    25
100
AcDbLine
 10
27.13211848263779
 20
24.28816821789789
 30
0.0
 11
27.1264212172531
 21
24.27979976200708
 31
0.0
  0
LINE
  5
2B3
330
1F
100
AcDbEntity
  8
0
  6
SLD-Solid
 62
     7
370
    25
100
AcDbLine
 10
27.1264212172531
 20
24.27979976200708
 30
0.0
 11
27.12030981691917
 21
24.27158932361169
 31
0.0
  0
LINE
  5
2B4
330
1F
100
AcDbEntity
  8
0
  6
SLD-Solid
 62
     7
370
    25
100
AcDbLine
 10
27.12030981691917
 20
24.27158932361169
 30
0.0
 11
27.11348804185823
 21
24.26365813297758
 31
0.0
  0
LINE
  5
2B5
330
1F
100
AcDbEntity
  8
0
  6
SLD-Solid
 62
     7
370
    25
100
AcDbLine
 10
27.11348804185823
 20
24.26365813297758
 30
0.0
 11
27.10602722991285
 21
24.25601186499533
 31
0.0
  0
LINE
  5
2B6
330
1F
100
AcDbEntity
  8
0
  6
SLD-Solid
 62
     7
370
    25
100
AcDbLine
 10
27.10602722991285
 20
24.25601186499533
 30
0.0
 11
27.09803476330915
 21
24.24864419763767
 31
0.0
  0
LINE
  5
2B7
330
1F
100
AcDbEntity
  8
0
  6
SLD-Solid
 62
     7
370
    25
100
AcDbLine
 10
27.09803476330915
 20
24.24864419763767
 30
0.0
 11
27.08952415869106
 21
24.24157603839642
 31
0.0
  0
LINE
  5
2B8
330
1F
100
AcDbEntity
  8
0
  6
SLD-Solid
 62
     7
370
    25
100
AcDbLine
 10
27.08952415869106
 20
24.24157603839642
 30
0.0
 11
27.08050480261675
 21
24.23482844410255
 31
0.0
  0
LINE
  5
2B9
330
1F
100
AcDbEntity
  8
0
  6
SLD-Solid
 62
     7
370
    25
100
AcDbLine
 10
27.08050480261675
 20
24.23482844410255
 30
0.0
 11
27.07101123762056
 21
24.22841298024955
 31
0.0
  0
LINE
  5
2BA
330
1F
100
AcDbEntity
  8
0
  6
SLD-Solid
 62
     7
370
    25
100
AcDbLine
 10
27.07101123762056
 20
24.22841298024955
 30
0.0
 11
27.06107875716142
 21
24.22234001761706
 31
0.0
  0
LINE
  5
2BB
330
1F
100
AcDbEntity
  8
0
  6
SLD-Solid
 62
     7
370
    25
100
AcDbLine
 10
27.06107875716142
 20
24.22234001761706
 30
0.0
 11
27.05073589637638
 21
24.21662027544295
 31
0.0
  0
LINE
  5
2BC
330
1F
100
AcDbEntity
  8
0
  6
SLD-Solid
 62
     7
370
    25
100
AcDbLine
 10
27.05073589637638
 20
24.21662027544295
 30
0.0
 11
27.04001119040244
 21
24.21126346077698
 31
0.0
  0
LINE
  5
2BD
330
1F
100
AcDbEntity
  8
0
  6
SLD-Solid
 62
     7
370
    25
100
AcDbLine
 10
27.04001119040244
 20
24.21126346077698
 30
0.0
 11
27.02893467622595
 21
24.20627725629267
 31
0.0
  0
LINE
  5
2BE
330
1F
100
AcDbEntity
  8
0
  6
SLD-Solid
 62
     7
370
    25
100
AcDbLine
 10
27.02893467622595
 20
24.20627725629267
 30
0.0
 11
27.01753601537091
 21
24.20166874730673
 31
0.0
  0
LINE
  5
2BF
330
1F
100
AcDbEntity
  8
0
  6
SLD-Solid
 62
     7
370
    25
100
AcDbLine
 10
27.01753601537091
 20
24.20166874730673
 30
0.0
 11
27.00584336751203
 21
24.19744418947339
 31
0.0
  0
LINE
  5
2C0
330
1F
100
AcDbEntity
  8
0
  6
SLD-Solid
 62
     7
370
    25
100
AcDbLine
 10
27.00584336751203
 20
24.19744418947339
 30
0.0
 11
26.99388601871102
 21
24.19360877647916
 31
0.0
  0
LINE
  5
2C1
330
1F
100
AcDbEntity
  8
0
  6
SLD-Solid
 62
     7
370
    25
100
AcDbLine
 10
26.99388601871102
 20
24.19360877647916
 30
0.0
 11
26.9816917531802
 21
24.19016562785452
 31
0.0
  0
LINE
  5
2C2
330
1F
100
AcDbEntity
  8
0
  6
SLD-Solid
 62
     7
370
    25
100
AcDbLine
 10
26.9816917531802
 20
24.19016562785452
 30
0.0
 11
26.96928760420733
 21
24.18711905784384
 31
0.0
  0
LINE
  5
2C3
330
1F
100
AcDbEntity
  8
0
  6
SLD-Solid
 62
     7
370
    25
100
AcDbLine
 10
26.96928760420733
 20
24.18711905784384
 30
0.0
 11
26.95670135600475
 21
24.18447650022196
 31
0.0
  0
LINE
  5
2C4
330
1F
100
AcDbEntity
  8
0
  6
SLD-Solid
 62
     7
370
    25
100
AcDbLine
 10
26.95670135600475
 20
24.18447650022196
 30
0.0
 11
26.94396004186016
 21
24.18223948156763
 31
0.0
  0
LINE
  5
2C5
330
1F
100
AcDbEntity
  8
0
  6
SLD-Solid
 62
     7
370
    25
100
AcDbLine
 10
26.94396004186016
 20
24.18223948156763
 30
0.0
 11
26.93108919321197
 21
24.18039408014625
 31
0.0
  0
LINE
  5
2C6
330
1F
100
AcDbEntity
  8
0
  6
SLD-Solid
 62
     7
370
    25
100
AcDbLine
 10
26.93108919321197
 20
24.18039408014625
 30
0.0
 11
26.91811584334787
 21
24.17894359801408
 31
0.0
  0
LINE
  5
2C7
330
1F
100
AcDbEntity
  8
0
  6
SLD-Solid
 62
     7
370
    25
100
AcDbLine
 10
26.91811584334787
 20
24.17894359801408
 30
0.0
 11
26.90506552370628
 21
24.1779470739455
 31
0.0
  0
LINE
  5
2C8
330
1F
100
AcDbEntity
  8
0
  6
SLD-Solid
 62
     7
370
    25
100
AcDbLine
 10
26.90506552370628
 20
24.1779470739455
 30
0.0
 11
26.8919641411879
 21
24.17740978459322
 31
0.0
  0
LINE
  5
2C9
330
1F
100
AcDbEntity
  8
0
  6
SLD-Solid
 62
     7
370
    25
100
AcDbLine
 10
26.8919641411879
 20
24.17740978459322
 30
0.0
 11
26.87883722723113
 21
24.17712431436418
 31
0.0
  0
LINE
  5
2CA
330
1F
100
AcDbEntity
  8
0
  6
SLD-Solid
 62
     7
370
    25
100
AcDbLine
 10
26.87883722723113
 20
24.17712431436418
 30
0.0
 11
25.52231570533063
 21
24.17712431436415
 31
0.0
  0
ARC
  5
2CB
330
1F
100
AcDbEntity
  8
0
  6
SLD-Solid
 62
     7
370
    25
100
AcDbCircle
 10
25.51307431869838
 20
24.46807245586861
 30
0.0
 40
0.2910948715999397
100
AcDbArc
 50
227.9729069331251
 51
271.8192743545195
  0
LINE
  5
2CC
330
1F
100
AcDbEntity
  8
0
  6
SLD-Solid
 62
     7
370
    25
100
AcDbLine
 10
25.31819156009441
 20
24.25183893702685
 30
0.0
 11
25.15850365743183
 21
24.41152683971578
 31
0.0
  0
LINE
  5
2CD
330
1F
100
AcDbEntity
  8
0
  6
SLD-Solid
 62
     7
370
    25
100
AcDbLine
 10
25.15850365743183
 20
24.41152683971578
 30
0.0
 11
25.15850365743184
 21
24.4222848590043
 31
0.0
  0
LINE
  5
2CE
330
1F
100
AcDbEntity
  8
0
  6
SLD-Solid
 62
     7
370
    25
100
AcDbLine
 10
27.6119670081116
 20
42.33221493867411
 30
0.0
 11
27.61196700811158
 21
42.30144218528716
 31
0.0
  0
LINE
  5
2CF
330
1F
100
AcDbEntity
  8
0
  6
SLD-Solid
 62
     7
370
    25
100
AcDbLine
 10
25.09204287865527
 20
42.33221493867408
 30
0.0
 11
27.6119670081116
 21
42.33221493867411
 31
0.0
  0
LINE
  5
2D0
330
1F
100
AcDbEntity
  8
0
  6
SLD-Solid
 62
     7
370
    25
100
AcDbLine
 10
25.09204287865523
 20
42.30144218528716
 30
0.0
 11
25.09204287865527
 21
42.33221493867408
 31
0.0
  0
LINE
  5
2D1
330
1F
100
AcDbEntity
  8
0
  6
SLD-Solid
 62
     7
370
    25
100
AcDbLine
 10
25.07754287865525
 20
42.30321493867409
 30
0.0
 11
25.07754287865526
 21
42.33221493867408
 31
0.0
  0
LINE
  5
2D2
330
1F
100
AcDbEntity
  8
0
  6
SLD-Solid
 62
     7
370
    25
100
AcDbLine
 10
25.02115837810504
 20
42.30321493867409
 30
0.0
 11
25.07754287865525
 21
42.30321493867409
 31
0.0
  0
LINE
  5
2D3
330
1F
100
AcDbEntity
  8
0
  6
SLD-Solid
 62
     7
370
    25
100
AcDbLine
 10
25.02115837810504
 20
42.33221493867408
 30
0.0
 11
25.02115837810504
 21
42.30321493867409
 31
0.0
  0
LINE
  5
2D4
330
1F
100
AcDbEntity
  8
0
  6
SLD-Solid
 62
     7
370
    25
100
AcDbLine
 10
25.02115837810504
 20
42.33221493867408
 30
0.0
 11
25.07754287865526
 21
42.33221493867408
 31
0.0
  0
LINE
  5
2D5
330
1F
100
AcDbEntity
  8
0
  6
SLD-Solid
 62
     7
370
    25
100
AcDbLine
 10
24.96315837810505
 20
42.27421493867408
 30
0.0
 11
24.99215837810504
 21
42.27421493867407
 31
0.0
  0
ARC
  5
2D6
330
1F
100
AcDbEntity
  8
0
  6
SLD-Solid
 62
     7
370
    25
100
AcDbCircle
 10
25.02115837810505
 20
42.27421493867408
 30
0.0
 40
0.0579999999999998
100
AcDbArc
 50
90.00000000000702
 51
179.9999999999849
  0
ARC
  5
2D7
330
1F
100
AcDbEntity
  8
0
  6
SLD-Solid
 62
     7
370
    25
100
AcDbCircle
 10
25.02115837810505
 20
42.27421493867408
 30
0.0
 40
0.0290000000000106
100
AcDbArc
 50
90.00000000001404
 51
180.0000000000186
  0
LINE
  5
2D8
330
1F
100
AcDbEntity
  8
0
  6
SLD-Solid
 62
     7
370
    25
100
AcDbLine
 10
24.96315837810502
 20
42.26475720344205
 30
0.0
 11
24.96315837810505
 21
42.27421493867408
 31
0.0
  0
LINE
  5
2D9
330
1F
100
AcDbEntity
  8
0
  6
SLD-Solid
 62
     7
370
    25
100
AcDbLine
 10
24.99215837810504
 20
42.26475720344205
 30
0.0
 11
24.99215837810504
 21
42.27421493867407
 31
0.0
  0
LINE
  5
2DA
330
1F
100
AcDbEntity
  8
0
  6
SLD-Solid
 62
     7
370
    25
100
AcDbLine
 10
25.09204287865527
 20
42.33221493867408
 30
0.0
 11
25.07754287865526
 21
42.33221493867408
 31
0.0
  0
LINE
  5
2DB
330
1F
100
AcDbEntity
  8
0
  6
SLD-Solid
 62
     7
370
    25
100
AcDbLine
 10
25.07754287865525
 20
42.30321493867409
 30
0.0
 11
25.09204287865527
 21
42.30321493867406
 31
0.0
  0
LINE
  5
2DC
330
1F
100
AcDbEntity
  8
0
  6
SLD-Solid
 62
     7
370
    25
100
AcDbLine
 10
25.15059210677396
 20
24.25183893702684
 30
0.0
 11
25.17109820342834
 21
24.27234503368126
 31
0.0
  0
LINE
  5
2DD
330
1F
100
AcDbEntity
  8
0
  6
SLD-Solid
 62
     7
370
    25
100
AcDbLine
 10
24.990904204085
 20
24.41152683971575
 30
0.0
 11
25.15059210677396
 21
24.25183893702684
 31
0.0
  0
LINE
  5
2DE
330
1F
100
AcDbEntity
  8
0
  6
SLD-Solid
 62
     7
370
    25
100
AcDbLine
 10
25.01141030073943
 20
24.43203293637017
 30
0.0
 11
24.990904204085
 21
24.41152683971575
 31
0.0
  0
LINE
  5
2DF
330
1F
100
AcDbEntity
  8
0
  6
SLD-Solid
 62
     7
370
    25
100
AcDbLine
 10
25.01141030073943
 20
24.43203293637017
 30
0.0
 11
25.17109820342834
 21
24.27234503368126
 31
0.0
  0
LINE
  5
2E0
330
1F
100
AcDbEntity
  8
0
  6
SLD-Solid
 62
     7
370
    25
100
AcDbLine
 10
24.98014618479648
 20
24.42228485900432
 30
0.0
 11
24.990904204085
 21
24.41152683971575
 31
0.0
  0
LINE
  5
2E1
330
1F
100
AcDbEntity
  8
0
  6
SLD-Solid
 62
     7
370
    25
100
AcDbLine
 10
24.98014618479648
 20
24.42228485900432
 30
0.0
 11
25.00065228145088
 21
24.4427909556587
 31
0.0
  0
LINE
  5
2E2
330
1F
100
AcDbEntity
  8
0
  6
SLD-Solid
 62
     7
370
    25
100
AcDbLine
 10
25.00065228145088
 20
24.4427909556587
 30
0.0
 11
25.01141030073943
 21
24.43203293637017
 31
0.0
  0
LINE
  5
2E3
330
1F
100
AcDbEntity
  8
0
  6
SLD-Solid
 62
     7
370
    25
100
AcDbLine
 10
24.96315837810528
 20
24.46329705231312
 30
0.0
 11
24.99215837810527
 21
24.46329705231311
 31
0.0
  0
ARC
  5
2E4
330
1F
100
AcDbEntity
  8
0
  6
SLD-Solid
 62
     7
370
    25
100
AcDbCircle
 10
25.02115837810529
 20
24.46329705231313
 30
0.0
 40
0.0290000000000177
100
AcDbArc
 50
180.0000000000369
 51
225.0000000000256
  0
ARC
  5
2E5
330
1F
100
AcDbEntity
  8
0
  6
SLD-Solid
 62
     7
370
    25
100
AcDbCircle
 10
25.02115837810529
 20
24.46329705231313
 30
0.0
 40
0.0580000000000069
100
AcDbArc
 50
180.0000000000183
 51
224.9999999999983
  0
LINE
  5
2E6
330
1F
100
AcDbEntity
  8
0
  6
SLD-Solid
 62
     7
370
    25
100
AcDbLine
 10
24.96315837810528
 20
24.4821234261188
 30
0.0
 11
24.96315837810528
 21
24.46329705231312
 31
0.0
  0
LINE
  5
2E7
330
1F
100
AcDbEntity
  8
0
  6
SLD-Solid
 62
     7
370
    25
100
AcDbLine
 10
24.99215837810528
 20
24.48212342611879
 30
0.0
 11
24.99215837810527
 21
24.46329705231311
 31
0.0
  0
LINE
  5
2E8
330
1F
100
AcDbEntity
  8
0
  6
SLD-Solid
 62
     7
370
    25
100
AcDbLine
 10
25.22530672943664
 20
24.17712431436415
 30
0.0
 11
25.24581282609105
 21
24.19763041101857
 31
0.0
  0
LINE
  5
2E9
330
1F
100
AcDbEntity
  8
0
  6
SLD-Solid
 62
     7
370
    25
100
AcDbLine
 10
25.15059210677396
 20
24.25183893702684
 30
0.0
 11
25.22530672943664
 21
24.17712431436415
 31
0.0
  0
LINE
  5
2EA
330
1F
100
AcDbEntity
  8
0
  6
SLD-Solid
 62
     7
370
    25
100
AcDbLine
 10
25.17109820342834
 20
24.27234503368126
 30
0.0
 11
25.24581282609105
 21
24.19763041101857
 31
0.0
  0
ARC
  5
2EB
330
1F
100
AcDbEntity
  8
0
  6
SLD-Solid
 62
     8
370
    25
100
AcDbCircle
 10
27.34778424970047
 20
39.83212342611883
 30
0.0
 40
0.0269059892324168
100
AcDbArc
 50
275.5772895435578
 51
84.42271045669439
  0
DIMENSION
  5
2EC
330
1F
100
AcDbEntity
  8
DIMS
100
AcDbDimension
  2
_D_3
 10
24.96315837810502
 20
43.45948563082353
 30
0.0
 11
26.34492129508892
 21
43.45948563082355
 31
0.0
 70
    32
  1
<>
 71
     2
 42
-1.0
  3
SLDDIMSTYLE2
100
AcDbAlignedDimension
 13
27.72668421207279
 23
42.35712342609914
 33
0.0
 14
24.96315837810504
 24
42.27421493867408
 34
0.0
 50
0.0000000000008839
100
AcDbRotatedDimension
  0
MTEXT
  5
2FB
330
1F
100
AcDbEntity
  8
NOTES
100
AcDbMText
 10
25.23901387888723
 20
23.3128793977924
 30
0.0
 40
0.7500000000000001
 41
0.0
 71
     1
 72
     1
  1
Side view
  7
SLDTEXTSTYLE1
 73
     1
 44
1.0
  0
LINE
  5
2FC
330
1F
100
AcDbEntity
  8
0
  6
SLD-Solid
 62
     7
370
    25
100
AcDbLine
 10
50.30236069190433
 20
25.52100264858133
 30
0.0
 11
50.30236069190404
 21
39.55956415030995
 31
0.0
  0
LINE
  5
2FD
330
1F
100
AcDbEntity
  8
0
  6
SLD-Solid
 62
     7
370
    25
100
AcDbLine
 10
48.52908077395124
 20
41.09129295322212
 30
0.0
 11
48.50786757051564
 21
41.07904683154479
 31
0.0
  0
LINE
  5
2FE
330
1F
100
AcDbEntity
  8
0
  6
SLD-Solid
 62
     7
370
    25
100
AcDbLine
 10
46.46353378311599
 20
39.99588017795703
 30
0.0
 11
46.4635337831163
 21
25.47563395595457
 31
0.0
  0
LINE
  5
2FF
330
1F
100
AcDbEntity
  8
0
  6
SLD-Solid
 62
     7
370
    25
100
AcDbLine
 10
48.34959345141213
 20
41.09693445390558
 30
0.0
 11
46.56773801139798
 21
40.06829120367258
 31
0.0
  0
SPLINE
  5
300
330
1F
100
AcDbEntity
  8
0
  6
SLD-Solid
 62
     7
370
    25
100
AcDbSpline
210
0.0
220
0.0
230
1.0
 70
    12
 71
     3
 72
    14
 73
    10
 74
     0
 42
0.00000001
 43
0.00000001
 40
0.0
 40
0.0
 40
0.0
 40
0.0
 40
0.1291209904605783
 40
0.2837485247488847
 40
0.4419431027724004
 40
0.6097453779682777
 40
0.7822579236785574
 40
0.9519692005727182
 40
0.9999999999999999
 40
0.9999999999999999
 40
0.9999999999999999
 40
0.9999999999999999
 10
50.01313132014936
 20
37.82005595796024
 30
0.0
 41
1.0
 10
50.01232052259813
 20
37.82252603884049
 30
0.0
 41
1.0
 10
50.01053876265183
 20
37.82795414005999
 30
0.0
 41
1.0
 10
50.01116749277563
 20
37.84501051102371
 30
0.0
 41
1.0
 10
50.01688725752948
 20
37.86615889920231
 30
0.0
 41
1.0
 10
50.02786496031636
 20
37.88873092758519
 30
0.0
 41
1.0
 10
50.04298510734186
 20
37.90893974602709
 30
0.0
 41
1.0
 10
50.05597975116533
 20
37.92036400401373
 30
0.0
 41
1.0
 10
50.06251848041992
 20
37.92435113458605
 30
0.0
 41
1.0
 10
50.06396083092306
 20
37.92523063877763
 30
0.0
 41
1.0
  0
LWPOLYLINE
  5
301
330
1F
100
AcDbEntity
  8
0
  6
SLD-Solid
 62
     7
370
    25
100
AcDbPolyline
 90
       19
 70
   128
 43
0.0
 10
50.12990848014532
 20
25.38222165816426
 10
50.15960660692969
 20
25.40969740165987
 10
50.18445374786926
 20
25.44547901382306
 10
50.20145297106198
 20
25.48525070414661
 10
50.20855391930898
 20
25.52421541980985
 10
50.20490011345285
 20
25.55767344104584
 10
50.19093225640427
 20
25.58158923670572
 10
50.16833507786691
 20
25.59307820887335
 10
50.1398341310712
 20
25.59075461794615
 10
50.10886705082991
 20
25.57489872328248
 10
50.07916892404555
 20
25.54742297978687
 10
50.05432178310597
 20
25.51164136762368
 10
50.03732255991326
 20
25.47186967730013
 10
50.03022161166625
 20
25.4329049616369
 10
50.03387541752237
 20
25.39944694040091
 10
50.04784327457097
 20
25.37553114474103
 10
50.07044045310833
 20
25.3640421725734
 10
50.09894139990403
 20
25.3663657635006
 10
50.12990848014532
 20
25.38222165816426
  0
LWPOLYLINE
  5
302
330
1F
100
AcDbEntity
  8
0
  6
SLD-Solid
 62
     7
370
    25
100
AcDbPolyline
 90
        7
 70
   128
 43
0.0
 10
50.04321749024524
 20
25.38074472658909
 10
50.03154637742407
 20
25.40217602609874
 10
50.02793194712383
 20
25.43527348406533
 10
50.03495637138582
 20
25.47381829308879
 10
50.05177240097458
 20
25.5131613803401
 10
50.07635177454353
 20
25.54855738885463
 10
50.10572985688735
 20
25.57573703761606
  0
LINE
  5
303
330
1F
100
AcDbEntity
  8
0
  6
SLD-Solid
 62
     7
370
    25
100
AcDbLine
 10
48.4169281410639
 20
38.98914036442257
 30
0.0
 11
48.41692814106386
 21
38.94600067445316
 31
0.0
  0
LWPOLYLINE
  5
304
330
1F
100
AcDbEntity
  8
0
  6
SLD-Solid
 62
     7
370
    25
100
AcDbPolyline
 90
        9
 70
   128
 43
0.0
 10
48.5703624913054
 20
41.07285832523291
 10
48.55311878010022
 20
41.08085170747996
 10
48.53653773504626
 20
41.08461550784506
 10
48.52125655640621
 20
41.08400508559095
 10
48.5078624913054
 20
41.07904389890253
 10
48.49687026615419
 20
41.06992260340198
 10
48.48870230600063
 20
41.05699172536009
 10
48.48367250097277
 20
41.0407481911683
 10
48.48264645199675
 20
41.03399310780888
  0
LINE
  5
305
330
1F
100
AcDbEntity
  8
0
  6
SLD-Solid
 62
     7
370
    25
100
AcDbLine
 10
50.11892634210396
 20
40.17889144278708
 30
0.0
 11
48.5703624913054
 21
41.07285832523291
 31
0.0
  0
ARC
  5
306
330
1F
100
AcDbEntity
  8
0
  6
SLD-Solid
 62
     7
370
    25
100
AcDbCircle
 10
50.01389673190962
 20
40.01575341991707
 30
0.0
 40
0.1940237962815728
100
AcDbArc
 50
5.61890797693842
 51
57.22622988962504
  0
LINE
  5
307
330
1F
100
AcDbEntity
  8
0
  6
SLD-Solid
 62
     7
370
    25
100
AcDbLine
 10
50.27236069190403
 20
39.55956415030995
 30
0.0
 11
50.25755855038755
 21
39.56810924471997
 31
0.0
  0
LWPOLYLINE
  5
308
330
1F
100
AcDbEntity
  8
0
  6
SLD-Solid
 62
     7
370
    25
100
AcDbPolyline
 90
        6
 70
   128
 43
0.0
 10
50.06202194561762
 20
37.83643763398582
 10
50.06201869492307
 20
37.83643951087685
 10
50.04975617632802
 20
37.85055290194401
 10
50.04545015242815
 20
37.87306521850336
 10
50.04975617632801
 20
37.90054916443339
 10
50.05875313930514
 20
37.92282789192051
  0
LINE
  5
309
330
1F
100
AcDbEntity
  8
0
  6
SLD-Solid
 62
     7
370
    25
100
AcDbLine
 10
50.29357389533993
 20
25.50875652690399
 30
0.0
 11
50.27879539017816
 21
25.50022507747114
 31
0.0
  0
LINE
  5
30A
330
1F
100
AcDbEntity
  8
0
  6
SLD-Solid
 62
     7
370
    25
100
AcDbLine
 10
50.27879539017816
 20
25.50022507747114
 30
0.0
 11
50.27879539017816
 21
25.47387109446774
 31
0.0
  0
LINE
  5
30B
330
1F
100
AcDbEntity
  8
0
  6
SLD-Solid
 62
     7
370
    25
100
AcDbLine
 10
50.27879539017816
 20
25.47387109446774
 30
0.0
 11
50.22897764491706
 21
25.44511192228462
 31
0.0
  0
LINE
  5
30C
330
1F
100
AcDbEntity
  8
0
  6
SLD-Solid
 62
     7
370
    25
100
AcDbLine
 10
50.25755855038755
 20
39.52652681254526
 30
0.0
 11
50.29357389533963
 21
39.54731802863261
 31
0.0
  0
LINE
  5
30D
330
1F
100
AcDbEntity
  8
0
  6
SLD-Solid
 62
     7
370
    25
100
AcDbLine
 10
50.29357389533963
 20
39.54731802863261
 30
0.0
 11
50.29357389533993
 21
25.50875652690399
 31
0.0
  0
LINE
  5
30E
330
1F
100
AcDbEntity
  8
0
  6
SLD-Solid
 62
     7
370
    25
100
AcDbLine
 10
50.14013954553961
 20
40.19113756446441
 30
0.0
 11
50.11892634210396
 21
40.17889144278708
 31
0.0
  0
ARC
  5
30F
330
1F
100
AcDbEntity
  8
0
  6
SLD-Solid
 62
     7
370
    25
100
AcDbCircle
 10
50.0366258805169
 20
40.0293118494572
 30
0.0
 40
0.1921006009465527
100
AcDbArc
 50
2.605478485658677
 51
57.39452165995051
  0
LINE
  5
310
330
1F
100
AcDbEntity
  8
0
  6
SLD-Solid
 62
     7
370
    25
100
AcDbLine
 10
50.29357389533963
 20
39.54731802863261
 30
0.0
 11
50.27236069190403
 21
39.55956415030995
 31
0.0
  0
LINE
  5
311
330
1F
100
AcDbEntity
  8
0
  6
SLD-Solid
 62
     7
370
    25
100
AcDbLine
 10
50.25755855038755
 20
39.55101905589994
 30
0.0
 11
50.27236069190403
 21
39.55956415030995
 31
0.0
  0
LINE
  5
312
330
1F
100
AcDbEntity
  8
0
  6
SLD-Solid
 62
     7
370
    25
100
AcDbLine
 10
50.22852789318788
 20
39.99756852911261
 30
0.0
 11
50.22852789318788
 21
40.03804445598979
 31
0.0
  0
LINE
  5
313
330
1F
100
AcDbEntity
  8
0
  6
SLD-Solid
 62
     7
370
    25
100
AcDbLine
 10
48.59157569474104
 20
41.08510444691023
 30
0.0
 11
48.5703624913054
 21
41.07285832523291
 31
0.0
  0
LINE
  5
314
330
1F
100
AcDbEntity
  8
0
  6
SLD-Solid
 62
     7
370
    25
100
AcDbLine
 10
50.14013954553961
 20
40.19113756446441
 30
0.0
 11
48.59157569474104
 21
41.08510444691023
 31
0.0
  0
ARC
  5
315
330
1F
100
AcDbEntity
  8
0
  6
SLD-Solid
 62
     7
370
    25
100
AcDbCircle
 10
50.28734698002967
 20
25.52249983988827
 30
0.0
 40
0.0150881783547601
100
AcDbArc
 50
294.3746582934479
 51
354.3052007488921
  0
ARC
  5
316
330
1F
100
AcDbEntity
  8
0
  6
SLD-Solid
 62
     7
370
    25
100
AcDbCircle
 10
50.28892608453577
 20
39.55956415030994
 30
0.0
 40
0.0130984595050223
100
AcDbArc
 50
290.7834207994214
 51
69.21657920036492
  0
LINE
  5
317
330
1F
100
AcDbEntity
  8
0
  6
SLD-Solid
 62
     7
370
    25
100
AcDbLine
 10
50.29357389533968
 20
39.57181027198726
 30
0.0
 11
50.27236069190403
 21
39.55956415030995
 31
0.0
  0
LINE
  5
318
330
1F
100
AcDbEntity
  8
0
  6
SLD-Solid
 62
     7
370
    25
100
AcDbLine
 10
50.27293419904646
 20
39.58372531503852
 30
0.0
 11
50.25755855038754
 21
39.57484914200243
 31
0.0
  0
LINE
  5
319
330
1F
100
AcDbEntity
  8
0
  6
SLD-Solid
 62
     7
370
    25
100
AcDbLine
 10
50.29357389533968
 20
39.57181027198726
 30
0.0
 11
50.27293419904646
 21
39.58372531503852
 31
0.0
  0
LINE
  5
31A
330
1F
100
AcDbEntity
  8
0
  6
SLD-Solid
 62
     7
370
    25
100
AcDbLine
 10
50.27293419904646
 20
39.58388862320091
 30
0.0
 11
50.25755855038754
 21
39.57501245016481
 31
0.0
  0
LINE
  5
31B
330
1F
100
AcDbEntity
  8
0
  6
SLD-Solid
 62
     7
370
    25
100
AcDbLine
 10
50.27293419904646
 20
39.58372531503852
 30
0.0
 11
50.27293419904646
 21
39.58388862320091
 31
0.0
  0
LINE
  5
31C
330
1F
100
AcDbEntity
  8
0
  6
SLD-Solid
 62
     7
370
    25
100
AcDbLine
 10
50.27293419904646
 20
39.58388862320091
 30
0.0
 11
50.25755855038755
 21
39.59276479623703
 31
0.0
  0
ARC
  5
31D
330
1F
100
AcDbEntity
  8
0
  6
SLD-Solid
 62
     7
370
    25
100
AcDbCircle
 10
48.55496068788468
 20
41.03399428077038
 30
0.0
 40
0.0628721544877722
100
AcDbArc
 50
54.38242252478645
 51
114.3071190460782
  0
ARC
  5
31E
330
1F
100
AcDbEntity
  8
0
  6
SLD-Solid
 62
     7
370
    25
100
AcDbCircle
 10
48.38399012897511
 20
38.97618442288136
 30
0.0
 40
0.0891472706588337
100
AcDbArc
 50
242.609672236582
 51
297.3903277634196
  0
LINE
  5
31F
330
1F
100
AcDbEntity
  8
0
  6
SLD-Solid
 62
     7
370
    25
100
AcDbLine
 10
48.42500232228393
 20
38.89703117995399
 30
0.0
 11
48.42500232228423
 21
24.37678495795153
 31
0.0
  0
ARC
  5
320
330
1F
100
AcDbEntity
  8
0
  6
SLD-Solid
 62
     7
370
    25
100
AcDbCircle
 10
48.38399012897546
 20
24.45593820087911
 30
0.0
 40
0.0891472706590044
100
AcDbArc
 50
242.6096722366183
 51
297.3903277633282
  0
LINE
  5
321
330
1F
100
AcDbEntity
  8
0
  6
SLD-Solid
 62
     7
370
    25
100
AcDbLine
 10
48.34297793566628
 20
38.89703117995399
 30
0.0
 11
48.3429779356666
 21
24.37678495795156
 31
0.0
  0
LINE
  5
322
330
1F
100
AcDbEntity
  8
0
  6
SLD-Solid
 62
     7
370
    25
100
AcDbLine
 10
48.3634840323207
 20
38.90886909757542
 30
0.0
 11
48.34297793566628
 21
38.89703117995399
 31
0.0
  0
ARC
  5
323
330
1F
100
AcDbEntity
  8
0
  6
SLD-Solid
 62
     7
370
    25
100
AcDbCircle
 10
48.38399012897511
 20
38.94844571903914
 30
0.0
 40
0.0445736353294469
100
AcDbArc
 50
242.6096722365969
 51
297.3903277634375
  0
LINE
  5
324
330
1F
100
AcDbEntity
  8
0
  6
SLD-Solid
 62
     7
370
    25
100
AcDbLine
 10
48.40449622562955
 20
38.90886909757543
 30
0.0
 11
48.42500232228393
 21
38.89703117995399
 31
0.0
  0
ARC
  5
325
330
1F
100
AcDbEntity
  8
0
  6
SLD-Solid
 62
     7
370
    25
100
AcDbCircle
 10
46.58757201638291
 20
39.96547930491381
 30
0.0
 40
0.0891346788391361
100
AcDbArc
 50
122.6054783400138
 51
177.3945215143582
  0
LINE
  5
326
330
1F
100
AcDbEntity
  8
0
  6
SLD-Solid
 62
     7
370
    25
100
AcDbLine
 10
46.53954167581246
 20
40.04056643667712
 30
0.0
 11
48.36598223627865
 21
38.98618474426542
 31
0.0
  0
ARC
  5
327
330
1F
100
AcDbEntity
  8
0
  6
SLD-Solid
 62
     7
370
    25
100
AcDbCircle
 10
48.41401257684911
 20
38.9110976125021
 30
0.0
 40
0.0891346788391364
100
AcDbArc
 50
122.6054783400138
 51
177.3945215143536
  0
LINE
  5
328
330
1F
100
AcDbEntity
  8
0
  6
SLD-Solid
 62
     7
370
    25
100
AcDbLine
 10
46.49852948250364
 20
39.9695312343449
 30
0.0
 11
48.32497004296984
 21
38.9151495419332
 31
0.0
  0
LINE
  5
329
330
1F
100
AcDbEntity
  8
0
  6
SLD-Solid
 62
     7
370
    25
100
AcDbLine
 10
48.32497004296984
 20
38.9151495419332
 30
0.0
 11
48.34547613962425
 21
38.92698745955461
 31
0.0
  0
LINE
  5
32A
330
1F
100
AcDbEntity
  8
0
  6
SLD-Solid
 62
     7
370
    25
100
AcDbLine
 10
48.36598223627865
 20
38.98618474426542
 30
0.0
 11
48.36598223627864
 21
38.96250506072074
 31
0.0
  0
ARC
  5
32B
330
1F
100
AcDbEntity
  8
0
  6
SLD-Solid
 62
     7
370
    25
100
AcDbCircle
 10
48.38999740656396
 20
38.92496149483905
 30
0.0
 40
0.0445673394196488
100
AcDbArc
 50
122.6054783400829
 51
177.3945215143397
  0
LINE
  5
32C
330
1F
100
AcDbEntity
  8
0
  6
SLD-Solid
 62
     7
370
    25
100
AcDbLine
 10
48.52212010065996
 20
24.4328498580329
 30
0.0
 11
48.42500232228423
 21
24.37678495795153
 31
0.0
  0
LINE
  5
32D
330
1F
100
AcDbEntity
  8
0
  6
SLD-Solid
 62
     7
370
    25
100
AcDbLine
 10
48.43047248388785
 20
38.90018903703106
 30
0.0
 11
48.42500232228393
 21
38.89703117995399
 31
0.0
  0
LINE
  5
32E
330
1F
100
AcDbEntity
  8
0
  6
SLD-Solid
 62
     7
370
    25
100
AcDbLine
 10
48.43047248388783
 20
38.93014382189086
 30
0.0
 11
48.43047248388785
 21
38.90018903703106
 31
0.0
  0
LINE
  5
32F
330
1F
100
AcDbEntity
  8
0
  6
SLD-Solid
 62
     7
370
    25
100
AcDbLine
 10
48.43047248388783
 20
38.93014382189086
 30
0.0
 11
50.25755855038754
 21
39.98489815700392
 31
0.0
  0
LINE
  5
330
330
1F
100
AcDbEntity
  8
0
  6
SLD-Solid
 62
     7
370
    25
100
AcDbLine
 10
50.25755855038754
 20
39.98489815700392
 30
0.0
 11
50.25755855038785
 21
25.53676475992053
 31
0.0
  0
ARC
  5
331
330
1F
100
AcDbEntity
  8
0
  6
SLD-Solid
 62
     7
370
    25
100
AcDbCircle
 10
50.06565653771693
 20
25.54549736645309
 30
0.0
 40
0.1921006009464854
100
AcDbArc
 50
302.6054783400229
 51
357.3945215143519
  0
LINE
  5
332
330
1F
100
AcDbEntity
  8
0
  6
SLD-Solid
 62
     7
370
    25
100
AcDbLine
 10
50.16917020273953
 20
25.38367165144589
 30
0.0
 11
49.99239350744289
 21
25.28162063746804
 31
0.0
  0
LINE
  5
333
330
1F
100
AcDbEntity
  8
0
  6
SLD-Solid
 62
     7
370
    25
100
AcDbLine
 10
49.99239350744289
 20
25.28162063746804
 30
0.0
 11
49.98674254234364
 21
25.26298589390951
 31
0.0
  0
LINE
  5
334
330
1F
100
AcDbEntity
  8
0
  6
SLD-Solid
 62
     7
370
    25
100
AcDbLine
 10
48.52212010065998
 20
24.41747735548074
 30
0.0
 11
49.98674254234364
 21
25.26298589390951
 31
0.0
  0
LINE
  5
335
330
1F
100
AcDbEntity
  8
0
  6
SLD-Solid
 62
     7
370
    25
100
AcDbLine
 10
48.52212010065998
 20
24.41747735548074
 30
0.0
 11
48.52212010065996
 21
24.4328498580329
 31
0.0
  0
LWPOLYLINE
  5
336
330
1F
100
AcDbEntity
  8
0
  6
SLD-Solid
 62
     7
370
    25
100
AcDbPolyline
 90
       17
 70
   128
 43
0.0
 10
50.0701752533691
 20
37.93896598297171
 10
50.0441469623013
 20
37.91796155884597
 10
50.02208124260152
 20
37.88819764483636
 10
50.00733740006781
 20
37.85420552704031
 10
50.00216005107266
 20
37.82116019725295
 10
50.00733740006781
 20
37.79409250737773
 10
50.02208124260152
 20
37.77712326782896
 10
50.0441469623013
 20
37.77283589150137
 10
50.0701752533691
 20
37.78188309257568
 10
50.09620354443691
 20
37.80288751670142
 10
50.11826926413669
 20
37.83265143071103
 10
50.1330131066704
 20
37.86664354850708
 10
50.13819045566554
 20
37.89968887829444
 10
50.13301310667039
 20
37.92675656816966
 10
50.11826926413669
 20
37.94372580771844
 10
50.0962035444369
 20
37.94801318404603
 10
50.0701752533691
 20
37.93896598297171
  0
LINE
  5
337
330
1F
100
AcDbEntity
  8
0
  6
SLD-Solid
 62
     7
370
    25
100
AcDbLine
 10
48.43047248388785
 20
38.90018903703106
 30
0.0
 11
48.40996638723345
 21
38.9120269546525
 31
0.0
  0
LINE
  5
338
330
1F
100
AcDbEntity
  8
0
  6
SLD-Solid
 62
     7
370
    25
100
AcDbLine
 10
48.40996638723342
 20
38.94198173951229
 30
0.0
 11
48.40996638723345
 21
38.9120269546525
 31
0.0
  0
LINE
  5
339
330
1F
100
AcDbEntity
  8
0
  6
SLD-Solid
 62
     7
370
    25
100
AcDbLine
 10
48.43047248388783
 20
38.93014382189086
 30
0.0
 11
48.40996638723342
 21
38.94198173951229
 31
0.0
  0
LINE
  5
33A
330
1F
100
AcDbEntity
  8
0
  6
SLD-Solid
 62
     7
370
    25
100
AcDbLine
 10
48.40996638723342
 20
38.94198173951229
 30
0.0
 11
50.23705245373313
 21
39.99673607462535
 31
0.0
  0
LINE
  5
33B
330
1F
100
AcDbEntity
  8
0
  6
SLD-Solid
 62
     7
370
    25
100
AcDbLine
 10
50.25755855038754
 20
39.98489815700392
 30
0.0
 11
50.23705245373313
 21
39.99673607462535
 31
0.0
  0
LINE
  5
33C
330
1F
100
AcDbEntity
  8
0
  6
SLD-Solid
 62
     7
370
    25
100
AcDbLine
 10
46.48052158980748
 20
25.4519581207117
 30
0.0
 11
46.58494352682689
 21
25.39167661959825
 31
0.0
  0
LINE
  5
33D
330
1F
100
AcDbEntity
  8
0
  6
SLD-Solid
 62
     7
370
    25
100
AcDbLine
 10
46.48052158980717
 20
39.97220434271418
 30
0.0
 11
46.48052158980748
 21
25.4519581207117
 31
0.0
  0
LINE
  5
33E
330
1F
100
AcDbEntity
  8
0
  6
SLD-Solid
 62
     7
370
    25
100
AcDbLine
 10
46.48052158980717
 20
39.97220434271418
 30
0.0
 11
46.49852948250362
 21
39.96180860753993
 31
0.0
  0
LINE
  5
33F
330
1F
100
AcDbEntity
  8
0
  6
SLD-Solid
 62
     7
370
    25
100
AcDbLine
 10
46.49852948250362
 20
39.96180860753993
 30
0.0
 11
46.49852948250364
 21
39.9695312343449
 31
0.0
  0
LINE
  5
340
330
1F
100
AcDbEntity
  8
0
  6
SLD-Solid
 62
     7
370
    25
100
AcDbLine
 10
48.32497004296981
 20
38.90742691512822
 30
0.0
 11
48.32497004296984
 21
38.9151495419332
 31
0.0
  0
LINE
  5
341
330
1F
100
AcDbEntity
  8
0
  6
SLD-Solid
 62
     7
370
    25
100
AcDbLine
 10
48.34297793566628
 20
38.89703117995399
 30
0.0
 11
48.32497004296981
 21
38.90742691512822
 31
0.0
  0
LINE
  5
342
330
1F
100
AcDbEntity
  8
0
  6
SLD-Solid
 62
     7
370
    25
100
AcDbLine
 10
48.3429779356666
 20
24.37678495795156
 30
0.0
 11
48.23855599864721
 21
24.43706645906501
 31
0.0
  0
LINE
  5
343
330
1F
100
AcDbEntity
  8
0
  6
SLD-Solid
 62
     7
370
    25
100
AcDbLine
 10
48.23855599864721
 20
24.43706645906501
 30
0.0
 11
48.23855599864721
 21
24.42169395651286
 31
0.0
  0
LINE
  5
344
330
1F
100
AcDbEntity
  8
0
  6
SLD-Solid
 62
     7
370
    25
100
AcDbLine
 10
46.58494352682688
 20
25.37630411704611
 30
0.0
 11
48.23855599864721
 21
24.42169395651286
 31
0.0
  0
LINE
  5
345
330
1F
100
AcDbEntity
  8
0
  6
SLD-Solid
 62
     7
370
    25
100
AcDbLine
 10
46.58494352682689
 20
25.39167661959825
 30
0.0
 11
46.58494352682688
 21
25.37630411704611
 31
0.0
  0
LINE
  5
346
330
1F
100
AcDbEntity
  8
0
  6
SLD-Solid
 62
     7
370
    25
100
AcDbLine
 10
47.52205842060908
 20
27.70858454820555
 30
0.0
 11
47.52205842060906
 21
29.23959857049132
 31
0.0
  0
LWPOLYLINE
  5
347
330
1F
100
AcDbEntity
  8
0
  6
SLD-Solid
 62
     7
370
    25
100
AcDbPolyline
 90
       11
 70
   128
 43
0.0
 10
47.52205842060906
 20
29.23959857049132
 10
47.51665953061033
 20
29.28207798139234
 10
47.50099134158351
 20
29.32663263729323
 10
47.47658756503723
 20
29.36890121804388
 10
47.44583701265095
 20
29.4047461804579
 10
47.41174976274395
 20
29.43065876986765
 10
47.37766251283694
 20
29.44410248147809
 10
47.34691196045068
 20
29.44376135112894
 10
47.3225081839044
 20
29.42966877103558
 10
47.30683999487759
 20
29.40320422112631
 10
47.30144110486488
 20
29.36695823594371
  0
LINE
  5
348
330
1F
100
AcDbEntity
  8
0
  6
SLD-Solid
 62
     7
370
    25
100
AcDbLine
 10
47.30144110486491
 20
27.83594421365794
 30
0.0
 11
47.30144110486488
 21
29.36695823594371
 31
0.0
  0
LWPOLYLINE
  5
349
330
1F
100
AcDbEntity
  8
0
  6
SLD-Solid
 62
     7
370
    25
100
AcDbPolyline
 90
       11
 70
   128
 43
0.0
 10
47.30144110486491
 20
27.83594421365794
 10
47.30683999486432
 20
27.79346480275154
 10
47.32250818389312
 20
27.748910146845
 10
47.34691196044249
 20
27.706641566089
 10
47.37766251283266
 20
27.67079660367044
 10
47.41174976274399
 20
27.64488401425739
 10
47.44583701265531
 20
27.63144030264524
 10
47.47658756504548
 20
27.63178143299442
 10
47.50099134159485
 20
27.64587401308957
 10
47.51665953062365
 20
27.67233856300219
 10
47.52205842060908
 20
27.70858454820555
  0
LINE
  5
34A
330
1F
100
AcDbEntity
  8
0
  6
SLD-Solid
 62
     7
370
    25
100
AcDbLine
 10
48.40996638723345
 20
38.9120269546525
 30
0.0
 11
48.40449622562955
 21
38.90886909757543
 31
0.0
  0
LINE
  5
34B
330
1F
100
AcDbEntity
  8
0
  6
SLD-Solid
 62
     7
370
    25
100
AcDbLine
 10
48.32497004296981
 20
38.90742691512822
 30
0.0
 11
48.34547613962425
 21
38.91926483274965
 31
0.0
  0
LINE
  5
34C
330
1F
100
AcDbEntity
  8
0
  6
SLD-Solid
 62
     7
370
    25
100
AcDbLine
 10
48.3634840323207
 20
38.90886909757542
 30
0.0
 11
48.34547613962425
 21
38.91926483274965
 31
0.0
  0
LINE
  5
34D
330
1F
100
AcDbEntity
  8
0
  6
SLD-Solid
 62
     7
370
    25
100
AcDbLine
 10
48.34547613962425
 20
38.91926483274965
 30
0.0
 11
48.34547613962425
 21
38.92698745955461
 31
0.0
  0
LINE
  5
34E
330
1F
100
AcDbEntity
  8
0
  6
SLD-Solid
 62
     7
370
    25
100
AcDbLine
 10
48.40903407948687
 20
39.01920212545038
 30
0.0
 11
50.19088951950103
 21
40.04784537568339
 31
0.0
  0
LINE
  5
34F
330
1F
100
AcDbEntity
  8
0
  6
SLD-Solid
 62
     7
370
    25
100
AcDbLine
 10
48.40903407948687
 20
39.01920212545038
 30
0.0
 11
48.39878103115967
 21
39.0251210842611
 31
0.0
  0
LINE
  5
350
330
1F
100
AcDbEntity
  8
0
  6
SLD-Solid
 62
     7
370
    25
100
AcDbLine
 10
48.39878103115967
 20
39.0251210842611
 30
0.0
 11
48.38852798283246
 21
39.01920212545038
 31
0.0
  0
LINE
  5
351
330
1F
100
AcDbEntity
  8
0
  6
SLD-Solid
 62
     7
370
    25
100
AcDbLine
 10
48.38852798283246
 20
39.01920212545038
 30
0.0
 11
48.40585209897152
 21
39.00920112608055
 31
0.0
  0
LINE
  5
352
330
1F
100
AcDbEntity
  8
0
  6
SLD-Solid
 62
     7
370
    25
100
AcDbLine
 10
48.36598223627865
 20
38.98618474426542
 30
0.0
 11
48.40585209897152
 21
39.00920112608055
 31
0.0
  0
LINE
  5
353
330
1F
100
AcDbEntity
  8
0
  6
SLD-Solid
 62
     7
370
    25
100
AcDbLine
 10
46.53954167581246
 20
40.04056643667712
 30
0.0
 11
46.57941153850535
 21
40.06358281849228
 31
0.0
  0
LINE
  5
354
330
1F
100
AcDbEntity
  8
0
  6
SLD-Solid
 62
     7
370
    25
100
AcDbLine
 10
46.59673565464441
 20
40.05358181912245
 30
0.0
 11
46.57941153850535
 21
40.06358281849228
 31
0.0
  0
LINE
  5
355
330
1F
100
AcDbEntity
  8
0
  6
SLD-Solid
 62
     7
370
    25
100
AcDbLine
 10
46.60698870297162
 20
40.05950077793315
 30
0.0
 11
46.59673565464441
 21
40.05358181912245
 31
0.0
  0
LINE
  5
356
330
1F
100
AcDbEntity
  8
0
  6
SLD-Solid
 62
     7
370
    25
100
AcDbLine
 10
46.59673565464442
 20
40.06541973674386
 30
0.0
 11
46.60698870297162
 21
40.05950077793315
 31
0.0
  0
LINE
  5
357
330
1F
100
AcDbEntity
  8
0
  6
SLD-Solid
 62
     7
370
    25
100
AcDbLine
 10
46.59673565464442
 20
40.06541973674386
 30
0.0
 11
48.37859109465857
 21
41.09406298697692
 31
0.0
  0
LINE
  5
358
330
1F
100
AcDbEntity
  8
0
  6
SLD-Solid
 62
     7
370
    25
100
AcDbLine
 10
48.37859109465857
 20
41.09406298697692
 30
0.0
 11
50.19088951950103
 21
40.04784537568339
 31
0.0
  0
LINE
  5
359
330
1F
100
AcDbEntity
  8
0
  6
SLD-Solid
 62
     7
370
    25
100
AcDbLine
 10
48.40585209897152
 20
38.98552144253587
 30
0.0
 11
48.40585209897152
 21
39.00920112608055
 31
0.0
  0
LINE
  5
35A
330
1F
100
AcDbEntity
  8
0
  6
SLD-Solid
 62
     7
370
    25
100
AcDbLine
 10
48.36598223627864
 20
38.96250506072074
 30
0.0
 11
48.40585209897152
 21
38.98552144253587
 31
0.0
  0
LINE
  5
35B
330
1F
100
AcDbEntity
  8
0
  6
SLD-Solid
 62
     7
370
    25
100
AcDbLine
 10
48.40903407948687
 20
38.99552244190569
 30
0.0
 11
48.40903407948687
 21
39.01920212545038
 31
0.0
  0
ARC
  5
35C
330
1F
100
AcDbEntity
  8
0
  6
SLD-Solid
 62
     7
370
    25
100
AcDbCircle
 10
48.36048197871131
 20
38.94352944736334
 30
0.0
 40
0.0899091802798042
100
AcDbArc
 50
13.13474653516932
 51
57.31549541090667
  0
ARC
  5
35D
330
1F
100
AcDbEntity
  8
0
  6
SLD-Solid
 62
     7
370
    25
100
AcDbCircle
 10
48.3850189092015
 20
38.95797887602394
 30
0.0
 40
0.0445673394197253
100
AcDbArc
 50
2.605478485765229
 51
57.39452165990261
  0
ARC
  5
35E
330
1F
100
AcDbEntity
  8
0
  6
SLD-Solid
 62
     7
370
    25
100
AcDbCircle
 10
50.14106203330292
 20
39.97127217444359
 30
0.0
 40
0.0913577228751539
100
AcDbArc
 50
13.5029807956344
 51
56.94726115044038
  0
LINE
  5
35F
330
1F
100
AcDbEntity
  8
0
  6
SLD-Solid
 62
     7
370
    25
100
AcDbLine
 10
48.42954017614129
 20
38.96000484073959
 30
0.0
 11
48.42954017614128
 21
38.95328144732775
 31
0.0
  0
LINE
  5
360
330
1F
100
AcDbEntity
  8
0
  6
SLD-Solid
 62
     7
370
    25
100
AcDbLine
 10
48.39878103115966
 20
39.01328316663967
 30
0.0
 11
48.39878103115967
 21
39.0251210842611
 31
0.0
  0
LINE
  5
361
330
1F
100
AcDbEntity
  8
0
  6
SLD-Solid
 62
     7
370
    25
100
AcDbLine
 10
48.40585209897152
 20
38.99735936015729
 30
0.0
 11
48.40903407948687
 21
38.99552244190569
 31
0.0
  0
ARC
  5
362
330
1F
100
AcDbEntity
  8
0
  6
SLD-Solid
 62
     7
370
    25
100
AcDbCircle
 10
46.48950735736133
 20
39.99588017795702
 30
0.0
 40
0.0253236883763769
100
AcDbArc
 50
110.7834207994719
 51
249.2165792005082
  0
LINE
  5
363
330
1F
100
AcDbEntity
  8
0
  6
SLD-Solid
 62
     7
370
    25
100
AcDbLine
 10
46.50102768646158
 20
40.00771809557844
 30
0.0
 11
46.48052158980718
 21
40.01955601319987
 31
0.0
  0
ARC
  5
364
330
1F
100
AcDbEntity
  8
0
  6
SLD-Solid
 62
     7
370
    25
100
AcDbCircle
 10
46.50540734913255
 20
39.99594664245223
 30
0.0
 40
0.0125597991152002
100
AcDbArc
 50
110.4081174519525
 51
246.1657173970188
  0
ARC
  5
365
330
1F
100
AcDbEntity
  8
0
  6
SLD-Solid
 62
     7
370
    25
100
AcDbCircle
 10
46.49256029274088
 20
25.47852852581478
 30
0.0
 40
0.0291704781527537
100
AcDbArc
 50
185.6947992512842
 51
245.6253417062345
  0
LWPOLYLINE
  5
366
330
1F
100
AcDbEntity
  8
0
  6
SLD-Solid
 62
     7
370
    25
100
AcDbPolyline
 90
        9
 70
   128
 43
0.0
 10
46.55647805111662
 20
40.05034359802749
 10
46.55651149913008
 20
40.0505206345379
 10
46.55884532866301
 20
40.05805763440289
 10
46.56263526217427
 20
40.06405756181432
 10
46.56773565464442
 20
40.06828984292657
 10
46.5739505008512
 20
40.07059183354999
 10
46.58104096774018
 20
40.0708750694759
 10
46.58873457264521
 20
40.06912866610649
 10
46.59673565464442
 20
40.06541973674386
  0
ARC
  5
367
330
1F
100
AcDbEntity
  8
0
  6
SLD-Solid
 62
     7
370
    25
100
AcDbCircle
 10
48.36160173147726
 20
41.07034786988815
 30
0.0
 40
0.0291726796822107
100
AcDbArc
 50
54.38242252470238
 51
114.3071190462939
  0
LINE
  5
368
330
1F
100
AcDbEntity
  8
0
  6
SLD-Solid
 62
     7
370
    25
100
AcDbLine
 10
46.5064978480655
 20
40.01087595265551
 30
0.0
 11
46.50102768646158
 21
40.00771809557844
 31
0.0
  0
LINE
  5
369
330
1F
100
AcDbEntity
  8
0
  6
SLD-Solid
 62
     7
370
    25
100
AcDbLine
 10
46.50649784806546
 20
40.0408307375153
 30
0.0
 11
46.5064978480655
 21
40.01087595265551
 31
0.0
  0
LINE
  5
36A
330
1F
100
AcDbEntity
  8
0
  6
SLD-Solid
 62
     7
370
    25
100
AcDbLine
 10
46.50649784806546
 20
40.0408307375153
 30
0.0
 11
48.3335839145652
 21
41.09558507262842
 31
0.0
  0
LINE
  5
36B
330
1F
100
AcDbEntity
  8
0
  6
SLD-Solid
 62
     7
370
    25
100
AcDbLine
 10
48.3335839145652
 20
41.09558507262842
 30
0.0
 11
48.3335839145652
 21
41.08769234500768
 31
0.0
  0
LINE
  5
36C
330
1F
100
AcDbEntity
  8
0
  6
SLD-Solid
 62
     7
370
    25
100
AcDbLine
 10
46.48599175141108
 20
40.05266865513675
 30
0.0
 11
48.3130778179108
 21
41.10742299024984
 31
0.0
  0
LINE
  5
36D
330
1F
100
AcDbEntity
  8
0
  6
SLD-Solid
 62
     7
370
    25
100
AcDbLine
 10
48.3130778179108
 20
41.10742299024984
 30
0.0
 11
48.3335839145652
 21
41.09558507262842
 31
0.0
  0
LINE
  5
36E
330
1F
100
AcDbEntity
  8
0
  6
SLD-Solid
 62
     7
370
    25
100
AcDbLine
 10
46.48599175141108
 20
40.05266865513675
 30
0.0
 11
46.50649784806546
 21
40.0408307375153
 31
0.0
  0
LINE
  5
36F
330
1F
100
AcDbEntity
  8
0
  6
SLD-Solid
 62
     7
370
    25
100
AcDbLine
 10
46.48599175141109
 20
40.02271387027694
 30
0.0
 11
46.5064978480655
 21
40.01087595265551
 31
0.0
  0
LINE
  5
370
330
1F
100
AcDbEntity
  8
0
  6
SLD-Solid
 62
     7
370
    25
100
AcDbLine
 10
46.48599175141108
 20
40.05266865513675
 30
0.0
 11
46.48599175141109
 21
40.02271387027694
 31
0.0
  0
LINE
  5
371
330
1F
100
AcDbEntity
  8
0
  6
SLD-Solid
 62
     7
370
    25
100
AcDbLine
 10
46.48599175141109
 20
40.02271387027694
 30
0.0
 11
46.48052158980718
 21
40.01955601319987
 31
0.0
  0
LINE
  5
372
330
1F
100
AcDbEntity
  8
0
  6
SLD-Solid
 62
     7
370
    25
100
AcDbLine
 10
50.0595686516513
 20
37.92387469122078
 30
0.0
 11
50.07727728371025
 21
37.93032636494522
 31
0.0
  0
LINE
  5
373
330
1F
100
AcDbEntity
  8
0
  6
SLD-Solid
 62
     7
370
    25
100
AcDbLine
 10
47.30144110486488
 20
29.36695823594371
 30
0.0
 11
47.32194720151926
 21
29.37879615356515
 31
0.0
  0
ARC
  5
374
330
1F
100
AcDbEntity
  8
0
  6
SLD-Solid
 62
     7
370
    25
100
AcDbCircle
 10
47.40198487375365
 20
29.3866914600944
 30
0.0
 40
0.0804261452631591
100
AcDbArc
 50
135.4340646910156
 51
185.6337089194627
  0
LINE
  5
375
330
1F
100
AcDbEntity
  8
0
  6
SLD-Solid
 62
     7
370
    25
100
AcDbLine
 10
47.30144110486491
 20
27.83594421365794
 30
0.0
 11
47.32194720151929
 21
27.84778213127936
 31
0.0
  0
LINE
  5
376
330
1F
100
AcDbEntity
  8
0
  6
SLD-Solid
 62
     7
370
    25
100
AcDbLine
 10
47.32194720151929
 20
27.84778213127936
 30
0.0
 11
47.32194720151926
 21
29.37879615356515
 31
0.0
  0
LWPOLYLINE
  5
377
330
1F
100
AcDbEntity
  8
0
  6
SLD-Solid
 62
     7
370
    25
100
AcDbPolyline
 90
        9
 70
   128
 43
0.0
 10
47.32194720151929
 20
27.84778213127936
 10
47.3273460915187
 20
27.80530272037296
 10
47.34301428054751
 20
27.76074806446642
 10
47.36741805709688
 20
27.71847948371041
 10
47.39816860948706
 20
27.68263452129186
 10
47.4322558593984
 20
27.65672193187882
 10
47.46634310930973
 20
27.64327822026667
 10
47.49709366169991
 20
27.64361935061585
 10
47.49931982307342
 20
27.6442518349046
  0
SPLINE
  5
378
330
1F
100
AcDbEntity
  8
0
  6
SLD-Solid
 62
     7
370
    25
100
AcDbSpline
210
0.0
220
0.0
230
1.0
 70
    12
 71
     3
 72
     9
 73
     5
 74
     0
 42
0.00000001
 43
0.00000001
 40
0.0
 40
0.0
 40
0.0
 40
0.0
 40
0.5000000000005738
 40
1.0
 40
1.0
 40
1.0
 40
1.0
 10
49.96429580194389
 20
25.23040852006351
 30
0.0
 41
1.0
 10
49.96743278890821
 20
25.23252234960443
 30
0.0
 41
1.0
 10
49.97370676283683
 20
25.23675000868628
 30
0.0
 41
1.0
 10
49.97814035184204
 20
25.2433580399347
 30
0.0
 41
1.0
 10
49.98035714634463
 20
25.2466620555589
 30
0.0
 41
1.0
  0
LINE
  5
379
330
1F
100
AcDbEntity
  8
0
  6
SLD-Solid
 62
     7
370
    25
100
AcDbLine
 10
48.51010790735119
 20
24.39092371745155
 30
0.0
 11
49.96429580194389
 21
25.23040852006351
 31
0.0
  0
ARC
  5
37A
330
1F
100
AcDbEntity
  8
0
  6
SLD-Solid
 62
     7
370
    25
100
AcDbCircle
 10
48.49308184540474
 20
24.4146197016716
 30
0.0
 40
0.0291785272685519
100
AcDbArc
 50
305.6980385288426
 51
5.620378963654688
  0
LINE
  5
37B
330
1F
100
AcDbEntity
  8
0
  6
SLD-Solid
 62
     7
370
    25
100
AcDbLine
 10
49.98035714634463
 20
25.2466620555589
 30
0.0
 11
49.98674254234364
 21
25.26298589390951
 31
0.0
  0
LINE
  5
37C
330
1F
100
AcDbEntity
  8
0
  6
SLD-Solid
 62
     7
370
    25
100
AcDbLine
 10
48.49560790735117
 20
24.41603845408758
 30
0.0
 11
48.51010790735119
 21
24.39092371745155
 31
0.0
  0
ARC
  5
37D
330
1F
100
AcDbEntity
  8
0
  6
SLD-Solid
 62
     7
370
    25
100
AcDbCircle
 10
48.49019904475262
 20
24.42514737690935
 30
0.0
 40
0.0105937844787904
100
AcDbArc
 50
300.7017672362706
 51
328.739984335105
  0
LINE
  5
37E
330
1F
100
AcDbEntity
  8
0
  6
SLD-Solid
 62
     7
370
    25
100
AcDbLine
 10
46.59695572013572
 20
25.34975047901688
 30
0.0
 11
48.25056819195603
 21
24.39514031848366
 31
0.0
  0
ARC
  5
37F
330
1F
100
AcDbEntity
  8
0
  6
SLD-Solid
 62
     7
370
    25
100
AcDbCircle
 10
46.61398178208213
 20
25.37344646323696
 30
0.0
 40
0.0291785272685522
100
AcDbArc
 50
174.3796210363384
 51
234.3019614712637
  0
ARC
  5
380
330
1F
100
AcDbEntity
  8
0
  6
SLD-Solid
 62
     7
370
    25
100
AcDbCircle
 10
48.26759425390257
 20
24.41883630270378
 30
0.0
 40
0.0291785272686584
100
AcDbArc
 50
174.3796210364991
 51
234.3019614711199
  0
ARC
  5
381
330
1F
100
AcDbEntity
  8
0
  6
SLD-Solid
 62
     7
370
    25
100
AcDbCircle
 10
48.27047705455465
 20
24.42936397794145
 30
0.0
 40
0.0105937844788292
100
AcDbArc
 50
211.2600156647242
 51
239.2982327634435
  0
LINE
  5
382
330
1F
100
AcDbEntity
  8
0
  6
SLD-Solid
 62
     7
370
    25
100
AcDbLine
 10
48.25056819195603
 20
24.39514031848366
 30
0.0
 11
48.26506819195603
 21
24.42025505511967
 31
0.0
  0
LINE
  5
383
330
1F
100
AcDbEntity
  8
0
  6
SLD-Solid
 62
     7
370
    25
100
AcDbLine
 10
48.50250083896012
 20
24.38653082275457
 30
0.0
 11
48.51010790735119
 21
24.39092371745155
 31
0.0
  0
LINE
  5
384
330
1F
100
AcDbEntity
  8
0
  6
SLD-Solid
 62
     7
370
    25
100
AcDbLine
 10
48.48800083896011
 20
24.41164555939059
 30
0.0
 11
48.50250083896012
 21
24.38653082275457
 31
0.0
  0
LINE
  5
385
330
1F
100
AcDbEntity
  8
0
  6
SLD-Solid
 62
     7
370
    25
100
AcDbLine
 10
48.48800083896011
 20
24.41164555939059
 30
0.0
 11
48.49560790735117
 21
24.41603845408758
 31
0.0
  0
LINE
  5
386
330
1F
100
AcDbEntity
  8
0
  6
SLD-Solid
 62
     7
370
    25
100
AcDbLine
 10
48.26506819195603
 20
24.42025505511967
 30
0.0
 11
48.27267526034711
 21
24.41586216042268
 31
0.0
  0
LINE
  5
387
330
1F
100
AcDbEntity
  8
0
  6
SLD-Solid
 62
     7
370
    25
100
AcDbLine
 10
48.27267526034711
 20
24.41586216042268
 30
0.0
 11
48.25817526034709
 21
24.39074742378663
 31
0.0
  0
LINE
  5
388
330
1F
100
AcDbEntity
  8
0
  6
SLD-Solid
 62
     7
370
    25
100
AcDbLine
 10
48.25056819195603
 20
24.39514031848366
 30
0.0
 11
48.25817526034709
 21
24.39074742378663
 31
0.0
  0
LINE
  5
389
330
1F
100
AcDbEntity
  8
0
  6
SLD-Solid
 62
     7
370
    25
100
AcDbLine
 10
49.96429580194389
 20
25.23040852006351
 30
0.0
 11
49.81082954730827
 21
25.14179653975586
 31
0.0
  0
LINE
  5
38A
330
1F
100
AcDbEntity
  8
0
  6
SLD-Solid
 62
     7
370
    25
100
AcDbLine
 10
49.81082954730827
 20
25.14179653975585
 30
0.0
 11
49.8008835804121
 21
25.13605374478724
 31
0.0
  0
LINE
  5
38B
330
1F
100
AcDbEntity
  8
0
  6
SLD-Solid
 62
     7
370
    25
100
AcDbLine
 10
49.8008835804121
 20
25.13605374478724
 30
0.0
 11
49.79075651112753
 21
25.13020642260413
 31
0.0
  0
LINE
  5
38C
330
1F
100
AcDbEntity
  8
0
  6
SLD-Solid
 62
     7
370
    25
100
AcDbLine
 10
49.79075651112753
 20
25.13020642260413
 30
0.0
 11
49.78032458904193
 21
25.1241831497012
 31
0.0
  0
LINE
  5
38D
330
1F
100
AcDbEntity
  8
0
  6
SLD-Solid
 62
     7
370
    25
100
AcDbLine
 10
49.78032458904193
 20
25.1241831497012
 30
0.0
 11
49.76964227038118
 21
25.11801536374152
 31
0.0
  0
LINE
  5
38E
330
1F
100
AcDbEntity
  8
0
  6
SLD-Solid
 62
     7
370
    25
100
AcDbLine
 10
49.76964227038118
 20
25.11801536374152
 30
0.0
 11
49.75878101549718
 21
25.11174431706922
 31
0.0
  0
LINE
  5
38F
330
1F
100
AcDbEntity
  8
0
  6
SLD-Solid
 62
     7
370
    25
100
AcDbLine
 10
49.75878101549718
 20
25.11174431706922
 30
0.0
 11
49.74776516592973
 21
25.10538406453058
 31
0.0
  0
LINE
  5
390
330
1F
100
AcDbEntity
  8
0
  6
SLD-Solid
 62
     7
370
    25
100
AcDbLine
 10
49.74776516592973
 20
25.10538406453058
 30
0.0
 11
49.73661624840577
 21
25.09894703603474
 31
0.0
  0
LINE
  5
391
330
1F
100
AcDbEntity
  8
0
  6
SLD-Solid
 62
     7
370
    25
100
AcDbLine
 10
49.73661624840577
 20
25.09894703603474
 30
0.0
 11
49.72536686622442
 21
25.09245205460044
 31
0.0
  0
LINE
  5
392
330
1F
100
AcDbEntity
  8
0
  6
SLD-Solid
 62
     7
370
    25
100
AcDbLine
 10
49.72536686622442
 20
25.09245205460044
 30
0.0
 11
49.71404930887844
 21
25.08591776193124
 31
0.0
  0
LINE
  5
393
330
1F
100
AcDbEntity
  8
0
  6
SLD-Solid
 62
     7
370
    25
100
AcDbLine
 10
49.71404930887844
 20
25.08591776193124
 30
0.0
 11
49.70269133340251
 21
25.07936018324468
 31
0.0
  0
LINE
  5
394
330
1F
100
AcDbEntity
  8
0
  6
SLD-Solid
 62
     7
370
    25
100
AcDbLine
 10
49.70269133340251
 20
25.07936018324468
 30
0.0
 11
49.6913199811062
 21
25.07279493044461
 31
0.0
  0
LINE
  5
395
330
1F
100
AcDbEntity
  8
0
  6
SLD-Solid
 62
     7
370
    25
100
AcDbLine
 10
49.6913199811062
 20
25.07279493044461
 30
0.0
 11
49.67996192381688
 21
25.06623740186867
 31
0.0
  0
LINE
  5
396
330
1F
100
AcDbEntity
  8
0
  6
SLD-Solid
 62
     7
370
    25
100
AcDbLine
 10
49.67996192381688
 20
25.06623740186867
 30
0.0
 11
49.66864314547471
 21
25.05970259866648
 31
0.0
  0
LINE
  5
397
330
1F
100
AcDbEntity
  8
0
  6
SLD-Solid
 62
     7
370
    25
100
AcDbLine
 10
49.66864314547471
 20
25.05970259866648
 30
0.0
 11
49.65738798139221
 21
25.05320457014504
 31
0.0
  0
LINE
  5
398
330
1F
100
AcDbEntity
  8
0
  6
SLD-Solid
 62
     7
370
    25
100
AcDbLine
 10
49.65738798139221
 20
25.05320457014504
 30
0.0
 11
49.64622081243313
 21
25.04675739176664
 31
0.0
  0
LINE
  5
399
330
1F
100
AcDbEntity
  8
0
  6
SLD-Solid
 62
     7
370
    25
100
AcDbLine
 10
49.64622081243313
 20
25.04675739176664
 30
0.0
 11
49.63516349084359
 21
25.04037367897837
 31
0.0
  0
LINE
  5
39A
330
1F
100
AcDbEntity
  8
0
  6
SLD-Solid
 62
     7
370
    25
100
AcDbLine
 10
49.63516349084359
 20
25.04037367897837
 30
0.0
 11
49.62423818267612
 21
25.03406622854251
 31
0.0
  0
LINE
  5
39B
330
1F
100
AcDbEntity
  8
0
  6
SLD-Solid
 62
     7
370
    25
100
AcDbLine
 10
49.62423818267612
 20
25.03406622854251
 30
0.0
 11
49.61346979080825
 21
25.02784941757071
 31
0.0
  0
LINE
  5
39C
330
1F
100
AcDbEntity
  8
0
  6
SLD-Solid
 62
     7
370
    25
100
AcDbLine
 10
49.61346979080825
 20
25.02784941757071
 30
0.0
 11
49.60287851011527
 21
25.02173490451889
 31
0.0
  0
LINE
  5
39D
330
1F
100
AcDbEntity
  8
0
  6
SLD-Solid
 62
     7
370
    25
100
AcDbLine
 10
49.60287851011527
 20
25.02173490451889
 30
0.0
 11
49.59247254989744
 21
25.0157274266678
 31
0.0
  0
LINE
  5
39E
330
1F
100
AcDbEntity
  8
0
  6
SLD-Solid
 62
     7
370
    25
100
AcDbLine
 10
49.59247254989744
 20
25.0157274266678
 30
0.0
 11
49.58227336048217
 21
25.00983936746607
 31
0.0
  0
LINE
  5
39F
330
1F
100
AcDbEntity
  8
0
  6
SLD-Solid
 62
     7
370
    25
100
AcDbLine
 10
49.58227336048217
 20
25.00983936746607
 30
0.0
 11
49.57234074204046
 21
25.00410525665202
 31
0.0
  0
LINE
  5
3A0
330
1F
100
AcDbEntity
  8
0
  6
SLD-Solid
 62
     7
370
    25
100
AcDbLine
 10
49.57234074204046
 20
25.00410525665202
 30
0.0
 11
49.56269674467434
 21
24.99853782417884
 31
0.0
  0
LINE
  5
3A1
330
1F
100
AcDbEntity
  8
0
  6
SLD-Solid
 62
     7
370
    25
100
AcDbLine
 10
49.56269674467434
 20
24.99853782417884
 30
0.0
 11
49.55321275686467
 21
24.99306279667284
 31
0.0
  0
LINE
  5
3A2
330
1F
100
AcDbEntity
  8
0
  6
SLD-Solid
 62
     7
370
    25
100
AcDbLine
 10
49.55321275686467
 20
24.99306279667284
 30
0.0
 11
48.59400718990336
 21
24.43932520950198
 31
0.0
  0
LWPOLYLINE
  5
3A3
330
1F
100
AcDbEntity
  8
0
  6
SLD-Solid
 62
     7
370
    25
100
AcDbPolyline
 90
        9
 70
   128
 43
0.0
 10
48.59400718990336
 20
24.43932520950198
 10
48.57383779150717
 20
24.4276818307047
 10
48.55573602692394
 20
24.41723240323538
 10
48.53995971784975
 20
24.40812575728683
 10
48.526733564741
 20
24.40049159794349
 10
48.51624594642735
 20
24.39443865780439
 10
48.50864623705013
 20
24.39005314831514
 10
48.50404267854081
 20
24.3873975318666
 10
48.5025008389415
 20
24.38650963214905
  0
LINE
  5
3A4
330
1F
100
AcDbEntity
  8
0
  6
SLD-Solid
 62
     7
370
    25
100
AcDbLine
 10
48.5025008389415
 20
24.38650963214905
 30
0.0
 11
48.50250083896012
 21
24.38653082275457
 31
0.0
  0
LINE
  5
3A5
330
1F
100
AcDbEntity
  8
0
  6
SLD-Solid
 62
     7
370
    25
100
AcDbLine
 10
48.5025008389415
 20
24.38650963214905
 30
0.0
 11
48.4880008389415
 21
24.41162436878509
 31
0.0
  0
LINE
  5
3A6
330
1F
100
AcDbEntity
  8
0
  6
SLD-Solid
 62
     7
370
    25
100
AcDbLine
 10
48.4880008389415
 20
24.41162436878509
 30
0.0
 11
48.48800083896011
 21
24.41164555939059
 31
0.0
  0
LINE
  5
3A7
330
1F
100
AcDbEntity
  8
0
  6
SLD-Solid
 62
     7
370
    25
100
AcDbLine
 10
48.25817526034709
 20
24.39074742378663
 30
0.0
 11
48.25817526036571
 21
24.39072623318117
 31
0.0
  0
LINE
  5
3A8
330
1F
100
AcDbEntity
  8
0
  6
SLD-Solid
 62
     7
370
    25
100
AcDbLine
 10
48.16666890938987
 20
24.44354181054216
 30
0.0
 11
48.25817526036571
 21
24.39072623318117
 31
0.0
  0
LINE
  5
3A9
330
1F
100
AcDbEntity
  8
0
  6
SLD-Solid
 62
     7
370
    25
100
AcDbLine
 10
48.16666890938987
 20
24.44354181054216
 30
0.0
 11
47.02756436989078
 21
25.10113286397579
 31
0.0
  0
LWPOLYLINE
  5
3AA
330
1F
100
AcDbEntity
  8
0
  6
SLD-Solid
 62
     7
370
    25
100
AcDbPolyline
 90
        9
 70
   128
 43
0.0
 10
46.83039558623776
 20
25.21496589462065
 10
46.85522704102203
 20
25.20062881556336
 10
46.88073271683885
 20
25.18590274101511
 10
46.90654933879478
 20
25.17099741304276
 10
46.93230920322039
 20
25.15612512680245
 10
46.95764541483828
 20
25.14149770684013
 10
46.98219711241737
 20
25.12732349009486
 10
47.00561460848473
 20
25.11380435857572
 10
47.02756436989078
 20
25.10113286397579
  0
LINE
  5
3AB
330
1F
100
AcDbEntity
  8
0
  6
SLD-Solid
 62
     7
370
    25
100
AcDbLine
 10
46.60456278852678
 20
25.34535758431987
 30
0.0
 11
46.83039558623776
 21
25.21496589462065
 31
0.0
  0
LINE
  5
3AC
330
1F
100
AcDbEntity
  8
0
  6
SLD-Solid
 62
     7
370
    25
100
AcDbLine
 10
46.59695572013572
 20
25.34975047901688
 30
0.0
 11
46.60456278852678
 21
25.34535758431987
 31
0.0
  0
LINE
  5
3AD
330
1F
100
AcDbEntity
  8
0
  6
SLD-Solid
 62
     7
370
    25
100
AcDbLine
 10
48.25817526036571
 20
24.39072623318117
 30
0.0
 11
48.2726752603657
 21
24.4158409698172
 31
0.0
  0
LINE
  5
3AE
330
1F
100
AcDbEntity
  8
0
  6
SLD-Solid
 62
     7
370
    25
100
AcDbLine
 10
48.27267526034711
 20
24.41586216042268
 30
0.0
 11
48.2726752603657
 21
24.4158409698172
 31
0.0
  0
LINE
  5
3AF
330
1F
100
AcDbEntity
  8
0
  6
SLD-Solid
 62
     8
370
    25
100
AcDbLine
 10
50.22852789318788
 20
40.03804445598979
 30
0.0
 11
50.21221565978906
 21
40.02862760409198
 31
0.0
  0
LINE
  5
3B0
330
1F
100
AcDbEntity
  8
0
  6
SLD-Solid
 62
     8
370
    25
100
AcDbLine
 10
48.42954017614129
 20
38.96000484073959
 30
0.0
 11
48.43536343659796
 21
38.95664314403367
 31
0.0
  0
LINE
  5
3B1
330
1F
100
AcDbEntity
  8
0
  6
SLD-Solid
 62
     8
370
    25
100
AcDbLine
 10
46.50012191080124
 20
39.98351936717698
 30
0.0
 11
46.48052158980717
 21
39.97220434271418
 31
0.0
  0
LINE
  5
3B2
330
1F
100
AcDbEntity
  8
0
  6
SLD-Solid
 62
     8
370
    25
100
AcDbLine
 10
46.59673565464441
 20
40.05358181912245
 30
0.0
 11
46.59673565464442
 21
40.06541973674386
 31
0.0
  0
LINE
  5
3B3
330
1F
100
AcDbEntity
  8
0
  6
SLD-Solid
 62
     8
370
    25
100
AcDbLine
 10
46.50102768646158
 20
40.00771809557844
 30
0.0
 11
46.50102768646158
 21
39.98724994999003
 31
0.0
  0
LWPOLYLINE
  5
3B4
330
1F
100
AcDbEntity
  8
0
  6
SLD-Solid
 62
     8
370
    25
100
AcDbPolyline
 90
       13
 70
   128
 43
0.0
 10
50.07727728371025
 20
37.93032636494522
 10
50.07856659915178
 20
37.93047820777853
 10
50.09467228136212
 20
37.92734886862314
 10
50.10543375416419
 20
37.9149630872735
 10
50.10921268087687
 20
37.8952064866627
 10
50.10543375416419
 20
37.8710868301397
 10
50.09467228136212
 20
37.8462761167649
 10
50.07856659915178
 20
37.82455155273993
 10
50.0595686516513
 20
37.80922050600395
 10
50.04057070415083
 20
37.8026169894462
 10
50.02446502194049
 20
37.80574632860159
 10
50.01370354913841
 20
37.81813210995123
 10
50.0129331547545
 20
37.81997212129328
  0
LWPOLYLINE
  5
3B5
330
1F
100
AcDbEntity
  8
0
  6
SLD-Solid
 62
     8
370
    25
100
AcDbPolyline
 90
        8
 70
   128
 43
0.0
 10
50.04896204993351
 20
37.82241501770582
 10
50.06561654957821
 20
37.83585493864523
 10
50.07973555262541
 20
37.85489971934198
 10
50.08916956885027
 20
37.87664996457637
 10
50.09248235480212
 20
37.89779439667791
 10
50.08916956885027
 20
37.91511396753391
 10
50.07973555262541
 20
37.92597192948383
 10
50.07048958990633
 20
37.92877488825836
  0
LWPOLYLINE
  5
3B6
330
1F
100
AcDbEntity
  8
0
  6
SLD-Solid
 62
     8
370
    25
100
AcDbPolyline
 90
        5
 70
   128
 43
0.0
 10
50.00830728171987
 20
37.83126672921885
 10
50.00875453101676
 20
37.83022735136818
 10
50.01818854724162
 20
37.81936938941826
 10
50.03230755028883
 20
37.8166260626536
 10
50.04896204993351
 20
37.82241501770582
  0
ARC
  5
3B7
330
1F
100
AcDbEntity
  8
0
  6
SLD-Solid
 62
     8
370
    25
100
AcDbCircle
 10
50.02366888288931
 20
37.889160714167
 30
0.0
 40
0.029826212303155
100
AcDbArc
 50
317.2428214434269
 51
26.54501858570033
  0
LINE
  5
3B8
330
1F
100
AcDbEntity
  8
0
  6
SLD-Solid
 62
     8
370
    25
100
AcDbLine
 10
48.50880568028491
 20
24.42516360675683
 30
0.0
 11
48.52212010065998
 21
24.41747735548074
 31
0.0
  0
LINE
  5
3B9
330
1F
100
AcDbEntity
  8
0
  6
SLD-Solid
 62
     8
370
    25
100
AcDbLine
 10
48.23855599864721
 20
24.42169395651286
 30
0.0
 11
48.2518704190223
 21
24.42938020778893
 31
0.0
  0
INSERT
  5
3BF
330
1F
100
AcDbEntity
  8
NOTES
100
AcDbBlockReference
  2
SW_NOTE_0_2
 10
47.02364303462625
 20
22.00796769766121
 30
0.0
  0
LINE
  5
3C0
330
1F
100
AcDbEntity
  8
0
  6
SLD-Solid
 62
     7
370
    25
100
AcDbLine
 10
35.73484558975544
 20
24.70062342611883
 30
0.0
 11
35.7308790166679
 21
24.70062342611883
 31
0.0
  0
LINE
  5
3C1
330
1F
100
AcDbEntity
  8
0
  6
SLD-Solid
 62
     7
370
    25
100
AcDbLine
 10
35.73087901666788
 20
24.57562342611883
 30
0.0
 11
35.73484558975544
 21
24.57562342611883
 31
0.0
  0
LINE
  5
3C2
330
1F
100
AcDbEntity
  8
0
  6
SLD-Solid
 62
     7
370
    25
100
AcDbLine
 10
38.41882346722213
 20
24.57562342611879
 30
0.0
 11
38.42279004030964
 21
24.57562342611879
 31
0.0
  0
LINE
  5
3C3
330
1F
100
AcDbEntity
  8
0
  6
SLD-Solid
 62
     7
370
    25
100
AcDbLine
 10
38.42279004030966
 20
24.70062342611879
 30
0.0
 11
38.41882346722213
 21
24.70062342611879
 31
0.0
  0
ARC
  5
3C4
330
1F
100
AcDbEntity
  8
0
  6
SLD-Solid
 62
     7
370
    25
100
AcDbCircle
 10
35.69937901666786
 20
24.51318330764227
 30
0.0
 40
0.0025000000000048
100
AcDbArc
 50
212.9862941627089
 51
359.9999999999194
  0
ARC
  5
3C5
330
1F
100
AcDbEntity
  8
0
  6
SLD-Solid
 62
     7
370
    25
100
AcDbCircle
 10
35.69937901666786
 20
24.76306354459537
 30
0.0
 40
0.0025000000000048
100
AcDbArc
 50
0.0000000001628444
 51
147.0137058372919
  0
ARC
  5
3C6
330
1F
100
AcDbEntity
  8
0
  6
SLD-Solid
 62
     7
370
    25
100
AcDbCircle
 10
35.89187071998209
 20
24.63812342611882
 30
0.0
 40
0.2319843982708893
100
AcDbArc
 50
147.0137058375589
 51
212.9862941624382
  0
ARC
  5
3C7
330
1F
100
AcDbEntity
  8
0
  6
SLD-Solid
 62
     7
370
    25
100
AcDbCircle
 10
38.45429004030967
 20
24.76306354459533
 30
0.0
 40
0.0025000000000005
100
AcDbArc
 50
32.9862941627764
 51
179.9999999998371
  0
ARC
  5
3C8
330
1F
100
AcDbEntity
  8
0
  6
SLD-Solid
 62
     7
370
    25
100
AcDbCircle
 10
38.45429004030967
 20
24.51318330764222
 30
0.0
 40
0.0025000000000048
100
AcDbArc
 50
180.0000000002451
 51
327.0137058371561
  0
ARC
  5
3C9
330
1F
100
AcDbEntity
  8
0
  6
SLD-Solid
 62
     7
370
    25
100
AcDbCircle
 10
38.26179833699543
 20
24.6381234261188
 30
0.0
 40
0.2319843982708893
100
AcDbArc
 50
327.0137058375597
 51
32.98629416243573
  0
ARC
  5
3CA
330
1F
100
AcDbEntity
  8
0
  6
SLD-Solid
 62
     7
370
    25
100
AcDbCircle
 10
35.73187901667374
 20
39.92831144765402
 30
0.0
 40
0.0010000000000048
100
AcDbArc
 50
180.0
 51
239.9999999999779
  0
ARC
  5
3CB
330
1F
100
AcDbEntity
  8
0
  6
SLD-Solid
 62
     7
370
    25
100
AcDbCircle
 10
35.73187901667374
 20
39.73593540458369
 30
0.0
 40
0.0009999999999979
100
AcDbArc
 50
120.0000000002265
 51
180.0
  0
ARC
  5
3CC
330
1F
100
AcDbEntity
  8
0
  6
SLD-Solid
 62
     7
370
    25
100
AcDbCircle
 10
38.42179004030412
 20
39.73593540458365
 30
0.0
 40
0.0010000000000005
100
AcDbArc
 50
0.0
 51
60.00000000032964
  0
ARC
  5
3CD
330
1F
100
AcDbEntity
  8
0
  6
SLD-Solid
 62
     7
370
    25
100
AcDbCircle
 10
38.42179004030412
 20
39.92831144765399
 30
0.0
 40
0.0009999999999979
100
AcDbArc
 50
300.0000000002273
 51
0.000000000407111
  0
LINE
  5
3CE
330
1F
100
AcDbEntity
  8
0
  6
SLD-Solid
 62
     7
370
    25
100
AcDbLine
 10
35.73137901667374
 20
39.73680142998744
 30
0.0
 11
35.73484558975559
 21
39.73880285688941
 31
0.0
  0
LINE
  5
3CF
330
1F
100
AcDbEntity
  8
0
  6
SLD-Solid
 62
     7
370
    25
100
AcDbLine
 10
35.73484558975559
 20
39.92544399534824
 30
0.0
 11
35.73137901667374
 21
39.92744542225022
 31
0.0
  0
LINE
  5
3D0
330
1F
100
AcDbEntity
  8
0
  6
SLD-Solid
 62
     7
370
    25
100
AcDbLine
 10
38.42229004030412
 20
39.92744542225021
 30
0.0
 11
38.41882346722228
 21
39.92544399534825
 31
0.0
  0
LINE
  5
3D1
330
1F
100
AcDbEntity
  8
0
  6
SLD-Solid
 62
     7
370
    25
100
AcDbLine
 10
38.41882346722228
 20
39.7388028568894
 30
0.0
 11
38.42229004030411
 21
39.73680142998744
 31
0.0
  0
LINE
  5
3D2
330
1F
100
AcDbEntity
  8
0
  6
SLD-Solid
 62
     7
370
    25
100
AcDbLine
 10
38.35983452849148
 20
24.4685910884635
 30
0.0
 11
38.35983452849148
 21
24.48888404289297
 31
0.0
  0
LINE
  5
3D3
330
1F
100
AcDbEntity
  8
0
  6
SLD-Solid
 62
     7
370
    25
100
AcDbLine
 10
38.33517244846707
 20
24.43938656820988
 30
0.0
 11
38.35983452849148
 21
24.4685910884635
 31
0.0
  0
LINE
  5
3D4
330
1F
100
AcDbEntity
  8
0
  6
SLD-Solid
 62
     7
370
    25
100
AcDbLine
 10
35.81849660847656
 20
24.43938656820994
 30
0.0
 11
38.33517244846707
 21
24.43938656820988
 31
0.0
  0
LINE
  5
3D5
330
1F
100
AcDbEntity
  8
0
  6
SLD-Solid
 62
     7
370
    25
100
AcDbLine
 10
35.7938345284521
 20
24.46859108846348
 30
0.0
 11
35.81849660847656
 21
24.43938656820994
 31
0.0
  0
LINE
  5
3D6
330
1F
100
AcDbEntity
  8
0
  6
SLD-Solid
 62
     7
370
    25
100
AcDbLine
 10
35.7938345284521
 20
24.48888404289296
 30
0.0
 11
35.7938345284521
 21
24.46859108846348
 31
0.0
  0
LINE
  5
3D7
330
1F
100
AcDbEntity
  8
0
  6
SLD-Solid
 62
     7
370
    25
100
AcDbLine
 10
35.7938345284521
 20
24.48888404289296
 30
0.0
 11
38.35983452849148
 21
24.48888404289297
 31
0.0
  0
LINE
  5
3D8
330
1F
100
AcDbEntity
  8
0
  6
SLD-Solid
 62
     7
370
    25
100
AcDbLine
 10
35.79383452845217
 20
24.51439858322511
 30
0.0
 11
35.76484558975544
 21
24.51439858322511
 31
0.0
  0
LINE
  5
3D9
330
1F
100
AcDbEntity
  8
0
  6
SLD-Solid
 62
     7
370
    25
100
AcDbLine
 10
35.76484558975555
 20
41.70712342609915
 30
0.0
 11
35.76484558975544
 21
24.51439858322511
 31
0.0
  0
LINE
  5
3DA
330
1F
100
AcDbEntity
  8
0
  6
SLD-Solid
 62
     7
370
    25
100
AcDbLine
 10
35.76484558975555
 20
41.70712342609915
 30
0.0
 11
35.79403452817669
 21
41.70712342609915
 31
0.0
  0
LINE
  5
3DB
330
1F
100
AcDbEntity
  8
0
  6
SLD-Solid
 62
     7
370
    25
100
AcDbLine
 10
35.79403452817669
 20
41.70712342609915
 30
0.0
 11
35.79403452817669
 21
41.70732342609915
 31
0.0
  0
LINE
  5
3DC
330
1F
100
AcDbEntity
  8
0
  6
SLD-Solid
 62
     7
370
    25
100
AcDbLine
 10
35.79403452817669
 20
41.70732342609915
 30
0.0
 11
35.8568345281767
 21
41.70732342609914
 31
0.0
  0
LINE
  5
3DD
330
1F
100
AcDbEntity
  8
0
  6
SLD-Solid
 62
     7
370
    25
100
AcDbLine
 10
35.8568345281767
 20
41.70732342609914
 30
0.0
 11
35.85683452817677
 21
42.23212342609914
 31
0.0
  0
ARC
  5
3DE
330
1F
100
AcDbEntity
  8
0
  6
SLD-Solid
 62
     7
370
    25
100
AcDbCircle
 10
35.98183452817676
 20
42.23212342609914
 30
0.0
 40
0.1249999999999929
100
AcDbArc
 50
90.00000000002932
 51
179.999999999997
  0
LINE
  5
3DF
330
1F
100
AcDbEntity
  8
0
  6
SLD-Solid
 62
     7
370
    25
100
AcDbLine
 10
35.9818345281767
 20
42.35712342609914
 30
0.0
 11
38.17183452817669
 21
42.35712342609911
 31
0.0
  0
ARC
  5
3E0
330
1F
100
AcDbEntity
  8
0
  6
SLD-Solid
 62
     7
370
    25
100
AcDbCircle
 10
38.17183452817675
 20
42.23212342609911
 30
0.0
 40
0.125
100
AcDbArc
 50
359.9999999999964
 51
90.00000000002932
  0
LINE
  5
3E1
330
1F
100
AcDbEntity
  8
0
  6
SLD-Solid
 62
     7
370
    25
100
AcDbLine
 10
38.29683452817675
 20
42.23212342609911
 30
0.0
 11
38.29683452817669
 21
41.70732342609913
 31
0.0
  0
LINE
  5
3E2
330
1F
100
AcDbEntity
  8
0
  6
SLD-Solid
 62
     7
370
    25
100
AcDbLine
 10
38.29683452817669
 20
41.70732342609913
 30
0.0
 11
38.35963452920031
 21
41.70732342609912
 31
0.0
  0
LINE
  5
3E3
330
1F
100
AcDbEntity
  8
0
  6
SLD-Solid
 62
     7
370
    25
100
AcDbLine
 10
38.35963452920031
 20
41.70732342609912
 30
0.0
 11
38.35963452920031
 21
41.70712342609913
 31
0.0
  0
LINE
  5
3E4
330
1F
100
AcDbEntity
  8
0
  6
SLD-Solid
 62
     7
370
    25
100
AcDbLine
 10
38.35963452920031
 20
41.70712342609913
 30
0.0
 11
38.38882346722224
 21
41.70712342609913
 31
0.0
  0
LINE
  5
3E5
330
1F
100
AcDbEntity
  8
0
  6
SLD-Solid
 62
     7
370
    25
100
AcDbLine
 10
38.38882346722224
 20
41.70712342609913
 30
0.0
 11
38.38882346722213
 21
24.51439858322513
 31
0.0
  0
LINE
  5
3E6
330
1F
100
AcDbEntity
  8
0
  6
SLD-Solid
 62
     7
370
    25
100
AcDbLine
 10
38.38882346722213
 20
24.51439858322513
 30
0.0
 11
38.35983452849154
 21
24.51439858322513
 31
0.0
  0
LINE
  5
3E7
330
1F
100
AcDbEntity
  8
0
  6
SLD-Solid
 62
     7
370
    25
100
AcDbLine
 10
38.35983452849154
 20
24.51439858322513
 30
0.0
 11
38.35983452849148
 21
24.48888404289297
 31
0.0
  0
LINE
  5
3E8
330
1F
100
AcDbEntity
  8
0
  6
SLD-Solid
 62
     7
370
    25
100
AcDbLine
 10
35.7938345284521
 20
24.48888404289296
 30
0.0
 11
35.79383452845217
 21
24.51439858322511
 31
0.0
  0
CIRCLE
  5
3E9
330
1F
100
AcDbEntity
  8
0
  6
SLD-Solid
 62
     7
370
    25
100
AcDbCircle
 10
36.20183452847188
 20
26.85712342611884
 30
0.0
 40
0.0934999999999988
  0
CIRCLE
  5
3EA
330
1F
100
AcDbEntity
  8
0
  6
SLD-Solid
 62
     7
370
    25
100
AcDbCircle
 10
36.20183452847195
 20
39.60712342611885
 30
0.0
 40
0.0934999999999988
  0
CIRCLE
  5
3EB
330
1F
100
AcDbEntity
  8
0
  6
SLD-Solid
 62
     7
370
    25
100
AcDbCircle
 10
37.95183452847195
 20
39.60712342611883
 30
0.0
 40
0.0934999999999988
  0
CIRCLE
  5
3EC
330
1F
100
AcDbEntity
  8
0
  6
SLD-Solid
 62
     7
370
    25
100
AcDbCircle
 10
37.95183452847188
 20
26.85712342611882
 30
0.0
 40
0.0934999999999988
  0
LINE
  5
3ED
330
1F
100
AcDbEntity
  8
0
  6
SLD-Solid
 62
     7
370
    25
100
AcDbLine
 10
35.73484558975544
 20
24.51439858322514
 30
0.0
 11
35.76484558975544
 21
24.51439858322511
 31
0.0
  0
LINE
  5
3EE
330
1F
100
AcDbEntity
  8
0
  6
SLD-Solid
 62
     7
370
    25
100
AcDbLine
 10
35.73484558975561
 20
41.70712342609915
 30
0.0
 11
35.73484558975544
 21
24.51439858322514
 31
0.0
  0
LINE
  5
3EF
330
1F
100
AcDbEntity
  8
0
  6
SLD-Solid
 62
     7
370
    25
100
AcDbLine
 10
35.73484558975561
 20
41.70712342609915
 30
0.0
 11
35.76484558975555
 21
41.70712342609915
 31
0.0
  0
LINE
  5
3F0
330
1F
100
AcDbEntity
  8
0
  6
SLD-Solid
 62
     7
370
    25
100
AcDbLine
 10
38.4188234672223
 20
41.70712342609913
 30
0.0
 11
38.38882346722224
 21
41.70712342609913
 31
0.0
  0
LINE
  5
3F1
330
1F
100
AcDbEntity
  8
0
  6
SLD-Solid
 62
     7
370
    25
100
AcDbLine
 10
38.4188234672223
 20
41.70712342609913
 30
0.0
 11
38.41882346722213
 21
24.51439858322509
 31
0.0
  0
LINE
  5
3F2
330
1F
100
AcDbEntity
  8
0
  6
SLD-Solid
 62
     7
370
    25
100
AcDbLine
 10
38.41882346722213
 20
24.51439858322509
 30
0.0
 11
38.38882346722213
 21
24.51439858322513
 31
0.0
  0
LINE
  5
3F3
330
1F
100
AcDbEntity
  8
0
  6
SLD-Solid
 62
     7
370
    25
100
AcDbLine
 10
38.33517244846707
 20
24.43938656820988
 30
0.0
 11
37.91533299032223
 21
24.14251524034599
 31
0.0
  0
ARC
  5
3F4
330
1F
100
AcDbEntity
  8
0
  6
SLD-Solid
 62
     7
370
    25
100
AcDbCircle
 10
37.74395764815866
 20
24.3999622149481
 30
0.0
 40
0.3092708402573136
100
AcDbArc
 50
268.9992898335978
 51
303.6506100292149
  0
LINE
  5
3F5
330
1F
100
AcDbEntity
  8
0
  6
SLD-Solid
 62
     7
370
    25
100
AcDbLine
 10
37.73855629500728
 20
24.09073854506238
 30
0.0
 11
36.41511276197026
 21
24.09073854506235
 31
0.0
  0
ARC
  5
3F6
330
1F
100
AcDbEntity
  8
0
  6
SLD-Solid
 62
     7
370
    25
100
AcDbCircle
 10
36.40971140878901
 20
24.39996221495787
 30
0.0
 40
0.3092708402676165
100
AcDbArc
 50
236.349389971167
 51
271.000710171904
  0
LINE
  5
3F7
330
1F
100
AcDbEntity
  8
0
  6
SLD-Solid
 62
     7
370
    25
100
AcDbLine
 10
36.23833606662144
 20
24.14251524034604
 30
0.0
 11
35.81849660847656
 21
24.43938656820994
 31
0.0
  0
LINE
  5
3F8
330
1F
100
AcDbEntity
  8
0
  6
SLD-Solid
 62
     7
370
    25
100
AcDbLine
 10
35.73484558975544
 20
24.48212342609919
 30
0.0
 11
35.76484558975543
 21
24.48212342609915
 31
0.0
  0
LINE
  5
3F9
330
1F
100
AcDbEntity
  8
0
  6
SLD-Solid
 62
     7
370
    25
100
AcDbLine
 10
35.76484558975544
 20
24.51439858322514
 30
0.0
 11
35.76484558975543
 21
24.48212342609915
 31
0.0
  0
LINE
  5
3FA
330
1F
100
AcDbEntity
  8
0
  6
SLD-Solid
 62
     7
370
    25
100
AcDbLine
 10
35.73484558975544
 20
24.51439858322517
 30
0.0
 11
35.73484558975544
 21
24.48212342609919
 31
0.0
  0
LINE
  5
3FB
330
1F
100
AcDbEntity
  8
0
  6
SLD-Solid
 62
     7
370
    25
100
AcDbLine
 10
38.41882346722213
 20
24.48212342609913
 30
0.0
 11
38.38882346722212
 21
24.48212342609917
 31
0.0
  0
LINE
  5
3FC
330
1F
100
AcDbEntity
  8
0
  6
SLD-Solid
 62
     7
370
    25
100
AcDbLine
 10
38.41882346722213
 20
24.48212342609913
 30
0.0
 11
38.41882346722213
 21
24.51439858322512
 31
0.0
  0
LINE
  5
3FD
330
1F
100
AcDbEntity
  8
0
  6
SLD-Solid
 62
     7
370
    25
100
AcDbLine
 10
38.38882346722212
 20
24.48212342609917
 30
0.0
 11
38.38882346722213
 21
24.51439858322516
 31
0.0
  0
LINE
  5
3FE
330
1F
100
AcDbEntity
  8
0
  6
SLD-Solid
 62
     7
370
    25
100
AcDbLine
 10
35.7018790166679
 20
24.4821234362753
 30
0.0
 11
35.73087901666789
 21
24.48212343627531
 31
0.0
  0
LINE
  5
3FF
330
1F
100
AcDbEntity
  8
0
  6
SLD-Solid
 62
     7
370
    25
100
AcDbLine
 10
35.7018790166679
 20
24.6071234362753
 30
0.0
 11
35.7308790166679
 21
24.60712343627531
 31
0.0
  0
LINE
  5
400
330
1F
100
AcDbEntity
  8
0
  6
SLD-Solid
 62
     7
370
    25
100
AcDbLine
 10
35.7308790166679
 20
24.60712343627531
 30
0.0
 11
35.73087901666789
 21
24.48212343627531
 31
0.0
  0
LINE
  5
401
330
1F
100
AcDbEntity
  8
0
  6
SLD-Solid
 62
     7
370
    25
100
AcDbLine
 10
35.7018790166679
 20
24.6071234362753
 30
0.0
 11
35.7018790166679
 21
24.4821234362753
 31
0.0
  0
LINE
  5
402
330
1F
100
AcDbEntity
  8
0
  6
SLD-Solid
 62
     7
370
    25
100
AcDbLine
 10
35.70187901666809
 20
42.30144218528719
 30
0.0
 11
35.73087901666808
 21
42.3014421852872
 31
0.0
  0
LINE
  5
403
330
1F
100
AcDbEntity
  8
0
  6
SLD-Solid
 62
     7
370
    25
100
AcDbLine
 10
35.73087901666808
 20
42.3014421852872
 30
0.0
 11
35.7308790166679
 21
24.60712343627531
 31
0.0
  0
LINE
  5
404
330
1F
100
AcDbEntity
  8
0
  6
SLD-Solid
 62
     7
370
    25
100
AcDbLine
 10
35.70187901666809
 20
42.30144218528719
 30
0.0
 11
35.7018790166679
 21
24.6071234362753
 31
0.0
  0
LINE
  5
405
330
1F
100
AcDbEntity
  8
0
  6
SLD-Solid
 62
     7
370
    25
100
AcDbLine
 10
38.45179004030983
 20
42.30144218528722
 30
0.0
 11
38.42279004030983
 21
42.30144218528722
 31
0.0
  0
LINE
  5
406
330
1F
100
AcDbEntity
  8
0
  6
SLD-Solid
 62
     7
370
    25
100
AcDbLine
 10
38.45179004030965
 20
24.60712343627529
 30
0.0
 11
38.42279004030966
 21
24.60712343627526
 31
0.0
  0
LINE
  5
407
330
1F
100
AcDbEntity
  8
0
  6
SLD-Solid
 62
     7
370
    25
100
AcDbLine
 10
38.42279004030983
 20
42.30144218528722
 30
0.0
 11
38.42279004030966
 21
24.60712343627526
 31
0.0
  0
LINE
  5
408
330
1F
100
AcDbEntity
  8
0
  6
SLD-Solid
 62
     7
370
    25
100
AcDbLine
 10
38.45179004030983
 20
42.30144218528722
 30
0.0
 11
38.45179004030965
 21
24.60712343627529
 31
0.0
  0
LINE
  5
409
330
1F
100
AcDbEntity
  8
0
  6
SLD-Solid
 62
     7
370
    25
100
AcDbLine
 10
38.45179004030965
 20
24.48212343627528
 30
0.0
 11
38.42279004030965
 21
24.48212343627527
 31
0.0
  0
LINE
  5
40A
330
1F
100
AcDbEntity
  8
0
  6
SLD-Solid
 62
     7
370
    25
100
AcDbLine
 10
38.42279004030966
 20
24.60712343627526
 30
0.0
 11
38.42279004030965
 21
24.48212343627527
 31
0.0
  0
LINE
  5
40B
330
1F
100
AcDbEntity
  8
0
  6
SLD-Solid
 62
     7
370
    25
100
AcDbLine
 10
38.45179004030965
 20
24.60712343627529
 30
0.0
 11
38.45179004030965
 21
24.48212343627528
 31
0.0
  0
LINE
  5
40C
330
1F
100
AcDbEntity
  8
0
  6
SLD-Solid
 62
     7
370
    25
100
AcDbLine
 10
35.73734602274916
 20
41.9382149386741
 30
0.0
 11
35.76634602274915
 21
41.9382149386741
 31
0.0
  0
LINE
  5
40D
330
1F
100
AcDbEntity
  8
0
  6
SLD-Solid
 62
     7
370
    25
100
AcDbLine
 10
35.76634602274915
 20
41.9382149386741
 30
0.0
 11
35.76634602274917
 21
41.83821493867411
 31
0.0
  0
LINE
  5
40E
330
1F
100
AcDbEntity
  8
0
  6
SLD-Solid
 62
     7
370
    25
100
AcDbLine
 10
35.76634602274917
 20
41.83821493867411
 30
0.0
 11
35.73734602274916
 21
41.83821493867412
 31
0.0
  0
LINE
  5
40F
330
1F
100
AcDbEntity
  8
0
  6
SLD-Solid
 62
     7
370
    25
100
AcDbLine
 10
35.73734602274916
 20
41.83821493867412
 30
0.0
 11
35.73734602274916
 21
41.9382149386741
 31
0.0
  0
LINE
  5
410
330
1F
100
AcDbEntity
  8
0
  6
SLD-Solid
 62
     7
370
    25
100
AcDbLine
 10
35.76634602274918
 20
42.27421493867411
 30
0.0
 11
35.73734602274919
 21
42.27421493867411
 31
0.0
  0
LINE
  5
411
330
1F
100
AcDbEntity
  8
0
  6
SLD-Solid
 62
     7
370
    25
100
AcDbLine
 10
35.76634602274915
 20
41.9382149386741
 30
0.0
 11
35.76634602274918
 21
42.27421493867411
 31
0.0
  0
LINE
  5
412
330
1F
100
AcDbEntity
  8
0
  6
SLD-Solid
 62
     7
370
    25
100
AcDbLine
 10
35.73734602274916
 20
41.9382149386741
 30
0.0
 11
35.73734602274919
 21
42.27421493867411
 31
0.0
  0
ARC
  5
413
330
1F
100
AcDbEntity
  8
0
  6
SLD-Solid
 62
     7
370
    25
100
AcDbCircle
 10
35.79534602274919
 20
42.2742149386741
 30
0.0
 40
0.058000000000014
100
AcDbArc
 50
90.00000000001404
 51
179.9999999999686
  0
LINE
  5
414
330
1F
100
AcDbEntity
  8
0
  6
SLD-Solid
 62
     7
370
    25
100
AcDbLine
 10
35.79534602274917
 20
42.3032149386741
 30
0.0
 11
35.79534602274917
 21
42.33221493867411
 31
0.0
  0
ARC
  5
415
330
1F
100
AcDbEntity
  8
0
  6
SLD-Solid
 62
     7
370
    25
100
AcDbCircle
 10
35.79534602274919
 20
42.2742149386741
 30
0.0
 40
0.0290000000000035
100
AcDbArc
 50
90.00000000002808
 51
179.9999999999715
  0
LINE
  5
416
330
1F
100
AcDbEntity
  8
0
  6
SLD-Solid
 62
     7
370
    25
100
AcDbLine
 10
38.35832303422873
 20
42.33221493867415
 30
0.0
 11
38.24671235607293
 21
42.33221493867409
 31
0.0
  0
LINE
  5
417
330
1F
100
AcDbEntity
  8
0
  6
SLD-Solid
 62
     7
370
    25
100
AcDbLine
 10
35.9069567002806
 20
42.33221493867411
 30
0.0
 11
35.79534602274917
 21
42.33221493867411
 31
0.0
  0
LINE
  5
418
330
1F
100
AcDbEntity
  8
0
  6
SLD-Solid
 62
     7
370
    25
100
AcDbLine
 10
38.35832303422873
 20
42.30321493867417
 30
0.0
 11
38.35832303422873
 21
42.33221493867415
 31
0.0
  0
LINE
  5
419
330
1F
100
AcDbEntity
  8
0
  6
SLD-Solid
 62
     7
370
    25
100
AcDbLine
 10
38.35832303422873
 20
42.30321493867417
 30
0.0
 11
38.2746498813094
 21
42.30321493867412
 31
0.0
  0
LINE
  5
41A
330
1F
100
AcDbEntity
  8
0
  6
SLD-Solid
 62
     7
370
    25
100
AcDbLine
 10
35.87901917504412
 20
42.30321493867414
 30
0.0
 11
35.79534602274917
 21
42.3032149386741
 31
0.0
  0
LINE
  5
41B
330
1F
100
AcDbEntity
  8
0
  6
SLD-Solid
 62
     7
370
    25
100
AcDbLine
 10
38.38732303422873
 20
41.83821493867409
 30
0.0
 11
38.41632303422872
 21
41.83821493867408
 31
0.0
  0
LINE
  5
41C
330
1F
100
AcDbEntity
  8
0
  6
SLD-Solid
 62
     7
370
    25
100
AcDbLine
 10
38.38732303422872
 20
41.93821493867414
 30
0.0
 11
38.38732303422873
 21
41.83821493867409
 31
0.0
  0
LINE
  5
41D
330
1F
100
AcDbEntity
  8
0
  6
SLD-Solid
 62
     7
370
    25
100
AcDbLine
 10
38.41632303422872
 20
41.93821493867414
 30
0.0
 11
38.38732303422872
 21
41.93821493867414
 31
0.0
  0
LINE
  5
41E
330
1F
100
AcDbEntity
  8
0
  6
SLD-Solid
 62
     7
370
    25
100
AcDbLine
 10
38.41632303422872
 20
41.83821493867408
 30
0.0
 11
38.41632303422872
 21
41.93821493867414
 31
0.0
  0
LINE
  5
41F
330
1F
100
AcDbEntity
  8
0
  6
SLD-Solid
 62
     7
370
    25
100
AcDbLine
 10
38.38732303422872
 20
41.93821493867414
 30
0.0
 11
38.38732303422874
 21
42.27421493867415
 31
0.0
  0
LINE
  5
420
330
1F
100
AcDbEntity
  8
0
  6
SLD-Solid
 62
     7
370
    25
100
AcDbLine
 10
38.38732303422874
 20
42.27421493867415
 30
0.0
 11
38.41632303422875
 21
42.27421493867413
 31
0.0
  0
LINE
  5
421
330
1F
100
AcDbEntity
  8
0
  6
SLD-Solid
 62
     7
370
    25
100
AcDbLine
 10
38.41632303422872
 20
41.93821493867414
 30
0.0
 11
38.41632303422875
 21
42.27421493867413
 31
0.0
  0
ARC
  5
422
330
1F
100
AcDbEntity
  8
0
  6
SLD-Solid
 62
     7
370
    25
100
AcDbCircle
 10
38.35832303422875
 20
42.27421493867413
 30
0.0
 40
0.029000000000039
100
AcDbArc
 50
0.0000000000333439
 51
90.00000000004212
  0
ARC
  5
423
330
1F
100
AcDbEntity
  8
0
  6
SLD-Solid
 62
     7
370
    25
100
AcDbCircle
 10
38.35832303422875
 20
42.27421493867413
 30
0.0
 40
0.058000000000014
100
AcDbArc
 50
0.0000000000140383
 51
90.00000000002106
  0
LINE
  5
424
330
1F
100
AcDbEntity
  8
0
  6
SLD-Solid
 62
     7
370
    25
100
AcDbLine
 10
38.35832303422868
 20
41.80921493867405
 30
0.0
 11
38.35832303422868
 21
41.7802149386741
 31
0.0
  0
LINE
  5
425
330
1F
100
AcDbEntity
  8
0
  6
SLD-Solid
 62
     7
370
    25
100
AcDbLine
 10
38.35832303422868
 20
41.80921493867405
 30
0.0
 11
38.2968345281767
 21
41.80921493867405
 31
0.0
  0
LINE
  5
426
330
1F
100
AcDbEntity
  8
0
  6
SLD-Solid
 62
     7
370
    25
100
AcDbLine
 10
38.35832303422868
 20
41.7802149386741
 30
0.0
 11
38.2968345281767
 21
41.78021493867409
 31
0.0
  0
ARC
  5
427
330
1F
100
AcDbEntity
  8
0
  6
SLD-Solid
 62
     7
370
    25
100
AcDbCircle
 10
38.35832303422873
 20
41.83821493867409
 30
0.0
 40
0.0580000000000069
100
AcDbArc
 50
269.9999999999587
 51
359.9999999999794
  0
ARC
  5
428
330
1F
100
AcDbEntity
  8
0
  6
SLD-Solid
 62
     7
370
    25
100
AcDbCircle
 10
38.35832303422873
 20
41.83821493867409
 30
0.0
 40
0.0290000000000461
100
AcDbArc
 50
269.9999999999166
 51
359.999999999981
  0
LINE
  5
429
330
1F
100
AcDbEntity
  8
0
  6
SLD-Solid
 62
     7
370
    25
100
AcDbLine
 10
35.73087901666788
 20
24.46329705231318
 30
0.0
 11
35.70187901666789
 21
24.46329705231316
 31
0.0
  0
LINE
  5
42A
330
1F
100
AcDbEntity
  8
0
  6
SLD-Solid
 62
     7
370
    25
100
AcDbLine
 10
35.73087901666789
 20
24.48212343627531
 30
0.0
 11
35.73087901666788
 21
24.46329705231318
 31
0.0
  0
LINE
  5
42B
330
1F
100
AcDbEntity
  8
0
  6
SLD-Solid
 62
     7
370
    25
100
AcDbLine
 10
35.7018790166679
 20
24.48212343627529
 30
0.0
 11
35.70187901666789
 21
24.46329705231316
 31
0.0
  0
LINE
  5
42C
330
1F
100
AcDbEntity
  8
0
  6
SLD-Solid
 62
     7
370
    25
100
AcDbLine
 10
38.45179004030965
 20
24.46329705231315
 30
0.0
 11
38.42279004030964
 21
24.46329705231313
 31
0.0
  0
LINE
  5
42D
330
1F
100
AcDbEntity
  8
0
  6
SLD-Solid
 62
     7
370
    25
100
AcDbLine
 10
38.42279004030964
 20
24.48212343627526
 30
0.0
 11
38.42279004030964
 21
24.46329705231313
 31
0.0
  0
LINE
  5
42E
330
1F
100
AcDbEntity
  8
0
  6
SLD-Solid
 62
     7
370
    25
100
AcDbLine
 10
38.45179004030965
 20
24.48212343627528
 30
0.0
 11
38.45179004030965
 21
24.46329705231315
 31
0.0
  0
LINE
  5
42F
330
1F
100
AcDbEntity
  8
0
  6
SLD-Solid
 62
     7
370
    25
100
AcDbLine
 10
35.73239533908349
 20
24.45404246067239
 30
0.0
 11
35.73087901666788
 21
24.46329705231318
 31
0.0
  0
LINE
  5
430
330
1F
100
AcDbEntity
  8
0
  6
SLD-Solid
 62
     7
370
    25
100
AcDbLine
 10
35.73239533908349
 20
24.45404246067239
 30
0.0
 11
35.7049116614991
 21
24.44478786903162
 31
0.0
  0
LINE
  5
431
330
1F
100
AcDbEntity
  8
0
  6
SLD-Solid
 62
     7
370
    25
100
AcDbLine
 10
35.7049116614991
 20
24.44478786903162
 30
0.0
 11
35.70187901666789
 21
24.46329705231316
 31
0.0
  0
LINE
  5
432
330
1F
100
AcDbEntity
  8
0
  6
SLD-Solid
 62
     7
370
    25
100
AcDbLine
 10
38.45179004030965
 20
24.46329705231315
 30
0.0
 11
38.44875739547841
 21
24.4447878690316
 31
0.0
  0
LINE
  5
433
330
1F
100
AcDbEntity
  8
0
  6
SLD-Solid
 62
     7
370
    25
100
AcDbLine
 10
38.42127371789402
 20
24.45404246067235
 30
0.0
 11
38.44875739547841
 21
24.4447878690316
 31
0.0
  0
LINE
  5
434
330
1F
100
AcDbEntity
  8
0
  6
SLD-Solid
 62
     7
370
    25
100
AcDbLine
 10
38.42279004030965
 20
24.46329705231313
 30
0.0
 11
38.42127371789402
 21
24.45404246067235
 31
0.0
  0
LINE
  5
435
330
1F
100
AcDbEntity
  8
0
  6
SLD-Solid
 62
     7
370
    25
100
AcDbLine
 10
35.73937292001347
 20
24.44279095565875
 30
0.0
 11
35.71886682335906
 21
24.42228485900434
 31
0.0
  0
LINE
  5
436
330
1F
100
AcDbEntity
  8
0
  6
SLD-Solid
 62
     7
370
    25
100
AcDbLine
 10
35.73937292001347
 20
24.44279095565874
 30
0.0
 11
35.73239533908349
 21
24.45404246067239
 31
0.0
  0
SPLINE
  5
437
330
1F
100
AcDbEntity
  8
0
  6
SLD-Solid
 62
     7
370
    25
100
AcDbSpline
210
0.0
220
0.0
230
1.0
 70
    12
 71
     3
 72
     9
 73
     5
 74
     0
 42
0.00000001
 43
0.00000001
 40
0.0
 40
0.0
 40
0.0
 40
0.0
 40
0.5000000000005738
 40
1.0
 40
1.0
 40
1.0
 40
1.0
 10
35.71886682335906
 20
24.42228485900433
 30
0.0
 41
1.0
 10
35.71589028871939
 20
24.42563184729766
 30
0.0
 41
1.0
 10
35.70993721944004
 20
24.43232582388431
 30
0.0
 41
1.0
 10
35.70658684747941
 20
24.44063385398252
 30
0.0
 41
1.0
 10
35.7049116614991
 20
24.44478786903162
 30
0.0
 41
1.0
  0
LINE
  5
438
330
1F
100
AcDbEntity
  8
0
  6
SLD-Solid
 62
     7
370
    25
100
AcDbLine
 10
38.43480223361846
 20
24.42228485900433
 30
0.0
 11
38.41429613696404
 21
24.44279095565872
 31
0.0
  0
SPLINE
  5
439
330
1F
100
AcDbEntity
  8
0
  6
SLD-Solid
 62
     7
370
    25
100
AcDbSpline
210
0.0
220
0.0
230
1.0
 70
    12
 71
     3
 72
     9
 73
     5
 74
     0
 42
0.00000001
 43
0.00000001
 40
0.0
 40
0.0
 40
0.0
 40
0.0
 40
0.5000000000006654
 40
1.0
 40
1.0
 40
1.0
 40
1.0
 10
38.44875739547841
 20
24.4447878690316
 30
0.0
 41
1.0
 10
38.44708220949811
 20
24.44063385398249
 30
0.0
 41
1.0
 10
38.44373183753752
 20
24.43232582388427
 30
0.0
 41
1.0
 10
38.43777876825815
 20
24.42563184729763
 30
0.0
 41
1.0
 10
38.43480223361846
 20
24.42228485900433
 30
0.0
 41
1.0
  0
LINE
  5
43A
330
1F
100
AcDbEntity
  8
0
  6
SLD-Solid
 62
     7
370
    25
100
AcDbLine
 10
38.42127371789402
 20
24.45404246067235
 30
0.0
 11
38.41429613696404
 21
24.44279095565872
 31
0.0
  0
LINE
  5
43B
330
1F
100
AcDbEntity
  8
0
  6
SLD-Solid
 62
     7
370
    25
100
AcDbLine
 10
35.85298346446552
 20
24.28816821789789
 30
0.0
 11
35.87348956111993
 21
24.3086743145523
 31
0.0
  0
LINE
  5
43C
330
1F
100
AcDbEntity
  8
0
  6
SLD-Solid
 62
     7
370
    25
100
AcDbLine
 10
35.71886682335906
 20
24.42228485900434
 30
0.0
 11
35.85298346446552
 21
24.2881682178979
 31
0.0
  0
LINE
  5
43D
330
1F
100
AcDbEntity
  8
0
  6
SLD-Solid
 62
     7
370
    25
100
AcDbLine
 10
35.73937292001347
 20
24.44279095565875
 30
0.0
 11
35.87348956111993
 21
24.3086743145523
 31
0.0
  0
LINE
  5
43E
330
1F
100
AcDbEntity
  8
0
  6
SLD-Solid
 62
     7
370
    25
100
AcDbLine
 10
38.30068559251201
 20
24.28816821789786
 30
0.0
 11
38.2801794958576
 21
24.30867431455228
 31
0.0
  0
LINE
  5
43F
330
1F
100
AcDbEntity
  8
0
  6
SLD-Solid
 62
     7
370
    25
100
AcDbLine
 10
38.43480223361846
 20
24.42228485900433
 30
0.0
 11
38.30068559251201
 21
24.28816821789786
 31
0.0
  0
LINE
  5
440
330
1F
100
AcDbEntity
  8
0
  6
SLD-Solid
 62
     7
370
    25
100
AcDbLine
 10
38.41429613696404
 20
24.44279095565872
 30
0.0
 11
38.2801794958576
 21
24.30867431455228
 31
0.0
  0
LINE
  5
441
330
1F
100
AcDbEntity
  8
0
  6
SLD-Solid
 62
     7
370
    25
100
AcDbLine
 10
35.86135192035631
 20
24.27979976200708
 30
0.0
 11
35.88185801701074
 21
24.30030585866149
 31
0.0
  0
LINE
  5
442
330
1F
100
AcDbEntity
  8
0
  6
SLD-Solid
 62
     7
370
    25
100
AcDbLine
 10
35.87348956111993
 20
24.3086743145523
 30
0.0
 11
35.88185801701074
 21
24.30030585866149
 31
0.0
  0
LINE
  5
443
330
1F
100
AcDbEntity
  8
0
  6
SLD-Solid
 62
     7
370
    25
100
AcDbLine
 10
35.85298346446552
 20
24.28816821789789
 30
0.0
 11
35.86135192035631
 21
24.27979976200708
 31
0.0
  0
LINE
  5
444
330
1F
100
AcDbEntity
  8
0
  6
SLD-Solid
 62
     7
370
    25
100
AcDbLine
 10
38.29231713662119
 20
24.27979976200704
 30
0.0
 11
38.27181103996679
 21
24.30030585866147
 31
0.0
  0
LINE
  5
445
330
1F
100
AcDbEntity
  8
0
  6
SLD-Solid
 62
     7
370
    25
100
AcDbLine
 10
38.30068559251201
 20
24.28816821789786
 30
0.0
 11
38.29231713662119
 21
24.27979976200704
 31
0.0
  0
LINE
  5
446
330
1F
100
AcDbEntity
  8
0
  6
SLD-Solid
 62
     7
370
    25
100
AcDbLine
 10
38.2801794958576
 20
24.30867431455228
 30
0.0
 11
38.27181103996679
 21
24.30030585866147
 31
0.0
  0
LINE
  5
447
330
1F
100
AcDbEntity
  8
0
  6
SLD-Solid
 62
     7
370
    25
100
AcDbLine
 10
35.8695623587517
 20
24.27158932361169
 30
0.0
 11
35.89006845540611
 21
24.2920954202661
 31
0.0
  0
LINE
  5
448
330
1F
100
AcDbEntity
  8
0
  6
SLD-Solid
 62
     7
370
    25
100
AcDbLine
 10
35.88185801701074
 20
24.30030585866149
 30
0.0
 11
35.89006845540611
 21
24.2920954202661
 31
0.0
  0
LINE
  5
449
330
1F
100
AcDbEntity
  8
0
  6
SLD-Solid
 62
     7
370
    25
100
AcDbLine
 10
35.86135192035631
 20
24.27979976200708
 30
0.0
 11
35.8695623587517
 21
24.27158932361169
 31
0.0
  0
LINE
  5
44A
330
1F
100
AcDbEntity
  8
0
  6
SLD-Solid
 62
     7
370
    25
100
AcDbLine
 10
38.28410669822581
 20
24.27158932361166
 30
0.0
 11
38.2636006015714
 21
24.29209542026608
 31
0.0
  0
LINE
  5
44B
330
1F
100
AcDbEntity
  8
0
  6
SLD-Solid
 62
     7
370
    25
100
AcDbLine
 10
38.29231713662119
 20
24.27979976200704
 30
0.0
 11
38.28410669822581
 21
24.27158932361166
 31
0.0
  0
LINE
  5
44C
330
1F
100
AcDbEntity
  8
0
  6
SLD-Solid
 62
     7
370
    25
100
AcDbLine
 10
38.27181103996679
 20
24.30030585866147
 30
0.0
 11
38.2636006015714
 21
24.29209542026608
 31
0.0
  0
LINE
  5
44D
330
1F
100
AcDbEntity
  8
0
  6
SLD-Solid
 62
     7
370
    25
100
AcDbLine
 10
35.87749354938583
 20
24.26365813297758
 30
0.0
 11
35.89799964604024
 21
24.28416422963199
 31
0.0
  0
LINE
  5
44E
330
1F
100
AcDbEntity
  8
0
  6
SLD-Solid
 62
     7
370
    25
100
AcDbLine
 10
35.89006845540611
 20
24.2920954202661
 30
0.0
 11
35.89799964604024
 21
24.28416422963199
 31
0.0
  0
LINE
  5
44F
330
1F
100
AcDbEntity
  8
0
  6
SLD-Solid
 62
     7
370
    25
100
AcDbLine
 10
35.8695623587517
 20
24.27158932361169
 30
0.0
 11
35.87749354938583
 21
24.26365813297758
 31
0.0
  0
LINE
  5
450
330
1F
100
AcDbEntity
  8
0
  6
SLD-Solid
 62
     7
370
    25
100
AcDbLine
 10
38.27617550759167
 20
24.26365813297756
 30
0.0
 11
38.25566941093727
 21
24.28416422963196
 31
0.0
  0
LINE
  5
451
330
1F
100
AcDbEntity
  8
0
  6
SLD-Solid
 62
     7
370
    25
100
AcDbLine
 10
38.28410669822581
 20
24.27158932361166
 30
0.0
 11
38.27617550759167
 21
24.26365813297756
 31
0.0
  0
LINE
  5
452
330
1F
100
AcDbEntity
  8
0
  6
SLD-Solid
 62
     7
370
    25
100
AcDbLine
 10
38.2636006015714
 20
24.29209542026608
 30
0.0
 11
38.25566941093727
 21
24.28416422963196
 31
0.0
  0
LINE
  5
453
330
1F
100
AcDbEntity
  8
0
  6
SLD-Solid
 62
     7
370
    25
100
AcDbLine
 10
35.88513981736808
 20
24.25601186499533
 30
0.0
 11
35.90564591402249
 21
24.27651796164973
 31
0.0
  0
LINE
  5
454
330
1F
100
AcDbEntity
  8
0
  6
SLD-Solid
 62
     7
370
    25
100
AcDbLine
 10
35.89799964604024
 20
24.28416422963199
 30
0.0
 11
35.90564591402249
 21
24.27651796164973
 31
0.0
  0
LINE
  5
455
330
1F
100
AcDbEntity
  8
0
  6
SLD-Solid
 62
     7
370
    25
100
AcDbLine
 10
35.87749354938583
 20
24.26365813297758
 30
0.0
 11
35.88513981736808
 21
24.25601186499533
 31
0.0
  0
LINE
  5
456
330
1F
100
AcDbEntity
  8
0
  6
SLD-Solid
 62
     7
370
    25
100
AcDbLine
 10
38.26852923960942
 20
24.2560118649953
 30
0.0
 11
38.24802314295501
 21
24.27651796164971
 31
0.0
  0
LINE
  5
457
330
1F
100
AcDbEntity
  8
0
  6
SLD-Solid
 62
     7
370
    25
100
AcDbLine
 10
38.27617550759167
 20
24.26365813297756
 30
0.0
 11
38.26852923960942
 21
24.2560118649953
 31
0.0
  0
LINE
  5
458
330
1F
100
AcDbEntity
  8
0
  6
SLD-Solid
 62
     7
370
    25
100
AcDbLine
 10
38.25566941093727
 20
24.28416422963196
 30
0.0
 11
38.24802314295501
 21
24.27651796164971
 31
0.0
  0
LINE
  5
459
330
1F
100
AcDbEntity
  8
0
  6
SLD-Solid
 62
     7
370
    25
100
AcDbLine
 10
35.89250748472572
 20
24.24864419763767
 30
0.0
 11
35.91301358138013
 21
24.26915029429208
 31
0.0
  0
LINE
  5
45A
330
1F
100
AcDbEntity
  8
0
  6
SLD-Solid
 62
     7
370
    25
100
AcDbLine
 10
35.90564591402249
 20
24.27651796164973
 30
0.0
 11
35.91301358138013
 21
24.26915029429208
 31
0.0
  0
LINE
  5
45B
330
1F
100
AcDbEntity
  8
0
  6
SLD-Solid
 62
     7
370
    25
100
AcDbLine
 10
35.88513981736808
 20
24.25601186499533
 30
0.0
 11
35.89250748472572
 21
24.24864419763767
 31
0.0
  0
LINE
  5
45C
330
1F
100
AcDbEntity
  8
0
  6
SLD-Solid
 62
     7
370
    25
100
AcDbLine
 10
38.26116157225179
 20
24.24864419763766
 30
0.0
 11
38.24065547559739
 21
24.26915029429207
 31
0.0
  0
LINE
  5
45D
330
1F
100
AcDbEntity
  8
0
  6
SLD-Solid
 62
     7
370
    25
100
AcDbLine
 10
38.26852923960942
 20
24.2560118649953
 30
0.0
 11
38.26116157225179
 21
24.24864419763766
 31
0.0
  0
LINE
  5
45E
330
1F
100
AcDbEntity
  8
0
  6
SLD-Solid
 62
     7
370
    25
100
AcDbLine
 10
38.24802314295501
 20
24.27651796164971
 30
0.0
 11
38.24065547559739
 21
24.26915029429207
 31
0.0
  0
LINE
  5
45F
330
1F
100
AcDbEntity
  8
0
  6
SLD-Solid
 62
     7
370
    25
100
AcDbLine
 10
35.89957564396698
 20
24.24157603839642
 30
0.0
 11
35.92008174062139
 21
24.26208213505083
 31
0.0
  0
LINE
  5
460
330
1F
100
AcDbEntity
  8
0
  6
SLD-Solid
 62
     7
370
    25
100
AcDbLine
 10
35.91301358138013
 20
24.26915029429208
 30
0.0
 11
35.92008174062139
 21
24.26208213505083
 31
0.0
  0
LINE
  5
461
330
1F
100
AcDbEntity
  8
0
  6
SLD-Solid
 62
     7
370
    25
100
AcDbLine
 10
35.89250748472572
 20
24.24864419763767
 30
0.0
 11
35.89957564396698
 21
24.24157603839642
 31
0.0
  0
LINE
  5
462
330
1F
100
AcDbEntity
  8
0
  6
SLD-Solid
 62
     7
370
    25
100
AcDbLine
 10
38.25409341301054
 20
24.2415760383964
 30
0.0
 11
38.23358731635613
 21
24.26208213505081
 31
0.0
  0
LINE
  5
463
330
1F
100
AcDbEntity
  8
0
  6
SLD-Solid
 62
     7
370
    25
100
AcDbLine
 10
38.26116157225179
 20
24.24864419763766
 30
0.0
 11
38.25409341301054
 21
24.2415760383964
 31
0.0
  0
LINE
  5
464
330
1F
100
AcDbEntity
  8
0
  6
SLD-Solid
 62
     7
370
    25
100
AcDbLine
 10
38.24065547559739
 20
24.26915029429207
 30
0.0
 11
38.23358731635613
 21
24.26208213505081
 31
0.0
  0
LINE
  5
465
330
1F
100
AcDbEntity
  8
0
  6
SLD-Solid
 62
     7
370
    25
100
AcDbLine
 10
35.90632323826083
 20
24.23482844410255
 30
0.0
 11
35.92682933491526
 21
24.25533454075697
 31
0.0
  0
LINE
  5
466
330
1F
100
AcDbEntity
  8
0
  6
SLD-Solid
 62
     7
370
    25
100
AcDbLine
 10
35.92008174062139
 20
24.26208213505083
 30
0.0
 11
35.92682933491526
 21
24.25533454075697
 31
0.0
  0
LINE
  5
467
330
1F
100
AcDbEntity
  8
0
  6
SLD-Solid
 62
     7
370
    25
100
AcDbLine
 10
35.89957564396698
 20
24.24157603839642
 30
0.0
 11
35.90632323826083
 21
24.23482844410255
 31
0.0
  0
LINE
  5
468
330
1F
100
AcDbEntity
  8
0
  6
SLD-Solid
 62
     7
370
    25
100
AcDbLine
 10
38.24734581871666
 20
24.23482844410254
 30
0.0
 11
38.22683972206227
 21
24.25533454075695
 31
0.0
  0
LINE
  5
469
330
1F
100
AcDbEntity
  8
0
  6
SLD-Solid
 62
     7
370
    25
100
AcDbLine
 10
38.25409341301054
 20
24.2415760383964
 30
0.0
 11
38.24734581871666
 21
24.23482844410254
 31
0.0
  0
LINE
  5
46A
330
1F
100
AcDbEntity
  8
0
  6
SLD-Solid
 62
     7
370
    25
100
AcDbLine
 10
38.23358731635613
 20
24.26208213505081
 30
0.0
 11
38.22683972206227
 21
24.25533454075695
 31
0.0
  0
LINE
  5
46B
330
1F
100
AcDbEntity
  8
0
  6
SLD-Solid
 62
     7
370
    25
100
AcDbLine
 10
35.91273870211383
 20
24.22841298024955
 30
0.0
 11
35.93324479876824
 21
24.24891907690397
 31
0.0
  0
LINE
  5
46C
330
1F
100
AcDbEntity
  8
0
  6
SLD-Solid
 62
     7
370
    25
100
AcDbLine
 10
35.92682933491526
 20
24.25533454075697
 30
0.0
 11
35.93324479876824
 21
24.24891907690397
 31
0.0
  0
LINE
  5
46D
330
1F
100
AcDbEntity
  8
0
  6
SLD-Solid
 62
     7
370
    25
100
AcDbLine
 10
35.90632323826083
 20
24.23482844410255
 30
0.0
 11
35.91273870211383
 21
24.22841298024955
 31
0.0
  0
LINE
  5
46E
330
1F
100
AcDbEntity
  8
0
  6
SLD-Solid
 62
     7
370
    25
100
AcDbLine
 10
38.24093035486366
 20
24.22841298024954
 30
0.0
 11
38.22042425820925
 21
24.24891907690393
 31
0.0
  0
LINE
  5
46F
330
1F
100
AcDbEntity
  8
0
  6
SLD-Solid
 62
     7
370
    25
100
AcDbLine
 10
38.24734581871666
 20
24.23482844410254
 30
0.0
 11
38.24093035486366
 21
24.22841298024954
 31
0.0
  0
LINE
  5
470
330
1F
100
AcDbEntity
  8
0
  6
SLD-Solid
 62
     7
370
    25
100
AcDbLine
 10
38.22683972206227
 20
24.25533454075695
 30
0.0
 11
38.22042425820925
 21
24.24891907690393
 31
0.0
  0
LINE
  5
471
330
1F
100
AcDbEntity
  8
0
  6
SLD-Solid
 62
     7
370
    25
100
AcDbLine
 10
35.91881166474631
 20
24.22234001761706
 30
0.0
 11
35.93931776140073
 21
24.2428461142715
 31
0.0
  0
LINE
  5
472
330
1F
100
AcDbEntity
  8
0
  6
SLD-Solid
 62
     7
370
    25
100
AcDbLine
 10
35.93324479876824
 20
24.24891907690397
 30
0.0
 11
35.93931776140073
 21
24.2428461142715
 31
0.0
  0
LINE
  5
473
330
1F
100
AcDbEntity
  8
0
  6
SLD-Solid
 62
     7
370
    25
100
AcDbLine
 10
35.91273870211383
 20
24.22841298024955
 30
0.0
 11
35.91881166474631
 21
24.22234001761706
 31
0.0
  0
LINE
  5
474
330
1F
100
AcDbEntity
  8
0
  6
SLD-Solid
 62
     7
370
    25
100
AcDbLine
 10
38.23485739223118
 20
24.22234001761705
 30
0.0
 11
38.21435129557678
 21
24.24284611427144
 31
0.0
  0
LINE
  5
475
330
1F
100
AcDbEntity
  8
0
  6
SLD-Solid
 62
     7
370
    25
100
AcDbLine
 10
38.24093035486366
 20
24.22841298024954
 30
0.0
 11
38.23485739223118
 21
24.22234001761705
 31
0.0
  0
LINE
  5
476
330
1F
100
AcDbEntity
  8
0
  6
SLD-Solid
 62
     7
370
    25
100
AcDbLine
 10
38.22042425820925
 20
24.24891907690393
 30
0.0
 11
38.21435129557678
 21
24.24284611427144
 31
0.0
  0
LINE
  5
477
330
1F
100
AcDbEntity
  8
0
  6
SLD-Solid
 62
     7
370
    25
100
AcDbLine
 10
35.92453140692043
 20
24.21662027544295
 30
0.0
 11
35.94503750357485
 21
24.23712637209736
 31
0.0
  0
LINE
  5
478
330
1F
100
AcDbEntity
  8
0
  6
SLD-Solid
 62
     7
370
    25
100
AcDbLine
 10
35.93931776140073
 20
24.2428461142715
 30
0.0
 11
35.94503750357485
 21
24.23712637209736
 31
0.0
  0
LINE
  5
479
330
1F
100
AcDbEntity
  8
0
  6
SLD-Solid
 62
     7
370
    25
100
AcDbLine
 10
35.91881166474631
 20
24.22234001761706
 30
0.0
 11
35.92453140692043
 21
24.21662027544295
 31
0.0
  0
LINE
  5
47A
330
1F
100
AcDbEntity
  8
0
  6
SLD-Solid
 62
     7
370
    25
100
AcDbLine
 10
38.22913765005708
 20
24.21662027544294
 30
0.0
 11
38.20863155340267
 21
24.23712637209734
 31
0.0
  0
LINE
  5
47B
330
1F
100
AcDbEntity
  8
0
  6
SLD-Solid
 62
     7
370
    25
100
AcDbLine
 10
38.23485739223118
 20
24.22234001761705
 30
0.0
 11
38.22913765005708
 21
24.21662027544294
 31
0.0
  0
LINE
  5
47C
330
1F
100
AcDbEntity
  8
0
  6
SLD-Solid
 62
     7
370
    25
100
AcDbLine
 10
38.21435129557678
 20
24.24284611427144
 30
0.0
 11
38.20863155340267
 21
24.23712637209734
 31
0.0
  0
LINE
  5
47D
330
1F
100
AcDbEntity
  8
0
  6
SLD-Solid
 62
     7
370
    25
100
AcDbLine
 10
35.92988822158644
 20
24.21126346077698
 30
0.0
 11
35.95039431824084
 21
24.23176955743138
 31
0.0
  0
LINE
  5
47E
330
1F
100
AcDbEntity
  8
0
  6
SLD-Solid
 62
     7
370
    25
100
AcDbLine
 10
35.94503750357485
 20
24.23712637209736
 30
0.0
 11
35.95039431824084
 21
24.23176955743138
 31
0.0
  0
LINE
  5
47F
330
1F
100
AcDbEntity
  8
0
  6
SLD-Solid
 62
     7
370
    25
100
AcDbLine
 10
35.92453140692043
 20
24.21662027544295
 30
0.0
 11
35.92988822158644
 21
24.21126346077698
 31
0.0
  0
LINE
  5
480
330
1F
100
AcDbEntity
  8
0
  6
SLD-Solid
 62
     7
370
    25
100
AcDbLine
 10
38.22378083539109
 20
24.21126346077694
 30
0.0
 11
38.20327473873668
 21
24.23176955743135
 31
0.0
  0
LINE
  5
481
330
1F
100
AcDbEntity
  8
0
  6
SLD-Solid
 62
     7
370
    25
100
AcDbLine
 10
38.22913765005708
 20
24.21662027544294
 30
0.0
 11
38.22378083539109
 21
24.21126346077694
 31
0.0
  0
LINE
  5
482
330
1F
100
AcDbEntity
  8
0
  6
SLD-Solid
 62
     7
370
    25
100
AcDbLine
 10
38.20863155340267
 20
24.23712637209734
 30
0.0
 11
38.20327473873668
 21
24.23176955743135
 31
0.0
  0
LINE
  5
483
330
1F
100
AcDbEntity
  8
0
  6
SLD-Solid
 62
     7
370
    25
100
AcDbLine
 10
35.93487442607073
 20
24.20627725629267
 30
0.0
 11
35.95538052272515
 21
24.22678335294708
 31
0.0
  0
LINE
  5
484
330
1F
100
AcDbEntity
  8
0
  6
SLD-Solid
 62
     7
370
    25
100
AcDbLine
 10
35.95039431824084
 20
24.23176955743138
 30
0.0
 11
35.95538052272515
 21
24.22678335294708
 31
0.0
  0
LINE
  5
485
330
1F
100
AcDbEntity
  8
0
  6
SLD-Solid
 62
     7
370
    25
100
AcDbLine
 10
35.92988822158644
 20
24.21126346077698
 30
0.0
 11
35.93487442607073
 21
24.20627725629267
 31
0.0
  0
LINE
  5
486
330
1F
100
AcDbEntity
  8
0
  6
SLD-Solid
 62
     7
370
    25
100
AcDbLine
 10
38.21879463090678
 20
24.20627725629264
 30
0.0
 11
38.19828853425238
 21
24.22678335294706
 31
0.0
  0
LINE
  5
487
330
1F
100
AcDbEntity
  8
0
  6
SLD-Solid
 62
     7
370
    25
100
AcDbLine
 10
38.22378083539109
 20
24.21126346077694
 30
0.0
 11
38.21879463090678
 21
24.20627725629264
 31
0.0
  0
LINE
  5
488
330
1F
100
AcDbEntity
  8
0
  6
SLD-Solid
 62
     7
370
    25
100
AcDbLine
 10
38.20327473873668
 20
24.23176955743135
 30
0.0
 11
38.19828853425238
 21
24.22678335294706
 31
0.0
  0
LINE
  5
489
330
1F
100
AcDbEntity
  8
0
  6
SLD-Solid
 62
     7
370
    25
100
AcDbLine
 10
35.93948293505668
 20
24.20166874730673
 30
0.0
 11
35.95998903171109
 21
24.22217484396113
 31
0.0
  0
LINE
  5
48A
330
1F
100
AcDbEntity
  8
0
  6
SLD-Solid
 62
     7
370
    25
100
AcDbLine
 10
35.95538052272515
 20
24.22678335294708
 30
0.0
 11
35.95998903171109
 21
24.22217484396113
 31
0.0
  0
LINE
  5
48B
330
1F
100
AcDbEntity
  8
0
  6
SLD-Solid
 62
     7
370
    25
100
AcDbLine
 10
35.93487442607073
 20
24.20627725629267
 30
0.0
 11
35.93948293505668
 21
24.20166874730673
 31
0.0
  0
LINE
  5
48C
330
1F
100
AcDbEntity
  8
0
  6
SLD-Solid
 62
     7
370
    25
100
AcDbLine
 10
38.21418612192083
 20
24.20166874730669
 30
0.0
 11
38.19368002526642
 21
24.2221748439611
 31
0.0
  0
LINE
  5
48D
330
1F
100
AcDbEntity
  8
0
  6
SLD-Solid
 62
     7
370
    25
100
AcDbLine
 10
38.21879463090678
 20
24.20627725629264
 30
0.0
 11
38.21418612192083
 21
24.20166874730669
 31
0.0
  0
LINE
  5
48E
330
1F
100
AcDbEntity
  8
0
  6
SLD-Solid
 62
     7
370
    25
100
AcDbLine
 10
38.19828853425238
 20
24.22678335294706
 30
0.0
 11
38.19368002526642
 21
24.2221748439611
 31
0.0
  0
LINE
  5
48F
330
1F
100
AcDbEntity
  8
0
  6
SLD-Solid
 62
     7
370
    25
100
AcDbLine
 10
35.94370749289001
 20
24.19744418947339
 30
0.0
 11
35.96421358954439
 21
24.21795028612781
 31
0.0
  0
LINE
  5
490
330
1F
100
AcDbEntity
  8
0
  6
SLD-Solid
 62
     7
370
    25
100
AcDbLine
 10
35.95998903171109
 20
24.22217484396113
 30
0.0
 11
35.96421358954439
 21
24.21795028612781
 31
0.0
  0
LINE
  5
491
330
1F
100
AcDbEntity
  8
0
  6
SLD-Solid
 62
     7
370
    25
100
AcDbLine
 10
35.93948293505668
 20
24.20166874730673
 30
0.0
 11
35.94370749289001
 21
24.19744418947339
 31
0.0
  0
LINE
  5
492
330
1F
100
AcDbEntity
  8
0
  6
SLD-Solid
 62
     7
370
    25
100
AcDbLine
 10
38.20996156408751
 20
24.19744418947336
 30
0.0
 11
38.18945546743309
 21
24.21795028612777
 31
0.0
  0
LINE
  5
493
330
1F
100
AcDbEntity
  8
0
  6
SLD-Solid
 62
     7
370
    25
100
AcDbLine
 10
38.21418612192083
 20
24.20166874730669
 30
0.0
 11
38.20996156408751
 21
24.19744418947336
 31
0.0
  0
LINE
  5
494
330
1F
100
AcDbEntity
  8
0
  6
SLD-Solid
 62
     7
370
    25
100
AcDbLine
 10
38.19368002526642
 20
24.2221748439611
 30
0.0
 11
38.18945546743309
 21
24.21795028612777
 31
0.0
  0
LINE
  5
495
330
1F
100
AcDbEntity
  8
0
  6
SLD-Solid
 62
     7
370
    25
100
AcDbLine
 10
35.94754290588423
 20
24.19360877647916
 30
0.0
 11
35.96804900253864
 21
24.21411487313357
 31
0.0
  0
LINE
  5
496
330
1F
100
AcDbEntity
  8
0
  6
SLD-Solid
 62
     7
370
    25
100
AcDbLine
 10
35.96421358954439
 20
24.21795028612781
 30
0.0
 11
35.96804900253864
 21
24.21411487313357
 31
0.0
  0
LINE
  5
497
330
1F
100
AcDbEntity
  8
0
  6
SLD-Solid
 62
     7
370
    25
100
AcDbLine
 10
35.94370749289001
 20
24.19744418947339
 30
0.0
 11
35.94754290588423
 21
24.19360877647916
 31
0.0
  0
LINE
  5
498
330
1F
100
AcDbEntity
  8
0
  6
SLD-Solid
 62
     7
370
    25
100
AcDbLine
 10
38.20612615109328
 20
24.19360877647912
 30
0.0
 11
38.18562005443886
 21
24.21411487313354
 31
0.0
  0
LINE
  5
499
330
1F
100
AcDbEntity
  8
0
  6
SLD-Solid
 62
     7
370
    25
100
AcDbLine
 10
38.20996156408751
 20
24.19744418947336
 30
0.0
 11
38.20612615109328
 21
24.19360877647912
 31
0.0
  0
LINE
  5
49A
330
1F
100
AcDbEntity
  8
0
  6
SLD-Solid
 62
     7
370
    25
100
AcDbLine
 10
38.18945546743309
 20
24.21795028612777
 30
0.0
 11
38.18562005443886
 21
24.21411487313354
 31
0.0
  0
LINE
  5
49B
330
1F
100
AcDbEntity
  8
0
  6
SLD-Solid
 62
     7
370
    25
100
AcDbLine
 10
35.95098605450887
 20
24.19016562785452
 30
0.0
 11
35.97149215116327
 21
24.21067172450894
 31
0.0
  0
LINE
  5
49C
330
1F
100
AcDbEntity
  8
0
  6
SLD-Solid
 62
     7
370
    25
100
AcDbLine
 10
35.96804900253864
 20
24.21411487313357
 30
0.0
 11
35.97149215116327
 21
24.21067172450894
 31
0.0
  0
LINE
  5
49D
330
1F
100
AcDbEntity
  8
0
  6
SLD-Solid
 62
     7
370
    25
100
AcDbLine
 10
35.94754290588423
 20
24.19360877647916
 30
0.0
 11
35.95098605450887
 21
24.19016562785452
 31
0.0
  0
LINE
  5
49E
330
1F
100
AcDbEntity
  8
0
  6
SLD-Solid
 62
     7
370
    25
100
AcDbLine
 10
38.20268300246867
 20
24.19016562785449
 30
0.0
 11
38.18217690581424
 21
24.2106717245089
 31
0.0
  0
LINE
  5
49F
330
1F
100
AcDbEntity
  8
0
  6
SLD-Solid
 62
     7
370
    25
100
AcDbLine
 10
38.20612615109328
 20
24.19360877647912
 30
0.0
 11
38.20268300246867
 21
24.19016562785449
 31
0.0
  0
LINE
  5
4A0
330
1F
100
AcDbEntity
  8
0
  6
SLD-Solid
 62
     7
370
    25
100
AcDbLine
 10
38.18562005443886
 20
24.21411487313354
 30
0.0
 11
38.18217690581424
 21
24.2106717245089
 31
0.0
  0
LINE
  5
4A1
330
1F
100
AcDbEntity
  8
0
  6
SLD-Solid
 62
     7
370
    25
100
AcDbLine
 10
35.95403262451956
 20
24.18711905784384
 30
0.0
 11
35.97453872117397
 21
24.20762515449825
 31
0.0
  0
LINE
  5
4A2
330
1F
100
AcDbEntity
  8
0
  6
SLD-Solid
 62
     7
370
    25
100
AcDbLine
 10
35.97149215116327
 20
24.21067172450894
 30
0.0
 11
35.97453872117397
 21
24.20762515449825
 31
0.0
  0
LINE
  5
4A3
330
1F
100
AcDbEntity
  8
0
  6
SLD-Solid
 62
     7
370
    25
100
AcDbLine
 10
35.95098605450887
 20
24.19016562785452
 30
0.0
 11
35.95403262451956
 21
24.18711905784384
 31
0.0
  0
LINE
  5
4A4
330
1F
100
AcDbEntity
  8
0
  6
SLD-Solid
 62
     7
370
    25
100
AcDbLine
 10
38.19963643245796
 20
24.18711905784381
 30
0.0
 11
38.17913033580355
 21
24.20762515449821
 31
0.0
  0
LINE
  5
4A5
330
1F
100
AcDbEntity
  8
0
  6
SLD-Solid
 62
     7
370
    25
100
AcDbLine
 10
38.20268300246867
 20
24.19016562785449
 30
0.0
 11
38.19963643245796
 21
24.18711905784381
 31
0.0
  0
LINE
  5
4A6
330
1F
100
AcDbEntity
  8
0
  6
SLD-Solid
 62
     7
370
    25
100
AcDbLine
 10
38.18217690581424
 20
24.2106717245089
 30
0.0
 11
38.17913033580355
 21
24.20762515449821
 31
0.0
  0
LINE
  5
4A7
330
1F
100
AcDbEntity
  8
0
  6
SLD-Solid
 62
     7
370
    25
100
AcDbLine
 10
35.95667518214144
 20
24.18447650022196
 30
0.0
 11
35.97718127879586
 21
24.20498259687637
 31
0.0
  0
LINE
  5
4A8
330
1F
100
AcDbEntity
  8
0
  6
SLD-Solid
 62
     7
370
    25
100
AcDbLine
 10
35.97453872117397
 20
24.20762515449825
 30
0.0
 11
35.97718127879586
 21
24.20498259687637
 31
0.0
  0
LINE
  5
4A9
330
1F
100
AcDbEntity
  8
0
  6
SLD-Solid
 62
     7
370
    25
100
AcDbLine
 10
35.95403262451956
 20
24.18711905784384
 30
0.0
 11
35.95667518214144
 21
24.18447650022196
 31
0.0
  0
LINE
  5
4AA
330
1F
100
AcDbEntity
  8
0
  6
SLD-Solid
 62
     7
370
    25
100
AcDbLine
 10
38.19699387483606
 20
24.18447650022194
 30
0.0
 11
38.17648777818166
 21
24.20498259687635
 31
0.0
  0
LINE
  5
4AB
330
1F
100
AcDbEntity
  8
0
  6
SLD-Solid
 62
     7
370
    25
100
AcDbLine
 10
38.19963643245796
 20
24.18711905784381
 30
0.0
 11
38.19699387483606
 21
24.18447650022194
 31
0.0
  0
LINE
  5
4AC
330
1F
100
AcDbEntity
  8
0
  6
SLD-Solid
 62
     7
370
    25
100
AcDbLine
 10
38.17913033580355
 20
24.20762515449821
 30
0.0
 11
38.17648777818166
 21
24.20498259687635
 31
0.0
  0
LINE
  5
4AD
330
1F
100
AcDbEntity
  8
0
  6
SLD-Solid
 62
     7
370
    25
100
AcDbLine
 10
35.95891220079577
 20
24.18223948156763
 30
0.0
 11
35.97941829745018
 21
24.20274557822204
 31
0.0
  0
LINE
  5
4AE
330
1F
100
AcDbEntity
  8
0
  6
SLD-Solid
 62
     7
370
    25
100
AcDbLine
 10
35.97718127879586
 20
24.20498259687637
 30
0.0
 11
35.97941829745018
 21
24.20274557822204
 31
0.0
  0
LINE
  5
4AF
330
1F
100
AcDbEntity
  8
0
  6
SLD-Solid
 62
     7
370
    25
100
AcDbLine
 10
35.95667518214144
 20
24.18447650022196
 30
0.0
 11
35.95891220079577
 21
24.18223948156763
 31
0.0
  0
LINE
  5
4B0
330
1F
100
AcDbEntity
  8
0
  6
SLD-Solid
 62
     7
370
    25
100
AcDbLine
 10
38.19475685618173
 20
24.1822394815676
 30
0.0
 11
38.17425075952732
 21
24.20274557822201
 31
0.0
  0
LINE
  5
4B1
330
1F
100
AcDbEntity
  8
0
  6
SLD-Solid
 62
     7
370
    25
100
AcDbLine
 10
38.19699387483606
 20
24.18447650022194
 30
0.0
 11
38.19475685618173
 21
24.1822394815676
 31
0.0
  0
LINE
  5
4B2
330
1F
100
AcDbEntity
  8
0
  6
SLD-Solid
 62
     7
370
    25
100
AcDbLine
 10
38.17648777818166
 20
24.20498259687635
 30
0.0
 11
38.17425075952732
 21
24.20274557822201
 31
0.0
  0
LINE
  5
4B3
330
1F
100
AcDbEntity
  8
0
  6
SLD-Solid
 62
     7
370
    25
100
AcDbLine
 10
35.96075760221714
 20
24.18039408014625
 30
0.0
 11
35.98126369887155
 21
24.20090017680067
 31
0.0
  0
LINE
  5
4B4
330
1F
100
AcDbEntity
  8
0
  6
SLD-Solid
 62
     7
370
    25
100
AcDbLine
 10
35.97941829745018
 20
24.20274557822204
 30
0.0
 11
35.98126369887155
 21
24.20090017680067
 31
0.0
  0
LINE
  5
4B5
330
1F
100
AcDbEntity
  8
0
  6
SLD-Solid
 62
     7
370
    25
100
AcDbLine
 10
35.95891220079577
 20
24.18223948156763
 30
0.0
 11
35.96075760221714
 21
24.18039408014625
 31
0.0
  0
LINE
  5
4B6
330
1F
100
AcDbEntity
  8
0
  6
SLD-Solid
 62
     7
370
    25
100
AcDbLine
 10
38.19291145476036
 20
24.18039408014622
 30
0.0
 11
38.17240535810595
 21
24.20090017680064
 31
0.0
  0
LINE
  5
4B7
330
1F
100
AcDbEntity
  8
0
  6
SLD-Solid
 62
     7
370
    25
100
AcDbLine
 10
38.19475685618173
 20
24.1822394815676
 30
0.0
 11
38.19291145476036
 21
24.18039408014622
 31
0.0
  0
LINE
  5
4B8
330
1F
100
AcDbEntity
  8
0
  6
SLD-Solid
 62
     7
370
    25
100
AcDbLine
 10
38.17425075952732
 20
24.20274557822201
 30
0.0
 11
38.17240535810595
 21
24.20090017680064
 31
0.0
  0
LINE
  5
4B9
330
1F
100
AcDbEntity
  8
0
  6
SLD-Solid
 62
     7
370
    25
100
AcDbLine
 10
35.96220808434934
 20
24.17894359801408
 30
0.0
 11
35.98271418100374
 21
24.19944969466849
 31
0.0
  0
LINE
  5
4BA
330
1F
100
AcDbEntity
  8
0
  6
SLD-Solid
 62
     7
370
    25
100
AcDbLine
 10
35.98126369887155
 20
24.20090017680067
 30
0.0
 11
35.98271418100374
 21
24.19944969466849
 31
0.0
  0
LINE
  5
4BB
330
1F
100
AcDbEntity
  8
0
  6
SLD-Solid
 62
     7
370
    25
100
AcDbLine
 10
35.96075760221714
 20
24.18039408014625
 30
0.0
 11
35.96220808434934
 21
24.17894359801408
 31
0.0
  0
LINE
  5
4BC
330
1F
100
AcDbEntity
  8
0
  6
SLD-Solid
 62
     7
370
    25
100
AcDbLine
 10
38.19146097262819
 20
24.17894359801404
 30
0.0
 11
38.17095487597378
 21
24.19944969466846
 31
0.0
  0
LINE
  5
4BD
330
1F
100
AcDbEntity
  8
0
  6
SLD-Solid
 62
     7
370
    25
100
AcDbLine
 10
38.19291145476036
 20
24.18039408014622
 30
0.0
 11
38.19146097262819
 21
24.17894359801404
 31
0.0
  0
LINE
  5
4BE
330
1F
100
AcDbEntity
  8
0
  6
SLD-Solid
 62
     7
370
    25
100
AcDbLine
 10
38.17240535810595
 20
24.20090017680064
 30
0.0
 11
38.17095487597378
 21
24.19944969466846
 31
0.0
  0
LINE
  5
4BF
330
1F
100
AcDbEntity
  8
0
  6
SLD-Solid
 62
     7
370
    25
100
AcDbLine
 10
35.9632046084179
 20
24.1779470739455
 30
0.0
 11
35.9837107050723
 21
24.19845317059991
 31
0.0
  0
LINE
  5
4C0
330
1F
100
AcDbEntity
  8
0
  6
SLD-Solid
 62
     7
370
    25
100
AcDbLine
 10
35.98271418100374
 20
24.19944969466849
 30
0.0
 11
35.9837107050723
 21
24.19845317059991
 31
0.0
  0
LINE
  5
4C1
330
1F
100
AcDbEntity
  8
0
  6
SLD-Solid
 62
     7
370
    25
100
AcDbLine
 10
35.96220808434934
 20
24.17894359801408
 30
0.0
 11
35.9632046084179
 21
24.1779470739455
 31
0.0
  0
LINE
  5
4C2
330
1F
100
AcDbEntity
  8
0
  6
SLD-Solid
 62
     7
370
    25
100
AcDbLine
 10
38.19046444855962
 20
24.17794707394546
 30
0.0
 11
38.16995835190522
 21
24.19845317059988
 31
0.0
  0
LINE
  5
4C3
330
1F
100
AcDbEntity
  8
0
  6
SLD-Solid
 62
     7
370
    25
100
AcDbLine
 10
38.19146097262819
 20
24.17894359801404
 30
0.0
 11
38.19046444855962
 21
24.17794707394546
 31
0.0
  0
LINE
  5
4C4
330
1F
100
AcDbEntity
  8
0
  6
SLD-Solid
 62
     7
370
    25
100
AcDbLine
 10
38.17095487597378
 20
24.19944969466846
 30
0.0
 11
38.16995835190522
 21
24.19845317059988
 31
0.0
  0
LINE
  5
4C5
330
1F
100
AcDbEntity
  8
0
  6
SLD-Solid
 62
     7
370
    25
100
AcDbLine
 10
35.96374189777017
 20
24.17740978459322
 30
0.0
 11
35.98424799442459
 21
24.19791588124763
 31
0.0
  0
LINE
  5
4C6
330
1F
100
AcDbEntity
  8
0
  6
SLD-Solid
 62
     7
370
    25
100
AcDbLine
 10
35.9837107050723
 20
24.19845317059991
 30
0.0
 11
35.98424799442459
 21
24.19791588124763
 31
0.0
  0
LINE
  5
4C7
330
1F
100
AcDbEntity
  8
0
  6
SLD-Solid
 62
     7
370
    25
100
AcDbLine
 10
35.9632046084179
 20
24.1779470739455
 30
0.0
 11
35.96374189777017
 21
24.17740978459322
 31
0.0
  0
LINE
  5
4C8
330
1F
100
AcDbEntity
  8
0
  6
SLD-Solid
 62
     7
370
    25
100
AcDbLine
 10
38.18992715920734
 20
24.17740978459318
 30
0.0
 11
38.16942106255294
 21
24.19791588124761
 31
0.0
  0
LINE
  5
4C9
330
1F
100
AcDbEntity
  8
0
  6
SLD-Solid
 62
     7
370
    25
100
AcDbLine
 10
38.19046444855962
 20
24.17794707394546
 30
0.0
 11
38.18992715920734
 21
24.17740978459318
 31
0.0
  0
LINE
  5
4CA
330
1F
100
AcDbEntity
  8
0
  6
SLD-Solid
 62
     7
370
    25
100
AcDbLine
 10
38.16995835190522
 20
24.19845317059988
 30
0.0
 11
38.16942106255294
 21
24.19791588124761
 31
0.0
  0
LINE
  5
4CB
330
1F
100
AcDbEntity
  8
0
  6
SLD-Solid
 62
     7
370
    25
100
AcDbLine
 10
35.96402736799921
 20
24.17712431436418
 30
0.0
 11
35.98453346465362
 21
24.19763041101859
 31
0.0
  0
LINE
  5
4CC
330
1F
100
AcDbEntity
  8
0
  6
SLD-Solid
 62
     7
370
    25
100
AcDbLine
 10
35.98424799442459
 20
24.19791588124763
 30
0.0
 11
35.98453346465362
 21
24.19763041101859
 31
0.0
  0
LINE
  5
4CD
330
1F
100
AcDbEntity
  8
0
  6
SLD-Solid
 62
     7
370
    25
100
AcDbLine
 10
35.96374189777017
 20
24.17740978459322
 30
0.0
 11
35.96402736799921
 21
24.17712431436418
 31
0.0
  0
LINE
  5
4CE
330
1F
100
AcDbEntity
  8
0
  6
SLD-Solid
 62
     7
370
    25
100
AcDbLine
 10
38.1896416889783
 20
24.17712431436415
 30
0.0
 11
38.16913559232387
 21
24.19763041101857
 31
0.0
  0
LINE
  5
4CF
330
1F
100
AcDbEntity
  8
0
  6
SLD-Solid
 62
     7
370
    25
100
AcDbLine
 10
38.18992715920734
 20
24.17740978459318
 30
0.0
 11
38.1896416889783
 21
24.17712431436415
 31
0.0
  0
LINE
  5
4D0
330
1F
100
AcDbEntity
  8
0
  6
SLD-Solid
 62
     7
370
    25
100
AcDbLine
 10
38.16942106255294
 20
24.19791588124761
 30
0.0
 11
38.16913559232387
 21
24.19763041101857
 31
0.0
  0
ARC
  5
4D1
330
1F
100
AcDbEntity
  8
0
  6
SLD-Solid
 62
     7
370
    25
100
AcDbCircle
 10
36.24208525485964
 20
24.43542972021014
 30
0.0
 40
0.2535267161146631
100
AcDbArc
 50
226.3979909306782
 51
252.5813682749196
  0
ARC
  5
4D2
330
1F
100
AcDbEntity
  8
0
  6
SLD-Solid
 62
     7
370
    25
100
AcDbCircle
 10
37.91158380210631
 20
24.43542972022595
 30
0.0
 40
0.2535267161340773
100
AcDbArc
 50
287.4186317114569
 51
313.6020090687371
  0
LINE
  5
4D3
330
1F
100
AcDbEntity
  8
0
  6
SLD-Solid
 62
     7
370
    25
100
AcDbLine
 10
36.02743828171631
 20
24.29164249418965
 30
0.0
 11
36.06724183887257
 21
24.25183893702684
 31
0.0
  0
LINE
  5
4D4
330
1F
100
AcDbEntity
  8
0
  6
SLD-Solid
 62
     7
370
    25
100
AcDbLine
 10
38.12623077534276
 20
24.29164249427123
 30
0.0
 11
38.08642721810489
 21
24.2518389370268
 31
0.0
  0
LINE
  5
4D5
330
1F
100
AcDbEntity
  8
0
  6
SLD-Solid
 62
     7
370
    25
100
AcDbLine
 10
35.78534602274913
 20
42.33134636610244
 30
0.0
 11
35.78534602274915
 21
42.33221493867408
 31
0.0
  0
LINE
  5
4D6
330
1F
100
AcDbEntity
  8
0
  6
SLD-Solid
 62
     7
370
    25
100
AcDbLine
 10
35.79534602274916
 20
42.33221493867408
 30
0.0
 11
35.78534602274915
 21
42.33221493867408
 31
0.0
  0
LINE
  5
4D7
330
1F
100
AcDbEntity
  8
0
  6
SLD-Solid
 62
     7
370
    25
100
AcDbLine
 10
38.36832303422869
 20
42.33134636610249
 30
0.0
 11
38.3683230342287
 21
42.33221493867406
 31
0.0
  0
LINE
  5
4D8
330
1F
100
AcDbEntity
  8
0
  6
SLD-Solid
 62
     7
370
    25
100
AcDbLine
 10
38.35832303422869
 20
42.33221493867406
 30
0.0
 11
38.3683230342287
 21
42.33221493867406
 31
0.0
  0
LINE
  5
4D9
330
1F
100
AcDbEntity
  8
0
  6
SLD-Solid
 62
     7
370
    25
100
AcDbLine
 10
35.73484558975542
 20
24.48212342611883
 30
0.0
 11
35.73087901666784
 21
24.48212342611883
 31
0.0
  0
LINE
  5
4DA
330
1F
100
AcDbEntity
  8
0
  6
SLD-Solid
 62
     7
370
    25
100
AcDbLine
 10
35.73087901666802
 20
42.26475720344205
 30
0.0
 11
35.73734602274915
 21
42.26475720344205
 31
0.0
  0
LINE
  5
4DB
330
1F
100
AcDbEntity
  8
0
  6
SLD-Solid
 62
     7
370
    25
100
AcDbLine
 10
38.41632303422871
 20
42.26475720344202
 30
0.0
 11
38.4227900403098
 21
42.26475720344202
 31
0.0
  0
LINE
  5
4DC
330
1F
100
AcDbEntity
  8
0
  6
SLD-Solid
 62
     7
370
    25
100
AcDbLine
 10
38.42279004030961
 20
24.48212342611878
 30
0.0
 11
38.41882346722211
 21
24.48212342611879
 31
0.0
  0
LINE
  5
4DD
330
1F
100
AcDbEntity
  8
0
  6
SLD-Solid
 62
     7
370
    25
100
AcDbLine
 10
38.36832303422869
 20
42.30143625385177
 30
0.0
 11
38.36832303422869
 21
42.27421493867406
 31
0.0
  0
LINE
  5
4DE
330
1F
100
AcDbEntity
  8
0
  6
SLD-Solid
 62
     7
370
    25
100
AcDbLine
 10
35.78534602274914
 20
42.27421493867407
 30
0.0
 11
35.78534602274913
 21
42.30143625385173
 31
0.0
  0
LINE
  5
4DF
330
1F
100
AcDbEntity
  8
0
  6
SLD-Solid
 62
     7
370
    25
100
AcDbLine
 10
35.76484558975541
 20
24.48212342611881
 30
0.0
 11
35.79383452845214
 21
24.4821234261188
 31
0.0
  0
LINE
  5
4E0
330
1F
100
AcDbEntity
  8
0
  6
SLD-Solid
 62
     7
370
    25
100
AcDbLine
 10
35.76634602274916
 20
42.26475720344205
 30
0.0
 11
35.78534602274914
 21
42.26475720344205
 31
0.0
  0
LINE
  5
4E1
330
1F
100
AcDbEntity
  8
0
  6
SLD-Solid
 62
     7
370
    25
100
AcDbLine
 10
35.78534602274914
 20
42.26475720344205
 30
0.0
 11
35.78534602274914
 21
42.27421493867407
 31
0.0
  0
LINE
  5
4E2
330
1F
100
AcDbEntity
  8
0
  6
SLD-Solid
 62
     7
370
    25
100
AcDbLine
 10
38.36832303422869
 20
42.26475720344202
 30
0.0
 11
38.36832303422869
 21
42.27421493867406
 31
0.0
  0
LINE
  5
4E3
330
1F
100
AcDbEntity
  8
0
  6
SLD-Solid
 62
     7
370
    25
100
AcDbLine
 10
38.38732303422872
 20
42.26475720344202
 30
0.0
 11
38.36832303422869
 21
42.26475720344202
 31
0.0
  0
LINE
  5
4E4
330
1F
100
AcDbEntity
  8
0
  6
SLD-Solid
 62
     7
370
    25
100
AcDbLine
 10
38.3888234672221
 20
24.48212342611877
 30
0.0
 11
38.35983452849153
 21
24.48212342611879
 31
0.0
  0
LINE
  5
4E5
330
1F
100
AcDbEntity
  8
0
  6
SLD-Solid
 62
     8
370
    25
100
AcDbLine
 10
35.69728201459751
 20
24.51182221164384
 30
0.0
 11
35.69728201459751
 21
24.76442464059382
 31
0.0
  0
LINE
  5
4E6
330
1F
100
AcDbEntity
  8
0
  6
SLD-Solid
 62
     8
370
    25
100
AcDbLine
 10
38.45638704238002
 20
24.76442464059378
 30
0.0
 11
38.45638704238001
 21
24.51182221164379
 31
0.0
  0
LINE
  5
4E7
330
1F
100
AcDbEntity
  8
0
  6
SLD-Solid
 62
     8
370
    25
100
AcDbLine
 10
35.73137901667374
 20
39.92744542225024
 30
0.0
 11
35.73137901667374
 21
39.73680142998747
 31
0.0
  0
LINE
  5
4E8
330
1F
100
AcDbEntity
  8
0
  6
SLD-Solid
 62
     8
370
    25
100
AcDbLine
 10
38.42229004030412
 20
39.92744542225021
 30
0.0
 11
38.42229004030411
 21
39.73680142998744
 31
0.0
  0
LINE
  5
4E9
330
1F
100
AcDbEntity
  8
0
  6
SLD-Solid
 62
     8
370
    25
100
AcDbLine
 10
36.06724183887257
 20
24.25183893702684
 30
0.0
 11
36.06724183887257
 21
24.26349712900912
 31
0.0
  0
LINE
  5
4EA
330
1F
100
AcDbEntity
  8
0
  6
SLD-Solid
 62
     8
370
    25
100
AcDbLine
 10
38.08642721810489
 20
24.2518389370268
 30
0.0
 11
38.08642721810489
 21
24.26349712903298
 31
0.0
  0
LINE
  5
4EB
330
1F
100
AcDbEntity
  8
0
  6
SLD-Solid
 62
     8
370
    25
100
AcDbLine
 10
35.75987901666802
 20
41.83821493867411
 30
0.0
 11
35.75987901666804
 21
41.70712342609915
 31
0.0
  0
LINE
  5
4EC
330
1F
100
AcDbEntity
  8
0
  6
SLD-Solid
 62
     8
370
    25
100
AcDbLine
 10
38.39379004030981
 20
41.79232276636074
 30
0.0
 11
38.39379004030981
 21
41.70712342609913
 31
0.0
  0
LINE
  5
4ED
330
1F
100
AcDbEntity
  8
0
  6
SLD-Solid
 62
     8
370
    25
100
AcDbLine
 10
38.36832303422869
 20
42.27421493867406
 30
0.0
 11
38.28953459006774
 21
42.27421493867406
 31
0.0
  0
LINE
  5
4EE
330
1F
100
AcDbEntity
  8
0
  6
SLD-Solid
 62
     8
370
    25
100
AcDbLine
 10
35.86413446628575
 20
42.27421493867408
 30
0.0
 11
35.78534602274914
 21
42.27421493867407
 31
0.0
  0
DIMENSION
  5
4EF
330
1F
100
AcDbEntity
  8
DIMS
100
AcDbDimension
  2
_D_4
 10
36.20183452847201
 20
43.45948563082353
 30
0.0
 11
34.32130364454579
 21
43.45948563082356
 31
0.0
 70
    32
  1
<>
 71
     2
 42
-1.0
  3
SLDDIMSTYLE1
100
AcDbAlignedDimension
 13
37.95183452847194
 23
39.60712342611883
 33
0.0
 14
36.20183452847195
 24
39.60712342611885
 34
0.0
 50
-0.0000000000009305
100
AcDbRotatedDimension
  0
DIMENSION
  5
4FE
330
1F
100
AcDbEntity
  8
DIMS
100
AcDbDimension
  2
_D_5
 10
34.32130364454576
 20
26.85712342611885
 30
0.0
 11
34.3213036445458
 21
33.23212342611883
 31
0.0
 70
    32
  1
<>
 71
     2
 42
-1.0
  3
SLDDIMSTYLE1
100
AcDbAlignedDimension
 13
36.20183452847195
 23
39.60712342611885
 33
0.0
 14
36.20183452847188
 24
26.85712342611884
 34
0.0
 50
90.0000000000002
100
AcDbRotatedDimension
  0
DIMENSION
  5
50D
330
1F
100
AcDbEntity
  8
DIMS
100
AcDbDimension
  2
_D_6
 10
34.32130364454589
 20
24.09073854506232
 30
0.0
 11
34.32130364454587
 21
25.44701873862806
 31
0.0
 70
    32
  1
<>
 71
     2
 42
-1.0
  3
SLDDIMSTYLE2
100
AcDbAlignedDimension
 13
36.20183452847188
 23
26.85712342611884
 33
0.0
 14
36.41511276197025
 24
24.09073854506235
 34
0.0
 50
90.0000000000002
100
AcDbRotatedDimension
  0
DIMENSION
  5
51C
330
1F
100
AcDbEntity
  8
DIMS
100
AcDbDimension
  2
_D_7
 10
37.90508452847195
 20
39.52615005086498
 30
0.0
 11
40.99469832457397
 21
41.85648754084907
 31
0.0
 70
    35
  1
<>
 71
     1
 42
-1.0
  3
SLDDIMSTYLE4
100
AcDbDiametricDimension
 15
37.99858452847194
 25
39.68809680137267
 35
0.0
 40
0.0
  0
MTEXT
  5
529
330
1F
100
AcDbEntity
  8
NOTES
100
AcDbMText
 10
39.23427128641617
 20
47.72522294594526
 30
0.0
 40
0.7500000000000001
 41
0.0
 71
     1
 72
     1
  1
mounting hole (4)
  7
SLDTEXTSTYLE1
 73
     1
 44
1.0
  0
LEADER
  5
52A
330
1F
100
AcDbEntity
  8
NOTES
100
AcDbLeader
  3
SLDDIMSTYLE3
 76
     3
 10
36.28891926562156
 20
39.57308670248712
 30
0.0
 10
38.71096785170763
 20
47.36062968031026
 30
0.0
 10
39.21096785170762
 20
47.36062968031026
 30
0.0
1001
ACAD
1000
DSTYLE
1002
{
1070
   176
1070
     0
1070
    77
1070
     0
1070
    40
1040
1.0
1070
   147
1040
0.0
1002
}
  0
MTEXT
  5
52B
330
1F
100
AcDbEntity
  8
NOTES
100
AcDbMText
 10
35.74756884426318
 20
23.04919860353472
 30
0.0
 40
0.7500000000000001
 41
0.0
 71
     1
 72
     1
  1
Back view
  7
SLDTEXTSTYLE1
 73
     1
 44
1.0
  0
LINE
  5
52C
330
1F
100
AcDbEntity
  8
0
  6
SLD-Solid
 62
     7
370
    25
100
AcDbLine
 10
68.82561872553497
 20
26.92623081202348
 30
0.0
 11
68.78276982011229
 21
26.95096695860031
 31
0.0
  0
LINE
  5
52D
330
1F
100
AcDbEntity
  8
0
  6
SLD-Solid
 62
     7
370
    25
100
AcDbLine
 10
68.72027489932258
 20
26.84271085080269
 30
0.0
 11
68.7631238047452
 21
26.8179747042259
 31
0.0
  0
LINE
  5
52E
330
1F
100
AcDbEntity
  8
0
  6
SLD-Solid
 62
     7
370
    25
100
AcDbLine
 10
70.85109901595305
 20
25.83284958037011
 30
0.0
 11
70.85109901595276
 21
39.87141108209872
 31
0.0
  0
LINE
  5
52F
330
1F
100
AcDbEntity
  8
0
  6
SLD-Solid
 62
     7
370
    25
100
AcDbLine
 10
69.07781909799996
 20
41.40313988501089
 30
0.0
 11
69.05660589456437
 21
41.39089376333356
 31
0.0
  0
LINE
  5
530
330
1F
100
AcDbEntity
  8
0
  6
SLD-Solid
 62
     7
370
    25
100
AcDbLine
 10
68.609253918639
 20
26.78602079999585
 30
0.0
 11
68.63046712207459
 21
26.77377467831851
 31
0.0
  0
LINE
  5
531
330
1F
100
AcDbEntity
  8
0
  6
SLD-Solid
 62
     7
370
    25
100
AcDbLine
 10
59.21103043164421
 20
24.18300979661124
 30
0.0
 11
59.19800209970175
 21
24.19053089255059
 31
0.0
  0
LINE
  5
532
330
1F
100
AcDbEntity
  8
0
  6
SLD-Solid
 62
     7
370
    25
100
AcDbLine
 10
56.45348433239491
 20
22.82184089114946
 30
0.0
 11
58.27992489286098
 21
21.76745919873782
 31
0.0
  0
LINE
  5
533
330
1F
100
AcDbEntity
  8
0
  6
SLD-Solid
 62
     7
370
    25
100
AcDbLine
 10
58.34220989708678
 20
21.75098263114194
 30
0.0
 11
70.15811251836305
 21
23.60594132763104
 31
0.0
  0
LINE
  5
534
330
1F
100
AcDbEntity
  8
0
  6
SLD-Solid
 62
     7
370
    25
100
AcDbLine
 10
57.06008494170904
 20
25.23256806139991
 30
0.0
 11
56.45065448872979
 21
22.94722017853437
 31
0.0
  0
SPLINE
  5
535
330
1F
100
AcDbEntity
  8
0
  6
SLD-Solid
 62
     7
370
    25
100
AcDbSpline
210
0.0
220
0.0
230
1.0
 70
    12
 71
     3
 72
    11
 73
     7
 74
     0
 42
0.00000001
 43
0.00000001
 40
0.0
 40
0.0
 40
0.0
 40
0.0
 40
0.0645835159311526
 40
0.4707096026498135
 40
0.8943817444847987
 40
1.0
 40
1.0
 40
1.0
 40
1.0
 10
60.49613050457026
 20
24.10814001178287
 30
0.0
 41
1.0
 10
60.49601151202994
 20
24.10833590805022
 30
0.0
 41
1.0
 10
60.49514424844778
 20
24.10976367569084
 30
0.0
 41
1.0
 10
60.49337267986037
 20
24.1201901712378
 30
0.0
 41
1.0
 10
60.49470446537919
 20
24.13303918214545
 30
0.0
 41
1.0
 10
60.49675557151428
 20
24.14124814674645
 30
0.0
 41
1.0
 10
60.49716486337552
 20
24.14288622014639
 30
0.0
 41
1.0
  0
SPLINE
  5
536
330
1F
100
AcDbEntity
  8
0
  6
SLD-Solid
 62
     7
370
    25
100
AcDbSpline
210
0.0
220
0.0
230
1.0
 70
    12
 71
     3
 72
    13
 73
     9
 74
     0
 42
0.00000001
 43
0.00000001
 40
0.0
 40
0.0
 40
0.0
 40
0.0
 40
0.1197514288474806
 40
0.3247571582819715
 40
0.5358161751673723
 40
0.7426737462109692
 40
0.9377636026596966
 40
1.0
 40
1.0
 40
1.0
 40
1.0
 10
60.49716486337552
 20
24.14288622014639
 30
0.0
 41
1.0
 10
60.49848237985561
 20
24.14719955652333
 30
0.0
 41
1.0
 10
60.50205538864709
 20
24.15889701080821
 30
0.0
 41
1.0
 10
60.51223126295925
 20
24.17865919164958
 30
0.0
 41
1.0
 10
60.52766893361213
 20
24.19855255079262
 30
0.0
 41
1.0
 10
60.54381903512399
 20
24.21221286879552
 30
0.0
 41
1.0
 10
60.55580388390162
 20
24.21766968495389
 30
0.0
 41
1.0
 10
60.55857450288811
 20
24.21781242290567
 30
0.0
 41
1.0
 10
60.55924459908537
 20
24.21784694521248
 30
0.0
 41
1.0
  0
LINE
  5
537
330
1F
100
AcDbEntity
  8
0
  6
SLD-Solid
 62
     7
370
    25
100
AcDbLine
 10
57.34469148155048
 20
25.26042433908692
 30
0.0
 11
57.32418538489606
 21
25.27226225670836
 31
0.0
  0
SPLINE
  5
538
330
1F
100
AcDbEntity
  8
0
  6
SLD-Solid
 62
     7
370
    25
100
AcDbSpline
210
0.0
220
0.0
230
1.0
 70
    12
 71
     3
 72
    14
 73
    10
 74
     0
 42
0.00000001
 43
0.00000001
 40
0.0
 40
0.0
 40
0.0
 40
0.0
 40
0.0125894450696394
 40
0.1562704657974492
 40
0.3086283736730785
 40
0.4793530559953109
 40
0.6750757610988216
 40
0.851949885062096
 40
1.0
 40
1.0
 40
1.0
 40
1.0
 10
58.61933292632425
 20
25.17449532578244
 30
0.0
 41
1.0
 10
58.6200735988152
 20
25.17449617346161
 30
0.0
 41
1.0
 10
58.62926743019736
 20
25.17450669554712
 30
0.0
 41
1.0
 10
58.64649979525349
 20
25.18218943017367
 30
0.0
 41
1.0
 10
58.66926938969206
 20
25.1973164350835
 30
0.0
 41
1.0
 10
58.68922170466529
 20
25.22170710225494
 30
0.0
 41
1.0
 10
58.70207428742663
 20
25.25189193396998
 30
0.0
 41
1.0
 10
58.70584824413327
 20
25.28306000827431
 30
0.0
 41
1.0
 10
58.70019584595488
 20
25.30141648217888
 30
0.0
 41
1.0
 10
58.69762035881112
 20
25.30978051830193
 30
0.0
 41
1.0
  0
LINE
  5
539
330
1F
100
AcDbEntity
  8
0
  6
SLD-Solid
 62
     7
370
    25
100
AcDbLine
 10
58.60563992031397
 20
25.17229261324339
 30
0.0
 11
58.61843092936451
 21
25.17403683455208
 31
0.0
  0
LINE
  5
53A
330
1F
100
AcDbEntity
  8
0
  6
SLD-Solid
 62
     7
370
    25
100
AcDbLine
 10
58.69753419957023
 20
25.31106256461646
 30
0.0
 11
58.6926481137148
 21
25.32301155559974
 31
0.0
  0
LINE
  5
53B
330
1F
100
AcDbEntity
  8
0
  6
SLD-Solid
 62
     7
370
    25
100
AcDbLine
 10
70.76610714319497
 20
25.97179179897281
 30
0.0
 11
70.74560104654057
 21
25.98362971659423
 31
0.0
  0
LINE
  5
53C
330
1F
100
AcDbEntity
  8
0
  6
SLD-Solid
 62
     7
370
    25
100
AcDbLine
 10
70.73429569792076
 20
25.64677873028254
 30
0.0
 11
70.72642231088992
 21
25.65064720997799
 31
0.0
  0
LINE
  5
53D
330
1F
100
AcDbEntity
  8
0
  6
SLD-Solid
 62
     7
370
    25
100
AcDbLine
 10
70.25088463112722
 20
23.77481885664267
 30
0.0
 11
70.74881113676769
 21
25.64202992219614
 31
0.0
  0
SPLINE
  5
53E
330
1F
100
AcDbEntity
  8
0
  6
SLD-Solid
 62
     7
370
    25
100
AcDbSpline
210
0.0
220
0.0
230
1.0
 70
    12
 71
     3
 72
     9
 73
     5
 74
     0
 42
0.00000001
 43
0.00000001
 40
0.0
 40
0.0
 40
0.0
 40
0.0
 40
0.4175987650674551
 40
1.0
 40
1.0
 40
1.0
 40
1.0
 10
70.73785577147292
 20
25.64486459799196
 30
0.0
 41
1.0
 10
70.73787390411776
 20
25.64494586767413
 30
0.0
 41
1.0
 10
70.73791732533056
 20
25.6451404795575
 30
0.0
 41
1.0
 10
70.73600098244836
 20
25.6460265392492
 30
0.0
 41
1.0
 10
70.7348849019872
 20
25.64654258150787
 30
0.0
 41
1.0
  0
LWPOLYLINE
  5
53F
330
1F
100
AcDbEntity
  8
0
  6
SLD-Solid
 62
     7
370
    25
100
AcDbPolyline
 90
       17
 70
   128
 43
0.0
 10
68.83692017514849
 20
26.91046092405432
 10
68.83825300210978
 20
26.89137751774249
 10
68.83290523240638
 20
26.86935970400499
 10
68.82169101549795
 20
26.84775949539137
 10
68.80631761425171
 20
26.82986532785667
 10
68.78912548964713
 20
26.81840142619702
 10
68.77273198680828
 20
26.81511306551958
 10
68.75963286793493
 20
26.82050086892841
 10
68.75182235513168
 20
26.8337445921951
 10
68.75048952817039
 20
26.85282799850692
 10
68.75583729787381
 20
26.87484581224443
 10
68.76705151478222
 20
26.89644602085805
 10
68.78242491602848
 20
26.91434018839275
 10
68.79961704063304
 20
26.9258040900524
 10
68.81601054347189
 20
26.92909245072984
 10
68.82910966234525
 20
26.923704647321
 10
68.83692017514849
 20
26.91046092405432
  0
LWPOLYLINE
  5
540
330
1F
100
AcDbEntity
  8
0
  6
SLD-Solid
 62
     7
370
    25
100
AcDbPolyline
 90
       19
 70
   128
 43
0.0
 10
70.67864680419405
 20
25.69406858995303
 10
70.70834493097841
 20
25.72154433344864
 10
70.73319207191798
 20
25.75732594561184
 10
70.7501912951107
 20
25.79709763593538
 10
70.7572922433577
 20
25.83606235159862
 10
70.75363843750156
 20
25.86952037283461
 10
70.739670580453
 20
25.89343616849449
 10
70.71707340191563
 20
25.90492514066213
 10
70.68857245511992
 20
25.90260154973492
 10
70.65760537487863
 20
25.88674565507126
 10
70.62790724809426
 20
25.85926991157565
 10
70.60306010715469
 20
25.82348829941245
 10
70.58606088396198
 20
25.78371660908891
 10
70.57895993571498
 20
25.74475189342567
 10
70.5826137415711
 20
25.71129387218968
 10
70.59658159861968
 20
25.6873780765298
 10
70.61917877715705
 20
25.67588910436217
 10
70.64767972395275
 20
25.67821269528937
 10
70.67864680419405
 20
25.69406858995303
  0
LWPOLYLINE
  5
541
330
1F
100
AcDbEntity
  8
0
  6
SLD-Solid
 62
     7
370
    25
100
AcDbPolyline
 90
        7
 70
   128
 43
0.0
 10
70.59195581429395
 20
25.69259165837787
 10
70.58028470147279
 20
25.71402295788751
 10
70.57667027117256
 20
25.7471204158541
 10
70.58369469543454
 20
25.78566522487757
 10
70.6005107250233
 20
25.82500831212888
 10
70.62509009859225
 20
25.8604043206434
 10
70.65446818093608
 20
25.88758396940483
  0
LWPOLYLINE
  5
542
330
1F
100
AcDbEntity
  8
0
  6
SLD-Solid
 62
     7
370
    25
100
AcDbPolyline
 90
       17
 70
   128
 43
0.0
 10
69.27466430700642
 20
39.12575969808333
 10
69.24936338932457
 20
39.13455407067721
 10
69.22791430700642
 20
39.13038650718821
 10
69.21358248839844
 20
39.11389148137846
 10
69.20854982296547
 20
39.08758021139972
 10
69.21358248839844
 20
39.055458349594
 10
69.22791430700642
 20
39.02241615823581
 10
69.24936338932457
 20
38.99348401143124
 10
69.27466430700642
 20
38.9730665662607
 10
69.29996522468825
 20
38.96427219366682
 10
69.3214143070064
 20
38.96843975715582
 10
69.33574612561438
 20
38.98493478296557
 10
69.34077879104736
 20
39.01124605294431
 10
69.33574612561438
 20
39.04336791475003
 10
69.3214143070064
 20
39.07641010610821
 10
69.29996522468824
 20
39.10534225291279
 10
69.27466430700642
 20
39.12575969808333
  0
LWPOLYLINE
  5
543
330
1F
100
AcDbEntity
  8
0
  6
SLD-Solid
 62
     7
370
    25
100
AcDbPolyline
 90
       17
 70
   128
 43
0.0
 10
69.27466430700662
 20
28.71486434654003
 10
69.2493633893248
 20
28.72365871913391
 10
69.22791430700663
 20
28.71949115564491
 10
69.21358248839866
 20
28.70299612983516
 10
69.2085498229657
 20
28.67668485985642
 10
69.21358248839866
 20
28.6445629980507
 10
69.22791430700663
 20
28.61152080669251
 10
69.2493633893248
 20
28.58258865988793
 10
69.27466430700663
 20
28.5621712147174
 10
69.29996522468846
 20
28.55337684212351
 10
69.32141430700663
 20
28.55754440561251
 10
69.3357461256146
 20
28.57403943142226
 10
69.34077879104757
 20
28.600350701401
 10
69.3357461256146
 20
28.63247256320673
 10
69.32141430700663
 20
28.66551475456491
 10
69.29996522468846
 20
28.69444690136949
 10
69.27466430700662
 20
28.71486434654003
  0
LINE
  5
544
330
1F
100
AcDbEntity
  8
0
  6
SLD-Solid
 62
     7
370
    25
100
AcDbLine
 10
68.98616474026863
 20
26.89213459020725
 30
0.0
 11
68.98616474026868
 21
26.87130092672951
 31
0.0
  0
LINE
  5
545
330
1F
100
AcDbEntity
  8
0
  6
SLD-Solid
 62
     7
370
    25
100
AcDbLine
 10
68.96566646511283
 20
26.90396799257364
 30
0.0
 11
68.98616474026863
 21
26.89213459020725
 31
0.0
  0
LINE
  5
546
330
1F
100
AcDbEntity
  8
0
  6
SLD-Solid
 62
     7
370
    25
100
AcDbLine
 10
68.96566646511253
 20
40.94252949430226
 30
0.0
 11
68.96566646511283
 21
26.90396799257364
 31
0.0
  0
LINE
  5
547
330
1F
100
AcDbEntity
  8
0
  6
SLD-Solid
 62
     7
370
    25
100
AcDbLine
 10
68.98630616112348
 20
40.93061445141395
 30
0.0
 11
68.96566646511253
 21
40.94252949430226
 31
0.0
  0
LINE
  5
548
330
1F
100
AcDbEntity
  8
0
  6
SLD-Solid
 62
     7
370
    25
100
AcDbLine
 10
68.98630616112348
 20
40.93077775957632
 30
0.0
 11
68.98630616112348
 21
40.93061445141395
 31
0.0
  0
LINE
  5
549
330
1F
100
AcDbEntity
  8
0
  6
SLD-Solid
 62
     7
370
    25
100
AcDbLine
 10
69.03071246770581
 20
40.90514254444725
 30
0.0
 11
68.98630616112348
 21
40.93077775957632
 31
0.0
  0
LINE
  5
54A
330
1F
100
AcDbEntity
  8
0
  6
SLD-Solid
 62
     7
370
    25
100
AcDbLine
 10
69.0307124677058
 20
41.33366316252488
 30
0.0
 11
69.03071246770581
 21
40.90514254444725
 31
0.0
  0
ARC
  5
54B
330
1F
100
AcDbEntity
  8
0
  6
SLD-Solid
 62
     7
370
    25
100
AcDbCircle
 10
69.08459676363412
 20
41.34240406213746
 30
0.0
 40
0.0545886496785643
100
AcDbArc
 50
50.79671476429588
 51
189.2140369904604
  0
LINE
  5
54C
330
1F
100
AcDbEntity
  8
0
  6
SLD-Solid
 62
     7
370
    25
100
AcDbLine
 10
70.66766466615269
 20
40.49073837457586
 30
0.0
 11
69.11910081535412
 21
41.38470525702169
 31
0.0
  0
ARC
  5
54D
330
1F
100
AcDbEntity
  8
0
  6
SLD-Solid
 62
     7
370
    25
100
AcDbCircle
 10
70.56415100113003
 20
40.32891265956862
 30
0.0
 40
0.1921006009465512
100
AcDbArc
 50
2.605478485662911
 51
57.39452165996757
  0
LINE
  5
54E
330
1F
100
AcDbEntity
  8
0
  6
SLD-Solid
 62
     7
370
    25
100
AcDbLine
 10
70.75605301380101
 20
39.90912464802359
 30
0.0
 11
70.75605301380101
 21
40.33764526610123
 31
0.0
  0
LINE
  5
54F
330
1F
100
AcDbEntity
  8
0
  6
SLD-Solid
 62
     7
370
    25
100
AcDbLine
 10
70.80045931965954
 20
39.88348943331236
 30
0.0
 11
70.75605301380101
 21
39.90912464802359
 31
0.0
  0
LINE
  5
550
330
1F
100
AcDbEntity
  8
0
  6
SLD-Solid
 62
     7
370
    25
100
AcDbLine
 10
70.80045931965954
 20
39.88332612514998
 30
0.0
 11
70.80045931965954
 21
39.88348943331236
 31
0.0
  0
LINE
  5
551
330
1F
100
AcDbEntity
  8
0
  6
SLD-Solid
 62
     7
370
    25
100
AcDbLine
 10
70.82109901595275
 20
39.87141108209872
 30
0.0
 11
70.80045931965954
 21
39.88332612514998
 31
0.0
  0
LWPOLYLINE
  5
552
330
1F
100
AcDbEntity
  8
0
  6
SLD-Solid
 62
     7
370
    25
100
AcDbPolyline
 90
       17
 70
   128
 43
0.0
 10
70.65075701897179
 20
38.2828917397159
 10
70.67240486297763
 20
38.29041633658767
 10
70.69075701897178
 20
38.28685050686446
 10
70.70301953756683
 20
38.2727371157973
 10
70.7073255614667
 20
38.25022479923795
 10
70.70301953756685
 20
38.22274085330792
 10
70.69075701897178
 20
38.19446945963247
 10
70.67240486297764
 20
38.16971468161785
 10
70.65075701897179
 20
38.15224520981418
 10
70.62910917496595
 20
38.14472061294241
 10
70.61075701897178
 20
38.14828644266562
 10
70.59849450037673
 20
38.16239983373278
 10
70.59418847647687
 20
38.18491215029213
 10
70.59849450037673
 20
38.21239609622216
 10
70.61075701897178
 20
38.24066748989762
 10
70.62910917496593
 20
38.26542226791223
 10
70.65075701897179
 20
38.2828917397159
  0
LINE
  5
553
330
1F
100
AcDbEntity
  8
0
  6
SLD-Solid
 62
     7
370
    25
100
AcDbLine
 10
70.84231221938866
 20
25.82060345869276
 30
0.0
 11
70.82753371422689
 21
25.81207200925991
 31
0.0
  0
LINE
  5
554
330
1F
100
AcDbEntity
  8
0
  6
SLD-Solid
 62
     7
370
    25
100
AcDbLine
 10
70.82753371422689
 20
25.81207200925991
 30
0.0
 11
70.82753371422689
 21
25.78571802625651
 31
0.0
  0
LINE
  5
555
330
1F
100
AcDbEntity
  8
0
  6
SLD-Solid
 62
     7
370
    25
100
AcDbLine
 10
70.82753371422689
 20
25.78571802625651
 30
0.0
 11
70.75059755460722
 21
25.74130372669298
 31
0.0
  0
LINE
  5
556
330
1F
100
AcDbEntity
  8
0
  6
SLD-Solid
 62
     7
370
    25
100
AcDbLine
 10
70.4294325964189
 20
25.94416790050336
 30
0.0
 11
70.42943259641862
 21
39.51874702602465
 31
0.0
  0
ARC
  5
557
330
1F
100
AcDbEntity
  8
0
  6
SLD-Solid
 62
     7
370
    25
100
AcDbCircle
 10
70.62133460908962
 20
39.51001441949224
 30
0.0
 40
0.1921006009465563
100
AcDbArc
 50
122.6054783400571
 51
177.3945215143966
  0
LINE
  5
558
330
1F
100
AcDbEntity
  8
0
  6
SLD-Solid
 62
     7
370
    25
100
AcDbLine
 10
70.51782094406688
 20
39.67184013449943
 30
0.0
 11
70.84231221938836
 21
39.85916496042138
 31
0.0
  0
LINE
  5
559
330
1F
100
AcDbEntity
  8
0
  6
SLD-Solid
 62
     7
370
    25
100
AcDbLine
 10
70.84231221938836
 20
39.85916496042138
 30
0.0
 11
70.84231221938866
 21
25.82060345869276
 31
0.0
  0
LINE
  5
55A
330
1F
100
AcDbEntity
  8
0
  6
SLD-Solid
 62
     7
370
    25
100
AcDbLine
 10
70.51782094406688
 20
39.67184013449943
 30
0.0
 11
70.49660774063129
 21
39.68408625617678
 31
0.0
  0
LINE
  5
55B
330
1F
100
AcDbEntity
  8
0
  6
SLD-Solid
 62
     7
370
    25
100
AcDbLine
 10
70.42943259641862
 20
39.51874702602465
 30
0.0
 11
70.40821939298303
 21
39.53099314770199
 31
0.0
  0
ARC
  5
55C
330
1F
100
AcDbEntity
  8
0
  6
SLD-Solid
 62
     7
370
    25
100
AcDbCircle
 10
70.60012140565402
 20
39.52226054116958
 30
0.0
 40
0.1921006009465581
100
AcDbArc
 50
122.605478340056
 51
177.3945215143944
  0
LINE
  5
55D
330
1F
100
AcDbEntity
  8
0
  6
SLD-Solid
 62
     7
370
    25
100
AcDbLine
 10
70.68887786958832
 20
40.50298449625318
 30
0.0
 11
70.66766466615269
 21
40.49073837457586
 31
0.0
  0
LINE
  5
55E
330
1F
100
AcDbEntity
  8
0
  6
SLD-Solid
 62
     7
370
    25
100
AcDbLine
 10
70.7772662172366
 20
40.34989138777856
 30
0.0
 11
70.75605301380101
 21
40.33764526610123
 31
0.0
  0
ARC
  5
55F
330
1F
100
AcDbEntity
  8
0
  6
SLD-Solid
 62
     7
370
    25
100
AcDbCircle
 10
70.58536420456561
 20
40.34115878124597
 30
0.0
 40
0.192100600946565
100
AcDbArc
 50
2.605478485660601
 51
57.39452165994986
  0
LINE
  5
560
330
1F
100
AcDbEntity
  8
0
  6
SLD-Solid
 62
     7
370
    25
100
AcDbLine
 10
70.4082193929833
 20
25.94083767534372
 30
0.0
 11
70.40821939298303
 21
39.53099314770199
 31
0.0
  0
LINE
  5
561
330
1F
100
AcDbEntity
  8
0
  6
SLD-Solid
 62
     7
370
    25
100
AcDbLine
 10
70.84231221938836
 20
39.85916496042138
 30
0.0
 11
70.82109901595275
 21
39.87141108209872
 31
0.0
  0
LINE
  5
562
330
1F
100
AcDbEntity
  8
0
  6
SLD-Solid
 62
     7
370
    25
100
AcDbLine
 10
70.49660774063129
 20
39.68408625617678
 30
0.0
 11
70.82109901595275
 21
39.87141108209872
 31
0.0
  0
LINE
  5
563
330
1F
100
AcDbEntity
  8
0
  6
SLD-Solid
 62
     7
370
    25
100
AcDbLine
 10
70.77726621723666
 20
39.92137076970091
 30
0.0
 11
70.75605301380101
 21
39.90912464802359
 31
0.0
  0
LINE
  5
564
330
1F
100
AcDbEntity
  8
0
  6
SLD-Solid
 62
     7
370
    25
100
AcDbLine
 10
70.77726621723666
 20
39.92137076970091
 30
0.0
 11
70.7772662172366
 21
40.34989138777856
 31
0.0
  0
LINE
  5
565
330
1F
100
AcDbEntity
  8
0
  6
SLD-Solid
 62
     7
370
    25
100
AcDbLine
 10
69.14031401878975
 20
41.396951378699
 30
0.0
 11
69.11910081535412
 21
41.38470525702169
 31
0.0
  0
LINE
  5
566
330
1F
100
AcDbEntity
  8
0
  6
SLD-Solid
 62
     7
370
    25
100
AcDbLine
 10
70.68887786958832
 20
40.50298449625318
 30
0.0
 11
69.14031401878975
 21
41.396951378699
 31
0.0
  0
LINE
  5
567
330
1F
100
AcDbEntity
  8
0
  6
SLD-Solid
 62
     7
370
    25
100
AcDbLine
 10
70.8423122193884
 20
39.88365720377603
 30
0.0
 11
70.82109901595275
 21
39.87141108209872
 31
0.0
  0
ARC
  5
568
330
1F
100
AcDbEntity
  8
0
  6
SLD-Solid
 62
     7
370
    25
100
AcDbCircle
 10
70.8376644085845
 20
39.87141108209872
 30
0.0
 40
0.0130984595050179
100
AcDbArc
 50
290.7834207994104
 51
69.21657920038295
  0
ARC
  5
569
330
1F
100
AcDbEntity
  8
0
  6
SLD-Solid
 62
     7
370
    25
100
AcDbCircle
 10
70.83608530407832
 20
25.83434677167709
 30
0.0
 40
0.0150881783548377
100
AcDbArc
 50
294.3746582936403
 51
354.3052007487175
  0
LINE
  5
56A
330
1F
100
AcDbEntity
  8
0
  6
SLD-Solid
 62
     7
370
    25
100
AcDbLine
 10
70.82167252309517
 20
39.89557224682729
 30
0.0
 11
70.80045931965954
 21
39.88332612514998
 31
0.0
  0
LINE
  5
56B
330
1F
100
AcDbEntity
  8
0
  6
SLD-Solid
 62
     7
370
    25
100
AcDbLine
 10
70.8423122193884
 20
39.88365720377603
 30
0.0
 11
70.82167252309517
 21
39.89557224682729
 31
0.0
  0
LINE
  5
56C
330
1F
100
AcDbEntity
  8
0
  6
SLD-Solid
 62
     7
370
    25
100
AcDbLine
 10
70.82167252309517
 20
39.89573555498968
 30
0.0
 11
70.80045931965954
 21
39.88348943331236
 31
0.0
  0
LINE
  5
56D
330
1F
100
AcDbEntity
  8
0
  6
SLD-Solid
 62
     7
370
    25
100
AcDbLine
 10
70.82167252309517
 20
39.89557224682729
 30
0.0
 11
70.82167252309517
 21
39.89573555498968
 31
0.0
  0
LINE
  5
56E
330
1F
100
AcDbEntity
  8
0
  6
SLD-Solid
 62
     7
370
    25
100
AcDbLine
 10
70.82167252309517
 20
39.89573555498968
 30
0.0
 11
70.77726621723666
 21
39.92137076970091
 31
0.0
  0
LWPOLYLINE
  5
56F
330
1F
100
AcDbEntity
  8
0
  6
SLD-Solid
 62
     7
370
    25
100
AcDbPolyline
 90
        9
 70
   128
 43
0.0
 10
70.67871564145756
 20
38.29049570170078
 10
70.68180633413124
 20
38.28498323747463
 10
70.68611235803111
 20
38.26247092091529
 10
70.68180633413124
 20
38.23498697498525
 10
70.66954381553619
 20
38.2067155813098
 10
70.65119165954204
 20
38.18196080329519
 10
70.6295438155362
 20
38.16449133149153
 10
70.60789597153034
 20
38.15696673461975
 10
70.60158519304986
 20
38.15688736950698
  0
ARC
  5
570
330
1F
100
AcDbEntity
  8
0
  6
SLD-Solid
 62
     7
370
    25
100
AcDbCircle
 10
69.10369901193339
 20
41.34584121255917
 30
0.0
 40
0.0628721544877585
100
AcDbArc
 50
54.38242252476988
 51
114.3071190460744
  0
LINE
  5
571
330
1F
100
AcDbEntity
  8
0
  6
SLD-Solid
 62
     7
370
    25
100
AcDbLine
 10
68.53157363806302
 20
40.61435768121098
 30
0.0
 11
68.55278684149862
 21
40.60211155953365
 31
0.0
  0
ARC
  5
572
330
1F
100
AcDbEntity
  8
0
  6
SLD-Solid
 62
     7
370
    25
100
AcDbCircle
 10
68.72347565073365
 20
40.60562507467865
 30
0.0
 40
0.1921006009461915
100
AcDbArc
 50
122.6054783399951
 51
177.3945215144127
  0
LINE
  5
573
330
1F
100
AcDbEntity
  8
0
  6
SLD-Solid
 62
     7
370
    25
100
AcDbLine
 10
68.61996198571129
 20
40.76745078968565
 30
0.0
 11
68.64117518914688
 21
40.75520466800831
 31
0.0
  0
ARC
  5
574
330
1F
100
AcDbEntity
  8
0
  6
SLD-Solid
 62
     7
370
    25
100
AcDbCircle
 10
68.74468885416933
 20
40.59337895300127
 30
0.0
 40
0.1921006009462733
100
AcDbArc
 50
122.6054783400097
 51
177.3945215144012
  0
LWPOLYLINE
  5
575
330
1F
100
AcDbEntity
  8
0
  6
SLD-Solid
 62
     7
370
    25
100
AcDbPolyline
 90
       17
 70
   128
 43
0.0
 10
68.77411126471992
 20
39.36625627361058
 10
68.75246342071407
 20
39.34878680180692
 10
68.73411126471993
 20
39.3240320237923
 10
68.72184874612486
 20
39.29576063011685
 10
68.71754272222499
 20
39.26827668418682
 10
68.72184874612486
 20
39.24576436762747
 10
68.73411126471993
 20
39.2316509765603
 10
68.75246342071407
 20
39.2280851468371
 10
68.77411126471992
 20
39.23560974370887
 10
68.79575910872576
 20
39.25307921551254
 10
68.81411126471991
 20
39.27783399352715
 10
68.82637378331496
 20
39.30610538720261
 10
68.83067980721484
 20
39.33358933313264
 10
68.82637378331496
 20
39.35610164969198
 10
68.81411126471991
 20
39.37021504075914
 10
68.79575910872576
 20
39.37378087048236
 10
68.77411126471992
 20
39.36625627361058
  0
LWPOLYLINE
  5
576
330
1F
100
AcDbEntity
  8
0
  6
SLD-Solid
 62
     7
370
    25
100
AcDbPolyline
 90
        9
 70
   128
 43
0.0
 10
68.76491887656475
 20
26.94463003534905
 10
68.74651820915977
 20
26.92978098431593
 10
68.73091887656476
 20
26.90873942300351
 10
68.72049573575896
 20
26.88470873837937
 10
68.71683561544407
 20
26.86134738433885
 10
68.72049573575896
 20
26.8422119152634
 10
68.73091887656476
 20
26.83021553285631
 10
68.74651820915979
 20
26.82718457759158
 10
68.74706793301716
 20
26.82724356168132
  0
LWPOLYLINE
  5
577
330
1F
100
AcDbEntity
  8
0
  6
SLD-Solid
 62
     7
370
    25
100
AcDbPolyline
 90
        5
 70
   128
 43
0.0
 10
68.80956285380695
 20
26.93549966947889
 10
68.80934201737055
 20
26.93599860501824
 10
68.79891887656476
 20
26.94799498742533
 10
68.78331954396972
 20
26.95102594269006
 10
68.76491887656475
 20
26.94463003534905
  0
LINE
  5
578
330
1F
100
AcDbEntity
  8
0
  6
SLD-Solid
 62
     7
370
    25
100
AcDbLine
 10
68.95088795930687
 20
26.8954365427689
 30
0.0
 11
68.96566646511283
 21
26.90396799257364
 31
0.0
  0
LINE
  5
579
330
1F
100
AcDbEntity
  8
0
  6
SLD-Solid
 62
     7
370
    25
100
AcDbLine
 10
68.95088795930688
 20
26.86908255976551
 30
0.0
 11
68.95088795930687
 21
26.8954365427689
 31
0.0
  0
LINE
  5
57A
330
1F
100
AcDbEntity
  8
0
  6
SLD-Solid
 62
     7
370
    25
100
AcDbLine
 10
68.81795188444386
 20
26.79234019725411
 30
0.0
 11
68.95088795930688
 21
26.86908255976551
 31
0.0
  0
LWPOLYLINE
  5
57B
330
1F
100
AcDbEntity
  8
0
  6
SLD-Solid
 62
     7
370
    25
100
AcDbPolyline
 90
        9
 70
   128
 43
0.0
 10
68.5527868414989
 20
26.9454664807445
 10
68.55788191344595
 20
26.88867059944794
 10
68.57297132852955
 20
26.83993999687256
 10
68.59747520899022
 20
26.8011473627469
 10
68.63045188444386
 20
26.77378347624524
 10
68.67063407974626
 20
26.75889991618001
 10
68.71647761566642
 20
26.7570686494177
 10
68.76622075082828
 20
26.76836005051302
 10
68.81795188444386
 20
26.79234019725411
  0
LINE
  5
57C
330
1F
100
AcDbEntity
  8
0
  6
SLD-Solid
 62
     7
370
    25
100
AcDbLine
 10
68.55278684149862
 20
40.60211155953365
 30
0.0
 11
68.5527868414989
 21
26.9454664807445
 31
0.0
  0
LINE
  5
57D
330
1F
100
AcDbEntity
  8
0
  6
SLD-Solid
 62
     7
370
    25
100
AcDbLine
 10
68.96566646511253
 20
40.94252949430226
 30
0.0
 11
68.64117518914688
 21
40.75520466800831
 31
0.0
  0
LINE
  5
57E
330
1F
100
AcDbEntity
  8
0
  6
SLD-Solid
 62
     7
370
    25
100
AcDbLine
 10
68.5315736380633
 20
26.95771260242185
 30
0.0
 11
68.5527868414989
 21
26.9454664807445
 31
0.0
  0
LINE
  5
57F
330
1F
100
AcDbEntity
  8
0
  6
SLD-Solid
 62
     7
370
    25
100
AcDbLine
 10
68.53157363806302
 20
40.61435768121098
 30
0.0
 11
68.5315736380633
 21
26.95771260242185
 31
0.0
  0
LINE
  5
580
330
1F
100
AcDbEntity
  8
0
  6
SLD-Solid
 62
     7
370
    25
100
AcDbLine
 10
68.94445326167694
 20
40.9547756159796
 30
0.0
 11
68.96566646511253
 21
40.94252949430226
 31
0.0
  0
LINE
  5
581
330
1F
100
AcDbEntity
  8
0
  6
SLD-Solid
 62
     7
370
    25
100
AcDbLine
 10
68.94445326167694
 20
40.9547756159796
 30
0.0
 11
68.61996198571129
 21
40.76745078968565
 31
0.0
  0
LINE
  5
582
330
1F
100
AcDbEntity
  8
0
  6
SLD-Solid
 62
     7
370
    25
100
AcDbLine
 10
69.00751936455913
 20
40.94302388125364
 30
0.0
 11
68.98630616112348
 21
40.93077775957632
 31
0.0
  0
LINE
  5
583
330
1F
100
AcDbEntity
  8
0
  6
SLD-Solid
 62
     7
370
    25
100
AcDbLine
 10
69.03071246770581
 20
40.92963478780194
 30
0.0
 11
69.00751936455913
 21
40.94302388125364
 31
0.0
  0
LINE
  5
584
330
1F
100
AcDbEntity
  8
0
  6
SLD-Solid
 62
     7
370
    25
100
AcDbLine
 10
68.98687966854818
 20
40.95477561597957
 30
0.0
 11
68.96566646511253
 21
40.94252949430226
 31
0.0
  0
LINE
  5
585
330
1F
100
AcDbEntity
  8
0
  6
SLD-Solid
 62
     7
370
    25
100
AcDbLine
 10
69.00737792021607
 20
40.94294222717245
 30
0.0
 11
68.98687966854818
 21
40.95477561597957
 31
0.0
  0
ARC
  5
586
330
1F
100
AcDbEntity
  8
0
  6
SLD-Solid
 62
     7
370
    25
100
AcDbCircle
 10
68.96566646511253
 20
40.91383428343087
 30
0.0
 40
0.0461106572374103
100
AcDbArc
 50
62.60967223656197
 51
117.3903277633591
  0
LWPOLYLINE
  5
587
330
1F
100
AcDbEntity
  8
0
  6
SLD-Solid
 62
     7
370
    25
100
AcDbPolyline
 90
        9
 70
   128
 43
0.0
 10
68.72493943879822
 20
39.24025190340165
 10
68.73125021727847
 20
39.24033126851443
 10
68.75289806128433
 20
39.24785586538621
 10
68.77454590529017
 20
39.26532533718987
 10
68.79289806128432
 20
39.29008011520449
 10
68.80516057987937
 20
39.31835150887994
 10
68.80946660377924
 20
39.34583545480997
 10
68.80516057987937
 20
39.36834777136932
 10
68.80206988720582
 20
39.37386023559525
  0
LWPOLYLINE
  5
588
330
1F
100
AcDbEntity
  8
0
  6
SLD-Solid
 62
     7
370
    25
100
AcDbPolyline
 90
        9
 70
   128
 43
0.0
 10
69.23974351205469
 20
39.13440050229102
 10
69.23479569183408
 20
39.12613760305577
 10
69.22976302640112
 20
39.09982633307703
 10
69.2347956918341
 20
39.06770447127131
 10
69.24912751044207
 20
39.03466227991313
 10
69.27057659276022
 20
39.00573013310855
 10
69.29587751044205
 20
38.98531268793801
 10
69.32117842812389
 20
38.97651831534412
 10
69.33079830539386
 20
38.97667188373037
  0
LWPOLYLINE
  5
589
330
1F
100
AcDbEntity
  8
0
  6
SLD-Solid
 62
     7
370
    25
100
AcDbPolyline
 90
        9
 70
   128
 43
0.0
 10
69.23974351205477
 20
28.72350515074764
 10
69.23479569183425
 20
28.7152422515125
 10
69.22976302640129
 20
28.68893098153377
 10
69.23479569183425
 20
28.65680911972805
 10
69.24912751044222
 20
28.62376692836985
 10
69.27057659276039
 20
28.59483478156528
 10
69.29587751044222
 20
28.57441733639474
 10
69.32117842812406
 20
28.56562296380086
 10
69.33079830539401
 20
28.56577653218709
  0
LINE
  5
58A
330
1F
100
AcDbEntity
  8
0
  6
SLD-Solid
 62
     7
370
    25
100
AcDbLine
 10
69.17065913950653
 20
26.16281008515152
 30
0.0
 11
69.7375507394084
 21
25.83555053044365
 31
0.0
  0
ARC
  5
58B
330
1F
100
AcDbEntity
  8
0
  6
SLD-Solid
 62
     7
370
    25
100
AcDbCircle
 10
69.26824392880617
 20
26.32303076131879
 30
0.0
 40
0.1875991902278696
100
AcDbArc
 50
187.5492486088568
 51
238.655873040146
  0
LINE
  5
58C
330
1F
100
AcDbEntity
  8
0
  6
SLD-Solid
 62
     7
370
    25
100
AcDbLine
 10
68.99531919304465
 20
26.83335609583357
 30
0.0
 11
69.08227079183614
 21
26.29838429098982
 31
0.0
  0
LINE
  5
58D
330
1F
100
AcDbEntity
  8
0
  6
SLD-Solid
 62
     7
370
    25
100
AcDbLine
 10
68.99531919304465
 20
26.83335609583357
 30
0.0
 11
68.98495013274213
 21
26.86113116273777
 31
0.0
  0
ARC
  5
58E
330
1F
100
AcDbEntity
  8
0
  6
SLD-Solid
 62
     7
370
    25
100
AcDbCircle
 10
68.94012082817788
 20
26.87164268457506
 30
0.0
 40
0.0460451804106559
100
AcDbArc
 50
346.8037514382222
 51
359.5747337336417
  0
LINE
  5
58F
330
1F
100
AcDbEntity
  8
0
  6
SLD-Solid
 62
     7
370
    25
100
AcDbLine
 10
69.18565913950657
 20
26.15414795447681
 30
0.0
 11
69.17065913950653
 21
26.16281008515152
 31
0.0
  0
LINE
  5
590
330
1F
100
AcDbEntity
  8
0
  6
SLD-Solid
 62
     7
370
    25
100
AcDbLine
 10
69.18565913950657
 20
26.15414795447681
 30
0.0
 11
69.73754690570925
 21
25.83554992859766
 31
0.0
  0
ARC
  5
591
330
1F
100
AcDbEntity
  8
0
  6
SLD-Solid
 62
     7
370
    25
100
AcDbCircle
 10
68.70995572155442
 20
26.93500109170941
 30
0.0
 40
0.1798220799275587
100
AcDbArc
 50
172.744170442483
 51
235.9436491641262
  0
LWPOLYLINE
  5
592
330
1F
100
AcDbEntity
  8
0
  6
SLD-Solid
 62
     7
370
    25
100
AcDbPolyline
 90
        3
 70
   128
 43
0.0
 10
68.72201136649458
 20
26.83927544397215
 10
68.7253050057242
 20
26.8394306992689
 10
68.7258547295816
 20
26.83948968335864
  0
LWPOLYLINE
  5
593
330
1F
100
AcDbEntity
  8
0
  6
SLD-Solid
 62
     7
370
    25
100
AcDbPolyline
 90
        3
 70
   128
 43
0.0
 10
68.78834965037134
 20
26.94774579115623
 10
68.78812881393496
 20
26.94824472669555
 10
68.78661318319898
 20
26.951181197987
  0
ARC
  5
594
330
1F
100
AcDbEntity
  8
0
  6
SLD-Solid
 62
     7
370
    25
100
AcDbCircle
 10
58.95860614026614
 20
24.28717987247629
 30
0.0
 40
0.1398697793711693
100
AcDbArc
 50
240.5729936059514
 51
274.4412280402829
  0
ARC
  5
595
330
1F
100
AcDbEntity
  8
0
  6
SLD-Solid
 62
     7
370
    25
100
AcDbCircle
 10
58.35233431355454
 20
22.01083057871713
 30
0.0
 40
0.1492686123389551
100
AcDbArc
 50
241.214036395922
 51
268.2398610307855
  0
LINE
  5
596
330
1F
100
AcDbEntity
  8
0
  6
SLD-Solid
 62
     7
370
    25
100
AcDbLine
 10
58.28045565809195
 20
21.88000788374991
 30
0.0
 11
58.8898861110712
 21
24.16535576661548
 31
0.0
  0
LINE
  5
597
330
1F
100
AcDbEntity
  8
0
  6
SLD-Solid
 62
     7
370
    25
100
AcDbLine
 10
58.90915553877847
 20
24.16838084168995
 30
0.0
 11
58.8898861110712
 21
24.16535576661548
 31
0.0
  0
ARC
  5
598
330
1F
100
AcDbEntity
  8
0
  6
SLD-Solid
 62
     7
370
    25
100
AcDbCircle
 10
58.94351555337607
 20
24.22929289462072
 30
0.0
 40
0.0699348896859615
100
AcDbArc
 50
240.5729936060085
 51
274.441228040148
  0
LINE
  5
599
330
1F
100
AcDbEntity
  8
0
  6
SLD-Solid
 62
     7
370
    25
100
AcDbLine
 10
58.94893106314014
 20
24.15956799914297
 30
0.0
 11
58.96943715979455
 21
24.14773008152157
 31
0.0
  0
LINE
  5
59A
330
1F
100
AcDbEntity
  8
0
  6
SLD-Solid
 62
     7
370
    25
100
AcDbLine
 10
70.22334579522462
 20
23.76412372046106
 30
0.0
 11
70.19012955874508
 21
23.63956372293518
 31
0.0
  0
LINE
  5
59B
330
1F
100
AcDbEntity
  8
0
  6
SLD-Solid
 62
     7
370
    25
100
AcDbLine
 10
58.3742269374688
 20
21.78460502644609
 30
0.0
 11
70.19012955874508
 21
23.63956372293518
 31
0.0
  0
LINE
  5
59C
330
1F
100
AcDbEntity
  8
0
  6
SLD-Solid
 62
     7
370
    25
100
AcDbLine
 10
58.37609784292458
 20
21.79162087181701
 30
0.0
 11
58.3742269374688
 21
21.78460502644609
 31
0.0
  0
LINE
  5
59D
330
1F
100
AcDbEntity
  8
0
  6
SLD-Solid
 62
     7
370
    25
100
AcDbLine
 10
58.35172202893813
 20
21.78779415374157
 30
0.0
 11
58.37609784292458
 21
21.79162087181701
 31
0.0
  0
LINE
  5
59E
330
1F
100
AcDbEntity
  8
0
  6
SLD-Solid
 62
     7
370
    25
100
AcDbLine
 10
58.35172202893813
 20
21.78779415374157
 30
0.0
 11
58.97662226727067
 21
24.13115331752151
 31
0.0
  0
LINE
  5
59F
330
1F
100
AcDbEntity
  8
0
  6
SLD-Solid
 62
     7
370
    25
100
AcDbLine
 10
58.97662226727067
 20
24.13115331752151
 30
0.0
 11
70.73384281773622
 21
25.97689961432629
 31
0.0
  0
LWPOLYLINE
  5
5A0
330
1F
100
AcDbEntity
  8
0
  6
SLD-Solid
 62
     7
370
    25
100
AcDbPolyline
 90
        9
 70
   128
 43
0.0
 10
70.73384281773622
 20
25.97689961432629
 10
70.74946573349817
 20
25.97726516380642
 10
70.76332652454376
 20
25.97326015343355
 10
70.77489252844633
 20
25.96503849351028
 10
70.7837192701622
 20
25.95291613781671
 10
70.78946754295731
 20
25.93735894168383
 10
70.79191644393184
 20
25.91896475943447
 10
70.79097186319467
 20
25.89844046917688
 10
70.78667010045382
 20
25.87657480787551
  0
LINE
  5
5A1
330
1F
100
AcDbEntity
  8
0
  6
SLD-Solid
 62
     7
370
    25
100
AcDbLine
 10
70.78667010045382
 20
25.87657480787551
 30
0.0
 11
70.72620890979182
 21
25.64984696157339
 31
0.0
  0
LINE
  5
5A2
330
1F
100
AcDbEntity
  8
0
  6
SLD-Solid
 62
     7
370
    25
100
AcDbLine
 10
70.72620890979182
 20
25.64984696157339
 30
0.0
 11
70.73678560192442
 21
25.64456305905804
 31
0.0
  0
LINE
  5
5A3
330
1F
100
AcDbEntity
  8
0
  6
SLD-Solid
 62
     7
370
    25
100
AcDbLine
 10
70.23585522450183
 20
23.76608755474183
 30
0.0
 11
70.73678560192442
 21
25.64456305905804
 31
0.0
  0
LINE
  5
5A4
330
1F
100
AcDbEntity
  8
0
  6
SLD-Solid
 62
     7
370
    25
100
AcDbLine
 10
70.23585522450183
 20
23.76608755474183
 30
0.0
 11
70.22334579522462
 21
23.76412372046106
 31
0.0
  0
LWPOLYLINE
  5
5A5
330
1F
100
AcDbEntity
  8
0
  6
SLD-Solid
 62
     7
370
    25
100
AcDbPolyline
 90
       17
 70
   128
 43
0.0
 10
60.48939103236236
 20
24.13837002950801
 10
60.4853539491668
 20
24.10575078492059
 10
60.49166170858346
 20
24.07962505760075
 10
60.50735401142112
 20
24.06397025270264
 10
60.53004184682383
 20
24.06116967236082
 10
60.55627119751729
 20
24.07164967954503
 10
60.58204888262805
 20
24.09381478816295
 10
60.60345048327331
 20
24.12429056135473
 10
60.61721779976081
 20
24.15843733891549
 10
60.62125488295637
 20
24.19105658350291
 10
60.61494712353972
 20
24.21718231082275
 10
60.59925482070206
 20
24.23283711572086
 10
60.57656698529934
 20
24.23563769606267
 10
60.55033763460589
 20
24.22515768887848
 10
60.52455994949513
 20
24.20299258026055
 10
60.50315834884987
 20
24.17251680706877
 10
60.48939103236236
 20
24.13837002950801
  0
LINE
  5
5A6
330
1F
100
AcDbEntity
  8
0
  6
SLD-Solid
 62
     7
370
    25
100
AcDbLine
 10
58.33121593228373
 20
21.79963207136301
 30
0.0
 11
58.95611617061625
 21
24.14299123514295
 31
0.0
  0
LINE
  5
5A7
330
1F
100
AcDbEntity
  8
0
  6
SLD-Solid
 62
     7
370
    25
100
AcDbLine
 10
58.97662226727067
 20
24.13115331752151
 30
0.0
 11
58.95611617061625
 21
24.14299123514295
 31
0.0
  0
LINE
  5
5A8
330
1F
100
AcDbEntity
  8
0
  6
SLD-Solid
 62
     7
370
    25
100
AcDbLine
 10
58.35172202893813
 20
21.78779415374157
 30
0.0
 11
58.33121593228373
 21
21.79963207136301
 31
0.0
  0
LINE
  5
5A9
330
1F
100
AcDbEntity
  8
0
  6
SLD-Solid
 62
     7
370
    25
100
AcDbLine
 10
70.73384281773622
 20
25.97689961432629
 30
0.0
 11
70.7133367210818
 21
25.98873753194771
 31
0.0
  0
LINE
  5
5AA
330
1F
100
AcDbEntity
  8
0
  6
SLD-Solid
 62
     7
370
    25
100
AcDbLine
 10
58.95611617061625
 20
24.14299123514295
 30
0.0
 11
70.7133367210818
 21
25.98873753194771
 31
0.0
  0
LINE
  5
5AB
330
1F
100
AcDbEntity
  8
0
  6
SLD-Solid
 62
     7
370
    25
100
AcDbLine
 10
58.28045565809195
 20
21.88000788374991
 30
0.0
 11
58.27020260976475
 21
21.88592684256062
 31
0.0
  0
LINE
  5
5AC
330
1F
100
AcDbEntity
  8
0
  6
SLD-Solid
 62
     7
370
    25
100
AcDbLine
 10
58.27020260976475
 20
21.88592684256062
 30
0.0
 11
58.26669586070635
 21
21.8727766274751
 31
0.0
  0
LINE
  5
5AD
330
1F
100
AcDbEntity
  8
0
  6
SLD-Solid
 62
     7
370
    25
100
AcDbLine
 10
58.26669586070635
 20
21.8727766274751
 30
0.0
 11
58.28401997684541
 21
21.86277562810527
 31
0.0
  0
LINE
  5
5AE
330
1F
100
AcDbEntity
  8
0
  6
SLD-Solid
 62
     7
370
    25
100
AcDbLine
 10
58.27038368069282
 20
21.81163988260698
 30
0.0
 11
58.28401997684541
 21
21.86277562810527
 31
0.0
  0
LINE
  5
5AF
330
1F
100
AcDbEntity
  8
0
  6
SLD-Solid
 62
     7
370
    25
100
AcDbLine
 10
56.44394312022663
 20
22.86602157501867
 30
0.0
 11
58.27038368069282
 21
21.81163988260698
 31
0.0
  0
LINE
  5
5B0
330
1F
100
AcDbEntity
  8
0
  6
SLD-Solid
 62
     7
370
    25
100
AcDbLine
 10
56.44394312022663
 20
22.86602157501867
 30
0.0
 11
56.45757941637923
 21
22.91715732051699
 31
0.0
  0
LINE
  5
5B1
330
1F
100
AcDbEntity
  8
0
  6
SLD-Solid
 62
     7
370
    25
100
AcDbLine
 10
56.4749035325183
 20
22.90715632114716
 30
0.0
 11
56.45757941637923
 21
22.91715732051699
 31
0.0
  0
LINE
  5
5B2
330
1F
100
AcDbEntity
  8
0
  6
SLD-Solid
 62
     7
370
    25
100
AcDbLine
 10
56.4784102815767
 20
22.92030653623267
 30
0.0
 11
56.4749035325183
 21
22.90715632114716
 31
0.0
  0
LINE
  5
5B3
330
1F
100
AcDbEntity
  8
0
  6
SLD-Solid
 62
     7
370
    25
100
AcDbLine
 10
56.4681572332495
 20
22.92622549504338
 30
0.0
 11
56.4784102815767
 21
22.92030653623267
 31
0.0
  0
LINE
  5
5B4
330
1F
100
AcDbEntity
  8
0
  6
SLD-Solid
 62
     7
370
    25
100
AcDbLine
 10
56.4681572332495
 20
22.92622549504338
 30
0.0
 11
57.0775876862287
 21
25.21157337790894
 31
0.0
  0
LINE
  5
5B5
330
1F
100
AcDbEntity
  8
0
  6
SLD-Solid
 62
     7
370
    25
100
AcDbLine
 10
57.0775876862287
 20
25.21157337790894
 30
0.0
 11
58.8898861110712
 21
24.16535576661548
 31
0.0
  0
LINE
  5
5B6
330
1F
100
AcDbEntity
  8
0
  6
SLD-Solid
 62
     7
370
    25
100
AcDbLine
 10
57.09685711393594
 20
25.2145984529834
 30
0.0
 11
57.0775876862287
 21
25.21157337790894
 31
0.0
  0
LINE
  5
5B7
330
1F
100
AcDbEntity
  8
0
  6
SLD-Solid
 62
     7
370
    25
100
AcDbLine
 10
57.09685711393594
 20
25.2145984529834
 30
0.0
 11
58.90915553877847
 21
24.16838084168995
 31
0.0
  0
LINE
  5
5B8
330
1F
100
AcDbEntity
  8
0
  6
SLD-Solid
 62
     7
370
    25
100
AcDbLine
 10
59.19269673598916
 20
24.18277922721195
 30
0.0
 11
58.96943715979455
 21
24.14773008152157
 31
0.0
  0
LWPOLYLINE
  5
5B9
330
1F
100
AcDbEntity
  8
0
  6
SLD-Solid
 62
     7
370
    25
100
AcDbPolyline
 90
        3
 70
   128
 43
0.0
 10
59.20823717364463
 20
24.18257128773181
 10
59.20519506859871
 20
24.18307166679603
 10
59.19269673598916
 20
24.18277922721195
  0
LINE
  5
5BA
330
1F
100
AcDbEntity
  8
0
  6
SLD-Solid
 62
     7
370
    25
100
AcDbLine
 10
59.17219063933474
 20
24.19461714483336
 30
0.0
 11
58.94893106314014
 21
24.15956799914297
 31
0.0
  0
LINE
  5
5BB
330
1F
100
AcDbEntity
  8
0
  6
SLD-Solid
 62
     7
370
    25
100
AcDbLine
 10
59.19269673598916
 20
24.18277922721195
 30
0.0
 11
59.17219063933474
 21
24.19461714483336
 31
0.0
  0
ARC
  5
5BC
330
1F
100
AcDbEntity
  8
0
  6
SLD-Solid
 62
     7
370
    25
100
AcDbCircle
 10
59.17952970746239
 20
24.15741131529331
 30
0.0
 40
0.0379227592976234
100
AcDbArc
 50
60.84947546047355
 51
101.158672912119
  0
LINE
  5
5BD
330
1F
100
AcDbEntity
  8
0
  6
SLD-Solid
 62
     7
370
    25
100
AcDbLine
 10
58.30328940455268
 20
21.86580070317972
 30
0.0
 11
58.28401997684541
 21
21.86277562810527
 31
0.0
  0
LINE
  5
5BE
330
1F
100
AcDbEntity
  8
0
  6
SLD-Solid
 62
     7
370
    25
100
AcDbLine
 10
58.28596528841361
 20
21.87580170254956
 30
0.0
 11
58.26669586070635
 21
21.8727766274751
 31
0.0
  0
LINE
  5
5BF
330
1F
100
AcDbEntity
  8
0
  6
SLD-Solid
 62
     7
370
    25
100
AcDbLine
 10
58.30328940455268
 20
21.86580070317972
 30
0.0
 11
58.28596528841361
 21
21.87580170254956
 31
0.0
  0
LINE
  5
5C0
330
1F
100
AcDbEntity
  8
0
  6
SLD-Solid
 62
     7
370
    25
100
AcDbLine
 10
58.27038368069282
 20
21.81163988260698
 30
0.0
 11
58.28965310840008
 21
21.81466495768145
 31
0.0
  0
LINE
  5
5C1
330
1F
100
AcDbEntity
  8
0
  6
SLD-Solid
 62
     7
370
    25
100
AcDbLine
 10
58.28965310840008
 20
21.81466495768145
 30
0.0
 11
58.30328940455268
 21
21.86580070317972
 31
0.0
  0
LINE
  5
5C2
330
1F
100
AcDbEntity
  8
0
  6
SLD-Solid
 62
     7
370
    25
100
AcDbLine
 10
58.28596528841361
 20
21.87580170254956
 30
0.0
 11
58.28626052985349
 21
21.87690885004479
 31
0.0
  0
ARC
  5
5C3
330
1F
100
AcDbEntity
  8
0
  6
SLD-Solid
 62
     7
370
    25
100
AcDbCircle
 10
56.47878652415432
 20
22.85042572161587
 30
0.0
 40
0.0381745129717366
100
AcDbArc
 50
155.8867848923344
 51
228.4859823916875
  0
LWPOLYLINE
  5
5C4
330
1F
100
AcDbEntity
  8
0
  6
SLD-Solid
 62
     7
370
    25
100
AcDbPolyline
 90
        9
 70
   128
 43
0.0
 10
58.29489553987379
 20
21.76508917241383
 10
58.28764650696024
 20
21.76491955745505
 10
58.28121509991509
 20
21.76677788226806
 10
58.27584847410429
 20
21.77059273247245
 10
58.27175286594814
 20
21.77621750551427
 10
58.2690856673712
 20
21.78343604451992
 10
58.26794937731903
 20
21.79197094508362
 10
58.26838766278107
 20
21.80149421576314
 10
58.27038368069282
 20
21.81163988260698
  0
LINE
  5
5C5
330
1F
100
AcDbEntity
  8
0
  6
SLD-Solid
 62
     7
370
    25
100
AcDbLine
 10
58.29489553987379
 20
21.76508917241383
 30
0.0
 11
58.30190903799058
 21
21.79138960258487
 31
0.0
  0
LWPOLYLINE
  5
5C6
330
1F
100
AcDbEntity
  8
0
  6
SLD-Solid
 62
     7
370
    25
100
AcDbPolyline
 90
        9
 70
   128
 43
0.0
 10
58.30190903799058
 20
21.79138960258487
 10
58.29828452153381
 20
21.79130479510548
 10
58.29506881801123
 20
21.79223395751198
 10
58.29238550510583
 20
21.79414138261417
 10
58.29033770102775
 20
21.79695376913509
 10
58.28900410173929
 20
21.80056303863791
 10
58.28843595671319
 20
21.80483048891976
 10
58.28865509944422
 20
21.80959212425952
 10
58.28965310840008
 20
21.81466495768145
  0
ARC
  5
5C7
330
1F
100
AcDbEntity
  8
0
  6
SLD-Solid
 62
     7
370
    25
100
AcDbCircle
 10
58.33681045221889
 20
21.78897454011144
 30
0.0
 40
0.0376707581305195
100
AcDbArc
 50
242.1078587741333
 51
353.3391437596463
  0
LINE
  5
5C8
330
1F
100
AcDbEntity
  8
0
  6
SLD-Solid
 62
     7
370
    25
100
AcDbLine
 10
58.32620124604318
 20
21.7819804315179
 30
0.0
 11
58.31918774792639
 21
21.75568000134687
 31
0.0
  0
ARC
  5
5C9
330
1F
100
AcDbEntity
  8
0
  6
SLD-Solid
 62
     7
370
    25
100
AcDbCircle
 10
58.33508522245524
 20
21.79696592331367
 30
0.0
 40
0.0174209644179388
100
AcDbArc
 50
239.3389057257068
 51
331.2345631292738
  0
ARC
  5
5CA
330
1F
100
AcDbEntity
  8
0
  6
SLD-Solid
 62
     7
370
    25
100
AcDbCircle
 10
70.148814060767
 20
23.64685118102805
 30
0.0
 40
0.0419532766137907
100
AcDbArc
 50
282.8052830407107
 51
349.9967437557443
  0
LINE
  5
5CB
330
1F
100
AcDbEntity
  8
0
  6
SLD-Solid
 62
     7
370
    25
100
AcDbLine
 10
58.32620124604318
 20
21.7819804315179
 30
0.0
 11
58.30819335334672
 21
21.79237616669215
 31
0.0
  0
LINE
  5
5CC
330
1F
100
AcDbEntity
  8
0
  6
SLD-Solid
 62
     7
370
    25
100
AcDbLine
 10
58.30819335334672
 20
21.79237616669215
 30
0.0
 11
58.30190903799058
 21
21.79138960258487
 31
0.0
  0
LINE
  5
5CD
330
1F
100
AcDbEntity
  8
0
  6
SLD-Solid
 62
     7
370
    25
100
AcDbLine
 10
58.31918774792639
 20
21.75568000134687
 30
0.0
 11
58.30117985522991
 21
21.7660757365211
 31
0.0
  0
LINE
  5
5CE
330
1F
100
AcDbEntity
  8
0
  6
SLD-Solid
 62
     7
370
    25
100
AcDbLine
 10
58.30117985522991
 20
21.7660757365211
 30
0.0
 11
58.30819335334672
 21
21.79237616669215
 31
0.0
  0
LINE
  5
5CF
330
1F
100
AcDbEntity
  8
0
  6
SLD-Solid
 62
     7
370
    25
100
AcDbLine
 10
58.30117985522991
 20
21.7660757365211
 30
0.0
 11
58.29489553987379
 21
21.76508917241383
 31
0.0
  0
LWPOLYLINE
  5
5D0
330
1F
100
AcDbEntity
  8
0
  6
SLD-Solid
 62
     7
370
    25
100
AcDbPolyline
 90
        9
 70
   128
 43
0.0
 10
57.0775876862287
 20
25.21157337790894
 10
57.07032711752986
 20
25.2163085561691
 10
57.06482659501508
 20
25.2210942680615
 10
57.06129750067988
 20
25.22574660136198
 10
57.05987545564043
 20
25.23008676951085
 10
57.06061510829009
 20
25.23394798228015
 10
57.06348803419235
 20
25.23718185542855
 10
57.06838382841593
 20
25.23966411302452
 10
57.07511434833442
 20
25.24129936330074
  0
LINE
  5
5D1
330
1F
100
AcDbEntity
  8
0
  6
SLD-Solid
 62
     7
370
    25
100
AcDbLine
 10
57.09562044498882
 20
25.22946144567931
 30
0.0
 11
57.07511434833442
 21
25.24129936330074
 31
0.0
  0
LWPOLYLINE
  5
5D2
330
1F
100
AcDbEntity
  8
0
  6
SLD-Solid
 62
     7
370
    25
100
AcDbPolyline
 90
        9
 70
   128
 43
0.0
 10
57.09685711393594
 20
25.2145984529834
 10
57.09322682958652
 20
25.21696604211348
 10
57.09047656832912
 20
25.21935889805969
 10
57.08871202116153
 20
25.22168506470993
 10
57.0880009986418
 20
25.22385514878437
 10
57.08837082496662
 20
25.22578575516902
 10
57.08980728791775
 20
25.22740269174322
 10
57.09225518502954
 20
25.22864382054121
 10
57.09562044498882
 20
25.22946144567931
  0
LWPOLYLINE
  5
5D3
330
1F
100
AcDbEntity
  8
0
  6
SLD-Solid
 62
     7
370
    25
100
AcDbPolyline
 90
        6
 70
   128
 43
0.0
 10
56.4506544887298
 20
22.94722017853434
 10
56.45044500266125
 20
22.9447388866453
 10
56.45186704770069
 20
22.94039871849643
 10
56.45539614203589
 20
22.93574638519595
 10
56.46089666455066
 20
22.93096067330355
 10
56.4681572332495
 20
22.92622549504338
  0
LWPOLYLINE
  5
5D4
330
1F
100
AcDbEntity
  8
0
  6
SLD-Solid
 62
     7
370
    25
100
AcDbPolyline
 90
        8
 70
   128
 43
0.0
 10
58.56541639654404
 20
25.24905694513014
 10
58.57918371303155
 20
25.2832037226909
 10
58.60058531367681
 20
25.31367949588268
 10
58.62636299878757
 20
25.3358446045006
 10
58.65259234948103
 20
25.3463246116848
 10
58.67528018488374
 20
25.34352403134299
 10
58.6909724877214
 20
25.32786922644488
 10
58.69514064640957
 20
25.31691603219379
  0
LWPOLYLINE
  5
5D5
330
1F
100
AcDbEntity
  8
0
  6
SLD-Solid
 62
     7
370
    25
100
AcDbPolyline
 90
        6
 70
   128
 43
0.0
 10
58.61216498131391
 20
25.17318239061683
 10
58.60606721100552
 20
25.17185658798296
 10
58.5833793756028
 20
25.17465716832477
 10
58.56768707276514
 20
25.19031197322289
 10
58.56137931334848
 20
25.21643770054272
 10
58.56541639654404
 20
25.24905694513014
  0
LINE
  5
5D6
330
1F
100
AcDbEntity
  8
0
  6
SLD-Solid
 62
     7
370
    25
100
AcDbLine
 10
56.45212320710223
 20
22.90230778744147
 30
0.0
 11
56.45025230164644
 21
22.89529194207055
 31
0.0
  0
LINE
  5
5D7
330
1F
100
AcDbEntity
  8
0
  6
SLD-Solid
 62
     7
370
    25
100
AcDbLine
 10
56.42774739311577
 20
22.89848106936602
 30
0.0
 11
56.45212320710223
 21
22.90230778744147
 31
0.0
  0
LINE
  5
5D8
330
1F
100
AcDbEntity
  8
0
  6
SLD-Solid
 62
     7
370
    25
100
AcDbLine
 10
56.42774739311577
 20
22.89848106936602
 30
0.0
 11
57.05264763144829
 21
25.24184023314595
 31
0.0
  0
LINE
  5
5D9
330
1F
100
AcDbEntity
  8
0
  6
SLD-Solid
 62
     7
370
    25
100
AcDbLine
 10
57.05264763144829
 20
25.24184023314595
 30
0.0
 11
68.5315736380633
 21
27.0438975371715
 31
0.0
  0
LINE
  5
5DA
330
1F
100
AcDbEntity
  8
0
  6
SLD-Solid
 62
     7
370
    25
100
AcDbLine
 10
68.80944904591206
 20
26.78758907882709
 30
0.0
 11
68.80223427396947
 21
26.76053387719784
 31
0.0
  0
LINE
  5
5DB
330
1F
100
AcDbEntity
  8
0
  6
SLD-Solid
 62
     7
370
    25
100
AcDbLine
 10
68.80223427396947
 20
26.76053387719784
 30
0.0
 11
68.81281096610208
 21
26.75524997468249
 31
0.0
  0
LINE
  5
5DC
330
1F
100
AcDbEntity
  8
0
  6
SLD-Solid
 62
     7
370
    25
100
AcDbLine
 10
57.33305982273388
 20
25.11674890313636
 30
0.0
 11
57.32416103617156
 21
25.08337869176794
 31
0.0
  0
LINE
  5
5DD
330
1F
100
AcDbEntity
  8
0
  6
SLD-Solid
 62
     7
370
    25
100
AcDbLine
 10
57.31888002118343
 20
25.2645105913697
 30
0.0
 11
57.09562044498882
 21
25.22946144567931
 31
0.0
  0
LWPOLYLINE
  5
5DE
330
1F
100
AcDbEntity
  8
0
  6
SLD-Solid
 62
     7
370
    25
100
AcDbPolyline
 90
        9
 70
   128
 43
0.0
 10
57.31888002118343
 20
25.2645105913697
 10
57.331378353793
 20
25.26480303095381
 10
57.34246698662948
 20
25.26159902265553
 10
57.35171978975154
 20
25.25502169471692
 10
57.35878118312424
 20
25.24532381016206
 10
57.36337980136034
 20
25.23287805325576
 10
57.36533892213996
 20
25.21816270745626
 10
57.36458325755022
 20
25.20174327525019
 10
57.36114184735752
 20
25.18425074620909
  0
LINE
  5
5DF
330
1F
100
AcDbEntity
  8
0
  6
SLD-Solid
 62
     7
370
    25
100
AcDbLine
 10
57.3532555047627
 20
25.1546771726134
 30
0.0
 11
57.36114184735752
 21
25.18425074620909
 31
0.0
  0
LINE
  5
5E0
330
1F
100
AcDbEntity
  8
0
  6
SLD-Solid
 62
     7
370
    25
100
AcDbLine
 10
57.3532555047627
 20
25.1546771726134
 30
0.0
 11
57.34358171425681
 21
25.11840071720504
 31
0.0
  0
LINE
  5
5E1
330
1F
100
AcDbEntity
  8
0
  6
SLD-Solid
 62
     7
370
    25
100
AcDbLine
 10
57.34358171425681
 20
25.11840071720504
 30
0.0
 11
57.33305982273388
 21
25.11674890313636
 31
0.0
  0
LINE
  5
5E2
330
1F
100
AcDbEntity
  8
0
  6
SLD-Solid
 62
     7
370
    25
100
AcDbLine
 10
57.29837392452902
 20
25.27634850899113
 30
0.0
 11
57.31888002118343
 21
25.2645105913697
 31
0.0
  0
LINE
  5
5E3
330
1F
100
AcDbEntity
  8
0
  6
SLD-Solid
 62
     7
370
    25
100
AcDbLine
 10
57.29837392452902
 20
25.27634850899113
 30
0.0
 11
57.07511434833442
 21
25.24129936330074
 31
0.0
  0
LINE
  5
5E4
330
1F
100
AcDbEntity
  8
0
  6
SLD-Solid
 62
     7
370
    25
100
AcDbLine
 10
56.40724129646138
 20
22.91031898698748
 30
0.0
 11
57.03214153479389
 21
25.2536781507674
 31
0.0
  0
LINE
  5
5E5
330
1F
100
AcDbEntity
  8
0
  6
SLD-Solid
 62
     7
370
    25
100
AcDbLine
 10
57.03214153479389
 20
25.2536781507674
 30
0.0
 11
57.05264763144829
 21
25.24184023314595
 31
0.0
  0
LINE
  5
5E6
330
1F
100
AcDbEntity
  8
0
  6
SLD-Solid
 62
     7
370
    25
100
AcDbLine
 10
56.40724129646138
 20
22.91031898698748
 30
0.0
 11
56.42774739311577
 21
22.89848106936602
 31
0.0
  0
LINE
  5
5E7
330
1F
100
AcDbEntity
  8
0
  6
SLD-Solid
 62
     7
370
    25
100
AcDbLine
 10
57.03214153479389
 20
25.2536781507674
 30
0.0
 11
68.5315736380633
 21
27.05895467244724
 31
0.0
  0
LINE
  5
5E8
330
1F
100
AcDbEntity
  8
0
  6
SLD-Solid
 62
     7
370
    25
100
AcDbLine
 10
57.38335723861848
 20
25.10958787465806
 30
0.0
 11
57.39303102912444
 21
25.14586433006643
 31
0.0
  0
LINE
  5
5E9
330
1F
100
AcDbEntity
  8
0
  6
SLD-Solid
 62
     7
370
    25
100
AcDbLine
 10
57.39303102912444
 20
25.14586433006643
 30
0.0
 11
57.63486154829023
 21
25.00625854294476
 31
0.0
  0
ARC
  5
5EA
330
1F
100
AcDbEntity
  8
0
  6
SLD-Solid
 62
     7
370
    25
100
AcDbCircle
 10
57.56564768713764
 20
24.90782271215737
 30
0.0
 40
0.1203335836682891
100
AcDbArc
 50
345.0825197674373
 51
54.88753402664327
  0
LINE
  5
5EB
330
1F
100
AcDbEntity
  8
0
  6
SLD-Solid
 62
     7
370
    25
100
AcDbLine
 10
57.38060044237165
 20
25.05079691609123
 30
0.0
 11
57.39455440170159
 21
25.10312389
 31
0.0
  0
LINE
  5
5EC
330
1F
100
AcDbEntity
  8
0
  6
SLD-Solid
 62
     7
370
    25
100
AcDbLine
 10
57.39455440170159
 20
25.10312389
 30
0.0
 11
57.38335723861848
 21
25.10958787465806
 31
0.0
  0
ARC
  5
5ED
330
1F
100
AcDbEntity
  8
0
  6
SLD-Solid
 62
     7
370
    25
100
AcDbCircle
 10
57.53026716501527
 20
24.89987318274789
 30
0.0
 40
0.0673677336872462
100
AcDbArc
 50
26.04783354409016
 51
94.01715315988072
  0
LINE
  5
5EE
330
1F
100
AcDbEntity
  8
0
  6
SLD-Solid
 62
     7
370
    25
100
AcDbLine
 10
57.63486154829023
 20
25.00625854294476
 30
0.0
 11
57.65413097599751
 21
25.00928361801923
 31
0.0
  0
ARC
  5
5EF
330
1F
100
AcDbEntity
  8
0
  6
SLD-Solid
 62
     7
370
    25
100
AcDbCircle
 10
57.58487348980317
 20
24.91079587903893
 30
0.0
 40
0.1204011383808911
100
AcDbArc
 50
344.0807990146243
 51
54.8847598549167
  0
LINE
  5
5F0
330
1F
100
AcDbEntity
  8
0
  6
SLD-Solid
 62
     7
370
    25
100
AcDbLine
 10
57.70065717785135
 20
24.87777207390724
 30
0.0
 11
57.69794415024757
 21
24.86759829302683
 31
0.0
  0
LINE
  5
5F1
330
1F
100
AcDbEntity
  8
0
  6
SLD-Solid
 62
     7
370
    25
100
AcDbLine
 10
57.39303102912444
 20
25.14586433006643
 30
0.0
 11
57.41230045683167
 21
25.14888940514087
 31
0.0
  0
LINE
  5
5F2
330
1F
100
AcDbEntity
  8
0
  6
SLD-Solid
 62
     7
370
    25
100
AcDbLine
 10
57.41230045683167
 20
25.14888940514087
 30
0.0
 11
57.65413097599751
 21
25.00928361801923
 31
0.0
  0
LINE
  5
5F3
330
1F
100
AcDbEntity
  8
0
  6
SLD-Solid
 62
     7
370
    25
100
AcDbLine
 10
57.53533288964578
 20
24.96762948952595
 30
0.0
 11
57.52930133569338
 21
24.96495371760048
 31
0.0
  0
LWPOLYLINE
  5
5F4
330
1F
100
AcDbEntity
  8
0
  6
SLD-Solid
 62
     7
370
    25
100
AcDbPolyline
 90
        3
 70
   128
 43
0.0
 10
60.55938344253361
 20
24.21815120576606
 10
60.55967707233478
 20
24.21819850794419
 10
60.56040644640275
 20
24.21830551138329
  0
ARC
  5
5F5
330
1F
100
AcDbEntity
  8
0
  6
SLD-Solid
 62
     7
370
    25
100
AcDbCircle
 10
57.30571299265669
 20
25.23914267945111
 30
0.0
 40
0.0379227592976034
100
AcDbArc
 50
60.84947546042189
 51
101.1586729121483
  0
ARC
  5
5F6
330
1F
100
AcDbEntity
  8
0
  6
SLD-Solid
 62
     7
370
    25
100
AcDbCircle
 10
57.33965602336897
 20
25.01582322248191
 30
0.0
 40
0.1516041644564723
100
AcDbArc
 50
61.36867804466284
 51
83.65596194940865
  0
ARC
  5
5F7
330
1F
100
AcDbEntity
  8
0
  6
SLD-Solid
 62
     7
370
    25
100
AcDbCircle
 10
57.3586710145268
 20
25.08495227713535
 30
0.0
 40
0.0699348896862648
100
AcDbArc
 50
60.57299360610089
 51
94.44122804015119
  0
ARC
  5
5F8
330
1F
100
AcDbEntity
  8
0
  6
SLD-Solid
 62
     7
370
    25
100
AcDbCircle
 10
57.34899722402096
 20
25.04867582172758
 30
0.0
 40
0.069934889685673
100
AcDbArc
 50
60.57299360594111
 51
94.44122804022388
  0
LINE
  5
5F9
330
1F
100
AcDbEntity
  8
0
  6
SLD-Solid
 62
     7
370
    25
100
AcDbLine
 10
56.4768488440865
 20
22.92018239559142
 30
0.0
 11
56.45757941637923
 21
22.91715732051699
 31
0.0
  0
LINE
  5
5FA
330
1F
100
AcDbEntity
  8
0
  6
SLD-Solid
 62
     7
370
    25
100
AcDbLine
 10
56.4768488440865
 20
22.92018239559142
 30
0.0
 11
56.47817328655103
 21
22.91941781123128
 31
0.0
  0
ARC
  5
5FB
330
1F
100
AcDbEntity
  8
0
  6
SLD-Solid
 62
     7
370
    25
100
AcDbCircle
 10
56.50223875463664
 20
22.88849082903245
 30
0.0
 40
0.0748686698261036
100
AcDbArc
 50
172.2955666854105
 51
215.9233467004998
  0
LWPOLYLINE
  5
5FC
330
1F
100
AcDbEntity
  8
0
  6
SLD-Solid
 62
     7
370
    25
100
AcDbPolyline
 90
        3
 70
   128
 43
0.0
 10
56.44909456624713
 20
22.88533935967986
 10
56.44927805493761
 20
22.88993352041161
 10
56.45025230164644
 20
22.89529194207055
  0
LWPOLYLINE
  5
5FD
330
1F
100
AcDbEntity
  8
0
  6
SLD-Solid
 62
     7
370
    25
100
AcDbPolyline
 90
       17
 70
   128
 43
0.0
 10
58.64680708432708
 20
25.23587375436767
 10
58.65065811757696
 20
25.24542538891331
 10
58.65664463468509
 20
25.25395015958912
 10
58.66385524268968
 20
25.26015024733696
 10
58.67119219188634
 20
25.26308174500116
 10
58.67753849826951
 20
25.26229835863642
 10
58.68192799422174
 20
25.25791935171538
 10
58.6836924187752
 20
25.25061138834595
 10
58.68256315428616
 20
25.24148703970429
 10
58.67871212103628
 20
25.23193540515866
 10
58.67272560392815
 20
25.22341063448284
 10
58.66551499592357
 20
25.217210546735
 10
58.6581780467269
 20
25.21427904907081
 10
58.65183174034374
 20
25.21506243543554
 10
58.64744224439151
 20
25.21944144235659
 10
58.64567781983805
 20
25.22674940572601
 10
58.64680708432708
 20
25.23587375436767
  0
LWPOLYLINE
  5
5FE
330
1F
100
AcDbEntity
  8
0
  6
SLD-Solid
 62
     7
370
    25
100
AcDbPolyline
 90
       12
 70
   128
 43
0.0
 10
58.60563992031397
 20
25.17229261324339
 10
58.58414664181839
 20
25.17521325966834
 10
58.56859562406679
 20
25.19072711709175
 10
58.56234465633593
 20
25.2166176223622
 10
58.56634539179766
 20
25.2489431807503
 10
58.5799887547447
 20
25.28278251902337
 10
58.60119766684574
 20
25.3129839046837
 10
58.62674326349268
 20
25.33494945054076
 10
58.65273645916741
 20
25.34533510135596
 10
58.67522002545739
 20
25.34255973593886
 10
58.69077104320898
 20
25.32704587851546
 10
58.69315853454459
 20
25.32171126875539
  0
ARC
  5
5FF
330
1F
100
AcDbEntity
  8
0
  6
SLD-Solid
 62
     7
370
    25
100
AcDbCircle
 10
70.72251055624139
 20
25.94223024502294
 30
0.0
 40
0.0474034491217434
100
AcDbArc
 50
60.8494754602952
 51
101.1586729122179
  0
LINE
  5
600
330
1F
100
AcDbEntity
  8
0
  6
SLD-Solid
 62
     7
370
    25
100
AcDbLine
 10
70.72524082738747
 20
25.651227715537
 30
0.0
 11
70.73678560192442
 21
25.64456305905804
 31
0.0
  0
LINE
  5
601
330
1F
100
AcDbEntity
  8
0
  6
SLD-Solid
 62
     7
370
    25
100
AcDbLine
 10
70.74548936131619
 20
25.64229239007303
 30
0.0
 11
70.73678560192442
 21
25.64456305905804
 31
0.0
  0
LINE
  5
602
330
1F
100
AcDbEntity
  8
0
  6
SLD-Solid
 62
     7
370
    25
100
AcDbLine
 10
70.73429569792076
 20
25.64677873028254
 30
0.0
 11
70.74548936131619
 21
25.64229239007303
 31
0.0
  0
SPLINE
  5
603
330
1F
100
AcDbEntity
  8
0
  6
SLD-Solid
 62
     7
370
    25
100
AcDbSpline
210
0.0
220
0.0
230
1.0
 70
    12
 71
     3
 72
     9
 73
     5
 74
     0
 42
0.00000001
 43
0.00000001
 40
0.0
 40
0.0
 40
0.0
 40
0.0
 40
0.5000000000005829
 40
1.0
 40
1.0
 40
1.0
 40
1.0
 10
70.74845566932683
 20
25.64239265354988
 30
0.0
 41
1.0
 10
70.74868950060869
 20
25.64215242673415
 30
0.0
 41
1.0
 10
70.74915716317244
 20
25.64167197310269
 30
0.0
 41
1.0
 10
70.74671196193493
 20
25.64208558441625
 30
0.0
 41
1.0
 10
70.74548936131619
 20
25.64229239007303
 30
0.0
 41
1.0
  0
LWPOLYLINE
  5
604
330
1F
100
AcDbEntity
  8
0
  6
SLD-Solid
 62
     7
370
    25
100
AcDbPolyline
 90
        8
 70
   128
 43
0.0
 10
70.23585522450183
 20
23.76608755474183
 10
70.23943520798058
 20
23.76679457877595
 10
70.2425857444203
 20
23.76772280501805
 10
70.24527649243282
 20
23.76886329414198
 10
70.24748153864387
 20
23.77020506261403
 10
70.24917964725304
 20
23.77173518847033
 10
70.25035446454612
 20
23.77343893576243
 10
70.25088463112724
 20
23.77481885664268
  0
LINE
  5
605
330
1F
100
AcDbEntity
  8
0
  6
SLD-Solid
 62
     7
370
    25
100
AcDbLine
 10
70.73797367476423
 20
25.6447150910071
 30
0.0
 11
70.74845566932683
 21
25.64239265354988
 31
0.0
  0
LINE
  5
606
330
1F
100
AcDbEntity
  8
0
  6
SLD-Solid
 62
     7
370
    25
100
AcDbLine
 10
68.99277097266248
 20
26.6245831740783
 30
0.0
 11
69.0028710402869
 21
26.61687315978372
 31
0.0
  0
LINE
  5
607
330
1F
100
AcDbEntity
  8
0
  6
SLD-Solid
 62
     7
370
    25
100
AcDbLine
 10
69.0028710402869
 20
26.61687315978372
 30
0.0
 11
69.01265421951734
 21
26.60883558190269
 31
0.0
  0
LINE
  5
608
330
1F
100
AcDbEntity
  8
0
  6
SLD-Solid
 62
     7
370
    25
100
AcDbLine
 10
69.01265421951734
 20
26.60883558190269
 30
0.0
 11
69.02188259054293
 21
26.60023861800954
 31
0.0
  0
LINE
  5
609
330
1F
100
AcDbEntity
  8
0
  6
SLD-Solid
 62
     7
370
    25
100
AcDbLine
 10
69.02188259054293
 20
26.60023861800954
 30
0.0
 11
69.03056562253863
 21
26.59114868975476
 31
0.0
  0
LINE
  5
60A
330
1F
100
AcDbEntity
  8
0
  6
SLD-Solid
 62
     7
370
    25
100
AcDbLine
 10
69.03056562253863
 20
26.59114868975476
 30
0.0
 11
69.03564473154458
 21
26.58525224941276
 31
0.0
  0
LINE
  5
60B
330
1F
100
AcDbEntity
  8
0
  6
SLD-Solid
 62
     7
370
    25
100
AcDbLine
 10
69.07652094068462
 20
26.33376038862181
 30
0.0
 11
68.90897673139109
 21
25.70547408930161
 31
0.0
  0
LINE
  5
60C
330
1F
100
AcDbEntity
  8
0
  6
SLD-Solid
 62
     7
370
    25
100
AcDbLine
 10
68.82887378046632
 20
26.74053878068701
 30
0.0
 11
68.99277097266248
 21
26.6245831740783
 31
0.0
  0
LINE
  5
60D
330
1F
100
AcDbEntity
  8
0
  6
SLD-Solid
 62
     7
370
    25
100
AcDbLine
 10
68.9918965156639
 20
26.63509289700228
 30
0.0
 11
68.99277097266248
 21
26.6245831740783
 31
0.0
  0
LINE
  5
60E
330
1F
100
AcDbEntity
  8
0
  6
SLD-Solid
 62
     7
370
    25
100
AcDbLine
 10
68.8279993234677
 20
26.75104850361101
 30
0.0
 11
68.82887378046632
 21
26.74053878068702
 31
0.0
  0
LINE
  5
60F
330
1F
100
AcDbEntity
  8
0
  6
SLD-Solid
 62
     7
370
    25
100
AcDbLine
 10
68.8279993234677
 20
26.75104850361101
 30
0.0
 11
68.9918965156639
 21
26.63509289700229
 31
0.0
  0
LINE
  5
610
330
1F
100
AcDbEntity
  8
0
  6
SLD-Solid
 62
     7
370
    25
100
AcDbLine
 10
68.80384964398462
 20
26.76042323582492
 30
0.0
 11
68.81281096610208
 21
26.75524997468248
 31
0.0
  0
LINE
  5
611
330
1F
100
AcDbEntity
  8
0
  6
SLD-Solid
 62
     7
370
    25
100
AcDbLine
 10
68.81281096610208
 20
26.75524997468249
 30
0.0
 11
68.81858199713037
 21
26.75015702521378
 31
0.0
  0
LINE
  5
612
330
1F
100
AcDbEntity
  8
0
  6
SLD-Solid
 62
     7
370
    25
100
AcDbLine
 10
68.81858199713037
 20
26.75015702521378
 30
0.0
 11
68.82887378046632
 21
26.74053878068701
 31
0.0
  0
LINE
  5
613
330
1F
100
AcDbEntity
  8
0
  6
SLD-Solid
 62
     7
370
    25
100
AcDbLine
 10
68.81858199713037
 20
26.75015702521378
 30
0.0
 11
68.80529743628959
 21
26.76234134747841
 31
0.0
  0
SPLINE
  5
614
330
1F
100
AcDbEntity
  8
0
  6
SLD-Solid
 62
     7
370
    25
100
AcDbSpline
210
0.0
220
0.0
230
1.0
 70
    12
 71
     3
 72
     9
 73
     5
 74
     0
 42
0.00000001
 43
0.00000001
 40
0.0
 40
0.0
 40
0.0
 40
0.0
 40
0.500000000000669
 40
0.9999999999999999
 40
0.9999999999999999
 40
0.9999999999999999
 40
0.9999999999999999
 10
68.80529743628959
 20
26.76234134747841
 30
0.0
 41
1.0
 10
68.8088891076412
 20
26.7607669063985
 30
0.0
 41
1.0
 10
68.81607245034442
 20
26.75761802423868
 30
0.0
 41
1.0
 10
68.82402369909327
 20
26.75323834382023
 30
0.0
 41
1.0
 10
68.8279993234677
 20
26.75104850361101
 30
0.0
 41
1.0
  0
LINE
  5
615
330
1F
100
AcDbEntity
  8
0
  6
SLD-Solid
 62
     7
370
    25
100
AcDbLine
 10
69.00199658328832
 20
26.6273828827077
 30
0.0
 11
69.0028710402869
 21
26.61687315978372
 31
0.0
  0
LINE
  5
616
330
1F
100
AcDbEntity
  8
0
  6
SLD-Solid
 62
     7
370
    25
100
AcDbLine
 10
68.9918965156639
 20
26.63509289700228
 30
0.0
 11
69.00199658328832
 21
26.6273828827077
 31
0.0
  0
LINE
  5
617
330
1F
100
AcDbEntity
  8
0
  6
SLD-Solid
 62
     7
370
    25
100
AcDbLine
 10
69.01177976251876
 20
26.61934530482668
 30
0.0
 11
69.01265421951734
 21
26.60883558190269
 31
0.0
  0
LINE
  5
618
330
1F
100
AcDbEntity
  8
0
  6
SLD-Solid
 62
     7
370
    25
100
AcDbLine
 10
69.00199658328832
 20
26.6273828827077
 30
0.0
 11
69.01177976251876
 21
26.61934530482668
 31
0.0
  0
LINE
  5
619
330
1F
100
AcDbEntity
  8
0
  6
SLD-Solid
 62
     7
370
    25
100
AcDbLine
 10
69.02100813354431
 20
26.61074834093353
 30
0.0
 11
69.02188259054293
 21
26.60023861800954
 31
0.0
  0
LINE
  5
61A
330
1F
100
AcDbEntity
  8
0
  6
SLD-Solid
 62
     7
370
    25
100
AcDbLine
 10
69.01177976251876
 20
26.61934530482668
 30
0.0
 11
69.02100813354431
 21
26.61074834093353
 31
0.0
  0
LINE
  5
61B
330
1F
100
AcDbEntity
  8
0
  6
SLD-Solid
 62
     7
370
    25
100
AcDbLine
 10
69.02969116554003
 20
26.60165841267876
 30
0.0
 11
69.03056562253863
 21
26.59114868975476
 31
0.0
  0
LINE
  5
61C
330
1F
100
AcDbEntity
  8
0
  6
SLD-Solid
 62
     7
370
    25
100
AcDbLine
 10
69.02100813354431
 20
26.61074834093353
 30
0.0
 11
69.02969116554003
 21
26.60165841267876
 31
0.0
  0
LINE
  5
61D
330
1F
100
AcDbEntity
  8
0
  6
SLD-Solid
 62
     7
370
    25
100
AcDbLine
 10
69.02969116554003
 20
26.60165841267876
 30
0.0
 11
69.0337426278541
 21
26.59695498815985
 31
0.0
  0
LINE
  5
61E
330
1F
100
AcDbEntity
  8
0
  6
SLD-Solid
 62
     8
370
    25
100
AcDbLine
 10
70.4082193929833
 20
26.05036624980331
 30
0.0
 11
68.98616474026868
 21
26.87130092672951
 31
0.0
  0
LINE
  5
61F
330
1F
100
AcDbEntity
  8
0
  6
SLD-Solid
 62
     8
370
    25
100
AcDbLine
 10
70.4082193929833
 20
26.01770617200585
 30
0.0
 11
68.99531919304465
 21
26.83335609583357
 31
0.0
  0
LINE
  5
620
330
1F
100
AcDbEntity
  8
0
  6
SLD-Solid
 62
     8
370
    25
100
AcDbLine
 10
58.96870027758091
 20
24.14496679294837
 30
0.0
 11
58.96943715979455
 21
24.14773008152157
 31
0.0
  0
LINE
  5
621
330
1F
100
AcDbEntity
  8
0
  6
SLD-Solid
 62
     8
370
    25
100
AcDbLine
 10
58.36507215809739
 20
21.78988996808408
 30
0.0
 11
58.3742269374688
 21
21.78460502644609
 31
0.0
  0
LINE
  5
622
330
1F
100
AcDbEntity
  8
0
  6
SLD-Solid
 62
     8
370
    25
100
AcDbLine
 10
58.32620124604318
 20
21.7819804315179
 30
0.0
 11
58.34794995869461
 21
21.78539472536946
 31
0.0
  0
LINE
  5
623
330
1F
100
AcDbEntity
  8
0
  6
SLD-Solid
 62
     8
370
    25
100
AcDbLine
 10
58.28965424854528
 20
21.79846414194584
 30
0.0
 11
58.30190903799058
 21
21.79138960258487
 31
0.0
  0
LINE
  5
624
330
1F
100
AcDbEntity
  8
0
  6
SLD-Solid
 62
     8
370
    25
100
AcDbLine
 10
57.09562044498882
 20
25.22946144567931
 30
0.0
 11
57.09244884719129
 21
25.21756803884928
 31
0.0
  0
LINE
  5
625
330
1F
100
AcDbEntity
  8
0
  6
SLD-Solid
 62
     8
370
    25
100
AcDbLine
 10
56.45025230164644
 20
22.89529194207055
 30
0.0
 11
56.45181398525539
 21
22.89553710815599
 31
0.0
  0
LINE
  5
626
330
1F
100
AcDbEntity
  8
0
  6
SLD-Solid
 62
     8
370
    25
100
AcDbLine
 10
68.81281096610208
 20
26.75524997468249
 30
0.0
 11
68.51643544144203
 21
25.64384969183823
 31
0.0
  0
LINE
  5
627
330
1F
100
AcDbEntity
  8
0
  6
SLD-Solid
 62
     8
370
    25
100
AcDbLine
 10
57.70065717785135
 20
24.87777207390724
 30
0.0
 11
57.68466866961629
 21
24.87526206486729
 31
0.0
  0
LWPOLYLINE
  5
628
330
1F
100
AcDbEntity
  8
0
  6
SLD-Solid
 62
     8
370
    25
100
AcDbPolyline
 90
       12
 70
   128
 43
0.0
 10
60.56040644640275
 20
24.21830551138329
 10
60.57623683435516
 20
24.21615437534378
 10
60.5876905846108
 20
24.20472799468707
 10
60.59229459345375
 20
24.18565892884864
 10
60.58934794227313
 20
24.16185027024087
 10
60.57929923199974
 20
24.13692667131079
 10
60.5636782876809
 20
24.11468252406249
 10
60.54486325648495
 20
24.09850429827085
 10
60.5257185563528
 20
24.09085498215665
 10
60.50915879433241
 20
24.09289911475706
 10
60.49770504407678
 20
24.10432549541377
 10
60.49604460374805
 20
24.10799718250863
  0
LWPOLYLINE
  5
629
330
1F
100
AcDbEntity
  8
0
  6
SLD-Solid
 62
     8
370
    25
100
AcDbPolyline
 90
        5
 70
   128
 43
0.0
 10
60.57298692196537
 20
24.16706995457513
 10
60.57557009580768
 20
24.18794175118967
 10
60.57153400382262
 20
24.2046585965343
 10
60.56149310442768
 20
24.21467550244388
 10
60.54761543735219
 20
24.2165612900746
  0
LWPOLYLINE
  5
62A
330
1F
100
AcDbEntity
  8
0
  6
SLD-Solid
 62
     8
370
    25
100
AcDbPolyline
 90
        8
 70
   128
 43
0.0
 10
60.49143644441236
 20
24.11924587565692
 10
60.49264842142937
 20
24.11664101524391
 10
60.50268932082432
 20
24.10662410933433
 10
60.51720639171727
 20
24.10483212598106
 10
60.53398954166232
 20
24.11153787840526
 10
60.55048368822
 20
24.12572047658814
 10
60.56417774709669
 20
24.14522074852194
 10
60.57298692196537
 20
24.16706995457513
  0
LWPOLYLINE
  5
62B
330
1F
100
AcDbEntity
  8
0
  6
SLD-Solid
 62
     8
370
    25
100
AcDbPolyline
 90
       13
 70
   128
 43
0.0
 10
60.52441402501759
 20
24.19320855706378
 10
60.524456149582
 20
24.1932152349725
 10
60.53080245596517
 20
24.19243184860776
 10
60.53519195191739
 20
24.18805284168672
 10
60.53695637647085
 20
24.18074487831729
 10
60.53582711198182
 20
24.17162052967563
 10
60.53197607873194
 20
24.16206889512999
 10
60.5259895616238
 20
24.15354412445418
 10
60.51877895361922
 20
24.14734403670634
 10
60.51144200442256
 20
24.14441253904214
 10
60.50509569803939
 20
24.14519592540688
 10
60.50070620208716
 20
24.14957493232793
 10
60.49994858787021
 20
24.15130881156061
  0
LINE
  5
62C
330
1F
100
AcDbEntity
  8
0
  6
SLD-Solid
 62
     8
370
    25
100
AcDbLine
 10
56.45025230164644
 20
22.89529194207055
 30
0.0
 11
56.441097522275
 21
22.90057688370853
 31
0.0
  0
LWPOLYLINE
  5
62D
330
1F
100
AcDbEntity
  8
0
  6
SLD-Solid
 62
     8
370
    25
100
AcDbPolyline
 90
       12
 70
   128
 43
0.0
 10
58.69779197831501
 20
25.31041794393134
 10
58.69582766585641
 20
25.31473035868533
 10
58.68168949896549
 20
25.3288347413616
 10
58.66124862380295
 20
25.33135795753157
 10
58.63761697831531
 20
25.32191587040636
 10
58.61439226630664
 20
25.30194595215807
 10
58.59511023964775
 20
25.27448844181224
 10
58.58270641210542
 20
25.24372349641606
 10
58.579069153982
 20
25.21433480002118
 10
58.58475220485497
 20
25.19079651524453
 10
58.59889037174588
 20
25.17669213256826
 10
58.61894177691663
 20
25.1741095008597
  0
LINE
  5
62E
330
1F
100
AcDbEntity
  8
0
  6
SLD-Solid
 62
     8
370
    25
100
AcDbLine
 10
68.82887378046632
 20
26.74053878068701
 30
0.0
 11
68.53729450980396
 21
25.64712432192777
 31
0.0
  0
INSERT
  5
634
330
1F
100
AcDbEntity
  8
NOTES
100
AcDbBlockReference
  2
SW_NOTE_0_3
 10
67.48746910771628
 20
21.42823599437733
 30
0.0
  0
MTEXT
  5
635
330
1F
100
AcDbEntity
  8
NOTES
100
AcDbMText
 10
60.68265677353278
 20
34.47195817906118
 30
0.0
 40
0.7500000000000001
 41
0.0
 71
     1
 72
     1
  1
friction tab
  7
SLDTEXTSTYLE1
 73
     1
 44
1.0
  0
LEADER
  5
636
330
1F
100
AcDbEntity
  8
NOTES
100
AcDbLeader
  3
SLDDIMSTYLE3
 76
     3
 10
70.62871982592921
 20
38.26500930043652
 30
0.0
 10
66.44412072190802
 20
34.10808456777706
 30
0.0
 10
65.94412072190804
 20
34.10808456777706
 30
0.0
1001
ACAD
1000
DSTYLE
1002
{
1070
   176
1070
     0
1070
    77
1070
     0
1070
    40
1040
1.0
1070
   147
1040
0.0
1002
}
  0
LEADER
  5
637
330
1F
100
AcDbEntity
  8
NOTES
100
AcDbLeader
  3
SLDDIMSTYLE3
 76
     3
 10
68.81410801402528
 20
39.3702169176502
 30
0.0
 10
66.44412072190802
 20
34.10808456777706
 30
0.0
 10
65.94412072190804
 20
34.10808456777706
 30
0.0
1001
ACAD
1000
DSTYLE
1002
{
1070
   176
1070
     0
1070
    77
1070
     0
1070
    40
1040
1.0
1070
   147
1040
0.0
1002
}
  0
MTEXT
  5
63B
330
1F
100
AcDbEntity
  8
NOTES
100
AcDbMText
 10
70.64113155701669
 20
4.986500874567161
 30
0.0
 40
0.2916666666666666
 41
0.0
 71
     1
 72
     1
  1
FROST PRODUCTS LTD.
  7
SLDTEXTSTYLE0
 73
     1
 44
1.0
  0
MTEXT
  5
63C
330
1F
100
AcDbEntity
  8
NOTES
100
AcDbMText
 10
70.64113155701669
 20
4.561008512941702
 30
0.0
 40
0.2291666666666666
 41
0.0
 71
     1
 72
     1
  1
5280 JOHN LUCAS DRIVE, BURLINGTON, ON, L7L 5Z9
  7
SLDTEXTSTYLE0
 73
     1
 44
1.0
  0
ENDSEC
  0
SECTION
  2
OBJECTS
  0
DICTIONARY
  5
C
330
0
100
AcDbDictionary
281
     1
  3
ACAD_COLOR
350
6C
  3
ACAD_GROUP
350
D
  3
ACAD_LAYOUT
350
1A
  3
ACAD_MATERIAL
350
6B
  3
ACAD_MLINESTYLE
350
17
  3
ACAD_PLOTSETTINGS
350
19
  3
ACAD_PLOTSTYLENAME
350
E
  3
ACAD_SCALELIST
350
47
  3
ACAD_TABLESTYLE
350
92
  3
AcDbVariableDictionary
350
59
  0
DICTIONARY
  5
6C
102
{ACAD_REACTORS
330
C
102
}
330
C
100
AcDbDictionary
281
     1
  0
DICTIONARY
  5
D
102
{ACAD_REACTORS
330
C
102
}
330
C
100
AcDbDictionary
281
     1
  0
DICTIONARY
  5
1A
102
{ACAD_REACTORS
330
C
102
}
330
C
100
AcDbDictionary
281
     1
  3
Layout1
350
74
  3
Layout2
350
26
  3
Model
350
22
  0
DICTIONARY
  5
6B
102
{ACAD_REACTORS
330
C
102
}
330
C
100
AcDbDictionary
281
     1
  0
DICTIONARY
  5
17
102
{ACAD_REACTORS
330
C
102
}
330
C
100
AcDbDictionary
281
     1
  3
Standard
350
18
  0
DICTIONARY
  5
19
102
{ACAD_REACTORS
330
C
102
}
330
C
100
AcDbDictionary
281
     1
  0
ACDBDICTIONARYWDFLT
  5
E
102
{ACAD_REACTORS
330
C
102
}
330
C
100
AcDbDictionary
281
     1
  3
Normal
350
F
100
AcDbDictionaryWithDefault
340
F
  0
DICTIONARY
  5
47
102
{ACAD_REACTORS
330
C
102
}
330
C
100
AcDbDictionary
281
     1
  3
A0
350
48
  3
A1
350
49
  3
A2
350
4A
  3
A3
350
4B
  3
A4
350
4C
  3
A5
350
4D
  3
A6
350
4E
  3
A7
350
4F
  3
A8
350
50
  3
A9
350
51
  3
B0
350
52
  3
B1
350
53
  3
B2
350
54
  3
B3
350
55
  3
B4
350
56
  3
B5
350
57
  3
B6
350
58
  3
B7
350
64D
  3
B8
350
64E
  3
B9
350
5B
  3
C0
350
5C
  3
C1
350
5D
  3
C2
350
64F
  3
C3
350
5F
  3
C4
350
60
  3
C5
350
61
  3
C6
350
62
  3
C7
350
63
  3
C8
350
64
  3
C9
350
65
  3
D0
350
66
  3
D1
350
67
  3
D2
350
68
  0
DICTIONARY
  5
92
102
{ACAD_REACTORS
330
C
102
}
330
C
100
AcDbDictionary
281
     1
  3
Standard
350
93
  0
DICTIONARY
  5
59
102
{ACAD_REACTORS
330
C
102
}
330
C
100
AcDbDictionary
281
     1
  3
CTABLESTYLE
350
98
  3
HIDETEXT
350
63A
  0
LAYOUT
  5
74
102
{ACAD_REACTORS
330
1A
102
}
330
1A
100
AcDbPlotSettings
  1

  2
none_device
  4

  6

 40
0.0
 41
0.0
 42
0.0
 43
0.0
 44
0.0
 45
0.0
 46
0.0
 47
0.0
 48
0.0
 49
0.0
140
0.0
141
0.0
142
1.0
143
1.0
 70
   688
 72
     0
 73
     0
 74
     5
  7

 75
    16
 76
     0
 77
     2
 78
   300
147
1.0
148
0.0
149
0.0
100
AcDbLayout
  1
Layout1
 70
     1
 71
     1
 10
0.0
 20
0.0
 11
12.0
 21
9.0
 12
0.0
 22
0.0
 32
0.0
 14
1.000000000000000E+20
 24
1.000000000000000E+20
 34
1.000000000000000E+20
 15
-1.000000000000000E+20
 25
-1.000000000000000E+20
 35
-1.000000000000000E+20
146
0.0
 13
0.0
 23
0.0
 33
0.0
 16
1.0
 26
0.0
 36
0.0
 17
0.0
 27
1.0
 37
0.0
 76
     0
330
73
  0
LAYOUT
  5
26
102
{ACAD_REACTORS
330
1A
102
}
330
1A
100
AcDbPlotSettings
  1

  2
none_device
  4

  6

 40
0.0
 41
0.0
 42
0.0
 43
0.0
 44
0.0
 45
0.0
 46
0.0
 47
0.0
 48
0.0
 49
0.0
140
0.0
141
0.0
142
1.0
143
1.0
 70
   688
 72
     0
 73
     0
 74
     5
  7

 75
    16
 76
     0
 77
     2
 78
   300
147
1.0
148
0.0
149
0.0
100
AcDbLayout
  1
Layout2
 70
     1
 71
     2
 10
0.0
 20
0.0
 11
0.0
 21
0.0
 12
0.0
 22
0.0
 32
0.0
 14
0.0
 24
0.0
 34
0.0
 15
0.0
 25
0.0
 35
0.0
146
0.0
 13
0.0
 23
0.0
 33
0.0
 16
1.0
 26
0.0
 36
0.0
 17
0.0
 27
1.0
 37
0.0
 76
     0
330
23
  0
LAYOUT
  5
22
102
{ACAD_REACTORS
330
1A
102
}
330
1A
100
AcDbPlotSettings
  1

  2
none_device
  4
Letter_(8.50_x_11.00_Inches)
  6

 40
6.35
 41
6.35
 42
6.35000508
 43
6.35000508
 44
215.9
 45
279.4
 46
0.0
 47
0.0
 48
0.0
 49
0.0
140
0.0
141
0.0
142
1.0
143
1.0
 70
 11952
 72
     0
 73
     0
 74
     0
  7

 75
     0
 76
     0
 77
     2
 78
   300
147
1.0
148
0.0
149
0.0
100
AcDbLayout
  1
Model
 70
     1
 71
     0
 10
0.0
 20
0.0
 11
80.375
 21
60.0
 12
0.0
 22
0.0
 32
0.0
 14
0.1653543307086614
 24
0.1653543307086614
 34
-0.2015639397791229
 15
80.20964566929135
 25
59.83464566929134
 35
0.2015639397791228
146
0.0
 13
0.0
 23
0.0
 33
0.0
 16
1.0
 26
0.0
 36
0.0
 17
0.0
 27
1.0
 37
0.0
 76
     0
330
1F
  0
MLINESTYLE
  5
18
102
{ACAD_REACTORS
330
17
102
}
330
17
100
AcDbMlineStyle
  2
Standard
 70
     0
  3

 62
   256
 51
90.0
 52
90.0
 71
     2
 49
0.5
 62
   256
  6
BYLAYER
 49
-0.5
 62
   256
  6
BYLAYER
  0
ACDBPLACEHOLDER
  5
F
102
{ACAD_REACTORS
330
E
102
}
330
E
  0
ACAD_PROXY_OBJECT
  5
48
102
{ACAD_REACTORS
330
47
102
}
330
47
100
AcDbProxyObject
 90
      499
 91
      505
 95
   393239
 70
     0
 93
       41
310
903313A31580
  0
ACAD_PROXY_OBJECT
  5
49
102
{ACAD_REACTORS
330
47
102
}
330
47
100
AcDbProxyObject
 90
      499
 91
      505
 95
   393239
 70
     0
 93
      105
310
903313A324000000000000004000
  0
ACAD_PROXY_OBJECT
  5
4A
102
{ACAD_REACTORS
330
47
102
}
330
47
100
AcDbProxyObject
 90
      499
 91
      505
 95
   393239
 70
     0
 93
      105
310
903313A344000000000000104000
  0
ACAD_PROXY_OBJECT
  5
4B
102
{ACAD_REACTORS
330
47
102
}
330
47
100
AcDbProxyObject
 90
      499
 91
      505
 95
   393239
 70
     0
 93
      105
310
903313A354000000000000144000
  0
ACAD_PROXY_OBJECT
  5
4C
102
{ACAD_REACTORS
330
47
102
}
330
47
100
AcDbProxyObject
 90
      499
 91
      505
 95
   393239
 70
     0
 93
      105
310
903313A384000000000000204000
  0
ACAD_PROXY_OBJECT
  5
4D
102
{ACAD_REACTORS
330
47
102
}
330
47
100
AcDbProxyObject
 90
      499
 91
      505
 95
   393239
 70
     0
 93
      113
310
904313A31304000000000000244000
  0
ACAD_PROXY_OBJECT
  5
4E
102
{ACAD_REACTORS
330
47
102
}
330
47
100
AcDbProxyObject
 90
      499
 91
      505
 95
   393239
 70
     0
 93
      113
310
904313A31364000000000000304000
  0
ACAD_PROXY_OBJECT
  5
4F
102
{ACAD_REACTORS
330
47
102
}
330
47
100
AcDbProxyObject
 90
      499
 91
      505
 95
   393239
 70
     0
 93
      113
310
904313A32304000000000000344000
  0
ACAD_PROXY_OBJECT
  5
50
102
{ACAD_REACTORS
330
47
102
}
330
47
100
AcDbProxyObject
 90
      499
 91
      505
 95
   393239
 70
     0
 93
      113
310
904313A333040000000000003E4000
  0
ACAD_PROXY_OBJECT
  5
51
102
{ACAD_REACTORS
330
47
102
}
330
47
100
AcDbProxyObject
 90
      499
 91
      505
 95
   393239
 70
     0
 93
      113
310
904313A34304000000000000444000
  0
ACAD_PROXY_OBJECT
  5
52
102
{ACAD_REACTORS
330
47
102
}
330
47
100
AcDbProxyObject
 90
      499
 91
      505
 95
   393239
 70
     0
 93
      113
310
904313A35304000000000000494000
  0
ACAD_PROXY_OBJECT
  5
53
102
{ACAD_REACTORS
330
47
102
}
330
47
100
AcDbProxyObject
 90
      499
 91
      505
 95
   393239
 70
     0
 93
      121
310
905313A3130304000000000000594000
  0
ACAD_PROXY_OBJECT
  5
54
102
{ACAD_REACTORS
330
47
102
}
330
47
100
AcDbProxyObject
 90
      499
 91
      505
 95
   393239
 70
     0
 93
      105
310
903323A310000000000000010100
  0
ACAD_PROXY_OBJECT
  5
55
102
{ACAD_REACTORS
330
47
102
}
330
47
100
AcDbProxyObject
 90
      499
 91
      505
 95
   393239
 70
     0
 93
      105
310
903343A310000000000000410100
  0
ACAD_PROXY_OBJECT
  5
56
102
{ACAD_REACTORS
330
47
102
}
330
47
100
AcDbProxyObject
 90
      499
 91
      505
 95
   393239
 70
     0
 93
      105
310
903383A310000000000000810100
  0
ACAD_PROXY_OBJECT
  5
57
102
{ACAD_REACTORS
330
47
102
}
330
47
100
AcDbProxyObject
 90
      499
 91
      505
 95
   393239
 70
     0
 93
      113
310
90431303A310000000000000910100
  0
ACAD_PROXY_OBJECT
  5
58
102
{ACAD_REACTORS
330
47
102
}
330
47
100
AcDbProxyObject
 90
      499
 91
      505
 95
   393239
 70
     0
 93
      121
310
9053130303A310000000000001650100
  0
ACAD_PROXY_OBJECT
  5
64D
102
{ACAD_REACTORS
330
47
102
}
330
47
100
AcDbProxyObject
 90
      499
 91
      505
 95
   393239
 70
     0
 93
      257
310
90E312F31323822203D2031272D3022000000000000200FC000000000000284000
  0
ACAD_PROXY_OBJECT
  5
64E
102
{ACAD_REACTORS
330
47
102
}
330
47
100
AcDbProxyObject
 90
      499
 91
      505
 95
   393239
 70
     0
 93
      249
310
90D312F363422203D2031272D3022000000000000240FC000000000000284000
  0
ACAD_PROXY_OBJECT
  5
5B
102
{ACAD_REACTORS
330
47
102
}
330
47
100
AcDbProxyObject
 90
      499
 91
      505
 95
   393239
 70
     0
 93
      249
310
90D312F333222203D2031272D3022000000000000280FC000000000000284000
  0
ACAD_PROXY_OBJECT
  5
5C
102
{ACAD_REACTORS
330
47
102
}
330
47
100
AcDbProxyObject
 90
      499
 91
      505
 95
   393239
 70
     0
 93
      249
310
90D312F313622203D2031272D30220000000000002C0FC000000000000284000
  0
ACAD_PROXY_OBJECT
  5
5D
102
{ACAD_REACTORS
330
47
102
}
330
47
100
AcDbProxyObject
 90
      499
 91
      505
 95
   393239
 70
     0
 93
      249
310
90D332F333222203D2031272D30220000000000002E0FC000000000000284000
  0
ACAD_PROXY_OBJECT
  5
64F
102
{ACAD_REACTORS
330
47
102
}
330
47
100
AcDbProxyObject
 90
      499
 91
      505
 95
   393239
 70
     0
 93
      241
310
90C312F3822203D2031272D3022000000000000300FC000000000000284000
  0
ACAD_PROXY_OBJECT
  5
5F
102
{ACAD_REACTORS
330
47
102
}
330
47
100
AcDbProxyObject
 90
      499
 91
      505
 95
   393239
 70
     0
 93
      249
310
90D332F313622203D2031272D3022000000000000320FC000000000000284000
  0
ACAD_PROXY_OBJECT
  5
60
102
{ACAD_REACTORS
330
47
102
}
330
47
100
AcDbProxyObject
 90
      499
 91
      505
 95
   393239
 70
     0
 93
      241
310
90C312F3422203D2031272D3022000000000000340FC000000000000284000
  0
ACAD_PROXY_OBJECT
  5
61
102
{ACAD_REACTORS
330
47
102
}
330
47
100
AcDbProxyObject
 90
      499
 91
      505
 95
   393239
 70
     0
 93
      241
310
90C332F3822203D2031272D3022000000000000360FC000000000000284000
  0
ACAD_PROXY_OBJECT
  5
62
102
{ACAD_REACTORS
330
47
102
}
330
47
100
AcDbProxyObject
 90
      499
 91
      505
 95
   393239
 70
     0
 93
      241
310
90C312F3222203D2031272D3022000000000000380FC000000000000284000
  0
ACAD_PROXY_OBJECT
  5
63
102
{ACAD_REACTORS
330
47
102
}
330
47
100
AcDbProxyObject
 90
      499
 91
      505
 95
   393239
 70
     0
 93
      241
310
90C332F3422203D2031272D30220000000000003A0FC000000000000284000
  0
ACAD_PROXY_OBJECT
  5
64
102
{ACAD_REACTORS
330
47
102
}
330
47
100
AcDbProxyObject
 90
      499
 91
      505
 95
   393239
 70
     0
 93
      161
310
90A3122203D2031272D30224000000000000284000
  0
ACAD_PROXY_OBJECT
  5
65
102
{ACAD_REACTORS
330
47
102
}
330
47
100
AcDbProxyObject
 90
      499
 91
      505
 95
   393239
 70
     0
 93
      257
310
90E312D312F3222203D2031272D30220000000000003E0FC000000000000284000
  0
ACAD_PROXY_OBJECT
  5
66
102
{ACAD_REACTORS
330
47
102
}
330
47
100
AcDbProxyObject
 90
      499
 91
      505
 95
   393239
 70
     0
 93
      225
310
90A3322203D2031272D302200000000000002100000000000000284000
  0
ACAD_PROXY_OBJECT
  5
67
102
{ACAD_REACTORS
330
47
102
}
330
47
100
AcDbProxyObject
 90
      499
 91
      505
 95
   393239
 70
     0
 93
      225
310
90A3622203D2031272D302200000000000006100000000000000284000
  0
ACAD_PROXY_OBJECT
  5
68
102
{ACAD_REACTORS
330
47
102
}
330
47
100
AcDbProxyObject
 90
      499
 91
      505
 95
   393239
 70
     0
 93
      249
310
90D31272D3022203D2031272D30220000000000000A100000000000000284000
  0
TABLESTYLE
  5
93
102
{ACAD_REACTORS
330
92
102
}
330
92
100
AcDbTableStyle
  3
Standard
 70
     0
 71
     0
 40
0.06
 41
0.06
280
     0
281
     0
  7
Standard
140
0.18
170
     2
 62
     0
 63
     7
283
     0
274
    -2
284
     1
 64
     0
275
    -2
285
     1
 65
     0
276
    -2
286
     1
 66
     0
277
    -2
287
     1
 67
     0
278
    -2
288
     1
 68
     0
279
    -2
289
     1
 69
     0
  7
Standard
140
0.25
170
     5
 62
     0
 63
     7
283
     0
274
    -2
284
     1
 64
     0
275
    -2
285
     1
 65
     0
276
    -2
286
     1
 66
     0
277
    -2
287
     1
 67
     0
278
    -2
288
     1
 68
     0
279
    -2
289
     1
 69
     0
  7
Standard
140
0.18
170
     5
 62
     0
 63
     7
283
     0
274
    -2
284
     1
 64
     0
275
    -2
285
     1
 65
     0
276
    -2
286
     1
 66
     0
277
    -2
287
     1
 67
     0
278
    -2
288
     1
 68
     0
279
    -2
289
     1
 69
     0
  0
DICTIONARYVAR
  5
98
102
{ACAD_REACTORS
330
59
102
}
330
59
100
DictionaryVariables
280
     0
  1
STANDARD
  0
DICTIONARYVAR
  5
63A
102
{ACAD_REACTORS
330
59
102
}
330
59
100
DictionaryVariables
280
     0
  1
2
  0
ENDSEC
  0
EOF
