  0
SECTION
  2
HEADER
  9
$ACADVER
  1
AC1015
  9
$ACADMAINTVER
 70
     6
  9
$DWGCODEPAGE
  3
ANSI_1252
  9
$INSBASE
 10
0.0
 20
0.0
 30
0.0
  9
$EXTMIN
 10
0.0
 20
0.0
 30
0.0
  9
$EXTMAX
 10
90.0
 20
120.0
 30
0.0
  9
$LIMMIN
 10
0.0
 20
0.0
  9
$LIMMAX
 10
90.0
 20
120.0
  9
$ORTHOMODE
 70
     0
  9
$REGENMODE
 70
     1
  9
$FILLMODE
 70
     1
  9
$QTEXTMODE
 70
     0
  9
$MIRRTEXT
 70
     1
  9
$LTSCALE
 40
1.0
  9
$ATTMODE
 70
     1
  9
$TEXTSIZE
 40
0.5
  9
$TRACEWID
 40
0.05
  9
$TEXTSTYLE
  7
STANDARD
  9
$CLAYER
  8
0
  9
$CELTYPE
  6
ByLayer
  9
$CECOLOR
 62
   256
  9
$CELTSCALE
 40
1.0
  9
$DISPSILH
 70
     0
  9
$DIMSCALE
 40
1.0
  9
$DIMASZ
 40
0.3
  9
$DIMEXO
 40
0.1666666667
  9
$DIMDLI
 40
0.38
  9
$DIMRND
 40
0.0
  9
$DIMDLE
 40
0.0
  9
$DIMEXE
 40
0.375
  9
$DIMTP
 40
0.0
  9
$DIMTM
 40
0.0
  9
$DIMTXT
 40
0.5
  9
$DIMCEN
 40
0.09
  9
$DIMTSZ
 40
0.0
  9
$DIMTOL
 70
     0
  9
$DIMLIM
 70
     0
  9
$DIMTIH
 70
     1
  9
$DIMTOH
 70
     1
  9
$DIMSE1
 70
     0
  9
$DIMSE2
 70
     0
  9
$DIMTAD
 70
     0
  9
$DIMZIN
 70
     1
  9
$DIMBLK
  1

  9
$DIMASO
 70
     1
  9
$DIMSHO
 70
     1
  9
$DIMPOST
  1

  9
$DIMAPOST
  1

  9
$DIMALT
 70
     0
  9
$DIMALTD
 70
     2
  9
$DIMALTF
 40
25.4
  9
$DIMLFAC
 40
1.0
  9
$DIMTOFL
 70
     0
  9
$DIMTVP
 40
0.0
  9
$DIMTIX
 70
     0
  9
$DIMSOXD
 70
     0
  9
$DIMSAH
 70
     0
  9
$DIMBLK1
  1

  9
$DIMBLK2
  1

  9
$DIMSTYLE
  2
Standard
  9
$DIMCLRD
 70
     0
  9
$DIMCLRE
 70
     0
  9
$DIMCLRT
 70
     0
  9
$DIMTFAC
 40
1.0
  9
$DIMGAP
 40
0.125
  9
$DIMJUST
 70
     0
  9
$DIMSD1
 70
     0
  9
$DIMSD2
 70
     0
  9
$DIMTOLJ
 70
     1
  9
$DIMTZIN
 70
     1
  9
$DIMALTZ
 70
     0
  9
$DIMALTTZ
 70
     0
  9
$DIMUPT
 70
     0
  9
$DIMDEC
 70
     2
  9
$DIMTDEC
 70
     2
  9
$DIMALTU
 70
     2
  9
$DIMALTTD
 70
     2
  9
$DIMTXSTY
  7
STANDARD
  9
$DIMAUNIT
 70
     0
  9
$DIMADEC
 70
     2
  9
$DIMALTRND
 40
0.0
  9
$DIMAZIN
 70
     0
  9
$DIMDSEP
 70
    46
  9
$DIMATFIT
 70
     3
  9
$DIMFRAC
 70
     0
  9
$DIMLDRBLK
  1

  9
$DIMLUNIT
 70
     2
  9
$DIMLWD
 70
    -2
  9
$DIMLWE
 70
    -2
  9
$DIMTMOVE
 70
     0
  9
$LUNITS
 70
     2
  9
$LUPREC
 70
     4
  9
$SKETCHINC
 40
0.1
  9
$FILLETRAD
 40
0.5
  9
$AUNITS
 70
     0
  9
$AUPREC
 70
     2
  9
$MENU
  1
.
  9
$ELEVATION
 40
0.0
  9
$PELEVATION
 40
0.0
  9
$THICKNESS
 40
0.0
  9
$LIMCHECK
 70
     0
  9
$CHAMFERA
 40
0.0
  9
$CHAMFERB
 40
0.0
  9
$CHAMFERC
 40
0.0
  9
$CHAMFERD
 40
0.0
  9
$SKPOLY
 70
     0
  9
$TDCREATE
 40
2459478.602653542
  9
$TDUCREATE
 40
2459478.769320208
  9
$TDUPDATE
 40
2459478.60266015
  9
$TDUUPDATE
 40
2459478.769326817
  9
$TDINDWG
 40
0.0000000116
  9
$TDUSRTIMER
 40
0.0000000116
  9
$USRTIMER
 70
     1
  9
$ANGBASE
 50
0.0
  9
$ANGDIR
 70
     0
  9
$PDMODE
 70
     0
  9
$PDSIZE
 40
-1.0
  9
$PLINEWID
 40
0.0
  9
$SPLFRAME
 70
     0
  9
$SPLINETYPE
 70
     6
  9
$SPLINESEGS
 70
     8
  9
$HANDSEED
  5
4E5
  9
$SURFTAB1
 70
     6
  9
$SURFTAB2
 70
     6
  9
$SURFTYPE
 70
     6
  9
$SURFU
 70
     6
  9
$SURFV
 70
     6
  9
$UCSBASE
  2

  9
$UCSNAME
  2

  9
$UCSORG
 10
0.0
 20
0.0
 30
0.0
  9
$UCSXDIR
 10
1.0
 20
0.0
 30
0.0
  9
$UCSYDIR
 10
0.0
 20
1.0
 30
0.0
  9
$UCSORTHOREF
  2

  9
$UCSORTHOVIEW
 70
     0
  9
$UCSORGTOP
 10
0.0
 20
0.0
 30
0.0
  9
$UCSORGBOTTOM
 10
0.0
 20
0.0
 30
0.0
  9
$UCSORGLEFT
 10
0.0
 20
0.0
 30
0.0
  9
$UCSORGRIGHT
 10
0.0
 20
0.0
 30
0.0
  9
$UCSORGFRONT
 10
0.0
 20
0.0
 30
0.0
  9
$UCSORGBACK
 10
0.0
 20
0.0
 30
0.0
  9
$PUCSBASE
  2

  9
$PUCSNAME
  2

  9
$PUCSORG
 10
0.0
 20
0.0
 30
0.0
  9
$PUCSXDIR
 10
1.0
 20
0.0
 30
0.0
  9
$PUCSYDIR
 10
0.0
 20
1.0
 30
0.0
  9
$PUCSORTHOREF
  2

  9
$PUCSORTHOVIEW
 70
     0
  9
$PUCSORGTOP
 10
0.0
 20
0.0
 30
0.0
  9
$PUCSORGBOTTOM
 10
0.0
 20
0.0
 30
0.0
  9
$PUCSORGLEFT
 10
0.0
 20
0.0
 30
0.0
  9
$PUCSORGRIGHT
 10
0.0
 20
0.0
 30
0.0
  9
$PUCSORGFRONT
 10
0.0
 20
0.0
 30
0.0
  9
$PUCSORGBACK
 10
0.0
 20
0.0
 30
0.0
  9
$USERI1
 70
     0
  9
$USERI2
 70
     0
  9
$USERI3
 70
     0
  9
$USERI4
 70
     0
  9
$USERI5
 70
     0
  9
$USERR1
 40
0.0
  9
$USERR2
 40
0.0
  9
$USERR3
 40
0.0
  9
$USERR4
 40
0.0
  9
$USERR5
 40
0.0
  9
$WORLDVIEW
 70
     1
  9
$SHADEDGE
 70
     3
  9
$SHADEDIF
 70
    70
  9
$TILEMODE
 70
     1
  9
$MAXACTVP
 70
    64
  9
$PINSBASE
 10
0.0
 20
0.0
 30
0.0
  9
$PLIMCHECK
 70
     0
  9
$PEXTMIN
 10
1.0000000000E+20
 20
1.0000000000E+20
 30
1.0000000000E+20
  9
$PEXTMAX
 10
-1.0000000000E+20
 20
-1.0000000000E+20
 30
-1.0000000000E+20
  9
$PLIMMIN
 10
0.0
 20
0.0
  9
$PLIMMAX
 10
12.0
 20
9.0
  9
$UNITMODE
 70
     0
  9
$VISRETAIN
 70
     1
  9
$PLINEGEN
 70
     0
  9
$PSLTSCALE
 70
     1
  9
$TREEDEPTH
 70
  3020
  9
$CMLSTYLE
  2
Standard
  9
$CMLJUST
 70
     0
  9
$CMLSCALE
 40
1.0
  9
$PROXYGRAPHICS
 70
     1
  9
$MEASUREMENT
 70
     0
  9
$CELWEIGHT
370
    -1
  9
$ENDCAPS
280
     0
  9
$JOINSTYLE
280
     0
  9
$LWDISPLAY
290
     1
  9
$INSUNITS
 70
     1
  9
$HYPERLINKBASE
  1

  9
$STYLESHEET
  1

  9
$XEDIT
290
     1
  9
$CEPSNTYPE
380
     0
  9
$PSTYLEMODE
290
     1
  9
$FINGERPRINTGUID
  2
{8b8defb7-1299-4c50-8e41-4857aef81006}
  9
$VERSIONGUID
  2
{FAEB1C32-E019-11D5-929B-00C0DF256EC4}
  9
$EXTNAMES
290
     1
  9
$PSVPSCALE
 40
0.0
  9
$OLESTARTUP
290
     0
  0
ENDSEC
  0
SECTION
  2
CLASSES
  0
CLASS
  1
ACDBDICTIONARYWDFLT
  2
AcDbDictionaryWithDefault
  3
ObjectDBX Classes
 90
        0
280
     0
281
     0
  0
CLASS
  1
VISUALSTYLE
  2
AcDbVisualStyle
  3
ObjectDBX Classes
 90
     4095
280
     0
281
     0
  0
CLASS
  1
MATERIAL
  2
AcDbMaterial
  3
ObjectDBX Classes
 90
     1153
280
     0
281
     0
  0
CLASS
  1
SCALE
  2
AcDbScale
  3
ObjectDBX Classes
 90
     1153
280
     0
281
     0
  0
CLASS
  1
TABLESTYLE
  2
AcDbTableStyle
  3
ObjectDBX Classes
 90
     4095
280
     0
281
     0
  0
CLASS
  1
MLEADERSTYLE
  2
AcDbMLeaderStyle
  3
ACDB_MLEADERSTYLE_CLASS
 90
     4095
280
     0
281
     0
  0
CLASS
  1
SUN
  2
AcDbSun
  3
SCENEOE
 90
     1153
280
     0
281
     0
  0
CLASS
  1
ACDBPLACEHOLDER
  2
AcDbPlaceHolder
  3
ObjectDBX Classes
 90
        0
280
     0
281
     0
  0
CLASS
  1
LAYOUT
  2
AcDbLayout
  3
ObjectDBX Classes
 90
        0
280
     0
281
     0
  0
ENDSEC
  0
SECTION
  2
TABLES
  0
TABLE
  2
VPORT
  5
8
330
0
100
AcDbSymbolTable
 70
     1
  0
VPORT
  5
29
330
8
100
AcDbSymbolTableRecord
100
AcDbViewportTableRecord
  2
*Active
 70
     0
 10
0.0
 20
0.0
 11
1.0
 21
1.0
 12
45.0
 22
60.0
 13
0.0
 23
0.0
 14
0.5
 24
0.5
 15
0.5
 25
0.5
 16
0.0
 26
0.0
 36
1.0
 17
0.0
 27
0.0
 37
0.0
 40
120.0
 41
0.75
 42
50.0
 43
0.0
 44
0.0
 50
0.0
 51
0.0
 71
     0
 72
  2000
 73
     1
 74
     3
 75
     0
 76
     0
 77
     0
 78
     0
281
     0
 65
     1
110
0.0
120
0.0
130
0.0
111
1.0
121
0.0
131
0.0
112
0.0
122
1.0
132
0.0
 79
     0
146
0.0
  0
ENDTAB
  0
TABLE
  2
LTYPE
  5
5
330
0
100
AcDbSymbolTable
 70
     8
  0
LTYPE
  5
14
330
5
100
AcDbSymbolTableRecord
100
AcDbLinetypeTableRecord
  2
ByBlock
 70
     0
  3

 72
    65
 73
     0
 40
0.0
  0
LTYPE
  5
15
330
5
100
AcDbSymbolTableRecord
100
AcDbLinetypeTableRecord
  2
ByLayer
 70
     0
  3

 72
    65
 73
     0
 40
0.0
  0
LTYPE
  5
16
330
5
100
AcDbSymbolTableRecord
100
AcDbLinetypeTableRecord
  2
Continuous
 70
     0
  3
Solid line
 72
    65
 73
     0
 40
0.0
  0
LTYPE
  5
6E
330
5
100
AcDbSymbolTableRecord
100
AcDbLinetypeTableRecord
  2
SLD-Solid
 70
     0
  3
SolidWorks Line Style
 72
    65
 73
     0
 40
0.0
  0
LTYPE
  5
6F
330
5
100
AcDbSymbolTableRecord
100
AcDbLinetypeTableRecord
  2
SLD-Dashed
 70
     0
  3
SolidWorks Line Style
 72
    65
 73
     2
 40
0.075
 49
0.05
 74
     0
 49
-0.025
 74
     0
  0
LTYPE
  5
70
330
5
100
AcDbSymbolTableRecord
100
AcDbLinetypeTableRecord
  2
SLD-Phantom
 70
     0
  3
SolidWorks Line Style
 72
    65
 73
     6
 40
0.5
 49
0.25
 74
     0
 49
-0.05
 74
     0
 49
0.05
 74
     0
 49
-0.05
 74
     0
 49
0.05
 74
     0
 49
-0.05
 74
     0
  0
LTYPE
  5
71
330
5
100
AcDbSymbolTableRecord
100
AcDbLinetypeTableRecord
  2
SLD-Chain
 70
     0
  3
SolidWorks Line Style
 72
    65
 73
     4
 40
0.4
 49
0.25
 74
     0
 49
-0.05
 74
     0
 49
0.05
 74
     0
 49
-0.05
 74
     0
  0
LTYPE
  5
72
330
5
100
AcDbSymbolTableRecord
100
AcDbLinetypeTableRecord
  2
SLD-Center
 70
     0
  3
SolidWorks Line Style
 72
    65
 73
     4
 40
0.75
 49
0.6
 74
     0
 49
-0.05
 74
     0
 49
0.05
 74
     0
 49
-0.05
 74
     0
  0
LTYPE
  5
73
330
5
100
AcDbSymbolTableRecord
100
AcDbLinetypeTableRecord
  2
SLD-Stitch
 70
     0
  3
SolidWorks Line Style
 72
    65
 73
     2
 40
0.025
 49
0.0
 74
     0
 49
-0.025
 74
     0
  0
LTYPE
  5
74
330
5
100
AcDbSymbolTableRecord
100
AcDbLinetypeTableRecord
  2
SLD-Thin-Thick-Chain
 70
     0
  3
SolidWorks Line Style
 72
    65
 73
     4
 40
0.4
 49
0.25
 74
     0
 49
-0.05
 74
     0
 49
0.05
 74
     0
 49
-0.05
 74
     0
  0
ENDTAB
  0
TABLE
  2
LAYER
  5
2
330
0
100
AcDbSymbolTable
 70
     6
  0
LAYER
  5
10
330
2
100
AcDbSymbolTableRecord
100
AcDbLayerTableRecord
  2
0
 70
     0
 62
     7
  6
Continuous
370
    -3
390
F
  0
LAYER
  5
75
330
2
100
AcDbSymbolTableRecord
100
AcDbLayerTableRecord
  2
FORMAT
 70
     0
 62
     7
  6
SLD-Solid
370
    -3
390
F
  0
LAYER
  5
76
330
2
100
AcDbSymbolTableRecord
100
AcDbLayerTableRecord
  2
NOTES
 70
     0
 62
     1
  6
SLD-Solid
370
    -3
390
F
  0
LAYER
  5
77
330
2
100
AcDbSymbolTableRecord
100
AcDbLayerTableRecord
  2
OBJECT
 70
     0
 62
     7
  6
SLD-Solid
370
    25
390
F
  0
LAYER
  5
78
330
2
100
AcDbSymbolTableRecord
100
AcDbLayerTableRecord
  2
DIMS
 70
     0
 62
     5
  6
SLD-Solid
370
    -3
390
F
  0
LAYER
  5
79
330
2
100
AcDbSymbolTableRecord
100
AcDbLayerTableRecord
  2
TITLE
 70
     0
 62
     8
  6
SLD-Solid
370
    -3
390
F
  0
ENDTAB
  0
TABLE
  2
STYLE
  5
3
330
0
100
AcDbSymbolTable
 70
     5
  0
STYLE
  5
11
330
3
100
AcDbSymbolTableRecord
100
AcDbTextStyleTableRecord
  2
STANDARD
 70
     0
 40
0.0
 41
1.0
 50
0.0
 71
     0
 42
0.5
  3
GOTHIC.TTF
  4

1001
ACAD
1000
CENTURY GOTHIC
1071
       34
  0
STYLE
  5
15D
330
3
100
AcDbSymbolTableRecord
100
AcDbTextStyleTableRecord
  2
SLDTEXTSTYLE0
 70
     0
 40
0.0
 41
0.948
 50
0.0
 71
     0
 42
0.5
  3
ARIAL.TTF
  4

1001
ACAD
1000
Arial
1071
      290
  0
STYLE
  5
161
330
3
100
AcDbSymbolTableRecord
100
AcDbTextStyleTableRecord
  2
SLDTEXTSTYLE1
 70
     0
 40
0.0
 41
0.913
 50
0.0
 71
     0
 42
0.5
  3
GOTHIC.TTF
  4

1001
ACAD
1000
Century Gothic
1071
      290
  0
STYLE
  5
170
330
3
100
AcDbSymbolTableRecord
100
AcDbTextStyleTableRecord
  2
SLDTEXTSTYLE2
 70
     0
 40
0.0
 41
0.87
 50
0.0
 71
     0
 42
0.5
  3
ARIALNB.TTF
  4

1001
ACAD
1000
Arial Narrow
1071
 33554722
  0
STYLE
  5
172
330
3
100
AcDbSymbolTableRecord
100
AcDbTextStyleTableRecord
  2
SLDTEXTSTYLE3
 70
     0
 40
0.0
 41
0.87
 50
0.0
 71
     0
 42
0.5
  3
ARIALN.TTF
  4

1001
ACAD
1000
Arial Narrow
1071
      290
  0
ENDTAB
  0
TABLE
  2
VIEW
  5
6
330
0
100
AcDbSymbolTable
 70
     0
  0
ENDTAB
  0
TABLE
  2
UCS
  5
7
330
0
100
AcDbSymbolTable
 70
     0
  0
ENDTAB
  0
TABLE
  2
APPID
  5
9
330
0
100
AcDbSymbolTable
 70
     1
  0
APPID
  5
12
330
9
100
AcDbSymbolTableRecord
100
AcDbRegAppTableRecord
  2
ACAD
 70
     0
  0
ENDTAB
  0
TABLE
  2
DIMSTYLE
  5
A
330
0
100
AcDbSymbolTable
 70
     5
100
AcDbDimStyleTable
  0
DIMSTYLE
105
27
330
A
100
AcDbSymbolTableRecord
100
AcDbDimStyleTableRecord
  2
Standard
 70
     0
178
     0
340
11
  0
DIMSTYLE
105
288
102
{ACAD_REACTORS
330
287
330
2CE
330
39B
330
3AA
330
3B9
330
3C8
330
3E8
330
42E
102
}
330
A
100
AcDbSymbolTableRecord
100
AcDbDimStyleTableRecord
  2
SLDDIMSTYLE0
 70
     0
 41
0.3
 44
0.0
 45
0.000000001
 78
    12
 79
     3
140
0.5
147
0.125
173
     1
178
     0
271
     6
272
     2
276
     2
277
     5
284
    12
340
161
341
289
343
289
344
289
  0
DIMSTYLE
105
391
102
{ACAD_REACTORS
330
390
102
}
330
A
100
AcDbSymbolTableRecord
100
AcDbDimStyleTableRecord
  2
SLDDIMSTYLE1
 70
     0
 41
0.3
 44
0.0
 45
0.000000001
 78
    12
 79
     3
140
0.5
147
0.125
173
     1
178
     0
271
     2
272
     2
276
     2
277
     5
284
    12
340
161
341
289
343
289
344
289
  0
DIMSTYLE
105
3D8
102
{ACAD_REACTORS
330
3D7
102
}
330
A
100
AcDbSymbolTableRecord
100
AcDbDimStyleTableRecord
  2
SLDDIMSTYLE2
 70
     0
 41
0.3
 44
0.0
 45
0.000000001
 78
    12
 79
     3
140
0.5
147
0.125
172
     1
173
     1
178
     0
271
     6
272
     2
276
     2
277
     5
284
    12
289
     0
340
161
341
289
343
289
344
289
  0
DIMSTYLE
105
3F9
330
A
100
AcDbSymbolTableRecord
100
AcDbDimStyleTableRecord
  2
SLDDIMSTYLE3
 70
     0
 41
0.3
 44
0.0
 45
0.000000001
146
0.3
147
0.0
173
     1
178
     0
271
     0
272
     0
276
     2
277
     5
340
11
341
289
343
289
344
289
  0
ENDTAB
  0
TABLE
  2
BLOCK_RECORD
  5
1
330
0
100
AcDbSymbolTable
 70
    17
  0
BLOCK_RECORD
  5
1F
330
1
100
AcDbSymbolTableRecord
100
AcDbBlockTableRecord
  2
*Model_Space
340
22
  0
BLOCK_RECORD
  5
1B
330
1
100
AcDbSymbolTableRecord
100
AcDbBlockTableRecord
  2
*Paper_Space
340
1E
  0
BLOCK_RECORD
  5
23
330
1
100
AcDbSymbolTableRecord
100
AcDbBlockTableRecord
  2
*Paper_Space0
340
26
  0
BLOCK_RECORD
  5
167
330
1
100
AcDbSymbolTableRecord
100
AcDbBlockTableRecord
  2
SW_NOTE_0
340
0
102
{BLKREFS
331
16C
102
}
  0
BLOCK_RECORD
  5
16D
330
1
100
AcDbSymbolTableRecord
100
AcDbBlockTableRecord
  2
SW_NOTE_0_1
340
0
102
{BLKREFS
331
176
102
}
  0
BLOCK_RECORD
  5
289
330
1
100
AcDbSymbolTableRecord
100
AcDbBlockTableRecord
  2
_Open90
340
0
102
{BLKREFS
331
292
331
293
331
2D2
331
2D3
331
395
331
396
331
39F
331
3A0
331
3AE
331
3AF
331
3BD
331
3BE
331
3CC
331
3CD
331
3DC
331
3DD
331
3EC
331
3ED
331
432
331
433
102
}
  0
BLOCK_RECORD
  5
28F
330
1
100
AcDbSymbolTableRecord
100
AcDbBlockTableRecord
  2
_D
340
0
  0
BLOCK_RECORD
  5
2CF
330
1
100
AcDbSymbolTableRecord
100
AcDbBlockTableRecord
  2
_D_1
340
0
  0
BLOCK_RECORD
  5
33C
330
1
100
AcDbSymbolTableRecord
100
AcDbBlockTableRecord
  2
SW_NOTE_0_2
340
0
102
{BLKREFS
331
341
102
}
  0
BLOCK_RECORD
  5
392
330
1
100
AcDbSymbolTableRecord
100
AcDbBlockTableRecord
  2
_D_2
340
0
  0
BLOCK_RECORD
  5
39C
330
1
100
AcDbSymbolTableRecord
100
AcDbBlockTableRecord
  2
_D_3
340
0
  0
BLOCK_RECORD
  5
3AB
330
1
100
AcDbSymbolTableRecord
100
AcDbBlockTableRecord
  2
_D_4
340
0
  0
BLOCK_RECORD
  5
3BA
330
1
100
AcDbSymbolTableRecord
100
AcDbBlockTableRecord
  2
_D_5
340
0
  0
BLOCK_RECORD
  5
3C9
330
1
100
AcDbSymbolTableRecord
100
AcDbBlockTableRecord
  2
_D_6
340
0
  0
BLOCK_RECORD
  5
3D9
330
1
100
AcDbSymbolTableRecord
100
AcDbBlockTableRecord
  2
_D_7
340
0
  0
BLOCK_RECORD
  5
3E9
330
1
100
AcDbSymbolTableRecord
100
AcDbBlockTableRecord
  2
_D_8
340
0
  0
BLOCK_RECORD
  5
42F
330
1
100
AcDbSymbolTableRecord
100
AcDbBlockTableRecord
  2
_D_9
340
0
  0
BLOCK_RECORD
  5
4D7
330
1
100
AcDbSymbolTableRecord
100
AcDbBlockTableRecord
  2
SW_NOTE_0_3
340
0
102
{BLKREFS
331
4DC
102
}
  0
BLOCK_RECORD
  5
4DD
330
1
100
AcDbSymbolTableRecord
100
AcDbBlockTableRecord
  2
SW_NOTE_0_4
340
0
102
{BLKREFS
331
4E2
102
}
  0
ENDTAB
  0
ENDSEC
  0
SECTION
  2
BLOCKS
  0
BLOCK
  5
20
330
1F
100
AcDbEntity
  8
0
100
AcDbBlockBegin
  2
*Model_Space
 70
     0
 10
0.0
 20
0.0
 30
0.0
  3
*Model_Space
  1

  0
ENDBLK
  5
21
330
1F
100
AcDbEntity
  8
0
100
AcDbBlockEnd
  0
BLOCK
  5
1C
330
1B
100
AcDbEntity
 67
     1
  8
0
100
AcDbBlockBegin
  2
*Paper_Space
 70
     0
 10
0.0
 20
0.0
 30
0.0
  3
*Paper_Space
  1

  0
ENDBLK
  5
1D
330
1B
100
AcDbEntity
 67
     1
  8
0
100
AcDbBlockEnd
  0
BLOCK
  5
24
330
23
100
AcDbEntity
  8
0
100
AcDbBlockBegin
  2
*Paper_Space0
 70
     0
 10
0.0
 20
0.0
 30
0.0
  3
*Paper_Space0
  1

  0
ENDBLK
  5
25
330
23
100
AcDbEntity
  8
0
100
AcDbBlockEnd
  0
BLOCK
  5
168
330
167
100
AcDbEntity
  8
0
100
AcDbBlockBegin
  2
SW_NOTE_0
 70
     0
 10
0.0
 20
0.0
 30
0.0
  3
SW_NOTE_0
  1

  0
MTEXT
  5
16A
330
167
100
AcDbEntity
  8
NOTES
 62
     0
100
AcDbMText
 10
0.0
 20
0.3759780908
 30
0.0
 40
0.2916666667
 41
0.0
 71
     1
 72
     1
  1
FROST PRODUCTS LTD.
  7
SLDTEXTSTYLE0
 73
     1
 44
1.0
  0
MTEXT
  5
16B
330
167
100
AcDbEntity
  8
NOTES
 62
     0
100
AcDbMText
 10
0.0
 20
-0.0495142709
 30
0.0
 40
0.2291666667
 41
0.0
 71
     1
 72
     1
  1
5280 JOHN LUCAS DRIVE, BURLINGTON, ON, L7L 5Z9
  7
SLDTEXTSTYLE0
 73
     1
 44
1.0
  0
ENDBLK
  5
169
330
167
100
AcDbEntity
  8
0
100
AcDbBlockEnd
  0
BLOCK
  5
16E
330
16D
100
AcDbEntity
  8
0
100
AcDbBlockBegin
  2
SW_NOTE_0_1
 70
     0
 10
0.0
 20
0.0
 30
0.0
  3
SW_NOTE_0_1
  1

  0
MTEXT
  5
171
330
16D
100
AcDbEntity
  8
NOTES
 62
     0
100
AcDbMText
 10
0.0
 20
0.2381282771
 30
0.0
 40
0.184729064
 41
0.0
 71
     1
 72
     1
  1
PROPRIETARY AND CONFIDENTIAL
  7
SLDTEXTSTYLE2
 73
     1
 44
1.0
  0
MTEXT
  5
173
330
16D
100
AcDbEntity
  8
NOTES
 62
     0
100
AcDbMText
 10
0.0
 20
-0.0504364796
 30
0.0
 40
0.25
 41
0.0
 71
     1
 72
     1
  1
THE INFORMATION CONTAINED IN THIS DRAWING IS THE SOLE PROPERTY OF 
  7
SLDTEXTSTYLE3
 73
     1
 44
1.0
  0
MTEXT
  5
174
330
16D
100
AcDbEntity
  8
NOTES
 62
     0
100
AcDbMText
 10
0.0
 20
-0.4231398941
 30
0.0
 40
0.25
 41
0.0
 71
     1
 72
     1
  1
FROST PRODUCTS LTD.  ANY REPRODUCTION IN PART OR AS A WHOLE WITHOUT 
  7
SLDTEXTSTYLE3
 73
     1
 44
1.0
  0
MTEXT
  5
175
330
16D
100
AcDbEntity
  8
NOTES
 62
     0
100
AcDbMText
 10
0.0
 20
-0.7958433086
 30
0.0
 40
0.25
 41
0.0
 71
     1
 72
     1
  1
THE WRITTEN PERMISSION OF FROST PRODUCTS LTD. IS PROHIBITED.
  7
SLDTEXTSTYLE3
 73
     1
 44
1.0
  0
ENDBLK
  5
16F
330
16D
100
AcDbEntity
  8
0
100
AcDbBlockEnd
  0
BLOCK
  5
28A
330
289
100
AcDbEntity
  8
0
100
AcDbBlockBegin
  2
_Open90
 70
     0
 10
0.0
 20
0.0
 30
0.0
  3
_Open90
  1

  0
LINE
  5
28C
330
289
100
AcDbEntity
  8
0
  6
ByBlock
 62
     0
370
    -2
100
AcDbLine
 10
-0.5
 20
0.5
 30
0.0
 11
0.0
 21
0.0
 31
0.0
  0
LINE
  5
28D
330
289
100
AcDbEntity
  8
0
  6
ByBlock
 62
     0
370
    -2
100
AcDbLine
 10
0.0
 20
0.0
 30
0.0
 11
-0.5
 21
-0.5
 31
0.0
  0
LINE
  5
28E
330
289
100
AcDbEntity
  8
0
  6
ByBlock
 62
     0
370
    -2
100
AcDbLine
 10
0.0
 20
0.0
 30
0.0
 11
-1.0
 21
0.0
 31
0.0
  0
ENDBLK
  5
28B
330
289
100
AcDbEntity
  8
0
100
AcDbBlockEnd
  0
BLOCK
  5
290
330
28F
100
AcDbEntity
  8
0
100
AcDbBlockBegin
  2
_D
 70
     0
 10
0.0
 20
0.0
 30
0.0
  3
_D
  1

  0
INSERT
  5
292
330
28F
100
AcDbEntity
  8
DIMS
100
AcDbBlockReference
  2
_Open90
 10
27.6422646594
 20
32.4075887915
 30
-2.9877559055
 41
0.3
 42
0.3
 50
90.0
  0
INSERT
  5
293
330
28F
100
AcDbEntity
  8
DIMS
100
AcDbBlockReference
  2
_Open90
 10
27.6422646594
 20
21.1989273718
 30
-2.9877559055
 41
0.3
 42
0.3
 50
270.0
  0
LINE
  5
294
330
28F
100
AcDbEntity
  8
DIMS
100
AcDbLine
 10
27.4658757387
 20
26.6659092954
 30
0.0
 11
28.3512924336
 21
26.6659092954
 31
0.0
  0
LINE
  5
295
330
28F
100
AcDbEntity
  8
DIMS
100
AcDbLine
 10
21.371923452
 20
32.4075887915
 30
0.0
 11
28.0172646594
 21
32.4075887915
 31
0.0
  0
LINE
  5
296
330
28F
100
AcDbEntity
  8
DIMS
100
AcDbLine
 10
24.0353092788
 20
21.1989273718
 30
0.0
 11
28.0172646594
 21
21.1989273718
 31
0.0
  0
LINE
  5
297
330
28F
100
AcDbEntity
  8
DIMS
100
AcDbLine
 10
27.6422646594
 20
32.4075887915
 30
0.0
 11
27.6422646594
 21
27.2684787503
 31
0.0
  0
LINE
  5
298
330
28F
100
AcDbEntity
  8
DIMS
100
AcDbLine
 10
27.6422646594
 20
21.1989273718
 30
0.0
 11
27.6422646594
 21
25.9607704438
 31
0.0
  0
MTEXT
  5
299
330
28F
100
AcDbEntity
  8
DIMS
100
AcDbMText
 10
26.6537229457
 20
26.8953103559
 30
0.0
 40
0.5
 41
0.0
 71
     1
 72
     1
  1
11
  7
SLDTEXTSTYLE1
 73
     1
 44
1.0
  0
MTEXT
  5
29A
330
28F
100
AcDbEntity
  8
DIMS
100
AcDbMText
 10
27.7238618634
 20
27.2606228549
 30
0.0
 40
0.5
 41
0.0
 71
     1
 72
     1
  1
3
  7
SLDTEXTSTYLE1
 73
     1
 44
1.0
  0
MTEXT
  5
29B
330
28F
100
AcDbEntity
  8
DIMS
100
AcDbMText
 10
27.5391396407
 20
26.5994422764
 30
0.0
 40
0.5
 41
0.0
 71
     1
 72
     1
  1
16
  7
SLDTEXTSTYLE1
 73
     1
 44
1.0
  0
MTEXT
  5
29C
330
28F
100
AcDbEntity
  8
DIMS
100
AcDbMText
 10
28.4245564089
 20
26.8953103559
 30
0.0
 40
0.5
 41
0.0
 71
     1
 72
     1
  1
"
  7
SLDTEXTSTYLE1
 73
     1
 44
1.0
  0
ENDBLK
  5
291
330
28F
100
AcDbEntity
  8
0
100
AcDbBlockEnd
  0
BLOCK
  5
2D0
330
2CF
100
AcDbEntity
  8
0
100
AcDbBlockBegin
  2
_D_1
 70
     0
 10
0.0
 20
0.0
 30
0.0
  3
_D_1
  1

  0
INSERT
  5
2D2
330
2CF
100
AcDbEntity
  8
DIMS
100
AcDbBlockReference
  2
_Open90
 10
38.0947420226
 20
33.5060139884
 30
0.0
 41
0.3
 42
0.3
 50
0.0
  0
INSERT
  5
2D3
330
2CF
100
AcDbEntity
  8
DIMS
100
AcDbBlockReference
  2
_Open90
 10
32.1892302116
 20
33.5060139884
 30
0.0
 41
0.3
 42
0.3
 50
180.0
  0
LINE
  5
2D4
330
2CF
100
AcDbEntity
  8
DIMS
100
AcDbLine
 10
34.7989904735
 20
33.5572986868
 30
0.0
 11
35.314962723
 21
33.5572986868
 31
0.0
  0
LINE
  5
2D5
330
2CF
100
AcDbEntity
  8
DIMS
100
AcDbLine
 10
38.0947420226
 20
31.6092554582
 30
0.0
 11
38.0947420226
 21
33.8810139884
 31
0.0
  0
LINE
  5
2D6
330
2CF
100
AcDbEntity
  8
DIMS
100
AcDbLine
 10
32.1892302116
 20
32.4742554582
 30
0.0
 11
32.1892302116
 21
33.8810139884
 31
0.0
  0
LINE
  5
2D7
330
2CF
100
AcDbEntity
  8
DIMS
100
AcDbLine
 10
38.0947420226
 20
33.5060139884
 30
0.0
 11
35.5944766623
 21
33.5060139884
 31
0.0
  0
LINE
  5
2D8
330
2CF
100
AcDbEntity
  8
DIMS
100
AcDbLine
 10
32.1892302116
 20
33.5060139884
 30
0.0
 11
34.3562821261
 21
33.5060139884
 31
0.0
  0
MTEXT
  5
2D9
330
2CF
100
AcDbEntity
  8
DIMS
100
AcDbMText
 10
34.3562821261
 20
33.7866997472
 30
0.0
 40
0.5
 41
0.0
 71
     1
 72
     1
  1
5
  7
SLDTEXTSTYLE1
 73
     1
 44
1.0
  0
MTEXT
  5
2DA
330
2CF
100
AcDbEntity
  8
DIMS
100
AcDbMText
 10
34.8722543755
 20
34.1520122463
 30
0.0
 40
0.5
 41
0.0
 71
     1
 72
     1
  1
7
  7
SLDTEXTSTYLE1
 73
     1
 44
1.0
  0
MTEXT
  5
2DB
330
2CF
100
AcDbEntity
  8
DIMS
100
AcDbMText
 10
34.8722543755
 20
33.4908316677
 30
0.0
 40
0.5
 41
0.0
 71
     1
 72
     1
  1
8
  7
SLDTEXTSTYLE1
 73
     1
 44
1.0
  0
MTEXT
  5
2DC
330
2CF
100
AcDbEntity
  8
DIMS
100
AcDbMText
 10
35.388226625
 20
33.7866997472
 30
0.0
 40
0.5
 41
0.0
 71
     1
 72
     1
  1
"
  7
SLDTEXTSTYLE1
 73
     1
 44
1.0
  0
ENDBLK
  5
2D1
330
2CF
100
AcDbEntity
  8
0
100
AcDbBlockEnd
  0
BLOCK
  5
33D
330
33C
100
AcDbEntity
  8
0
100
AcDbBlockBegin
  2
SW_NOTE_0_2
 70
     0
 10
0.0
 20
0.0
 30
0.0
  3
SW_NOTE_0_2
  1

  0
MTEXT
  5
33F
330
33C
100
AcDbEntity
  8
NOTES
 62
     0
100
AcDbMText
 10
0.0
 20
0.638671875
 30
0.0
 40
0.5
 41
0.0
 71
     1
 72
     1
  1
3D view
  7
SLDTEXTSTYLE1
 73
     1
 44
1.0
  0
MTEXT
  5
340
330
33C
100
AcDbEntity
  8
NOTES
 62
     0
100
AcDbMText
 10
0.0
 20
-0.3613281862
 30
0.0
 40
0.5
 41
0.0
 71
     1
 72
     1
  1
code 170
  7
SLDTEXTSTYLE1
 73
     1
 44
1.0
  0
ENDBLK
  5
33E
330
33C
100
AcDbEntity
  8
0
100
AcDbBlockEnd
  0
BLOCK
  5
393
330
392
100
AcDbEntity
  8
0
100
AcDbBlockBegin
  2
_D_2
 70
     0
 10
0.0
 20
0.0
 30
0.0
  3
_D_2
  1

  0
INSERT
  5
395
330
392
100
AcDbEntity
  8
DIMS
100
AcDbBlockReference
  2
_Open90
 10
41.6076649306
 20
32.4075887915
 30
0.0
 41
0.3
 42
0.3
 50
90.0
  0
INSERT
  5
396
330
392
100
AcDbEntity
  8
DIMS
100
AcDbBlockReference
  2
_Open90
 10
41.6076649306
 20
14.4075887915
 30
0.0
 41
0.3
 42
0.3
 50
270.0
  0
LINE
  5
397
330
392
100
AcDbEntity
  8
DIMS
100
AcDbLine
 10
48.3504470828
 20
32.4075887915
 30
0.0
 11
41.2326649306
 21
32.4075887915
 31
0.0
  0
LINE
  5
398
330
392
100
AcDbEntity
  8
DIMS
100
AcDbLine
 10
41.6076649306
 20
32.4075887915
 30
0.0
 11
41.6076649306
 21
17.6230675763
 31
0.0
  0
MTEXT
  5
399
330
392
100
AcDbEntity
  8
DIMS
100
AcDbMText
 10
29.7340500956
 20
17.4679894824
 30
0.0
 40
0.5
 41
0.0
 71
     1
 72
     1
  1
                                                              31" (785mm) Max. height of top of unit
  7
SLDTEXTSTYLE1
 73
     1
 44
1.0
  0
MTEXT
  5
39A
330
392
100
AcDbEntity
  8
DIMS
100
AcDbMText
 10
41.3305815965
 20
14.2929893869
 30
0.0
 40
0.5
 41
0.0
 71
     1
 72
     1
  1
   
  7
SLDTEXTSTYLE1
 73
     1
 44
1.0
  0
ENDBLK
  5
394
330
392
100
AcDbEntity
  8
0
100
AcDbBlockEnd
  0
BLOCK
  5
39D
330
39C
100
AcDbEntity
  8
0
100
AcDbBlockBegin
  2
_D_3
 70
     0
 10
0.0
 20
0.0
 30
0.0
  3
_D_3
  1

  0
INSERT
  5
39F
330
39C
100
AcDbEntity
  8
DIMS
100
AcDbBlockReference
  2
_Open90
 10
49.0124680802
 20
34.4508958782
 30
2.9877559055
 41
0.3
 42
0.3
 50
180.0
  0
INSERT
  5
3A0
330
39C
100
AcDbEntity
  8
DIMS
100
AcDbBlockReference
  2
_Open90
 10
53.4324680802
 20
34.4508958782
 30
2.9877559055
 41
0.3
 42
0.3
 50
0.0
  0
LINE
  5
3A1
330
39C
100
AcDbEntity
  8
DIMS
100
AcDbLine
 10
51.250795803
 20
34.5021805765
 30
0.0
 11
52.136212498
 21
34.5021805765
 31
0.0
  0
LINE
  5
3A2
330
39C
100
AcDbEntity
  8
DIMS
100
AcDbLine
 10
49.0124680802
 20
31.4742554582
 30
0.0
 11
49.0124680802
 21
34.8258958782
 31
0.0
  0
LINE
  5
3A3
330
39C
100
AcDbEntity
  8
DIMS
100
AcDbLine
 10
53.4324680802
 20
31.4742554582
 30
0.0
 11
53.4324680802
 21
34.8258958782
 31
0.0
  0
LINE
  5
3A4
330
39C
100
AcDbEntity
  8
DIMS
100
AcDbLine
 10
49.0124680802
 20
34.4508958782
 30
0.0
 11
50.8080874556
 21
34.4508958782
 31
0.0
  0
LINE
  5
3A5
330
39C
100
AcDbEntity
  8
DIMS
100
AcDbLine
 10
53.4324680802
 20
34.4508958782
 30
0.0
 11
52.415726364
 21
34.4508958782
 31
0.0
  0
MTEXT
  5
3A6
330
39C
100
AcDbEntity
  8
DIMS
100
AcDbMText
 10
50.8080874556
 20
34.731581637
 30
0.0
 40
0.5
 41
0.0
 71
     1
 72
     1
  1
4
  7
SLDTEXTSTYLE1
 73
     1
 44
1.0
  0
MTEXT
  5
3A7
330
39C
100
AcDbEntity
  8
DIMS
100
AcDbMText
 10
51.5087819278
 20
35.096894136
 30
0.0
 40
0.5
 41
0.0
 71
     1
 72
     1
  1
7
  7
SLDTEXTSTYLE1
 73
     1
 44
1.0
  0
MTEXT
  5
3A8
330
39C
100
AcDbEntity
  8
DIMS
100
AcDbMText
 10
51.324059705
 20
34.4357135575
 30
0.0
 40
0.5
 41
0.0
 71
     1
 72
     1
  1
16
  7
SLDTEXTSTYLE1
 73
     1
 44
1.0
  0
MTEXT
  5
3A9
330
39C
100
AcDbEntity
  8
DIMS
100
AcDbMText
 10
52.2094763999
 20
34.731581637
 30
0.0
 40
0.5
 41
0.0
 71
     1
 72
     1
  1
"
  7
SLDTEXTSTYLE1
 73
     1
 44
1.0
  0
ENDBLK
  5
39E
330
39C
100
AcDbEntity
  8
0
100
AcDbBlockEnd
  0
BLOCK
  5
3AC
330
3AB
100
AcDbEntity
  8
0
100
AcDbBlockBegin
  2
_D_4
 70
     0
 10
0.0
 20
0.0
 30
0.0
  3
_D_4
  1

  0
INSERT
  5
3AE
330
3AB
100
AcDbEntity
  8
DIMS
100
AcDbBlockReference
  2
_Open90
 10
48.5112082377
 20
35.5650691041
 30
2.9877559055
 41
0.3
 42
0.3
 50
180.0
  0
INSERT
  5
3AF
330
3AB
100
AcDbEntity
  8
DIMS
100
AcDbBlockReference
  2
_Open90
 10
53.4324680802
 20
35.5650691041
 30
2.9877559055
 41
0.3
 42
0.3
 50
0.0
  0
LINE
  5
3B0
330
3AB
100
AcDbEntity
  8
DIMS
100
AcDbLine
 10
49.8098006359
 20
35.6163538025
 30
0.0
 11
50.6952173308
 21
35.6163538025
 31
0.0
  0
LINE
  5
3B1
330
3AB
100
AcDbEntity
  8
DIMS
100
AcDbLine
 10
48.5112082377
 20
23.9305940384
 30
0.0
 11
48.5112082377
 21
35.9400691041
 31
0.0
  0
LINE
  5
3B2
330
3AB
100
AcDbEntity
  8
DIMS
100
AcDbLine
 10
53.4324680802
 20
31.4742554582
 30
0.0
 11
53.4324680802
 21
35.9400691041
 31
0.0
  0
LINE
  5
3B3
330
3AB
100
AcDbEntity
  8
DIMS
100
AcDbLine
 10
48.5112082377
 20
35.5650691041
 30
0.0
 11
49.3670922884
 21
35.5650691041
 31
0.0
  0
LINE
  5
3B4
330
3AB
100
AcDbEntity
  8
DIMS
100
AcDbLine
 10
53.4324680802
 20
35.5650691041
 30
0.0
 11
50.9747311969
 21
35.5650691041
 31
0.0
  0
MTEXT
  5
3B5
330
3AB
100
AcDbEntity
  8
DIMS
100
AcDbMText
 10
49.3670922884
 20
35.8457548629
 30
0.0
 40
0.5
 41
0.0
 71
     1
 72
     1
  1
4
  7
SLDTEXTSTYLE1
 73
     1
 44
1.0
  0
MTEXT
  5
3B6
330
3AB
100
AcDbEntity
  8
DIMS
100
AcDbMText
 10
49.8830645379
 20
36.2110673619
 30
0.0
 40
0.5
 41
0.0
 71
     1
 72
     1
  1
15
  7
SLDTEXTSTYLE1
 73
     1
 44
1.0
  0
MTEXT
  5
3B7
330
3AB
100
AcDbEntity
  8
DIMS
100
AcDbMText
 10
49.8830645379
 20
35.5498867834
 30
0.0
 40
0.5
 41
0.0
 71
     1
 72
     1
  1
16
  7
SLDTEXTSTYLE1
 73
     1
 44
1.0
  0
MTEXT
  5
3B8
330
3AB
100
AcDbEntity
  8
DIMS
100
AcDbMText
 10
50.7684812328
 20
35.8457548629
 30
0.0
 40
0.5
 41
0.0
 71
     1
 72
     1
  1
"
  7
SLDTEXTSTYLE1
 73
     1
 44
1.0
  0
ENDBLK
  5
3AD
330
3AB
100
AcDbEntity
  8
0
100
AcDbBlockEnd
  0
BLOCK
  5
3BB
330
3BA
100
AcDbEntity
  8
0
100
AcDbBlockBegin
  2
_D_5
 70
     0
 10
0.0
 20
0.0
 30
0.0
  3
_D_5
  1

  0
INSERT
  5
3BD
330
3BA
100
AcDbEntity
  8
DIMS
100
AcDbBlockReference
  2
_Open90
 10
53.4324680802
 20
34.4508958782
 30
2.9877559055
 41
0.3
 42
0.3
 50
180.0
  0
INSERT
  5
3BE
330
3BA
100
AcDbEntity
  8
DIMS
100
AcDbBlockReference
  2
_Open90
 10
57.8524680802
 20
34.4508958782
 30
2.9877559055
 41
0.3
 42
0.3
 50
0.0
  0
LINE
  5
3BF
330
3BA
100
AcDbEntity
  8
DIMS
100
AcDbLine
 10
54.6483490732
 20
34.5021805765
 30
0.0
 11
55.5337657682
 21
34.5021805765
 31
0.0
  0
LINE
  5
3C0
330
3BA
100
AcDbEntity
  8
DIMS
100
AcDbLine
 10
53.4324680802
 20
31.4742554582
 30
0.0
 11
53.4324680802
 21
34.8258958782
 31
0.0
  0
LINE
  5
3C1
330
3BA
100
AcDbEntity
  8
DIMS
100
AcDbLine
 10
57.8524680802
 20
31.4742554582
 30
0.0
 11
57.8524680802
 21
34.8258958782
 31
0.0
  0
LINE
  5
3C2
330
3BA
100
AcDbEntity
  8
DIMS
100
AcDbLine
 10
53.4324680802
 20
34.4508958782
 30
0.0
 11
54.2056407258
 21
34.4508958782
 31
0.0
  0
LINE
  5
3C3
330
3BA
100
AcDbEntity
  8
DIMS
100
AcDbLine
 10
57.8524680802
 20
34.4508958782
 30
0.0
 11
55.8132796342
 21
34.4508958782
 31
0.0
  0
MTEXT
  5
3C4
330
3BA
100
AcDbEntity
  8
DIMS
100
AcDbMText
 10
54.2056407258
 20
34.731581637
 30
0.0
 40
0.5
 41
0.0
 71
     1
 72
     1
  1
4
  7
SLDTEXTSTYLE1
 73
     1
 44
1.0
  0
MTEXT
  5
3C5
330
3BA
100
AcDbEntity
  8
DIMS
100
AcDbMText
 10
54.906335198
 20
35.096894136
 30
0.0
 40
0.5
 41
0.0
 71
     1
 72
     1
  1
7
  7
SLDTEXTSTYLE1
 73
     1
 44
1.0
  0
MTEXT
  5
3C6
330
3BA
100
AcDbEntity
  8
DIMS
100
AcDbMText
 10
54.7216129752
 20
34.4357135575
 30
0.0
 40
0.5
 41
0.0
 71
     1
 72
     1
  1
16
  7
SLDTEXTSTYLE1
 73
     1
 44
1.0
  0
MTEXT
  5
3C7
330
3BA
100
AcDbEntity
  8
DIMS
100
AcDbMText
 10
55.6070296701
 20
34.731581637
 30
0.0
 40
0.5
 41
0.0
 71
     1
 72
     1
  1
"
  7
SLDTEXTSTYLE1
 73
     1
 44
1.0
  0
ENDBLK
  5
3BC
330
3BA
100
AcDbEntity
  8
0
100
AcDbBlockEnd
  0
BLOCK
  5
3CA
330
3C9
100
AcDbEntity
  8
0
100
AcDbBlockBegin
  2
_D_6
 70
     0
 10
0.0
 20
0.0
 30
0.0
  3
_D_6
  1

  0
INSERT
  5
3CC
330
3C9
100
AcDbEntity
  8
DIMS
100
AcDbBlockReference
  2
_Open90
 10
58.3537279227
 20
35.5650691041
 30
2.9877559055
 41
0.3
 42
0.3
 50
0.0
  0
INSERT
  5
3CD
330
3C9
100
AcDbEntity
  8
DIMS
100
AcDbBlockReference
  2
_Open90
 10
53.4324680802
 20
35.5650691041
 30
2.9877559055
 41
0.3
 42
0.3
 50
180.0
  0
LINE
  5
3CE
330
3C9
100
AcDbEntity
  8
DIMS
100
AcDbLine
 10
56.0939022433
 20
35.6163538025
 30
0.0
 11
56.9793189382
 21
35.6163538025
 31
0.0
  0
LINE
  5
3CF
330
3C9
100
AcDbEntity
  8
DIMS
100
AcDbLine
 10
58.3537279227
 20
23.9305940384
 30
0.0
 11
58.3537279227
 21
35.9400691041
 31
0.0
  0
LINE
  5
3D0
330
3C9
100
AcDbEntity
  8
DIMS
100
AcDbLine
 10
53.4324680802
 20
31.4742554582
 30
0.0
 11
53.4324680802
 21
35.9400691041
 31
0.0
  0
LINE
  5
3D1
330
3C9
100
AcDbEntity
  8
DIMS
100
AcDbLine
 10
58.3537279227
 20
35.5650691041
 30
0.0
 11
57.2588328042
 21
35.5650691041
 31
0.0
  0
LINE
  5
3D2
330
3C9
100
AcDbEntity
  8
DIMS
100
AcDbLine
 10
53.4324680802
 20
35.5650691041
 30
0.0
 11
55.6511938958
 21
35.5650691041
 31
0.0
  0
MTEXT
  5
3D3
330
3C9
100
AcDbEntity
  8
DIMS
100
AcDbMText
 10
55.6511938958
 20
35.8457548629
 30
0.0
 40
0.5
 41
0.0
 71
     1
 72
     1
  1
4
  7
SLDTEXTSTYLE1
 73
     1
 44
1.0
  0
MTEXT
  5
3D4
330
3C9
100
AcDbEntity
  8
DIMS
100
AcDbMText
 10
56.1671661452
 20
36.2110673619
 30
0.0
 40
0.5
 41
0.0
 71
     1
 72
     1
  1
15
  7
SLDTEXTSTYLE1
 73
     1
 44
1.0
  0
MTEXT
  5
3D5
330
3C9
100
AcDbEntity
  8
DIMS
100
AcDbMText
 10
56.1671661452
 20
35.5498867834
 30
0.0
 40
0.5
 41
0.0
 71
     1
 72
     1
  1
16
  7
SLDTEXTSTYLE1
 73
     1
 44
1.0
  0
MTEXT
  5
3D6
330
3C9
100
AcDbEntity
  8
DIMS
100
AcDbMText
 10
57.0525828402
 20
35.8457548629
 30
0.0
 40
0.5
 41
0.0
 71
     1
 72
     1
  1
"
  7
SLDTEXTSTYLE1
 73
     1
 44
1.0
  0
ENDBLK
  5
3CB
330
3C9
100
AcDbEntity
  8
0
100
AcDbBlockEnd
  0
BLOCK
  5
3DA
330
3D9
100
AcDbEntity
  8
0
100
AcDbBlockBegin
  2
_D_7
 70
     0
 10
0.0
 20
0.0
 30
0.0
  3
_D_7
  1

  0
INSERT
  5
3DC
330
3D9
100
AcDbEntity
  8
DIMS
100
AcDbBlockReference
  2
_Open90
 10
42.7887672928
 20
31.3075887915
 30
2.9877559055
 41
0.3
 42
0.3
 50
90.0
  0
INSERT
  5
3DD
330
3D9
100
AcDbEntity
  8
DIMS
100
AcDbBlockReference
  2
_Open90
 10
42.7887672928
 20
32.4075887915
 30
2.9877559055
 41
0.3
 42
0.3
 50
270.0
  0
LINE
  5
3DE
330
3D9
100
AcDbEntity
  8
DIMS
100
AcDbLine
 10
41.693281104
 20
33.3210782143
 30
0.0
 11
42.2092533535
 21
33.3210782143
 31
0.0
  0
LINE
  5
3DF
330
3D9
100
AcDbEntity
  8
DIMS
100
AcDbLine
 10
48.8458014136
 20
31.3075887915
 30
0.0
 11
42.4137672928
 21
31.3075887915
 31
0.0
  0
LINE
  5
3E0
330
3D9
100
AcDbEntity
  8
DIMS
100
AcDbLine
 10
48.3504470828
 20
32.4075887915
 30
0.0
 11
42.4137672928
 21
32.4075887915
 31
0.0
  0
LINE
  5
3E1
330
3D9
100
AcDbEntity
  8
DIMS
100
AcDbLine
 10
42.4887672928
 20
33.269793516
 30
0.0
 11
42.7887672928
 21
33.269793516
 31
0.0
  0
LINE
  5
3E2
330
3D9
100
AcDbEntity
  8
DIMS
100
AcDbLine
 10
42.7887672928
 20
33.269793516
 30
0.0
 11
42.7887672928
 21
32.4075887915
 31
0.0
  0
LINE
  5
3E3
330
3D9
100
AcDbEntity
  8
DIMS
100
AcDbLine
 10
42.7887672928
 20
31.3075887915
 30
0.0
 11
42.7887672928
 21
31.0075887915
 31
0.0
  0
MTEXT
  5
3E4
330
3D9
100
AcDbEntity
  8
DIMS
100
AcDbMText
 10
41.2505727565
 20
33.5504792748
 30
0.0
 40
0.5
 41
0.0
 71
     1
 72
     1
  1
1
  7
SLDTEXTSTYLE1
 73
     1
 44
1.0
  0
MTEXT
  5
3E5
330
3D9
100
AcDbEntity
  8
DIMS
100
AcDbMText
 10
41.766545006
 20
33.9157917738
 30
0.0
 40
0.5
 41
0.0
 71
     1
 72
     1
  1
1
  7
SLDTEXTSTYLE1
 73
     1
 44
1.0
  0
MTEXT
  5
3E6
330
3D9
100
AcDbEntity
  8
DIMS
100
AcDbMText
 10
41.766545006
 20
33.2546111953
 30
0.0
 40
0.5
 41
0.0
 71
     1
 72
     1
  1
8
  7
SLDTEXTSTYLE1
 73
     1
 44
1.0
  0
MTEXT
  5
3E7
330
3D9
100
AcDbEntity
  8
DIMS
100
AcDbMText
 10
42.2825172554
 20
33.5504792748
 30
0.0
 40
0.5
 41
0.0
 71
     1
 72
     1
  1
"
  7
SLDTEXTSTYLE1
 73
     1
 44
1.0
  0
ENDBLK
  5
3DB
330
3D9
100
AcDbEntity
  8
0
100
AcDbBlockEnd
  0
BLOCK
  5
3EA
330
3E9
100
AcDbEntity
  8
0
100
AcDbBlockBegin
  2
_D_8
 70
     0
 10
0.0
 20
0.0
 30
0.0
  3
_D_8
  1

  0
INSERT
  5
3EC
330
3E9
100
AcDbEntity
  8
DIMS
100
AcDbBlockReference
  2
_Open90
 10
42.7887672928
 20
31.3075887915
 30
2.9877559055
 41
0.3
 42
0.3
 50
90.0
  0
INSERT
  5
3ED
330
3E9
100
AcDbEntity
  8
DIMS
100
AcDbBlockReference
  2
_Open90
 10
42.7887672928
 20
23.7639273718
 30
2.9877559055
 41
0.3
 42
0.3
 50
270.0
  0
LINE
  5
3EE
330
3E9
100
AcDbEntity
  8
DIMS
100
AcDbLine
 10
42.4276561861
 20
30.0449255357
 30
0.0
 11
43.313072881
 21
30.0449255357
 31
0.0
  0
LINE
  5
3EF
330
3E9
100
AcDbEntity
  8
DIMS
100
AcDbLine
 10
48.8458014136
 20
31.3075887915
 30
0.0
 11
42.4137672928
 21
31.3075887915
 31
0.0
  0
LINE
  5
3F0
330
3E9
100
AcDbEntity
  8
DIMS
100
AcDbLine
 10
48.344541571
 20
23.7639273718
 30
0.0
 11
42.4137672928
 21
23.7639273718
 31
0.0
  0
LINE
  5
3F1
330
3E9
100
AcDbEntity
  8
DIMS
100
AcDbLine
 10
42.7887672928
 20
31.3075887915
 30
0.0
 11
42.7887672928
 21
30.6474949906
 31
0.0
  0
LINE
  5
3F2
330
3E9
100
AcDbEntity
  8
DIMS
100
AcDbLine
 10
42.7887672928
 20
23.7639273718
 30
0.0
 11
42.7887672928
 21
29.339786684
 31
0.0
  0
MTEXT
  5
3F3
330
3E9
100
AcDbEntity
  8
DIMS
100
AcDbMText
 10
41.9849478386
 20
30.2743265962
 30
0.0
 40
0.5
 41
0.0
 71
     1
 72
     1
  1
7
  7
SLDTEXTSTYLE1
 73
     1
 44
1.0
  0
MTEXT
  5
3F4
330
3E9
100
AcDbEntity
  8
DIMS
100
AcDbMText
 10
42.6856423108
 20
30.6396390952
 30
0.0
 40
0.5
 41
0.0
 71
     1
 72
     1
  1
9
  7
SLDTEXTSTYLE1
 73
     1
 44
1.0
  0
MTEXT
  5
3F5
330
3E9
100
AcDbEntity
  8
DIMS
100
AcDbMText
 10
42.5009200881
 20
29.9784585167
 30
0.0
 40
0.5
 41
0.0
 71
     1
 72
     1
  1
16
  7
SLDTEXTSTYLE1
 73
     1
 44
1.0
  0
MTEXT
  5
3F6
330
3E9
100
AcDbEntity
  8
DIMS
100
AcDbMText
 10
43.386336783
 20
30.2743265962
 30
0.0
 40
0.5
 41
0.0
 71
     1
 72
     1
  1
"
  7
SLDTEXTSTYLE1
 73
     1
 44
1.0
  0
ENDBLK
  5
3EB
330
3E9
100
AcDbEntity
  8
0
100
AcDbBlockEnd
  0
BLOCK
  5
430
330
42F
100
AcDbEntity
  8
0
100
AcDbBlockBegin
  2
_D_9
 70
     0
 10
0.0
 20
0.0
 30
0.0
  3
_D_9
  1

  0
INSERT
  5
432
330
42F
100
AcDbEntity
  8
DIMS
100
AcDbBlockReference
  2
_Open90
 10
26.5399024546
 20
34.763778927
 30
-4.9586614173
 41
0.3
 42
0.3
 50
0.0
  0
INSERT
  5
433
330
42F
100
AcDbEntity
  8
DIMS
100
AcDbBlockReference
  2
_Open90
 10
6.0399024546
 20
34.763778927
 30
-4.9586614173
 41
0.3
 42
0.3
 50
180.0
  0
LINE
  5
434
330
42F
100
AcDbEntity
  8
DIMS
100
AcDbLine
 10
16.6318978052
 20
34.8150636254
 30
0.0
 11
17.1478700547
 21
34.8150636254
 31
0.0
  0
LINE
  5
435
330
42F
100
AcDbEntity
  8
DIMS
100
AcDbLine
 10
26.5399024546
 20
42.6198681658
 30
0.0
 11
26.5399024546
 21
34.388778927
 31
0.0
  0
LINE
  5
436
330
42F
100
AcDbEntity
  8
DIMS
100
AcDbLine
 10
6.0399024546
 20
37.7153563548
 30
0.0
 11
6.0399024546
 21
34.388778927
 31
0.0
  0
LINE
  5
437
330
42F
100
AcDbEntity
  8
DIMS
100
AcDbLine
 10
26.5399024546
 20
34.763778927
 30
0.0
 11
17.4273839207
 21
34.763778927
 31
0.0
  0
LINE
  5
438
330
42F
100
AcDbEntity
  8
DIMS
100
AcDbLine
 10
6.0399024546
 20
34.763778927
 30
0.0
 11
15.8197450123
 21
34.763778927
 31
0.0
  0
MTEXT
  5
439
330
42F
100
AcDbEntity
  8
DIMS
100
AcDbMText
 10
15.8197450123
 20
35.0444646858
 30
0.0
 40
0.5
 41
0.0
 71
     1
 72
     1
  1
20
  7
SLDTEXTSTYLE1
 73
     1
 44
1.0
  0
MTEXT
  5
43A
330
42F
100
AcDbEntity
  8
DIMS
100
AcDbMText
 10
16.7051617072
 20
35.4097771849
 30
0.0
 40
0.5
 41
0.0
 71
     1
 72
     1
  1
1
  7
SLDTEXTSTYLE1
 73
     1
 44
1.0
  0
MTEXT
  5
43B
330
42F
100
AcDbEntity
  8
DIMS
100
AcDbMText
 10
16.7051617072
 20
34.7485966063
 30
0.0
 40
0.5
 41
0.0
 71
     1
 72
     1
  1
2
  7
SLDTEXTSTYLE1
 73
     1
 44
1.0
  0
MTEXT
  5
43C
330
42F
100
AcDbEntity
  8
DIMS
100
AcDbMText
 10
17.2211339567
 20
35.0444646858
 30
0.0
 40
0.5
 41
0.0
 71
     1
 72
     1
  1
"
  7
SLDTEXTSTYLE1
 73
     1
 44
1.0
  0
ENDBLK
  5
431
330
42F
100
AcDbEntity
  8
0
100
AcDbBlockEnd
  0
BLOCK
  5
4D8
330
4D7
100
AcDbEntity
  8
0
100
AcDbBlockBegin
  2
SW_NOTE_0_3
 70
     0
 10
0.0
 20
0.0
 30
0.0
  3
SW_NOTE_0_3
  1

  0
MTEXT
  5
4DA
330
4D7
100
AcDbEntity
  8
NOTES
 62
     0
100
AcDbMText
 10
0.0
 20
0.638671875
 30
0.0
 40
0.5
 41
0.0
 71
     1
 72
     1
  1
3D view
  7
SLDTEXTSTYLE1
 73
     1
 44
1.0
  0
MTEXT
  5
4DB
330
4D7
100
AcDbEntity
  8
NOTES
 62
     0
100
AcDbMText
 10
0.0
 20
-0.3613281862
 30
0.0
 40
0.5
 41
0.0
 71
     1
 72
     1
  1
-door open
  7
SLDTEXTSTYLE1
 73
     1
 44
1.0
  0
ENDBLK
  5
4D9
330
4D7
100
AcDbEntity
  8
0
100
AcDbBlockEnd
  0
BLOCK
  5
4DE
330
4DD
100
AcDbEntity
  8
0
100
AcDbBlockBegin
  2
SW_NOTE_0_4
 70
     0
 10
0.0
 20
0.0
 30
0.0
  3
SW_NOTE_0_4
  1

  0
MTEXT
  5
4E0
330
4DD
100
AcDbEntity
  8
NOTES
 62
     0
100
AcDbMText
 10
-6.1348500389
 20
1.06665959
 30
0.0
 40
0.5
 41
0.0
 71
     1
 72
     1
  1
9" Jumbo roll
  7
SLDTEXTSTYLE1
 73
     1
 44
1.0
  0
MTEXT
  5
4E1
330
4DD
100
AcDbEntity
  8
NOTES
 62
     0
100
AcDbMText
 10
-6.1348500389
 20
0.0666595287
 30
0.0
 40
0.5
 41
0.0
 71
     1
 72
     1
  1
- 2.25" and 3" cores
  7
SLDTEXTSTYLE1
 73
     1
 44
1.0
  0
ENDBLK
  5
4DF
330
4DD
100
AcDbEntity
  8
0
100
AcDbBlockEnd
  0
ENDSEC
  0
SECTION
  2
ENTITIES
  0
LINE
  5
7A
330
1F
100
AcDbEntity
  8
TITLE
370
    35
100
AcDbLine
 10
72.5182230965
 20
1.4876117645
 30
0.0
 11
89.4999864512
 21
1.4876117645
 31
0.0
  0
LINE
  5
7B
330
1F
100
AcDbEntity
  8
TITLE
370
    35
100
AcDbLine
 10
89.4999317442
 20
5.4753603936
 30
0.0
 11
79.3105350723
 21
5.4753603936
 31
0.0
  0
LINE
  5
7C
330
1F
100
AcDbEntity
  8
TITLE
  6
SLD-Solid
370
    18
100
AcDbLine
 10
0.5
 20
0.5
 30
0.0
 11
0.5
 21
119.5
 31
0.0
  0
LINE
  5
7D
330
1F
100
AcDbEntity
  8
TITLE
  6
SLD-Solid
370
    18
100
AcDbLine
 10
0.5
 20
119.5
 30
0.0
 11
89.5
 21
119.5
 31
0.0
  0
LINE
  5
7E
330
1F
100
AcDbEntity
  8
TITLE
370
    35
100
AcDbLine
 10
72.5182230965
 20
2.5427877231
 30
0.0
 11
65.5059791203
 21
2.5427877231
 31
0.0
  0
LINE
  5
7F
330
1F
100
AcDbEntity
  8
TITLE
370
    35
100
AcDbLine
 10
72.5182230965
 20
1.4876117645
 30
0.0
 11
65.5059791203
 21
1.4876117645
 31
0.0
  0
LINE
  5
80
330
1F
100
AcDbEntity
  8
TITLE
  6
SLD-Solid
370
    18
100
AcDbLine
 10
89.5
 20
119.5
 30
0.0
 11
89.5
 21
0.5
 31
0.0
  0
LINE
  5
81
330
1F
100
AcDbEntity
  8
TITLE
  6
SLD-Solid
370
    18
100
AcDbLine
 10
89.5
 20
0.5
 30
0.0
 11
0.5
 21
0.5
 31
0.0
  0
LINE
  5
82
330
1F
100
AcDbEntity
  8
TITLE
370
    35
100
AcDbLine
 10
72.5182230965
 20
1.4876117645
 30
0.0
 11
72.5182230965
 21
3.5979636817
 31
0.0
  0
LINE
  5
83
330
1F
100
AcDbEntity
  8
TITLE
370
    35
100
AcDbLine
 10
65.5059791203
 20
3.5979636817
 30
0.0
 11
65.5059791203
 21
0.5
 31
0.0
  0
LINE
  5
84
330
1F
100
AcDbEntity
  8
TITLE
370
    35
100
AcDbLine
 10
65.5059791203
 20
0.5
 30
0.0
 11
89.5
 21
0.5
 31
0.0
  0
LINE
  5
85
330
1F
100
AcDbEntity
  8
TITLE
370
    35
100
AcDbLine
 10
89.4999317442
 20
5.4753603936
 30
0.0
 11
89.5
 21
0.5
 31
0.0
  0
LINE
  5
86
330
1F
100
AcDbEntity
  8
TITLE
  6
SLD-Solid
370
    18
100
AcDbLine
 10
0.4999606299
 20
60.0
 30
0.0
 11
0.5000393701
 21
60.0
 31
0.0
  0
LINE
  5
87
330
1F
100
AcDbEntity
  8
TITLE
370
    35
100
AcDbLine
 10
72.5182230965
 20
3.5979636817
 30
0.0
 11
65.5059791203
 21
3.5979636817
 31
0.0
  0
LINE
  5
88
330
1F
100
AcDbEntity
  8
TITLE
370
    35
100
AcDbLine
 10
72.5182230965
 20
3.5979636817
 30
0.0
 11
89.4997615643
 21
3.5979648343
 31
0.0
  0
LINE
  5
89
330
1F
100
AcDbEntity
  8
TITLE
370
    35
100
AcDbLine
 10
79.3105350723
 20
5.4753603936
 30
0.0
 11
79.3105350723
 21
0.4636772425
 31
0.0
  0
LINE
  5
8A
330
1F
100
AcDbEntity
  8
TITLE
  6
SLD-Solid
370
    18
100
AcDbLine
 10
45.0
 20
119.5000393701
 30
0.0
 11
45.0
 21
119.4999606299
 31
0.0
  0
LINE
  5
8B
330
1F
100
AcDbEntity
  8
TITLE
  6
SLD-Solid
370
    18
100
AcDbLine
 10
89.5000393701
 20
60.0
 30
0.0
 11
89.4999606299
 21
60.0
 31
0.0
  0
LINE
  5
8C
330
1F
100
AcDbEntity
  8
TITLE
  6
SLD-Solid
370
    18
100
AcDbLine
 10
45.0
 20
0.4999606299
 30
0.0
 11
45.0
 21
0.5000393701
 31
0.0
  0
LINE
  5
8D
330
1F
100
AcDbEntity
  8
TITLE
  6
SLD-Solid
370
    18
100
AcDbLine
 10
0.5
 20
2.9133858268
 30
0.0
 11
0.1653543307
 21
2.9133858268
 31
0.0
  0
LINE
  5
8E
330
1F
100
AcDbEntity
  8
TITLE
  6
SLD-Solid
370
    18
100
AcDbLine
 10
89.5
 20
2.9133858268
 30
0.0
 11
89.8346456693
 21
2.9133858268
 31
0.0
  0
LINE
  5
8F
330
1F
100
AcDbEntity
  8
TITLE
  6
SLD-Solid
370
    18
100
AcDbLine
 10
0.5
 20
4.8818897638
 30
0.0
 11
0.1653543307
 21
4.8818897638
 31
0.0
  0
LINE
  5
90
330
1F
100
AcDbEntity
  8
TITLE
  6
SLD-Solid
370
    18
100
AcDbLine
 10
89.5
 20
4.8818897638
 30
0.0
 11
89.8346456693
 21
4.8818897638
 31
0.0
  0
LINE
  5
91
330
1F
100
AcDbEntity
  8
TITLE
  6
SLD-Solid
370
    18
100
AcDbLine
 10
0.5
 20
6.8503937008
 30
0.0
 11
0.1653543307
 21
6.8503937008
 31
0.0
  0
LINE
  5
92
330
1F
100
AcDbEntity
  8
TITLE
  6
SLD-Solid
370
    18
100
AcDbLine
 10
89.5
 20
6.8503937008
 30
0.0
 11
89.8346456693
 21
6.8503937008
 31
0.0
  0
LINE
  5
93
330
1F
100
AcDbEntity
  8
TITLE
  6
SLD-Solid
370
    18
100
AcDbLine
 10
0.5
 20
8.8188976378
 30
0.0
 11
0.1653543307
 21
8.8188976378
 31
0.0
  0
LINE
  5
94
330
1F
100
AcDbEntity
  8
TITLE
  6
SLD-Solid
370
    18
100
AcDbLine
 10
89.5
 20
8.8188976378
 30
0.0
 11
89.8346456693
 21
8.8188976378
 31
0.0
  0
LINE
  5
95
330
1F
100
AcDbEntity
  8
TITLE
  6
SLD-Solid
370
    18
100
AcDbLine
 10
0.5
 20
10.7874015748
 30
0.0
 11
0.1653543307
 21
10.7874015748
 31
0.0
  0
LINE
  5
96
330
1F
100
AcDbEntity
  8
TITLE
  6
SLD-Solid
370
    18
100
AcDbLine
 10
89.5
 20
10.7874015748
 30
0.0
 11
89.8346456693
 21
10.7874015748
 31
0.0
  0
LINE
  5
97
330
1F
100
AcDbEntity
  8
TITLE
  6
SLD-Solid
370
    18
100
AcDbLine
 10
0.5
 20
12.7559055118
 30
0.0
 11
0.1653543307
 21
12.7559055118
 31
0.0
  0
LINE
  5
98
330
1F
100
AcDbEntity
  8
TITLE
  6
SLD-Solid
370
    18
100
AcDbLine
 10
89.5
 20
12.7559055118
 30
0.0
 11
89.8346456693
 21
12.7559055118
 31
0.0
  0
LINE
  5
99
330
1F
100
AcDbEntity
  8
TITLE
  6
SLD-Solid
370
    18
100
AcDbLine
 10
0.5
 20
14.7244094488
 30
0.0
 11
0.1653543307
 21
14.7244094488
 31
0.0
  0
LINE
  5
9A
330
1F
100
AcDbEntity
  8
TITLE
  6
SLD-Solid
370
    18
100
AcDbLine
 10
89.5
 20
14.7244094488
 30
0.0
 11
89.8346456693
 21
14.7244094488
 31
0.0
  0
LINE
  5
9B
330
1F
100
AcDbEntity
  8
TITLE
  6
SLD-Solid
370
    18
100
AcDbLine
 10
0.5
 20
16.6929133858
 30
0.0
 11
0.1653543307
 21
16.6929133858
 31
0.0
  0
LINE
  5
9C
330
1F
100
AcDbEntity
  8
TITLE
  6
SLD-Solid
370
    18
100
AcDbLine
 10
89.5
 20
16.6929133858
 30
0.0
 11
89.8346456693
 21
16.6929133858
 31
0.0
  0
LINE
  5
9D
330
1F
100
AcDbEntity
  8
TITLE
  6
SLD-Solid
370
    18
100
AcDbLine
 10
0.5
 20
18.6614173228
 30
0.0
 11
0.1653543307
 21
18.6614173228
 31
0.0
  0
LINE
  5
9E
330
1F
100
AcDbEntity
  8
TITLE
  6
SLD-Solid
370
    18
100
AcDbLine
 10
89.5
 20
18.6614173228
 30
0.0
 11
89.8346456693
 21
18.6614173228
 31
0.0
  0
LINE
  5
9F
330
1F
100
AcDbEntity
  8
TITLE
  6
SLD-Solid
370
    18
100
AcDbLine
 10
0.5
 20
20.6299212598
 30
0.0
 11
0.1653543307
 21
20.6299212598
 31
0.0
  0
LINE
  5
A0
330
1F
100
AcDbEntity
  8
TITLE
  6
SLD-Solid
370
    18
100
AcDbLine
 10
89.5
 20
20.6299212598
 30
0.0
 11
89.8346456693
 21
20.6299212598
 31
0.0
  0
LINE
  5
A1
330
1F
100
AcDbEntity
  8
TITLE
  6
SLD-Solid
370
    18
100
AcDbLine
 10
0.5
 20
22.5984251969
 30
0.0
 11
0.1653543307
 21
22.5984251969
 31
0.0
  0
LINE
  5
A2
330
1F
100
AcDbEntity
  8
TITLE
  6
SLD-Solid
370
    18
100
AcDbLine
 10
89.5
 20
22.5984251969
 30
0.0
 11
89.8346456693
 21
22.5984251969
 31
0.0
  0
LINE
  5
A3
330
1F
100
AcDbEntity
  8
TITLE
  6
SLD-Solid
370
    18
100
AcDbLine
 10
0.5
 20
24.5669291339
 30
0.0
 11
0.1653543307
 21
24.5669291339
 31
0.0
  0
LINE
  5
A4
330
1F
100
AcDbEntity
  8
TITLE
  6
SLD-Solid
370
    18
100
AcDbLine
 10
89.5
 20
24.5669291339
 30
0.0
 11
89.8346456693
 21
24.5669291339
 31
0.0
  0
LINE
  5
A5
330
1F
100
AcDbEntity
  8
TITLE
  6
SLD-Solid
370
    18
100
AcDbLine
 10
0.5
 20
26.5354330709
 30
0.0
 11
0.1653543307
 21
26.5354330709
 31
0.0
  0
LINE
  5
A6
330
1F
100
AcDbEntity
  8
TITLE
  6
SLD-Solid
370
    18
100
AcDbLine
 10
89.5
 20
26.5354330709
 30
0.0
 11
89.8346456693
 21
26.5354330709
 31
0.0
  0
LINE
  5
A7
330
1F
100
AcDbEntity
  8
TITLE
  6
SLD-Solid
370
    18
100
AcDbLine
 10
0.5
 20
28.5039370079
 30
0.0
 11
0.1653543307
 21
28.5039370079
 31
0.0
  0
LINE
  5
A8
330
1F
100
AcDbEntity
  8
TITLE
  6
SLD-Solid
370
    18
100
AcDbLine
 10
89.5
 20
28.5039370079
 30
0.0
 11
89.8346456693
 21
28.5039370079
 31
0.0
  0
LINE
  5
A9
330
1F
100
AcDbEntity
  8
TITLE
  6
SLD-Solid
370
    18
100
AcDbLine
 10
0.5
 20
30.4724409449
 30
0.0
 11
0.1653543307
 21
30.4724409449
 31
0.0
  0
LINE
  5
AA
330
1F
100
AcDbEntity
  8
TITLE
  6
SLD-Solid
370
    18
100
AcDbLine
 10
89.5
 20
30.4724409449
 30
0.0
 11
89.8346456693
 21
30.4724409449
 31
0.0
  0
LINE
  5
AB
330
1F
100
AcDbEntity
  8
TITLE
  6
SLD-Solid
370
    18
100
AcDbLine
 10
0.5
 20
32.4409448819
 30
0.0
 11
0.1653543307
 21
32.4409448819
 31
0.0
  0
LINE
  5
AC
330
1F
100
AcDbEntity
  8
TITLE
  6
SLD-Solid
370
    18
100
AcDbLine
 10
89.5
 20
32.4409448819
 30
0.0
 11
89.8346456693
 21
32.4409448819
 31
0.0
  0
LINE
  5
AD
330
1F
100
AcDbEntity
  8
TITLE
  6
SLD-Solid
370
    18
100
AcDbLine
 10
0.5
 20
34.4094488189
 30
0.0
 11
0.1653543307
 21
34.4094488189
 31
0.0
  0
LINE
  5
AE
330
1F
100
AcDbEntity
  8
TITLE
  6
SLD-Solid
370
    18
100
AcDbLine
 10
89.5
 20
34.4094488189
 30
0.0
 11
89.8346456693
 21
34.4094488189
 31
0.0
  0
LINE
  5
AF
330
1F
100
AcDbEntity
  8
TITLE
  6
SLD-Solid
370
    18
100
AcDbLine
 10
0.5
 20
36.3779527559
 30
0.0
 11
0.1653543307
 21
36.3779527559
 31
0.0
  0
LINE
  5
B0
330
1F
100
AcDbEntity
  8
TITLE
  6
SLD-Solid
370
    18
100
AcDbLine
 10
89.5
 20
36.3779527559
 30
0.0
 11
89.8346456693
 21
36.3779527559
 31
0.0
  0
LINE
  5
B1
330
1F
100
AcDbEntity
  8
TITLE
  6
SLD-Solid
370
    18
100
AcDbLine
 10
0.5
 20
38.3464566929
 30
0.0
 11
0.1653543307
 21
38.3464566929
 31
0.0
  0
LINE
  5
B2
330
1F
100
AcDbEntity
  8
TITLE
  6
SLD-Solid
370
    18
100
AcDbLine
 10
89.5
 20
38.3464566929
 30
0.0
 11
89.8346456693
 21
38.3464566929
 31
0.0
  0
LINE
  5
B3
330
1F
100
AcDbEntity
  8
TITLE
  6
SLD-Solid
370
    18
100
AcDbLine
 10
0.5
 20
40.3149606299
 30
0.0
 11
0.1653543307
 21
40.3149606299
 31
0.0
  0
LINE
  5
B4
330
1F
100
AcDbEntity
  8
TITLE
  6
SLD-Solid
370
    18
100
AcDbLine
 10
89.5
 20
40.3149606299
 30
0.0
 11
89.8346456693
 21
40.3149606299
 31
0.0
  0
LINE
  5
B5
330
1F
100
AcDbEntity
  8
TITLE
  6
SLD-Solid
370
    18
100
AcDbLine
 10
0.5
 20
42.2834645669
 30
0.0
 11
0.1653543307
 21
42.2834645669
 31
0.0
  0
LINE
  5
B6
330
1F
100
AcDbEntity
  8
TITLE
  6
SLD-Solid
370
    18
100
AcDbLine
 10
89.5
 20
42.2834645669
 30
0.0
 11
89.8346456693
 21
42.2834645669
 31
0.0
  0
LINE
  5
B7
330
1F
100
AcDbEntity
  8
TITLE
  6
SLD-Solid
370
    18
100
AcDbLine
 10
0.5
 20
44.2519685039
 30
0.0
 11
0.1653543307
 21
44.2519685039
 31
0.0
  0
LINE
  5
B8
330
1F
100
AcDbEntity
  8
TITLE
  6
SLD-Solid
370
    18
100
AcDbLine
 10
89.5
 20
44.2519685039
 30
0.0
 11
89.8346456693
 21
44.2519685039
 31
0.0
  0
LINE
  5
B9
330
1F
100
AcDbEntity
  8
TITLE
  6
SLD-Solid
370
    18
100
AcDbLine
 10
0.5
 20
46.2204724409
 30
0.0
 11
0.1653543307
 21
46.2204724409
 31
0.0
  0
LINE
  5
BA
330
1F
100
AcDbEntity
  8
TITLE
  6
SLD-Solid
370
    18
100
AcDbLine
 10
89.5
 20
46.2204724409
 30
0.0
 11
89.8346456693
 21
46.2204724409
 31
0.0
  0
LINE
  5
BB
330
1F
100
AcDbEntity
  8
TITLE
  6
SLD-Solid
370
    18
100
AcDbLine
 10
0.5
 20
48.188976378
 30
0.0
 11
0.1653543307
 21
48.188976378
 31
0.0
  0
LINE
  5
BC
330
1F
100
AcDbEntity
  8
TITLE
  6
SLD-Solid
370
    18
100
AcDbLine
 10
89.5
 20
48.188976378
 30
0.0
 11
89.8346456693
 21
48.188976378
 31
0.0
  0
LINE
  5
BD
330
1F
100
AcDbEntity
  8
TITLE
  6
SLD-Solid
370
    18
100
AcDbLine
 10
0.5
 20
50.157480315
 30
0.0
 11
0.1653543307
 21
50.157480315
 31
0.0
  0
LINE
  5
BE
330
1F
100
AcDbEntity
  8
TITLE
  6
SLD-Solid
370
    18
100
AcDbLine
 10
89.5
 20
50.157480315
 30
0.0
 11
89.8346456693
 21
50.157480315
 31
0.0
  0
LINE
  5
BF
330
1F
100
AcDbEntity
  8
TITLE
  6
SLD-Solid
370
    18
100
AcDbLine
 10
0.5
 20
52.125984252
 30
0.0
 11
0.1653543307
 21
52.125984252
 31
0.0
  0
LINE
  5
C0
330
1F
100
AcDbEntity
  8
TITLE
  6
SLD-Solid
370
    18
100
AcDbLine
 10
89.5
 20
52.125984252
 30
0.0
 11
89.8346456693
 21
52.125984252
 31
0.0
  0
LINE
  5
C1
330
1F
100
AcDbEntity
  8
TITLE
  6
SLD-Solid
370
    18
100
AcDbLine
 10
0.5
 20
54.094488189
 30
0.0
 11
0.1653543307
 21
54.094488189
 31
0.0
  0
LINE
  5
C2
330
1F
100
AcDbEntity
  8
TITLE
  6
SLD-Solid
370
    18
100
AcDbLine
 10
89.5
 20
54.094488189
 30
0.0
 11
89.8346456693
 21
54.094488189
 31
0.0
  0
LINE
  5
C3
330
1F
100
AcDbEntity
  8
TITLE
  6
SLD-Solid
370
    18
100
AcDbLine
 10
0.5
 20
56.062992126
 30
0.0
 11
0.1653543307
 21
56.062992126
 31
0.0
  0
LINE
  5
C4
330
1F
100
AcDbEntity
  8
TITLE
  6
SLD-Solid
370
    18
100
AcDbLine
 10
89.5
 20
56.062992126
 30
0.0
 11
89.8346456693
 21
56.062992126
 31
0.0
  0
LINE
  5
C5
330
1F
100
AcDbEntity
  8
TITLE
  6
SLD-Solid
370
    18
100
AcDbLine
 10
0.5
 20
58.031496063
 30
0.0
 11
0.1653543307
 21
58.031496063
 31
0.0
  0
LINE
  5
C6
330
1F
100
AcDbEntity
  8
TITLE
  6
SLD-Solid
370
    18
100
AcDbLine
 10
89.5
 20
58.031496063
 30
0.0
 11
89.8346456693
 21
58.031496063
 31
0.0
  0
LINE
  5
C7
330
1F
100
AcDbEntity
  8
TITLE
  6
SLD-Solid
370
    18
100
AcDbLine
 10
0.5
 20
60.0
 30
0.0
 11
0.1653543307
 21
60.0
 31
0.0
  0
LINE
  5
C8
330
1F
100
AcDbEntity
  8
TITLE
  6
SLD-Solid
370
    18
100
AcDbLine
 10
89.5
 20
60.0
 30
0.0
 11
89.8346456693
 21
60.0
 31
0.0
  0
LINE
  5
C9
330
1F
100
AcDbEntity
  8
TITLE
  6
SLD-Solid
370
    18
100
AcDbLine
 10
0.5
 20
61.968503937
 30
0.0
 11
0.1653543307
 21
61.968503937
 31
0.0
  0
LINE
  5
CA
330
1F
100
AcDbEntity
  8
TITLE
  6
SLD-Solid
370
    18
100
AcDbLine
 10
89.5
 20
61.968503937
 30
0.0
 11
89.8346456693
 21
61.968503937
 31
0.0
  0
LINE
  5
CB
330
1F
100
AcDbEntity
  8
TITLE
  6
SLD-Solid
370
    18
100
AcDbLine
 10
0.5
 20
63.937007874
 30
0.0
 11
0.1653543307
 21
63.937007874
 31
0.0
  0
LINE
  5
CC
330
1F
100
AcDbEntity
  8
TITLE
  6
SLD-Solid
370
    18
100
AcDbLine
 10
89.5
 20
63.937007874
 30
0.0
 11
89.8346456693
 21
63.937007874
 31
0.0
  0
LINE
  5
CD
330
1F
100
AcDbEntity
  8
TITLE
  6
SLD-Solid
370
    18
100
AcDbLine
 10
0.5
 20
65.905511811
 30
0.0
 11
0.1653543307
 21
65.905511811
 31
0.0
  0
LINE
  5
CE
330
1F
100
AcDbEntity
  8
TITLE
  6
SLD-Solid
370
    18
100
AcDbLine
 10
89.5
 20
65.905511811
 30
0.0
 11
89.8346456693
 21
65.905511811
 31
0.0
  0
LINE
  5
CF
330
1F
100
AcDbEntity
  8
TITLE
  6
SLD-Solid
370
    18
100
AcDbLine
 10
0.5
 20
67.874015748
 30
0.0
 11
0.1653543307
 21
67.874015748
 31
0.0
  0
LINE
  5
D0
330
1F
100
AcDbEntity
  8
TITLE
  6
SLD-Solid
370
    18
100
AcDbLine
 10
89.5
 20
67.874015748
 30
0.0
 11
89.8346456693
 21
67.874015748
 31
0.0
  0
LINE
  5
D1
330
1F
100
AcDbEntity
  8
TITLE
  6
SLD-Solid
370
    18
100
AcDbLine
 10
0.5
 20
69.842519685
 30
0.0
 11
0.1653543307
 21
69.842519685
 31
0.0
  0
LINE
  5
D2
330
1F
100
AcDbEntity
  8
TITLE
  6
SLD-Solid
370
    18
100
AcDbLine
 10
89.5
 20
69.842519685
 30
0.0
 11
89.8346456693
 21
69.842519685
 31
0.0
  0
LINE
  5
D3
330
1F
100
AcDbEntity
  8
TITLE
  6
SLD-Solid
370
    18
100
AcDbLine
 10
0.5
 20
71.811023622
 30
0.0
 11
0.1653543307
 21
71.811023622
 31
0.0
  0
LINE
  5
D4
330
1F
100
AcDbEntity
  8
TITLE
  6
SLD-Solid
370
    18
100
AcDbLine
 10
89.5
 20
71.811023622
 30
0.0
 11
89.8346456693
 21
71.811023622
 31
0.0
  0
LINE
  5
D5
330
1F
100
AcDbEntity
  8
TITLE
  6
SLD-Solid
370
    18
100
AcDbLine
 10
0.5
 20
73.7795275591
 30
0.0
 11
0.1653543307
 21
73.7795275591
 31
0.0
  0
LINE
  5
D6
330
1F
100
AcDbEntity
  8
TITLE
  6
SLD-Solid
370
    18
100
AcDbLine
 10
89.5
 20
73.7795275591
 30
0.0
 11
89.8346456693
 21
73.7795275591
 31
0.0
  0
LINE
  5
D7
330
1F
100
AcDbEntity
  8
TITLE
  6
SLD-Solid
370
    18
100
AcDbLine
 10
0.5
 20
75.7480314961
 30
0.0
 11
0.1653543307
 21
75.7480314961
 31
0.0
  0
LINE
  5
D8
330
1F
100
AcDbEntity
  8
TITLE
  6
SLD-Solid
370
    18
100
AcDbLine
 10
89.5
 20
75.7480314961
 30
0.0
 11
89.8346456693
 21
75.7480314961
 31
0.0
  0
LINE
  5
D9
330
1F
100
AcDbEntity
  8
TITLE
  6
SLD-Solid
370
    18
100
AcDbLine
 10
0.5
 20
77.7165354331
 30
0.0
 11
0.1653543307
 21
77.7165354331
 31
0.0
  0
LINE
  5
DA
330
1F
100
AcDbEntity
  8
TITLE
  6
SLD-Solid
370
    18
100
AcDbLine
 10
89.5
 20
77.7165354331
 30
0.0
 11
89.8346456693
 21
77.7165354331
 31
0.0
  0
LINE
  5
DB
330
1F
100
AcDbEntity
  8
TITLE
  6
SLD-Solid
370
    18
100
AcDbLine
 10
0.5
 20
79.6850393701
 30
0.0
 11
0.1653543307
 21
79.6850393701
 31
0.0
  0
LINE
  5
DC
330
1F
100
AcDbEntity
  8
TITLE
  6
SLD-Solid
370
    18
100
AcDbLine
 10
89.5
 20
79.6850393701
 30
0.0
 11
89.8346456693
 21
79.6850393701
 31
0.0
  0
LINE
  5
DD
330
1F
100
AcDbEntity
  8
TITLE
  6
SLD-Solid
370
    18
100
AcDbLine
 10
0.5
 20
81.6535433071
 30
0.0
 11
0.1653543307
 21
81.6535433071
 31
0.0
  0
LINE
  5
DE
330
1F
100
AcDbEntity
  8
TITLE
  6
SLD-Solid
370
    18
100
AcDbLine
 10
89.5
 20
81.6535433071
 30
0.0
 11
89.8346456693
 21
81.6535433071
 31
0.0
  0
LINE
  5
DF
330
1F
100
AcDbEntity
  8
TITLE
  6
SLD-Solid
370
    18
100
AcDbLine
 10
0.5
 20
83.6220472441
 30
0.0
 11
0.1653543307
 21
83.6220472441
 31
0.0
  0
LINE
  5
E0
330
1F
100
AcDbEntity
  8
TITLE
  6
SLD-Solid
370
    18
100
AcDbLine
 10
89.5
 20
83.6220472441
 30
0.0
 11
89.8346456693
 21
83.6220472441
 31
0.0
  0
LINE
  5
E1
330
1F
100
AcDbEntity
  8
TITLE
  6
SLD-Solid
370
    18
100
AcDbLine
 10
0.5
 20
85.5905511811
 30
0.0
 11
0.1653543307
 21
85.5905511811
 31
0.0
  0
LINE
  5
E2
330
1F
100
AcDbEntity
  8
TITLE
  6
SLD-Solid
370
    18
100
AcDbLine
 10
89.5
 20
85.5905511811
 30
0.0
 11
89.8346456693
 21
85.5905511811
 31
0.0
  0
LINE
  5
E3
330
1F
100
AcDbEntity
  8
TITLE
  6
SLD-Solid
370
    18
100
AcDbLine
 10
0.5
 20
87.5590551181
 30
0.0
 11
0.1653543307
 21
87.5590551181
 31
0.0
  0
LINE
  5
E4
330
1F
100
AcDbEntity
  8
TITLE
  6
SLD-Solid
370
    18
100
AcDbLine
 10
89.5
 20
87.5590551181
 30
0.0
 11
89.8346456693
 21
87.5590551181
 31
0.0
  0
LINE
  5
E5
330
1F
100
AcDbEntity
  8
TITLE
  6
SLD-Solid
370
    18
100
AcDbLine
 10
0.5
 20
89.5275590551
 30
0.0
 11
0.1653543307
 21
89.5275590551
 31
0.0
  0
LINE
  5
E6
330
1F
100
AcDbEntity
  8
TITLE
  6
SLD-Solid
370
    18
100
AcDbLine
 10
89.5
 20
89.5275590551
 30
0.0
 11
89.8346456693
 21
89.5275590551
 31
0.0
  0
LINE
  5
E7
330
1F
100
AcDbEntity
  8
TITLE
  6
SLD-Solid
370
    18
100
AcDbLine
 10
0.5
 20
91.4960629921
 30
0.0
 11
0.1653543307
 21
91.4960629921
 31
0.0
  0
LINE
  5
E8
330
1F
100
AcDbEntity
  8
TITLE
  6
SLD-Solid
370
    18
100
AcDbLine
 10
89.5
 20
91.4960629921
 30
0.0
 11
89.8346456693
 21
91.4960629921
 31
0.0
  0
LINE
  5
E9
330
1F
100
AcDbEntity
  8
TITLE
  6
SLD-Solid
370
    18
100
AcDbLine
 10
0.5
 20
93.4645669291
 30
0.0
 11
0.1653543307
 21
93.4645669291
 31
0.0
  0
LINE
  5
EA
330
1F
100
AcDbEntity
  8
TITLE
  6
SLD-Solid
370
    18
100
AcDbLine
 10
89.5
 20
93.4645669291
 30
0.0
 11
89.8346456693
 21
93.4645669291
 31
0.0
  0
LINE
  5
EB
330
1F
100
AcDbEntity
  8
TITLE
  6
SLD-Solid
370
    18
100
AcDbLine
 10
0.5
 20
95.4330708661
 30
0.0
 11
0.1653543307
 21
95.4330708661
 31
0.0
  0
LINE
  5
EC
330
1F
100
AcDbEntity
  8
TITLE
  6
SLD-Solid
370
    18
100
AcDbLine
 10
89.5
 20
95.4330708661
 30
0.0
 11
89.8346456693
 21
95.4330708661
 31
0.0
  0
LINE
  5
ED
330
1F
100
AcDbEntity
  8
TITLE
  6
SLD-Solid
370
    18
100
AcDbLine
 10
0.5
 20
97.4015748031
 30
0.0
 11
0.1653543307
 21
97.4015748031
 31
0.0
  0
LINE
  5
EE
330
1F
100
AcDbEntity
  8
TITLE
  6
SLD-Solid
370
    18
100
AcDbLine
 10
89.5
 20
97.4015748031
 30
0.0
 11
89.8346456693
 21
97.4015748031
 31
0.0
  0
LINE
  5
EF
330
1F
100
AcDbEntity
  8
TITLE
  6
SLD-Solid
370
    18
100
AcDbLine
 10
0.5
 20
99.3700787402
 30
0.0
 11
0.1653543307
 21
99.3700787402
 31
0.0
  0
LINE
  5
F0
330
1F
100
AcDbEntity
  8
TITLE
  6
SLD-Solid
370
    18
100
AcDbLine
 10
89.5
 20
99.3700787402
 30
0.0
 11
89.8346456693
 21
99.3700787402
 31
0.0
  0
LINE
  5
F1
330
1F
100
AcDbEntity
  8
TITLE
  6
SLD-Solid
370
    18
100
AcDbLine
 10
0.5
 20
101.3385826772
 30
0.0
 11
0.1653543307
 21
101.3385826772
 31
0.0
  0
LINE
  5
F2
330
1F
100
AcDbEntity
  8
TITLE
  6
SLD-Solid
370
    18
100
AcDbLine
 10
89.5
 20
101.3385826772
 30
0.0
 11
89.8346456693
 21
101.3385826772
 31
0.0
  0
LINE
  5
F3
330
1F
100
AcDbEntity
  8
TITLE
  6
SLD-Solid
370
    18
100
AcDbLine
 10
0.5
 20
103.3070866142
 30
0.0
 11
0.1653543307
 21
103.3070866142
 31
0.0
  0
LINE
  5
F4
330
1F
100
AcDbEntity
  8
TITLE
  6
SLD-Solid
370
    18
100
AcDbLine
 10
89.5
 20
103.3070866142
 30
0.0
 11
89.8346456693
 21
103.3070866142
 31
0.0
  0
LINE
  5
F5
330
1F
100
AcDbEntity
  8
TITLE
  6
SLD-Solid
370
    18
100
AcDbLine
 10
0.5
 20
105.2755905512
 30
0.0
 11
0.1653543307
 21
105.2755905512
 31
0.0
  0
LINE
  5
F6
330
1F
100
AcDbEntity
  8
TITLE
  6
SLD-Solid
370
    18
100
AcDbLine
 10
89.5
 20
105.2755905512
 30
0.0
 11
89.8346456693
 21
105.2755905512
 31
0.0
  0
LINE
  5
F7
330
1F
100
AcDbEntity
  8
TITLE
  6
SLD-Solid
370
    18
100
AcDbLine
 10
0.5
 20
107.2440944882
 30
0.0
 11
0.1653543307
 21
107.2440944882
 31
0.0
  0
LINE
  5
F8
330
1F
100
AcDbEntity
  8
TITLE
  6
SLD-Solid
370
    18
100
AcDbLine
 10
89.5
 20
107.2440944882
 30
0.0
 11
89.8346456693
 21
107.2440944882
 31
0.0
  0
LINE
  5
F9
330
1F
100
AcDbEntity
  8
TITLE
  6
SLD-Solid
370
    18
100
AcDbLine
 10
0.5
 20
109.2125984252
 30
0.0
 11
0.1653543307
 21
109.2125984252
 31
0.0
  0
LINE
  5
FA
330
1F
100
AcDbEntity
  8
TITLE
  6
SLD-Solid
370
    18
100
AcDbLine
 10
89.5
 20
109.2125984252
 30
0.0
 11
89.8346456693
 21
109.2125984252
 31
0.0
  0
LINE
  5
FB
330
1F
100
AcDbEntity
  8
TITLE
  6
SLD-Solid
370
    18
100
AcDbLine
 10
0.5
 20
111.1811023622
 30
0.0
 11
0.1653543307
 21
111.1811023622
 31
0.0
  0
LINE
  5
FC
330
1F
100
AcDbEntity
  8
TITLE
  6
SLD-Solid
370
    18
100
AcDbLine
 10
89.5
 20
111.1811023622
 30
0.0
 11
89.8346456693
 21
111.1811023622
 31
0.0
  0
LINE
  5
FD
330
1F
100
AcDbEntity
  8
TITLE
  6
SLD-Solid
370
    18
100
AcDbLine
 10
0.5
 20
113.1496062992
 30
0.0
 11
0.1653543307
 21
113.1496062992
 31
0.0
  0
LINE
  5
FE
330
1F
100
AcDbEntity
  8
TITLE
  6
SLD-Solid
370
    18
100
AcDbLine
 10
89.5
 20
113.1496062992
 30
0.0
 11
89.8346456693
 21
113.1496062992
 31
0.0
  0
LINE
  5
FF
330
1F
100
AcDbEntity
  8
TITLE
  6
SLD-Solid
370
    18
100
AcDbLine
 10
0.5
 20
115.1181102362
 30
0.0
 11
0.1653543307
 21
115.1181102362
 31
0.0
  0
LINE
  5
100
330
1F
100
AcDbEntity
  8
TITLE
  6
SLD-Solid
370
    18
100
AcDbLine
 10
89.5
 20
115.1181102362
 30
0.0
 11
89.8346456693
 21
115.1181102362
 31
0.0
  0
LINE
  5
101
330
1F
100
AcDbEntity
  8
TITLE
  6
SLD-Solid
370
    18
100
AcDbLine
 10
0.5
 20
117.0866141732
 30
0.0
 11
0.1653543307
 21
117.0866141732
 31
0.0
  0
LINE
  5
102
330
1F
100
AcDbEntity
  8
TITLE
  6
SLD-Solid
370
    18
100
AcDbLine
 10
89.5
 20
117.0866141732
 30
0.0
 11
89.8346456693
 21
117.0866141732
 31
0.0
  0
LINE
  5
103
330
1F
100
AcDbEntity
  8
TITLE
  6
SLD-Solid
370
    18
100
AcDbLine
 10
1.6929133858
 20
119.5
 30
0.0
 11
1.6929133858
 21
119.8346456693
 31
0.0
  0
LINE
  5
104
330
1F
100
AcDbEntity
  8
TITLE
  6
SLD-Solid
370
    18
100
AcDbLine
 10
1.6929133858
 20
0.5
 30
0.0
 11
1.6929133858
 21
0.1653543307
 31
0.0
  0
LINE
  5
105
330
1F
100
AcDbEntity
  8
TITLE
  6
SLD-Solid
370
    18
100
AcDbLine
 10
3.6614173228
 20
119.5
 30
0.0
 11
3.6614173228
 21
119.8346456693
 31
0.0
  0
LINE
  5
106
330
1F
100
AcDbEntity
  8
TITLE
  6
SLD-Solid
370
    18
100
AcDbLine
 10
3.6614173228
 20
0.5
 30
0.0
 11
3.6614173228
 21
0.1653543307
 31
0.0
  0
LINE
  5
107
330
1F
100
AcDbEntity
  8
TITLE
  6
SLD-Solid
370
    18
100
AcDbLine
 10
5.6299212598
 20
119.5
 30
0.0
 11
5.6299212598
 21
119.8346456693
 31
0.0
  0
LINE
  5
108
330
1F
100
AcDbEntity
  8
TITLE
  6
SLD-Solid
370
    18
100
AcDbLine
 10
5.6299212598
 20
0.5
 30
0.0
 11
5.6299212598
 21
0.1653543307
 31
0.0
  0
LINE
  5
109
330
1F
100
AcDbEntity
  8
TITLE
  6
SLD-Solid
370
    18
100
AcDbLine
 10
7.5984251969
 20
119.5
 30
0.0
 11
7.5984251969
 21
119.8346456693
 31
0.0
  0
LINE
  5
10A
330
1F
100
AcDbEntity
  8
TITLE
  6
SLD-Solid
370
    18
100
AcDbLine
 10
7.5984251969
 20
0.5
 30
0.0
 11
7.5984251969
 21
0.1653543307
 31
0.0
  0
LINE
  5
10B
330
1F
100
AcDbEntity
  8
TITLE
  6
SLD-Solid
370
    18
100
AcDbLine
 10
9.5669291339
 20
119.5
 30
0.0
 11
9.5669291339
 21
119.8346456693
 31
0.0
  0
LINE
  5
10C
330
1F
100
AcDbEntity
  8
TITLE
  6
SLD-Solid
370
    18
100
AcDbLine
 10
9.5669291339
 20
0.5
 30
0.0
 11
9.5669291339
 21
0.1653543307
 31
0.0
  0
LINE
  5
10D
330
1F
100
AcDbEntity
  8
TITLE
  6
SLD-Solid
370
    18
100
AcDbLine
 10
11.5354330709
 20
119.5
 30
0.0
 11
11.5354330709
 21
119.8346456693
 31
0.0
  0
LINE
  5
10E
330
1F
100
AcDbEntity
  8
TITLE
  6
SLD-Solid
370
    18
100
AcDbLine
 10
11.5354330709
 20
0.5
 30
0.0
 11
11.5354330709
 21
0.1653543307
 31
0.0
  0
LINE
  5
10F
330
1F
100
AcDbEntity
  8
TITLE
  6
SLD-Solid
370
    18
100
AcDbLine
 10
13.5039370079
 20
119.5
 30
0.0
 11
13.5039370079
 21
119.8346456693
 31
0.0
  0
LINE
  5
110
330
1F
100
AcDbEntity
  8
TITLE
  6
SLD-Solid
370
    18
100
AcDbLine
 10
13.5039370079
 20
0.5
 30
0.0
 11
13.5039370079
 21
0.1653543307
 31
0.0
  0
LINE
  5
111
330
1F
100
AcDbEntity
  8
TITLE
  6
SLD-Solid
370
    18
100
AcDbLine
 10
15.4724409449
 20
119.5
 30
0.0
 11
15.4724409449
 21
119.8346456693
 31
0.0
  0
LINE
  5
112
330
1F
100
AcDbEntity
  8
TITLE
  6
SLD-Solid
370
    18
100
AcDbLine
 10
15.4724409449
 20
0.5
 30
0.0
 11
15.4724409449
 21
0.1653543307
 31
0.0
  0
LINE
  5
113
330
1F
100
AcDbEntity
  8
TITLE
  6
SLD-Solid
370
    18
100
AcDbLine
 10
17.4409448819
 20
119.5
 30
0.0
 11
17.4409448819
 21
119.8346456693
 31
0.0
  0
LINE
  5
114
330
1F
100
AcDbEntity
  8
TITLE
  6
SLD-Solid
370
    18
100
AcDbLine
 10
17.4409448819
 20
0.5
 30
0.0
 11
17.4409448819
 21
0.1653543307
 31
0.0
  0
LINE
  5
115
330
1F
100
AcDbEntity
  8
TITLE
  6
SLD-Solid
370
    18
100
AcDbLine
 10
19.4094488189
 20
119.5
 30
0.0
 11
19.4094488189
 21
119.8346456693
 31
0.0
  0
LINE
  5
116
330
1F
100
AcDbEntity
  8
TITLE
  6
SLD-Solid
370
    18
100
AcDbLine
 10
19.4094488189
 20
0.5
 30
0.0
 11
19.4094488189
 21
0.1653543307
 31
0.0
  0
LINE
  5
117
330
1F
100
AcDbEntity
  8
TITLE
  6
SLD-Solid
370
    18
100
AcDbLine
 10
21.3779527559
 20
119.5
 30
0.0
 11
21.3779527559
 21
119.8346456693
 31
0.0
  0
LINE
  5
118
330
1F
100
AcDbEntity
  8
TITLE
  6
SLD-Solid
370
    18
100
AcDbLine
 10
21.3779527559
 20
0.5
 30
0.0
 11
21.3779527559
 21
0.1653543307
 31
0.0
  0
LINE
  5
119
330
1F
100
AcDbEntity
  8
TITLE
  6
SLD-Solid
370
    18
100
AcDbLine
 10
23.3464566929
 20
119.5
 30
0.0
 11
23.3464566929
 21
119.8346456693
 31
0.0
  0
LINE
  5
11A
330
1F
100
AcDbEntity
  8
TITLE
  6
SLD-Solid
370
    18
100
AcDbLine
 10
23.3464566929
 20
0.5
 30
0.0
 11
23.3464566929
 21
0.1653543307
 31
0.0
  0
LINE
  5
11B
330
1F
100
AcDbEntity
  8
TITLE
  6
SLD-Solid
370
    18
100
AcDbLine
 10
25.3149606299
 20
119.5
 30
0.0
 11
25.3149606299
 21
119.8346456693
 31
0.0
  0
LINE
  5
11C
330
1F
100
AcDbEntity
  8
TITLE
  6
SLD-Solid
370
    18
100
AcDbLine
 10
25.3149606299
 20
0.5
 30
0.0
 11
25.3149606299
 21
0.1653543307
 31
0.0
  0
LINE
  5
11D
330
1F
100
AcDbEntity
  8
TITLE
  6
SLD-Solid
370
    18
100
AcDbLine
 10
27.2834645669
 20
119.5
 30
0.0
 11
27.2834645669
 21
119.8346456693
 31
0.0
  0
LINE
  5
11E
330
1F
100
AcDbEntity
  8
TITLE
  6
SLD-Solid
370
    18
100
AcDbLine
 10
27.2834645669
 20
0.5
 30
0.0
 11
27.2834645669
 21
0.1653543307
 31
0.0
  0
LINE
  5
11F
330
1F
100
AcDbEntity
  8
TITLE
  6
SLD-Solid
370
    18
100
AcDbLine
 10
29.2519685039
 20
119.5
 30
0.0
 11
29.2519685039
 21
119.8346456693
 31
0.0
  0
LINE
  5
120
330
1F
100
AcDbEntity
  8
TITLE
  6
SLD-Solid
370
    18
100
AcDbLine
 10
29.2519685039
 20
0.5
 30
0.0
 11
29.2519685039
 21
0.1653543307
 31
0.0
  0
LINE
  5
121
330
1F
100
AcDbEntity
  8
TITLE
  6
SLD-Solid
370
    18
100
AcDbLine
 10
31.2204724409
 20
119.5
 30
0.0
 11
31.2204724409
 21
119.8346456693
 31
0.0
  0
LINE
  5
122
330
1F
100
AcDbEntity
  8
TITLE
  6
SLD-Solid
370
    18
100
AcDbLine
 10
31.2204724409
 20
0.5
 30
0.0
 11
31.2204724409
 21
0.1653543307
 31
0.0
  0
LINE
  5
123
330
1F
100
AcDbEntity
  8
TITLE
  6
SLD-Solid
370
    18
100
AcDbLine
 10
33.188976378
 20
119.5
 30
0.0
 11
33.188976378
 21
119.8346456693
 31
0.0
  0
LINE
  5
124
330
1F
100
AcDbEntity
  8
TITLE
  6
SLD-Solid
370
    18
100
AcDbLine
 10
33.188976378
 20
0.5
 30
0.0
 11
33.188976378
 21
0.1653543307
 31
0.0
  0
LINE
  5
125
330
1F
100
AcDbEntity
  8
TITLE
  6
SLD-Solid
370
    18
100
AcDbLine
 10
35.157480315
 20
119.5
 30
0.0
 11
35.157480315
 21
119.8346456693
 31
0.0
  0
LINE
  5
126
330
1F
100
AcDbEntity
  8
TITLE
  6
SLD-Solid
370
    18
100
AcDbLine
 10
35.157480315
 20
0.5
 30
0.0
 11
35.157480315
 21
0.1653543307
 31
0.0
  0
LINE
  5
127
330
1F
100
AcDbEntity
  8
TITLE
  6
SLD-Solid
370
    18
100
AcDbLine
 10
37.125984252
 20
119.5
 30
0.0
 11
37.125984252
 21
119.8346456693
 31
0.0
  0
LINE
  5
128
330
1F
100
AcDbEntity
  8
TITLE
  6
SLD-Solid
370
    18
100
AcDbLine
 10
37.125984252
 20
0.5
 30
0.0
 11
37.125984252
 21
0.1653543307
 31
0.0
  0
LINE
  5
129
330
1F
100
AcDbEntity
  8
TITLE
  6
SLD-Solid
370
    18
100
AcDbLine
 10
39.094488189
 20
119.5
 30
0.0
 11
39.094488189
 21
119.8346456693
 31
0.0
  0
LINE
  5
12A
330
1F
100
AcDbEntity
  8
TITLE
  6
SLD-Solid
370
    18
100
AcDbLine
 10
39.094488189
 20
0.5
 30
0.0
 11
39.094488189
 21
0.1653543307
 31
0.0
  0
LINE
  5
12B
330
1F
100
AcDbEntity
  8
TITLE
  6
SLD-Solid
370
    18
100
AcDbLine
 10
41.062992126
 20
119.5
 30
0.0
 11
41.062992126
 21
119.8346456693
 31
0.0
  0
LINE
  5
12C
330
1F
100
AcDbEntity
  8
TITLE
  6
SLD-Solid
370
    18
100
AcDbLine
 10
41.062992126
 20
0.5
 30
0.0
 11
41.062992126
 21
0.1653543307
 31
0.0
  0
LINE
  5
12D
330
1F
100
AcDbEntity
  8
TITLE
  6
SLD-Solid
370
    18
100
AcDbLine
 10
43.031496063
 20
119.5
 30
0.0
 11
43.031496063
 21
119.8346456693
 31
0.0
  0
LINE
  5
12E
330
1F
100
AcDbEntity
  8
TITLE
  6
SLD-Solid
370
    18
100
AcDbLine
 10
43.031496063
 20
0.5
 30
0.0
 11
43.031496063
 21
0.1653543307
 31
0.0
  0
LINE
  5
12F
330
1F
100
AcDbEntity
  8
TITLE
  6
SLD-Solid
370
    18
100
AcDbLine
 10
45.0
 20
119.5
 30
0.0
 11
45.0
 21
119.8346456693
 31
0.0
  0
LINE
  5
130
330
1F
100
AcDbEntity
  8
TITLE
  6
SLD-Solid
370
    18
100
AcDbLine
 10
45.0
 20
0.5
 30
0.0
 11
45.0
 21
0.1653543307
 31
0.0
  0
LINE
  5
131
330
1F
100
AcDbEntity
  8
TITLE
  6
SLD-Solid
370
    18
100
AcDbLine
 10
46.968503937
 20
119.5
 30
0.0
 11
46.968503937
 21
119.8346456693
 31
0.0
  0
LINE
  5
132
330
1F
100
AcDbEntity
  8
TITLE
  6
SLD-Solid
370
    18
100
AcDbLine
 10
46.968503937
 20
0.5
 30
0.0
 11
46.968503937
 21
0.1653543307
 31
0.0
  0
LINE
  5
133
330
1F
100
AcDbEntity
  8
TITLE
  6
SLD-Solid
370
    18
100
AcDbLine
 10
48.937007874
 20
119.5
 30
0.0
 11
48.937007874
 21
119.8346456693
 31
0.0
  0
LINE
  5
134
330
1F
100
AcDbEntity
  8
TITLE
  6
SLD-Solid
370
    18
100
AcDbLine
 10
48.937007874
 20
0.5
 30
0.0
 11
48.937007874
 21
0.1653543307
 31
0.0
  0
LINE
  5
135
330
1F
100
AcDbEntity
  8
TITLE
  6
SLD-Solid
370
    18
100
AcDbLine
 10
50.905511811
 20
119.5
 30
0.0
 11
50.905511811
 21
119.8346456693
 31
0.0
  0
LINE
  5
136
330
1F
100
AcDbEntity
  8
TITLE
  6
SLD-Solid
370
    18
100
AcDbLine
 10
50.905511811
 20
0.5
 30
0.0
 11
50.905511811
 21
0.1653543307
 31
0.0
  0
LINE
  5
137
330
1F
100
AcDbEntity
  8
TITLE
  6
SLD-Solid
370
    18
100
AcDbLine
 10
52.874015748
 20
119.5
 30
0.0
 11
52.874015748
 21
119.8346456693
 31
0.0
  0
LINE
  5
138
330
1F
100
AcDbEntity
  8
TITLE
  6
SLD-Solid
370
    18
100
AcDbLine
 10
52.874015748
 20
0.5
 30
0.0
 11
52.874015748
 21
0.1653543307
 31
0.0
  0
LINE
  5
139
330
1F
100
AcDbEntity
  8
TITLE
  6
SLD-Solid
370
    18
100
AcDbLine
 10
54.842519685
 20
119.5
 30
0.0
 11
54.842519685
 21
119.8346456693
 31
0.0
  0
LINE
  5
13A
330
1F
100
AcDbEntity
  8
TITLE
  6
SLD-Solid
370
    18
100
AcDbLine
 10
54.842519685
 20
0.5
 30
0.0
 11
54.842519685
 21
0.1653543307
 31
0.0
  0
LINE
  5
13B
330
1F
100
AcDbEntity
  8
TITLE
  6
SLD-Solid
370
    18
100
AcDbLine
 10
56.811023622
 20
119.5
 30
0.0
 11
56.811023622
 21
119.8346456693
 31
0.0
  0
LINE
  5
13C
330
1F
100
AcDbEntity
  8
TITLE
  6
SLD-Solid
370
    18
100
AcDbLine
 10
56.811023622
 20
0.5
 30
0.0
 11
56.811023622
 21
0.1653543307
 31
0.0
  0
LINE
  5
13D
330
1F
100
AcDbEntity
  8
TITLE
  6
SLD-Solid
370
    18
100
AcDbLine
 10
58.7795275591
 20
119.5
 30
0.0
 11
58.7795275591
 21
119.8346456693
 31
0.0
  0
LINE
  5
13E
330
1F
100
AcDbEntity
  8
TITLE
  6
SLD-Solid
370
    18
100
AcDbLine
 10
58.7795275591
 20
0.5
 30
0.0
 11
58.7795275591
 21
0.1653543307
 31
0.0
  0
LINE
  5
13F
330
1F
100
AcDbEntity
  8
TITLE
  6
SLD-Solid
370
    18
100
AcDbLine
 10
60.7480314961
 20
119.5
 30
0.0
 11
60.7480314961
 21
119.8346456693
 31
0.0
  0
LINE
  5
140
330
1F
100
AcDbEntity
  8
TITLE
  6
SLD-Solid
370
    18
100
AcDbLine
 10
60.7480314961
 20
0.5
 30
0.0
 11
60.7480314961
 21
0.1653543307
 31
0.0
  0
LINE
  5
141
330
1F
100
AcDbEntity
  8
TITLE
  6
SLD-Solid
370
    18
100
AcDbLine
 10
62.7165354331
 20
119.5
 30
0.0
 11
62.7165354331
 21
119.8346456693
 31
0.0
  0
LINE
  5
142
330
1F
100
AcDbEntity
  8
TITLE
  6
SLD-Solid
370
    18
100
AcDbLine
 10
62.7165354331
 20
0.5
 30
0.0
 11
62.7165354331
 21
0.1653543307
 31
0.0
  0
LINE
  5
143
330
1F
100
AcDbEntity
  8
TITLE
  6
SLD-Solid
370
    18
100
AcDbLine
 10
64.6850393701
 20
119.5
 30
0.0
 11
64.6850393701
 21
119.8346456693
 31
0.0
  0
LINE
  5
144
330
1F
100
AcDbEntity
  8
TITLE
  6
SLD-Solid
370
    18
100
AcDbLine
 10
64.6850393701
 20
0.5
 30
0.0
 11
64.6850393701
 21
0.1653543307
 31
0.0
  0
LINE
  5
145
330
1F
100
AcDbEntity
  8
TITLE
  6
SLD-Solid
370
    18
100
AcDbLine
 10
66.6535433071
 20
119.5
 30
0.0
 11
66.6535433071
 21
119.8346456693
 31
0.0
  0
LINE
  5
146
330
1F
100
AcDbEntity
  8
TITLE
  6
SLD-Solid
370
    18
100
AcDbLine
 10
66.6535433071
 20
0.5
 30
0.0
 11
66.6535433071
 21
0.1653543307
 31
0.0
  0
LINE
  5
147
330
1F
100
AcDbEntity
  8
TITLE
  6
SLD-Solid
370
    18
100
AcDbLine
 10
68.6220472441
 20
119.5
 30
0.0
 11
68.6220472441
 21
119.8346456693
 31
0.0
  0
LINE
  5
148
330
1F
100
AcDbEntity
  8
TITLE
  6
SLD-Solid
370
    18
100
AcDbLine
 10
68.6220472441
 20
0.5
 30
0.0
 11
68.6220472441
 21
0.1653543307
 31
0.0
  0
LINE
  5
149
330
1F
100
AcDbEntity
  8
TITLE
  6
SLD-Solid
370
    18
100
AcDbLine
 10
70.5905511811
 20
119.5
 30
0.0
 11
70.5905511811
 21
119.8346456693
 31
0.0
  0
LINE
  5
14A
330
1F
100
AcDbEntity
  8
TITLE
  6
SLD-Solid
370
    18
100
AcDbLine
 10
70.5905511811
 20
0.5
 30
0.0
 11
70.5905511811
 21
0.1653543307
 31
0.0
  0
LINE
  5
14B
330
1F
100
AcDbEntity
  8
TITLE
  6
SLD-Solid
370
    18
100
AcDbLine
 10
72.5590551181
 20
119.5
 30
0.0
 11
72.5590551181
 21
119.8346456693
 31
0.0
  0
LINE
  5
14C
330
1F
100
AcDbEntity
  8
TITLE
  6
SLD-Solid
370
    18
100
AcDbLine
 10
72.5590551181
 20
0.5
 30
0.0
 11
72.5590551181
 21
0.1653543307
 31
0.0
  0
LINE
  5
14D
330
1F
100
AcDbEntity
  8
TITLE
  6
SLD-Solid
370
    18
100
AcDbLine
 10
74.5275590551
 20
119.5
 30
0.0
 11
74.5275590551
 21
119.8346456693
 31
0.0
  0
LINE
  5
14E
330
1F
100
AcDbEntity
  8
TITLE
  6
SLD-Solid
370
    18
100
AcDbLine
 10
74.5275590551
 20
0.5
 30
0.0
 11
74.5275590551
 21
0.1653543307
 31
0.0
  0
LINE
  5
14F
330
1F
100
AcDbEntity
  8
TITLE
  6
SLD-Solid
370
    18
100
AcDbLine
 10
76.4960629921
 20
119.5
 30
0.0
 11
76.4960629921
 21
119.8346456693
 31
0.0
  0
LINE
  5
150
330
1F
100
AcDbEntity
  8
TITLE
  6
SLD-Solid
370
    18
100
AcDbLine
 10
76.4960629921
 20
0.5
 30
0.0
 11
76.4960629921
 21
0.1653543307
 31
0.0
  0
LINE
  5
151
330
1F
100
AcDbEntity
  8
TITLE
  6
SLD-Solid
370
    18
100
AcDbLine
 10
78.4645669291
 20
119.5
 30
0.0
 11
78.4645669291
 21
119.8346456693
 31
0.0
  0
LINE
  5
152
330
1F
100
AcDbEntity
  8
TITLE
  6
SLD-Solid
370
    18
100
AcDbLine
 10
78.4645669291
 20
0.5
 30
0.0
 11
78.4645669291
 21
0.1653543307
 31
0.0
  0
LINE
  5
153
330
1F
100
AcDbEntity
  8
TITLE
  6
SLD-Solid
370
    18
100
AcDbLine
 10
80.4330708661
 20
119.5
 30
0.0
 11
80.4330708661
 21
119.8346456693
 31
0.0
  0
LINE
  5
154
330
1F
100
AcDbEntity
  8
TITLE
  6
SLD-Solid
370
    18
100
AcDbLine
 10
80.4330708661
 20
0.5
 30
0.0
 11
80.4330708661
 21
0.1653543307
 31
0.0
  0
LINE
  5
155
330
1F
100
AcDbEntity
  8
TITLE
  6
SLD-Solid
370
    18
100
AcDbLine
 10
82.4015748031
 20
119.5
 30
0.0
 11
82.4015748031
 21
119.8346456693
 31
0.0
  0
LINE
  5
156
330
1F
100
AcDbEntity
  8
TITLE
  6
SLD-Solid
370
    18
100
AcDbLine
 10
82.4015748031
 20
0.5
 30
0.0
 11
82.4015748031
 21
0.1653543307
 31
0.0
  0
LINE
  5
157
330
1F
100
AcDbEntity
  8
TITLE
  6
SLD-Solid
370
    18
100
AcDbLine
 10
84.3700787402
 20
119.5
 30
0.0
 11
84.3700787402
 21
119.8346456693
 31
0.0
  0
LINE
  5
158
330
1F
100
AcDbEntity
  8
TITLE
  6
SLD-Solid
370
    18
100
AcDbLine
 10
84.3700787402
 20
0.5
 30
0.0
 11
84.3700787402
 21
0.1653543307
 31
0.0
  0
LINE
  5
159
330
1F
100
AcDbEntity
  8
TITLE
  6
SLD-Solid
370
    18
100
AcDbLine
 10
86.3385826772
 20
119.5
 30
0.0
 11
86.3385826772
 21
119.8346456693
 31
0.0
  0
LINE
  5
15A
330
1F
100
AcDbEntity
  8
TITLE
  6
SLD-Solid
370
    18
100
AcDbLine
 10
86.3385826772
 20
0.5
 30
0.0
 11
86.3385826772
 21
0.1653543307
 31
0.0
  0
LINE
  5
15B
330
1F
100
AcDbEntity
  8
TITLE
  6
SLD-Solid
370
    18
100
AcDbLine
 10
88.3070866142
 20
119.5
 30
0.0
 11
88.3070866142
 21
119.8346456693
 31
0.0
  0
LINE
  5
15C
330
1F
100
AcDbEntity
  8
TITLE
  6
SLD-Solid
370
    18
100
AcDbLine
 10
88.3070866142
 20
0.5
 30
0.0
 11
88.3070866142
 21
0.1653543307
 31
0.0
  0
MTEXT
  5
15E
330
1F
100
AcDbEntity
  8
NOTES
100
AcDbMText
 10
66.408297803
 20
1.0702903347
 30
0.0
 40
0.25
 41
0.0
 71
     1
 72
     1
  1
UNLESS OTHERWISE SPECIFIED DIMENSIONS ARE IN INCHES.
  7
SLDTEXTSTYLE0
 73
     1
 44
1.0
  0
MTEXT
  5
15F
330
1F
100
AcDbEntity
  8
NOTES
100
AcDbMText
 10
66.4368251132
 20
3.2193045501
 30
0.0
 40
0.25
 41
0.0
 71
     1
 72
     1
  1
DATE:
  7
SLDTEXTSTYLE0
 73
     1
 44
1.0
  0
MTEXT
  5
160
330
1F
100
AcDbEntity
  8
NOTES
100
AcDbMText
 10
68.7130669976
 20
2.1722148141
 30
0.0
 40
0.25
 41
0.0
 71
     2
 72
     1
  1
DO NOT SCALE DRAWING
  7
SLDTEXTSTYLE0
 73
     1
 44
1.0
  0
MTEXT
  5
162
330
1F
100
AcDbEntity
  8
NOTES
100
AcDbMText
 10
72.8307373075
 20
3.2682755553
 30
0.0
 40
0.25
 41
0.0
 71
     1
 72
     1
  1
TITLE:
  7
SLDTEXTSTYLE1
 73
     1
 44
1.0
  0
MTEXT
  5
163
330
1F
100
AcDbEntity
  8
NOTES
100
AcDbMText
 10
80.1561831052
 20
3.2682755553
 30
0.0
 40
0.25
 41
0.0
 71
     1
 72
     1
  1
DWG NO.
  7
SLDTEXTSTYLE1
 73
     1
 44
1.0
  0
MTEXT
  5
164
330
1F
100
AcDbEntity
  8
NOTES
100
AcDbMText
 10
80.1831753203
 20
1.0645815577
 30
0.0
 40
0.25
 41
0.0
 71
     1
 72
     1
  1
SCALE:     1:1
  7
SLDTEXTSTYLE1
 73
     1
 44
1.0
  0
MTEXT
  5
165
330
1F
100
AcDbEntity
  8
NOTES
100
AcDbMText
 10
84.1806841681
 20
2.6510344295
 30
0.0
 40
0.25
 41
0.0
 71
     2
 72
     1
  1
170 CAD
  7
SLDTEXTSTYLE1
 73
     1
 44
1.0
  0
MTEXT
  5
166
330
1F
100
AcDbEntity
  8
NOTES
100
AcDbMText
 10
75.978477411
 20
2.6388861441
 30
0.0
 40
0.25
 41
0.0
 71
     2
 72
     1
  1
170 Jumbo roll tissue
  7
SLDTEXTSTYLE1
 73
     1
 44
1.0
  0
INSERT
  5
16C
330
1F
100
AcDbEntity
  8
NOTES
100
AcDbBlockReference
  2
SW_NOTE_0
 10
80.266131557
 20
4.6105227838
 30
0.0
  0
INSERT
  5
176
330
1F
100
AcDbEntity
  8
NOTES
100
AcDbBlockReference
  2
SW_NOTE_0_1
 10
66.6159726246
 20
5.1481526848
 30
0.0
  0
MTEXT
  5
177
330
1F
100
AcDbEntity
  8
NOTES
100
AcDbMText
 10
69.5187027812
 20
3.2135957731
 30
0.0
 40
0.25
 41
0.0
 71
     2
 72
     1
  1
September 20, 2021
  7
SLDTEXTSTYLE1
 73
     1
 44
1.0
  0
MTEXT
  5
178
330
1F
100
AcDbEntity
  8
TITLE
100
AcDbMText
 10
0.3276279776
 20
1.7865708579
 30
0.0
 40
0.125
 41
0.0
 71
     2
 72
     1
  1
A
  7
SLDTEXTSTYLE1
 73
     1
 44
1.0
  0
MTEXT
  5
179
330
1F
100
AcDbEntity
  8
TITLE
100
AcDbMText
 10
89.6622736469
 20
1.7865708579
 30
0.0
 40
0.125
 41
0.0
 71
     2
 72
     1
  1
A
  7
SLDTEXTSTYLE1
 73
     1
 44
1.0
  0
MTEXT
  5
17A
330
1F
100
AcDbEntity
  8
TITLE
100
AcDbMText
 10
0.3317512413
 20
3.9775157398
 30
0.0
 40
0.125
 41
0.0
 71
     2
 72
     1
  1
B
  7
SLDTEXTSTYLE1
 73
     1
 44
1.0
  0
MTEXT
  5
17B
330
1F
100
AcDbEntity
  8
TITLE
100
AcDbMText
 10
89.6663969106
 20
3.9775157398
 30
0.0
 40
0.125
 41
0.0
 71
     2
 72
     1
  1
B
  7
SLDTEXTSTYLE1
 73
     1
 44
1.0
  0
MTEXT
  5
17C
330
1F
100
AcDbEntity
  8
TITLE
100
AcDbMText
 10
0.3313750817
 20
5.9460196768
 30
0.0
 40
0.125
 41
0.0
 71
     2
 72
     1
  1
C
  7
SLDTEXTSTYLE1
 73
     1
 44
1.0
  0
MTEXT
  5
17D
330
1F
100
AcDbEntity
  8
TITLE
100
AcDbMText
 10
89.666020751
 20
5.9460196768
 30
0.0
 40
0.125
 41
0.0
 71
     2
 72
     1
  1
C
  7
SLDTEXTSTYLE1
 73
     1
 44
1.0
  0
MTEXT
  5
17E
330
1F
100
AcDbEntity
  8
TITLE
100
AcDbMText
 10
0.3311870028
 20
7.9145236138
 30
0.0
 40
0.125
 41
0.0
 71
     2
 72
     1
  1
D
  7
SLDTEXTSTYLE1
 73
     1
 44
1.0
  0
MTEXT
  5
17F
330
1F
100
AcDbEntity
  8
TITLE
100
AcDbMText
 10
89.6658326721
 20
7.9145236138
 30
0.0
 40
0.125
 41
0.0
 71
     2
 72
     1
  1
D
  7
SLDTEXTSTYLE1
 73
     1
 44
1.0
  0
MTEXT
  5
180
330
1F
100
AcDbEntity
  8
TITLE
100
AcDbMText
 10
0.332923116
 20
9.8830275508
 30
0.0
 40
0.125
 41
0.0
 71
     2
 72
     1
  1
E
  7
SLDTEXTSTYLE1
 73
     1
 44
1.0
  0
MTEXT
  5
181
330
1F
100
AcDbEntity
  8
TITLE
100
AcDbMText
 10
89.6675687853
 20
9.8830275508
 30
0.0
 40
0.125
 41
0.0
 71
     2
 72
     1
  1
E
  7
SLDTEXTSTYLE1
 73
     1
 44
1.0
  0
MTEXT
  5
182
330
1F
100
AcDbEntity
  8
TITLE
100
AcDbMText
 10
0.3313461474
 20
11.8515314878
 30
0.0
 40
0.125
 41
0.0
 71
     2
 72
     1
  1
F
  7
SLDTEXTSTYLE1
 73
     1
 44
1.0
  0
MTEXT
  5
183
330
1F
100
AcDbEntity
  8
TITLE
100
AcDbMText
 10
89.6659918167
 20
11.8515314878
 30
0.0
 40
0.125
 41
0.0
 71
     2
 72
     1
  1
F
  7
SLDTEXTSTYLE1
 73
     1
 44
1.0
  0
MTEXT
  5
184
330
1F
100
AcDbEntity
  8
TITLE
100
AcDbMText
 10
0.3322576054
 20
13.8200354248
 30
0.0
 40
0.125
 41
0.0
 71
     2
 72
     1
  1
G
  7
SLDTEXTSTYLE1
 73
     1
 44
1.0
  0
MTEXT
  5
185
330
1F
100
AcDbEntity
  8
TITLE
100
AcDbMText
 10
89.6669032747
 20
13.8200354248
 30
0.0
 40
0.125
 41
0.0
 71
     2
 72
     1
  1
G
  7
SLDTEXTSTYLE1
 73
     1
 44
1.0
  0
MTEXT
  5
186
330
1F
100
AcDbEntity
  8
TITLE
100
AcDbMText
 10
0.3323733457
 20
15.7885393618
 30
0.0
 40
0.125
 41
0.0
 71
     2
 72
     1
  1
H
  7
SLDTEXTSTYLE1
 73
     1
 44
1.0
  0
MTEXT
  5
187
330
1F
100
AcDbEntity
  8
TITLE
100
AcDbMText
 10
89.667019015
 20
15.7885393618
 30
0.0
 40
0.125
 41
0.0
 71
     2
 72
     1
  1
H
  7
SLDTEXTSTYLE1
 73
     1
 44
1.0
  0
MTEXT
  5
188
330
1F
100
AcDbEntity
  8
TITLE
100
AcDbMText
 10
0.3315776306
 20
17.7570432988
 30
0.0
 40
0.125
 41
0.0
 71
     2
 72
     1
  1
J
  7
SLDTEXTSTYLE1
 73
     1
 44
1.0
  0
MTEXT
  5
189
330
1F
100
AcDbEntity
  8
TITLE
100
AcDbMText
 10
89.6662232999
 20
17.7570432988
 30
0.0
 40
0.125
 41
0.0
 71
     2
 72
     1
  1
J
  7
SLDTEXTSTYLE1
 73
     1
 44
1.0
  0
MTEXT
  5
18A
330
1F
100
AcDbEntity
  8
TITLE
100
AcDbMText
 10
0.3323154765
 20
19.7255472359
 30
0.0
 40
0.125
 41
0.0
 71
     2
 72
     1
  1
K
  7
SLDTEXTSTYLE1
 73
     1
 44
1.0
  0
MTEXT
  5
18B
330
1F
100
AcDbEntity
  8
TITLE
100
AcDbMText
 10
89.6669611458
 20
19.7255472359
 30
0.0
 40
0.125
 41
0.0
 71
     2
 72
     1
  1
K
  7
SLDTEXTSTYLE1
 73
     1
 44
1.0
  0
MTEXT
  5
18C
330
1F
100
AcDbEntity
  8
TITLE
100
AcDbMText
 10
0.3312448739
 20
21.6940511729
 30
0.0
 40
0.125
 41
0.0
 71
     2
 72
     1
  1
L
  7
SLDTEXTSTYLE1
 73
     1
 44
1.0
  0
MTEXT
  5
18D
330
1F
100
AcDbEntity
  8
TITLE
100
AcDbMText
 10
89.6658905432
 20
21.6940511729
 30
0.0
 40
0.125
 41
0.0
 71
     2
 72
     1
  1
L
  7
SLDTEXTSTYLE1
 73
     1
 44
1.0
  0
MTEXT
  5
18E
330
1F
100
AcDbEntity
  8
TITLE
100
AcDbMText
 10
0.3283224192
 20
23.6625551099
 30
0.0
 40
0.125
 41
0.0
 71
     2
 72
     1
  1
M
  7
SLDTEXTSTYLE1
 73
     1
 44
1.0
  0
MTEXT
  5
18F
330
1F
100
AcDbEntity
  8
TITLE
100
AcDbMText
 10
89.6629680885
 20
23.6625551099
 30
0.0
 40
0.125
 41
0.0
 71
     2
 72
     1
  1
M
  7
SLDTEXTSTYLE1
 73
     1
 44
1.0
  0
MTEXT
  5
190
330
1F
100
AcDbEntity
  8
TITLE
100
AcDbMText
 10
0.3315342276
 20
25.6310590469
 30
0.0
 40
0.125
 41
0.0
 71
     2
 72
     1
  1
N
  7
SLDTEXTSTYLE1
 73
     1
 44
1.0
  0
MTEXT
  5
191
330
1F
100
AcDbEntity
  8
TITLE
100
AcDbMText
 10
89.6661798969
 20
25.6310590469
 30
0.0
 40
0.125
 41
0.0
 71
     2
 72
     1
  1
N
  7
SLDTEXTSTYLE1
 73
     1
 44
1.0
  0
MTEXT
  5
192
330
1F
100
AcDbEntity
  8
TITLE
100
AcDbMText
 10
0.3321997349
 20
27.5995629839
 30
0.0
 40
0.125
 41
0.0
 71
     2
 72
     1
  1
P
  7
SLDTEXTSTYLE1
 73
     1
 44
1.0
  0
MTEXT
  5
193
330
1F
100
AcDbEntity
  8
TITLE
100
AcDbMText
 10
89.6668454042
 20
27.5995629839
 30
0.0
 40
0.125
 41
0.0
 71
     2
 72
     1
  1
P
  7
SLDTEXTSTYLE1
 73
     1
 44
1.0
  0
MTEXT
  5
194
330
1F
100
AcDbEntity
  8
TITLE
100
AcDbMText
 10
0.3309265867
 20
29.5680669209
 30
0.0
 40
0.125
 41
0.0
 71
     2
 72
     1
  1
R
  7
SLDTEXTSTYLE1
 73
     1
 44
1.0
  0
MTEXT
  5
195
330
1F
100
AcDbEntity
  8
TITLE
100
AcDbMText
 10
89.665572256
 20
29.5680669209
 30
0.0
 40
0.125
 41
0.0
 71
     2
 72
     1
  1
R
  7
SLDTEXTSTYLE1
 73
     1
 44
1.0
  0
MTEXT
  5
196
330
1F
100
AcDbEntity
  8
TITLE
100
AcDbMText
 10
0.3323010071
 20
31.5365708579
 30
0.0
 40
0.125
 41
0.0
 71
     2
 72
     1
  1
T
  7
SLDTEXTSTYLE1
 73
     1
 44
1.0
  0
MTEXT
  5
197
330
1F
100
AcDbEntity
  8
TITLE
100
AcDbMText
 10
89.6669466764
 20
31.5365708579
 30
0.0
 40
0.125
 41
0.0
 71
     2
 72
     1
  1
T
  7
SLDTEXTSTYLE1
 73
     1
 44
1.0
  0
MTEXT
  5
198
330
1F
100
AcDbEntity
  8
TITLE
100
AcDbMText
 10
0.3328507755
 20
33.5050747949
 30
0.0
 40
0.125
 41
0.0
 71
     2
 72
     1
  1
U
  7
SLDTEXTSTYLE1
 73
     1
 44
1.0
  0
MTEXT
  5
199
330
1F
100
AcDbEntity
  8
TITLE
100
AcDbMText
 10
89.6674964448
 20
33.5050747949
 30
0.0
 40
0.125
 41
0.0
 71
     2
 72
     1
  1
U
  7
SLDTEXTSTYLE1
 73
     1
 44
1.0
  0
MTEXT
  5
19A
330
1F
100
AcDbEntity
  8
TITLE
100
AcDbMText
 10
0.3307529773
 20
35.4735787319
 30
0.0
 40
0.125
 41
0.0
 71
     2
 72
     1
  1
V
  7
SLDTEXTSTYLE1
 73
     1
 44
1.0
  0
MTEXT
  5
19B
330
1F
100
AcDbEntity
  8
TITLE
100
AcDbMText
 10
89.6653986466
 20
35.4735787319
 30
0.0
 40
0.125
 41
0.0
 71
     2
 72
     1
  1
V
  7
SLDTEXTSTYLE1
 73
     1
 44
1.0
  0
MTEXT
  5
19C
330
1F
100
AcDbEntity
  8
TITLE
100
AcDbMText
 10
0.3327784409
 20
37.4420826689
 30
0.0
 40
0.125
 41
0.0
 71
     2
 72
     1
  1
W
  7
SLDTEXTSTYLE1
 73
     1
 44
1.0
  0
MTEXT
  5
19D
330
1F
100
AcDbEntity
  8
TITLE
100
AcDbMText
 10
89.6674241102
 20
37.4420826689
 30
0.0
 40
0.125
 41
0.0
 71
     2
 72
     1
  1
W
  7
SLDTEXTSTYLE1
 73
     1
 44
1.0
  0
MTEXT
  5
19E
330
1F
100
AcDbEntity
  8
TITLE
100
AcDbMText
 10
0.3321997349
 20
39.4105866059
 30
0.0
 40
0.125
 41
0.0
 71
     2
 72
     1
  1
Y
  7
SLDTEXTSTYLE1
 73
     1
 44
1.0
  0
MTEXT
  5
19F
330
1F
100
AcDbEntity
  8
TITLE
100
AcDbMText
 10
89.6668454042
 20
39.4105866059
 30
0.0
 40
0.125
 41
0.0
 71
     2
 72
     1
  1
Y
  7
SLDTEXTSTYLE1
 73
     1
 44
1.0
  0
MTEXT
  5
1A0
330
1F
100
AcDbEntity
  8
TITLE
100
AcDbMText
 10
0.3225787898
 20
41.3790905429
 30
0.0
 40
0.125
 41
0.0
 71
     2
 72
     1
  1
AA
  7
SLDTEXTSTYLE1
 73
     1
 44
1.0
  0
MTEXT
  5
1A1
330
1F
100
AcDbEntity
  8
TITLE
100
AcDbMText
 10
89.6572244591
 20
41.3790905429
 30
0.0
 40
0.125
 41
0.0
 71
     2
 72
     1
  1
AA
  7
SLDTEXTSTYLE1
 73
     1
 44
1.0
  0
MTEXT
  5
1A2
330
1F
100
AcDbEntity
  8
TITLE
100
AcDbMText
 10
0.3267020535
 20
43.34759448
 30
0.0
 40
0.125
 41
0.0
 71
     2
 72
     1
  1
AB
  7
SLDTEXTSTYLE1
 73
     1
 44
1.0
  0
MTEXT
  5
1A3
330
1F
100
AcDbEntity
  8
TITLE
100
AcDbMText
 10
89.6613477228
 20
43.34759448
 30
0.0
 40
0.125
 41
0.0
 71
     2
 72
     1
  1
AB
  7
SLDTEXTSTYLE1
 73
     1
 44
1.0
  0
MTEXT
  5
1A4
330
1F
100
AcDbEntity
  8
TITLE
100
AcDbMText
 10
0.3263258985
 20
45.316098417
 30
0.0
 40
0.125
 41
0.0
 71
     2
 72
     1
  1
AC
  7
SLDTEXTSTYLE1
 73
     1
 44
1.0
  0
MTEXT
  5
1A5
330
1F
100
AcDbEntity
  8
TITLE
100
AcDbMText
 10
89.6609715678
 20
45.316098417
 30
0.0
 40
0.125
 41
0.0
 71
     2
 72
     1
  1
AC
  7
SLDTEXTSTYLE1
 73
     1
 44
1.0
  0
MTEXT
  5
1A6
330
1F
100
AcDbEntity
  8
TITLE
100
AcDbMText
 10
0.3261378197
 20
47.284602354
 30
0.0
 40
0.125
 41
0.0
 71
     2
 72
     1
  1
AD
  7
SLDTEXTSTYLE1
 73
     1
 44
1.0
  0
MTEXT
  5
1A7
330
1F
100
AcDbEntity
  8
TITLE
100
AcDbMText
 10
89.6607834889
 20
47.284602354
 30
0.0
 40
0.125
 41
0.0
 71
     2
 72
     1
  1
AD
  7
SLDTEXTSTYLE1
 73
     1
 44
1.0
  0
MTEXT
  5
1A8
330
1F
100
AcDbEntity
  8
TITLE
100
AcDbMText
 10
0.3278739283
 20
49.253106291
 30
0.0
 40
0.125
 41
0.0
 71
     2
 72
     1
  1
AE
  7
SLDTEXTSTYLE1
 73
     1
 44
1.0
  0
MTEXT
  5
1A9
330
1F
100
AcDbEntity
  8
TITLE
100
AcDbMText
 10
89.6625195976
 20
49.253106291
 30
0.0
 40
0.125
 41
0.0
 71
     2
 72
     1
  1
AE
  7
SLDTEXTSTYLE1
 73
     1
 44
1.0
  0
MTEXT
  5
1AA
330
1F
100
AcDbEntity
  8
TITLE
100
AcDbMText
 10
0.3262969596
 20
51.221610228
 30
0.0
 40
0.125
 41
0.0
 71
     2
 72
     1
  1
AF
  7
SLDTEXTSTYLE1
 73
     1
 44
1.0
  0
MTEXT
  5
1AB
330
1F
100
AcDbEntity
  8
TITLE
100
AcDbMText
 10
89.6609426289
 20
51.221610228
 30
0.0
 40
0.125
 41
0.0
 71
     2
 72
     1
  1
AF
  7
SLDTEXTSTYLE1
 73
     1
 44
1.0
  0
MTEXT
  5
1AC
330
1F
100
AcDbEntity
  8
TITLE
100
AcDbMText
 10
0.3272084177
 20
53.190114165
 30
0.0
 40
0.125
 41
0.0
 71
     2
 72
     1
  1
AG
  7
SLDTEXTSTYLE1
 73
     1
 44
1.0
  0
MTEXT
  5
1AD
330
1F
100
AcDbEntity
  8
TITLE
100
AcDbMText
 10
89.661854087
 20
53.190114165
 30
0.0
 40
0.125
 41
0.0
 71
     2
 72
     1
  1
AG
  7
SLDTEXTSTYLE1
 73
     1
 44
1.0
  0
MTEXT
  5
1AE
330
1F
100
AcDbEntity
  8
TITLE
100
AcDbMText
 10
0.3273241625
 20
55.158618102
 30
0.0
 40
0.125
 41
0.0
 71
     2
 72
     1
  1
AH
  7
SLDTEXTSTYLE1
 73
     1
 44
1.0
  0
MTEXT
  5
1AF
330
1F
100
AcDbEntity
  8
TITLE
100
AcDbMText
 10
89.6619698318
 20
55.158618102
 30
0.0
 40
0.125
 41
0.0
 71
     2
 72
     1
  1
AH
  7
SLDTEXTSTYLE1
 73
     1
 44
1.0
  0
MTEXT
  5
1B0
330
1F
100
AcDbEntity
  8
TITLE
100
AcDbMText
 10
0.3265284428
 20
57.127122039
 30
0.0
 40
0.125
 41
0.0
 71
     2
 72
     1
  1
AJ
  7
SLDTEXTSTYLE1
 73
     1
 44
1.0
  0
MTEXT
  5
1B1
330
1F
100
AcDbEntity
  8
TITLE
100
AcDbMText
 10
89.6611741121
 20
57.127122039
 30
0.0
 40
0.125
 41
0.0
 71
     2
 72
     1
  1
AJ
  7
SLDTEXTSTYLE1
 73
     1
 44
1.0
  0
MTEXT
  5
1B2
330
1F
100
AcDbEntity
  8
TITLE
100
AcDbMText
 10
0.3272662887
 20
59.095625976
 30
0.0
 40
0.125
 41
0.0
 71
     2
 72
     1
  1
AK
  7
SLDTEXTSTYLE1
 73
     1
 44
1.0
  0
MTEXT
  5
1B3
330
1F
100
AcDbEntity
  8
TITLE
100
AcDbMText
 10
89.661911958
 20
59.095625976
 30
0.0
 40
0.125
 41
0.0
 71
     2
 72
     1
  1
AK
  7
SLDTEXTSTYLE1
 73
     1
 44
1.0
  0
MTEXT
  5
1B4
330
1F
100
AcDbEntity
  8
TITLE
100
AcDbMText
 10
0.3261956816
 20
61.064129913
 30
0.0
 40
0.125
 41
0.0
 71
     2
 72
     1
  1
AL
  7
SLDTEXTSTYLE1
 73
     1
 44
1.0
  0
MTEXT
  5
1B5
330
1F
100
AcDbEntity
  8
TITLE
100
AcDbMText
 10
89.6608413509
 20
61.064129913
 30
0.0
 40
0.125
 41
0.0
 71
     2
 72
     1
  1
AL
  7
SLDTEXTSTYLE1
 73
     1
 44
1.0
  0
MTEXT
  5
1B6
330
1F
100
AcDbEntity
  8
TITLE
100
AcDbMText
 10
0.3232732315
 20
63.03263385
 30
0.0
 40
0.125
 41
0.0
 71
     2
 72
     1
  1
AM
  7
SLDTEXTSTYLE1
 73
     1
 44
1.0
  0
MTEXT
  5
1B7
330
1F
100
AcDbEntity
  8
TITLE
100
AcDbMText
 10
89.6579189008
 20
63.03263385
 30
0.0
 40
0.125
 41
0.0
 71
     2
 72
     1
  1
AM
  7
SLDTEXTSTYLE1
 73
     1
 44
1.0
  0
MTEXT
  5
1B8
330
1F
100
AcDbEntity
  8
TITLE
100
AcDbMText
 10
0.3264850398
 20
65.001137787
 30
0.0
 40
0.125
 41
0.0
 71
     2
 72
     1
  1
AN
  7
SLDTEXTSTYLE1
 73
     1
 44
1.0
  0
MTEXT
  5
1B9
330
1F
100
AcDbEntity
  8
TITLE
100
AcDbMText
 10
89.6611307091
 20
65.001137787
 30
0.0
 40
0.125
 41
0.0
 71
     2
 72
     1
  1
AN
  7
SLDTEXTSTYLE1
 73
     1
 44
1.0
  0
MTEXT
  5
1BA
330
1F
100
AcDbEntity
  8
TITLE
100
AcDbMText
 10
0.3271505426
 20
66.969641724
 30
0.0
 40
0.125
 41
0.0
 71
     2
 72
     1
  1
AP
  7
SLDTEXTSTYLE1
 73
     1
 44
1.0
  0
MTEXT
  5
1BB
330
1F
100
AcDbEntity
  8
TITLE
100
AcDbMText
 10
89.6617962119
 20
66.969641724
 30
0.0
 40
0.125
 41
0.0
 71
     2
 72
     1
  1
AP
  7
SLDTEXTSTYLE1
 73
     1
 44
1.0
  0
MTEXT
  5
1BC
330
1F
100
AcDbEntity
  8
TITLE
100
AcDbMText
 10
0.325877399
 20
68.9381456611
 30
0.0
 40
0.125
 41
0.0
 71
     2
 72
     1
  1
AR
  7
SLDTEXTSTYLE1
 73
     1
 44
1.0
  0
MTEXT
  5
1BD
330
1F
100
AcDbEntity
  8
TITLE
100
AcDbMText
 10
89.6605230682
 20
68.9381456611
 30
0.0
 40
0.125
 41
0.0
 71
     2
 72
     1
  1
AR
  7
SLDTEXTSTYLE1
 73
     1
 44
1.0
  0
MTEXT
  5
1BE
330
1F
100
AcDbEntity
  8
TITLE
100
AcDbMText
 10
0.3272518193
 20
70.9066495981
 30
0.0
 40
0.125
 41
0.0
 71
     2
 72
     1
  1
AT
  7
SLDTEXTSTYLE1
 73
     1
 44
1.0
  0
MTEXT
  5
1BF
330
1F
100
AcDbEntity
  8
TITLE
100
AcDbMText
 10
89.6618974886
 20
70.9066495981
 30
0.0
 40
0.125
 41
0.0
 71
     2
 72
     1
  1
AT
  7
SLDTEXTSTYLE1
 73
     1
 44
1.0
  0
MTEXT
  5
1C0
330
1F
100
AcDbEntity
  8
TITLE
100
AcDbMText
 10
0.3278015877
 20
72.8751535351
 30
0.0
 40
0.125
 41
0.0
 71
     2
 72
     1
  1
AU
  7
SLDTEXTSTYLE1
 73
     1
 44
1.0
  0
MTEXT
  5
1C1
330
1F
100
AcDbEntity
  8
TITLE
100
AcDbMText
 10
89.662447257
 20
72.8751535351
 30
0.0
 40
0.125
 41
0.0
 71
     2
 72
     1
  1
AU
  7
SLDTEXTSTYLE1
 73
     1
 44
1.0
  0
MTEXT
  5
1C2
330
1F
100
AcDbEntity
  8
TITLE
100
AcDbMText
 10
0.3257037895
 20
74.8436574721
 30
0.0
 40
0.125
 41
0.0
 71
     2
 72
     1
  1
AV
  7
SLDTEXTSTYLE1
 73
     1
 44
1.0
  0
MTEXT
  5
1C3
330
1F
100
AcDbEntity
  8
TITLE
100
AcDbMText
 10
89.6603494588
 20
74.8436574721
 30
0.0
 40
0.125
 41
0.0
 71
     2
 72
     1
  1
AV
  7
SLDTEXTSTYLE1
 73
     1
 44
1.0
  0
MTEXT
  5
1C4
330
1F
100
AcDbEntity
  8
TITLE
100
AcDbMText
 10
0.3277292486
 20
76.8121614091
 30
0.0
 40
0.125
 41
0.0
 71
     2
 72
     1
  1
AW
  7
SLDTEXTSTYLE1
 73
     1
 44
1.0
  0
MTEXT
  5
1C5
330
1F
100
AcDbEntity
  8
TITLE
100
AcDbMText
 10
89.6623749179
 20
76.8121614091
 30
0.0
 40
0.125
 41
0.0
 71
     2
 72
     1
  1
AW
  7
SLDTEXTSTYLE1
 73
     1
 44
1.0
  0
MTEXT
  5
1C6
330
1F
100
AcDbEntity
  8
TITLE
100
AcDbMText
 10
0.3271505426
 20
78.7806653461
 30
0.0
 40
0.125
 41
0.0
 71
     2
 72
     1
  1
AY
  7
SLDTEXTSTYLE1
 73
     1
 44
1.0
  0
MTEXT
  5
1C7
330
1F
100
AcDbEntity
  8
TITLE
100
AcDbMText
 10
89.6617962119
 20
78.7806653461
 30
0.0
 40
0.125
 41
0.0
 71
     2
 72
     1
  1
AY
  7
SLDTEXTSTYLE1
 73
     1
 44
1.0
  0
MTEXT
  5
1C8
330
1F
100
AcDbEntity
  8
TITLE
100
AcDbMText
 10
0.3267020535
 20
80.7491692831
 30
0.0
 40
0.125
 41
0.0
 71
     2
 72
     1
  1
BA
  7
SLDTEXTSTYLE1
 73
     1
 44
1.0
  0
MTEXT
  5
1C9
330
1F
100
AcDbEntity
  8
TITLE
100
AcDbMText
 10
89.6613477228
 20
80.7491692831
 30
0.0
 40
0.125
 41
0.0
 71
     2
 72
     1
  1
BA
  7
SLDTEXTSTYLE1
 73
     1
 44
1.0
  0
MTEXT
  5
1CA
330
1F
100
AcDbEntity
  8
TITLE
100
AcDbMText
 10
0.3308253173
 20
82.7176732201
 30
0.0
 40
0.125
 41
0.0
 71
     2
 72
     1
  1
BB
  7
SLDTEXTSTYLE1
 73
     1
 44
1.0
  0
MTEXT
  5
1CB
330
1F
100
AcDbEntity
  8
TITLE
100
AcDbMText
 10
89.6654709865
 20
82.7176732201
 30
0.0
 40
0.125
 41
0.0
 71
     2
 72
     1
  1
BB
  7
SLDTEXTSTYLE1
 73
     1
 44
1.0
  0
MTEXT
  5
1CC
330
1F
100
AcDbEntity
  8
TITLE
100
AcDbMText
 10
0.3304491531
 20
84.6861771571
 30
0.0
 40
0.125
 41
0.0
 71
     2
 72
     1
  1
BC
  7
SLDTEXTSTYLE1
 73
     1
 44
1.0
  0
MTEXT
  5
1CD
330
1F
100
AcDbEntity
  8
TITLE
100
AcDbMText
 10
89.6650948224
 20
84.6861771571
 30
0.0
 40
0.125
 41
0.0
 71
     2
 72
     1
  1
BC
  7
SLDTEXTSTYLE1
 73
     1
 44
1.0
  0
MTEXT
  5
1CE
330
1F
100
AcDbEntity
  8
TITLE
100
AcDbMText
 10
0.3302610742
 20
86.6546810941
 30
0.0
 40
0.125
 41
0.0
 71
     2
 72
     1
  1
BD
  7
SLDTEXTSTYLE1
 73
     1
 44
1.0
  0
MTEXT
  5
1CF
330
1F
100
AcDbEntity
  8
TITLE
100
AcDbMText
 10
89.6649067435
 20
86.6546810941
 30
0.0
 40
0.125
 41
0.0
 71
     2
 72
     1
  1
BD
  7
SLDTEXTSTYLE1
 73
     1
 44
1.0
  0
MTEXT
  5
1D0
330
1F
100
AcDbEntity
  8
TITLE
100
AcDbMText
 10
0.331997192
 20
88.6231850311
 30
0.0
 40
0.125
 41
0.0
 71
     2
 72
     1
  1
BE
  7
SLDTEXTSTYLE1
 73
     1
 44
1.0
  0
MTEXT
  5
1D1
330
1F
100
AcDbEntity
  8
TITLE
100
AcDbMText
 10
89.6666428613
 20
88.6231850311
 30
0.0
 40
0.125
 41
0.0
 71
     2
 72
     1
  1
BE
  7
SLDTEXTSTYLE1
 73
     1
 44
1.0
  0
MTEXT
  5
1D2
330
1F
100
AcDbEntity
  8
TITLE
100
AcDbMText
 10
0.3304202234
 20
90.5916889681
 30
0.0
 40
0.125
 41
0.0
 71
     2
 72
     1
  1
BF
  7
SLDTEXTSTYLE1
 73
     1
 44
1.0
  0
MTEXT
  5
1D3
330
1F
100
AcDbEntity
  8
TITLE
100
AcDbMText
 10
89.6650658926
 20
90.5916889681
 30
0.0
 40
0.125
 41
0.0
 71
     2
 72
     1
  1
BF
  7
SLDTEXTSTYLE1
 73
     1
 44
1.0
  0
MTEXT
  5
1D4
330
1F
100
AcDbEntity
  8
TITLE
100
AcDbMText
 10
0.3313316814
 20
92.5601929051
 30
0.0
 40
0.125
 41
0.0
 71
     2
 72
     1
  1
BG
  7
SLDTEXTSTYLE1
 73
     1
 44
1.0
  0
MTEXT
  5
1D5
330
1F
100
AcDbEntity
  8
TITLE
100
AcDbMText
 10
89.6659773507
 20
92.5601929051
 30
0.0
 40
0.125
 41
0.0
 71
     2
 72
     1
  1
BG
  7
SLDTEXTSTYLE1
 73
     1
 44
1.0
  0
MTEXT
  5
1D6
330
1F
100
AcDbEntity
  8
TITLE
100
AcDbMText
 10
0.331447417
 20
94.5286968422
 30
0.0
 40
0.125
 41
0.0
 71
     2
 72
     1
  1
BH
  7
SLDTEXTSTYLE1
 73
     1
 44
1.0
  0
MTEXT
  5
1D7
330
1F
100
AcDbEntity
  8
TITLE
100
AcDbMText
 10
89.6660930863
 20
94.5286968422
 30
0.0
 40
0.125
 41
0.0
 71
     2
 72
     1
  1
BH
  7
SLDTEXTSTYLE1
 73
     1
 44
1.0
  0
MTEXT
  5
1D8
330
1F
100
AcDbEntity
  8
TITLE
100
AcDbMText
 10
0.3306517065
 20
96.4972007792
 30
0.0
 40
0.125
 41
0.0
 71
     2
 72
     1
  1
BJ
  7
SLDTEXTSTYLE1
 73
     1
 44
1.0
  0
MTEXT
  5
1D9
330
1F
100
AcDbEntity
  8
TITLE
100
AcDbMText
 10
89.6652973758
 20
96.4972007792
 30
0.0
 40
0.125
 41
0.0
 71
     2
 72
     1
  1
BJ
  7
SLDTEXTSTYLE1
 73
     1
 44
1.0
  0
MTEXT
  5
1DA
330
1F
100
AcDbEntity
  8
TITLE
100
AcDbMText
 10
0.3313895525
 20
98.4657047162
 30
0.0
 40
0.125
 41
0.0
 71
     2
 72
     1
  1
BK
  7
SLDTEXTSTYLE1
 73
     1
 44
1.0
  0
MTEXT
  5
1DB
330
1F
100
AcDbEntity
  8
TITLE
100
AcDbMText
 10
89.6660352218
 20
98.4657047162
 30
0.0
 40
0.125
 41
0.0
 71
     2
 72
     1
  1
BK
  7
SLDTEXTSTYLE1
 73
     1
 44
1.0
  0
MTEXT
  5
1DC
330
1F
100
AcDbEntity
  8
TITLE
100
AcDbMText
 10
0.3303189545
 20
100.4342086532
 30
0.0
 40
0.125
 41
0.0
 71
     2
 72
     1
  1
BL
  7
SLDTEXTSTYLE1
 73
     1
 44
1.0
  0
MTEXT
  5
1DD
330
1F
100
AcDbEntity
  8
TITLE
100
AcDbMText
 10
89.6649646237
 20
100.4342086532
 30
0.0
 40
0.125
 41
0.0
 71
     2
 72
     1
  1
BL
  7
SLDTEXTSTYLE1
 73
     1
 44
1.0
  0
MTEXT
  5
1DE
330
1F
100
AcDbEntity
  8
TITLE
100
AcDbMText
 10
0.3273964952
 20
102.4027125902
 30
0.0
 40
0.125
 41
0.0
 71
     2
 72
     1
  1
BM
  7
SLDTEXTSTYLE1
 73
     1
 44
1.0
  0
MTEXT
  5
1DF
330
1F
100
AcDbEntity
  8
TITLE
100
AcDbMText
 10
89.6620421645
 20
102.4027125902
 30
0.0
 40
0.125
 41
0.0
 71
     2
 72
     1
  1
BM
  7
SLDTEXTSTYLE1
 73
     1
 44
1.0
  0
MTEXT
  5
1E0
330
1F
100
AcDbEntity
  8
TITLE
100
AcDbMText
 10
0.3306083035
 20
104.3712165272
 30
0.0
 40
0.125
 41
0.0
 71
     2
 72
     1
  1
BN
  7
SLDTEXTSTYLE1
 73
     1
 44
1.0
  0
MTEXT
  5
1E1
330
1F
100
AcDbEntity
  8
TITLE
100
AcDbMText
 10
89.6652539728
 20
104.3712165272
 30
0.0
 40
0.125
 41
0.0
 71
     2
 72
     1
  1
BN
  7
SLDTEXTSTYLE1
 73
     1
 44
1.0
  0
MTEXT
  5
1E2
330
1F
100
AcDbEntity
  8
TITLE
100
AcDbMText
 10
0.3312738155
 20
106.3397204642
 30
0.0
 40
0.125
 41
0.0
 71
     2
 72
     1
  1
BP
  7
SLDTEXTSTYLE1
 73
     1
 44
1.0
  0
MTEXT
  5
1E3
330
1F
100
AcDbEntity
  8
TITLE
100
AcDbMText
 10
89.6659194848
 20
106.3397204642
 30
0.0
 40
0.125
 41
0.0
 71
     2
 72
     1
  1
BP
  7
SLDTEXTSTYLE1
 73
     1
 44
1.0
  0
MTEXT
  5
1E4
330
1F
100
AcDbEntity
  8
TITLE
100
AcDbMText
 10
0.3300006627
 20
108.3082244012
 30
0.0
 40
0.125
 41
0.0
 71
     2
 72
     1
  1
BR
  7
SLDTEXTSTYLE1
 73
     1
 44
1.0
  0
MTEXT
  5
1E5
330
1F
100
AcDbEntity
  8
TITLE
100
AcDbMText
 10
89.664646332
 20
108.3082244012
 30
0.0
 40
0.125
 41
0.0
 71
     2
 72
     1
  1
BR
  7
SLDTEXTSTYLE1
 73
     1
 44
1.0
  0
MTEXT
  5
1E6
330
1F
100
AcDbEntity
  8
TITLE
100
AcDbMText
 10
0.331375083
 20
110.2767283382
 30
0.0
 40
0.125
 41
0.0
 71
     2
 72
     1
  1
BT
  7
SLDTEXTSTYLE1
 73
     1
 44
1.0
  0
MTEXT
  5
1E7
330
1F
100
AcDbEntity
  8
TITLE
100
AcDbMText
 10
89.6660207523
 20
110.2767283382
 30
0.0
 40
0.125
 41
0.0
 71
     2
 72
     1
  1
BT
  7
SLDTEXTSTYLE1
 73
     1
 44
1.0
  0
MTEXT
  5
1E8
330
1F
100
AcDbEntity
  8
TITLE
100
AcDbMText
 10
0.3319248515
 20
112.2452322752
 30
0.0
 40
0.125
 41
0.0
 71
     2
 72
     1
  1
BU
  7
SLDTEXTSTYLE1
 73
     1
 44
1.0
  0
MTEXT
  5
1E9
330
1F
100
AcDbEntity
  8
TITLE
100
AcDbMText
 10
89.6665705208
 20
112.2452322752
 30
0.0
 40
0.125
 41
0.0
 71
     2
 72
     1
  1
BU
  7
SLDTEXTSTYLE1
 73
     1
 44
1.0
  0
MTEXT
  5
1EA
330
1F
100
AcDbEntity
  8
TITLE
100
AcDbMText
 10
0.3298270533
 20
114.2137362122
 30
0.0
 40
0.125
 41
0.0
 71
     2
 72
     1
  1
BV
  7
SLDTEXTSTYLE1
 73
     1
 44
1.0
  0
MTEXT
  5
1EB
330
1F
100
AcDbEntity
  8
TITLE
100
AcDbMText
 10
89.6644727226
 20
114.2137362122
 30
0.0
 40
0.125
 41
0.0
 71
     2
 72
     1
  1
BV
  7
SLDTEXTSTYLE1
 73
     1
 44
1.0
  0
MTEXT
  5
1EC
330
1F
100
AcDbEntity
  8
TITLE
100
AcDbMText
 10
0.3318525215
 20
116.1822401492
 30
0.0
 40
0.125
 41
0.0
 71
     2
 72
     1
  1
BW
  7
SLDTEXTSTYLE1
 73
     1
 44
1.0
  0
MTEXT
  5
1ED
330
1F
100
AcDbEntity
  8
TITLE
100
AcDbMText
 10
89.6664981907
 20
116.1822401492
 30
0.0
 40
0.125
 41
0.0
 71
     2
 72
     1
  1
BW
  7
SLDTEXTSTYLE1
 73
     1
 44
1.0
  0
MTEXT
  5
1EE
330
1F
100
AcDbEntity
  8
TITLE
100
AcDbMText
 10
0.3312738155
 20
118.3731850311
 30
0.0
 40
0.125
 41
0.0
 71
     2
 72
     1
  1
BY
  7
SLDTEXTSTYLE1
 73
     1
 44
1.0
  0
MTEXT
  5
1EF
330
1F
100
AcDbEntity
  8
TITLE
100
AcDbMText
 10
89.6659194848
 20
118.3731850311
 30
0.0
 40
0.125
 41
0.0
 71
     2
 72
     1
  1
BY
  7
SLDTEXTSTYLE1
 73
     1
 44
1.0
  0
MTEXT
  5
1F0
330
1F
100
AcDbEntity
  8
TITLE
100
AcDbMText
 10
1.0939393315
 20
0.4125551099
 30
0.0
 40
0.125
 41
0.0
 71
     2
 72
     1
  1
46
  7
SLDTEXTSTYLE1
 73
     1
 44
1.0
  0
MTEXT
  5
1F1
330
1F
100
AcDbEntity
  8
TITLE
100
AcDbMText
 10
1.0939393315
 20
119.7472007792
 30
0.0
 40
0.125
 41
0.0
 71
     2
 72
     1
  1
46
  7
SLDTEXTSTYLE1
 73
     1
 44
1.0
  0
MTEXT
  5
1F2
330
1F
100
AcDbEntity
  8
TITLE
100
AcDbMText
 10
2.674647993
 20
0.4125551099
 30
0.0
 40
0.125
 41
0.0
 71
     2
 72
     1
  1
45
  7
SLDTEXTSTYLE1
 73
     1
 44
1.0
  0
MTEXT
  5
1F3
330
1F
100
AcDbEntity
  8
TITLE
100
AcDbMText
 10
2.674647993
 20
119.7472007792
 30
0.0
 40
0.125
 41
0.0
 71
     2
 72
     1
  1
45
  7
SLDTEXTSTYLE1
 73
     1
 44
1.0
  0
MTEXT
  5
1F4
330
1F
100
AcDbEntity
  8
TITLE
100
AcDbMText
 10
4.64315193
 20
0.4125551099
 30
0.0
 40
0.125
 41
0.0
 71
     2
 72
     1
  1
44
  7
SLDTEXTSTYLE1
 73
     1
 44
1.0
  0
MTEXT
  5
1F5
330
1F
100
AcDbEntity
  8
TITLE
100
AcDbMText
 10
4.64315193
 20
119.7472007792
 30
0.0
 40
0.125
 41
0.0
 71
     2
 72
     1
  1
44
  7
SLDTEXTSTYLE1
 73
     1
 44
1.0
  0
MTEXT
  5
1F6
330
1F
100
AcDbEntity
  8
TITLE
100
AcDbMText
 10
6.611655867
 20
0.4125551099
 30
0.0
 40
0.125
 41
0.0
 71
     2
 72
     1
  1
43
  7
SLDTEXTSTYLE1
 73
     1
 44
1.0
  0
MTEXT
  5
1F7
330
1F
100
AcDbEntity
  8
TITLE
100
AcDbMText
 10
6.611655867
 20
119.7472007792
 30
0.0
 40
0.125
 41
0.0
 71
     2
 72
     1
  1
43
  7
SLDTEXTSTYLE1
 73
     1
 44
1.0
  0
MTEXT
  5
1F8
330
1F
100
AcDbEntity
  8
TITLE
100
AcDbMText
 10
8.580159804
 20
0.4125551099
 30
0.0
 40
0.125
 41
0.0
 71
     2
 72
     1
  1
42
  7
SLDTEXTSTYLE1
 73
     1
 44
1.0
  0
MTEXT
  5
1F9
330
1F
100
AcDbEntity
  8
TITLE
100
AcDbMText
 10
8.580159804
 20
119.7472007792
 30
0.0
 40
0.125
 41
0.0
 71
     2
 72
     1
  1
42
  7
SLDTEXTSTYLE1
 73
     1
 44
1.0
  0
MTEXT
  5
1FA
330
1F
100
AcDbEntity
  8
TITLE
100
AcDbMText
 10
10.548663741
 20
0.4125551099
 30
0.0
 40
0.125
 41
0.0
 71
     2
 72
     1
  1
41
  7
SLDTEXTSTYLE1
 73
     1
 44
1.0
  0
MTEXT
  5
1FB
330
1F
100
AcDbEntity
  8
TITLE
100
AcDbMText
 10
10.548663741
 20
119.7472007792
 30
0.0
 40
0.125
 41
0.0
 71
     2
 72
     1
  1
41
  7
SLDTEXTSTYLE1
 73
     1
 44
1.0
  0
MTEXT
  5
1FC
330
1F
100
AcDbEntity
  8
TITLE
100
AcDbMText
 10
12.517167678
 20
0.4125551099
 30
0.0
 40
0.125
 41
0.0
 71
     2
 72
     1
  1
40
  7
SLDTEXTSTYLE1
 73
     1
 44
1.0
  0
MTEXT
  5
1FD
330
1F
100
AcDbEntity
  8
TITLE
100
AcDbMText
 10
12.517167678
 20
119.7472007792
 30
0.0
 40
0.125
 41
0.0
 71
     2
 72
     1
  1
40
  7
SLDTEXTSTYLE1
 73
     1
 44
1.0
  0
MTEXT
  5
1FE
330
1F
100
AcDbEntity
  8
TITLE
100
AcDbMText
 10
14.485671615
 20
0.4125551099
 30
0.0
 40
0.125
 41
0.0
 71
     2
 72
     1
  1
39
  7
SLDTEXTSTYLE1
 73
     1
 44
1.0
  0
MTEXT
  5
1FF
330
1F
100
AcDbEntity
  8
TITLE
100
AcDbMText
 10
14.485671615
 20
119.7472007792
 30
0.0
 40
0.125
 41
0.0
 71
     2
 72
     1
  1
39
  7
SLDTEXTSTYLE1
 73
     1
 44
1.0
  0
MTEXT
  5
200
330
1F
100
AcDbEntity
  8
TITLE
100
AcDbMText
 10
16.454175552
 20
0.4125551099
 30
0.0
 40
0.125
 41
0.0
 71
     2
 72
     1
  1
38
  7
SLDTEXTSTYLE1
 73
     1
 44
1.0
  0
MTEXT
  5
201
330
1F
100
AcDbEntity
  8
TITLE
100
AcDbMText
 10
16.454175552
 20
119.7472007792
 30
0.0
 40
0.125
 41
0.0
 71
     2
 72
     1
  1
38
  7
SLDTEXTSTYLE1
 73
     1
 44
1.0
  0
MTEXT
  5
202
330
1F
100
AcDbEntity
  8
TITLE
100
AcDbMText
 10
18.422679489
 20
0.4125551099
 30
0.0
 40
0.125
 41
0.0
 71
     2
 72
     1
  1
37
  7
SLDTEXTSTYLE1
 73
     1
 44
1.0
  0
MTEXT
  5
203
330
1F
100
AcDbEntity
  8
TITLE
100
AcDbMText
 10
18.422679489
 20
119.7472007792
 30
0.0
 40
0.125
 41
0.0
 71
     2
 72
     1
  1
37
  7
SLDTEXTSTYLE1
 73
     1
 44
1.0
  0
MTEXT
  5
204
330
1F
100
AcDbEntity
  8
TITLE
100
AcDbMText
 10
20.391183426
 20
0.4125551099
 30
0.0
 40
0.125
 41
0.0
 71
     2
 72
     1
  1
36
  7
SLDTEXTSTYLE1
 73
     1
 44
1.0
  0
MTEXT
  5
205
330
1F
100
AcDbEntity
  8
TITLE
100
AcDbMText
 10
20.391183426
 20
119.7472007792
 30
0.0
 40
0.125
 41
0.0
 71
     2
 72
     1
  1
36
  7
SLDTEXTSTYLE1
 73
     1
 44
1.0
  0
MTEXT
  5
206
330
1F
100
AcDbEntity
  8
TITLE
100
AcDbMText
 10
22.359687363
 20
0.4125551099
 30
0.0
 40
0.125
 41
0.0
 71
     2
 72
     1
  1
35
  7
SLDTEXTSTYLE1
 73
     1
 44
1.0
  0
MTEXT
  5
207
330
1F
100
AcDbEntity
  8
TITLE
100
AcDbMText
 10
22.359687363
 20
119.7472007792
 30
0.0
 40
0.125
 41
0.0
 71
     2
 72
     1
  1
35
  7
SLDTEXTSTYLE1
 73
     1
 44
1.0
  0
MTEXT
  5
208
330
1F
100
AcDbEntity
  8
TITLE
100
AcDbMText
 10
24.3281913
 20
0.4125551099
 30
0.0
 40
0.125
 41
0.0
 71
     2
 72
     1
  1
34
  7
SLDTEXTSTYLE1
 73
     1
 44
1.0
  0
MTEXT
  5
209
330
1F
100
AcDbEntity
  8
TITLE
100
AcDbMText
 10
24.3281913
 20
119.7472007792
 30
0.0
 40
0.125
 41
0.0
 71
     2
 72
     1
  1
34
  7
SLDTEXTSTYLE1
 73
     1
 44
1.0
  0
MTEXT
  5
20A
330
1F
100
AcDbEntity
  8
TITLE
100
AcDbMText
 10
26.2966952371
 20
0.4125551099
 30
0.0
 40
0.125
 41
0.0
 71
     2
 72
     1
  1
33
  7
SLDTEXTSTYLE1
 73
     1
 44
1.0
  0
MTEXT
  5
20B
330
1F
100
AcDbEntity
  8
TITLE
100
AcDbMText
 10
26.2966952371
 20
119.7472007792
 30
0.0
 40
0.125
 41
0.0
 71
     2
 72
     1
  1
33
  7
SLDTEXTSTYLE1
 73
     1
 44
1.0
  0
MTEXT
  5
20C
330
1F
100
AcDbEntity
  8
TITLE
100
AcDbMText
 10
28.2651991741
 20
0.4125551099
 30
0.0
 40
0.125
 41
0.0
 71
     2
 72
     1
  1
32
  7
SLDTEXTSTYLE1
 73
     1
 44
1.0
  0
MTEXT
  5
20D
330
1F
100
AcDbEntity
  8
TITLE
100
AcDbMText
 10
28.2651991741
 20
119.7472007792
 30
0.0
 40
0.125
 41
0.0
 71
     2
 72
     1
  1
32
  7
SLDTEXTSTYLE1
 73
     1
 44
1.0
  0
MTEXT
  5
20E
330
1F
100
AcDbEntity
  8
TITLE
100
AcDbMText
 10
30.2337031111
 20
0.4125551099
 30
0.0
 40
0.125
 41
0.0
 71
     2
 72
     1
  1
31
  7
SLDTEXTSTYLE1
 73
     1
 44
1.0
  0
MTEXT
  5
20F
330
1F
100
AcDbEntity
  8
TITLE
100
AcDbMText
 10
30.2337031111
 20
119.7472007792
 30
0.0
 40
0.125
 41
0.0
 71
     2
 72
     1
  1
31
  7
SLDTEXTSTYLE1
 73
     1
 44
1.0
  0
MTEXT
  5
210
330
1F
100
AcDbEntity
  8
TITLE
100
AcDbMText
 10
32.2022070481
 20
0.4125551099
 30
0.0
 40
0.125
 41
0.0
 71
     2
 72
     1
  1
30
  7
SLDTEXTSTYLE1
 73
     1
 44
1.0
  0
MTEXT
  5
211
330
1F
100
AcDbEntity
  8
TITLE
100
AcDbMText
 10
32.2022070481
 20
119.7472007792
 30
0.0
 40
0.125
 41
0.0
 71
     2
 72
     1
  1
30
  7
SLDTEXTSTYLE1
 73
     1
 44
1.0
  0
MTEXT
  5
212
330
1F
100
AcDbEntity
  8
TITLE
100
AcDbMText
 10
34.1707109851
 20
0.4125551099
 30
0.0
 40
0.125
 41
0.0
 71
     2
 72
     1
  1
29
  7
SLDTEXTSTYLE1
 73
     1
 44
1.0
  0
MTEXT
  5
213
330
1F
100
AcDbEntity
  8
TITLE
100
AcDbMText
 10
34.1707109851
 20
119.7472007792
 30
0.0
 40
0.125
 41
0.0
 71
     2
 72
     1
  1
29
  7
SLDTEXTSTYLE1
 73
     1
 44
1.0
  0
MTEXT
  5
214
330
1F
100
AcDbEntity
  8
TITLE
100
AcDbMText
 10
36.1392149221
 20
0.4125551099
 30
0.0
 40
0.125
 41
0.0
 71
     2
 72
     1
  1
28
  7
SLDTEXTSTYLE1
 73
     1
 44
1.0
  0
MTEXT
  5
215
330
1F
100
AcDbEntity
  8
TITLE
100
AcDbMText
 10
36.1392149221
 20
119.7472007792
 30
0.0
 40
0.125
 41
0.0
 71
     2
 72
     1
  1
28
  7
SLDTEXTSTYLE1
 73
     1
 44
1.0
  0
MTEXT
  5
216
330
1F
100
AcDbEntity
  8
TITLE
100
AcDbMText
 10
38.1077188591
 20
0.4125551099
 30
0.0
 40
0.125
 41
0.0
 71
     2
 72
     1
  1
27
  7
SLDTEXTSTYLE1
 73
     1
 44
1.0
  0
MTEXT
  5
217
330
1F
100
AcDbEntity
  8
TITLE
100
AcDbMText
 10
38.1077188591
 20
119.7472007792
 30
0.0
 40
0.125
 41
0.0
 71
     2
 72
     1
  1
27
  7
SLDTEXTSTYLE1
 73
     1
 44
1.0
  0
MTEXT
  5
218
330
1F
100
AcDbEntity
  8
TITLE
100
AcDbMText
 10
40.0762227961
 20
0.4125551099
 30
0.0
 40
0.125
 41
0.0
 71
     2
 72
     1
  1
26
  7
SLDTEXTSTYLE1
 73
     1
 44
1.0
  0
MTEXT
  5
219
330
1F
100
AcDbEntity
  8
TITLE
100
AcDbMText
 10
40.0762227961
 20
119.7472007792
 30
0.0
 40
0.125
 41
0.0
 71
     2
 72
     1
  1
26
  7
SLDTEXTSTYLE1
 73
     1
 44
1.0
  0
MTEXT
  5
21A
330
1F
100
AcDbEntity
  8
TITLE
100
AcDbMText
 10
42.0447267331
 20
0.4125551099
 30
0.0
 40
0.125
 41
0.0
 71
     2
 72
     1
  1
25
  7
SLDTEXTSTYLE1
 73
     1
 44
1.0
  0
MTEXT
  5
21B
330
1F
100
AcDbEntity
  8
TITLE
100
AcDbMText
 10
42.0447267331
 20
119.7472007792
 30
0.0
 40
0.125
 41
0.0
 71
     2
 72
     1
  1
25
  7
SLDTEXTSTYLE1
 73
     1
 44
1.0
  0
MTEXT
  5
21C
330
1F
100
AcDbEntity
  8
TITLE
100
AcDbMText
 10
44.0132306701
 20
0.4125551099
 30
0.0
 40
0.125
 41
0.0
 71
     2
 72
     1
  1
24
  7
SLDTEXTSTYLE1
 73
     1
 44
1.0
  0
MTEXT
  5
21D
330
1F
100
AcDbEntity
  8
TITLE
100
AcDbMText
 10
44.0132306701
 20
119.7472007792
 30
0.0
 40
0.125
 41
0.0
 71
     2
 72
     1
  1
24
  7
SLDTEXTSTYLE1
 73
     1
 44
1.0
  0
MTEXT
  5
21E
330
1F
100
AcDbEntity
  8
TITLE
100
AcDbMText
 10
45.9817346071
 20
0.4125551099
 30
0.0
 40
0.125
 41
0.0
 71
     2
 72
     1
  1
23
  7
SLDTEXTSTYLE1
 73
     1
 44
1.0
  0
MTEXT
  5
21F
330
1F
100
AcDbEntity
  8
TITLE
100
AcDbMText
 10
45.9817346071
 20
119.7472007792
 30
0.0
 40
0.125
 41
0.0
 71
     2
 72
     1
  1
23
  7
SLDTEXTSTYLE1
 73
     1
 44
1.0
  0
MTEXT
  5
220
330
1F
100
AcDbEntity
  8
TITLE
100
AcDbMText
 10
47.9502385441
 20
0.4125551099
 30
0.0
 40
0.125
 41
0.0
 71
     2
 72
     1
  1
22
  7
SLDTEXTSTYLE1
 73
     1
 44
1.0
  0
MTEXT
  5
221
330
1F
100
AcDbEntity
  8
TITLE
100
AcDbMText
 10
47.9502385441
 20
119.7472007792
 30
0.0
 40
0.125
 41
0.0
 71
     2
 72
     1
  1
22
  7
SLDTEXTSTYLE1
 73
     1
 44
1.0
  0
MTEXT
  5
222
330
1F
100
AcDbEntity
  8
TITLE
100
AcDbMText
 10
49.9187424811
 20
0.4125551099
 30
0.0
 40
0.125
 41
0.0
 71
     2
 72
     1
  1
21
  7
SLDTEXTSTYLE1
 73
     1
 44
1.0
  0
MTEXT
  5
223
330
1F
100
AcDbEntity
  8
TITLE
100
AcDbMText
 10
49.9187424811
 20
119.7472007792
 30
0.0
 40
0.125
 41
0.0
 71
     2
 72
     1
  1
21
  7
SLDTEXTSTYLE1
 73
     1
 44
1.0
  0
MTEXT
  5
224
330
1F
100
AcDbEntity
  8
TITLE
100
AcDbMText
 10
51.8872464182
 20
0.4125551099
 30
0.0
 40
0.125
 41
0.0
 71
     2
 72
     1
  1
20
  7
SLDTEXTSTYLE1
 73
     1
 44
1.0
  0
MTEXT
  5
225
330
1F
100
AcDbEntity
  8
TITLE
100
AcDbMText
 10
51.8872464182
 20
119.7472007792
 30
0.0
 40
0.125
 41
0.0
 71
     2
 72
     1
  1
20
  7
SLDTEXTSTYLE1
 73
     1
 44
1.0
  0
MTEXT
  5
226
330
1F
100
AcDbEntity
  8
TITLE
100
AcDbMText
 10
53.8557503552
 20
0.4125551099
 30
0.0
 40
0.125
 41
0.0
 71
     2
 72
     1
  1
19
  7
SLDTEXTSTYLE1
 73
     1
 44
1.0
  0
MTEXT
  5
227
330
1F
100
AcDbEntity
  8
TITLE
100
AcDbMText
 10
53.8557503552
 20
119.7472007792
 30
0.0
 40
0.125
 41
0.0
 71
     2
 72
     1
  1
19
  7
SLDTEXTSTYLE1
 73
     1
 44
1.0
  0
MTEXT
  5
228
330
1F
100
AcDbEntity
  8
TITLE
100
AcDbMText
 10
55.8242542922
 20
0.4125551099
 30
0.0
 40
0.125
 41
0.0
 71
     2
 72
     1
  1
18
  7
SLDTEXTSTYLE1
 73
     1
 44
1.0
  0
MTEXT
  5
229
330
1F
100
AcDbEntity
  8
TITLE
100
AcDbMText
 10
55.8242542922
 20
119.7472007792
 30
0.0
 40
0.125
 41
0.0
 71
     2
 72
     1
  1
18
  7
SLDTEXTSTYLE1
 73
     1
 44
1.0
  0
MTEXT
  5
22A
330
1F
100
AcDbEntity
  8
TITLE
100
AcDbMText
 10
57.7927582292
 20
0.4125551099
 30
0.0
 40
0.125
 41
0.0
 71
     2
 72
     1
  1
17
  7
SLDTEXTSTYLE1
 73
     1
 44
1.0
  0
MTEXT
  5
22B
330
1F
100
AcDbEntity
  8
TITLE
100
AcDbMText
 10
57.7927582292
 20
119.7472007792
 30
0.0
 40
0.125
 41
0.0
 71
     2
 72
     1
  1
17
  7
SLDTEXTSTYLE1
 73
     1
 44
1.0
  0
MTEXT
  5
22C
330
1F
100
AcDbEntity
  8
TITLE
100
AcDbMText
 10
59.7612621662
 20
0.4125551099
 30
0.0
 40
0.125
 41
0.0
 71
     2
 72
     1
  1
16
  7
SLDTEXTSTYLE1
 73
     1
 44
1.0
  0
MTEXT
  5
22D
330
1F
100
AcDbEntity
  8
TITLE
100
AcDbMText
 10
59.7612621662
 20
119.7472007792
 30
0.0
 40
0.125
 41
0.0
 71
     2
 72
     1
  1
16
  7
SLDTEXTSTYLE1
 73
     1
 44
1.0
  0
MTEXT
  5
22E
330
1F
100
AcDbEntity
  8
TITLE
100
AcDbMText
 10
61.7297661032
 20
0.4125551099
 30
0.0
 40
0.125
 41
0.0
 71
     2
 72
     1
  1
15
  7
SLDTEXTSTYLE1
 73
     1
 44
1.0
  0
MTEXT
  5
22F
330
1F
100
AcDbEntity
  8
TITLE
100
AcDbMText
 10
61.7297661032
 20
119.7472007792
 30
0.0
 40
0.125
 41
0.0
 71
     2
 72
     1
  1
15
  7
SLDTEXTSTYLE1
 73
     1
 44
1.0
  0
MTEXT
  5
230
330
1F
100
AcDbEntity
  8
TITLE
100
AcDbMText
 10
63.6982700402
 20
0.4125551099
 30
0.0
 40
0.125
 41
0.0
 71
     2
 72
     1
  1
14
  7
SLDTEXTSTYLE1
 73
     1
 44
1.0
  0
MTEXT
  5
231
330
1F
100
AcDbEntity
  8
TITLE
100
AcDbMText
 10
63.6982700402
 20
119.7472007792
 30
0.0
 40
0.125
 41
0.0
 71
     2
 72
     1
  1
14
  7
SLDTEXTSTYLE1
 73
     1
 44
1.0
  0
MTEXT
  5
232
330
1F
100
AcDbEntity
  8
TITLE
100
AcDbMText
 10
65.6667739772
 20
0.4125551099
 30
0.0
 40
0.125
 41
0.0
 71
     2
 72
     1
  1
13
  7
SLDTEXTSTYLE1
 73
     1
 44
1.0
  0
MTEXT
  5
233
330
1F
100
AcDbEntity
  8
TITLE
100
AcDbMText
 10
65.6667739772
 20
119.7472007792
 30
0.0
 40
0.125
 41
0.0
 71
     2
 72
     1
  1
13
  7
SLDTEXTSTYLE1
 73
     1
 44
1.0
  0
MTEXT
  5
234
330
1F
100
AcDbEntity
  8
TITLE
100
AcDbMText
 10
67.6352779142
 20
0.4125551099
 30
0.0
 40
0.125
 41
0.0
 71
     2
 72
     1
  1
12
  7
SLDTEXTSTYLE1
 73
     1
 44
1.0
  0
MTEXT
  5
235
330
1F
100
AcDbEntity
  8
TITLE
100
AcDbMText
 10
67.6352779142
 20
119.7472007792
 30
0.0
 40
0.125
 41
0.0
 71
     2
 72
     1
  1
12
  7
SLDTEXTSTYLE1
 73
     1
 44
1.0
  0
MTEXT
  5
236
330
1F
100
AcDbEntity
  8
TITLE
100
AcDbMText
 10
69.6037818512
 20
0.4125551099
 30
0.0
 40
0.125
 41
0.0
 71
     2
 72
     1
  1
11
  7
SLDTEXTSTYLE1
 73
     1
 44
1.0
  0
MTEXT
  5
237
330
1F
100
AcDbEntity
  8
TITLE
100
AcDbMText
 10
69.6037818512
 20
119.7472007792
 30
0.0
 40
0.125
 41
0.0
 71
     2
 72
     1
  1
11
  7
SLDTEXTSTYLE1
 73
     1
 44
1.0
  0
MTEXT
  5
238
330
1F
100
AcDbEntity
  8
TITLE
100
AcDbMText
 10
71.5722857882
 20
0.4125551099
 30
0.0
 40
0.125
 41
0.0
 71
     2
 72
     1
  1
10
  7
SLDTEXTSTYLE1
 73
     1
 44
1.0
  0
MTEXT
  5
239
330
1F
100
AcDbEntity
  8
TITLE
100
AcDbMText
 10
71.5722857882
 20
119.7472007792
 30
0.0
 40
0.125
 41
0.0
 71
     2
 72
     1
  1
10
  7
SLDTEXTSTYLE1
 73
     1
 44
1.0
  0
MTEXT
  5
23A
330
1F
100
AcDbEntity
  8
TITLE
100
AcDbMText
 10
73.5420484059
 20
0.4125551099
 30
0.0
 40
0.125
 41
0.0
 71
     2
 72
     1
  1
9
  7
SLDTEXTSTYLE1
 73
     1
 44
1.0
  0
MTEXT
  5
23B
330
1F
100
AcDbEntity
  8
TITLE
100
AcDbMText
 10
73.5420484059
 20
119.7472007792
 30
0.0
 40
0.125
 41
0.0
 71
     2
 72
     1
  1
9
  7
SLDTEXTSTYLE1
 73
     1
 44
1.0
  0
MTEXT
  5
23C
330
1F
100
AcDbEntity
  8
TITLE
100
AcDbMText
 10
75.5105523429
 20
0.4125551099
 30
0.0
 40
0.125
 41
0.0
 71
     2
 72
     1
  1
8
  7
SLDTEXTSTYLE1
 73
     1
 44
1.0
  0
MTEXT
  5
23D
330
1F
100
AcDbEntity
  8
TITLE
100
AcDbMText
 10
75.5105523429
 20
119.7472007792
 30
0.0
 40
0.125
 41
0.0
 71
     2
 72
     1
  1
8
  7
SLDTEXTSTYLE1
 73
     1
 44
1.0
  0
MTEXT
  5
23E
330
1F
100
AcDbEntity
  8
TITLE
100
AcDbMText
 10
77.4790562799
 20
0.4125551099
 30
0.0
 40
0.125
 41
0.0
 71
     2
 72
     1
  1
7
  7
SLDTEXTSTYLE1
 73
     1
 44
1.0
  0
MTEXT
  5
23F
330
1F
100
AcDbEntity
  8
TITLE
100
AcDbMText
 10
77.4790562799
 20
119.7472007792
 30
0.0
 40
0.125
 41
0.0
 71
     2
 72
     1
  1
7
  7
SLDTEXTSTYLE1
 73
     1
 44
1.0
  0
MTEXT
  5
240
330
1F
100
AcDbEntity
  8
TITLE
100
AcDbMText
 10
79.447560217
 20
0.4125551099
 30
0.0
 40
0.125
 41
0.0
 71
     2
 72
     1
  1
6
  7
SLDTEXTSTYLE1
 73
     1
 44
1.0
  0
MTEXT
  5
241
330
1F
100
AcDbEntity
  8
TITLE
100
AcDbMText
 10
79.447560217
 20
119.7472007792
 30
0.0
 40
0.125
 41
0.0
 71
     2
 72
     1
  1
6
  7
SLDTEXTSTYLE1
 73
     1
 44
1.0
  0
MTEXT
  5
242
330
1F
100
AcDbEntity
  8
TITLE
100
AcDbMText
 10
81.416064154
 20
0.4125551099
 30
0.0
 40
0.125
 41
0.0
 71
     2
 72
     1
  1
5
  7
SLDTEXTSTYLE1
 73
     1
 44
1.0
  0
MTEXT
  5
243
330
1F
100
AcDbEntity
  8
TITLE
100
AcDbMText
 10
81.416064154
 20
119.7472007792
 30
0.0
 40
0.125
 41
0.0
 71
     2
 72
     1
  1
5
  7
SLDTEXTSTYLE1
 73
     1
 44
1.0
  0
MTEXT
  5
244
330
1F
100
AcDbEntity
  8
TITLE
100
AcDbMText
 10
83.384568091
 20
0.4125551099
 30
0.0
 40
0.125
 41
0.0
 71
     2
 72
     1
  1
4
  7
SLDTEXTSTYLE1
 73
     1
 44
1.0
  0
MTEXT
  5
245
330
1F
100
AcDbEntity
  8
TITLE
100
AcDbMText
 10
83.384568091
 20
119.7472007792
 30
0.0
 40
0.125
 41
0.0
 71
     2
 72
     1
  1
4
  7
SLDTEXTSTYLE1
 73
     1
 44
1.0
  0
MTEXT
  5
246
330
1F
100
AcDbEntity
  8
TITLE
100
AcDbMText
 10
85.353072028
 20
0.4125551099
 30
0.0
 40
0.125
 41
0.0
 71
     2
 72
     1
  1
3
  7
SLDTEXTSTYLE1
 73
     1
 44
1.0
  0
MTEXT
  5
247
330
1F
100
AcDbEntity
  8
TITLE
100
AcDbMText
 10
85.353072028
 20
119.7472007792
 30
0.0
 40
0.125
 41
0.0
 71
     2
 72
     1
  1
3
  7
SLDTEXTSTYLE1
 73
     1
 44
1.0
  0
MTEXT
  5
248
330
1F
100
AcDbEntity
  8
TITLE
100
AcDbMText
 10
87.321575965
 20
0.4125551099
 30
0.0
 40
0.125
 41
0.0
 71
     2
 72
     1
  1
2
  7
SLDTEXTSTYLE1
 73
     1
 44
1.0
  0
MTEXT
  5
249
330
1F
100
AcDbEntity
  8
TITLE
100
AcDbMText
 10
87.321575965
 20
119.7472007792
 30
0.0
 40
0.125
 41
0.0
 71
     2
 72
     1
  1
2
  7
SLDTEXTSTYLE1
 73
     1
 44
1.0
  0
MTEXT
  5
24A
330
1F
100
AcDbEntity
  8
TITLE
100
AcDbMText
 10
88.9022846264
 20
0.4125551099
 30
0.0
 40
0.125
 41
0.0
 71
     2
 72
     1
  1
1
  7
SLDTEXTSTYLE1
 73
     1
 44
1.0
  0
MTEXT
  5
24B
330
1F
100
AcDbEntity
  8
TITLE
100
AcDbMText
 10
88.9022846264
 20
119.7472007792
 30
0.0
 40
0.125
 41
0.0
 71
     2
 72
     1
  1
1
  7
SLDTEXTSTYLE1
 73
     1
 44
1.0
  0
LINE
  5
24C
330
1F
100
AcDbEntity
  8
0
  6
SLD-Solid
 62
     7
370
    25
100
AcDbLine
 10
16.7426583601
 20
32.4075887915
 30
0.0
 11
16.7426583601
 21
32.5398722561
 31
0.0
  0
LINE
  5
24D
330
1F
100
AcDbEntity
  8
0
  6
SLD-Solid
 62
     7
370
    25
100
AcDbLine
 10
15.8371465491
 20
32.5398722561
 30
0.0
 11
15.8371465491
 21
32.4075887915
 31
0.0
  0
ARC
  5
24E
330
1F
100
AcDbEntity
  8
0
  6
SLD-Solid
 62
     7
370
    25
100
AcDbCircle
 10
15.9371465491
 20
32.5398722561
 30
0.0
 40
0.1000000000000014
100
AcDbArc
 50
90.0
 51
180.0
  0
ARC
  5
24F
330
1F
100
AcDbEntity
  8
0
  6
SLD-Solid
 62
     7
370
    25
100
AcDbCircle
 10
16.6426583601
 20
32.5398722561
 30
0.0
 40
0.1000000000000014
100
AcDbArc
 50
0.0
 51
90.0
  0
ARC
  5
250
330
1F
100
AcDbEntity
  8
0
  6
SLD-Solid
 62
     7
370
    25
100
AcDbCircle
 10
21.2052567853
 20
27.0729431223
 30
0.0
 40
1.500000000000003
100
AcDbArc
 50
174.2046235328
 51
185.7953764672
  0
ARC
  5
251
330
1F
100
AcDbEntity
  8
0
  6
SLD-Solid
 62
     7
370
    25
100
AcDbCircle
 10
21.2052567853
 20
27.0729431223
 30
0.0
 40
4.500000000000003
100
AcDbArc
 50
177.6119845367
 51
182.3880154633
  0
LWPOLYLINE
  5
252
330
1F
100
AcDbEntity
  8
0
  6
SLD-Solid
 62
     7
370
    25
100
AcDbPolyline
 90
        3
 70
   128
 43
0.0
 10
12.8745481239
 20
27.0729431223
 10
12.867545576
 20
27.2177140036
 10
12.8668814145
 20
27.2244071434
  0
LWPOLYLINE
  5
253
330
1F
100
AcDbEntity
  8
0
  6
SLD-Solid
 62
     7
370
    25
100
AcDbPolyline
 90
        3
 70
   128
 43
0.0
 10
12.8668814145
 20
26.9214791011
 10
12.867545576
 20
26.9281722409
 10
12.8745481239
 20
27.0729431223
  0
LWPOLYLINE
  5
254
330
1F
100
AcDbEntity
  8
0
  6
SLD-Solid
 62
     7
370
    25
100
AcDbPolyline
 90
        3
 70
   128
 43
0.0
 10
15.870640177
 20
26.8854431223
 10
15.8745481239
 20
27.0729431223
 10
15.870640177
 20
27.2604431223
  0
LINE
  5
255
330
1F
100
AcDbEntity
  8
0
  6
SLD-Solid
 62
     7
370
    25
100
AcDbLine
 10
15.1372252893
 20
21.1808171356
 30
0.0
 11
15.7277764704
 21
21.1808171356
 31
0.0
  0
LINE
  5
256
330
1F
100
AcDbEntity
  8
0
  6
SLD-Solid
 62
     7
370
    25
100
AcDbLine
 10
15.7277764704
 20
20.3146754033
 30
0.0
 11
15.7277764704
 21
21.1808171356
 31
0.0
  0
LINE
  5
257
330
1F
100
AcDbEntity
  8
0
  6
SLD-Solid
 62
     7
370
    25
100
AcDbLine
 10
15.1372252893
 20
20.3146754033
 30
0.0
 11
15.7277764704
 21
20.3146754033
 31
0.0
  0
LINE
  5
258
330
1F
100
AcDbEntity
  8
0
  6
SLD-Solid
 62
     7
370
    25
100
AcDbLine
 10
15.1372252893
 20
21.1808171356
 30
0.0
 11
15.1372252893
 21
20.3146754033
 31
0.0
  0
LINE
  5
259
330
1F
100
AcDbEntity
  8
0
  6
SLD-Solid
 62
     7
370
    25
100
AcDbLine
 10
15.7277764704
 20
21.1808171356
 30
0.0
 11
15.7277764704
 21
21.1989273718
 31
0.0
  0
LINE
  5
25A
330
1F
100
AcDbEntity
  8
0
  6
SLD-Solid
 62
     7
370
    25
100
AcDbLine
 10
15.1372252893
 20
21.1808171356
 30
0.0
 11
15.1372252893
 21
21.1989273718
 31
0.0
  0
ELLIPSE
  5
25B
330
1F
100
AcDbEntity
  8
0
  6
SLD-Solid
 62
     7
370
    25
100
AcDbEllipse
 10
19.750965704
 20
24.5545443753
 30
0.0
 11
1.0
 21
0.0
 31
0.0
210
0.0
220
0.0
230
1.0
 40
0.298273145
 41
0.0
 42
6.283185307179586
  0
ARC
  5
25C
330
1F
100
AcDbEntity
  8
0
  6
SLD-Solid
 62
     7
370
    25
100
AcDbCircle
 10
20.6649024546
 20
23.6979431223
 30
0.0
 40
0.25
100
AcDbArc
 50
270.0
 51
90.0
  0
LINE
  5
25D
330
1F
100
AcDbEntity
  8
0
  6
SLD-Solid
 62
     7
370
    25
100
AcDbLine
 10
11.9149024546
 20
23.9479431223
 30
0.0
 11
20.6649024546
 21
23.9479431223
 31
0.0
  0
ARC
  5
25E
330
1F
100
AcDbEntity
  8
0
  6
SLD-Solid
 62
     7
370
    25
100
AcDbCircle
 10
11.3745481239
 20
27.0729431223
 30
0.0
 40
2.874645669291339
100
AcDbArc
 50
128.6013505656
 51
231.3986494344
  0
ARC
  5
25F
330
1F
100
AcDbEntity
  8
0
  6
SLD-Solid
 62
     7
370
    25
100
AcDbCircle
 10
9.7370368919
 20
29.1241188471
 30
0.0
 40
0.2500000000000017
100
AcDbArc
 50
308.6013505656
 51
128.6013505656
  0
ARC
  5
260
330
1F
100
AcDbEntity
  8
0
  6
SLD-Solid
 62
     7
370
    25
100
AcDbCircle
 10
9.7370368919
 20
25.0217673974
 30
0.0
 40
0.2500000000000006
100
AcDbArc
 50
231.3986494344
 51
51.3986494344
  0
ARC
  5
261
330
1F
100
AcDbEntity
  8
0
  6
SLD-Solid
 62
     7
370
    25
100
AcDbCircle
 10
11.3745481239
 20
27.0729431223
 30
0.0
 40
2.374645669291339
100
AcDbArc
 50
128.6013505656
 51
231.3986494344
  0
ARC
  5
262
330
1F
100
AcDbEntity
  8
0
  6
SLD-Solid
 62
     7
370
    25
100
AcDbCircle
 10
11.9149024546
 20
23.6979431223
 30
0.0
 40
0.25
100
AcDbArc
 50
90.0
 51
270.0
  0
ARC
  5
263
330
1F
100
AcDbEntity
  8
0
  6
SLD-Solid
 62
     7
370
    25
100
AcDbCircle
 10
10.2899024546
 20
28.2824956532
 30
0.0
 40
0.2500000000000012
100
AcDbArc
 50
311.8836250437
 51
131.8836270254
  0
ARC
  5
264
330
1F
100
AcDbEntity
  8
0
  6
SLD-Solid
 62
     7
370
    25
100
AcDbCircle
 10
10.2899024546
 20
25.8633905913
 30
0.0
 40
0.2499999999999997
100
AcDbArc
 50
228.1163729746
 51
48.1163729746
  0
ARC
  5
265
330
1F
100
AcDbEntity
  8
0
  6
SLD-Solid
 62
     7
370
    25
100
AcDbCircle
 10
11.3745481239
 20
27.0729431223
 30
0.0
 40
1.374645670000002
100
AcDbArc
 50
131.8836273859
 51
228.1163729746
  0
ARC
  5
266
330
1F
100
AcDbEntity
  8
0
  6
SLD-Solid
 62
     7
370
    25
100
AcDbCircle
 10
21.2052567853
 20
27.0729431223
 30
0.0
 40
2.374645669291339
100
AcDbArc
 50
308.6013505656
 51
51.3986494344
  0
ARC
  5
267
330
1F
100
AcDbEntity
  8
0
  6
SLD-Solid
 62
     7
370
    25
100
AcDbCircle
 10
22.8427680174
 20
29.1241188471
 30
0.0
 40
0.2500000000000023
100
AcDbArc
 50
51.3986494344
 51
231.3986494344
  0
ARC
  5
268
330
1F
100
AcDbEntity
  8
0
  6
SLD-Solid
 62
     7
370
    25
100
AcDbCircle
 10
22.8427680174
 20
25.0217673974
 30
0.0
 40
0.2499999999999995
100
AcDbArc
 50
128.6013505656
 51
308.6013505656
  0
ARC
  5
269
330
1F
100
AcDbEntity
  8
0
  6
SLD-Solid
 62
     7
370
    25
100
AcDbCircle
 10
21.2052567853
 20
27.0729431223
 30
0.0
 40
2.87464566929134
100
AcDbArc
 50
308.6013505656
 51
51.3986494344
  0
LINE
  5
26A
330
1F
100
AcDbEntity
  8
0
  6
SLD-Solid
 62
     7
370
    25
100
AcDbLine
 10
11.9149024546
 20
30.1979431223
 30
0.0
 11
20.6649024546
 21
30.1979431223
 31
0.0
  0
ARC
  5
26B
330
1F
100
AcDbEntity
  8
0
  6
SLD-Solid
 62
     7
370
    25
100
AcDbCircle
 10
11.9149024546
 20
30.4479431223
 30
0.0
 40
0.25
100
AcDbArc
 50
90.0
 51
270.0
  0
ARC
  5
26C
330
1F
100
AcDbEntity
  8
0
  6
SLD-Solid
 62
     7
370
    25
100
AcDbCircle
 10
20.6649024546
 20
30.4479431223
 30
0.0
 40
0.25
100
AcDbArc
 50
270.0
 51
90.0
  0
LINE
  5
26D
330
1F
100
AcDbEntity
  8
0
  6
SLD-Solid
 62
     7
370
    25
100
AcDbLine
 10
11.9149024546
 20
30.6979431223
 30
0.0
 11
20.6649024546
 21
30.6979431223
 31
0.0
  0
ARC
  5
26E
330
1F
100
AcDbEntity
  8
0
  6
SLD-Solid
 62
     7
370
    25
100
AcDbCircle
 10
22.2899024546
 20
25.8633905913
 30
0.0
 40
0.2499999999999997
100
AcDbArc
 50
131.8836270254
 51
311.8836270254
  0
ARC
  5
26F
330
1F
100
AcDbEntity
  8
0
  6
SLD-Solid
 62
     7
370
    25
100
AcDbCircle
 10
22.2899024546
 20
28.2824956532
 30
0.0
 40
0.2500000000000036
100
AcDbArc
 50
48.1163729746
 51
228.1163749563
  0
ARC
  5
270
330
1F
100
AcDbEntity
  8
0
  6
SLD-Solid
 62
     7
370
    25
100
AcDbCircle
 10
21.2052567853
 20
27.0729431223
 30
0.0
 40
1.874645669999999
100
AcDbArc
 50
311.8836270254
 51
48.1163729746
  0
ARC
  5
271
330
1F
100
AcDbEntity
  8
0
  6
SLD-Solid
 62
     7
370
    25
100
AcDbCircle
 10
21.2052567853
 20
27.0729431223
 30
0.0
 40
1.37464567
100
AcDbArc
 50
311.8836270254
 51
48.1163726141
  0
LINE
  5
272
330
1F
100
AcDbEntity
  8
0
  6
SLD-Solid
 62
     7
370
    25
100
AcDbLine
 10
11.9149024546
 20
23.4479431223
 30
0.0
 11
20.6649024546
 21
23.4479431223
 31
0.0
  0
ARC
  5
273
330
1F
100
AcDbEntity
  8
0
  6
SLD-Solid
 62
     7
370
    25
100
AcDbCircle
 10
11.3745481239
 20
27.0729431223
 30
0.0
 40
1.874645670000001
100
AcDbArc
 50
131.8836270254
 51
228.1163729746
  0
ARC
  5
274
330
1F
100
AcDbEntity
  8
0
  6
SLD-Solid
 62
     7
370
    25
100
AcDbCircle
 10
11.3745481239
 20
27.0729431223
 30
0.0
 40
5.334645669291341
100
AcDbArc
 50
90.0
 51
270.0
  0
ARC
  5
275
330
1F
100
AcDbEntity
  8
0
  6
SLD-Solid
 62
     7
370
    25
100
AcDbCircle
 10
21.2052567853
 20
27.0729431223
 30
0.0
 40
5.334645669291341
100
AcDbArc
 50
270.0
 51
90.0
  0
LINE
  5
276
330
1F
100
AcDbEntity
  8
0
  6
SLD-Solid
 62
     7
370
    25
100
AcDbLine
 10
12.9774024546
 20
27.2604431223
 30
0.0
 11
19.6024024546
 21
27.2604431223
 31
0.0
  0
ARC
  5
277
330
1F
100
AcDbEntity
  8
0
  6
SLD-Solid
 62
     7
370
    25
100
AcDbCircle
 10
12.9774024546
 20
27.0729431223
 30
0.0
 40
0.1875
100
AcDbArc
 50
90.0
 51
270.0
  0
ARC
  5
278
330
1F
100
AcDbEntity
  8
0
  6
SLD-Solid
 62
     7
370
    25
100
AcDbCircle
 10
19.6024024546
 20
27.0729431223
 30
0.0
 40
0.1875
100
AcDbArc
 50
270.0
 51
90.0
  0
LINE
  5
279
330
1F
100
AcDbEntity
  8
0
  6
SLD-Solid
 62
     7
370
    25
100
AcDbLine
 10
12.9774024546
 20
26.8854431223
 30
0.0
 11
19.6024024546
 21
26.8854431223
 31
0.0
  0
LINE
  5
27A
330
1F
100
AcDbEntity
  8
0
  6
SLD-Solid
 62
     7
370
    25
100
AcDbLine
 10
11.3745481239
 20
32.4075887915
 30
0.0
 11
21.2052567853
 21
32.4075887915
 31
0.0
  0
LINE
  5
27B
330
1F
100
AcDbEntity
  8
0
  6
SLD-Solid
 62
     7
370
    25
100
AcDbLine
 10
21.2052567853
 20
21.738297453
 30
0.0
 11
11.3745481239
 21
21.738297453
 31
0.0
  0
LINE
  5
27C
330
1F
100
AcDbEntity
  8
0
  6
SLD-Solid
 62
     7
370
    25
100
AcDbLine
 10
8.6711622972
 20
21.3489273718
 30
0.0
 11
8.6711622972
 21
22.4740139547
 31
0.0
  0
LINE
  5
27D
330
1F
100
AcDbEntity
  8
0
  6
SLD-Solid
 62
     7
370
    25
100
AcDbLine
 10
23.9086426121
 20
21.1989273718
 30
0.0
 11
23.8686426121
 21
21.1989273718
 31
0.0
  0
LINE
  5
27E
330
1F
100
AcDbEntity
  8
0
  6
SLD-Solid
 62
     7
370
    25
100
AcDbLine
 10
23.9086426121
 20
21.1989273718
 30
0.0
 11
23.9086426121
 21
22.4740139547
 31
0.0
  0
LINE
  5
27F
330
1F
100
AcDbEntity
  8
0
  6
SLD-Solid
 62
     7
370
    25
100
AcDbLine
 10
8.7111622972
 20
21.1989273718
 30
0.0
 11
8.6711622972
 21
21.1989273718
 31
0.0
  0
LINE
  5
280
330
1F
100
AcDbEntity
  8
0
  6
SLD-Solid
 62
     7
370
    25
100
AcDbLine
 10
8.6711622972
 20
21.1989273718
 30
0.0
 11
8.6711622972
 21
21.3489273718
 31
0.0
  0
LINE
  5
281
330
1F
100
AcDbEntity
  8
0
  6
SLD-Solid
 62
     7
370
    25
100
AcDbLine
 10
8.7111622972
 20
21.3489273718
 30
0.0
 11
8.7111622972
 21
21.1989273718
 31
0.0
  0
LINE
  5
282
330
1F
100
AcDbEntity
  8
0
  6
SLD-Solid
 62
     7
370
    25
100
AcDbLine
 10
8.7111622972
 20
21.1989273718
 30
0.0
 11
23.8686426121
 21
21.1989273718
 31
0.0
  0
LINE
  5
283
330
1F
100
AcDbEntity
  8
0
  6
SLD-Solid
 62
     7
370
    25
100
AcDbLine
 10
8.6620098776
 20
22.4794062846
 30
0.0
 11
8.6711622972
 21
22.4732986568
 31
0.0
  0
LINE
  5
284
330
1F
100
AcDbEntity
  8
0
  6
SLD-Solid
 62
     7
370
    25
100
AcDbLine
 10
23.9086426121
 20
22.4732986568
 30
0.0
 11
23.9177950317
 21
22.4794062846
 31
0.0
  0
LINE
  5
285
330
1F
100
AcDbEntity
  8
0
  6
SLD-Solid
 62
     7
370
    25
100
AcDbLine
 10
16.2899024546
 20
32.6398722561
 30
0.0
 11
16.6426583601
 21
32.6398722561
 31
0.0
  0
LINE
  5
286
330
1F
100
AcDbEntity
  8
0
  6
SLD-Solid
 62
     7
370
    25
100
AcDbLine
 10
15.9371465491
 20
32.6398722561
 30
0.0
 11
16.2899024546
 21
32.6398722561
 31
0.0
  0
DIMENSION
  5
287
330
1F
100
AcDbEntity
  8
DIMS
100
AcDbDimension
  2
_D
 10
27.6422646594
 20
21.1989273718
 30
0.0
 11
27.6422646594
 21
26.614624597
 31
0.0
 70
   160
  1
<>
 71
     2
 42
-1.0
  3
SLDDIMSTYLE0
100
AcDbAlignedDimension
 13
21.2052567853
 23
32.4075887915
 33
0.0
 14
23.8686426121
 24
21.1989273718
 34
0.0
 50
90.0
100
AcDbRotatedDimension
  0
MTEXT
  5
29D
330
1F
100
AcDbEntity
  8
NOTES
100
AcDbMText
 10
14.1121829072
 20
19.6285271469
 30
0.0
 40
0.5
 41
0.0
 71
     1
 72
     1
  1
Front view
  7
SLDTEXTSTYLE1
 73
     1
 44
1.0
  0
ARC
  5
29E
330
1F
100
AcDbEntity
  8
0
  6
SLD-Solid
 62
     7
370
    25
100
AcDbCircle
 10
32.1964792187
 20
24.2801972014
 30
0.0
 40
0.0249999999999979
100
AcDbArc
 50
200.633137544
 51
252.7347118811
  0
ARC
  5
29F
330
1F
100
AcDbEntity
  8
0
  6
SLD-Solid
 62
     7
370
    25
100
AcDbCircle
 10
32.8906207868
 20
24.5545443753
 30
0.0
 40
0.7713905752349253
100
AcDbArc
 50
159.3014411481
 51
201.5303757024
  0
ARC
  5
2A0
330
1F
100
AcDbEntity
  8
0
  6
SLD-Solid
 62
     7
370
    25
100
AcDbCircle
 10
32.7882302116
 20
29.1243189272
 30
0.0
 40
0.649000000000008
100
AcDbArc
 50
157.3624849416
 51
180.0
  0
ARC
  5
2A1
330
1F
100
AcDbEntity
  8
0
  6
SLD-Solid
 62
     7
370
    25
100
AcDbCircle
 10
32.7882302116
 20
25.0215673173
 30
0.0
 40
0.649000000000008
100
AcDbArc
 50
180.0
 51
202.6375150584
  0
LINE
  5
2A2
330
1F
100
AcDbEntity
  8
0
  6
SLD-Solid
 62
     7
370
    25
100
AcDbLine
 10
34.4530097392
 20
32.4075887915
 30
0.0
 11
34.4530097392
 21
32.5398722561
 31
0.0
  0
LINE
  5
2A3
330
1F
100
AcDbEntity
  8
0
  6
SLD-Solid
 62
     7
370
    25
100
AcDbLine
 10
33.5474979281
 20
32.5398722561
 30
0.0
 11
33.5474979281
 21
32.4075887915
 31
0.0
  0
ARC
  5
2A4
330
1F
100
AcDbEntity
  8
0
  6
SLD-Solid
 62
     7
370
    25
100
AcDbCircle
 10
33.6474979281
 20
32.5398722561
 30
0.0
 40
0.1000000000000014
100
AcDbArc
 50
90.0
 51
180.0
  0
ARC
  5
2A5
330
1F
100
AcDbEntity
  8
0
  6
SLD-Solid
 62
     7
370
    25
100
AcDbCircle
 10
34.3530097392
 20
32.5398722561
 30
0.0
 40
0.1000000000000014
100
AcDbArc
 50
0.0
 51
90.0
  0
LINE
  5
2A6
330
1F
100
AcDbEntity
  8
0
  6
SLD-Solid
 62
     7
370
    25
100
AcDbLine
 10
33.7362420226
 20
20.3146754033
 30
0.0
 11
33.4237420226
 21
21.1808171356
 31
0.0
  0
LINE
  5
2A7
330
1F
100
AcDbEntity
  8
0
  6
SLD-Solid
 62
     7
370
    25
100
AcDbLine
 10
34.2987420226
 20
20.3146754033
 30
0.0
 11
33.7362420226
 21
20.3146754033
 31
0.0
  0
LINE
  5
2A8
330
1F
100
AcDbEntity
  8
0
  6
SLD-Solid
 62
     7
370
    25
100
AcDbLine
 10
34.2987420226
 20
20.3146754033
 30
0.0
 11
34.2987420226
 21
21.1989273718
 31
0.0
  0
LINE
  5
2A9
330
1F
100
AcDbEntity
  8
0
  6
SLD-Solid
 62
     7
370
    25
100
AcDbLine
 10
33.4237420226
 20
21.1808171356
 30
0.0
 11
33.4237420226
 21
21.1989273718
 31
0.0
  0
SPLINE
  5
2AA
330
1F
100
AcDbEntity
  8
0
  6
SLD-Solid
 62
     7
370
    25
100
AcDbSpline
210
0.0
220
0.0
230
1.0
 70
     8
 71
     3
 72
    16
 73
    12
 74
     0
 42
0.00000001
 43
0.00000001
 40
0.0
 40
0.0
 40
0.0
 40
0.0
 40
0.029269486568909
 40
0.0666627266754233
 40
0.0816042359111134
 40
0.1717381378990463
 40
0.2607822172549953
 40
0.4382185055154718
 40
0.6147037600656314
 40
0.7923554463627419
 40
1.0
 40
1.0
 40
1.0
 40
1.0
 10
32.17692856944574
 20
24.55454437526833
 30
0.0
 10
32.17691165294296
 20
24.56199698340796
 30
0.0
 10
32.17687312475769
 20
24.57897067299633
 30
0.0
 10
32.17666498935637
 20
24.597714523168
 30
0.0
 10
32.17629178338029
 20
24.6270603185122
 30
0.0
 10
32.17576397143709
 20
24.65946671551582
 30
0.0
 10
32.1750338753598
 20
24.70462280095068
 30
0.0
 10
32.17440885326748
 20
24.74511436894086
 30
0.0
 10
32.17393215089569
 20
24.77950239055694
 30
0.0
 10
32.17357976853759
 20
24.80722920665736
 30
0.0
 10
32.17348352140155
 20
24.81580409813753
 30
0.0
 10
32.17343165171913
 20
24.82042529432202
 30
0.0
  0
SPLINE
  5
2AB
330
1F
100
AcDbEntity
  8
0
  6
SLD-Solid
 62
     7
370
    25
100
AcDbSpline
210
0.0
220
0.0
230
1.0
 70
     8
 71
     3
 72
    15
 73
    11
 74
     0
 42
0.00000001
 43
0.00000001
 40
0.0
 40
0.0
 40
0.0
 40
0.0
 40
0.2645750929303252
 40
0.5387434329342341
 40
0.6758993456508359
 40
0.813767287912908
 40
0.8829751871790669
 40
0.9430578765931387
 40
0.9754553548151601
 40
1.0
 40
1.0
 40
1.0
 40
1.0
 10
32.17323403863519
 20
24.27143739391243
 30
0.0
 10
32.17325690901782
 20
24.27358782564292
 30
0.0
 10
32.17330347904191
 20
24.27796666176066
 30
0.0
 10
32.17369866217256
 20
24.31236518140584
 30
0.0
 10
32.17435216088867
 20
24.36012205997515
 30
0.0
 10
32.17500949065555
 20
24.40319336289422
 30
0.0
 10
32.17579133349319
 20
24.4509783526684
 30
0.0
 10
32.17639296591799
 20
24.48930351311805
 30
0.0
 10
32.17684902699254
 20
24.5254873764907
 30
0.0
 10
32.17690461044816
 20
24.5457921110976
 30
0.0
 10
32.17692856944574
 20
24.55454437526833
 30
0.0
  0
LINE
  5
2AC
330
1F
100
AcDbEntity
  8
0
  6
SLD-Solid
 62
     7
370
    25
100
AcDbLine
 10
32.2892302116
 20
21.738297453
 30
0.0
 11
32.6412302116
 21
21.738297453
 31
0.0
  0
LINE
  5
2AD
330
1F
100
AcDbEntity
  8
0
  6
SLD-Solid
 62
     7
370
    25
100
AcDbLine
 10
32.2892302116
 20
32.4075887915
 30
0.0
 11
33.1892302116
 21
32.4075887915
 31
0.0
  0
LINE
  5
2AE
330
1F
100
AcDbEntity
  8
0
  6
SLD-Solid
 62
     7
370
    25
100
AcDbLine
 10
33.171620939
 20
22.4507336555
 30
0.0
 11
33.1892302116
 21
22.4507336555
 31
0.0
  0
LINE
  5
2AF
330
1F
100
AcDbEntity
  8
0
  6
SLD-Solid
 62
     7
370
    25
100
AcDbLine
 10
32.6412302116
 20
22.4740139547
 30
0.0
 11
33.171620939
 21
22.4740139547
 31
0.0
  0
LINE
  5
2B0
330
1F
100
AcDbEntity
  8
0
  6
SLD-Solid
 62
     7
370
    25
100
AcDbLine
 10
33.1892302116
 20
22.4507336555
 30
0.0
 11
33.1892302116
 21
32.4075887915
 31
0.0
  0
LINE
  5
2B1
330
1F
100
AcDbEntity
  8
0
  6
SLD-Solid
 62
     7
370
    25
100
AcDbLine
 10
32.1892302116
 20
21.838297453
 30
0.0
 11
32.1892302116
 21
32.3075887915
 31
0.0
  0
ARC
  5
2B2
330
1F
100
AcDbEntity
  8
0
  6
SLD-Solid
 62
     7
370
    25
100
AcDbCircle
 10
32.2892302116
 20
32.3075887915
 30
0.0
 40
0.1000000000000014
100
AcDbArc
 50
90.0
 51
180.0
  0
ARC
  5
2B3
330
1F
100
AcDbEntity
  8
0
  6
SLD-Solid
 62
     7
370
    25
100
AcDbCircle
 10
32.2892302116
 20
21.838297453
 30
0.0
 40
0.1000000000000014
100
AcDbArc
 50
180.0
 51
270.0
  0
ARC
  5
2B4
330
1F
100
AcDbEntity
  8
0
  6
SLD-Solid
 62
     7
370
    25
100
AcDbCircle
 10
32.5528434962
 20
25.0235330944
 30
0.0
 40
0.4136177504842965
100
AcDbArc
 50
180.2662515357
 51
208.4654551256
  0
LINE
  5
2B5
330
1F
100
AcDbEntity
  8
0
  6
SLD-Solid
 62
     7
370
    25
100
AcDbLine
 10
32.1392302116
 20
25.0216110337
 30
0.0
 11
32.1392302116
 21
29.1242752108
 31
0.0
  0
ARC
  5
2B6
330
1F
100
AcDbEntity
  8
0
  6
SLD-Solid
 62
     7
370
    25
100
AcDbCircle
 10
32.5528434962
 20
29.1223531501
 30
0.0
 40
0.4136177504843038
100
AcDbArc
 50
151.5345448744
 51
179.7337484643
  0
LINE
  5
2B7
330
1F
100
AcDbEntity
  8
0
  6
SLD-Solid
 62
     7
370
    25
100
AcDbLine
 10
33.171620939
 20
22.4740139547
 30
0.0
 11
33.171620939
 21
21.7389273718
 31
0.0
  0
LINE
  5
2B8
330
1F
100
AcDbEntity
  8
0
  6
SLD-Solid
 62
     7
370
    25
100
AcDbLine
 10
33.171620939
 20
21.7389273718
 30
0.0
 11
34.0682302116
 21
21.7389273718
 31
0.0
  0
ARC
  5
2B9
330
1F
100
AcDbEntity
  8
0
  6
SLD-Solid
 62
     7
370
    25
100
AcDbCircle
 10
34.0682302116
 20
21.4689273718
 30
0.0
 40
0.2700000000000031
100
AcDbArc
 50
270.0
 51
90.0
  0
LINE
  5
2BA
330
1F
100
AcDbEntity
  8
0
  6
SLD-Solid
 62
     7
370
    25
100
AcDbLine
 10
34.0682302116
 20
21.1989273718
 30
0.0
 11
32.6412302116
 21
21.1989273718
 31
0.0
  0
LINE
  5
2BB
330
1F
100
AcDbEntity
  8
0
  6
SLD-Solid
 62
     7
370
    25
100
AcDbLine
 10
32.6412302116
 20
21.1989273718
 30
0.0
 11
32.6412302116
 21
22.4740139547
 31
0.0
  0
CIRCLE
  5
2BC
330
1F
100
AcDbEntity
  8
0
  6
SLD-Solid
 62
     7
370
    25
100
AcDbCircle
 10
34.0682302116
 20
21.4689273718
 30
0.0
 40
0.1000000000000014
  0
LINE
  5
2BD
330
1F
100
AcDbEntity
  8
0
  6
SLD-Solid
 62
     7
370
    25
100
AcDbLine
 10
32.1392302116
 20
23.6977430422
 30
0.0
 11
32.1392302116
 21
23.6981432023
 31
0.0
  0
ARC
  5
2BE
330
1F
100
AcDbEntity
  8
0
  6
SLD-Solid
 62
     7
370
    25
100
AcDbCircle
 10
32.7882302116
 20
23.6981432023
 30
0.0
 40
0.649000000000008
100
AcDbArc
 50
157.3624849416
 51
180.0
  0
ARC
  5
2BF
330
1F
100
AcDbEntity
  8
0
  6
SLD-Solid
 62
     7
370
    25
100
AcDbCircle
 10
32.7882302116
 20
23.6977430422
 30
0.0
 40
0.649000000000008
100
AcDbArc
 50
180.0
 51
202.6375150584
  0
LINE
  5
2C0
330
1F
100
AcDbEntity
  8
0
  6
SLD-Solid
 62
     7
370
    25
100
AcDbLine
 10
32.1392302116
 20
30.4477430422
 30
0.0
 11
32.1392302116
 21
30.4481432023
 31
0.0
  0
ARC
  5
2C1
330
1F
100
AcDbEntity
  8
0
  6
SLD-Solid
 62
     7
370
    25
100
AcDbCircle
 10
32.7882302116
 20
30.4481432023
 30
0.0
 40
0.649000000000008
100
AcDbArc
 50
157.3624849416
 51
180.0
  0
ARC
  5
2C2
330
1F
100
AcDbEntity
  8
0
  6
SLD-Solid
 62
     7
370
    25
100
AcDbCircle
 10
32.7882302116
 20
30.4477430422
 30
0.0
 40
0.649000000000008
100
AcDbArc
 50
180.0
 51
202.6375150584
  0
LINE
  5
2C3
330
1F
100
AcDbEntity
  8
0
  6
SLD-Solid
 62
     7
370
    25
100
AcDbLine
 10
33.1902302116
 20
32.4075887915
 30
0.0
 11
38.0947420226
 21
32.4075887915
 31
0.0
  0
LINE
  5
2C4
330
1F
100
AcDbEntity
  8
0
  6
SLD-Solid
 62
     7
370
    25
100
AcDbLine
 10
38.0947420226
 20
22.4794062846
 30
0.0
 11
38.0947420226
 21
32.4075887915
 31
0.0
  0
LINE
  5
2C5
330
1F
100
AcDbEntity
  8
0
  6
SLD-Solid
 62
     7
370
    25
100
AcDbLine
 10
33.1902302116
 20
22.4794062846
 30
0.0
 11
33.1902302116
 21
32.4075887915
 31
0.0
  0
LINE
  5
2C6
330
1F
100
AcDbEntity
  8
0
  6
SLD-Solid
 62
     7
370
    25
100
AcDbLine
 10
38.0947420226
 20
22.3932986568
 30
0.0
 11
33.1902302116
 21
22.3932986568
 31
0.0
  0
LINE
  5
2C7
330
1F
100
AcDbEntity
  8
0
  6
SLD-Solid
 62
     7
370
    25
100
AcDbLine
 10
33.1902302116
 20
22.3932986568
 30
0.0
 11
33.1902302116
 21
22.4794062846
 31
0.0
  0
LINE
  5
2C8
330
1F
100
AcDbEntity
  8
0
  6
SLD-Solid
 62
     7
370
    25
100
AcDbLine
 10
38.0947420226
 20
22.4794062846
 30
0.0
 11
38.0947420226
 21
22.3932986568
 31
0.0
  0
LINE
  5
2C9
330
1F
100
AcDbEntity
  8
0
  6
SLD-Solid
 62
     7
370
    25
100
AcDbLine
 10
38.0947420226
 20
21.1989273718
 30
0.0
 11
34.0682302116
 21
21.1989273718
 31
0.0
  0
LINE
  5
2CA
330
1F
100
AcDbEntity
  8
0
  6
SLD-Solid
 62
     7
370
    25
100
AcDbLine
 10
33.171620939
 20
22.4507336555
 30
0.0
 11
33.1902302116
 21
22.4507336555
 31
0.0
  0
LINE
  5
2CB
330
1F
100
AcDbEntity
  8
0
  6
SLD-Solid
 62
     7
370
    25
100
AcDbLine
 10
38.0947420226
 20
22.3932986568
 30
0.0
 11
38.0947420226
 21
21.1989273718
 31
0.0
  0
LINE
  5
2CC
330
1F
100
AcDbEntity
  8
0
  6
SLD-Solid
 62
     7
370
    25
100
AcDbLine
 10
33.6474979281
 20
32.6398722561
 30
0.0
 11
34.3530097258
 21
32.6398722561
 31
0.0
  0
LINE
  5
2CD
330
1F
100
AcDbEntity
  8
0
  6
SLD-Solid
 62
     8
370
    25
100
AcDbLine
 10
34.4530097392
 20
32.5398722561
 30
0.0
 11
33.5474979281
 21
32.5398722561
 31
0.0
  0
DIMENSION
  5
2CE
330
1F
100
AcDbEntity
  8
DIMS
100
AcDbDimension
  2
_D_1
 10
32.1892302116
 20
33.5060139884
 30
0.0
 11
34.9753793942
 21
33.5060139884
 31
0.0
 70
   160
  1
<>
 71
     2
 42
-1.0
  3
SLDDIMSTYLE0
100
AcDbAlignedDimension
 13
38.0947420226
 23
31.4425887915
 33
0.0
 14
32.1892302116
 24
32.3075887915
 34
0.0
100
AcDbRotatedDimension
  0
MTEXT
  5
2DD
330
1F
100
AcDbEntity
  8
NOTES
100
AcDbMText
 10
34.1691067235
 20
19.6266810141
 30
0.0
 40
0.5
 41
0.0
 71
     1
 72
     1
  1
Side view
  7
SLDTEXTSTYLE1
 73
     1
 44
1.0
  0
LINE
  5
2DE
330
1F
100
AcDbEntity
  8
0
  6
SLD-Solid
 62
     7
370
    25
100
AcDbLine
 10
75.4363853716
 20
23.0359207236
 30
0.0
 11
75.6733092436
 21
23.1726939636
 31
0.0
  0
SPLINE
  5
2DF
330
1F
100
AcDbEntity
  8
0
  6
SLD-Solid
 62
     7
370
    25
100
AcDbSpline
210
0.0
220
0.0
230
1.0
 70
     8
 71
     3
 72
    22
 73
    18
 74
     0
 42
0.00000001
 43
0.00000001
 40
0.0
 40
0.0
 40
0.0
 40
0.0
 40
0.0372286637386808
 40
0.1078705518057774
 40
0.1785275537259327
 40
0.249181284450378
 40
0.319820225815041
 40
0.3904298242283104
 40
0.4609920367968388
 40
0.531485482146549
 40
0.6018861467305237
 40
0.6721688444065536
 40
0.742309549986156
 40
0.8122885495767826
 40
0.8820940794332112
 40
0.9517258267211867
 40
0.9999999999999999
 40
0.9999999999999999
 40
0.9999999999999999
 40
0.9999999999999999
 10
78.01241493894045
 20
17.36112764653225
 30
0.0
 10
78.04470542910376
 20
17.34277529771034
 30
0.0
 10
78.13826755683529
 20
17.28959912119625
 30
0.0
 10
78.29315112733472
 20
17.20947674007829
 30
0.0
 10
78.47660010109401
 20
17.1244203441105
 30
0.0
 10
78.65923318938775
 20
17.050296425657
 30
0.0
 10
78.84060625677704
 20
16.98713463156954
 30
0.0
 10
79.02028713154986
 20
16.93515658960657
 30
0.0
 10
79.19783715381273
 20
16.89449750307359
 30
0.0
 10
79.37281465497631
 20
16.86527718960567
 30
0.0
 10
79.54477364784033
 20
16.84758106145739
 30
0.0
 10
79.71327494187969
 20
16.84144551867652
 30
0.0
 10
79.87786086386672
 20
16.84691556094017
 30
0.0
 10
80.03817195443355
 20
16.86381395634991
 30
0.0
 10
80.19354193205993
 20
16.89259733338321
 30
0.0
 10
80.32921438306293
 20
16.92726506399589
 30
0.0
 10
80.41062918517484
 20
16.95723425984182
 30
0.0
 10
80.44396281461192
 20
16.96950453555265
 30
0.0
  0
LINE
  5
2E0
330
1F
100
AcDbEntity
  8
0
  6
SLD-Solid
 62
     7
370
    25
100
AcDbLine
 10
80.7295169439
 20
17.1019705444
 30
0.0
 11
81.365913047
 21
17.4693541947
 31
0.0
  0
SPLINE
  5
2E1
330
1F
100
AcDbEntity
  8
0
  6
SLD-Solid
 62
     7
370
    25
100
AcDbSpline
210
0.0
220
0.0
230
1.0
 70
     8
 71
     3
 72
    55
 73
    51
 74
     0
 42
0.00000001
 43
0.00000001
 40
0.0
 40
0.0
 40
0.0
 40
0.0
 40
0.0043011558228904
 40
0.0254222677260644
 40
0.0465736853292032
 40
0.0677666312881848
 40
0.0890081305262464
 40
0.1103008634180776
 40
0.1316436281828374
 40
0.1530322180749909
 40
0.1744604744932187
 40
0.1959213020688816
 40
0.2174075016717187
 40
0.2389123586457716
 40
0.2604299899555523
 40
0.281955493521375
 40
0.3034849572234236
 40
0.3250149970286589
 40
0.3465432112273348
 40
0.3680682463799676
 40
0.3895892394651477
 40
0.4111057090479254
 40
0.4326174645276179
 40
0.454124532928967
 40
0.4756271013425275
 40
0.4971254726134106
 40
0.5186200318573948
 40
0.5401112216039541
 40
0.5615995236800281
 40
0.5830854462752851
 40
0.604569514928045
 40
0.6260522664242667
 40
0.64753424480555
 40
0.6690159988377444
 40
0.6904980346027264
 40
0.711980767701504
 40
0.7334647532701374
 40
0.7549505463669549
 40
0.7764386999113612
 40
0.7979297614457694
 40
0.8194242680927307
 40
0.8409227389669339
 40
0.8624256641143737
 40
0.8839334888118906
 40
0.9054465917686882
 40
0.9269652554359702
 40
0.948489626276497
 40
0.9700196625293398
 40
0.9915550668343105
 40
1.0
 40
1.0
 40
1.0
 40
1.0
 10
68.1914389080865
 20
30.17854413842119
 30
0.0
 10
68.18326119092156
 20
30.17220757464011
 30
0.0
 10
68.13492624940447
 20
30.1347548927241
 30
0.0
 10
68.05315748294893
 20
30.05610321477833
 30
0.0
 10
67.94680417468395
 20
29.94236444683116
 30
0.0
 10
67.84843315334658
 20
29.81789873477662
 30
0.0
 10
67.7575137518161
 20
29.68409924955358
 30
0.0
 10
67.67447515292415
 20
29.54094215865934
 30
0.0
 10
67.59947703667093
 20
29.38882681599841
 30
0.0
 10
67.5327329022812
 20
29.22808287382171
 30
0.0
 10
67.47441635777413
 20
29.05910081623839
 30
0.0
 10
67.42468110159349
 20
28.88229216189535
 30
0.0
 10
67.38365242018092
 20
28.69809413569188
 30
0.0
 10
67.3514283419657
 20
28.50696230721587
 30
0.0
 10
67.32807973632269
 20
28.30936722550762
 30
0.0
 10
67.31365164854265
 20
28.10579112945565
 30
0.0
 10
67.3081647580596
 20
27.89672705312868
 30
0.0
 10
67.31161653447494
 20
27.6826768887024
 30
0.0
 10
67.32398241279851
 20
27.46414914770851
 30
0.0
 10
67.34521715357374
 20
27.24165694721731
 30
0.0
 10
67.37525589358482
 20
27.01571808970373
 30
0.0
 10
67.41401464360844
 20
26.78685597907705
 30
0.0
 10
67.46139068117206
 20
26.55559902552718
 30
0.0
 10
67.51726286348116
 20
26.32247995074288
 30
0.0
 10
67.58149190063106
 20
26.08803498911329
 30
0.0
 10
67.65392062023882
 20
25.85280299132981
 30
0.0
 10
67.73437424633967
 20
25.61732444264991
 30
0.0
 10
67.82266070848009
 20
25.38214041043802
 30
0.0
 10
67.91857099150863
 20
25.14779143596718
 30
0.0
 10
68.02187953246974
 20
24.91481638475832
 30
0.0
 10
68.1323446680048
 20
24.68375126855408
 30
0.0
 10
68.24970913350504
 20
24.45512805071768
 30
0.0
 10
68.37370061371078
 20
24.22947344561764
 30
0.0
 10
68.50403225071794
 20
24.00730787935393
 30
0.0
 10
68.64040307309813
 20
23.78914460203058
 30
0.0
 10
68.78249893010836
 20
23.57548800516735
 30
0.0
 10
68.92999335088928
 20
23.36683232039622
 30
0.0
 10
69.08254857684378
 20
23.16366024483016
 30
0.0
 10
69.23981607578777
 20
22.9664423447883
 30
0.0
 10
69.40143737550235
 20
22.77563604702238
 30
0.0
 10
69.56704491730115
 20
22.59168465442171
 30
0.0
 10
69.73626292040869
 20
22.4150165327296
 30
0.0
 10
69.90870824754376
 20
22.24604395216313
 30
0.0
 10
70.08399125350444
 20
22.08516353828023
 30
0.0
 10
70.26171661735428
 20
21.93275105875994
 30
0.0
 10
70.44148407244727
 20
21.78917771439835
 30
0.0
 10
70.62288925198939
 20
21.65474650185551
 30
0.0
 10
70.80552371408994
 20
21.52992732259724
 30
0.0
 10
70.95179240608181
 20
21.4378781581302
 30
0.0
 10
71.03704111917972
 20
21.3880878481963
 30
0.0
 10
71.06105418058296
 20
21.37406279460568
 30
0.0
  0
LINE
  5
2E2
330
1F
100
AcDbEntity
  8
0
  6
SLD-Solid
 62
     7
370
    25
100
AcDbLine
 10
81.3669253185
 20
17.0026219359
 30
0.0
 11
81.3386410472
 21
17.0189500982
 31
0.0
  0
LINE
  5
2E3
330
1F
100
AcDbEntity
  8
0
  6
SLD-Solid
 62
     7
370
    25
100
AcDbLine
 10
69.0803401519
 20
30.722416969
 30
0.0
 11
68.4439440489
 21
30.3550333187
 31
0.0
  0
LINE
  5
2E4
330
1F
100
AcDbEntity
  8
0
  6
SLD-Solid
 62
     7
370
    25
100
AcDbLine
 10
71.0610541806
 20
21.3740627946
 30
0.0
 11
78.0124149389
 21
17.3611276465
 31
0.0
  0
LINE
  5
2E5
330
1F
100
AcDbEntity
  8
0
  6
SLD-Solid
 62
     7
370
    25
100
AcDbLine
 10
69.4794413661
 20
22.2396212033
 30
0.0
 11
69.5077256374
 21
22.2232930411
 31
0.0
  0
LINE
  5
2E6
330
1F
100
AcDbEntity
  8
0
  6
SLD-Solid
 62
     7
370
    25
100
AcDbLine
 10
81.3666201538
 20
17.4697623988
 30
0.0
 11
84.8346337138
 21
19.4718040123
 31
0.0
  0
SPLINE
  5
2E7
330
1F
100
AcDbEntity
  8
0
  6
SLD-Solid
 62
     7
370
    25
100
AcDbSpline
210
0.0
220
0.0
230
1.0
 70
     8
 71
     3
 72
    27
 73
    23
 74
     0
 42
0.00000001
 43
0.00000001
 40
0.0
 40
0.0
 40
0.0
 40
0.0
 40
0.0351091396090674
 40
0.0827111575271863
 40
0.1306809997129207
 40
0.1803818769001416
 40
0.2325172359709527
 40
0.2867996119721352
 40
0.3421960916056592
 40
0.3976346983053505
 40
0.4528480653493867
 40
0.5079161479207942
 40
0.5630386068517521
 40
0.6184011958455172
 40
0.6742413577832002
 40
0.7307970546210073
 40
0.7881473624837274
 40
0.8394963236989845
 40
0.8885155491904605
 40
0.935485243692633
 40
0.9861316072897833
 40
1.0
 40
1.0
 40
1.0
 40
1.0
 10
76.24805558298591
 20
28.89524420469431
 30
0.0
 10
76.24766125224166
 20
28.90793170615643
 30
0.0
 10
76.24673227612122
 20
28.93782130025484
 30
0.0
 10
76.23106456692186
 20
28.98304653474508
 30
0.0
 10
76.20467706692973
 20
29.02900529683538
 30
0.0
 10
76.16766753268722
 20
29.07080212202606
 30
0.0
 10
76.1207230391701
 20
29.1080872479969
 30
0.0
 10
76.06420694642385
 20
29.13996681386739
 30
0.0
 10
75.99967430495167
 20
29.16531409844093
 30
0.0
 10
75.92933888694527
 20
29.18327908172128
 30
0.0
 10
75.85551882078678
 20
29.19344911291171
 30
0.0
 10
75.78021600344923
 20
29.19569643624918
 30
0.0
 10
75.70529814060987
 20
29.1899975328161
 30
0.0
 10
75.63255336559382
 20
29.17637623089821
 30
0.0
 10
75.56369039911235
 20
29.15485509221771
 30
0.0
 10
75.50039384311091
 20
29.12539485926607
 30
0.0
 10
75.4465516179571
 20
29.08929507810172
 30
0.0
 10
75.40376170169408
 20
29.04810003689718
 30
0.0
 10
75.37224325977614
 20
29.00380829650025
 30
0.0
 10
75.35178196560818
 20
28.95482037308351
 30
0.0
 10
75.34250197453643
 20
28.91476227025058
 30
0.0
 10
75.34470983415083
 20
28.89158466900907
 30
0.0
 10
75.34518444594407
 20
28.88660230381858
 30
0.0
  0
LINE
  5
2E8
330
1F
100
AcDbEntity
  8
0
  6
SLD-Solid
 62
     7
370
    25
100
AcDbLine
 10
76.2493628078
 20
28.7829046198
 30
0.0
 11
76.2493628078
 21
28.8909194673
 31
0.0
  0
LINE
  5
2E9
330
1F
100
AcDbEntity
  8
0
  6
SLD-Solid
 62
     7
370
    25
100
AcDbLine
 10
75.3438509968
 20
28.8909194673
 30
0.0
 11
75.3438509968
 21
28.7829046198
 31
0.0
  0
LINE
  5
2EA
330
1F
100
AcDbEntity
  8
0
  6
SLD-Solid
 62
     7
370
    25
100
AcDbLine
 10
72.5490608187
 20
32.7248667866
 30
0.0
 11
69.0810472587
 21
30.7228251731
 31
0.0
  0
LWPOLYLINE
  5
2EB
330
1F
100
AcDbEntity
  8
0
  6
SLD-Solid
 62
     7
370
    25
100
AcDbPolyline
 90
        3
 70
   128
 43
0.0
 10
75.9222969277
 20
23.0289564331
 10
75.9512080711
 20
22.9003596407
 10
75.9990070297
 20
22.7111261539
  0
ARC
  5
2EC
330
1F
100
AcDbEntity
  8
0
  6
SLD-Solid
 62
     7
370
    25
100
AcDbCircle
 10
72.6594540534
 20
24.1934097249
 30
0.0
 40
2.533273868195774
100
AcDbArc
 50
338.7650591361
 51
344.2349938643
  0
LWPOLYLINE
  5
2ED
330
1F
100
AcDbEntity
  8
0
  6
SLD-Solid
 62
     7
370
    25
100
AcDbPolyline
 90
        8
 70
   128
 43
0.0
 10
72.1072581405
 20
25.0038001309
 10
72.1620348277
 20
24.9781984142
 10
72.2630600749
 20
24.9398027585
 10
72.36194839
 20
24.9138070463
 10
72.4577764795
 20
24.9004539924
 10
72.5496496223
 20
24.8998682709
 10
72.6367100236
 20
24.9120553504
 10
72.653461595
 20
24.9160149035
  0
LINE
  5
2EE
330
1F
100
AcDbEntity
  8
0
  6
SLD-Solid
 62
     7
370
    25
100
AcDbLine
 10
75.6309613941
 20
22.9235943768
 30
0.0
 11
75.8678852661
 21
23.0603676168
 31
0.0
  0
LINE
  5
2EF
330
1F
100
AcDbEntity
  8
0
  6
SLD-Solid
 62
     7
370
    25
100
AcDbLine
 10
75.797174588
 20
23.1011880224
 30
0.0
 11
75.560250716
 21
22.9644147824
 31
0.0
  0
SPLINE
  5
2F0
330
1F
100
AcDbEntity
  8
0
  6
SLD-Solid
 62
     7
370
    25
100
AcDbSpline
210
0.0
220
0.0
230
1.0
 70
     8
 71
     3
 72
    17
 73
    13
 74
     0
 42
0.00000001
 43
0.00000001
 40
0.0
 40
0.0
 40
0.0
 40
0.0
 40
0.0139242822449554
 40
0.0323321121949604
 40
0.0598988193071542
 40
0.1091848762190961
 40
0.1993457441099448
 40
0.2884166706631584
 40
0.4664047189542145
 40
0.6441730606901757
 40
0.8219504068609038
 40
1.0
 40
1.0
 40
1.0
 40
1.0
 10
76.26071297193612
 20
20.61407308902612
 30
0.0
 10
76.26123737152008
 20
20.6075148138601
 30
0.0
 10
76.26245502467344
 20
20.59228653244904
 30
0.0
 10
76.27370927984798
 20
20.56150986892702
 30
0.0
 10
76.29880276554076
 20
20.51548952982828
 30
0.0
 10
76.35315627428633
 20
20.44278240635737
 30
0.0
 10
76.43525390668901
 20
20.35707909227144
 30
0.0
 10
76.5685325634435
 20
20.23860960823185
 30
0.0
 10
76.73912746622985
 20
20.11101481748583
 30
0.0
 10
76.94542532230714
 20
19.98114620386198
 30
0.0
 10
77.15241392773859
 20
19.86962189027025
 30
0.0
 10
77.28859802573739
 20
19.81801638887351
 30
0.0
 10
77.35674217268627
 20
19.79219389621669
 30
0.0
  0
ELLIPSE
  5
2F1
330
1F
100
AcDbEntity
  8
0
  6
SLD-Solid
 62
     7
370
    25
100
AcDbEllipse
 10
76.963361112
 20
20.2184861123
 30
0.0
 11
0.698276383504151
 21
-0.441476619074809
 31
0.0
210
0.0
220
0.0
230
1.0
 40
0.2523363384
 41
0.1582033314706741
 42
3.402888610208762
  0
ELLIPSE
  5
2F2
330
1F
100
AcDbEntity
  8
0
  6
SLD-Solid
 62
     7
370
    25
100
AcDbEllipse
 10
76.963361112
 20
20.2184861123
 30
0.0
 11
0.698276383504151
 21
-0.441476619074809
 31
0.0
210
0.0
220
0.0
230
1.0
 40
0.2523363384
 41
4.885466541060918
 42
6.44138863865029
  0
ARC
  5
2F3
330
1F
100
AcDbEntity
  8
0
  6
SLD-Solid
 62
     7
370
    25
100
AcDbCircle
 10
79.8343332982
 20
18.6526248864
 30
0.0
 40
1.790446081869688
100
AcDbArc
 50
290.2715623581
 51
309.5145929024
  0
LWPOLYLINE
  5
2F4
330
1F
100
AcDbEntity
  8
0
  6
SLD-Solid
 62
     7
370
    25
100
AcDbPolyline
 90
       47
 70
   128
 43
0.0
 10
81.365913047
 20
17.4693541947
 10
81.484558738
 20
17.5442301521
 10
81.6114320355
 20
17.6399731884
 10
81.7306269696
 20
17.7474460058
 10
81.8418293143
 20
17.8663652809
 10
81.9447459142
 20
17.9964175146
 10
82.039105457
 20
18.1372598584
 10
82.1246591887
 20
18.2885210191
 10
82.2011815697
 20
18.4498022367
 10
82.2684708689
 20
18.620678336
 10
82.326349696
 20
18.8006988474
 10
82.3746654688
 20
18.9893891947
 10
82.4132908155
 20
19.1862519458
 10
82.4421239108
 20
19.3907681243
 10
82.4610887438
 20
19.6023985775
 10
82.4701353186
 20
19.8205853978
 10
82.4692397865
 20
20.0447533935
 10
82.4584045083
 20
20.2743116053
 10
82.4376580483
 20
20.5086548637
 10
82.4070550991
 20
20.7471653849
 10
82.3666763371
 20
20.9892143991
 10
82.3166282103
 20
21.2341638084
 10
82.2570426574
 20
21.4813678685
 10
82.1880767598
 20
21.7301748916
 10
82.1099123278
 20
21.9799289638
 10
82.0227554212
 20
22.2299716749
 10
81.9268358061
 20
22.4796438535
 10
81.8224063492
 20
22.7282873052
 10
81.7097423509
 20
22.9752465474
 10
81.58914082
 20
23.2198705376
 10
81.4609196905
 20
23.4615143895
 10
81.3254169834
 20
23.6995410732
 10
81.1829899156
 20
23.9333230945
 10
81.0340139584
 20
24.162244149
 10
80.8788818473
 20
24.3857007472
 10
80.7180025469
 20
24.6031038049
 10
80.551800173
 20
24.8138801967
 10
80.380712874
 20
25.0174742664
 10
80.2051916761
 20
25.2133492924
 10
80.0256992945
 20
25.4009889021
 10
79.8427089132
 20
25.5798984334
 10
79.6567029378
 20
25.7496062388
 10
79.4681717238
 20
25.9096649286
 10
79.2776122836
 20
26.0596525506
 10
79.0855269768
 20
26.1991737022
 10
78.8924221853
 20
26.3278605728
 10
78.6988069786
 20
26.4453739138
  0
LWPOLYLINE
  5
2F5
330
1F
100
AcDbEntity
  8
0
  6
SLD-Solid
 62
     7
370
    25
100
AcDbPolyline
 90
       24
 70
   128
 43
0.0
 10
79.039304864
 20
22.5917805043
 10
79.1383793439
 20
22.4357063028
 10
79.2304797883
 20
22.2750433231
 10
79.3150460478
 20
22.1107687079
 10
79.3915637953
 20
21.9438815658
 10
79.4595676545
 20
21.7753968947
 10
79.5186440297
 20
21.6063394085
 10
79.5684336219
 20
21.4377373048
 10
79.6086336138
 20
21.2706160118
 10
79.6389995114
 20
21.1059919515
 10
79.659346631
 20
20.9448663577
 10
79.6695512227
 20
20.7882191868
 10
79.6695512227
 20
20.6370031578
 10
79.659346631
 20
20.4921379577
 10
79.6389995114
 20
20.3545046482
 10
79.6086336138
 20
20.2249403069
 10
79.5684336219
 20
20.1042329367
 10
79.5186440297
 20
19.9931166726
 10
79.4595676545
 20
19.8922673173
 10
79.3915637953
 20
19.8022982307
 10
79.3150460478
 20
19.7237565995
 10
79.2304797883
 20
19.6571201092
 10
79.1383793439
 20
19.6027940392
 10
79.039304864
 20
19.5611087973
  0
LWPOLYLINE
  5
2F6
330
1F
100
AcDbEntity
  8
0
  6
SLD-Solid
 62
     7
370
    25
100
AcDbPolyline
 90
       14
 70
   128
 43
0.0
 10
79.039304864
 20
19.5611087973
 10
79.00944777
 20
19.5432300615
 10
78.9877355523
 20
19.5134186685
 10
78.9754300461
 20
19.4734071483
 10
78.9732464026
 20
19.4255208248
 10
78.9813115273
 20
19.3725426772
 10
78.9991567045
 20
19.3175516029
 10
79.0257448373
 20
19.2637434831
 10
79.05953072
 20
19.2142454503
 10
79.0985508401
 20
19.1719341501
 10
79.1405374899
 20
19.1392685616
 10
79.1830505579
 20
19.11814709
 10
79.2236193393
 20
19.1097972385
 10
79.2598861238
 20
19.1147042701
  0
LWPOLYLINE
  5
2F7
330
1F
100
AcDbEntity
  8
0
  6
SLD-Solid
 62
     7
370
    25
100
AcDbPolyline
 90
       26
 70
   128
 43
0.0
 10
79.2598861238
 20
22.7835073299
 10
79.3705280055
 20
22.6099053257
 10
79.4740714662
 20
22.4315222732
 10
79.569983448
 20
22.2492765163
 10
79.6577701811
 20
22.0641062845
 10
79.7369797256
 20
21.8769648632
 10
79.8072042984
 20
21.6888156856
 10
79.8680823725
 20
21.500627373
 10
79.919300538
 20
21.3133687485
 10
79.9605951157
 20
21.1280038484
 10
79.9917535149
 20
20.9454869605
 10
80.012615327
 20
20.76675771
 10
80.0230731524
 20
20.5927362231
 10
80.0230731524
 20
20.4243183897
 10
80.012615327
 20
20.2623712509
 10
79.9917535149
 20
20.1077285361
 10
79.9605951157
 20
19.96118637
 10
79.919300538
 20
19.8234991746
 10
79.8680823725
 20
19.6953757851
 10
79.8072042984
 20
19.5774758008
 10
79.7369797256
 20
19.4704061891
 10
79.6577701811
 20
19.3747181613
 10
79.569983448
 20
19.2909043341
 10
79.4740714662
 20
19.2193961942
 10
79.3705280055
 20
19.1605618768
 10
79.2598861238
 20
19.1147042701
  0
LWPOLYLINE
  5
2F8
330
1F
100
AcDbEntity
  8
0
  6
SLD-Solid
 62
     7
370
    25
100
AcDbPolyline
 90
       14
 70
   128
 43
0.0
 10
79.2598861238
 20
22.7835073299
 10
79.2236193393
 20
22.8302870996
 10
79.1830505579
 20
22.868776966
 10
79.1405374899
 20
22.896740038
 10
79.0985508401
 20
22.9125512035
 10
79.05953072
 20
22.915291575
 10
79.0257448373
 20
22.9048018921
 10
78.9991567045
 20
22.881691777
 10
78.9813115273
 20
22.8473043057
 10
78.9732464026
 20
22.8036379529
 10
78.9754300461
 20
22.7532304483
 10
78.9877355523
 20
22.699011293
 10
79.00944777
 20
22.6441315071
 10
79.039304864
 20
22.5917805043
  0
LINE
  5
2F9
330
1F
100
AcDbEntity
  8
0
  6
SLD-Solid
 62
     7
370
    25
100
AcDbLine
 10
71.4224276506
 20
28.0252643077
 30
0.0
 11
77.609611986
 21
24.4534788185
 31
0.0
  0
LWPOLYLINE
  5
2FA
330
1F
100
AcDbEntity
  8
0
  6
SLD-Solid
 62
     7
370
    25
100
AcDbPolyline
 90
       14
 70
   128
 43
0.0
 10
77.609611986
 20
24.4534788185
 10
77.6519174182
 20
24.4349882103
 10
77.6917642125
 20
24.429435805
 10
77.7268366181
 20
24.4371442883
 10
77.7550963541
 20
24.4576656711
 10
77.7749010674
 20
24.4898073252
 10
77.7850997801
 20
24.5317012946
 10
77.7850997801
 20
24.580912854
 10
77.7749010674
 20
24.6345820064
 10
77.7550963541
 20
24.6895896958
 10
77.7268366181
 20
24.7427390753
 10
77.6917642125
 20
24.790941296
 10
77.6519174182
 20
24.8313950202
 10
77.609611986
 20
24.8617492244
  0
LINE
  5
2FB
330
1F
100
AcDbEntity
  8
0
  6
SLD-Solid
 62
     7
370
    25
100
AcDbLine
 10
71.4224276506
 20
28.4335347137
 30
0.0
 11
77.609611986
 21
24.8617492244
 31
0.0
  0
LWPOLYLINE
  5
2FC
330
1F
100
AcDbEntity
  8
0
  6
SLD-Solid
 62
     7
370
    25
100
AcDbPolyline
 90
       14
 70
   128
 43
0.0
 10
71.4224276506
 20
28.4335347137
 10
71.3801222183
 20
28.4520253219
 10
71.340275424
 20
28.4575777271
 10
71.3052030185
 20
28.4498692438
 10
71.2769432825
 20
28.4293478611
 10
71.2571385692
 20
28.3972062069
 10
71.2469398564
 20
28.3553122376
 10
71.2469398564
 20
28.3061006782
 10
71.2571385692
 20
28.2524315257
 10
71.2769432825
 20
28.1974238363
 10
71.3052030185
 20
28.1442744568
 10
71.340275424
 20
28.0960722361
 10
71.3801222183
 20
28.0556185119
 10
71.4224276506
 20
28.0252643077
  0
LWPOLYLINE
  5
2FD
330
1F
100
AcDbEntity
  8
0
  6
SLD-Solid
 62
     7
370
    25
100
AcDbPolyline
 90
       14
 70
   128
 43
0.0
 10
70.3913987588
 20
25.2331047148
 10
70.4194658169
 20
25.1798706435
 10
70.4390428479
 20
25.1248574102
 10
70.4489921058
 20
25.0712621839
 10
70.448735376
 20
25.0221997245
 10
70.4382875786
 20
24.9805213637
 10
70.4182559017
 20
24.9486492964
 10
70.3898045134
 20
24.9284358113
 10
70.3545869052
 20
24.9210556426
 10
70.3146497963
 20
24.9269376989
 10
70.2723141863
 20
24.9457401366
 10
70.2300404671
 20
24.9763702262
 10
70.1902854335
 20
25.0170478583
 10
70.1553595035
 20
25.0654089968
  0
LWPOLYLINE
  5
2FE
330
1F
100
AcDbEntity
  8
0
  6
SLD-Solid
 62
     7
370
    25
100
AcDbPolyline
 90
       17
 70
   128
 43
0.0
 10
70.3913987542
 20
26.9044444444
 10
70.3191439052
 20
26.8630361973
 10
70.2548289502
 20
26.808759263
 10
70.1991619551
 20
26.7422111954
 10
70.1527557774
 20
26.6641246453
 10
70.1161213188
 20
26.5753592949
 10
70.089661901
 20
26.4768923931
 10
70.073668825
 20
26.3698079964
 10
70.0683181641
 20
26.2552850344
 10
70.0736688256
 20
26.1345843305
 10
70.0896619023
 20
26.009034721
 10
70.1161213207
 20
25.8800184255
 10
70.1527557799
 20
25.7489558295
 10
70.1991619582
 20
25.6172898471
 10
70.2548289538
 20
25.4864700351
 10
70.3191439093
 20
25.3579366346
 10
70.3913987588
 20
25.2331047148
  0
LWPOLYLINE
  5
2FF
330
1F
100
AcDbEntity
  8
0
  6
SLD-Solid
 62
     7
370
    25
100
AcDbPolyline
 90
       14
 70
   128
 43
0.0
 10
70.1553595035
 20
27.3446652877
 10
70.1902854339
 20
27.3527018058
 10
70.230040468
 20
27.3474792528
 10
70.2723141877
 20
27.3293011446
 10
70.3146497981
 20
27.2992239267
 10
70.3545869073
 20
27.2589955776
 10
70.3898045156
 20
27.210954023
 10
70.4182559036
 20
27.1578912634
 10
70.43828758
 20
27.1028911136
 10
70.4487353765
 20
27.0491499824
 10
70.4489921053
 20
26.9997911091
 10
70.4390428461
 20
26.9576830521
 10
70.4194658138
 20
26.9252729786
 10
70.3913987542
 20
26.9044444444
  0
LWPOLYLINE
  5
300
330
1F
100
AcDbEntity
  8
0
  6
SLD-Solid
 62
     7
370
    25
100
AcDbPolyline
 90
       20
 70
   128
 43
0.0
 10
70.1553595035
 20
27.3446652877
 10
70.0716883509
 20
27.2982968757
 10
69.9955816564
 20
27.23940124
 10
69.927633758
 20
27.1684383126
 10
69.8683752792
 20
27.085962262
 10
69.8182689853
 20
26.9926171661
 10
69.7777061701
 20
26.889131982
 10
69.7470035995
 20
26.7763148534
 10
69.7264010382
 20
26.6550467999
 10
69.7160593771
 20
26.5262748364
 10
69.7160593771
 20
26.391004578
 10
69.7264010382
 20
26.2502923867
 10
69.7470035995
 20
26.1052371222
 10
69.7777061701
 20
25.9569715601
 10
69.8182689853
 20
25.8066535464
 10
69.8683752792
 20
25.655456955
 10
69.927633758
 20
25.5045625211
 10
69.9955816564
 20
25.35514862
 10
70.0716883509
 20
25.2083820653
 10
70.1553595035
 20
25.0654089968
  0
LWPOLYLINE
  5
301
330
1F
100
AcDbEntity
  8
0
  6
SLD-Solid
 62
     7
370
    25
100
AcDbPolyline
 90
       14
 70
   128
 43
0.0
 10
69.9927347725
 20
24.7835825476
 10
70.0225918665
 20
24.7312315448
 10
70.0443040842
 20
24.6763517589
 10
70.0566095905
 20
24.6221326036
 10
70.0587932339
 20
24.571725099
 10
70.0507281092
 20
24.5280587462
 10
70.0328829321
 20
24.4936712749
 10
70.0062947993
 20
24.4705611598
 10
69.9725089165
 20
24.4600714769
 10
69.9334887965
 20
24.4628118484
 10
69.8915021467
 20
24.4786230139
 10
69.8489890786
 20
24.5065860859
 10
69.8084202973
 20
24.5450759523
 10
69.7721535127
 20
24.591855722
  0
LWPOLYLINE
  5
302
330
1F
100
AcDbEntity
  8
0
  6
SLD-Solid
 62
     7
370
    25
100
AcDbPolyline
 90
       24
 70
   128
 43
0.0
 10
69.9927347725
 20
27.8142542546
 10
69.8936602927
 20
27.7725690127
 10
69.8015598483
 20
27.7182429427
 10
69.7169935888
 20
27.6516064524
 10
69.6404758412
 20
27.5730648212
 10
69.5724719821
 20
27.4830957346
 10
69.5133956069
 20
27.3822463793
 10
69.4636060146
 20
27.2711301152
 10
69.4234060227
 20
27.150422745
 10
69.3930401251
 20
27.0208584037
 10
69.3726930055
 20
26.8832250942
 10
69.3624884138
 20
26.7383598941
 10
69.3624884138
 20
26.5871438651
 10
69.3726930055
 20
26.4304966942
 10
69.3930401251
 20
26.2693711004
 10
69.4234060227
 20
26.1047470401
 10
69.4636060146
 20
25.9376257471
 10
69.5133956069
 20
25.7690236434
 10
69.5724719821
 20
25.5999661572
 10
69.6404758412
 20
25.4314814861
 10
69.7169935888
 20
25.264594344
 10
69.8015598483
 20
25.1003197288
 10
69.8936602927
 20
24.9396567491
 10
69.9927347725
 20
24.7835825476
  0
LWPOLYLINE
  5
303
330
1F
100
AcDbEntity
  8
0
  6
SLD-Solid
 62
     7
370
    25
100
AcDbPolyline
 90
       14
 70
   128
 43
0.0
 10
69.7721535127
 20
28.2606587818
 10
69.8084202973
 20
28.2655658134
 10
69.8489890786
 20
28.2572159619
 10
69.8915021467
 20
28.2360944903
 10
69.9334887965
 20
28.2034289018
 10
69.9725089165
 20
28.1611176016
 10
70.0062947993
 20
28.1116195688
 10
70.0328829321
 20
28.0578114491
 10
70.0507281092
 20
28.0028203747
 10
70.0587932339
 20
27.9498422271
 10
70.0566095905
 20
27.9019559036
 10
70.0443040842
 20
27.8619443834
 10
70.0225918665
 20
27.8321329904
 10
69.9927347725
 20
27.8142542546
  0
LWPOLYLINE
  5
304
330
1F
100
AcDbEntity
  8
0
  6
SLD-Solid
 62
     7
370
    25
100
AcDbPolyline
 90
       26
 70
   128
 43
0.0
 10
69.7721535127
 20
28.2606587818
 10
69.6615116311
 20
28.2148011751
 10
69.5579681703
 20
28.1559668577
 10
69.4620561885
 20
28.0844587178
 10
69.3742694554
 20
28.0006448906
 10
69.2950599109
 20
27.9049568628
 10
69.2248353381
 20
27.7978872511
 10
69.1639572641
 20
27.6799872668
 10
69.1127390986
 20
27.5518638773
 10
69.0714445208
 20
27.4141766819
 10
69.0402861217
 20
27.2676345158
 10
69.0194243095
 20
27.112991801
 10
69.0089664842
 20
26.9510446623
 10
69.0089664842
 20
26.7826268288
 10
69.0194243095
 20
26.6086053419
 10
69.0402861217
 20
26.4298760914
 10
69.0714445208
 20
26.2473592035
 10
69.1127390986
 20
26.0619943035
 10
69.1639572641
 20
25.8747356789
 10
69.2248353381
 20
25.6865473663
 10
69.2950599109
 20
25.4983981887
 10
69.3742694554
 20
25.3112567674
 10
69.4620561885
 20
25.1260865356
 10
69.5579681703
 20
24.9438407787
 10
69.6615116311
 20
24.7654577262
 10
69.7721535127
 20
24.591855722
  0
LWPOLYLINE
  5
305
330
1F
100
AcDbEntity
  8
0
  6
SLD-Solid
 62
     7
370
    25
100
AcDbPolyline
 90
       17
 70
   128
 43
0.0
 10
78.6406408823
 20
22.1422583298
 10
78.7128957314
 20
22.0174264097
 10
78.7772106864
 20
21.888893009
 10
78.8328776814
 20
21.7580731969
 10
78.8792838592
 20
21.6264072145
 10
78.9159183177
 20
21.4953446186
 10
78.9423777355
 20
21.3663283233
 10
78.9583708115
 20
21.240778714
 10
78.9637214724
 20
21.1200780105
 10
78.9583708109
 20
21.0055550489
 10
78.9423777342
 20
20.8984706526
 10
78.9159183158
 20
20.8000037514
 10
78.8792838567
 20
20.7112384016
 10
78.8328776784
 20
20.6331518522
 10
78.7772106828
 20
20.5666037852
 10
78.7128957273
 20
20.5123268517
 10
78.6406408778
 20
20.4709186055
  0
LWPOLYLINE
  5
306
330
1F
100
AcDbEntity
  8
0
  6
SLD-Solid
 62
     7
370
    25
100
AcDbPolyline
 90
       14
 70
   128
 43
0.0
 10
78.6406408778
 20
20.4709186055
 10
78.6125738196
 20
20.4500900698
 10
78.5929967886
 20
20.4176799953
 10
78.5830475307
 20
20.3755719377
 10
78.5833042605
 20
20.3262130644
 10
78.5937520579
 20
20.2724719335
 10
78.6137837349
 20
20.2174717843
 10
78.6422351231
 20
20.1644090255
 10
78.6774527314
 20
20.1163674718
 10
78.7173898403
 20
20.0761391237
 10
78.7597254502
 20
20.0460619065
 10
78.8019991695
 20
20.0278837988
 10
78.8417542031
 20
20.0226612461
 10
78.876680133
 20
20.0306977642
  0
LWPOLYLINE
  5
307
330
1F
100
AcDbEntity
  8
0
  6
SLD-Solid
 62
     7
370
    25
100
AcDbPolyline
 90
       20
 70
   128
 43
0.0
 10
78.876680133
 20
22.3099540551
 10
78.9603512857
 20
22.1669809866
 10
79.0364579801
 20
22.0202144319
 10
79.1044058785
 20
21.8708005308
 10
79.1636643574
 20
21.7199060969
 10
79.2137706512
 20
21.5687095055
 10
79.2543334664
 20
21.4183914918
 10
79.2850360371
 20
21.2701259297
 10
79.3056385984
 20
21.1250706652
 10
79.3159802595
 20
20.9843584739
 10
79.3159802595
 20
20.8490882156
 10
79.3056385984
 20
20.720316252
 10
79.2850360371
 20
20.5990481985
 10
79.2543334664
 20
20.4862310699
 10
79.2137706512
 20
20.3827458858
 10
79.1636643574
 20
20.2894007899
 10
79.1044058785
 20
20.2069247393
 10
79.0364579801
 20
20.1359618119
 10
78.9603512857
 20
20.0770661762
 10
78.876680133
 20
20.0306977642
  0
LWPOLYLINE
  5
308
330
1F
100
AcDbEntity
  8
0
  6
SLD-Solid
 62
     7
370
    25
100
AcDbPolyline
 90
       14
 70
   128
 43
0.0
 10
78.876680133
 20
22.3099540551
 10
78.8417542027
 20
22.3583151941
 10
78.8019991686
 20
22.3989928265
 10
78.7597254488
 20
22.4296229161
 10
78.7173898385
 20
22.4484253535
 10
78.6774527293
 20
22.4543074093
 10
78.642235121
 20
22.4469272397
 10
78.613783733
 20
22.4267137535
 10
78.5937520566
 20
22.3948416849
 10
78.58330426
 20
22.3531633229
 10
78.5830475312
 20
22.3041008623
 10
78.5929967904
 20
22.2505056351
 10
78.6125738228
 20
22.1954924012
 10
78.6406408823
 20
22.1422583298
  0
LWPOLYLINE
  5
309
330
1F
100
AcDbEntity
  8
0
  6
SLD-Solid
 62
     7
370
    25
100
AcDbPolyline
 90
       14
 70
   128
 43
0.0
 10
77.609611986
 20
19.3500987442
 10
77.6519174182
 20
19.31974454
 10
77.6917642125
 20
19.2792908158
 10
77.7268366181
 20
19.2310885951
 10
77.7550963541
 20
19.1779392156
 10
77.7749010674
 20
19.1229315262
 10
77.7850997801
 20
19.0692623737
 10
77.7850997801
 20
19.0200508144
 10
77.7749010674
 20
18.978156845
 10
77.7550963541
 20
18.9460151908
 10
77.7268366181
 20
18.9254938081
 10
77.6917642125
 20
18.9177853248
 10
77.6519174182
 20
18.9233377301
 10
77.609611986
 20
18.9418283383
  0
LINE
  5
30A
330
1F
100
AcDbEntity
  8
0
  6
SLD-Solid
 62
     7
370
    25
100
AcDbLine
 10
71.4224276506
 20
22.9218842334
 30
0.0
 11
77.609611986
 21
19.3500987442
 31
0.0
  0
LWPOLYLINE
  5
30B
330
1F
100
AcDbEntity
  8
0
  6
SLD-Solid
 62
     7
370
    25
100
AcDbPolyline
 90
       14
 70
   128
 43
0.0
 10
71.4224276506
 20
22.5136138275
 10
71.3801222183
 20
22.5439680317
 10
71.340275424
 20
22.5844217559
 10
71.3052030185
 20
22.6326239766
 10
71.2769432825
 20
22.6857733561
 10
71.2571385692
 20
22.7407810455
 10
71.2469398564
 20
22.7944501979
 10
71.2469398564
 20
22.8436617573
 10
71.2571385692
 20
22.8855557267
 10
71.2769432825
 20
22.9176973808
 10
71.3052030185
 20
22.9382187636
 10
71.340275424
 20
22.9459272469
 10
71.3801222183
 20
22.9403748416
 10
71.4224276506
 20
22.9218842334
  0
LINE
  5
30C
330
1F
100
AcDbEntity
  8
0
  6
SLD-Solid
 62
     7
370
    25
100
AcDbLine
 10
71.4224276506
 20
22.5136138275
 30
0.0
 11
77.609611986
 21
18.9418283383
 31
0.0
  0
LINE
  5
30D
330
1F
100
AcDbEntity
  8
0
  6
SLD-Solid
 62
     7
370
    25
100
AcDbLine
 10
72.1737286056
 20
25.1929588634
 30
0.0
 11
76.858311031
 21
22.488606993
 31
0.0
  0
LWPOLYLINE
  5
30E
330
1F
100
AcDbEntity
  8
0
  6
SLD-Solid
 62
     7
370
    25
100
AcDbPolyline
 90
       12
 70
   128
 43
0.0
 10
72.1737286056
 20
25.1929588634
 10
72.1363757928
 20
25.2083205007
 10
72.1020490828
 20
25.2100342644
 10
72.0735294214
 20
25.1979613156
 10
72.053127302
 20
25.1730797328
 10
72.042495583
 20
25.1374052738
 10
72.042495583
 20
25.0938280712
 10
72.053127302
 20
25.0458784908
 10
72.0735294214
 20
24.9974411223
 10
72.1020490828
 20
24.9524400734
 10
72.1363757928
 20
24.9145210613
 10
72.1737286056
 20
24.8867560589
  0
LINE
  5
30F
330
1F
100
AcDbEntity
  8
0
  6
SLD-Solid
 62
     7
370
    25
100
AcDbLine
 10
72.1737286056
 20
24.8867560589
 30
0.0
 11
76.858311031
 21
22.1824041885
 31
0.0
  0
LWPOLYLINE
  5
310
330
1F
100
AcDbEntity
  8
0
  6
SLD-Solid
 62
     7
370
    25
100
AcDbPolyline
 90
       12
 70
   128
 43
0.0
 10
76.858311031
 20
22.1824041885
 10
76.8956638437
 20
22.1670425512
 10
76.9299905537
 20
22.1653287875
 10
76.9585102151
 20
22.1774017363
 10
76.9789123345
 20
22.2022833191
 10
76.9895440535
 20
22.2379577781
 10
76.9895440535
 20
22.2815349807
 10
76.9789123345
 20
22.3294845611
 10
76.9585102151
 20
22.3779219296
 10
76.9299905537
 20
22.4229229785
 10
76.8956638437
 20
22.4608419906
 10
76.858311031
 20
22.488606993
  0
LINE
  5
311
330
1F
100
AcDbEntity
  8
0
  6
SLD-Solid
 62
     7
370
    25
100
AcDbLine
 10
78.6988069786
 20
26.4453739138
 30
0.0
 11
71.7474462203
 21
30.4583090618
 31
0.0
  0
ARC
  5
312
330
1F
100
AcDbEntity
  8
0
  6
SLD-Solid
 62
     7
370
    25
100
AcDbCircle
 10
76.9436037804
 20
22.2803246272
 30
0.0
 40
0.0995352508383093
100
AcDbArc
 50
235.058021364
 51
282.4857635652
  0
LINE
  5
313
330
1F
100
AcDbEntity
  8
0
  6
SLD-Solid
 62
     7
370
    25
100
AcDbLine
 10
76.8865953022
 20
22.1987323508
 30
0.0
 11
72.2020128768
 21
24.9030842212
 31
0.0
  0
LINE
  5
314
330
1F
100
AcDbEntity
  8
0
  6
SLD-Solid
 62
     7
370
    25
100
AcDbLine
 10
80.2228949128
 20
15.9658155361
 30
0.0
 11
80.2228949128
 21
16.9021857748
 31
0.0
  0
LINE
  5
315
330
1F
100
AcDbEntity
  8
0
  6
SLD-Solid
 62
     7
370
    25
100
AcDbLine
 10
80.2228949128
 20
15.9658155361
 30
0.0
 11
80.1946106416
 21
15.9821436983
 31
0.0
  0
LINE
  5
316
330
1F
100
AcDbEntity
  8
0
  6
SLD-Solid
 62
     7
370
    25
100
AcDbLine
 10
80.1946106416
 20
15.9821436983
 30
0.0
 11
80.1946106416
 21
16.8946980334
 31
0.0
  0
LINE
  5
317
330
1F
100
AcDbEntity
  8
0
  6
SLD-Solid
 62
     7
370
    25
100
AcDbLine
 10
80.5979377928
 20
17.0331607433
 30
0.0
 11
80.5979377928
 21
16.6232552206
 31
0.0
  0
LINE
  5
318
330
1F
100
AcDbEntity
  8
0
  6
SLD-Solid
 62
     7
370
    25
100
AcDbLine
 10
80.5979377928
 20
16.6232552206
 30
0.0
 11
81.2319362896
 21
16.9892547623
 31
0.0
  0
LWPOLYLINE
  5
319
330
1F
100
AcDbEntity
  8
0
  6
SLD-Solid
 62
     7
370
    25
100
AcDbPolyline
 90
       14
 70
   128
 43
0.0
 10
81.2319362896
 20
16.9892547623
 10
81.2776261564
 20
17.0092246192
 10
81.3206606943
 20
17.0152212168
 10
81.3585388922
 20
17.0068960549
 10
81.3890594071
 20
16.9847329615
 10
81.4104484975
 20
16.950019975
 10
81.4214631073
 20
16.9047744881
 10
81.4214631073
 20
16.851626004
 10
81.4104484975
 20
16.7936633193
 10
81.3890594071
 20
16.7342550148
 10
81.3585388922
 20
16.6768536849
 10
81.3206606943
 20
16.6247952865
 10
81.2776261564
 20
16.5811052644
 10
81.2319362896
 20
16.5483227239
  0
LINE
  5
31A
330
1F
100
AcDbEntity
  8
0
  6
SLD-Solid
 62
     7
370
    25
100
AcDbLine
 10
81.2319362896
 20
16.5483227239
 30
0.0
 11
80.2228949128
 21
15.9658155361
 31
0.0
  0
LWPOLYLINE
  5
31B
330
1F
100
AcDbEntity
  8
0
  6
SLD-Solid
 62
     7
370
    25
100
AcDbPolyline
 90
       17
 70
   128
 43
0.0
 10
81.1612256115
 20
16.7279683375
 10
81.1666081413
 20
16.7623232699
 10
81.1819362896
 20
16.797662512
 10
81.2048764846
 20
16.8286059845
 10
81.2319362896
 20
16.8504428243
 10
81.2589960946
 20
16.8598485704
 10
81.2819362896
 20
16.8553912832
 10
81.2972644378
 20
16.8377495444
 10
81.3026469677
 20
16.8096091487
 10
81.2972644378
 20
16.7752542163
 10
81.2819362896
 20
16.7399149742
 10
81.2589960946
 20
16.7089715016
 10
81.2319362896
 20
16.6871346619
 10
81.2048764846
 20
16.6777289158
 10
81.1819362896
 20
16.682186203
 10
81.1666081413
 20
16.6998279418
 10
81.1612256115
 20
16.7279683375
  0
LINE
  5
31C
330
1F
100
AcDbEntity
  8
0
  6
SLD-Solid
 62
     7
370
    25
100
AcDbLine
 10
80.5979377928
 20
16.6559115451
 30
0.0
 11
81.2036520183
 21
17.0055829245
 31
0.0
  0
ARC
  5
31D
330
1F
100
AcDbEntity
  8
0
  6
SLD-Solid
 62
     7
370
    25
100
AcDbCircle
 10
69.3391276946
 20
28.8043789767
 30
0.0
 40
1.790446081867711
100
AcDbArc
 50
110.2715623581
 51
129.5145929024
  0
ARC
  5
31E
330
1F
100
AcDbEntity
  8
0
  6
SLD-Solid
 62
     7
370
    25
100
AcDbCircle
 10
81.2821832421
 20
16.9008117856
 30
0.0
 40
0.1309356508443546
100
AcDbArc
 50
64.4570597341
 51
126.8533986951
  0
LWPOLYLINE
  5
31F
330
1F
100
AcDbEntity
  8
0
  6
SLD-Solid
 62
     7
370
    25
100
AcDbPolyline
 90
        9
 70
   128
 43
0.0
 10
81.2657489106
 20
16.8600218998
 10
81.2689801666
 20
16.8540777066
 10
81.2743626964
 20
16.8259373109
 10
81.2689801666
 20
16.7915823785
 10
81.2536520183
 20
16.7562431364
 10
81.2307118233
 20
16.7252996639
 10
81.2036520183
 20
16.7034628241
 10
81.1765922133
 20
16.694057078
 10
81.1698393974
 20
16.6938837486
  0
LWPOLYLINE
  5
320
330
1F
100
AcDbEntity
  8
0
  6
SLD-Solid
 62
     7
370
    25
100
AcDbPolyline
 90
       17
 70
   128
 43
0.0
 10
71.7474462203
 20
30.4583090618
 10
71.5538310136
 20
30.5643390803
 10
71.3607262221
 20
30.6586062562
 10
71.1686409153
 20
30.7408620792
 10
70.9780814752
 20
30.8108897036
 10
70.7895502611
 20
30.8685045202
 10
70.6035442858
 20
30.9135546427
 10
70.4205539045
 20
30.9459213085
 10
70.2410615228
 20
30.9655191915
 10
70.065540325
 20
30.972296627
 10
69.8944530259
 20
30.9662357481
 10
69.728250652
 20
30.9473525327
 10
69.5673713517
 20
30.9156967614
 10
69.4122392405
 20
30.8713518862
 10
69.2632632833
 20
30.8144348107
 10
69.1208362155
 20
30.7450955817
 10
69.0803401519
 20
30.722416969
  0
LWPOLYLINE
  5
321
330
1F
100
AcDbEntity
  8
0
  6
SLD-Solid
 62
     7
370
    25
100
AcDbPolyline
 90
        9
 70
   128
 43
0.0
 10
72.2020128768
 20
24.9030842212
 10
72.1646600641
 20
24.9308492235
 10
72.1303333541
 20
24.9687682356
 10
72.1018136927
 20
25.0137692845
 10
72.0814115733
 20
25.062206653
 10
72.0707798543
 20
25.1101562334
 10
72.0707798543
 20
25.153733436
 10
72.0814115733
 20
25.189407895
 10
72.0952009024
 20
25.2085478048
  0
LINE
  5
322
330
1F
100
AcDbEntity
  8
0
  6
SLD-Solid
 62
     7
370
    25
100
AcDbLine
 10
69.6357525509
 20
22.2613345529
 30
0.0
 11
69.5827195423
 21
22.2307192487
 31
0.0
  0
ARC
  5
323
330
1F
100
AcDbEntity
  8
0
  6
SLD-Solid
 62
     7
370
    25
100
AcDbCircle
 10
69.5413146803
 20
22.2814806825
 30
0.0
 40
0.065506379614277
100
AcDbArc
 50
170.7859630095
 51
309.2032852357
  0
LINE
  5
324
330
1F
100
AcDbEntity
  8
0
  6
SLD-Solid
 62
     7
370
    25
100
AcDbLine
 10
69.4766535252
 20
22.2919697621
 30
0.0
 11
69.4766535252
 21
22.6939697004
 31
0.0
  0
LINE
  5
325
330
1F
100
AcDbEntity
  8
0
  6
SLD-Solid
 62
     7
370
    25
100
AcDbLine
 10
69.4483692539
 20
22.3082979243
 30
0.0
 11
69.4483692539
 21
22.7253867894
 31
0.0
  0
ARC
  5
326
330
1F
100
AcDbEntity
  8
0
  6
SLD-Solid
 62
     7
370
    25
100
AcDbCircle
 10
69.5218695393
 20
22.3001849137
 30
0.0
 40
0.0739466894976791
100
AcDbArc
 50
173.7011524804
 51
234.9866671263
  0
LWPOLYLINE
  5
327
330
1F
100
AcDbEntity
  8
0
  6
SLD-Solid
 62
     7
370
    25
100
AcDbPolyline
 90
       48
 70
   128
 43
0.0
 10
84.8346337138
 20
19.4718040123
 10
84.8447528683
 20
19.477690165
 10
84.9770940443
 20
19.5633390655
 10
85.1020887445
 20
19.6608291977
 10
85.219410132
 20
19.7699056435
 10
85.3287514339
 20
19.890283189
 10
85.4298267436
 20
20.0216470701
 10
85.5223717688
 20
20.1636537956
 10
85.6061445219
 20
20.3159320451
 10
85.6809259533
 20
20.4780836403
 10
85.746520524
 20
20.649684586
 10
85.8027567168
 20
20.8302861787
 10
85.8494874848
 20
21.0194161801
 10
85.8865906362
 20
21.2165800515
 10
85.9139691532
 20
21.4212622473
 10
85.9315514463
 20
21.632927563
 10
85.9392915412
 20
21.8510225344
 10
85.9371691991
 20
22.0749768853
 10
85.9251899695
 20
22.304205018
 10
85.9033851757
 20
22.538107545
 10
85.8718118331
 20
22.7760728563
 10
85.8305524999
 20
23.0174787184
 10
85.7797150614
 20
23.2616939013
 10
85.7194324476
 20
23.5080798293
 10
85.649862286
 20
23.7559922506
 10
85.5711864891
 20
24.0047829219
 10
85.4836107792
 20
24.2538013035
 10
85.3873641497
 20
24.5023962602
 10
85.2826982671
 20
24.749917764
 10
85.1698868126
 20
24.9957185938
 10
85.0492247664
 20
25.2391560278
 10
84.9210276366
 20
25.4795935237
 10
84.7856306339
 20
25.7164023839
 10
84.6433877956
 20
25.9489633988
 10
84.4946710592
 20
26.1766684659
 10
84.3398692904
 20
26.3989221804
 10
84.1793872661
 20
26.6151433916
 10
84.013644616
 20
26.8247667225
 10
83.843074725
 20
27.0272440485
 10
83.6681236008
 20
27.2220459303
 10
83.4892487068
 20
27.4086629986
 10
83.3069177664
 20
27.5866072854
 10
83.1216075401
 20
27.7554135009
 10
82.9338025784
 20
27.9146402491
 10
82.7439939551
 20
28.0638711828
 10
82.5526779833
 20
28.2027160917
 10
82.3603549175
 20
28.3308119232
 10
82.1675276454
 20
28.4478237313
  0
LWPOLYLINE
  5
328
330
1F
100
AcDbEntity
  8
0
  6
SLD-Solid
 62
     7
370
    25
100
AcDbPolyline
 90
       48
 70
   128
 43
0.0
 10
81.3666201538
 20
17.4697623988
 10
81.3767393083
 20
17.4756485514
 10
81.5090804843
 20
17.561297452
 10
81.6340751845
 20
17.6587875841
 10
81.751396572
 20
17.7678640299
 10
81.8607378739
 20
17.8882415755
 10
81.9618131837
 20
18.0196054566
 10
82.0543582088
 20
18.161612182
 10
82.1381309619
 20
18.3138904315
 10
82.2129123933
 20
18.4760420268
 10
82.278506964
 20
18.6476429725
 10
82.3347431568
 20
18.8282445652
 10
82.3814739249
 20
19.0173745666
 10
82.4185770762
 20
19.214538438
 10
82.4459555932
 20
19.4192206338
 10
82.4635378863
 20
19.6308859495
 10
82.4712779813
 20
19.8489809209
 10
82.4691556391
 20
20.0729352718
 10
82.4571764095
 20
20.3021634045
 10
82.4353716157
 20
20.5360659315
 10
82.4037982731
 20
20.7740312428
 10
82.3625389399
 20
21.0154371048
 10
82.3117015014
 20
21.2596522877
 10
82.2514188876
 20
21.5060382157
 10
82.181848726
 20
21.753950637
 10
82.1031729291
 20
22.0027413084
 10
82.0155972192
 20
22.25175969
 10
81.9193505897
 20
22.5003546467
 10
81.8146847071
 20
22.7478761505
 10
81.7018732526
 20
22.9936769803
 10
81.5812112064
 20
23.2371144142
 10
81.4530140766
 20
23.4775519102
 10
81.3176170739
 20
23.7143607704
 10
81.1753742356
 20
23.9469217852
 10
81.0266574992
 20
24.1746268524
 10
80.8718557304
 20
24.3968805669
 10
80.7113737062
 20
24.613101778
 10
80.545631056
 20
24.822725109
 10
80.375061165
 20
25.025202435
 10
80.2001100408
 20
25.2200043168
 10
80.0212351468
 20
25.406621385
 10
79.8389042064
 20
25.5845656719
 10
79.6535939801
 20
25.7533718873
 10
79.4657890184
 20
25.9125986356
 10
79.2759803951
 20
26.0618295692
 10
79.0846644233
 20
26.2006744782
 10
78.8923413575
 20
26.3287703097
 10
78.6995140854
 20
26.4457821178
  0
LWPOLYLINE
  5
329
330
1F
100
AcDbEntity
  8
0
  6
SLD-Solid
 62
     7
370
    25
100
AcDbPolyline
 90
       17
 70
   128
 43
0.0
 10
71.7481533271
 20
30.4587172659
 10
71.555326055
 20
30.5643390872
 10
71.3630029892
 20
30.658294741
 10
71.1716870174
 20
30.7403385513
 10
70.9818783941
 20
30.8102559894
 10
70.7940734324
 20
30.8678642345
 10
70.608763206
 20
30.9130126523
 10
70.4264322657
 20
30.9455831882
 10
70.2475573717
 20
30.9654906766
 10
70.0726062475
 20
30.9726830632
 10
69.9020363565
 20
30.9671415414
 10
69.7362937063
 20
30.9488806011
 10
69.575811682
 20
30.9179479912
 10
69.4210099133
 20
30.8744245945
 10
69.2722931769
 20
30.8184242164
 10
69.1300503386
 20
30.7500932869
 10
69.0810472587
 20
30.7228251731
  0
LINE
  5
32A
330
1F
100
AcDbEntity
  8
0
  6
SLD-Solid
 62
     7
370
    25
100
AcDbLine
 10
78.6995140854
 20
26.4457821178
 30
0.0
 11
71.7481533271
 21
30.4587172659
 31
0.0
  0
LWPOLYLINE
  5
32B
330
1F
100
AcDbEntity
  8
0
  6
SLD-Solid
 62
     7
370
    25
100
AcDbPolyline
 90
       19
 70
   128
 43
0.0
 10
75.3438509968
 20
28.7829046198
 10
75.3494251733
 20
28.7420172778
 10
75.3692581504
 20
28.6965794423
 10
75.402826468
 20
28.6539161691
 10
75.4490512128
 20
28.6153986908
 10
75.5064466834
 20
28.5822649909
 10
75.5731681422
 20
28.5555800138
 10
75.6470711065
 20
28.5362014365
 10
75.7257802744
 20
28.5247521025
 10
75.8067658684
 20
28.5216000029
 10
75.8874249449
 20
28.5268464486
 10
75.9651650547
 20
28.5403228146
 10
76.0374875669
 20
28.5615959595
 10
76.1020679763
 20
28.5899821468
 10
76.1568306154
 20
28.6245690211
 10
76.200015368
 20
28.6642449318
 10
76.2302342406
 20
28.7077346625
 10
76.2465159737
 20
28.7536404175
 10
76.2493628078
 20
28.7829046198
  0
LINE
  5
32C
330
1F
100
AcDbEntity
  8
0
  6
SLD-Solid
 62
     7
370
    25
100
AcDbLine
 10
82.1675276454
 20
28.4478237313
 30
0.0
 11
75.216166887
 21
32.4607588794
 31
0.0
  0
LINE
  5
32D
330
1F
100
AcDbEntity
  8
0
  6
SLD-Solid
 62
     7
370
    25
100
AcDbLine
 10
76.0055721276
 20
29.0423628319
 30
0.0
 11
75.9174985858
 21
29.0932066053
 31
0.0
  0
LINE
  5
32E
330
1F
100
AcDbEntity
  8
0
  6
SLD-Solid
 62
     7
370
    25
100
AcDbLine
 10
75.9174985858
 20
29.0932066053
 30
0.0
 11
75.587641677
 21
28.9027842651
 31
0.0
  0
LINE
  5
32F
330
1F
100
AcDbEntity
  8
0
  6
SLD-Solid
 62
     7
370
    25
100
AcDbLine
 10
75.587641677
 20
28.9027842651
 30
0.0
 11
75.6757152188
 21
28.8519404917
 31
0.0
  0
LINE
  5
330
330
1F
100
AcDbEntity
  8
0
  6
SLD-Solid
 62
     7
370
    25
100
AcDbLine
 10
75.6757152188
 20
28.8519404917
 30
0.0
 11
76.0055721276
 21
29.0423628319
 31
0.0
  0
LINE
  5
331
330
1F
100
AcDbEntity
  8
0
  6
SLD-Solid
 62
     7
370
    25
100
AcDbLine
 10
75.9174985858
 20
29.0115525241
 30
0.0
 11
75.6583638485
 21
28.8619572245
 31
0.0
  0
LINE
  5
332
330
1F
100
AcDbEntity
  8
0
  6
SLD-Solid
 62
     7
370
    25
100
AcDbLine
 10
75.9348499561
 20
29.0015357913
 30
0.0
 11
75.9174985858
 21
29.0115525241
 31
0.0
  0
LINE
  5
333
330
1F
100
AcDbEntity
  8
0
  6
SLD-Solid
 62
     7
370
    25
100
AcDbLine
 10
75.9174985858
 20
29.0115525241
 30
0.0
 11
75.9174985858
 21
29.0932066053
 31
0.0
  0
LINE
  5
334
330
1F
100
AcDbEntity
  8
0
  6
SLD-Solid
 62
     7
370
    25
100
AcDbLine
 10
69.6357525509
 20
22.2613345529
 30
0.0
 11
70.4176496837
 21
21.809954946
 31
0.0
  0
LINE
  5
335
330
1F
100
AcDbEntity
  8
0
  6
SLD-Solid
 62
     7
370
    25
100
AcDbLine
 10
78.6598450385
 20
17.0518368471
 30
0.0
 11
80.1946106416
 21
16.1658355235
 31
0.0
  0
LINE
  5
336
330
1F
100
AcDbEntity
  8
0
  6
SLD-Solid
 62
     7
370
    25
100
AcDbLine
 10
69.6357525509
 20
22.5217950447
 30
0.0
 11
69.6357525509
 21
22.2613345529
 31
0.0
  0
LINE
  5
337
330
1F
100
AcDbEntity
  8
0
  6
SLD-Solid
 62
     7
370
    25
100
AcDbLine
 10
84.0508258244
 20
18.2082893385
 30
0.0
 11
81.3319288135
 21
16.6387035037
 31
0.0
  0
LWPOLYLINE
  5
338
330
1F
100
AcDbEntity
  8
0
  6
SLD-Solid
 62
     7
370
    25
100
AcDbPolyline
 90
        3
 70
   128
 43
0.0
 10
81.2743626964
 20
16.8259373109
 10
81.2689801666
 20
16.8540777066
 10
81.2657489106
 20
16.8600218998
  0
LWPOLYLINE
  5
339
330
1F
100
AcDbEntity
  8
0
  6
SLD-Solid
 62
     7
370
    25
100
AcDbPolyline
 90
        7
 70
   128
 43
0.0
 10
81.1698393974
 20
16.6938837486
 10
81.1765922133
 20
16.694057078
 10
81.2036520183
 20
16.7034628241
 10
81.2307118233
 20
16.7252996639
 10
81.2536520183
 20
16.7562431364
 10
81.2689801666
 20
16.7915823785
 10
81.2743626964
 20
16.8259373109
  0
LINE
  5
33A
330
1F
100
AcDbEntity
  8
0
  6
SLD-Solid
 62
     7
370
    25
100
AcDbLine
 10
84.0508258244
 20
19.0193213492
 30
0.0
 11
84.0508258244
 21
18.2082893385
 31
0.0
  0
LWPOLYLINE
  5
33B
330
1F
100
AcDbEntity
  8
0
  6
SLD-Solid
 62
     7
370
    25
100
AcDbPolyline
 90
       17
 70
   128
 43
0.0
 10
75.216166887
 20
32.4607588794
 10
75.023339615
 20
32.5663807007
 10
74.8310165492
 20
32.6603363545
 10
74.6397005774
 20
32.7423801649
 10
74.4498919541
 20
32.8122976029
 10
74.2620869924
 20
32.869905848
 10
74.076776766
 20
32.9150542658
 10
73.8944458257
 20
32.9476248017
 10
73.7155709317
 20
32.9675322901
 10
73.5406198074
 20
32.9747246767
 10
73.3700499165
 20
32.9691831549
 10
73.2043072663
 20
32.9509222146
 10
73.043825242
 20
32.9199896047
 10
72.8890234733
 20
32.876466208
 10
72.7403067369
 20
32.8204658299
 10
72.5980638986
 20
32.7521349005
 10
72.5490608187
 20
32.7248667866
  0
INSERT
  5
341
330
1F
100
AcDbEntity
  8
NOTES
100
AcDbBlockReference
  2
SW_NOTE_0_2
 10
73.8491322803
 20
17.0793050243
 30
0.0
  0
ARC
  5
342
330
1F
100
AcDbEntity
  8
0
  6
SLD-Solid
 62
     7
370
    25
100
AcDbCircle
 10
53.0797121747
 20
32.5398722561
 30
0.0
 40
0.1000000000000014
100
AcDbArc
 50
90.0
 51
180.0
  0
ARC
  5
343
330
1F
100
AcDbEntity
  8
0
  6
SLD-Solid
 62
     7
370
    25
100
AcDbCircle
 10
53.7852239857
 20
32.5398722561
 30
0.0
 40
0.1000000000000014
100
AcDbArc
 50
0.0
 51
90.0
  0
LINE
  5
344
330
1F
100
AcDbEntity
  8
0
  6
SLD-Solid
 62
     7
370
    25
100
AcDbLine
 10
53.8852239857
 20
32.4075887915
 30
0.0
 11
53.8852239857
 21
32.5398722561
 31
0.0
  0
LINE
  5
345
330
1F
100
AcDbEntity
  8
0
  6
SLD-Solid
 62
     7
370
    25
100
AcDbLine
 10
52.9797121747
 20
32.5398722561
 30
0.0
 11
52.9797121747
 21
32.4075887915
 31
0.0
  0
ARC
  5
346
330
1F
100
AcDbEntity
  8
0
  6
SLD-Solid
 62
     7
370
    25
100
AcDbCircle
 10
48.5171137495
 20
27.0729431223
 30
0.0
 40
4.5
100
AcDbArc
 50
105.4594117689
 51
173.6206297916
  0
ARC
  5
347
330
1F
100
AcDbEntity
  8
0
  6
SLD-Solid
 62
     7
370
    25
100
AcDbCircle
 10
48.5171137495
 20
27.0729431223
 30
0.0
 40
4.500000000000004
100
AcDbArc
 50
285.4594117689
 51
353.0928138754
  0
ARC
  5
348
330
1F
100
AcDbEntity
  8
0
  6
SLD-Solid
 62
     7
370
    25
100
AcDbCircle
 10
48.5171137495
 20
27.0729431223
 30
0.0
 40
4.5
100
AcDbArc
 50
186.3793702084
 51
254.5405882311
  0
ARC
  5
349
330
1F
100
AcDbEntity
  8
0
  6
SLD-Solid
 62
     7
370
    25
100
AcDbCircle
 10
58.3478224109
 20
27.0729431223
 30
0.0
 40
4.5
100
AcDbArc
 50
6.3793702084
 51
74.5405882311
  0
ARC
  5
34A
330
1F
100
AcDbEntity
  8
0
  6
SLD-Solid
 62
     7
370
    25
100
AcDbCircle
 10
58.3478224109
 20
27.0729431223
 30
0.0
 40
4.500000000000003
100
AcDbArc
 50
285.4594117689
 51
353.6206297916
  0
ARC
  5
34B
330
1F
100
AcDbEntity
  8
0
  6
SLD-Solid
 62
     7
370
    25
100
AcDbCircle
 10
58.3478224109
 20
27.0729431223
 30
0.0
 40
4.500000000000003
100
AcDbArc
 50
186.9071861246
 51
254.5405882311
  0
LINE
  5
34C
330
1F
100
AcDbEntity
  8
0
  6
SLD-Solid
 62
     7
370
    25
100
AcDbLine
 10
53.4324680802
 20
25.3489273718
 30
0.0
 11
53.4324680802
 21
22.5317670426
 31
0.0
  0
LINE
  5
34D
330
1F
100
AcDbEntity
  8
0
  6
SLD-Solid
 62
     7
370
    25
100
AcDbLine
 10
53.4324680802
 20
25.3489273718
 30
0.0
 11
53.5324680802
 21
25.3489273718
 31
0.0
  0
LINE
  5
34E
330
1F
100
AcDbEntity
  8
0
  6
SLD-Solid
 62
     7
370
    25
100
AcDbLine
 10
53.5324680802
 20
25.3489273718
 30
0.0
 11
53.5324680802
 21
22.5317670426
 31
0.0
  0
LINE
  5
34F
330
1F
100
AcDbEntity
  8
0
  6
SLD-Solid
 62
     7
370
    25
100
AcDbLine
 10
54.4449481878
 20
22.5317670426
 30
0.0
 11
53.5324680802
 21
25.3489273718
 31
0.0
  0
LINE
  5
350
330
1F
100
AcDbEntity
  8
0
  6
SLD-Solid
 62
     7
370
    25
100
AcDbLine
 10
54.5851452456
 20
20.3146754033
 30
0.0
 11
53.9945940645
 21
20.3146754033
 31
0.0
  0
LINE
  5
351
330
1F
100
AcDbEntity
  8
0
  6
SLD-Solid
 62
     7
370
    25
100
AcDbLine
 10
53.9945940645
 20
20.3146754033
 30
0.0
 11
53.9945940645
 21
21.1989273718
 31
0.0
  0
LINE
  5
352
330
1F
100
AcDbEntity
  8
0
  6
SLD-Solid
 62
     7
370
    25
100
AcDbLine
 10
54.5851452456
 20
20.3146754033
 30
0.0
 11
54.5851452456
 21
21.1989273718
 31
0.0
  0
LINE
  5
353
330
1F
100
AcDbEntity
  8
0
  6
SLD-Solid
 62
     7
370
    25
100
AcDbLine
 10
61.0512082377
 20
21.7389273718
 30
0.0
 11
61.0112082377
 21
21.7389273718
 31
0.0
  0
LINE
  5
354
330
1F
100
AcDbEntity
  8
0
  6
SLD-Solid
 62
     7
370
    25
100
AcDbLine
 10
61.0512082377
 20
21.1989273718
 30
0.0
 11
61.0112082377
 21
21.1989273718
 31
0.0
  0
LINE
  5
355
330
1F
100
AcDbEntity
  8
0
  6
SLD-Solid
 62
     7
370
    25
100
AcDbLine
 10
61.0512082377
 20
21.7389273718
 30
0.0
 11
61.0512082377
 21
21.1989273718
 31
0.0
  0
LINE
  5
356
330
1F
100
AcDbEntity
  8
0
  6
SLD-Solid
 62
     7
370
    25
100
AcDbLine
 10
45.8137279227
 20
21.1989273718
 30
0.0
 11
45.8537279227
 21
21.1989273718
 31
0.0
  0
LINE
  5
357
330
1F
100
AcDbEntity
  8
0
  6
SLD-Solid
 62
     7
370
    25
100
AcDbLine
 10
45.8137279227
 20
21.7389273718
 30
0.0
 11
45.8137279227
 21
21.1989273718
 31
0.0
  0
LINE
  5
358
330
1F
100
AcDbEntity
  8
0
  6
SLD-Solid
 62
     7
370
    25
100
AcDbLine
 10
45.8137279227
 20
21.7389273718
 30
0.0
 11
45.8537279227
 21
21.7389273718
 31
0.0
  0
LINE
  5
359
330
1F
100
AcDbEntity
  8
0
  6
SLD-Solid
 62
     7
370
    25
100
AcDbLine
 10
61.0512082377
 20
22.4732986568
 30
0.0
 11
61.0512082377
 21
21.7389273718
 31
0.0
  0
LINE
  5
35A
330
1F
100
AcDbEntity
  8
0
  6
SLD-Solid
 62
     7
370
    25
100
AcDbLine
 10
45.8137279227
 20
22.4732986568
 30
0.0
 11
45.8137279227
 21
21.7389273718
 31
0.0
  0
LINE
  5
35B
330
1F
100
AcDbEntity
  8
0
  6
SLD-Solid
 62
     7
370
    25
100
AcDbLine
 10
55.1177388201
 20
23.9398041218
 30
0.0
 11
53.9888840397
 21
23.9398041218
 31
0.0
  0
LINE
  5
35C
330
1F
100
AcDbEntity
  8
0
  6
SLD-Solid
 62
     7
370
    25
100
AcDbLine
 10
53.4324680802
 20
23.9398041218
 30
0.0
 11
51.7471973403
 21
23.9398041218
 31
0.0
  0
LINE
  5
35D
330
1F
100
AcDbEntity
  8
0
  6
SLD-Solid
 62
     7
370
    25
100
AcDbLine
 10
55.670451217
 20
23.4560821227
 30
0.0
 11
54.1455619175
 21
23.4560821227
 31
0.0
  0
LINE
  5
35E
330
1F
100
AcDbEntity
  8
0
  6
SLD-Solid
 62
     7
370
    25
100
AcDbLine
 10
53.4324680802
 20
23.4560821227
 30
0.0
 11
51.1944849434
 21
23.4560821227
 31
0.0
  0
CIRCLE
  5
35F
330
1F
100
AcDbEntity
  8
0
  6
SLD-Solid
 62
     7
370
    25
100
AcDbCircle
 10
58.3537279227
 20
23.7639273718
 30
0.0
 40
0.1350000000000051
  0
CIRCLE
  5
360
330
1F
100
AcDbEntity
  8
0
  6
SLD-Solid
 62
     7
370
    25
100
AcDbCircle
 10
48.5171137495
 20
27.0729431223
 30
0.0
 40
1.000000000000007
  0
LINE
  5
361
330
1F
100
AcDbEntity
  8
0
  6
SLD-Solid
 62
     7
370
    25
100
AcDbLine
 10
59.6037383024
 20
22.5317670426
 30
0.0
 11
58.926686888
 21
24.97986863
 31
0.0
  0
ARC
  5
362
330
1F
100
AcDbEntity
  8
0
  6
SLD-Solid
 62
     7
370
    25
100
AcDbCircle
 10
58.3478224109
 20
27.0729431223
 30
0.0
 40
4.711645669291338
100
AcDbArc
 50
285.4594117689
 51
353.9082996439
  0
LINE
  5
363
330
1F
100
AcDbEntity
  8
0
  6
SLD-Solid
 62
     7
370
    25
100
AcDbLine
 10
60.4611243091
 20
26.5729431223
 30
0.0
 11
63.0328629564
 21
26.5729431223
 31
0.0
  0
ARC
  5
364
330
1F
100
AcDbEntity
  8
0
  6
SLD-Solid
 62
     7
370
    25
100
AcDbCircle
 10
58.3478224109
 20
27.0729431223
 30
0.0
 40
2.171645669291341
100
AcDbArc
 50
285.4594117689
 51
346.6887898793
  0
LINE
  5
365
330
1F
100
AcDbEntity
  8
0
  6
SLD-Solid
 62
     7
370
    25
100
AcDbLine
 10
46.4038118513
 20
27.5729431223
 30
0.0
 11
43.832073204
 21
27.5729431223
 31
0.0
  0
ARC
  5
366
330
1F
100
AcDbEntity
  8
0
  6
SLD-Solid
 62
     7
370
    25
100
AcDbCircle
 10
48.5171137495
 20
27.0729431223
 30
0.0
 40
2.171645669291334
100
AcDbArc
 50
105.4594117689
 51
166.6887898793
  0
LINE
  5
367
330
1F
100
AcDbEntity
  8
0
  6
SLD-Solid
 62
     7
370
    25
100
AcDbLine
 10
47.2611978581
 20
31.6141192019
 30
0.0
 11
47.9382492724
 21
29.1660176145
 31
0.0
  0
ARC
  5
368
330
1F
100
AcDbEntity
  8
0
  6
SLD-Solid
 62
     7
370
    25
100
AcDbCircle
 10
48.5171137495
 20
27.0729431223
 30
0.0
 40
4.711645669291338
100
AcDbArc
 50
105.4594117689
 51
173.9082996439
  0
LINE
  5
369
330
1F
100
AcDbEntity
  8
0
  6
SLD-Solid
 62
     7
370
    25
100
AcDbLine
 10
48.5171137495
 20
32.4075887915
 30
0.0
 11
58.3478224109
 21
32.4075887915
 31
0.0
  0
ARC
  5
36A
330
1F
100
AcDbEntity
  8
0
  6
SLD-Solid
 62
     7
370
    25
100
AcDbCircle
 10
61.1112082377
 20
22.3932986568
 30
0.0
 40
0.1000000000000042
100
AcDbArc
 50
120.5623570521
 51
180.0
  0
LINE
  5
36B
330
1F
100
AcDbEntity
  8
0
  6
SLD-Solid
 62
     7
370
    25
100
AcDbLine
 10
61.0112082377
 20
22.3932986568
 30
0.0
 11
61.0112082377
 21
21.1989273718
 31
0.0
  0
LINE
  5
36C
330
1F
100
AcDbEntity
  8
0
  6
SLD-Solid
 62
     7
370
    25
100
AcDbLine
 10
61.0112082377
 20
21.1989273718
 30
0.0
 11
45.8537279227
 21
21.1989273718
 31
0.0
  0
LINE
  5
36D
330
1F
100
AcDbEntity
  8
0
  6
SLD-Solid
 62
     7
370
    25
100
AcDbLine
 10
45.8537279227
 20
22.3932986568
 30
0.0
 11
45.8537279227
 21
21.1989273718
 31
0.0
  0
ARC
  5
36E
330
1F
100
AcDbEntity
  8
0
  6
SLD-Solid
 62
     7
370
    25
100
AcDbCircle
 10
45.7537279227
 20
22.3932986568
 30
0.0
 40
0.1000000000000042
100
AcDbArc
 50
0.0
 51
59.4376429479
  0
ARC
  5
36F
330
1F
100
AcDbEntity
  8
0
  6
SLD-Solid
 62
     7
370
    25
100
AcDbCircle
 10
48.5171137495
 20
27.0729431223
 30
0.0
 40
5.334645669291337
100
AcDbArc
 50
90.0
 51
239.4376429479
  0
ARC
  5
370
330
1F
100
AcDbEntity
  8
0
  6
SLD-Solid
 62
     7
370
    25
100
AcDbCircle
 10
48.5171137495
 20
27.0729431223
 30
0.0
 40
4.711645669291338
100
AcDbArc
 50
186.0917003561
 51
254.5405882311
  0
LINE
  5
371
330
1F
100
AcDbEntity
  8
0
  6
SLD-Solid
 62
     7
370
    25
100
AcDbLine
 10
47.2611978581
 20
22.5317670426
 30
0.0
 11
47.9382492724
 21
24.97986863
 31
0.0
  0
ARC
  5
372
330
1F
100
AcDbEntity
  8
0
  6
SLD-Solid
 62
     7
370
    25
100
AcDbCircle
 10
48.5171137495
 20
27.0729431223
 30
0.0
 40
2.171645669291341
100
AcDbArc
 50
193.3112101207
 51
254.5405882311
  0
LINE
  5
373
330
1F
100
AcDbEntity
  8
0
  6
SLD-Solid
 62
     7
370
    25
100
AcDbLine
 10
46.4038118513
 20
26.5729431223
 30
0.0
 11
43.832073204
 21
26.5729431223
 31
0.0
  0
ARC
  5
374
330
1F
100
AcDbEntity
  8
0
  6
SLD-Solid
 62
     7
370
    25
100
AcDbCircle
 10
58.3478224109
 20
27.0729431223
 30
0.0
 40
2.171645669291343
100
AcDbArc
 50
194.4302312786
 51
254.5405882311
  0
LINE
  5
375
330
1F
100
AcDbEntity
  8
0
  6
SLD-Solid
 62
     7
370
    25
100
AcDbLine
 10
50.6202479259
 20
26.5317670426
 30
0.0
 11
56.2446882346
 21
26.5317670426
 31
0.0
  0
ARC
  5
376
330
1F
100
AcDbEntity
  8
0
  6
SLD-Solid
 62
     7
370
    25
100
AcDbCircle
 10
48.5171137495
 20
27.0729431223
 30
0.0
 40
2.171645669291375
100
AcDbArc
 50
285.4594117689
 51
345.5697687214
  0
LINE
  5
377
330
1F
100
AcDbEntity
  8
0
  6
SLD-Solid
 62
     7
370
    25
100
AcDbLine
 10
49.7730296409
 20
22.5317670426
 30
0.0
 11
49.0959782266
 21
24.97986863
 31
0.0
  0
LINE
  5
378
330
1F
100
AcDbEntity
  8
0
  6
SLD-Solid
 62
     7
370
    25
100
AcDbLine
 10
49.7730296409
 20
22.5317670426
 30
0.0
 11
57.0919065195
 21
22.5317670426
 31
0.0
  0
LINE
  5
379
330
1F
100
AcDbEntity
  8
0
  6
SLD-Solid
 62
     7
370
    25
100
AcDbLine
 10
57.0919065195
 20
22.5317670426
 30
0.0
 11
57.7689579338
 21
24.97986863
 31
0.0
  0
ARC
  5
37A
330
1F
100
AcDbEntity
  8
0
  6
SLD-Solid
 62
     7
370
    25
100
AcDbCircle
 10
58.3478224109
 20
27.0729431223
 30
0.0
 40
2.171645669291337
100
AcDbArc
 50
13.3112101207
 51
74.5405882311
  0
LINE
  5
37B
330
1F
100
AcDbEntity
  8
0
  6
SLD-Solid
 62
     7
370
    25
100
AcDbLine
 10
60.4611243091
 20
27.5729431223
 30
0.0
 11
63.0328629564
 21
27.5729431223
 31
0.0
  0
ARC
  5
37C
330
1F
100
AcDbEntity
  8
0
  6
SLD-Solid
 62
     7
370
    25
100
AcDbCircle
 10
58.3478224109
 20
27.0729431223
 30
0.0
 40
4.711645669291334
100
AcDbArc
 50
6.0917003561
 51
74.5405882311
  0
LINE
  5
37D
330
1F
100
AcDbEntity
  8
0
  6
SLD-Solid
 62
     7
370
    25
100
AcDbLine
 10
59.6037383024
 20
31.6141192019
 30
0.0
 11
58.926686888
 21
29.1660176145
 31
0.0
  0
CIRCLE
  5
37E
330
1F
100
AcDbEntity
  8
0
  6
SLD-Solid
 62
     7
370
    25
100
AcDbCircle
 10
58.3478224109
 20
27.0729431223
 30
0.0
 40
1.000000000000007
  0
CIRCLE
  5
37F
330
1F
100
AcDbEntity
  8
0
  6
SLD-Solid
 62
     7
370
    25
100
AcDbCircle
 10
49.0124680802
 20
31.3075887915
 30
0.0
 40
0.134999999999998
  0
CIRCLE
  5
380
330
1F
100
AcDbEntity
  8
0
  6
SLD-Solid
 62
     7
370
    25
100
AcDbCircle
 10
48.5112082377
 20
23.7639273718
 30
0.0
 40
0.1349999999999909
  0
CIRCLE
  5
381
330
1F
100
AcDbEntity
  8
0
  6
SLD-Solid
 62
     7
370
    25
100
AcDbCircle
 10
53.4324680802
 20
31.3075887915
 30
0.0
 40
0.134999999999998
  0
CIRCLE
  5
382
330
1F
100
AcDbEntity
  8
0
  6
SLD-Solid
 62
     7
370
    25
100
AcDbCircle
 10
57.8524680802
 20
31.3075887915
 30
0.0
 40
0.1350000000000051
  0
ARC
  5
383
330
1F
100
AcDbEntity
  8
0
  6
SLD-Solid
 62
     7
370
    25
100
AcDbCircle
 10
58.3478224109
 20
27.0729431223
 30
0.0
 40
5.334645669291337
100
AcDbArc
 50
300.5623570521
 51
90.0
  0
LINE
  5
384
330
1F
100
AcDbEntity
  8
0
  6
SLD-Solid
 62
     7
370
    25
100
AcDbLine
 10
53.0797121747
 20
32.6398722561
 30
0.0
 11
53.7852239857
 21
32.6398722561
 31
0.0
  0
LINE
  5
385
330
1F
100
AcDbEntity
  8
0
  6
SLD-Solid
 62
     8
370
    25
100
AcDbLine
 10
55.3715790708
 20
23.6977430422
 30
0.0
 11
54.0672877847
 21
23.6977430422
 31
0.0
  0
LINE
  5
386
330
1F
100
AcDbEntity
  8
0
  6
SLD-Solid
 62
     8
370
    25
100
AcDbLine
 10
53.4324680802
 20
23.6977430422
 30
0.0
 11
51.4933570896
 21
23.6977430422
 31
0.0
  0
LINE
  5
387
330
1F
100
AcDbEntity
  8
0
  6
SLD-Solid
 62
     8
370
    25
100
AcDbLine
 10
51.4938108286
 20
23.6981432023
 30
0.0
 11
53.4324680802
 21
23.6981432023
 31
0.0
  0
LINE
  5
388
330
1F
100
AcDbEntity
  8
0
  6
SLD-Solid
 62
     8
370
    25
100
AcDbLine
 10
54.0671581726
 20
23.6981432023
 30
0.0
 11
55.3711253319
 21
23.6981432023
 31
0.0
  0
LINE
  5
389
330
1F
100
AcDbEntity
  8
0
  6
SLD-Solid
 62
     8
370
    25
100
AcDbLine
 10
53.8852239857
 20
32.5398722561
 30
0.0
 11
52.9797121747
 21
32.5398722561
 31
0.0
  0
LINE
  5
38A
330
1F
100
AcDbEntity
  8
DIMS
100
AcDbLine
 10
6.2507823385
 20
14.4075887915
 30
0.0
 11
65.1776894297
 21
14.4075887915
 31
0.0
  0
LINE
  5
38B
330
1F
100
AcDbEntity
  8
DIMS
100
AcDbLine
 10
41.5991163541
 20
14.4075887915
 30
0.0
 11
41.5991163541
 21
15.0440815699
 31
0.0
  0
LINE
  5
38C
330
1F
100
AcDbEntity
  8
DIMS
100
AcDbLine
 10
41.5991163541
 20
15.0440815699
 30
0.0
 11
41.9301519922
 21
15.3054254947
 31
0.0
  0
LINE
  5
38D
330
1F
100
AcDbEntity
  8
DIMS
100
AcDbLine
 10
41.9301519922
 20
15.3054254947
 30
0.0
 11
41.2926222445
 21
15.6078663815
 31
0.0
  0
LINE
  5
38E
330
1F
100
AcDbEntity
  8
DIMS
100
AcDbLine
 10
41.2926222445
 20
15.6078663815
 30
0.0
 11
41.5991163541
 21
15.8695572119
 31
0.0
  0
LINE
  5
38F
330
1F
100
AcDbEntity
  8
DIMS
100
AcDbLine
 10
41.5991163541
 20
15.8695572119
 30
0.0
 11
41.5991163541
 21
16.8828965491
 31
0.0
  0
DIMENSION
  5
390
330
1F
100
AcDbEntity
  8
DIMS
100
AcDbDimension
  2
_D_2
 10
41.6076649306
 20
14.4075887915
 30
0.0
 11
41.6076649306
 21
15.6386925533
 31
0.0
 70
   160
  1
                                                              31" (785mm) Max. height of top of unit\P\P^M\P   
 71
     2
 42
-1.0
  3
SLDDIMSTYLE1
100
AcDbAlignedDimension
 13
48.5171137495
 23
32.4075887915
 33
0.0
 14
65.1776894297
 24
14.4075887915
 34
0.0
 50
90.0
100
AcDbRotatedDimension
  0
DIMENSION
  5
39B
330
1F
100
AcDbEntity
  8
DIMS
100
AcDbDimension
  2
_D_3
 10
53.4324680802
 20
34.4508958782
 30
0.0
 11
51.6119069098
 21
34.4508958782
 31
0.0
 70
   160
  1
<>
 71
     2
 42
-1.0
  3
SLDDIMSTYLE0
100
AcDbAlignedDimension
 13
49.0124680802
 23
31.3075887915
 33
0.0
 14
53.4324680802
 24
31.3075887915
 34
0.0
100
AcDbRotatedDimension
  0
DIMENSION
  5
3AA
330
1F
100
AcDbEntity
  8
DIMS
100
AcDbDimension
  2
_D_4
 10
53.4324680802
 20
35.5650691041
 30
0.0
 11
50.1709117427
 21
35.5650691041
 31
0.0
 70
   160
  1
<>
 71
     2
 42
-1.0
  3
SLDDIMSTYLE0
100
AcDbAlignedDimension
 13
48.5112082377
 23
23.7639273718
 33
0.0
 14
53.4324680802
 24
31.3075887915
 34
0.0
100
AcDbRotatedDimension
  0
DIMENSION
  5
3B9
330
1F
100
AcDbEntity
  8
DIMS
100
AcDbDimension
  2
_D_5
 10
57.8524680802
 20
34.4508958782
 30
0.0
 11
55.00946018
 21
34.4508958782
 31
0.0
 70
   160
  1
<>
 71
     2
 42
-1.0
  3
SLDDIMSTYLE0
100
AcDbAlignedDimension
 13
53.4324680802
 23
31.3075887915
 33
0.0
 14
57.8524680802
 24
31.3075887915
 34
0.0
100
AcDbRotatedDimension
  0
DIMENSION
  5
3C8
330
1F
100
AcDbEntity
  8
DIMS
100
AcDbDimension
  2
_D_6
 10
53.4324680802
 20
35.5650691041
 30
0.0
 11
56.45501335
 21
35.5650691041
 31
0.0
 70
   160
  1
<>
 71
     2
 42
-1.0
  3
SLDDIMSTYLE0
100
AcDbAlignedDimension
 13
58.3537279227
 23
23.7639273718
 33
0.0
 14
53.4324680802
 24
31.3075887915
 34
0.0
100
AcDbRotatedDimension
  0
DIMENSION
  5
3D7
330
1F
100
AcDbEntity
  8
DIMS
100
AcDbDimension
  2
_D_7
 10
42.7887672928
 20
32.4075887915
 30
0.0
 11
42.7887672928
 21
33.269793516
 31
0.0
 70
   160
  1
<>
 71
     2
 42
-1.0
  3
SLDDIMSTYLE2
100
AcDbAlignedDimension
 13
49.0124680802
 23
31.3075887915
 33
0.0
 14
48.5171137495
 24
32.4075887915
 34
0.0
 50
90.0
100
AcDbRotatedDimension
  0
DIMENSION
  5
3E8
330
1F
100
AcDbEntity
  8
DIMS
100
AcDbDimension
  2
_D_8
 10
42.7887672928
 20
23.7639273718
 30
0.0
 11
42.7887672928
 21
29.9936408373
 31
0.0
 70
   160
  1
<>
 71
     2
 42
-1.0
  3
SLDDIMSTYLE0
100
AcDbAlignedDimension
 13
49.0124680802
 23
31.3075887915
 33
0.0
 14
48.5112082377
 24
23.7639273718
 34
0.0
 50
90.0
100
AcDbRotatedDimension
  0
MTEXT
  5
3F7
330
1F
100
AcDbEntity
  8
NOTES
100
AcDbMText
 10
51.9871442711
 20
19.6201631324
 30
0.0
 40
0.5
 41
0.0
 71
     1
 72
     1
  1
Back view
  7
SLDTEXTSTYLE1
 73
     1
 44
1.0
  0
MTEXT
  5
3F8
330
1F
100
AcDbEntity
  8
NOTES
100
AcDbMText
 10
60.9539974207
 20
19.6201631324
 30
0.0
 40
0.5
 41
0.0
 71
     1
 72
     1
  1
mounting hole (5)
  7
SLDTEXTSTYLE1
 73
     1
 44
1.0
  0
LEADER
  5
3FA
330
1F
100
AcDbEntity
  8
NOTES
100
AcDbLeader
  3
SLDDIMSTYLE3
 76
     3
 10
58.4878038316
 20
23.7481587111
 30
0.0
 10
60.429508567
 20
19.373443422
 30
0.0
 10
60.929508567
 20
19.373443422
 30
0.0
  0
MTEXT
  5
3FB
330
1F
100
AcDbEntity
  8
NOTES
100
AcDbMText
 10
42.088997
 20
15.0910672546
 30
0.0
 40
0.5
 41
0.0
 71
     1
 72
     1
  1
Floor
  7
SLDTEXTSTYLE1
 73
     1
 44
1.0
  0
ELLIPSE
  5
3FC
330
1F
100
AcDbEntity
  8
0
  6
SLD-Solid
 62
     7
370
    25
100
AcDbEllipse
 10
19.750965704
 20
37.5824135967
 30
0.0
 11
2.58618849254741
 21
0.0
 31
0.0
210
0.0
220
4.029896875527311E-15
230
1.0
 40
0.298273145
 41
4.484178460368928
 42
4.940599500400463
  0
LINE
  5
3FD
330
1F
100
AcDbEntity
  8
0
  6
SLD-Solid
 62
     7
370
    25
100
AcDbLine
 10
26.5399024546
 20
36.9810230215
 30
0.0
 11
26.5399024546
 21
37.8810230215
 31
0.0
  0
LINE
  5
3FE
330
1F
100
AcDbEntity
  8
0
  6
SLD-Solid
 62
     7
370
    25
100
AcDbLine
 10
6.0399024546
 20
37.8810230215
 30
0.0
 11
6.0399024546
 21
36.9810230215
 31
0.0
  0
ARC
  5
3FF
330
1F
100
AcDbEntity
  8
0
  6
SLD-Solid
 62
     7
370
    25
100
AcDbCircle
 10
6.1399024546
 20
36.9810230215
 30
0.0
 40
0.0999999999999996
100
AcDbArc
 50
180.0
 51
270.0
  0
ARC
  5
400
330
1F
100
AcDbEntity
  8
0
  6
SLD-Solid
 62
     7
370
    25
100
AcDbCircle
 10
26.4399024546
 20
36.9810230215
 30
0.0
 40
0.0999999999999979
100
AcDbArc
 50
270.0
 51
0.0
  0
ARC
  5
401
330
1F
100
AcDbEntity
  8
0
  6
SLD-Solid
 62
     7
370
    25
100
AcDbCircle
 10
20.6651025347
 20
37.4800230215
 30
0.0
 40
0.649000000000008
100
AcDbArc
 50
270.0
 51
292.6375150584
  0
ARC
  5
402
330
1F
100
AcDbEntity
  8
0
  6
SLD-Solid
 62
     7
370
    25
100
AcDbCircle
 10
11.9147023746
 20
37.4800230215
 30
0.0
 40
0.649000000000008
100
AcDbArc
 50
247.3624849416
 51
270.0
  0
ARC
  5
403
330
1F
100
AcDbEntity
  8
0
  6
SLD-Solid
 62
     7
370
    25
100
AcDbCircle
 10
9.7372369719
 20
37.4800230215
 30
0.0
 40
0.649000000000008
100
AcDbArc
 50
270.0
 51
292.6375150584
  0
ARC
  5
404
330
1F
100
AcDbEntity
  8
0
  6
SLD-Solid
 62
     7
370
    25
100
AcDbCircle
 10
22.8425679373
 20
37.4800230215
 30
0.0
 40
0.649000000000008
100
AcDbArc
 50
247.3624849416
 51
270.0
  0
ARC
  5
405
330
1F
100
AcDbEntity
  8
0
  6
SLD-Solid
 62
     7
370
    25
100
AcDbCircle
 10
23.8301025347
 20
37.4800230215
 30
0.0
 40
0.649000000000008
100
AcDbArc
 50
270.0
 51
292.6375150584
  0
ARC
  5
406
330
1F
100
AcDbEntity
  8
0
  6
SLD-Solid
 62
     7
370
    25
100
AcDbCircle
 10
8.7497023746
 20
37.4800230215
 30
0.0
 40
0.649000000000008
100
AcDbArc
 50
247.3624849416
 51
270.0
  0
ARC
  5
407
330
1F
100
AcDbEntity
  8
0
  6
SLD-Solid
 62
     7
370
    25
100
AcDbCircle
 10
22.2897023746
 20
37.4800230215
 30
0.0
 40
0.649000000000008
100
AcDbArc
 50
247.3624849416
 51
270.0
  0
ARC
  5
408
330
1F
100
AcDbEntity
  8
0
  6
SLD-Solid
 62
     7
370
    25
100
AcDbCircle
 10
10.2901025347
 20
37.4800230215
 30
0.0
 40
0.649000000000008
100
AcDbArc
 50
270.0
 51
292.6375150584
  0
LINE
  5
409
330
1F
100
AcDbEntity
  8
0
  6
SLD-Solid
 62
     7
370
    25
100
AcDbLine
 10
9.7419798109
 20
36.8310689692
 30
0.0
 11
9.7497023739
 21
36.8310230215
 31
0.0
  0
LINE
  5
40A
330
1F
100
AcDbEntity
  8
0
  6
SLD-Solid
 62
     7
370
    25
100
AcDbLine
 10
6.0399024546
 20
42.7865348325
 30
0.0
 11
6.0399024546
 21
37.8820230215
 31
0.0
  0
LINE
  5
40B
330
1F
100
AcDbEntity
  8
0
  6
SLD-Solid
 62
     7
370
    25
100
AcDbLine
 10
26.5399024546
 20
37.8820230215
 30
0.0
 11
26.5399024546
 21
42.7865348325
 31
0.0
  0
LINE
  5
40C
330
1F
100
AcDbEntity
  8
0
  6
SLD-Solid
 62
     7
370
    25
100
AcDbLine
 10
26.5399024546
 20
37.8810230215
 30
0.0
 11
21.2052567853
 21
37.8810230215
 31
0.0
  0
LINE
  5
40D
330
1F
100
AcDbEntity
  8
0
  6
SLD-Solid
 62
     7
370
    25
100
AcDbLine
 10
21.2052567853
 20
37.8810230215
 30
0.0
 11
11.3745481239
 21
37.8810230215
 31
0.0
  0
LINE
  5
40E
330
1F
100
AcDbEntity
  8
0
  6
SLD-Solid
 62
     7
370
    25
100
AcDbLine
 10
11.3745481239
 20
37.8810230215
 30
0.0
 11
6.0399024546
 21
37.8810230215
 31
0.0
  0
LINE
  5
40F
330
1F
100
AcDbEntity
  8
0
  6
SLD-Solid
 62
     7
370
    25
100
AcDbLine
 10
11.3745481239
 20
36.8810230215
 30
0.0
 11
6.1399024546
 21
36.8810230215
 31
0.0
  0
LINE
  5
410
330
1F
100
AcDbEntity
  8
0
  6
SLD-Solid
 62
     7
370
    25
100
AcDbLine
 10
21.2052567853
 20
36.8810230215
 30
0.0
 11
11.3745481239
 21
36.8810230215
 31
0.0
  0
LINE
  5
411
330
1F
100
AcDbEntity
  8
0
  6
SLD-Solid
 62
     7
370
    25
100
AcDbLine
 10
26.4399024546
 20
36.8810230215
 30
0.0
 11
21.2052567853
 21
36.8810230215
 31
0.0
  0
LINE
  5
412
330
1F
100
AcDbEntity
  8
0
  6
SLD-Solid
 62
     7
370
    25
100
AcDbLine
 10
20.6651025347
 20
36.8310230215
 30
0.0
 11
20.6649024546
 21
36.8310230215
 31
0.0
  0
LINE
  5
413
330
1F
100
AcDbEntity
  8
0
  6
SLD-Solid
 62
     7
370
    25
100
AcDbLine
 10
20.6649024546
 20
36.8310230215
 30
0.0
 11
11.9149024546
 21
36.8310230215
 31
0.0
  0
LINE
  5
414
330
1F
100
AcDbEntity
  8
0
  6
SLD-Solid
 62
     7
370
    25
100
AcDbLine
 10
11.9149024546
 20
36.8310230215
 30
0.0
 11
11.9147023746
 21
36.8310230215
 31
0.0
  0
LINE
  5
415
330
1F
100
AcDbEntity
  8
0
  6
SLD-Solid
 62
     7
370
    25
100
AcDbLine
 10
9.7372369719
 20
36.8310230215
 30
0.0
 11
9.7369120623
 21
36.8310230215
 31
0.0
  0
LINE
  5
416
330
1F
100
AcDbEntity
  8
0
  6
SLD-Solid
 62
     7
370
    25
100
AcDbLine
 10
22.842892847
 20
36.8310230215
 30
0.0
 11
22.8425679373
 21
36.8310230215
 31
0.0
  0
LINE
  5
417
330
1F
100
AcDbEntity
  8
0
  6
SLD-Solid
 62
     7
370
    25
100
AcDbLine
 10
23.8301025347
 20
36.8310230215
 30
0.0
 11
22.842892847
 21
36.8310230215
 31
0.0
  0
LINE
  5
418
330
1F
100
AcDbEntity
  8
0
  6
SLD-Solid
 62
     7
370
    25
100
AcDbLine
 10
9.7369120623
 20
36.8310230215
 30
0.0
 11
8.7497023746
 21
36.8310230215
 31
0.0
  0
LINE
  5
419
330
1F
100
AcDbEntity
  8
0
  6
SLD-Solid
 62
     7
370
    25
100
AcDbLine
 10
22.2900360321
 20
36.8310230215
 30
0.0
 11
22.2897023746
 21
36.8310230215
 31
0.0
  0
LINE
  5
41A
330
1F
100
AcDbEntity
  8
0
  6
SLD-Solid
 62
     7
370
    25
100
AcDbLine
 10
10.2901025347
 20
36.8310230215
 30
0.0
 11
10.2897688772
 21
36.8310230215
 31
0.0
  0
LINE
  5
41B
330
1F
100
AcDbEntity
  8
0
  6
SLD-Solid
 62
     7
370
    25
100
AcDbLine
 10
22.8301025354
 20
36.8310230215
 30
0.0
 11
22.2900360321
 21
36.8310230215
 31
0.0
  0
LINE
  5
41C
330
1F
100
AcDbEntity
  8
0
  6
SLD-Solid
 62
     7
370
    25
100
AcDbLine
 10
10.2897688772
 20
36.8310230215
 30
0.0
 11
9.7497023739
 21
36.8310230215
 31
0.0
  0
LINE
  5
41D
330
1F
100
AcDbEntity
  8
0
  6
SLD-Solid
 62
     7
370
    25
100
AcDbLine
 10
23.9086426121
 20
37.8810230215
 30
0.0
 11
23.9086426121
 21
37.8820230215
 31
0.0
  0
LINE
  5
41E
330
1F
100
AcDbEntity
  8
0
  6
SLD-Solid
 62
     7
370
    25
100
AcDbLine
 10
8.6711622972
 20
37.8810230215
 30
0.0
 11
8.6711622972
 21
37.8820230215
 31
0.0
  0
CIRCLE
  5
41F
330
1F
100
AcDbEntity
  8
0
  6
SLD-Solid
 62
     7
370
    25
100
AcDbCircle
 10
16.2899024546
 20
38.6920466435
 30
0.0
 40
0.4527559055118076
  0
LINE
  5
420
330
1F
100
AcDbEntity
  8
0
  6
SLD-Solid
 62
     7
370
    25
100
AcDbLine
 10
16.227625056
 20
38.4588025865
 30
0.0
 11
16.3521798533
 21
38.4588025865
 31
0.0
  0
LINE
  5
421
330
1F
100
AcDbEntity
  8
0
  6
SLD-Solid
 62
     7
370
    25
100
AcDbLine
 10
16.3521798533
 20
38.9252907006
 30
0.0
 11
16.227625056
 21
38.9252907006
 31
0.0
  0
LINE
  5
422
330
1F
100
AcDbEntity
  8
0
  6
SLD-Solid
 62
     7
370
    25
100
AcDbLine
 10
16.227625056
 20
38.9252907006
 30
0.0
 11
16.227625056
 21
38.4588025865
 31
0.0
  0
LINE
  5
423
330
1F
100
AcDbEntity
  8
0
  6
SLD-Solid
 62
     7
370
    25
100
AcDbLine
 10
16.3521798533
 20
38.4588025865
 30
0.0
 11
16.3521798533
 21
38.9252907006
 31
0.0
  0
LINE
  5
424
330
1F
100
AcDbEntity
  8
0
  6
SLD-Solid
 62
     7
370
    25
100
AcDbLine
 10
11.3745481239
 20
37.8820230215
 30
0.0
 11
6.0399024546
 21
37.8820230215
 31
0.0
  0
LINE
  5
425
330
1F
100
AcDbEntity
  8
0
  6
SLD-Solid
 62
     7
370
    25
100
AcDbLine
 10
11.3745481239
 20
42.7865348325
 30
0.0
 11
6.0399024546
 21
42.7865348325
 31
0.0
  0
LINE
  5
426
330
1F
100
AcDbEntity
  8
0
  6
SLD-Solid
 62
     7
370
    25
100
AcDbLine
 10
21.2052567853
 20
37.8820230215
 30
0.0
 11
11.3745481239
 21
37.8820230215
 31
0.0
  0
LINE
  5
427
330
1F
100
AcDbEntity
  8
0
  6
SLD-Solid
 62
     7
370
    25
100
AcDbLine
 10
21.2052567853
 20
42.7865348325
 30
0.0
 11
11.3745481239
 21
42.7865348325
 31
0.0
  0
LINE
  5
428
330
1F
100
AcDbEntity
  8
0
  6
SLD-Solid
 62
     7
370
    25
100
AcDbLine
 10
26.5399024546
 20
37.8820230215
 30
0.0
 11
21.2052567853
 21
37.8820230215
 31
0.0
  0
LINE
  5
429
330
1F
100
AcDbEntity
  8
0
  6
SLD-Solid
 62
     7
370
    25
100
AcDbLine
 10
26.5399024546
 20
42.7865348325
 30
0.0
 11
21.2052567853
 21
42.7865348325
 31
0.0
  0
LINE
  5
42A
330
1F
100
AcDbEntity
  8
0
  6
SLD-Solid
 62
     7
370
    25
100
AcDbLine
 10
8.8111622972
 20
37.8810230215
 30
0.0
 11
8.8111622972
 21
37.8820230215
 31
0.0
  0
LINE
  5
42B
330
1F
100
AcDbEntity
  8
0
  6
SLD-Solid
 62
     7
370
    25
100
AcDbLine
 10
8.7111622972
 20
37.8810230215
 30
0.0
 11
8.7111622972
 21
37.8820230215
 31
0.0
  0
LINE
  5
42C
330
1F
100
AcDbEntity
  8
0
  6
SLD-Solid
 62
     7
370
    25
100
AcDbLine
 10
23.7686426121
 20
37.8810230215
 30
0.0
 11
23.7686426121
 21
37.8820230215
 31
0.0
  0
LINE
  5
42D
330
1F
100
AcDbEntity
  8
0
  6
SLD-Solid
 62
     7
370
    25
100
AcDbLine
 10
23.8686426121
 20
37.8810230215
 30
0.0
 11
23.8686426121
 21
37.8820230215
 31
0.0
  0
DIMENSION
  5
42E
330
1F
100
AcDbEntity
  8
DIMS
100
AcDbDimension
  2
_D_9
 10
6.0399024546
 20
34.763778927
 30
0.0
 11
16.6235644665
 21
34.763778927
 31
0.0
 70
   160
  1
<>
 71
     2
 42
-1.0
  3
SLDDIMSTYLE0
100
AcDbAlignedDimension
 13
26.5399024546
 23
42.7865348325
 33
0.0
 14
6.0399024546
 24
37.8820230215
 34
0.0
100
AcDbRotatedDimension
  0
MTEXT
  5
43D
330
1F
100
AcDbEntity
  8
NOTES
100
AcDbMText
 10
14.7724573594
 20
36.4244602396
 30
0.0
 40
0.5
 41
0.0
 71
     1
 72
     1
  1
Top view
  7
SLDTEXTSTYLE1
 73
     1
 44
1.0
  0
MTEXT
  5
43E
330
1F
100
AcDbEntity
  8
NOTES
100
AcDbMText
 10
19.4234859554
 20
35.856802667
 30
0.0
 40
0.5
 41
0.0
 71
     1
 72
     1
  1
lock
  7
SLDTEXTSTYLE1
 73
     1
 44
1.0
  0
LEADER
  5
43F
330
1F
100
AcDbEntity
  8
NOTES
100
AcDbLeader
  3
SLDDIMSTYLE3
 76
     3
 10
16.7374571621
 20
38.6236164324
 30
0.0
 10
18.9035715386
 20
35.6142425268
 30
0.0
 10
19.4035715386
 20
35.6142425268
 30
0.0
  0
LINE
  5
440
330
1F
100
AcDbEntity
  8
0
  6
SLD-Solid
 62
     7
370
    25
100
AcDbLine
 10
78.190846793
 20
56.1824779212
 30
0.0
 11
77.025373333
 21
55.509664414
 31
0.0
  0
LINE
  5
441
330
1F
100
AcDbEntity
  8
0
  6
SLD-Solid
 62
     7
370
    25
100
AcDbLine
 10
81.5250076299
 20
47.7152246526
 30
0.0
 11
82.5761990995
 21
48.322064571
 31
0.0
  0
LINE
  5
442
330
1F
100
AcDbEntity
  8
0
  6
SLD-Solid
 62
     7
370
    25
100
AcDbLine
 10
71.1252040442
 20
60.1294394805
 30
0.0
 11
70.0740125747
 21
59.5225995621
 31
0.0
  0
LINE
  5
443
330
1F
100
AcDbEntity
  8
0
  6
SLD-Solid
 62
     7
370
    25
100
AcDbLine
 10
74.5736468716
 20
51.7281598007
 30
0.0
 11
76.1627041102
 21
52.6455030184
 31
0.0
  0
LINE
  5
444
330
1F
100
AcDbEntity
  8
0
  6
SLD-Solid
 62
     7
370
    25
100
AcDbLine
 10
82.8986501197
 20
38.3926567431
 30
0.0
 11
83.5350462228
 21
38.7600403934
 31
0.0
  0
SPLINE
  5
445
330
1F
100
AcDbEntity
  8
0
  6
SLD-Solid
 62
     7
370
    25
100
AcDbSpline
210
0.0
220
0.0
230
1.0
 70
     8
 71
     3
 72
    46
 73
    42
 74
     0
 42
0.00000001
 43
0.00000001
 40
0.0
 40
0.0
 40
0.0
 40
0.0
 40
0.0067117451573969
 40
0.0329478137440851
 40
0.0592215272439036
 40
0.0855468261336019
 40
0.1119324365810367
 40
0.1383816880744771
 40
0.1648930877945628
 40
0.191461410236848
 40
0.2180790053548978
 40
0.2447370594755101
 40
0.2714266300355965
 40
0.2981393762728545
 40
0.324867990441197
 40
0.3516063833110826
 40
0.3783496953540785
 40
0.4050937230167295
 40
0.4318354829607436
 40
0.4585732939805528
 40
0.4853060840545229
 40
0.5120332551573077
 40
0.5387545705299329
 40
0.565470063741805
 40
0.5921799671916979
 40
0.6188846570655365
 40
0.6455846117436349
 40
0.6722803809240206
 40
0.698972563118964
 40
0.7256617895878001
 40
0.7523487131398737
 40
0.7790340005560596
 40
0.8057183276299776
 40
0.8324023760235836
 40
0.8590867743779642
 40
0.8857720389413473
 40
0.9124588592885889
 40
0.9391479248979998
 40
0.9658399225909625
 40
0.9925355325097128
 40
1.0
 40
1.0
 40
1.0
 40
1.0
 10
83.78129244302113
 20
38.9316185795367
 30
0.0
 10
83.79157429223538
 20
38.93956575397363
 30
0.0
 10
83.84204767060595
 20
38.97857826368595
 30
0.0
 10
83.92586467550193
 20
39.05892329397221
 30
0.0
 10
84.03217752977673
 20
39.1727219476803
 30
0.0
 10
84.13055942145132
 20
39.29717156791266
 30
0.0
 10
84.22147590051573
 20
39.43097537938645
 30
0.0
 10
84.30451528527466
 20
39.57413130692839
 30
0.0
 10
84.37951319021653
 20
39.7262469624025
 30
0.0
 10
84.44625738141008
 20
39.8869908204901
 30
0.0
 10
84.50457391065375
 20
40.0559729006685
 30
0.0
 10
84.5543091709337
 20
40.23278154894314
 30
0.0
 10
84.59533785124586
 20
40.41697957677562
 30
0.0
 10
84.62756192975633
 20
40.60811140481455
 30
0.0
 10
84.65091053532014
 20
40.80570648664003
 30
0.0
 10
84.66533862312141
 20
41.00928258266056
 30
0.0
 10
84.67082551359874
 20
41.218346658996
 30
0.0
 10
84.66737373718493
 20
41.43239682342005
 30
0.0
 10
84.65500785886094
 20
41.65092456441456
 30
0.0
 10
84.63377311808583
 20
41.8734167649056
 30
0.0
 10
84.60373437807468
 20
42.09935562241922
 30
0.0
 10
84.5649756280511
 20
42.32821773304597
 30
0.0
 10
84.5175995904873
 20
42.55947468659557
 30
0.0
 10
84.46172740817879
 20
42.792593761381
 30
0.0
 10
84.39749837102661
 20
43.02703872300641
 30
0.0
 10
84.32506965142726
 20
43.26227072080554
 30
0.0
 10
84.24461602529497
 20
43.49774926942709
 30
0.0
 10
84.15632956327184
 20
43.73293330185668
 30
0.0
 10
84.06041927980566
 20
43.96728227551515
 30
0.0
 10
83.95711074047755
 20
44.20025732975528
 30
0.0
 10
83.84664559884881
 20
44.4313224346481
 30
0.0
 10
83.72928115608843
 20
44.65994569469552
 30
0.0
 10
83.60528959102052
 20
44.88560014226975
 30
0.0
 10
83.47495827071918
 20
45.10776629642039
 30
0.0
 10
83.33858626635106
 20
45.32592737967231
 30
0.0
 10
83.19649482081668
 20
45.53959216536124
 30
0.0
 10
83.04898393468352
 20
45.74821728623413
 30
0.0
 10
82.89649016624215
 20
45.95150344263784
 30
0.0
 10
82.73899326610572
 20
46.14829551548843
 30
0.0
 10
82.61684082816312
 20
46.29448170217884
 30
0.0
 10
82.54608268761557
 20
46.37261391268827
 30
0.0
 10
82.53062101774094
 20
46.38968692274936
 30
0.0
  0
LINE
  5
446
330
1F
100
AcDbEntity
  8
0
  6
SLD-Solid
 62
     7
370
    25
100
AcDbLine
 10
81.3583063408
 20
45.908778672
 30
0.0
 11
81.3865906121
 21
45.8924505098
 31
0.0
  0
LINE
  5
447
330
1F
100
AcDbEntity
  8
0
  6
SLD-Solid
 62
     7
370
    25
100
AcDbLine
 10
75.6078841646
 20
50.8064386452
 30
0.0
 11
74.2518658329
 21
51.5892513655
 31
0.0
  0
LINE
  5
448
330
1F
100
AcDbEntity
  8
0
  6
SLD-Solid
 62
     7
370
    25
100
AcDbLine
 10
71.2494733277
 20
52.0131031677
 30
0.0
 11
71.2059558603
 21
51.9879810685
 31
0.0
  0
SPLINE
  5
449
330
1F
100
AcDbEntity
  8
0
  6
SLD-Solid
 62
     7
370
    25
100
AcDbSpline
210
0.0
220
0.0
230
1.0
 70
     8
 71
     3
 72
     9
 73
     5
 74
     0
 42
0.00000001
 43
0.00000001
 40
0.0
 40
0.0
 40
0.0
 40
0.0
 40
0.9844471934647143
 40
1.0
 40
1.0
 40
1.0
 40
1.0
 10
71.89104655254626
 20
52.24002731654608
 30
0.0
 10
71.85549929808515
 20
52.23488781193841
 30
0.0
 10
71.81939044969074
 20
52.22966711077559
 30
0.0
 10
71.78491580752325
 20
52.22051797348196
 30
0.0
 10
71.78437963008324
 20
52.22037567871967
 30
0.0
  0
LINE
  5
44A
330
1F
100
AcDbEntity
  8
0
  6
SLD-Solid
 62
     7
370
    25
100
AcDbLine
 10
81.6562635052
 20
46.8272573583
 30
0.0
 11
85.1242770652
 21
48.8292989718
 31
0.0
  0
SPLINE
  5
44B
330
1F
100
AcDbEntity
  8
0
  6
SLD-Solid
 62
     7
370
    25
100
AcDbSpline
210
0.0
220
0.0
230
1.0
 70
     8
 71
     3
 72
    27
 73
    23
 74
     0
 42
0.00000001
 43
0.00000001
 40
0.0
 40
0.0
 40
0.0
 40
0.0
 40
0.0351091396090674
 40
0.0827111575271863
 40
0.1306809997129207
 40
0.1803818769001416
 40
0.2325172359709527
 40
0.2867996119721352
 40
0.3421960916056592
 40
0.3976346983053505
 40
0.4528480653493867
 40
0.5079161479207942
 40
0.5630386068517521
 40
0.6184011958455172
 40
0.6742413577832002
 40
0.7307970546210073
 40
0.7881473624837274
 40
0.8394963236989845
 40
0.8885155491904605
 40
0.935485243692633
 40
0.9861316072897833
 40
1.0
 40
1.0
 40
1.0
 40
1.0
 10
76.53769893439669
 20
58.25273916421816
 30
0.0
 10
76.53730460365243
 20
58.26542666568029
 30
0.0
 10
76.536375627532
 20
58.2953162597787
 30
0.0
 10
76.52070791833263
 20
58.34054149426893
 30
0.0
 10
76.49432041834051
 20
58.38650025635924
 30
0.0
 10
76.45731088409799
 20
58.42829708154991
 30
0.0
 10
76.41036639058088
 20
58.46558220752076
 30
0.0
 10
76.35385029783463
 20
58.49746177339124
 30
0.0
 10
76.28931765636244
 20
58.52280905796479
 30
0.0
 10
76.21898223835605
 20
58.54077404124514
 30
0.0
 10
76.14516217219756
 20
58.55094407243557
 30
0.0
 10
76.06985935486
 20
58.55319139577303
 30
0.0
 10
75.99494149202063
 20
58.54749249233996
 30
0.0
 10
75.9221967170046
 20
58.53387119042206
 30
0.0
 10
75.8533337505231
 20
58.51235005174157
 30
0.0
 10
75.79003719452167
 20
58.48288981878993
 30
0.0
 10
75.73619496936787
 20
58.44679003762558
 30
0.0
 10
75.69340505310485
 20
58.40559499642104
 30
0.0
 10
75.66188661118692
 20
58.36130325602411
 30
0.0
 10
75.64142531701896
 20
58.31231533260738
 30
0.0
 10
75.6321453259472
 20
58.27225722977443
 30
0.0
 10
75.6343531855616
 20
58.24907962853292
 30
0.0
 10
75.63482779735484
 20
58.24409726334245
 30
0.0
  0
LINE
  5
44C
330
1F
100
AcDbEntity
  8
0
  6
SLD-Solid
 62
     7
370
    25
100
AcDbLine
 10
76.5390061592
 20
58.1403995793
 30
0.0
 11
76.5390061592
 21
58.2484144268
 31
0.0
  0
LINE
  5
44D
330
1F
100
AcDbEntity
  8
0
  6
SLD-Solid
 62
     7
370
    25
100
AcDbLine
 10
75.6334943482
 20
58.2484144268
 30
0.0
 11
75.6334943482
 21
58.1403995793
 31
0.0
  0
LINE
  5
44E
330
1F
100
AcDbEntity
  8
0
  6
SLD-Solid
 62
     7
370
    25
100
AcDbLine
 10
82.1850724213
 20
47.4460461768
 30
0.0
 11
80.8431744207
 21
46.6713849502
 31
0.0
  0
LINE
  5
44F
330
1F
100
AcDbEntity
  8
0
  6
SLD-Solid
 62
     7
370
    25
100
AcDbLine
 10
72.8387041701
 20
62.0823617461
 30
0.0
 11
69.3706906101
 21
60.0803201326
 31
0.0
  0
LWPOLYLINE
  5
450
330
1F
100
AcDbEntity
  8
0
  6
SLD-Solid
 62
     7
370
    25
100
AcDbPolyline
 90
       66
 70
   128
 43
0.0
 10
80.3358506533
 20
51.0001384495
 10
80.3308991041
 20
51.1212082509
 10
80.316090688
 20
51.2468645932
 10
80.2915636672
 20
51.3759342569
 10
80.2575470437
 20
51.5072121533
 10
80.2143584217
 20
51.6394725761
 10
80.1624010417
 20
51.7714806454
 10
80.1021600158
 20
51.9020038373
 10
80.0341977981
 20
52.029823492
 10
79.9591489336
 20
52.1537461918
 10
79.8777141333
 20
52.2726149039
 10
79.790653732
 20
52.3853197831
 10
79.6987805893
 20
52.4908085344
 10
79.6029524998
 20
52.5880962376
 10
79.5040641847
 20
52.6762745437
 10
79.4030389375
 20
52.7545201557
 10
79.3008200036
 20
52.8221025153
 10
79.1983617739
 20
52.8783906243
 10
79.0966208731
 20
52.9228589356
 10
78.9965472286
 20
52.9550922608
 10
78.8990752011
 20
52.9747896459
 10
78.8051148606
 20
52.9817671818
 10
78.7155434895
 20
52.975959721
 10
78.6311973916
 20
52.9574214863
 10
78.5528640837
 20
52.9263255642
 10
78.4812749427
 20
52.8829622889
 10
78.4170983773
 20
52.8277365316
 10
78.3609335865
 20
52.7611639204
 10
78.3133049661
 20
52.6838660258
 10
78.2746572116
 20
52.5965645574
 10
78.2453511666
 20
52.5000746254
 10
78.2256604539
 20
52.3952971305
 10
78.2157689202
 20
52.2832103518
 10
78.2157689202
 20
52.1648608134
 10
78.2256604539
 20
52.041353513
 10
78.2453511666
 20
51.913841605
 10
78.2746572116
 20
51.7835156338
 10
78.3133049661
 20
51.6515924178
 10
78.3609335865
 20
51.5193036885
 10
78.4170983773
 20
51.3878845903
 10
78.4812749427
 20
51.2585621477
 10
78.5528640837
 20
51.1325438096
 10
78.6311973916
 20
51.0110061752
 10
78.7155434895
 20
50.8950840088
 10
78.8051148606
 20
50.7858596443
 10
78.8990752011
 20
50.6843528801
 10
78.9965472286
 20
50.5915114577
 10
79.0966208731
 20
50.5082022124
 10
79.1983617739
 20
50.4352029801
 10
79.3008200036
 20
50.3731953349
 10
79.4030389375
 20
50.3227582256
 10
79.5040641847
 20
50.2843625699
 10
79.6029524998
 20
50.2583668577
 10
79.6987805893
 20
50.2450138039
 10
79.790653732
 20
50.2444280824
 10
79.8777141333
 20
50.2566151618
 10
79.9591489336
 20
50.2814612549
 10
80.0341977981
 20
50.3187343801
 10
80.1021600158
 20
50.3680865285
 10
80.1624010417
 20
50.4290569123
 10
80.2143584217
 20
50.5010762675
 10
80.2575470437
 20
50.5834721688
 10
80.2915636672
 20
50.6754753077
 10
80.316090688
 20
50.7762266759
 10
80.3308991041
 20
50.8847855849
 10
80.3358506533
 20
51.0001384495
  0
LWPOLYLINE
  5
451
330
1F
100
AcDbEntity
  8
0
  6
SLD-Solid
 62
     7
370
    25
100
AcDbPolyline
 90
      114
 70
   128
 43
0.0
 10
82.4571709968
 20
49.7755262817
 10
82.4522533371
 20
49.9825709633
 10
82.4375155582
 20
50.1946534907
 10
82.4130032137
 20
50.411118329
 10
82.3787920698
 20
50.6312963977
 10
82.3349878713
 20
50.8545071391
 10
82.2817260144
 20
51.0800606215
 10
82.2191711285
 20
51.3072596721
 10
82.1475165671
 20
51.5354020316
 10
82.0669838104
 20
51.7637825251
 10
81.9778217805
 20
51.9916952415
 10
81.8803060722
 20
52.2184357157
 10
81.7747381008
 20
52.4433031058
 10
81.661444171
 20
52.6656023598
 10
81.5407744678
 20
52.8846463632
 10
81.4131019743
 20
53.0997580637
 10
81.278821319
 20
53.3102725634
 10
81.1383475555
 20
53.5155391738
 10
80.9921148803
 20
53.7149234279
 10
80.8405752901
 20
53.9078090401
 10
80.6841971852
 20
54.0935998122
 10
80.5234639214
 20
54.2717214755
 10
80.3588723159
 20
54.4416234662
 10
80.1909311119
 20
54.6027806269
 10
80.0201594061
 20
54.7546948301
 10
79.8470850441
 20
54.8968965178
 10
79.6722429888
 20
55.0289461525
 10
79.4961736669
 20
55.1504355766
 10
79.3194212986
 20
55.2609892731
 10
79.1425322154
 20
55.3602655269
 10
78.9660531713
 20
55.4479574808
 10
78.790529653
 20
55.523794084
 10
78.6165041935
 20
55.5875409298
 10
78.4445146955
 20
55.6390009806
 10
78.2750927688
 20
55.678015176
 10
78.1087620868
 20
55.7044629257
 10
77.9460367681
 20
55.7182624809
 10
77.7874197874
 20
55.7193711882
 10
77.6334014207
 20
55.7077856206
 10
77.4844577298
 20
55.6835415883
 10
77.3410490913
 20
55.6467140284
 10
77.2036187729
 20
55.5974167726
 10
77.072591564
 20
55.535802196
 10
76.9483724622
 20
55.4620607457
 10
76.8313454214
 20
55.3764203524
 10
76.7218721657
 20
55.2791457254
 10
76.6202910706
 20
55.1705375353
 10
76.5269161174
 20
55.0509314835
 10
76.4420359228
 20
54.9206972656
 10
76.3659128466
 20
54.7802374282
 10
76.2987821808
 20
54.6299861244
 10
76.2408514225
 20
54.4704077725
 10
76.1922996323
 20
54.30199562
 10
76.1532768811
 20
54.1252702193
 10
76.1239037859
 20
53.9407778183
 10
76.1042711373
 20
53.7490886726
 10
76.0944396187
 20
53.5507952823
 10
76.0944396187
 20
53.346510561
 10
76.1042711373
 20
53.1368659409
 10
76.1239037859
 20
52.9225094216
 10
76.1532768811
 20
52.7041035668
 10
76.1922996323
 20
52.4823234565
 10
76.2408514225
 20
52.2578546003
 10
76.2987821808
 20
52.0313908185
 10
76.3659128466
 20
51.8036320978
 10
76.4420359228
 20
51.5752824273
 10
76.5269161174
 20
51.3470476228
 10
76.6202910706
 20
51.1196331448
 10
76.7218721657
 20
50.8937419187
 10
76.8313454214
 20
50.6700721611
 10
76.9483724622
 20
50.4493152225
 10
77.072591564
 20
50.23215345
 10
77.2036187729
 20
50.0192580781
 10
77.3410490913
 20
49.8112871543
 10
77.4844577298
 20
49.6088835047
 10
77.6334014207
 20
49.4126727474
 10
77.7874197874
 20
49.2232613586
 10
77.9460367681
 20
49.0412347981
 10
78.1087620868
 20
48.8671556995
 10
78.2750927688
 20
48.7015621315
 10
78.4445146955
 20
48.544965934
 10
78.6165041935
 20
48.3978511372
 10
78.790529653
 20
48.2606724643
 10
78.9660531713
 20
48.1338539268
 10
79.1425322154
 20
48.0177875135
 10
79.3194212986
 20
47.9128319791
 10
79.4961736669
 20
47.8193117351
 10
79.6722429888
 20
47.7375158471
 10
79.8470850441
 20
47.6676971417
 10
80.0201594061
 20
47.6100714244
 10
80.1909311119
 20
47.564816813
 10
80.3588723159
 20
47.5320731869
 10
80.5234639214
 20
47.5119417548
 10
80.6841971852
 20
47.5044847418
 10
80.8405752901
 20
47.5097251971
 10
80.9921148803
 20
47.5276469228
 10
81.1383475555
 20
47.5581945238
 10
81.278821319
 20
47.6012735792
 10
81.4131019743
 20
47.6567509342
 10
81.5407744678
 20
47.7244551114
 10
81.661444171
 20
47.8041768411
 10
81.7747381008
 20
47.895669708
 10
81.8803060722
 20
47.9986509129
 10
81.9778217805
 20
48.1128021467
 10
82.0669838104
 20
48.2377705746
 10
82.1475165671
 20
48.3731699264
 10
82.2191711285
 20
48.5185816903
 10
82.2817260144
 20
48.6735564069
 10
82.3349878713
 20
48.8376150583
 10
82.3787920698
 20
49.0102505486
 10
82.4130032137
 20
49.1909292714
 10
82.4375155582
 20
49.3790927591
 10
82.4522533371
 20
49.5741594092
 10
82.4571709968
 20
49.7755262817
  0
LWPOLYLINE
  5
452
330
1F
100
AcDbEntity
  8
0
  6
SLD-Solid
 62
     7
370
    25
100
AcDbPolyline
 90
      114
 70
   128
 43
0.0
 10
75.5058102385
 20
53.7884614298
 10
75.5008925787
 20
53.9955061114
 10
75.4861547998
 20
54.2075886388
 10
75.4616424553
 20
54.4240534771
 10
75.4274313115
 20
54.6442315458
 10
75.383627113
 20
54.8674422872
 10
75.3303652561
 20
55.0929957696
 10
75.2678103702
 20
55.3201948202
 10
75.1961558088
 20
55.5483371797
 10
75.1156230521
 20
55.7767176731
 10
75.0264610222
 20
56.0046303895
 10
74.9289453138
 20
56.2313708637
 10
74.8233773425
 20
56.4562382539
 10
74.7100834127
 20
56.6785375079
 10
74.5894137095
 20
56.8975815113
 10
74.461741216
 20
57.1126932118
 10
74.3274605606
 20
57.3232077114
 10
74.1869867971
 20
57.5284743219
 10
74.0407541219
 20
57.7278585759
 10
73.8892145318
 20
57.9207441882
 10
73.7328364269
 20
58.1065349602
 10
73.572103163
 20
58.2846566236
 10
73.4075115575
 20
58.4545586142
 10
73.2395703535
 20
58.615715775
 10
73.0687986478
 20
58.7676299782
 10
72.8957242857
 20
58.9098316658
 10
72.7208822304
 20
59.0418813006
 10
72.5448129085
 20
59.1633707247
 10
72.3680605402
 20
59.2739244212
 10
72.1911714571
 20
59.373200675
 10
72.014692413
 20
59.4608926289
 10
71.8391688946
 20
59.5367292321
 10
71.6651434351
 20
59.6004760779
 10
71.4931539371
 20
59.6519361286
 10
71.3237320104
 20
59.6909503241
 10
71.1574013285
 20
59.7173980737
 10
70.9946760098
 20
59.731197629
 10
70.8360590291
 20
59.7323063363
 10
70.6820406623
 20
59.7207207686
 10
70.5330969715
 20
59.6964767364
 10
70.3896883329
 20
59.6596491764
 10
70.2522580146
 20
59.6103519207
 10
70.1212308057
 20
59.5487373441
 10
69.9970117038
 20
59.4749958938
 10
69.8799846631
 20
59.3893555004
 10
69.7705114074
 20
59.2920808735
 10
69.6689303123
 20
59.1834726833
 10
69.5755553591
 20
59.0638666316
 10
69.4906751645
 20
58.9336324137
 10
69.4145520882
 20
58.7931725763
 10
69.3474214224
 20
58.6429212725
 10
69.2894906641
 20
58.4833429206
 10
69.240938874
 20
58.3149307681
 10
69.2019161227
 20
58.1382053674
 10
69.1725430275
 20
57.9537129664
 10
69.1529103789
 20
57.7620238207
 10
69.1430788603
 20
57.5637304304
 10
69.1430788603
 20
57.359445709
 10
69.1529103789
 20
57.1498010889
 10
69.1725430275
 20
56.9354445696
 10
69.2019161227
 20
56.7170387148
 10
69.240938874
 20
56.4952586045
 10
69.2894906641
 20
56.2707897483
 10
69.3474214224
 20
56.0443259666
 10
69.4145520882
 20
55.8165672459
 10
69.4906751645
 20
55.5882175754
 10
69.5755553591
 20
55.3599827708
 10
69.6689303123
 20
55.1325682929
 10
69.7705114074
 20
54.9066770668
 10
69.8799846631
 20
54.6830073092
 10
69.9970117038
 20
54.4622503706
 10
70.1212308057
 20
54.2450885981
 10
70.2522580146
 20
54.0321932262
 10
70.3896883329
 20
53.8242223024
 10
70.5330969715
 20
53.6218186527
 10
70.6820406623
 20
53.4256078954
 10
70.8360590291
 20
53.2361965067
 10
70.9946760098
 20
53.0541699462
 10
71.1574013285
 20
52.8800908476
 10
71.3237320104
 20
52.7144972795
 10
71.4931539371
 20
52.5579010821
 10
71.6651434351
 20
52.4107862853
 10
71.8391688946
 20
52.2736076124
 10
72.014692413
 20
52.1467890749
 10
72.1911714571
 20
52.0307226616
 10
72.3680605402
 20
51.9257671272
 10
72.5448129085
 20
51.8322468831
 10
72.7208822304
 20
51.7504509952
 10
72.8957242857
 20
51.6806322898
 10
73.0687986478
 20
51.6230065724
 10
73.2395703535
 20
51.577751961
 10
73.4075115575
 20
51.545008335
 10
73.572103163
 20
51.5248769029
 10
73.7328364269
 20
51.5174198899
 10
73.8892145318
 20
51.5226603452
 10
74.0407541219
 20
51.5405820709
 10
74.1869867971
 20
51.5711296719
 10
74.3274605606
 20
51.6142087273
 10
74.461741216
 20
51.6696860823
 10
74.5894137095
 20
51.7373902595
 10
74.7100834127
 20
51.8171119892
 10
74.8233773425
 20
51.9086048561
 10
74.9289453138
 20
52.0115860609
 10
75.0264610222
 20
52.1257372948
 10
75.1156230521
 20
52.2507057227
 10
75.1961558088
 20
52.3861050744
 10
75.2678103702
 20
52.5315168383
 10
75.3303652561
 20
52.686491555
 10
75.383627113
 20
52.8505502064
 10
75.4274313115
 20
53.0231856967
 10
75.4616424553
 20
53.2038644195
 10
75.4861547998
 20
53.3920279072
 10
75.5008925787
 20
53.5870945573
 10
75.5058102385
 20
53.7884614298
  0
LWPOLYLINE
  5
453
330
1F
100
AcDbEntity
  8
0
  6
SLD-Solid
 62
     7
370
    25
100
AcDbPolyline
 90
       66
 70
   128
 43
0.0
 10
73.3844898949
 20
55.0130735975
 10
73.3795383458
 20
55.134143399
 10
73.3647299297
 20
55.2597997413
 10
73.3402029088
 20
55.388869405
 10
73.3061862854
 20
55.5201473014
 10
73.2629976634
 20
55.6524077242
 10
73.2110402834
 20
55.7844157934
 10
73.1507992574
 20
55.9149389854
 10
73.0828370397
 20
56.0427586401
 10
73.0077881753
 20
56.1666813399
 10
72.926353375
 20
56.285550052
 10
72.8392929737
 20
56.3982549312
 10
72.7474198309
 20
56.5037436824
 10
72.6515917415
 20
56.6010313857
 10
72.5527034263
 20
56.6892096918
 10
72.4516781791
 20
56.7674553038
 10
72.3494592453
 20
56.8350376634
 10
72.2470010155
 20
56.8913257723
 10
72.1452601147
 20
56.9357940837
 10
72.0451864702
 20
56.9680274089
 10
71.9477144427
 20
56.987724794
 10
71.8537541022
 20
56.9947023299
 10
71.7641827312
 20
56.9888948691
 10
71.6798366333
 20
56.9703566344
 10
71.6015033254
 20
56.9392607123
 10
71.5299141844
 20
56.895897437
 10
71.4657376189
 20
56.8406716797
 10
71.4095728282
 20
56.7740990685
 10
71.3619442078
 20
56.6968011739
 10
71.3232964532
 20
56.6094997054
 10
71.2939904083
 20
56.5130097735
 10
71.2742996955
 20
56.4082322786
 10
71.2644081618
 20
56.2961454999
 10
71.2644081618
 20
56.1777959614
 10
71.2742996955
 20
56.054288661
 10
71.2939904083
 20
55.9267767531
 10
71.3232964532
 20
55.7964507818
 10
71.3619442078
 20
55.6645275659
 10
71.4095728282
 20
55.5322388366
 10
71.4657376189
 20
55.4008197383
 10
71.5299141844
 20
55.2714972957
 10
71.6015033254
 20
55.1454789576
 10
71.6798366333
 20
55.0239413233
 10
71.7641827312
 20
54.9080191568
 10
71.8537541022
 20
54.7987947923
 10
71.9477144427
 20
54.6972880282
 10
72.0451864702
 20
54.6044466058
 10
72.1452601147
 20
54.5211373605
 10
72.2470010155
 20
54.4481381281
 10
72.3494592453
 20
54.386130483
 10
72.4516781791
 20
54.3356933737
 10
72.5527034263
 20
54.297297718
 10
72.6515917415
 20
54.2713020058
 10
72.7474198309
 20
54.257948952
 10
72.8392929737
 20
54.2573632304
 10
72.926353375
 20
54.2695503099
 10
73.0077881753
 20
54.2943964029
 10
73.0828370397
 20
54.3316695282
 10
73.1507992574
 20
54.3810216766
 10
73.2110402834
 20
54.4419920604
 10
73.2629976634
 20
54.5140114156
 10
73.3061862854
 20
54.5964073168
 10
73.3402029088
 20
54.6884104558
 10
73.3647299297
 20
54.789161824
 10
73.3795383458
 20
54.897720733
 10
73.3844898949
 20
55.0130735975
  0
ARC
  5
454
330
1F
100
AcDbEntity
  8
0
  6
SLD-Solid
 62
     7
370
    25
100
AcDbCircle
 10
82.6365136815
 20
40.3149470959
 30
0.0
 40
1.795855111394541
100
AcDbArc
 50
300.0222902295
 51
309.2654943279
  0
LWPOLYLINE
  5
455
330
1F
100
AcDbEntity
  8
0
  6
SLD-Solid
 62
     7
370
    25
100
AcDbPolyline
 90
       52
 70
   128
 43
0.0
 10
82.1148422304
 20
45.69973833
 10
82.280117926
 20
45.4877269895
 10
82.4399930998
 20
45.269190951
 10
82.5940462835
 20
45.0447063268
 10
82.7418713566
 20
44.814864911
 10
82.8830786175
 20
44.5802726195
 10
83.0172958107
 20
44.3415478928
 10
83.1441691083
 20
44.0993200652
 10
83.2633640423
 20
43.8542277062
 10
83.3745663871
 20
43.6069169367
 10
83.477482987
 20
43.3580397261
 10
83.5718425297
 20
43.1082521731
 10
83.6573962615
 20
42.8582127763
 10
83.7339186424
 20
42.6085806983
 10
83.8012079416
 20
42.3600140278
 10
83.8590867687
 20
42.1131680451
 10
83.9074025415
 20
41.8686934939
 10
83.9460278883
 20
41.6272348666
 10
83.9748609835
 20
41.389428705
 10
83.9938258165
 20
41.1559019218
 10
84.0028723914
 20
40.9272701484
 10
84.0019768593
 20
40.704136112
 10
83.9911415811
 20
40.4870880462
 10
83.9703951211
 20
40.2766981407
 10
83.9397921718
 20
40.0735210326
 10
83.8994134098
 20
39.8780923446
 10
83.8493652831
 20
39.6909272725
 10
83.7897797301
 20
39.5125192274
 10
83.7208138325
 20
39.3433385349
 10
83.6426494005
 20
39.1838311948
 10
83.555492494
 20
39.0344177061
 10
83.4595728789
 20
38.8954919578
 10
83.3551434219
 20
38.7674201907
 10
83.2424794236
 20
38.6505400321
 10
83.1218778927
 20
38.5451596056
 10
82.9936567632
 20
38.4515567186
 10
82.8581540561
 20
38.3699781305
 10
82.7157269884
 20
38.3006389014
 10
82.5667510311
 20
38.2437218259
 10
82.41161892
 20
38.1993769507
 10
82.2507396197
 20
38.1677211794
 10
82.0845372457
 20
38.148837964
 10
81.9134499467
 20
38.1427770851
 10
81.7379287488
 20
38.1495545206
 10
81.5584363672
 20
38.1691524036
 10
81.3754459859
 20
38.2015190694
 10
81.1894400105
 20
38.2465691919
 10
81.0009087965
 20
38.3041840085
 10
80.8103493564
 20
38.3742116329
 10
80.6182640496
 20
38.4564674559
 10
80.425159258
 20
38.5507346319
 10
80.2315440514
 20
38.6567646503
  0
LINE
  5
456
330
1F
100
AcDbEntity
  8
0
  6
SLD-Solid
 62
     7
370
    25
100
AcDbLine
 10
82.1272938665
 20
45.7069265065
 30
0.0
 11
82.1148422304
 21
45.69973833
 31
0.0
  0
ARC
  5
457
330
1F
100
AcDbEntity
  8
0
  6
SLD-Solid
 62
     7
370
    25
100
AcDbCircle
 10
75.3939710059
 20
40.2885571973
 30
0.0
 40
8.642705751990828
100
AcDbArc
 50
38.5239003338
 51
38.8239661574
  0
LINE
  5
458
330
1F
100
AcDbEntity
  8
0
  6
SLD-Solid
 62
     7
370
    25
100
AcDbLine
 10
82.5306210177
 20
45.888096676
 30
0.0
 11
82.1555781377
 21
45.6715890298
 31
0.0
  0
LWPOLYLINE
  5
459
330
1F
100
AcDbEntity
  8
0
  6
SLD-Solid
 62
     7
370
    25
100
AcDbPolyline
 90
       52
 70
   128
 43
0.0
 10
82.1148422304
 20
45.6619950568
 10
82.2781723792
 20
45.4513586036
 10
82.4361250761
 20
45.2343147051
 10
82.5882853051
 20
45.0114336373
 10
82.7342532701
 20
44.7833010132
 10
82.8736454447
 20
44.5505162444
 10
83.0060955804
 20
44.3136909653
 10
83.1312556687
 20
44.0734474272
 10
83.2487968552
 20
43.8304168623
 10
83.3584103041
 20
43.5852378259
 10
83.4598080097
 20
43.3385545183
 10
83.5527235525
 20
43.0910150921
 10
83.6369127998
 20
42.8432699494
 10
83.7121545471
 20
42.5959700329
 10
83.778251099
 20
42.3497651154
 10
83.8350287889
 20
42.1053020927
 10
83.8823384352
 20
41.8632232836
 10
83.9200557332
 20
41.6241647427
 10
83.948081582
 20
41.3887545888
 10
83.9663423444
 20
41.1576113548
 10
83.974790041
 20
40.9313423623
 10
83.9734024756
 20
40.710542126
 10
83.962183294
 20
40.4957907917
 10
83.9411619744
 20
40.2876526117
 10
83.9103937494
 20
40.0866744627
 10
83.8699594618
 20
39.8933844084
 10
83.8199653513
 20
39.7082903124
 10
83.7605427758
 20
39.5318785037
 10
83.6918478664
 20
39.3646124988
 10
83.6140611168
 20
39.2069317839
 10
83.5273869092
 20
39.0592506602
 10
83.4320529775
 20
38.9219571551
 10
83.3283098084
 20
38.7954120032
 10
83.2164299841
 20
38.6799476978
 10
83.0967074651
 20
38.5758676178
 10
82.9694568188
 20
38.4834452303
 10
82.8350123921
 20
38.4029233724
 10
82.6937274337
 20
38.3345136125
 10
82.5459731653
 20
38.2783956954
 10
82.3921378067
 20
38.234717069
 10
82.2326255555
 20
38.2035924975
 10
82.0678555251
 20
38.1851037599
 10
81.8982606437
 20
38.1792994346
 10
81.7242865164
 20
38.1861947725
 10
81.5463902549
 20
38.2057716561
 10
81.3650392761
 20
38.2379786478
 10
81.180710074
 20
38.2827311248
 10
80.9938869678
 20
38.3399115013
 10
80.8050608294
 20
38.4093695377
 10
80.6147277936
 20
38.4909227352
 10
80.4233879544
 20
38.5843568153
 10
80.2315440514
 20
38.6894262828
  0
LINE
  5
45A
330
1F
100
AcDbEntity
  8
0
  6
SLD-Solid
 62
     7
370
    25
100
AcDbLine
 10
83.0374532479
 20
38.6042525395
 30
0.0
 11
83.1776618217
 21
38.6442286716
 31
0.0
  0
LINE
  5
45B
330
1F
100
AcDbEntity
  8
0
  6
SLD-Solid
 62
     7
370
    25
100
AcDbLine
 10
80.2315440514
 20
38.6894262828
 30
0.0
 11
73.280183293
 21
42.7023614308
 31
0.0
  0
LINE
  5
45C
330
1F
100
AcDbEntity
  8
0
  6
SLD-Solid
 62
     7
370
    25
100
AcDbLine
 10
82.1148422304
 20
45.69973833
 30
0.0
 11
82.1148422304
 21
45.6619950568
 31
0.0
  0
LINE
  5
45D
330
1F
100
AcDbEntity
  8
0
  6
SLD-Solid
 62
     7
370
    25
100
AcDbLine
 10
80.2315440514
 20
38.6567646503
 30
0.0
 11
73.280183293
 21
42.6696997984
 31
0.0
  0
LWPOLYLINE
  5
45E
330
1F
100
AcDbEntity
  8
0
  6
SLD-Solid
 62
     7
370
    25
100
AcDbPolyline
 90
       45
 70
   128
 43
0.0
 10
73.280183293
 20
42.6696997984
 10
73.0865680864
 20
42.7872131393
 10
72.8934632948
 20
42.91590001
 10
72.701377988
 20
43.0554211615
 10
72.5108185479
 20
43.2054087835
 10
72.3222873339
 20
43.3654674734
 10
72.1362813585
 20
43.5351752787
 10
71.9532909772
 20
43.71408481
 10
71.7737985956
 20
43.9017244197
 10
71.5982773977
 20
44.0975994457
 10
71.4271900987
 20
44.3011935155
 10
71.2609877247
 20
44.5119699072
 10
71.1001084244
 20
44.729372965
 10
70.9449763133
 20
44.9528295631
 10
70.796000356
 20
45.1817506176
 10
70.6535732883
 20
45.4155326389
 10
70.5180705812
 20
45.6535593226
 10
70.3898494517
 20
45.8952031745
 10
70.2692479208
 20
46.1398271647
 10
70.1565839225
 20
46.3867864069
 10
70.0521544655
 20
46.6354298586
 10
69.9562348504
 20
46.8851020372
 10
69.8690779439
 20
47.1351447483
 10
69.7909135119
 20
47.3848988206
 10
69.7219476142
 20
47.6337058436
 10
69.6623620613
 20
47.8809099038
 10
69.6123139346
 20
48.125859313
 10
69.5719351726
 20
48.3679083273
 10
69.5413322233
 20
48.6064188484
 10
69.5205857633
 20
48.8407621068
 10
69.5097504851
 20
49.0703203186
 10
69.508854953
 20
49.2944883143
 10
69.5179015279
 20
49.5126751347
 10
69.5368663609
 20
49.7243055878
 10
69.5656994561
 20
49.9288217663
 10
69.6043248029
 20
50.1256845174
 10
69.6526405757
 20
50.3143748647
 10
69.7105194028
 20
50.4943953762
 10
69.777808702
 20
50.6652714754
 10
69.8543310829
 20
50.826552693
 10
69.9398848147
 20
50.9778138537
 10
70.0342443574
 20
51.1186561976
 10
70.1371609573
 20
51.2487084312
 10
70.2483633021
 20
51.3676277063
 10
70.2906906495
 20
51.4079493436
  0
LINE
  5
45F
330
1F
100
AcDbEntity
  8
0
  6
SLD-Solid
 62
     7
370
    25
100
AcDbLine
 10
71.3829422621
 20
51.8858089936
 30
0.0
 11
71.396885114
 21
51.8870832719
 31
0.0
  0
LINE
  5
460
330
1F
100
AcDbEntity
  8
0
  6
SLD-Solid
 62
     7
370
    25
100
AcDbLine
 10
71.396885114
 20
51.8777599565
 30
0.0
 11
71.396885114
 21
51.8870832719
 31
0.0
  0
LWPOLYLINE
  5
461
330
1F
100
AcDbEntity
  8
0
  6
SLD-Solid
 62
     7
370
    25
100
AcDbPolyline
 90
       45
 70
   128
 43
0.0
 10
73.280183293
 20
42.7023614308
 10
73.08833939
 20
42.818790219
 10
72.8969995508
 20
42.946272415
 10
72.706666515
 20
43.0844730631
 10
72.5178403766
 20
43.2330290455
 10
72.3310172704
 20
43.3915500361
 10
72.1466880683
 20
43.5596195258
 10
71.9653370895
 20
43.7367959173
 10
71.787440828
 20
43.9226136853
 10
71.6134667007
 20
44.1165845992
 10
71.4438718193
 20
44.3181990067
 10
71.2791017889
 20
44.526927172
 10
71.1195895377
 20
44.7422206686
 10
70.9657541791
 20
44.9635138194
 10
70.8179999107
 20
45.1902251837
 10
70.6767149523
 20
45.4217590843
 10
70.5422705256
 20
45.6575071732
 10
70.4150198793
 20
45.8968500296
 10
70.2952973603
 20
46.1391587877
 10
70.183417536
 20
46.3837967888
 10
70.0796743669
 20
46.6301212541
 10
69.9843404351
 20
46.8774849739
 10
69.8976662276
 20
47.1252380076
 10
69.819879478
 20
47.3727293919
 10
69.7511845686
 20
47.6193088509
 10
69.6917619931
 20
47.8643285049
 10
69.6417678826
 20
48.1071445722
 10
69.601333595
 20
48.3471190613
 10
69.57056537
 20
48.5836214467
 10
69.5495440504
 20
48.8160303258
 10
69.5383248688
 20
49.0437350515
 10
69.5369373034
 20
49.2661373366
 10
69.545385
 20
49.4826528263
 10
69.5636457624
 20
49.6927126327
 10
69.5916716112
 20
49.8957648304
 10
69.6293889092
 20
50.0912759059
 10
69.6766985555
 20
50.2787321601
 10
69.7334762453
 20
50.4576410575
 10
69.7995727973
 20
50.6275325205
 10
69.8748145446
 20
50.7879601647
 10
69.9590037919
 20
50.9385024713
 10
70.0519193347
 20
51.0787638953
 10
70.1533170403
 20
51.2083759041
 10
70.2629304892
 20
51.3269979461
 10
70.3264601443
 20
51.3873000537
  0
LINE
  5
462
330
1F
100
AcDbEntity
  8
0
  6
SLD-Solid
 62
     7
370
    25
100
AcDbLine
 10
82.1555781377
 20
45.6715890298
 30
0.0
 11
82.1555781377
 21
46.271817225
 31
0.0
  0
LINE
  5
463
330
1F
100
AcDbEntity
  8
0
  6
SLD-Solid
 62
     7
370
    25
100
AcDbLine
 10
82.1555781377
 20
46.271817225
 30
0.0
 11
81.521579641
 21
45.9058176834
 31
0.0
  0
LWPOLYLINE
  5
464
330
1F
100
AcDbEntity
  8
0
  6
SLD-Solid
 62
     7
370
    25
100
AcDbPolyline
 90
       14
 70
   128
 43
0.0
 10
81.521579641
 20
45.9058176834
 10
81.4758897741
 20
45.8858478265
 10
81.4328552363
 20
45.8798512288
 10
81.3949770383
 20
45.8881763908
 10
81.3644565234
 20
45.9103394842
 10
81.343067433
 20
45.9450524707
 10
81.3320528233
 20
45.9902979576
 10
81.3320528233
 20
46.0434464417
 10
81.343067433
 20
46.1014091263
 10
81.3644565234
 20
46.1608174309
 10
81.3949770383
 20
46.2182187608
 10
81.4328552363
 20
46.2702771592
 10
81.4758897741
 20
46.3139671813
 10
81.521579641
 20
46.3467497218
  0
LINE
  5
465
330
1F
100
AcDbEntity
  8
0
  6
SLD-Solid
 62
     7
370
    25
100
AcDbLine
 10
81.521579641
 20
46.3467497218
 30
0.0
 11
82.5306210177
 21
46.9292569096
 31
0.0
  0
LINE
  5
466
330
1F
100
AcDbEntity
  8
0
  6
SLD-Solid
 62
     7
370
    25
100
AcDbLine
 10
82.5306210177
 20
46.9292569096
 30
0.0
 11
82.5306210177
 21
45.888096676
 31
0.0
  0
LWPOLYLINE
  5
467
330
1F
100
AcDbEntity
  8
0
  6
SLD-Solid
 62
     7
370
    25
100
AcDbPolyline
 90
       17
 70
   128
 43
0.0
 10
81.5922903191
 20
46.1671041082
 10
81.5869077892
 20
46.1327491758
 10
81.571579641
 20
46.0974099337
 10
81.548639446
 20
46.0664664612
 10
81.521579641
 20
46.0446296214
 10
81.494519836
 20
46.0352238753
 10
81.471579641
 20
46.0396811625
 10
81.4562514927
 20
46.0573229013
 10
81.4508689629
 20
46.085463297
 10
81.4562514927
 20
46.1198182294
 10
81.471579641
 20
46.1551574715
 10
81.494519836
 20
46.186100944
 10
81.521579641
 20
46.2079377838
 10
81.548639446
 20
46.2173435299
 10
81.571579641
 20
46.2128862427
 10
81.5869077892
 20
46.1952445039
 10
81.5922903191
 20
46.1671041082
  0
LWPOLYLINE
  5
468
330
1F
100
AcDbEntity
  8
0
  6
SLD-Solid
 62
     7
370
    25
100
AcDbPolyline
 90
       11
 70
   128
 43
0.0
 10
81.3583063408
 20
45.908778672
 10
81.3361722522
 20
45.9266676464
 10
81.3147831618
 20
45.9613806329
 10
81.3037685521
 20
46.0066261198
 10
81.3037685521
 20
46.0597746039
 10
81.3147831618
 20
46.1177372886
 10
81.3361722522
 20
46.1771455932
 10
81.3666927671
 20
46.234546923
 10
81.404570965
 20
46.2866053214
 10
81.4476055029
 20
46.3302953435
 10
81.4932953697
 20
46.3630778841
  0
LWPOLYLINE
  5
469
330
1F
100
AcDbEntity
  8
0
  6
SLD-Solid
 62
     7
370
    25
100
AcDbPolyline
 90
       26
 70
   128
 43
0.0
 10
82.1749618657
 20
40.8453533414
 10
82.2852904864
 20
40.8910811112
 10
82.388540784
 20
40.9497488507
 10
82.4841812097
 20
41.0210545291
 10
82.5717193917
 20
41.1046310538
 10
82.6507046697
 20
41.2000481596
 10
82.7207304153
 20
41.3068146244
 10
82.7814361249
 20
41.4243807979
 10
82.8325092761
 20
41.5521414309
 10
82.8736869363
 20
41.6894387917
 10
82.9047571165
 20
41.8355660522
 10
82.9255598625
 20
41.9897709262
 10
82.9359880785
 20
42.1512595431
 10
82.9359880785
 20
42.3192005342
 10
82.9255598625
 20
42.4927293131
 10
82.9047571165
 20
42.6709525264
 10
82.8736869363
 20
42.8529526533
 10
82.8325092761
 20
43.0377927286
 10
82.7814361249
 20
43.2245211668
 10
82.7207304153
 20
43.4121766607
 10
82.6507046697
 20
43.5997931305
 10
82.5717193917
 20
43.7864046973
 10
82.4841812097
 20
43.9710506555
 10
82.388540784
 20
44.152780419
 10
82.2852904864
 20
44.3306584146
 10
82.1749618657
 20
44.5037688984
  0
LWPOLYLINE
  5
46A
330
1F
100
AcDbEntity
  8
0
  6
SLD-Solid
 62
     7
370
    25
100
AcDbPolyline
 90
       14
 70
   128
 43
0.0
 10
81.9615618498
 20
44.3182839317
 10
81.9326767834
 20
44.3689305952
 10
81.9116714287
 20
44.4220237147
 10
81.8997665406
 20
44.4744777111
 10
81.8976539878
 20
44.5232441488
 10
81.9054565443
 20
44.5654888998
 10
81.9227207539
 20
44.5987568525
 10
81.9484432833
 20
44.6211145947
 10
81.9811292328
 20
44.6312627754
 10
82.0188790138
 20
44.6286116195
 10
82.0594987461
 20
44.6133152023
 10
82.1006277587
 20
44.5862624961
 10
82.1398757827
 20
44.5490257059
 10
82.1749618657
 20
44.5037688984
  0
LWPOLYLINE
  5
46B
330
1F
100
AcDbEntity
  8
0
  6
SLD-Solid
 62
     7
370
    25
100
AcDbPolyline
 90
       24
 70
   128
 43
0.0
 10
81.9615618498
 20
41.277224722
 10
82.0609759034
 20
41.3190528383
 10
82.1533920183
 20
41.3735651087
 10
82.2382481252
 20
41.4404299928
 10
82.3150281342
 20
41.5192408223
 10
82.3832650737
 20
41.6095182742
 10
82.4425439308
 20
41.7107132865
 10
82.4925041748
 20
41.822210397
 10
82.5328419506
 20
41.9433314868
 10
82.563311926
 20
42.0733399045
 10
82.5837287845
 20
42.2114449466
 10
82.593968352
 20
42.3568066662
 10
82.593968352
 20
42.5085409819
 10
82.5837287845
 20
42.6657250546
 10
82.563311926
 20
42.8274028997
 10
82.5328419506
 20
42.9925912023
 10
82.4925041748
 20
43.1602852966
 10
82.4425439308
 20
43.329465277
 10
82.3832650737
 20
43.4991022009
 10
82.3150281342
 20
43.6681643463
 10
82.2382481252
 20
43.8356234871
 10
82.1533920183
 20
44.0004611468
 10
82.0609759034
 20
44.1616747923
 10
81.9615618498
 20
44.3182839317
  0
LWPOLYLINE
  5
46C
330
1F
100
AcDbEntity
  8
0
  6
SLD-Solid
 62
     7
370
    25
100
AcDbPolyline
 90
       14
 70
   128
 43
0.0
 10
82.1749618657
 20
40.8453533414
 10
82.1398757827
 20
40.8406060631
 10
82.1006277587
 20
40.8486840769
 10
82.0594987461
 20
40.8691179178
 10
82.0188790138
 20
40.9007200453
 10
81.9811292328
 20
40.9416538587
 10
81.9484432833
 20
40.9895404335
 10
81.9227207539
 20
41.041596776
 10
81.9054565443
 20
41.0947975608
 10
81.8976539878
 20
41.1460509518
 10
81.8997665406
 20
41.192378288
 10
81.9116714287
 20
41.2310871931
 10
81.9326767834
 20
41.2599280463
 10
81.9615618498
 20
41.277224722
  0
LINE
  5
46D
330
1F
100
AcDbEntity
  8
0
  6
SLD-Solid
 62
     7
370
    25
100
AcDbLine
 10
74.3410940144
 20
44.2436421515
 30
0.0
 11
80.5282783498
 21
40.6718566623
 31
0.0
  0
LWPOLYLINE
  5
46E
330
1F
100
AcDbEntity
  8
0
  6
SLD-Solid
 62
     7
370
    25
100
AcDbPolyline
 90
       14
 70
   128
 43
0.0
 10
80.5282783498
 20
41.0668354161
 10
80.5692064864
 20
41.0374694235
 10
80.6077560284
 20
40.9983327108
 10
80.6416866166
 20
40.9516997616
 10
80.6690263286
 20
40.9002807135
 10
80.6881862796
 20
40.8470638545
 10
80.698052963
 20
40.7951419551
 10
80.698052963
 20
40.7475325273
 10
80.6881862796
 20
40.7070024581
 10
80.6690263286
 20
40.6759072077
 10
80.6416866166
 20
40.6560539191
 10
80.6077560284
 20
40.6485963932
 10
80.5692064864
 20
40.6539680344
 10
80.5282783498
 20
40.6718566623
  0
LINE
  5
46F
330
1F
100
AcDbEntity
  8
0
  6
SLD-Solid
 62
     7
370
    25
100
AcDbLine
 10
74.3410940144
 20
44.6386209054
 30
0.0
 11
80.5282783498
 21
41.0668354161
 31
0.0
  0
LWPOLYLINE
  5
470
330
1F
100
AcDbEntity
  8
0
  6
SLD-Solid
 62
     7
370
    25
100
AcDbPolyline
 90
       14
 70
   128
 43
0.0
 10
74.3410940144
 20
44.2436421515
 10
74.3001658779
 20
44.2730081442
 10
74.2616163359
 20
44.3121448568
 10
74.2276857477
 20
44.358777806
 10
74.2003460357
 20
44.4101968542
 10
74.1811860847
 20
44.4634137132
 10
74.1713194012
 20
44.5153356126
 10
74.1713194012
 20
44.5629450403
 10
74.1811860847
 20
44.6034751096
 10
74.2003460357
 20
44.6345703599
 10
74.2276857477
 20
44.6544236486
 10
74.2616163359
 20
44.6618811744
 10
74.3001658779
 20
44.6565095333
 10
74.3410940144
 20
44.6386209054
  0
LWPOLYLINE
  5
471
330
1F
100
AcDbEntity
  8
0
  6
SLD-Solid
 62
     7
370
    25
100
AcDbPolyline
 90
       14
 70
   128
 43
0.0
 10
73.0778681146
 20
46.7915212458
 10
73.1116569963
 20
46.7447345522
 10
73.1501177654
 20
46.7053812208
 10
73.1910152219
 20
46.6757483245
 10
73.2319725541
 20
46.6575580193
 10
73.2706094706
 20
46.6518674597
 10
73.3046805344
 20
46.6590073605
 10
73.332205659
 20
46.6785627764
 10
73.3515851841
 20
46.7093972179
 10
73.3616928422
 20
46.7497186991
 10
73.3619412129
 20
46.7971838821
 10
73.3523158618
 20
46.849034263
 10
73.3333761793
 20
46.9022564859
 10
73.306222871
 20
46.9537574688
  0
LWPOLYLINE
  5
472
330
1F
100
AcDbEntity
  8
0
  6
SLD-Solid
 62
     7
370
    25
100
AcDbPolyline
 90
       17
 70
   128
 43
0.0
 10
73.306222871
 20
46.9537574688
 10
73.2335402155
 20
47.0793284936
 10
73.1688444646
 20
47.2086229147
 10
73.1128478764
 20
47.3402172846
 10
73.066166937
 20
47.4726628348
 10
73.0293155732
 20
47.604501426
 10
73.0026994945
 20
47.7342816009
 10
72.9866117266
 20
47.8605745642
 10
72.9812293856
 20
47.9819899123
 10
72.9866117273
 20
48.0971909413
 10
73.0026994957
 20
48.2049093628
 10
73.029315575
 20
48.3039592668
 10
73.0661669394
 20
48.3932501783
 10
73.1128478794
 20
48.4717990625
 10
73.1688444681
 20
48.5387411472
 10
73.2335402195
 20
48.5933394435
 10
73.3062228754
 20
48.6349928597
  0
LWPOLYLINE
  5
473
330
1F
100
AcDbEntity
  8
0
  6
SLD-Solid
 62
     7
370
    25
100
AcDbPolyline
 90
       14
 70
   128
 43
0.0
 10
73.3062228754
 20
48.6349928597
 10
73.3333761824
 20
48.6551433015
 10
73.3523158635
 20
48.6864982336
 10
73.3619412134
 20
48.7272354211
 10
73.3616928416
 20
48.7749873669
 10
73.3515851828
 20
48.8269789014
 10
73.3322056571
 20
48.8801884657
 10
73.3046805323
 20
48.9315237132
 10
73.2706094686
 20
48.978001226
 10
73.2319725523
 20
49.0169198999
 10
73.1910152205
 20
49.0460179232
 10
73.1501177646
 20
49.0636042244
 10
73.1116569959
 20
49.0686567516
 10
73.0778681146
 20
49.0608818704
  0
LWPOLYLINE
  5
474
330
1F
100
AcDbEntity
  8
0
  6
SLD-Solid
 62
     7
370
    25
100
AcDbPolyline
 90
       20
 70
   128
 43
0.0
 10
73.0778681146
 20
46.7915212458
 10
72.9945602303
 20
46.9338735795
 10
72.9187839623
 20
47.0800029295
 10
72.8511310679
 20
47.2287681321
 10
72.7921298669
 20
47.3790074396
 10
72.7422411156
 20
47.5295475927
 10
72.7018544087
 20
47.6792129827
 10
72.671285137
 20
47.8268348319
 10
72.6507720242
 20
47.9712603215
 10
72.6404752627
 20
48.1113615938
 10
72.6404752627
 20
48.24604456
 10
72.6507720242
 20
48.3742574445
 10
72.671285137
 20
48.4949989981
 10
72.7018544087
 20
48.6073263175
 10
72.7422411156
 20
48.7103622082
 10
72.7921298669
 20
48.8033020351
 10
72.8511310679
 20
48.885420006
 10
72.9187839623
 20
48.9560748393
 10
72.9945602303
 20
49.0147147725
 10
73.0778681146
 20
49.0608818704
  0
LWPOLYLINE
  5
475
330
1F
100
AcDbEntity
  8
0
  6
SLD-Solid
 62
     7
370
    25
100
AcDbPolyline
 90
       14
 70
   128
 43
0.0
 10
72.6944104986
 20
46.3183591494
 10
72.7294965816
 20
46.273102342
 10
72.7687446056
 20
46.2358655517
 10
72.8098736181
 20
46.2088128456
 10
72.8504933505
 20
46.1935164284
 10
72.8882431314
 20
46.1908652724
 10
72.9209290809
 20
46.2010134532
 10
72.9466516104
 20
46.2233711953
 10
72.96391582
 20
46.2566391481
 10
72.9717183765
 20
46.2988838991
 10
72.9696058237
 20
46.3476503368
 10
72.9577009355
 20
46.4001043332
 10
72.9366955808
 20
46.4531974527
 10
72.9078105144
 20
46.5038441162
  0
LWPOLYLINE
  5
476
330
1F
100
AcDbEntity
  8
0
  6
SLD-Solid
 62
     7
370
    25
100
AcDbPolyline
 90
       24
 70
   128
 43
0.0
 10
72.9078105144
 20
46.5038441162
 10
72.8083964609
 20
46.6604532555
 10
72.715980346
 20
46.821666901
 10
72.6311242391
 20
46.9865045607
 10
72.5543442301
 20
47.1539637016
 10
72.4861072906
 20
47.323025847
 10
72.4268284335
 20
47.4926627708
 10
72.3768681894
 20
47.6618427513
 10
72.3365304137
 20
47.8295368456
 10
72.3060604383
 20
47.9947251481
 10
72.2856435798
 20
48.1564029933
 10
72.2754040123
 20
48.3135870659
 10
72.2754040123
 20
48.4653213817
 10
72.2856435798
 20
48.6106831013
 10
72.3060604383
 20
48.7487881433
 10
72.3365304137
 20
48.8787965611
 10
72.3768681894
 20
48.9999176509
 10
72.4268284335
 20
49.1114147614
 10
72.4861072906
 20
49.2126097737
 10
72.5543442301
 20
49.3028872256
 10
72.6311242391
 20
49.3816980551
 10
72.715980346
 20
49.4485629392
 10
72.8083964609
 20
49.5030752096
 10
72.9078105144
 20
49.5449033259
  0
LWPOLYLINE
  5
477
330
1F
100
AcDbEntity
  8
0
  6
SLD-Solid
 62
     7
370
    25
100
AcDbPolyline
 90
       14
 70
   128
 43
0.0
 10
72.9078105144
 20
49.5449033259
 10
72.9366955808
 20
49.5622000016
 10
72.9577009355
 20
49.5910408548
 10
72.9696058237
 20
49.6297497599
 10
72.9717183765
 20
49.6760770961
 10
72.96391582
 20
49.727330487
 10
72.9466516104
 20
49.7805312719
 10
72.9209290809
 20
49.8325876144
 10
72.8882431314
 20
49.8804741892
 10
72.8504933505
 20
49.9214080026
 10
72.8098736181
 20
49.9530101301
 10
72.7687446056
 20
49.973443971
 10
72.7294965816
 20
49.9815219847
 10
72.6944104986
 20
49.9767747065
  0
LWPOLYLINE
  5
478
330
1F
100
AcDbEntity
  8
0
  6
SLD-Solid
 62
     7
370
    25
100
AcDbPolyline
 90
       26
 70
   128
 43
0.0
 10
72.6944104986
 20
46.3183591494
 10
72.5840818779
 20
46.4914696333
 10
72.4808315803
 20
46.6693476288
 10
72.3851911546
 20
46.8510773924
 10
72.2976529726
 20
47.0357233506
 10
72.2186676945
 20
47.2223349174
 10
72.148641949
 20
47.4099513872
 10
72.0879362393
 20
47.597606881
 10
72.0368630881
 20
47.7843353192
 10
71.9956854279
 20
47.9691753946
 10
71.9646152478
 20
48.1511755214
 10
71.9438125018
 20
48.3293987348
 10
71.9333842857
 20
48.5029275136
 10
71.9333842857
 20
48.6708685048
 10
71.9438125018
 20
48.8323571216
 10
71.9646152478
 20
48.9865619957
 10
71.9956854279
 20
49.1326892561
 10
72.0368630881
 20
49.269986617
 10
72.0879362393
 20
49.39774725
 10
72.148641949
 20
49.5153134234
 10
72.2186676945
 20
49.6220798883
 10
72.2976529726
 20
49.7174969941
 10
72.3851911546
 20
49.8010735188
 10
72.4808315803
 20
49.8723791972
 10
72.5840818779
 20
49.9310469367
 10
72.6944104986
 20
49.9767747065
  0
LWPOLYLINE
  5
479
330
1F
100
AcDbEntity
  8
0
  6
SLD-Solid
 62
     7
370
    25
100
AcDbPolyline
 90
       20
 70
   128
 43
0.0
 10
81.7915042497
 20
41.7612461775
 10
81.8748121339
 20
41.8074132754
 10
81.9505884019
 20
41.8660532085
 10
82.0182412963
 20
41.9367080419
 10
82.0772424974
 20
42.0188260127
 10
82.1271312487
 20
42.1117658396
 10
82.1675179556
 20
42.2148017303
 10
82.1980872273
 20
42.3271290497
 10
82.2186003401
 20
42.4478706034
 10
82.2288971016
 20
42.5760834879
 10
82.2288971016
 20
42.7107664541
 10
82.2186003401
 20
42.8508677264
 10
82.1980872273
 20
42.995293216
 10
82.1675179556
 20
43.1429150652
 10
82.1271312487
 20
43.2925804551
 10
82.0772424974
 20
43.4431206082
 10
82.0182412963
 20
43.5933599158
 10
81.9505884019
 20
43.7421251184
 10
81.8748121339
 20
43.8882544683
 10
81.7915042497
 20
44.030606802
  0
LWPOLYLINE
  5
47A
330
1F
100
AcDbEntity
  8
0
  6
SLD-Solid
 62
     7
370
    25
100
AcDbPolyline
 90
       14
 70
   128
 43
0.0
 10
81.5631494889
 20
43.8683705862
 10
81.5359961819
 20
43.9198715689
 10
81.5170565008
 20
43.9730937913
 10
81.5074311509
 20
44.0249441713
 10
81.5076795226
 20
44.0724093532
 10
81.5177871815
 20
44.1127308332
 10
81.5371667071
 20
44.1435652734
 10
81.5646918319
 20
44.1631206883
 10
81.5987628957
 20
44.1702605882
 10
81.637399812
 20
44.1645700281
 10
81.6783571438
 20
44.1463797226
 10
81.7192545997
 20
44.1167468262
 10
81.7577153684
 20
44.0773934952
 10
81.7915042497
 20
44.030606802
  0
LWPOLYLINE
  5
47B
330
1F
100
AcDbEntity
  8
0
  6
SLD-Solid
 62
     7
370
    25
100
AcDbPolyline
 90
       17
 70
   128
 43
0.0
 10
81.5631494934
 20
42.1871351903
 10
81.6358321489
 20
42.2287886072
 10
81.7005278998
 20
42.2833869043
 10
81.756524488
 20
42.3503289897
 10
81.8032054273
 20
42.4288778745
 10
81.8400567912
 20
42.5181687867
 10
81.8666728698
 20
42.6172186912
 10
81.8827606376
 20
42.7249371131
 10
81.8881429787
 20
42.8401381425
 10
81.882760637
 20
42.961553491
 10
81.8666728685
 20
43.0878464545
 10
81.8400567893
 20
43.2176266295
 10
81.8032054248
 20
43.3494652207
 10
81.7565244849
 20
43.481910771
 10
81.7005278962
 20
43.6135051408
 10
81.6358321448
 20
43.7427995617
 10
81.5631494889
 20
43.8683705862
  0
LWPOLYLINE
  5
47C
330
1F
100
AcDbEntity
  8
0
  6
SLD-Solid
 62
     7
370
    25
100
AcDbPolyline
 90
       14
 70
   128
 43
0.0
 10
81.7915042497
 20
41.7612461775
 10
81.7577153679
 20
41.7534712962
 10
81.7192545988
 20
41.7585238238
 10
81.6783571423
 20
41.7761101255
 10
81.6373998102
 20
41.8052081495
 10
81.5987628936
 20
41.8441268244
 10
81.5646918298
 20
41.8906043381
 10
81.5371667052
 20
41.9419395864
 10
81.5177871801
 20
41.9951491513
 10
81.5076795221
 20
42.0471406861
 10
81.5074311514
 20
42.0948926319
 10
81.5170565026
 20
42.1356298189
 10
81.5359961851
 20
42.1669847499
 10
81.5631494934
 20
42.1871351903
  0
LWPOLYLINE
  5
47D
330
1F
100
AcDbEntity
  8
0
  6
SLD-Solid
 62
     7
370
    25
100
AcDbPolyline
 90
       12
 70
   128
 43
0.0
 10
75.0923949695
 20
46.9163413614
 10
75.0550421567
 20
46.9317029987
 10
75.0207154467
 20
46.9334167624
 10
74.9921957853
 20
46.9213438136
 10
74.9717936659
 20
46.8964622307
 10
74.9611619469
 20
46.8607877718
 10
74.9611619469
 20
46.8172105692
 10
74.9717936659
 20
46.7692609887
 10
74.9921957853
 20
46.7208236203
 10
75.0207154467
 20
46.6758225713
 10
75.0550421567
 20
46.6379035593
 10
75.0923949695
 20
46.6101385569
  0
LINE
  5
47E
330
1F
100
AcDbEntity
  8
0
  6
SLD-Solid
 62
     7
370
    25
100
AcDbLine
 10
79.7769773948
 20
43.9057866865
 30
0.0
 11
75.0923949695
 21
46.6101385569
 31
0.0
  0
LWPOLYLINE
  5
47F
330
1F
100
AcDbEntity
  8
0
  6
SLD-Solid
 62
     7
370
    25
100
AcDbPolyline
 90
       12
 70
   128
 43
0.0
 10
79.7769773948
 20
43.9057866865
 10
79.8143302076
 20
43.8904250492
 10
79.8486569176
 20
43.8887112855
 10
79.877176579
 20
43.9007842343
 10
79.8975786984
 20
43.9256658171
 10
79.9082104174
 20
43.9613402761
 10
79.9082104174
 20
44.0049174787
 10
79.8975786984
 20
44.0528670591
 10
79.877176579
 20
44.1013044276
 10
79.8486569176
 20
44.1463054765
 10
79.8143302076
 20
44.1842244886
 10
79.7769773948
 20
44.211989491
  0
LINE
  5
480
330
1F
100
AcDbEntity
  8
0
  6
SLD-Solid
 62
     7
370
    25
100
AcDbLine
 10
79.7769773948
 20
44.211989491
 30
0.0
 11
75.0923949695
 21
46.9163413614
 31
0.0
  0
LINE
  5
481
330
1F
100
AcDbEntity
  8
0
  6
SLD-Solid
 62
     7
370
    25
100
AcDbLine
 10
82.5306210177
 20
46.9292569096
 30
0.0
 11
82.5023367465
 21
46.9455850718
 31
0.0
  0
LINE
  5
482
330
1F
100
AcDbEntity
  8
0
  6
SLD-Solid
 62
     7
370
    25
100
AcDbLine
 10
81.4932953697
 20
46.3630778841
 30
0.0
 11
82.5023367465
 21
46.9455850718
 31
0.0
  0
LWPOLYLINE
  5
483
330
1F
100
AcDbEntity
  8
0
  6
SLD-Solid
 62
     7
370
    25
100
AcDbPolyline
 90
        7
 70
   128
 43
0.0
 10
81.5640060479
 20
46.1834322704
 10
81.558623518
 20
46.149077338
 10
81.5432953697
 20
46.1137380959
 10
81.5203551747
 20
46.0827946234
 10
81.4932953697
 20
46.0609577837
 10
81.4662355647
 20
46.0515520376
 10
81.4594827488
 20
46.0513787081
  0
LWPOLYLINE
  5
484
330
1F
100
AcDbEntity
  8
0
  6
SLD-Solid
 62
     7
370
    25
100
AcDbPolyline
 90
        3
 70
   128
 43
0.0
 10
81.555392262
 20
46.2175168593
 10
81.558623518
 20
46.2115726661
 10
81.5640060479
 20
46.1834322704
  0
LINE
  5
485
330
1F
100
AcDbEntity
  8
0
  6
SLD-Solid
 62
     7
370
    25
100
AcDbLine
 10
82.1272938665
 20
45.7069265065
 30
0.0
 11
82.1272938665
 21
46.2554890628
 31
0.0
  0
LINE
  5
486
330
1F
100
AcDbEntity
  8
0
  6
SLD-Solid
 62
     7
370
    25
100
AcDbLine
 10
73.763304208
 20
51.5174418553
 30
0.0
 11
75.6078841646
 21
50.4525885125
 31
0.0
  0
LWPOLYLINE
  5
487
330
1F
100
AcDbEntity
  8
0
  6
SLD-Solid
 62
     7
370
    25
100
AcDbPolyline
 90
        3
 70
   128
 43
0.0
 10
71.7843796301
 20
52.0730358215
 10
71.9574724266
 20
52.0825018448
 10
72.1146015658
 20
52.0796828623
  0
LINE
  5
488
330
1F
100
AcDbEntity
  8
0
  6
SLD-Solid
 62
     7
370
    25
100
AcDbLine
 10
71.7843796301
 20
52.0730358215
 30
0.0
 11
71.7843796301
 21
52.1107790946
 31
0.0
  0
LWPOLYLINE
  5
489
330
1F
100
AcDbEntity
  8
0
  6
SLD-Solid
 62
     7
370
    25
100
AcDbPolyline
 90
        3
 70
   128
 43
0.0
 10
71.7843796301
 20
52.1107790946
 10
71.9577287705
 20
52.1191844236
 10
72.0567657276
 20
52.1180835041
  0
LINE
  5
48A
330
1F
100
AcDbEntity
  8
0
  6
SLD-Solid
 62
     7
370
    25
100
AcDbLine
 10
75.6078841646
 20
50.4852501449
 30
0.0
 11
73.8177557764
 21
51.5186692665
 31
0.0
  0
ARC
  5
48B
330
1F
100
AcDbEntity
  8
0
  6
SLD-Solid
 62
     7
370
    25
100
AcDbCircle
 10
79.8622701442
 20
44.0037071252
 30
0.0
 40
0.0995352508384992
100
AcDbArc
 50
235.0580213641
 51
282.4857635648
  0
LINE
  5
48C
330
1F
100
AcDbEntity
  8
0
  6
SLD-Solid
 62
     7
370
    25
100
AcDbLine
 10
75.1206792407
 20
46.6264667191
 30
0.0
 11
79.8052616661
 21
43.9221148487
 31
0.0
  0
ARC
  5
48D
330
1F
100
AcDbEntity
  8
0
  6
SLD-Solid
 62
     7
370
    25
100
AcDbCircle
 10
71.5968972897
 20
49.7651093783
 30
0.0
 40
2.137407325926722
100
AcDbArc
 50
95.0342613762
 51
95.7958598055
  0
LINE
  5
48E
330
1F
100
AcDbEntity
  8
0
  6
SLD-Solid
 62
     7
370
    25
100
AcDbLine
 10
71.396885114
 20
51.8870832719
 30
0.0
 11
71.4093367501
 21
51.8942714484
 31
0.0
  0
LWPOLYLINE
  5
48F
330
1F
100
AcDbEntity
  8
0
  6
SLD-Solid
 62
     7
370
    25
100
AcDbPolyline
 90
        3
 70
   128
 43
0.0
 10
71.3810524788
 20
52.0819129688
 10
71.2838194921
 20
52.0324266503
 10
71.2494733277
 20
52.0131031677
  0
LINE
  5
490
330
1F
100
AcDbEntity
  8
0
  6
SLD-Solid
 62
     7
370
    25
100
AcDbLine
 10
71.4215001864
 20
51.8635499777
 30
0.0
 11
71.7843796301
 21
52.0730358215
 31
0.0
  0
LINE
  5
491
330
1F
100
AcDbEntity
  8
0
  6
SLD-Solid
 62
     7
370
    25
100
AcDbLine
 10
71.4093367501
 20
51.8942714484
 30
0.0
 11
71.4093367501
 21
52.3367009502
 31
0.0
  0
LINE
  5
492
330
1F
100
AcDbEntity
  8
0
  6
SLD-Solid
 62
     7
370
    25
100
AcDbLine
 10
71.7843796301
 20
52.3155530405
 30
0.0
 11
71.7843796301
 21
52.1107790946
 31
0.0
  0
LINE
  5
493
330
1F
100
AcDbEntity
  8
0
  6
SLD-Solid
 62
     7
370
    25
100
AcDbLine
 10
71.3810524788
 20
51.8915902963
 30
0.0
 11
71.3810524788
 21
52.320372788
 31
0.0
  0
LWPOLYLINE
  5
494
330
1F
100
AcDbEntity
  8
0
  6
SLD-Solid
 62
     7
370
    25
100
AcDbPolyline
 90
        9
 70
   128
 43
0.0
 10
75.1206792407
 20
46.6264667191
 10
75.0833264279
 20
46.6542317215
 10
75.0489997179
 20
46.6921507336
 10
75.0204800565
 20
46.7371517825
 10
75.0000779371
 20
46.785589151
 10
74.9894462181
 20
46.8335387314
 10
74.9894462181
 20
46.877115934
 10
75.0000779371
 20
46.912790393
 10
75.0138672662
 20
46.9319303028
  0
LINE
  5
495
330
1F
100
AcDbEntity
  8
0
  6
SLD-Solid
 62
     7
370
    25
100
AcDbLine
 10
74.8635290026
 20
49.8765090375
 30
0.0
 11
74.8635290026
 21
49.9581498486
 31
0.0
  0
LINE
  5
496
330
1F
100
AcDbEntity
  8
0
  6
SLD-Solid
 62
     7
370
    25
100
AcDbLine
 10
74.8635290026
 20
49.9581498486
 30
0.0
 11
75.6078841646
 21
49.5284427602
 31
0.0
  0
LINE
  5
497
330
1F
100
AcDbEntity
  8
0
  6
SLD-Solid
 62
     7
370
    25
100
AcDbLine
 10
75.6078841646
 20
52.1822003988
 30
0.0
 11
75.6078841646
 21
49.5284427602
 31
0.0
  0
LINE
  5
498
330
1F
100
AcDbEntity
  8
0
  6
SLD-Solid
 62
     7
370
    25
100
AcDbLine
 10
75.6078841646
 20
52.1822003988
 30
0.0
 11
75.6785948427
 21
52.1413799932
 31
0.0
  0
LINE
  5
499
330
1F
100
AcDbEntity
  8
0
  6
SLD-Solid
 62
     7
370
    25
100
AcDbLine
 10
75.6785948427
 20
52.1413799932
 30
0.0
 11
75.6785948427
 21
49.4876223546
 31
0.0
  0
LINE
  5
49A
330
1F
100
AcDbEntity
  8
0
  6
SLD-Solid
 62
     7
370
    25
100
AcDbLine
 10
75.6785948427
 20
49.4876223546
 30
0.0
 11
80.7180576794
 21
46.5784023835
 31
0.0
  0
LINE
  5
49B
330
1F
100
AcDbEntity
  8
0
  6
SLD-Solid
 62
     7
370
    25
100
AcDbLine
 10
75.7493055208
 20
49.5284427602
 30
0.0
 11
80.7887683575
 21
46.619222789
 31
0.0
  0
LINE
  5
49C
330
1F
100
AcDbEntity
  8
0
  6
SLD-Solid
 62
     7
370
    25
100
AcDbLine
 10
75.6785948427
 20
49.4876223546
 30
0.0
 11
75.7493055208
 21
49.5284427602
 31
0.0
  0
LINE
  5
49D
330
1F
100
AcDbEntity
  8
0
  6
SLD-Solid
 62
     7
370
    25
100
AcDbLine
 10
82.4985651993
 20
48.2772474744
 30
0.0
 11
82.55553923
 21
48.2443570665
 31
0.0
  0
LINE
  5
49E
330
1F
100
AcDbEntity
  8
0
  6
SLD-Solid
 62
     7
370
    25
100
AcDbLine
 10
75.6785948427
 20
52.1413799932
 30
0.0
 11
76.2002523927
 21
52.4425264867
 31
0.0
  0
LINE
  5
49F
330
1F
100
AcDbEntity
  8
0
  6
SLD-Solid
 62
     7
370
    25
100
AcDbLine
 10
76.1858241776
 20
52.5158380666
 30
0.0
 11
75.6078841646
 21
52.1822003988
 31
0.0
  0
LINE
  5
4A0
330
1F
100
AcDbEntity
  8
0
  6
SLD-Solid
 62
     7
370
    25
100
AcDbLine
 10
75.7846666066
 20
49.5080292399
 30
0.0
 11
77.064040609
 21
50.2465961306
 31
0.0
  0
LINE
  5
4A1
330
1F
100
AcDbEntity
  8
0
  6
SLD-Solid
 62
     7
370
    25
100
AcDbLine
 10
75.6078841646
 20
50.3878569371
 30
0.0
 11
74.8635290026
 21
49.9581498486
 31
0.0
  0
LINE
  5
4A2
330
1F
100
AcDbEntity
  8
0
  6
SLD-Solid
 62
     7
370
    25
100
AcDbLine
 10
75.5122535591
 20
48.393605238
 30
0.0
 11
75.5020826165
 21
48.3877336778
 31
0.0
  0
LINE
  5
4A3
330
1F
100
AcDbEntity
  8
0
  6
SLD-Solid
 62
     7
370
    25
100
AcDbLine
 10
75.5020826165
 20
48.3877336778
 30
0.0
 11
75.4963431439
 21
48.4027901252
 31
0.0
  0
LINE
  5
4A4
330
1F
100
AcDbEntity
  8
0
  6
SLD-Solid
 62
     7
370
    25
100
AcDbLine
 10
75.0844998717
 20
48.6287990651
 30
0.0
 11
75.5020826165
 21
48.3877336778
 31
0.0
  0
LINE
  5
4A5
330
1F
100
AcDbEntity
  8
0
  6
SLD-Solid
 62
     7
370
    25
100
AcDbLine
 10
75.0787603991
 20
48.6438555125
 30
0.0
 11
75.0844998717
 21
48.6287990651
 31
0.0
  0
LWPOLYLINE
  5
4A6
330
1F
100
AcDbEntity
  8
0
  6
SLD-Solid
 62
     7
370
    25
100
AcDbPolyline
 90
       51
 70
   128
 43
0.0
 10
80.8712569561
 20
46.6803083395
 10
81.0348790317
 20
46.7041774023
 10
81.1929358815
 20
46.7409498174
 10
81.344997524
 20
46.7905255482
 10
81.4906502876
 20
46.8527697279
 10
81.6294979352
 20
46.9275130261
 10
81.7611627427
 20
47.0145521093
 10
81.8852865261
 20
47.1136501947
 10
82.0015316166
 20
47.2245376935
 10
82.1095817783
 20
47.346912945
 10
82.2091430693
 20
47.480443037
 10
82.2999446407
 20
47.6247647111
 10
82.3817394742
 20
47.7794853516
 10
82.4543050531
 20
47.944184053
 10
82.5174439685
 20
48.1184127654
 10
82.5709844559
 20
48.3016975132
 10
82.6147808626
 20
48.4935396845
 10
82.6487140439
 20
48.6934173877
 10
82.6726916872
 20
48.9007868711
 10
82.6866485632
 20
49.1150840021
 10
82.6905467033
 20
49.3357258023
 10
82.684375503
 20
49.5621120329
 10
82.6681517504
 20
49.7936268276
 10
82.6419195812
 20
50.0296403687
 10
82.6057503577
 20
50.2695105997
 10
82.5597424756
 20
50.5125849724
 10
82.5040210957
 20
50.758202222
 10
82.4387378037
 20
51.0056941658
 10
82.3640701977
 20
51.2543875214
 10
82.2802214051
 20
51.5036057379
 10
82.1874195299
 20
51.7526708367
 10
82.0859170324
 20
52.0009052556
 10
81.9759900423
 20
52.2476336922
 10
81.8579376073
 20
52.492184941
 10
81.7320808799
 20
52.7338937196
 10
81.5987622434
 20
52.972102478
 10
81.4583443808
 20
53.2061631879
 10
81.311209288
 20
53.4354391055
 10
81.1577572344
 20
53.6593065035
 10
80.9984056744
 20
53.8771563681
 10
80.8335881115
 20
54.0883960558
 10
80.663752919
 20
54.2924509055
 10
80.4893621202
 20
54.4887658019
 10
80.3108901317
 20
54.6768066858
 10
80.1288224726
 20
54.8560620064
 10
79.9436544438
 20
55.0260441138
 10
79.7558897805
 20
55.1862905849
 10
79.5660392816
 20
55.3363654817
 10
79.3746194208
 20
55.4758605371
 10
79.1821509407
 20
55.6043962657
 10
78.9891574368
 20
55.7216229961
  0
LINE
  5
4A7
330
1F
100
AcDbEntity
  8
0
  6
SLD-Solid
 62
     7
370
    25
100
AcDbLine
 10
78.9891574368
 20
55.7216229961
 30
0.0
 11
72.0377966785
 21
59.7345581442
 31
0.0
  0
LWPOLYLINE
  5
4A8
330
1F
100
AcDbEntity
  8
0
  6
SLD-Solid
 62
     7
370
    25
100
AcDbPolyline
 90
       51
 70
   128
 43
0.0
 10
72.0377966785
 20
59.7345581442
 10
71.8448031746
 20
59.8401569703
 10
71.6523346945
 20
59.9338406187
 10
71.4609148337
 20
60.0153542304
 10
71.2710643348
 20
60.0844760538
 10
71.0832996715
 20
60.1410180486
 10
70.8981316427
 20
60.1848263966
 10
70.7160639836
 20
60.2157819207
 10
70.5375919951
 20
60.2338004087
 10
70.3632011963
 20
60.2388328427
 10
70.1933660038
 20
60.2308655325
 10
70.0285484409
 20
60.2099201524
 10
69.8691968809
 20
60.1760536827
 10
69.7157448273
 20
60.1293582546
 10
69.5686097345
 20
60.0699608992
 10
69.4281918719
 20
59.9980232025
 10
69.2948732354
 20
59.9137408654
 10
69.169016508
 20
59.8173431713
 10
69.050964073
 20
59.7090923626
 10
68.9410370829
 20
59.5892829273
 10
68.8395345854
 20
59.4582407975
 10
68.7467327102
 20
59.3163224631
 10
68.6628839176
 20
59.1639140019
 10
68.5882163116
 20
59.0014300292
 10
68.5229330196
 20
58.8293125699
 10
68.4672116397
 20
58.6480298562
 10
68.4212037576
 20
58.4580750534
 10
68.3850345342
 20
58.259964919
 10
68.3588023649
 20
58.0542383958
 10
68.3425786123
 20
57.8414551471
 10
68.336407412
 20
57.6221940328
 10
68.3403055521
 20
57.3970515358
 10
68.3542624281
 20
57.1666401387
 10
68.3782400714
 20
56.9315866576
 10
68.4121732527
 20
56.6925305372
 10
68.4559696594
 20
56.4501221111
 10
68.5095101468
 20
56.2050208323
 10
68.5726490622
 20
55.9578934799
 10
68.6452146411
 20
55.7094123444
 10
68.7270094746
 20
55.4602533995
 10
68.8178110461
 20
55.2110944624
 10
68.917372337
 20
54.9626133507
 10
69.0254224987
 20
54.7154860379
 10
69.1416675892
 20
54.4703848145
 10
69.2657913726
 20
54.2279764592
 10
69.3974561801
 20
53.988920425
 10
69.5363038277
 20
53.7538670453
 10
69.6819565913
 20
53.5234557643
 10
69.8340182338
 20
53.298313398
 10
69.9920750836
 20
53.0790524285
 10
70.1556971592
 20
52.8662693384
  0
ARC
  5
4A9
330
1F
100
AcDbEntity
  8
0
  6
SLD-Solid
 62
     7
370
    25
100
AcDbCircle
 10
69.8959851118
 20
52.659008768
 30
0.0
 40
0.3322759268786563
100
AcDbArc
 50
13.372346515
 51
38.5912630175
  0
LINE
  5
4AA
330
1F
100
AcDbEntity
  8
0
  6
SLD-Solid
 62
     7
370
    25
100
AcDbLine
 10
70.2192522464
 20
52.7358570033
 30
0.0
 11
70.1544984994
 21
52.7732385457
 31
0.0
  0
ARC
  5
4AB
330
1F
100
AcDbEntity
  8
0
  6
SLD-Solid
 62
     7
370
    25
100
AcDbCircle
 10
69.9867648884
 20
52.7111697464
 30
0.0
 40
0.1697730001266498
100
AcDbArc
 50
19.7831943355
 51
38.4393129054
  0
LWPOLYLINE
  5
4AC
330
1F
100
AcDbEntity
  8
0
  6
SLD-Solid
 62
     7
370
    25
100
AcDbPolyline
 90
       52
 70
   128
 43
0.0
 10
72.0377966785
 20
59.8162122254
 10
71.8449694064
 20
59.9218340467
 10
71.6526463406
 20
60.0157897005
 10
71.4613303688
 20
60.0978335109
 10
71.2715217455
 20
60.1677509489
 10
71.0837167838
 20
60.225359194
 10
70.8984065575
 20
60.2705076118
 10
70.7160756171
 20
60.3030781477
 10
70.5372007231
 20
60.3229856361
 10
70.3622495989
 20
60.3301780227
 10
70.1916797079
 20
60.3246365009
 10
70.0259370577
 20
60.3063755606
 10
69.8654550335
 20
60.2754429507
 10
69.7106532647
 20
60.231919554
 10
69.5619365283
 20
60.1759191759
 10
69.41969369
 20
60.1075882465
 10
69.2842966873
 20
60.027105438
 10
69.1560995575
 20
59.9346811976
 10
69.0354375113
 20
59.8305571969
 10
68.9226260568
 20
59.7150057
 10
68.8179601742
 20
59.588328852
 10
68.7217135447
 20
59.4508578883
 10
68.6341378347
 20
59.3029522692
 10
68.5554620379
 20
59.1449987394
 10
68.4858918763
 20
58.9774103169
 10
68.4256092625
 20
58.8006252133
 10
68.3747718239
 20
58.6151056876
 10
68.3335124908
 20
58.4213368377
 10
68.3019391482
 20
58.2198253318
 10
68.2801343544
 20
58.0110980838
 10
68.2681551247
 20
57.7957008752
 10
68.2660327826
 20
57.5741969284
 10
68.2737728776
 20
57.3471654336
 10
68.2913551707
 20
57.1152000343
 10
68.3187336877
 20
56.8789072756
 10
68.355836839
 20
56.6389050176
 10
68.4025676071
 20
56.3958208199
 10
68.4588037999
 20
56.150290301
 10
68.5243983705
 20
55.902955476
 10
68.599179802
 20
55.6544630779
 10
68.6829525551
 20
55.4054628664
 10
68.7754975802
 20
55.1566059293
 10
68.87657289
 20
54.9085429795
 10
68.9859141918
 20
54.661922654
 10
69.1032355793
 20
54.4173898175
 10
69.2282302796
 20
54.1755838763
 10
69.3605714556
 20
53.9371371064
 10
69.4999130605
 20
53.7026730002
 10
69.6458907429
 20
53.4728046363
 10
69.7981227992
 20
53.2481330763
 10
69.9562111719
 20
53.029245793
 10
70.1197424902
 20
52.8167151346
  0
LINE
  5
4AD
330
1F
100
AcDbEntity
  8
0
  6
SLD-Solid
 62
     7
370
    25
100
AcDbLine
 10
78.9891574368
 20
55.8032770773
 30
0.0
 11
72.0377966785
 21
59.8162122254
 31
0.0
  0
LWPOLYLINE
  5
4AE
330
1F
100
AcDbEntity
  8
0
  6
SLD-Solid
 62
     7
370
    25
100
AcDbPolyline
 90
       52
 70
   128
 43
0.0
 10
80.9072116251
 20
46.5892417586
 10
81.0707429434
 20
46.6129631757
 10
81.2288313161
 20
46.649325509
 10
81.3810633724
 20
46.6982336781
 10
81.5270410548
 20
46.7595597974
 10
81.6663826597
 20
46.833143511
 10
81.7987238357
 20
46.9187924115
 10
81.923718536
 20
47.0162825437
 10
82.0410399235
 20
47.1253589895
 10
82.1503812253
 20
47.245736535
 10
82.2514565351
 20
47.3771004161
 10
82.3440015602
 20
47.5191071416
 10
82.4277743133
 20
47.6713853911
 10
82.5025557448
 20
47.8335369863
 10
82.5681503155
 20
48.005137932
 10
82.6243865082
 20
48.1857395247
 10
82.6711172763
 20
48.3748695261
 10
82.7082204276
 20
48.5720333975
 10
82.7355989446
 20
48.7767155933
 10
82.7531812377
 20
48.988380909
 10
82.7609213327
 20
49.2064758804
 10
82.7587989906
 20
49.4304302313
 10
82.7468197609
 20
49.659658364
 10
82.7250149671
 20
49.893560891
 10
82.6934416245
 20
50.1315262023
 10
82.6521822914
 20
50.3729320644
 10
82.6013448528
 20
50.6171472473
 10
82.541062239
 20
50.8635331753
 10
82.4714920774
 20
51.1114455966
 10
82.3928162806
 20
51.3602362679
 10
82.3052405706
 20
51.6092546495
 10
82.2089939411
 20
51.8578496062
 10
82.1043280585
 20
52.10537111
 10
81.991516604
 20
52.3511719398
 10
81.8708545578
 20
52.5946093738
 10
81.742657428
 20
52.8350468697
 10
81.6072604253
 20
53.0718557299
 10
81.465017587
 20
53.3044167448
 10
81.3163008506
 20
53.5321218119
 10
81.1614990819
 20
53.7543755264
 10
81.0010170576
 20
53.9705967376
 10
80.8352744074
 20
54.1802200685
 10
80.6647045164
 20
54.3826973945
 10
80.4897533922
 20
54.5774992763
 10
80.3108784982
 20
54.7641163446
 10
80.1285475578
 20
54.9420606314
 10
79.9432373315
 20
55.1108668469
 10
79.7554323698
 20
55.2700935951
 10
79.5656237465
 20
55.4193245288
 10
79.3743077747
 20
55.5581694377
 10
79.1819847089
 20
55.6862652692
 10
78.9891574368
 20
55.8032770773
  0
ARC
  5
4AF
330
1F
100
AcDbEntity
  8
0
  6
SLD-Solid
 62
     7
370
    25
100
AcDbCircle
 10
80.916025521
 20
46.5460013529
 30
0.0
 40
0.0441295529491414
100
AcDbArc
 50
101.5210385677
 51
189.1346162791
  0
LINE
  5
4B0
330
1F
100
AcDbEntity
  8
0
  6
SLD-Solid
 62
     7
370
    25
100
AcDbLine
 10
80.8724556159
 20
46.5389955833
 30
0.0
 11
80.8724556159
 21
46.5858936038
 31
0.0
  0
LINE
  5
4B1
330
1F
100
AcDbEntity
  8
0
  6
SLD-Solid
 62
     7
370
    25
100
AcDbLine
 10
80.8724556159
 20
46.5858936038
 30
0.0
 11
80.8077018689
 21
46.6232751462
 31
0.0
  0
ARC
  5
4B2
330
1F
100
AcDbEntity
  8
0
  6
SLD-Solid
 62
     7
370
    25
100
AcDbCircle
 10
80.8802681574
 20
46.6063386989
 30
0.0
 40
0.0745165046835904
100
AcDbArc
 50
96.9457168277
 51
166.8627479425
  0
LWPOLYLINE
  5
4B3
330
1F
100
AcDbEntity
  8
0
  6
SLD-Solid
 62
     7
370
    25
100
AcDbPolyline
 90
       48
 70
   128
 43
0.0
 10
85.1242770652
 20
48.8292989718
 10
85.1343962197
 20
48.8351851245
 10
85.2667373957
 20
48.920834025
 10
85.3917320959
 20
49.0183241572
 10
85.5090534834
 20
49.127400603
 10
85.6183947853
 20
49.2477781485
 10
85.7194700951
 20
49.3791420296
 10
85.8120151202
 20
49.5211487551
 10
85.8957878733
 20
49.6734270046
 10
85.9705693047
 20
49.8355785998
 10
86.0361638754
 20
50.0071795455
 10
86.0924000682
 20
50.1877811383
 10
86.1391308363
 20
50.3769111396
 10
86.1762339876
 20
50.574075011
 10
86.2036125046
 20
50.7787572068
 10
86.2211947977
 20
50.9904225225
 10
86.2289348926
 20
51.208517494
 10
86.2268125505
 20
51.4324718448
 10
86.2148333209
 20
51.6616999775
 10
86.1930285271
 20
51.8956025046
 10
86.1614551845
 20
52.1335678159
 10
86.1201958513
 20
52.3749736779
 10
86.0693584128
 20
52.6191888608
 10
86.009075799
 20
52.8655747888
 10
85.9395056374
 20
53.1134872101
 10
85.8608298405
 20
53.3622778814
 10
85.7732541306
 20
53.611296263
 10
85.6770075011
 20
53.8598912197
 10
85.5723416185
 20
54.1074127236
 10
85.459530164
 20
54.3532135534
 10
85.3388681178
 20
54.5966509873
 10
85.210670988
 20
54.8370884833
 10
85.0752739853
 20
55.0738973435
 10
84.933031147
 20
55.3064583583
 10
84.7843144106
 20
55.5341634254
 10
84.6295126418
 20
55.7564171399
 10
84.4690306176
 20
55.9726383511
 10
84.3032879674
 20
56.182261682
 10
84.1327180764
 20
56.384739008
 10
83.9577669522
 20
56.5795408899
 10
83.7788920582
 20
56.7661579581
 10
83.5965611178
 20
56.944102245
 10
83.4112508915
 20
57.1129084604
 10
83.2234459298
 20
57.2721352086
 10
83.0336373065
 20
57.4213661423
 10
82.8423213347
 20
57.5602110512
 10
82.6499982689
 20
57.6883068828
 10
82.4571709968
 20
57.8053186909
  0
LWPOLYLINE
  5
4B4
330
1F
100
AcDbEntity
  8
0
  6
SLD-Solid
 62
     7
370
    25
100
AcDbPolyline
 90
       19
 70
   128
 43
0.0
 10
75.6334943482
 20
58.1403995793
 10
75.6390685247
 20
58.0995122373
 10
75.6589015018
 20
58.0540744019
 10
75.6924698194
 20
58.0114111286
 10
75.7386945642
 20
57.9728936503
 10
75.7960900348
 20
57.9397599504
 10
75.8628114936
 20
57.9130749733
 10
75.936714458
 20
57.893696396
 10
76.0154236259
 20
57.882247062
 10
76.0964092198
 20
57.8790949624
 10
76.1770682963
 20
57.8843414081
 10
76.2548084062
 20
57.8978177741
 10
76.3271309183
 20
57.919090919
 10
76.3917113277
 20
57.9474771063
 10
76.4464739668
 20
57.9820639806
 10
76.4896587194
 20
58.0217398913
 10
76.519877592
 20
58.065229622
 10
76.5361593251
 20
58.111135377
 10
76.5390061592
 20
58.1403995793
  0
LINE
  5
4B5
330
1F
100
AcDbEntity
  8
0
  6
SLD-Solid
 62
     7
370
    25
100
AcDbLine
 10
82.4571709968
 20
57.8053186909
 30
0.0
 11
75.5058102385
 21
61.8182538389
 31
0.0
  0
LWPOLYLINE
  5
4B6
330
1F
100
AcDbEntity
  8
0
  6
SLD-Solid
 62
     7
370
    25
100
AcDbPolyline
 90
       24
 70
   128
 43
0.0
 10
79.076379823
 20
52.9303180999
 10
79.0667645232
 20
52.9023323652
 10
79.0420248621
 20
52.8062764225
 10
79.0270787858
 20
52.7022426496
 10
79.0220796611
 20
52.5912985738
 10
79.0270787858
 20
52.4745826315
 10
79.0420248621
 20
52.3532924861
 10
79.0667645232
 20
52.2286727388
 10
79.1010439064
 20
52.1020021567
 10
79.1445112591
 20
51.9745805514
 10
79.1967205474
 20
51.847715441
 10
79.2571360333
 20
51.7227086333
 10
79.3251377721
 20
51.6008428672
 10
79.400027974
 20
51.4833686505
 10
79.4810381642
 20
51.3714914275
 10
79.5673370685
 20
51.2663592099
 10
79.6580391434
 20
51.1690507966
 10
79.7522136628
 20
51.0805647036
 10
79.8488942688
 20
51.0018089179
 10
79.9470888874
 20
50.9335915805
 10
80.0457899091
 20
50.8766126935
 10
80.1439845278
 20
50.8314569375
 10
80.2406651338
 20
50.7985876715
 10
80.3170191452
 20
50.7812349023
  0
LINE
  5
4B7
330
1F
100
AcDbEntity
  8
0
  6
SLD-Solid
 62
     7
370
    25
100
AcDbLine
 10
76.295215479
 20
58.3998577914
 30
0.0
 11
76.2071419373
 21
58.4507015648
 31
0.0
  0
LINE
  5
4B8
330
1F
100
AcDbEntity
  8
0
  6
SLD-Solid
 62
     7
370
    25
100
AcDbLine
 10
76.2071419373
 20
58.4507015648
 30
0.0
 11
75.8772850284
 21
58.2602792246
 31
0.0
  0
LINE
  5
4B9
330
1F
100
AcDbEntity
  8
0
  6
SLD-Solid
 62
     7
370
    25
100
AcDbLine
 10
75.8772850284
 20
58.2602792246
 30
0.0
 11
75.9653585702
 21
58.2094354512
 31
0.0
  0
LINE
  5
4BA
330
1F
100
AcDbEntity
  8
0
  6
SLD-Solid
 62
     7
370
    25
100
AcDbLine
 10
75.9653585702
 20
58.2094354512
 30
0.0
 11
76.295215479
 21
58.3998577914
 31
0.0
  0
LINE
  5
4BB
330
1F
100
AcDbEntity
  8
0
  6
SLD-Solid
 62
     7
370
    25
100
AcDbLine
 10
76.2071419373
 20
58.3690474836
 30
0.0
 11
75.9480072
 21
58.219452184
 31
0.0
  0
LINE
  5
4BC
330
1F
100
AcDbEntity
  8
0
  6
SLD-Solid
 62
     7
370
    25
100
AcDbLine
 10
76.2244933075
 20
58.3590307508
 30
0.0
 11
76.2071419373
 21
58.3690474836
 31
0.0
  0
LINE
  5
4BD
330
1F
100
AcDbEntity
  8
0
  6
SLD-Solid
 62
     7
370
    25
100
AcDbLine
 10
76.2071419373
 20
58.3690474836
 30
0.0
 11
76.2071419373
 21
58.4507015648
 31
0.0
  0
LINE
  5
4BE
330
1F
100
AcDbEntity
  8
0
  6
SLD-Solid
 62
     7
370
    25
100
AcDbLine
 10
84.3404691758
 20
47.5657842981
 30
0.0
 11
82.5306210177
 21
46.5209811957
 31
0.0
  0
LINE
  5
4BF
330
1F
100
AcDbEntity
  8
0
  6
SLD-Solid
 62
     7
370
    25
100
AcDbLine
 10
81.4215871171
 20
45.8807495525
 30
0.0
 11
80.6433530188
 21
45.4314845704
 31
0.0
  0
LINE
  5
4C0
330
1F
100
AcDbEntity
  8
0
  6
SLD-Solid
 62
     7
370
    25
100
AcDbLine
 10
80.6433530188
 20
45.4314845704
 30
0.0
 11
80.6433530188
 21
46.4536354897
 31
0.0
  0
LINE
  5
4C1
330
1F
100
AcDbEntity
  8
0
  6
SLD-Solid
 62
     7
370
    25
100
AcDbLine
 10
80.6433530188
 20
46.4536354897
 30
0.0
 11
80.8724556159
 21
46.5858936038
 31
0.0
  0
LWPOLYLINE
  5
4C2
330
1F
100
AcDbEntity
  8
0
  6
SLD-Solid
 62
     7
370
    25
100
AcDbPolyline
 90
        3
 70
   128
 43
0.0
 10
81.5640060479
 20
46.1834322704
 10
81.558623518
 20
46.2115726661
 10
81.555392262
 20
46.2175168593
  0
LWPOLYLINE
  5
4C3
330
1F
100
AcDbEntity
  8
0
  6
SLD-Solid
 62
     7
370
    25
100
AcDbPolyline
 90
        7
 70
   128
 43
0.0
 10
81.4594827488
 20
46.0513787081
 10
81.4662355647
 20
46.0515520376
 10
81.4932953697
 20
46.0609577837
 10
81.5203551747
 20
46.0827946234
 10
81.5432953697
 20
46.1137380959
 10
81.558623518
 20
46.149077338
 10
81.5640060479
 20
46.1834322704
  0
LINE
  5
4C4
330
1F
100
AcDbEntity
  8
0
  6
SLD-Solid
 62
     7
370
    25
100
AcDbLine
 10
84.3404691758
 20
48.3768163087
 30
0.0
 11
84.3404691758
 21
47.5657842981
 31
0.0
  0
LINE
  5
4C5
330
1F
100
AcDbEntity
  8
0
  6
SLD-Solid
 62
     7
370
    25
100
AcDbLine
 10
69.9253959023
 20
51.6188295124
 30
0.0
 11
80.6433530188
 21
45.4314845704
 31
0.0
  0
LINE
  5
4C6
330
1F
100
AcDbEntity
  8
0
  6
SLD-Solid
 62
     7
370
    25
100
AcDbLine
 10
69.9253959023
 20
52.6409804316
 30
0.0
 11
69.9253959023
 21
51.6188295124
 31
0.0
  0
LINE
  5
4C7
330
1F
100
AcDbEntity
  8
0
  6
SLD-Solid
 62
     7
370
    25
100
AcDbLine
 10
80.6433530188
 20
46.4536354897
 30
0.0
 11
69.9253959023
 21
52.6409804316
 31
0.0
  0
LINE
  5
4C8
330
1F
100
AcDbEntity
  8
0
  6
SLD-Solid
 62
     7
370
    25
100
AcDbLine
 10
80.6433530188
 20
46.5352763008
 30
0.0
 11
80.8017449377
 21
46.6267140094
 31
0.0
  0
LINE
  5
4C9
330
1F
100
AcDbEntity
  8
0
  6
SLD-Solid
 62
     7
370
    25
100
AcDbLine
 10
80.8077018689
 20
46.6232751462
 30
0.0
 11
80.8017449377
 21
46.6267140094
 31
0.0
  0
LINE
  5
4CA
330
1F
100
AcDbEntity
  8
0
  6
SLD-Solid
 62
     7
370
    25
100
AcDbLine
 10
69.9253959023
 20
52.6409804316
 30
0.0
 11
70.1544984994
 21
52.7732385457
 31
0.0
  0
LINE
  5
4CB
330
1F
100
AcDbEntity
  8
0
  6
SLD-Solid
 62
     7
370
    25
100
AcDbLine
 10
70.2252091776
 20
52.7324181401
 30
0.0
 11
70.2192522464
 21
52.7358570033
 31
0.0
  0
LINE
  5
4CC
330
1F
100
AcDbEntity
  8
0
  6
SLD-Solid
 62
     7
370
    25
100
AcDbLine
 10
70.0668172586
 20
52.6409804316
 30
0.0
 11
70.2252091776
 21
52.7324181401
 31
0.0
  0
LINE
  5
4CD
330
1F
100
AcDbEntity
  8
0
  6
SLD-Solid
 62
     7
370
    25
100
AcDbLine
 10
80.6433530188
 20
46.5352763008
 30
0.0
 11
70.0668172586
 21
52.6409804316
 31
0.0
  0
LINE
  5
4CE
330
1F
100
AcDbEntity
  8
0
  6
SLD-Solid
 62
     7
370
    25
100
AcDbLine
 10
71.0938504972
 20
52.9466099116
 30
0.0
 11
70.315622302
 21
52.4973483374
 31
0.0
  0
LINE
  5
4CF
330
1F
100
AcDbEntity
  8
0
  6
SLD-Solid
 62
     7
370
    25
100
AcDbLine
 10
80.6473470013
 20
46.5375819779
 30
0.0
 11
70.3691137592
 21
52.4710797305
 31
0.0
  0
LINE
  5
4D0
330
1F
100
AcDbEntity
  8
0
  6
SLD-Solid
 62
     7
370
    25
100
AcDbLine
 10
70.3691137592
 20
52.4710797305
 30
0.0
 11
71.1289002929
 21
52.9096951602
 31
0.0
  0
LWPOLYLINE
  5
4D1
330
1F
100
AcDbEntity
  8
0
  6
SLD-Solid
 62
     7
370
    25
100
AcDbPolyline
 90
       17
 70
   128
 43
0.0
 10
75.5058102385
 20
61.8182538389
 10
75.3129829664
 20
61.9238756603
 10
75.1206599006
 20
62.0178313141
 10
74.9293439288
 20
62.0998751244
 10
74.7395353055
 20
62.1697925624
 10
74.5517303438
 20
62.2274008076
 10
74.3664201174
 20
62.2725492253
 10
74.1840891771
 20
62.3051197612
 10
74.0052142831
 20
62.3250272496
 10
73.8302631588
 20
62.3322196363
 10
73.6596932679
 20
62.3266781144
 10
73.4939506177
 20
62.3084171741
 10
73.3334685934
 20
62.2774845643
 10
73.1786668247
 20
62.2339611676
 10
73.0299500883
 20
62.1779607894
 10
72.88770725
 20
62.10962986
 10
72.8387041701
 20
62.0823617461
  0
LINE
  5
4D2
330
1F
100
AcDbEntity
  8
0
  6
SLD-Solid
 62
     7
370
    25
100
AcDbLine
 10
75.5471814541
 20
52.2901693525
 30
0.0
 11
75.6710467985
 21
52.2186634112
 31
0.0
  0
LWPOLYLINE
  5
4D3
330
1F
100
AcDbEntity
  8
0
  6
SLD-Solid
 62
     7
370
    25
100
AcDbPolyline
 90
       24
 70
   128
 43
0.0
 10
72.1250190646
 20
56.9432532479
 10
72.1154037648
 20
56.9152675133
 10
72.0906641038
 20
56.8192115706
 10
72.0757180274
 20
56.7151777977
 10
72.0707189027
 20
56.6042337219
 10
72.0757180274
 20
56.4875177796
 10
72.0906641038
 20
56.3662276342
 10
72.1154037648
 20
56.2416078868
 10
72.1496831481
 20
56.1149373047
 10
72.1931505008
 20
55.9875156995
 10
72.245359789
 20
55.8606505891
 10
72.3057752749
 20
55.7356437814
 10
72.3737770137
 20
55.6137780153
 10
72.4486672156
 20
55.4963037986
 10
72.5296774058
 20
55.3844265756
 10
72.6159763101
 20
55.279294358
 10
72.706678385
 20
55.1819859447
 10
72.8008529045
 20
55.0934998517
 10
72.8975335104
 20
55.014744066
 10
72.9957281291
 20
54.9465267286
 10
73.0944291508
 20
54.8895478416
 10
73.1926237694
 20
54.8443920855
 10
73.2893043754
 20
54.8115228196
 10
73.3656583868
 20
54.7941700503
  0
LINE
  5
4D4
330
1F
100
AcDbEntity
  8
0
  6
SLD-Solid
 62
     7
370
    25
100
AcDbLine
 10
70.2252091776
 20
52.7324181401
 30
0.0
 11
70.2252091776
 21
52.6855201197
 31
0.0
  0
LWPOLYLINE
  5
4D5
330
1F
100
AcDbEntity
  8
0
  6
SLD-Solid
 62
     7
370
    25
100
AcDbPolyline
 90
       15
 70
   128
 43
0.0
 10
70.825702436
 20
52.2074966979
 10
70.824835728
 20
52.2197417117
 10
70.8302182579
 20
52.2540966441
 10
70.8455464061
 20
52.2894358862
 10
70.8684866011
 20
52.3203793587
 10
70.8955464061
 20
52.3422161985
 10
70.9226062111
 20
52.3516219446
 10
70.9455464061
 20
52.3471646574
 10
70.9608745544
 20
52.3295229186
 10
70.9662570843
 20
52.3013825229
 10
70.9608745544
 20
52.2670275905
 10
70.9455464061
 20
52.2316883484
 10
70.9226062111
 20
52.2007448759
 10
70.8955464061
 20
52.1789080361
 10
70.8845205557
 20
52.1735417201
  0
LINE
  5
4D6
330
1F
100
AcDbEntity
  8
0
  6
SLD-Solid
 62
     7
370
    25
100
AcDbLine
 10
71.0056133029
 20
52.1036363651
 30
0.0
 11
71.6129182701
 21
52.4542260601
 31
0.0
  0
INSERT
  5
4DC
330
1F
100
AcDbEntity
  8
NOTES
100
AcDbBlockReference
  2
SW_NOTE_0_3
 10
74.7149382991
 20
38.8581814325
 30
0.0
  0
INSERT
  5
4E2
102
{ACAD_REACTORS
330
4E3
102
}
330
1F
100
AcDbEntity
  8
NOTES
100
AcDbBlockReference
  2
SW_NOTE_0_4
 10
67.9824310883
 20
53.6503100239
 30
0.0
  0
LEADER
  5
4E3
330
1F
100
AcDbEntity
  8
NOTES
100
AcDbLeader
  3
SLDDIMSTYLE3
 73
     2
 76
     3
 10
69.530688974
 20
55.4776677623
 30
0.0
 10
68.4824310883
 20
53.6503100239
 30
0.0
 10
67.9824310883
 20
53.6503100239
 30
0.0
340
4E2
  0
ENDSEC
  0
SECTION
  2
OBJECTS
  0
DICTIONARY
  5
C
330
0
100
AcDbDictionary
281
     1
  3
ACAD_GROUP
350
D
  3
ACAD_LAYOUT
350
1A
  3
ACAD_MLINESTYLE
350
17
  3
ACAD_PLOTSETTINGS
350
19
  3
ACAD_PLOTSTYLENAME
350
E
  3
ACAD_SCALELIST
350
47
  3
DWGPROPS
350
4E4
  0
DICTIONARY
  5
D
102
{ACAD_REACTORS
330
C
102
}
330
C
100
AcDbDictionary
281
     1
  0
DICTIONARY
  5
1A
102
{ACAD_REACTORS
330
C
102
}
330
C
100
AcDbDictionary
281
     1
  3
Layout1
350
1E
  3
Layout2
350
26
  3
Model
350
22
  0
DICTIONARY
  5
17
102
{ACAD_REACTORS
330
C
102
}
330
C
100
AcDbDictionary
281
     1
  3
Standard
350
18
  0
DICTIONARY
  5
19
102
{ACAD_REACTORS
330
C
102
}
330
C
100
AcDbDictionary
281
     1
  0
ACDBDICTIONARYWDFLT
  5
E
102
{ACAD_REACTORS
330
C
102
}
330
C
100
AcDbDictionary
281
     1
  3
Normal
350
F
100
AcDbDictionaryWithDefault
340
F
  0
DICTIONARY
  5
47
102
{ACAD_REACTORS
330
C
102
}
330
C
100
AcDbDictionary
281
     1
  3
A0
350
48
  3
A1
350
49
  3
A2
350
4A
  3
A3
350
4B
  3
A4
350
4C
  3
A5
350
4D
  3
A6
350
4E
  3
A7
350
4F
  3
A8
350
50
  3
A9
350
51
  3
B0
350
52
  3
B1
350
53
  3
B2
350
54
  3
B3
350
55
  3
B4
350
56
  3
B5
350
57
  3
B6
350
58
  3
B7
350
59
  3
B8
350
5A
  3
B9
350
5B
  3
C0
350
5C
  3
C1
350
5D
  3
C2
350
5E
  3
C3
350
5F
  3
C4
350
60
  3
C5
350
61
  3
C6
350
62
  3
C7
350
63
  3
C8
350
64
  3
C9
350
65
  3
D0
350
66
  3
D1
350
67
  3
D2
350
68
  0
XRECORD
  5
4E4
102
{ACAD_REACTORS
330
C
102
}
330
C
100
AcDbXrecord
280
     1
  1
DWGPROPS COOKIE
  2

  3

  4

  6

  7

  8
carl
  9

300
=
301
=
302
=
303
=
304
=
305
=
306
=
307
=
308
=
309
=
 40
0.0
 41
2459478.769320208
 42
2459478.769326817
  1

 90
        0
  0
LAYOUT
  5
1E
102
{ACAD_REACTORS
330
1A
102
}
330
1A
100
AcDbPlotSettings
  1

  2
none_device
  4

  6

 40
0.0
 41
0.0
 42
0.0
 43
0.0
 44
0.0
 45
0.0
 46
0.0
 47
0.0
 48
0.0
 49
0.0
140
0.0
141
0.0
142
1.0
143
1.0
 70
   688
 72
     0
 73
     0
 74
     5
  7

 75
    16
147
1.0
148
0.0
149
0.0
100
AcDbLayout
  1
Layout1
 70
     1
 71
     1
 10
0.0
 20
0.0
 11
12.0
 21
9.0
 12
0.0
 22
0.0
 32
0.0
 14
1.0000000000E+20
 24
1.0000000000E+20
 34
1.0000000000E+20
 15
-1.0000000000E+20
 25
-1.0000000000E+20
 35
-1.0000000000E+20
146
0.0
 13
0.0
 23
0.0
 33
0.0
 16
1.0
 26
0.0
 36
0.0
 17
0.0
 27
1.0
 37
0.0
 76
     0
330
1B
  0
LAYOUT
  5
26
102
{ACAD_REACTORS
330
1A
102
}
330
1A
100
AcDbPlotSettings
  1

  2
none_device
  4

  6

 40
0.0
 41
0.0
 42
0.0
 43
0.0
 44
0.0
 45
0.0
 46
0.0
 47
0.0
 48
0.0
 49
0.0
140
0.0
141
0.0
142
1.0
143
1.0
 70
   688
 72
     0
 73
     0
 74
     5
  7

 75
    16
147
1.0
148
0.0
149
0.0
100
AcDbLayout
  1
Layout2
 70
     1
 71
     2
 10
0.0
 20
0.0
 11
0.0
 21
0.0
 12
0.0
 22
0.0
 32
0.0
 14
0.0
 24
0.0
 34
0.0
 15
0.0
 25
0.0
 35
0.0
146
0.0
 13
0.0
 23
0.0
 33
0.0
 16
1.0
 26
0.0
 36
0.0
 17
0.0
 27
1.0
 37
0.0
 76
     0
330
23
  0
LAYOUT
  5
22
102
{ACAD_REACTORS
330
1A
102
}
330
1A
100
AcDbPlotSettings
  1

  2
none_device
  4
Letter_(8.50_x_11.00_Inches)
  6

 40
6.35
 41
6.35
 42
6.35000508
 43
6.35000508
 44
215.9
 45
279.4
 46
0.0
 47
0.0
 48
0.0
 49
0.0
140
0.0
141
0.0
142
1.0
143
1.0
 70
  1712
 72
     0
 73
     0
 74
     0
  7

 75
     0
147
1.0
148
0.0
149
0.0
100
AcDbLayout
  1
Model
 70
     1
 71
     0
 10
0.0
 20
0.0
 11
90.0
 21
120.0
 12
0.0
 22
0.0
 32
0.0
 14
0.0
 24
0.0
 34
0.0
 15
90.0
 25
120.0
 35
0.0
146
0.0
 13
0.0
 23
0.0
 33
0.0
 16
1.0
 26
0.0
 36
0.0
 17
0.0
 27
1.0
 37
0.0
 76
     0
330
1F
331
29
  0
MLINESTYLE
  5
18
102
{ACAD_REACTORS
330
17
102
}
330
17
100
AcDbMlineStyle
  2
Standard
 70
     0
  3

 62
   256
 51
90.0
 52
90.0
 71
     2
 49
0.5
 62
   256
  6
BYLAYER
 49
-0.5
 62
   256
  6
BYLAYER
  0
ACDBPLACEHOLDER
  5
F
102
{ACAD_REACTORS
330
E
102
}
330
E
  0
SCALE
  5
48
102
{ACAD_REACTORS
330
47
102
}
330
47
100
AcDbScale
 70
     0
300
1:1
140
1.0
141
1.0
290
     1
  0
SCALE
  5
49
102
{ACAD_REACTORS
330
47
102
}
330
47
100
AcDbScale
 70
     0
300
1:2
140
1.0
141
2.0
290
     0
  0
SCALE
  5
4A
102
{ACAD_REACTORS
330
47
102
}
330
47
100
AcDbScale
 70
     0
300
1:4
140
1.0
141
4.0
290
     0
  0
SCALE
  5
4B
102
{ACAD_REACTORS
330
47
102
}
330
47
100
AcDbScale
 70
     0
300
1:5
140
1.0
141
5.0
290
     0
  0
SCALE
  5
4C
102
{ACAD_REACTORS
330
47
102
}
330
47
100
AcDbScale
 70
     0
300
1:8
140
1.0
141
8.0
290
     0
  0
SCALE
  5
4D
102
{ACAD_REACTORS
330
47
102
}
330
47
100
AcDbScale
 70
     0
300
1:10
140
1.0
141
10.0
290
     0
  0
SCALE
  5
4E
102
{ACAD_REACTORS
330
47
102
}
330
47
100
AcDbScale
 70
     0
300
1:16
140
1.0
141
16.0
290
     0
  0
SCALE
  5
4F
102
{ACAD_REACTORS
330
47
102
}
330
47
100
AcDbScale
 70
     0
300
1:20
140
1.0
141
20.0
290
     0
  0
SCALE
  5
50
102
{ACAD_REACTORS
330
47
102
}
330
47
100
AcDbScale
 70
     0
300
1:30
140
1.0
141
30.0
290
     0
  0
SCALE
  5
51
102
{ACAD_REACTORS
330
47
102
}
330
47
100
AcDbScale
 70
     0
300
1:40
140
1.0
141
40.0
290
     0
  0
SCALE
  5
52
102
{ACAD_REACTORS
330
47
102
}
330
47
100
AcDbScale
 70
     0
300
1:50
140
1.0
141
50.0
290
     0
  0
SCALE
  5
53
102
{ACAD_REACTORS
330
47
102
}
330
47
100
AcDbScale
 70
     0
300
1:100
140
1.0
141
100.0
290
     0
  0
SCALE
  5
54
102
{ACAD_REACTORS
330
47
102
}
330
47
100
AcDbScale
 70
     0
300
2:1
140
2.0
141
1.0
290
     0
  0
SCALE
  5
55
102
{ACAD_REACTORS
330
47
102
}
330
47
100
AcDbScale
 70
     0
300
4:1
140
4.0
141
1.0
290
     0
  0
SCALE
  5
56
102
{ACAD_REACTORS
330
47
102
}
330
47
100
AcDbScale
 70
     0
300
8:1
140
8.0
141
1.0
290
     0
  0
SCALE
  5
57
102
{ACAD_REACTORS
330
47
102
}
330
47
100
AcDbScale
 70
     0
300
10:1
140
10.0
141
1.0
290
     0
  0
SCALE
  5
58
102
{ACAD_REACTORS
330
47
102
}
330
47
100
AcDbScale
 70
     0
300
100:1
140
100.0
141
1.0
290
     0
  0
SCALE
  5
59
102
{ACAD_REACTORS
330
47
102
}
330
47
100
AcDbScale
 70
     0
300
1/128" = 1'-0"
140
0.0078125
141
12.0
290
     0
  0
SCALE
  5
5A
102
{ACAD_REACTORS
330
47
102
}
330
47
100
AcDbScale
 70
     0
300
1/64" = 1'-0"
140
0.015625
141
12.0
290
     0
  0
SCALE
  5
5B
102
{ACAD_REACTORS
330
47
102
}
330
47
100
AcDbScale
 70
     0
300
1/32" = 1'-0"
140
0.03125
141
12.0
290
     0
  0
SCALE
  5
5C
102
{ACAD_REACTORS
330
47
102
}
330
47
100
AcDbScale
 70
     0
300
1/16" = 1'-0"
140
0.0625
141
12.0
290
     0
  0
SCALE
  5
5D
102
{ACAD_REACTORS
330
47
102
}
330
47
100
AcDbScale
 70
     0
300
3/32" = 1'-0"
140
0.09375
141
12.0
290
     0
  0
SCALE
  5
5E
102
{ACAD_REACTORS
330
47
102
}
330
47
100
AcDbScale
 70
     0
300
1/8" = 1'-0"
140
0.125
141
12.0
290
     0
  0
SCALE
  5
5F
102
{ACAD_REACTORS
330
47
102
}
330
47
100
AcDbScale
 70
     0
300
3/16" = 1'-0"
140
0.1875
141
12.0
290
     0
  0
SCALE
  5
60
102
{ACAD_REACTORS
330
47
102
}
330
47
100
AcDbScale
 70
     0
300
1/4" = 1'-0"
140
0.25
141
12.0
290
     0
  0
SCALE
  5
61
102
{ACAD_REACTORS
330
47
102
}
330
47
100
AcDbScale
 70
     0
300
3/8" = 1'-0"
140
0.375
141
12.0
290
     0
  0
SCALE
  5
62
102
{ACAD_REACTORS
330
47
102
}
330
47
100
AcDbScale
 70
     0
300
1/2" = 1'-0"
140
0.5
141
12.0
290
     0
  0
SCALE
  5
63
102
{ACAD_REACTORS
330
47
102
}
330
47
100
AcDbScale
 70
     0
300
3/4" = 1'-0"
140
0.75
141
12.0
290
     0
  0
SCALE
  5
64
102
{ACAD_REACTORS
330
47
102
}
330
47
100
AcDbScale
 70
     0
300
1" = 1'-0"
140
1.0
141
12.0
290
     0
  0
SCALE
  5
65
102
{ACAD_REACTORS
330
47
102
}
330
47
100
AcDbScale
 70
     0
300
1-1/2" = 1'-0"
140
1.5
141
12.0
290
     0
  0
SCALE
  5
66
102
{ACAD_REACTORS
330
47
102
}
330
47
100
AcDbScale
 70
     0
300
3" = 1'-0"
140
3.0
141
12.0
290
     0
  0
SCALE
  5
67
102
{ACAD_REACTORS
330
47
102
}
330
47
100
AcDbScale
 70
     0
300
6" = 1'-0"
140
6.0
141
12.0
290
     0
  0
SCALE
  5
68
102
{ACAD_REACTORS
330
47
102
}
330
47
100
AcDbScale
 70
     0
300
1'-0" = 1'-0"
140
12.0
141
12.0
290
     0
  0
ENDSEC
  0
EOF
