  0
SECTION
  2
HEADER
  9
$ACADVER
  1
AC1018
  9
$ACADMAINTVER
 70
    39
  9
$DWGCODEPAGE
  3
ANSI_1252
  9
$LASTSAVEDBY
  1
fottrem
  9
$INSBASE
 10
0.0
 20
0.0
 30
0.0
  9
$EXTMIN
 10
0.1653543307086614
 20
0.1653543307086614
 30
-1.492261801079423
  9
$EXTMAX
 10
66.83464566929133
 20
31.83464566929133
 30
1.492261801079426
  9
$LIMMIN
 10
0.0
 20
0.0
  9
$LIMMAX
 10
67.0
 20
32.0
  9
$ORTHOMODE
 70
     0
  9
$REGENMODE
 70
     1
  9
$FILLMODE
 70
     1
  9
$QTEXTMODE
 70
     0
  9
$MIRRTEXT
 70
     1
  9
$LTSCALE
 40
1.0
  9
$ATTMODE
 70
     1
  9
$TEXTSIZE
 40
0.25
  9
$TRACEWID
 40
0.05
  9
$TEXTSTYLE
  7
Standard
  9
$CLAYER
  8
0
  9
$CELTYPE
  6
ByLayer
  9
$CECOLOR
 62
   256
  9
$CELTSCALE
 40
1.0
  9
$DISPSILH
 70
     0
  9
$DIMSCALE
 40
1.0
  9
$DIMASZ
 40
0.25
  9
$DIMEXO
 40
0.1666666666666667
  9
$DIMDLI
 40
0.38
  9
$DIMRND
 40
0.0
  9
$DIMDLE
 40
0.0
  9
$DIMEXE
 40
0.3750000000000001
  9
$DIMTP
 40
0.0
  9
$DIMTM
 40
0.0
  9
$DIMTXT
 40
0.25
  9
$DIMCEN
 40
0.09
  9
$DIMTSZ
 40
0.0
  9
$DIMTOL
 70
     0
  9
$DIMLIM
 70
     0
  9
$DIMTIH
 70
     1
  9
$DIMTOH
 70
     1
  9
$DIMSE1
 70
     0
  9
$DIMSE2
 70
     0
  9
$DIMTAD
 70
     0
  9
$DIMZIN
 70
     1
  9
$DIMBLK
  1

  9
$DIMASO
 70
     1
  9
$DIMSHO
 70
     1
  9
$DIMPOST
  1

  9
$DIMAPOST
  1

  9
$DIMALT
 70
     0
  9
$DIMALTD
 70
     2
  9
$DIMALTF
 40
25.4
  9
$DIMLFAC
 40
1.0
  9
$DIMTOFL
 70
     0
  9
$DIMTVP
 40
0.0
  9
$DIMTIX
 70
     0
  9
$DIMSOXD
 70
     0
  9
$DIMSAH
 70
     0
  9
$DIMBLK1
  1

  9
$DIMBLK2
  1

  9
$DIMSTYLE
  2
Standard
  9
$DIMCLRD
 70
     0
  9
$DIMCLRE
 70
     0
  9
$DIMCLRT
 70
     0
  9
$DIMTFAC
 40
1.0
  9
$DIMGAP
 40
0.125
  9
$DIMJUST
 70
     0
  9
$DIMSD1
 70
     0
  9
$DIMSD2
 70
     0
  9
$DIMTOLJ
 70
     1
  9
$DIMTZIN
 70
     1
  9
$DIMALTZ
 70
     0
  9
$DIMALTTZ
 70
     0
  9
$DIMUPT
 70
     0
  9
$DIMDEC
 70
     2
  9
$DIMTDEC
 70
     2
  9
$DIMALTU
 70
     2
  9
$DIMALTTD
 70
     2
  9
$DIMTXSTY
  7
Standard
  9
$DIMAUNIT
 70
     0
  9
$DIMADEC
 70
     2
  9
$DIMALTRND
 40
0.0
  9
$DIMAZIN
 70
     0
  9
$DIMDSEP
 70
    46
  9
$DIMATFIT
 70
     3
  9
$DIMFRAC
 70
     0
  9
$DIMLDRBLK
  1

  9
$DIMLUNIT
 70
     2
  9
$DIMLWD
 70
    -2
  9
$DIMLWE
 70
    -2
  9
$DIMTMOVE
 70
     0
  9
$LUNITS
 70
     2
  9
$LUPREC
 70
     4
  9
$SKETCHINC
 40
0.1
  9
$FILLETRAD
 40
0.5
  9
$AUNITS
 70
     0
  9
$AUPREC
 70
     2
  9
$MENU
  1
.
  9
$ELEVATION
 40
0.0
  9
$PELEVATION
 40
0.0
  9
$THICKNESS
 40
0.0
  9
$LIMCHECK
 70
     0
  9
$CHAMFERA
 40
0.0
  9
$CHAMFERB
 40
0.0
  9
$CHAMFERC
 40
0.0
  9
$CHAMFERD
 40
0.0
  9
$SKPOLY
 70
     0
  9
$TDCREATE
 40
2453353.550459155
  9
$TDUCREATE
 40
2453353.717125822
  9
$TDUPDATE
 40
2459488.549479398
  9
$TDUUPDATE
 40
2459488.716146065
  9
$TDINDWG
 40
0.0428125116
  9
$TDUSRTIMER
 40
0.0428125116
  9
$USRTIMER
 70
     1
  9
$ANGBASE
 50
0.0
  9
$ANGDIR
 70
     0
  9
$PDMODE
 70
     0
  9
$PDSIZE
 40
-1.0
  9
$PLINEWID
 40
0.0
  9
$SPLFRAME
 70
     0
  9
$SPLINETYPE
 70
     6
  9
$SPLINESEGS
 70
     8
  9
$HANDSEED
  5
5CE
  9
$SURFTAB1
 70
     6
  9
$SURFTAB2
 70
     6
  9
$SURFTYPE
 70
     6
  9
$SURFU
 70
     6
  9
$SURFV
 70
     6
  9
$UCSBASE
  2

  9
$UCSNAME
  2

  9
$UCSORG
 10
0.0
 20
0.0
 30
0.0
  9
$UCSXDIR
 10
1.0
 20
0.0
 30
0.0
  9
$UCSYDIR
 10
0.0
 20
1.0
 30
0.0
  9
$UCSORTHOREF
  2

  9
$UCSORTHOVIEW
 70
     0
  9
$UCSORGTOP
 10
0.0
 20
0.0
 30
0.0
  9
$UCSORGBOTTOM
 10
0.0
 20
0.0
 30
0.0
  9
$UCSORGLEFT
 10
0.0
 20
0.0
 30
0.0
  9
$UCSORGRIGHT
 10
0.0
 20
0.0
 30
0.0
  9
$UCSORGFRONT
 10
0.0
 20
0.0
 30
0.0
  9
$UCSORGBACK
 10
0.0
 20
0.0
 30
0.0
  9
$PUCSBASE
  2

  9
$PUCSNAME
  2

  9
$PUCSORG
 10
0.0
 20
0.0
 30
0.0
  9
$PUCSXDIR
 10
1.0
 20
0.0
 30
0.0
  9
$PUCSYDIR
 10
0.0
 20
1.0
 30
0.0
  9
$PUCSORTHOREF
  2

  9
$PUCSORTHOVIEW
 70
     0
  9
$PUCSORGTOP
 10
0.0
 20
0.0
 30
0.0
  9
$PUCSORGBOTTOM
 10
0.0
 20
0.0
 30
0.0
  9
$PUCSORGLEFT
 10
0.0
 20
0.0
 30
0.0
  9
$PUCSORGRIGHT
 10
0.0
 20
0.0
 30
0.0
  9
$PUCSORGFRONT
 10
0.0
 20
0.0
 30
0.0
  9
$PUCSORGBACK
 10
0.0
 20
0.0
 30
0.0
  9
$USERI1
 70
     0
  9
$USERI2
 70
     0
  9
$USERI3
 70
     0
  9
$USERI4
 70
     0
  9
$USERI5
 70
     0
  9
$USERR1
 40
0.0
  9
$USERR2
 40
0.0
  9
$USERR3
 40
0.0
  9
$USERR4
 40
0.0
  9
$USERR5
 40
0.0
  9
$WORLDVIEW
 70
     1
  9
$SHADEDGE
 70
     3
  9
$SHADEDIF
 70
    70
  9
$TILEMODE
 70
     1
  9
$MAXACTVP
 70
    64
  9
$PINSBASE
 10
0.0
 20
0.0
 30
0.0
  9
$PLIMCHECK
 70
     0
  9
$PEXTMIN
 10
1.000000000000000E+20
 20
1.000000000000000E+20
 30
1.000000000000000E+20
  9
$PEXTMAX
 10
-1.000000000000000E+20
 20
-1.000000000000000E+20
 30
-1.000000000000000E+20
  9
$PLIMMIN
 10
0.0
 20
0.0
  9
$PLIMMAX
 10
12.0
 20
9.0
  9
$UNITMODE
 70
     0
  9
$VISRETAIN
 70
     1
  9
$PLINEGEN
 70
     0
  9
$PSLTSCALE
 70
     1
  9
$TREEDEPTH
 70
  3020
  9
$CMLSTYLE
  2
Standard
  9
$CMLJUST
 70
     0
  9
$CMLSCALE
 40
1.0
  9
$PROXYGRAPHICS
 70
     1
  9
$MEASUREMENT
 70
     0
  9
$CELWEIGHT
370
    -1
  9
$ENDCAPS
280
     0
  9
$JOINSTYLE
280
     0
  9
$LWDISPLAY
290
     1
  9
$INSUNITS
 70
     1
  9
$HYPERLINKBASE
  1

  9
$STYLESHEET
  1

  9
$XEDIT
290
     0
  9
$CEPSNTYPE
380
     0
  9
$PSTYLEMODE
290
     1
  9
$FINGERPRINTGUID
  2
{0417e918-472e-49c6-95c5-ccec3fbbd64d}
  9
$VERSIONGUID
  2
{FAEB1C32-E019-11D5-929B-00C0DF256EC4}
  9
$EXTNAMES
290
     1
  9
$PSVPSCALE
 40
0.0
  9
$OLESTARTUP
290
     0
  9
$SORTENTS
280
   127
  9
$INDEXCTL
280
     0
  9
$HIDETEXT
280
     1
  9
$XCLIPFRAME
290
     0
  9
$HALOGAP
280
     0
  9
$OBSCOLOR
 70
   257
  9
$OBSLTYPE
280
     0
  9
$INTERSECTIONDISPLAY
280
     0
  9
$INTERSECTIONCOLOR
 70
   257
  9
$DIMASSOC
280
     2
  9
$PROJECTNAME
  1

  0
ENDSEC
  0
SECTION
  2
CLASSES
  0
CLASS
  1
ACDBDICTIONARYWDFLT
  2
AcDbDictionaryWithDefault
  3
ObjectDBX Classes
 90
        0
 91
        3
280
     0
281
     0
  0
CLASS
  1
ACDBPLACEHOLDER
  2
AcDbPlaceHolder
  3
ObjectDBX Classes
 90
        0
 91
        1
280
     0
281
     0
  0
CLASS
  1
LAYOUT
  2
AcDbLayout
  3
ObjectDBX Classes
 90
        0
 91
        1
280
     0
281
     0
  0
CLASS
  1
DICTIONARYVAR
  2
AcDbDictionaryVar
  3
ObjectDBX Classes
 90
        0
 91
        3
280
     0
281
     0
  0
CLASS
  1
TABLESTYLE
  2
AcDbTableStyle
  3
ObjectDBX Classes
 90
     2047
 91
        3
280
     0
281
     0
  0
CLASS
  1
SCALE
  2
AcDbScale
  3
ObjectDBX Classes
 90
     1153
 91
       67
280
     1
281
     0
  0
ENDSEC
  0
SECTION
  2
TABLES
  0
TABLE
  2
VPORT
  5
8
330
0
100
AcDbSymbolTable
 70
     2
  0
VPORT
  5
97
330
8
100
AcDbSymbolTableRecord
100
AcDbViewportTableRecord
  2
*Active
 70
     0
 10
0.0
 20
0.0
 11
1.0
 21
1.0
 12
33.5
 22
16.0
 13
0.0
 23
0.0
 14
0.5
 24
0.5
 15
0.5
 25
0.5
 16
0.0
 26
0.0
 36
1.0
 17
0.0
 27
0.0
 37
0.0
 40
32.30267716535432
 41
2.09375
 42
50.0
 43
0.0
 44
0.0
 50
0.0
 51
0.0
 71
    16
 72
  2000
 73
     1
 74
     1
 75
     0
 76
     0
 77
     0
 78
     0
281
     0
 65
     0
110
0.0
120
0.0
130
0.0
111
1.0
121
0.0
131
0.0
112
0.0
122
1.0
132
0.0
 79
     0
146
0.0
  0
ENDTAB
  0
TABLE
  2
LTYPE
  5
5
330
0
100
AcDbSymbolTable
 70
     8
  0
LTYPE
  5
14
330
5
100
AcDbSymbolTableRecord
100
AcDbLinetypeTableRecord
  2
ByBlock
 70
     0
  3

 72
    65
 73
     0
 40
0.0
  0
LTYPE
  5
15
330
5
100
AcDbSymbolTableRecord
100
AcDbLinetypeTableRecord
  2
ByLayer
 70
     0
  3

 72
    65
 73
     0
 40
0.0
  0
LTYPE
  5
16
330
5
100
AcDbSymbolTableRecord
100
AcDbLinetypeTableRecord
  2
Continuous
 70
     0
  3
Solid line
 72
    65
 73
     0
 40
0.0
  0
LTYPE
  5
59C
330
5
100
AcDbSymbolTableRecord
100
AcDbLinetypeTableRecord
  2
SLD-Solid
 70
     0
  3
SolidWorks Line Style
 72
    65
 73
     0
 40
0.0
  0
LTYPE
  5
59D
330
5
100
AcDbSymbolTableRecord
100
AcDbLinetypeTableRecord
  2
SLD-Dashed
 70
     0
  3
SolidWorks Line Style
 72
    65
 73
     2
 40
0.075
 49
0.05
 74
     4
 75
     0
340
0
 46
1.0
 50
0.0
 44
0.0
 45
0.0
 49
-0.025
 74
     4
 75
     0
340
0
 46
1.0
 50
0.0
 44
0.0
 45
0.0
  0
LTYPE
  5
59E
330
5
100
AcDbSymbolTableRecord
100
AcDbLinetypeTableRecord
  2
SLD-Phantom
 70
     0
  3
SolidWorks Line Style
 72
    65
 73
     6
 40
0.4999999999999999
 49
0.25
 74
     4
 75
     0
340
0
 46
1.0
 50
0.0
 44
0.0
 45
0.0
 49
-0.05
 74
     4
 75
     0
340
0
 46
1.0
 50
0.0
 44
0.0
 45
0.0
 49
0.05
 74
     4
 75
     0
340
0
 46
1.0
 50
0.0
 44
0.0
 45
0.0
 49
-0.05
 74
     4
 75
     0
340
0
 46
1.0
 50
0.0
 44
0.0
 45
0.0
 49
0.05
 74
     4
 75
     0
340
0
 46
1.0
 50
0.0
 44
0.0
 45
0.0
 49
-0.05
 74
     4
 75
     0
340
0
 46
1.0
 50
0.0
 44
0.0
 45
0.0
  0
LTYPE
  5
59F
330
5
100
AcDbSymbolTableRecord
100
AcDbLinetypeTableRecord
  2
SLD-Chain
 70
     0
  3
SolidWorks Line Style
 72
    65
 73
     4
 40
0.4
 49
0.25
 74
     4
 75
     0
340
0
 46
1.0
 50
0.0
 44
0.0
 45
0.0
 49
-0.05
 74
     4
 75
     0
340
0
 46
1.0
 50
0.0
 44
0.0
 45
0.0
 49
0.05
 74
     4
 75
     0
340
0
 46
1.0
 50
0.0
 44
0.0
 45
0.0
 49
-0.05
 74
     4
 75
     0
340
0
 46
1.0
 50
0.0
 44
0.0
 45
0.0
  0
LTYPE
  5
5A0
330
5
100
AcDbSymbolTableRecord
100
AcDbLinetypeTableRecord
  2
SLD-Center
 70
     0
  3
SolidWorks Line Style
 72
    65
 73
     4
 40
0.7500000000000002
 49
0.6000000000000001
 74
     4
 75
     0
340
0
 46
1.0
 50
0.0
 44
0.0
 45
0.0
 49
-0.05
 74
     4
 75
     0
340
0
 46
1.0
 50
0.0
 44
0.0
 45
0.0
 49
0.05
 74
     4
 75
     0
340
0
 46
1.0
 50
0.0
 44
0.0
 45
0.0
 49
-0.05
 74
     4
 75
     0
340
0
 46
1.0
 50
0.0
 44
0.0
 45
0.0
  0
LTYPE
  5
5A1
330
5
100
AcDbSymbolTableRecord
100
AcDbLinetypeTableRecord
  2
SLD-Stitch
 70
     0
  3
SolidWorks Line Style
 72
    65
 73
     2
 40
0.025
 49
0.0
 74
     4
 75
     0
340
0
 46
1.0
 50
0.0
 44
0.0
 45
0.0
 49
-0.025
 74
     4
 75
     0
340
0
 46
1.0
 50
0.0
 44
0.0
 45
0.0
  0
LTYPE
  5
5A2
330
5
100
AcDbSymbolTableRecord
100
AcDbLinetypeTableRecord
  2
SLD-Thin-Thick-Chain
 70
     0
  3
SolidWorks Line Style
 72
    65
 73
     4
 40
0.4
 49
0.25
 74
     4
 75
     0
340
0
 46
1.0
 50
0.0
 44
0.0
 45
0.0
 49
-0.05
 74
     4
 75
     0
340
0
 46
1.0
 50
0.0
 44
0.0
 45
0.0
 49
0.05
 74
     4
 75
     0
340
0
 46
1.0
 50
0.0
 44
0.0
 45
0.0
 49
-0.05
 74
     4
 75
     0
340
0
 46
1.0
 50
0.0
 44
0.0
 45
0.0
  0
ENDTAB
  0
TABLE
  2
LAYER
  5
2
330
0
100
AcDbSymbolTable
 70
     6
  0
LAYER
  5
10
330
2
100
AcDbSymbolTableRecord
100
AcDbLayerTableRecord
  2
0
 70
     0
 62
     7
  6
Continuous
370
    -3
390
F
  0
LAYER
  5
5A3
330
2
100
AcDbSymbolTableRecord
100
AcDbLayerTableRecord
  2
FORMAT
 70
     0
 62
     7
  6
SLD-Solid
370
    -3
390
F
  0
LAYER
  5
5A4
330
2
100
AcDbSymbolTableRecord
100
AcDbLayerTableRecord
  2
NOTES
 70
     0
 62
     1
  6
SLD-Solid
370
    -3
390
F
  0
LAYER
  5
77
330
2
100
AcDbSymbolTableRecord
100
AcDbLayerTableRecord
  2
OBJECT
 70
     0
 62
     7
  6
SLD-Solid
370
    25
390
F
  0
LAYER
  5
78
330
2
100
AcDbSymbolTableRecord
100
AcDbLayerTableRecord
  2
DIMS
 70
     0
 62
     5
  6
SLD-Solid
370
    -3
390
F
  0
LAYER
  5
79
330
2
100
AcDbSymbolTableRecord
100
AcDbLayerTableRecord
  2
TITLE
 70
     0
 62
     8
  6
SLD-Solid
370
    -3
390
F
  0
ENDTAB
  0
TABLE
  2
STYLE
  5
3
330
0
100
AcDbSymbolTable
 70
     6
  0
STYLE
  5
11
330
3
100
AcDbSymbolTableRecord
100
AcDbTextStyleTableRecord
  2
Standard
 70
     0
 40
0.0
 41
1.0
 50
0.0
 71
     0
 42
0.25
  3
GOTHIC.TTF
  4

1001
ACAD
1000
CENTURY GOTHIC
1071
       34
  0
STYLE
  5
F1
330
3
100
AcDbSymbolTableRecord
100
AcDbTextStyleTableRecord
  2
SLDTEXTSTYLE0
 70
     0
 40
0.0
 41
0.948
 50
0.0
 71
     0
 42
0.25
  3
ARIAL.TTF
  4

1001
ACAD
1000
Arial
1071
      290
  0
STYLE
  5
F5
330
3
100
AcDbSymbolTableRecord
100
AcDbTextStyleTableRecord
  2
SLDTEXTSTYLE1
 70
     0
 40
0.0
 41
0.913
 50
0.0
 71
     0
 42
0.25
  3
GOTHIC.TTF
  4

1001
ACAD
1000
Century Gothic
1071
      290
  0
STYLE
  5
104
330
3
100
AcDbSymbolTableRecord
100
AcDbTextStyleTableRecord
  2
SLDTEXTSTYLE2
 70
     0
 40
0.0
 41
0.87
 50
0.0
 71
     0
 42
0.25
  3
ARIALNB.TTF
  4

1001
ACAD
1000
Arial Narrow
1071
 33554722
  0
STYLE
  5
106
330
3
100
AcDbSymbolTableRecord
100
AcDbTextStyleTableRecord
  2
SLDTEXTSTYLE3
 70
     0
 40
0.0
 41
0.87
 50
0.0
 71
     0
 42
0.25
  3
ARIALN.TTF
  4

1001
ACAD
1000
Arial Narrow
1071
      290
  0
STYLE
  5
235
330
3
100
AcDbSymbolTableRecord
100
AcDbTextStyleTableRecord
  2
SLDTEXTSTYLE4
 70
     0
 40
0.0
 41
0.913
 50
0.0
 71
     0
 42
0.25
  3
GOTHIC.TTF
  4
bigfont
1001
ACAD
1000
Century Gothic
1071
      290
  0
ENDTAB
  0
TABLE
  2
VIEW
  5
6
330
0
100
AcDbSymbolTable
 70
     0
  0
ENDTAB
  0
TABLE
  2
UCS
  5
7
330
0
100
AcDbSymbolTable
 70
     0
  0
ENDTAB
  0
TABLE
  2
APPID
  5
9
330
0
100
AcDbSymbolTable
 70
     1
  0
APPID
  5
12
330
9
100
AcDbSymbolTableRecord
100
AcDbRegAppTableRecord
  2
ACAD
 70
     0
  0
ENDTAB
  0
TABLE
  2
DIMSTYLE
  5
A
330
0
100
AcDbSymbolTable
 70
     5
100
AcDbDimStyleTable
  0
DIMSTYLE
105
27
330
A
100
AcDbSymbolTableRecord
100
AcDbDimStyleTableRecord
  2
Standard
 70
     0
340
11
  0
DIMSTYLE
105
207
102
{ACAD_REACTORS
330
206
330
228
330
55D
102
}
330
A
100
AcDbSymbolTableRecord
100
AcDbDimStyleTableRecord
  2
SLDDIMSTYLE0
 70
     0
 41
0.25
 44
0.0
 45
0.000000001
 78
    12
 79
     3
140
0.25
147
0.0625
173
     1
271
     2
272
     2
276
     2
277
     5
284
    12
340
F5
341
5A5
343
5A5
344
5A5
  0
DIMSTYLE
105
219
102
{ACAD_REACTORS
330
218
330
2A3
330
2B2
330
54E
330
568
330
577
102
}
330
A
100
AcDbSymbolTableRecord
100
AcDbDimStyleTableRecord
  2
SLDDIMSTYLE1
 70
     0
 41
0.25
 44
0.0
 45
0.000000001
 78
    12
 79
     3
140
0.25
147
0.0625
173
     1
271
     6
272
     2
276
     2
277
     5
284
    12
340
F5
341
5A5
343
5A5
344
5A5
  0
DIMSTYLE
105
237
330
A
100
AcDbSymbolTableRecord
100
AcDbDimStyleTableRecord
  2
SLDDIMSTYLE2
 70
     0
 41
0.25
 44
0.0
 45
0.000000001
146
0.25
147
0.0
173
     1
271
     0
272
     0
276
     2
277
     5
340
11
341
5A5
343
5A5
344
5A5
  0
DIMSTYLE
105
587
102
{ACAD_REACTORS
330
586
102
}
330
A
100
AcDbSymbolTableRecord
100
AcDbDimStyleTableRecord
  2
SLDDIMSTYLE3
 70
     0
 41
0.25
 44
0.0
 45
0.000000001
 78
    12
 79
     3
140
0.25
141
0.0
147
0.0625
173
     1
271
     2
272
     2
276
     2
277
     5
284
    12
340
F5
341
5A5
343
5A5
344
5A5
  0
ENDTAB
  0
TABLE
  2
BLOCK_RECORD
  5
1
330
0
100
AcDbSymbolTable
 70
    15
  0
BLOCK_RECORD
  5
1F
330
1
100
AcDbSymbolTableRecord
100
AcDbBlockTableRecord
  2
*Model_Space
340
22
  0
BLOCK_RECORD
  5
73
330
1
100
AcDbSymbolTableRecord
100
AcDbBlockTableRecord
  2
*Paper_Space
340
74
  0
BLOCK_RECORD
  5
5A5
330
1
100
AcDbSymbolTableRecord
100
AcDbBlockTableRecord
  2
_Open90
340
0
102
{BLKREFS
331
211
331
212
331
21D
331
21E
331
22C
331
22D
331
2A7
331
2A8
331
2B6
331
2B7
331
552
331
553
331
561
331
562
331
56C
331
56D
331
57B
331
57C
331
58B
102
}
  0
BLOCK_RECORD
  5
23
330
1
100
AcDbSymbolTableRecord
100
AcDbBlockTableRecord
  2
*Paper_Space1
340
26
  0
BLOCK_RECORD
  5
FB
330
1
100
AcDbSymbolTableRecord
100
AcDbBlockTableRecord
  2
SW_NOTE_0
340
0
  0
BLOCK_RECORD
  5
101
330
1
100
AcDbSymbolTableRecord
100
AcDbBlockTableRecord
  2
SW_NOTE_0_1
340
0
102
{BLKREFS
331
10A
102
}
  0
BLOCK_RECORD
  5
20E
330
1
100
AcDbSymbolTableRecord
100
AcDbBlockTableRecord
  2
_D
340
0
  0
BLOCK_RECORD
  5
21A
330
1
100
AcDbSymbolTableRecord
100
AcDbBlockTableRecord
  2
_D_1
340
0
  0
BLOCK_RECORD
  5
229
330
1
100
AcDbSymbolTableRecord
100
AcDbBlockTableRecord
  2
_D_2
340
0
  0
BLOCK_RECORD
  5
2A4
330
1
100
AcDbSymbolTableRecord
100
AcDbBlockTableRecord
  2
_D_3
340
0
  0
BLOCK_RECORD
  5
2B3
330
1
100
AcDbSymbolTableRecord
100
AcDbBlockTableRecord
  2
_D_4
340
0
  0
BLOCK_RECORD
  5
413
330
1
100
AcDbSymbolTableRecord
100
AcDbBlockTableRecord
  2
SW_NOTE_0_2
340
0
102
{BLKREFS
331
418
102
}
  0
BLOCK_RECORD
  5
54F
330
1
100
AcDbSymbolTableRecord
100
AcDbBlockTableRecord
  2
_D_5
340
0
  0
BLOCK_RECORD
  5
55E
330
1
100
AcDbSymbolTableRecord
100
AcDbBlockTableRecord
  2
_D_6
340
0
  0
BLOCK_RECORD
  5
569
330
1
100
AcDbSymbolTableRecord
100
AcDbBlockTableRecord
  2
_D_7
340
0
  0
BLOCK_RECORD
  5
578
330
1
100
AcDbSymbolTableRecord
100
AcDbBlockTableRecord
  2
_D_8
340
0
  0
BLOCK_RECORD
  5
588
330
1
100
AcDbSymbolTableRecord
100
AcDbBlockTableRecord
  2
_D_9
340
0
  0
ENDTAB
  0
ENDSEC
  0
SECTION
  2
BLOCKS
  0
BLOCK
  5
20
330
1F
100
AcDbEntity
  8
0
100
AcDbBlockBegin
  2
*Model_Space
 70
     0
 71
     0
 10
0.0
 20
0.0
 30
0.0
  3
*Model_Space
  1

  0
ENDBLK
  5
21
330
1F
100
AcDbEntity
  8
0
100
AcDbBlockEnd
  0
BLOCK
  5
75
330
73
100
AcDbEntity
 67
     1
  8
0
100
AcDbBlockBegin
  2
*Paper_Space
 70
     0
 71
     0
 10
0.0
 20
0.0
 30
0.0
  3
*Paper_Space
  1

  0
ENDBLK
  5
76
330
73
100
AcDbEntity
 67
     1
  8
0
100
AcDbBlockEnd
  0
BLOCK
  5
5A6
330
5A5
100
AcDbEntity
  8
0
100
AcDbBlockBegin
  2
_Open90
 70
     0
 71
     0
 10
0.0
 20
0.0
 30
0.0
  3
_Open90
  1

  0
LINE
  5
20B
330
5A5
100
AcDbEntity
  8
0
  6
ByBlock
 62
     0
370
    -2
100
AcDbLine
 10
-0.5
 20
0.5
 30
0.0
 11
0.0
 21
0.0
 31
0.0
  0
LINE
  5
20C
330
5A5
100
AcDbEntity
  8
0
  6
ByBlock
 62
     0
370
    -2
100
AcDbLine
 10
0.0
 20
0.0
 30
0.0
 11
-0.5
 21
-0.5
 31
0.0
  0
LINE
  5
20D
330
5A5
100
AcDbEntity
  8
0
  6
ByBlock
 62
     0
370
    -2
100
AcDbLine
 10
0.0
 20
0.0
 30
0.0
 11
-1.0
 21
0.0
 31
0.0
  0
ENDBLK
  5
5A7
330
5A5
100
AcDbEntity
  8
0
100
AcDbBlockEnd
  0
BLOCK
  5
5AE
330
23
100
AcDbEntity
  8
0
100
AcDbBlockBegin
  2
*Paper_Space1
 70
     0
 71
     0
 10
0.0
 20
0.0
 30
0.0
  3
*Paper_Space1
  1

  0
ENDBLK
  5
5AF
330
23
100
AcDbEntity
  8
0
100
AcDbBlockEnd
  0
BLOCK
  5
5B0
330
FB
100
AcDbEntity
  8
0
100
AcDbBlockBegin
  2
SW_NOTE_0
 70
     0
 71
     0
 10
0.0
 20
0.0
 30
0.0
  3
SW_NOTE_0
  1

  0
MTEXT
  5
FE
330
FB
100
AcDbEntity
  8
NOTES
 62
     0
100
AcDbMText
 10
0.0
 20
0.3759780907668229
 30
0.0
 40
0.2916666666666666
 41
0.0
 71
     1
 72
     1
  1
FROST PRODUCTS LTD.
  7
SLDTEXTSTYLE0
 73
     1
 44
1.0
  0
MTEXT
  5
FF
330
FB
100
AcDbEntity
  8
NOTES
 62
     0
100
AcDbMText
 10
0.0
 20
-0.0495142708586375
 30
0.0
 40
0.2291666666666666
 41
0.0
 71
     1
 72
     1
  1
5280 JOHN LUCUS DRIVE, BURLINGTON, ON, L7L 5Z9
  7
SLDTEXTSTYLE0
 73
     1
 44
1.0
  0
ENDBLK
  5
5B1
330
FB
100
AcDbEntity
  8
0
100
AcDbBlockEnd
  0
BLOCK
  5
5B2
330
101
100
AcDbEntity
  8
0
100
AcDbBlockBegin
  2
SW_NOTE_0_1
 70
     0
 71
     0
 10
0.0
 20
0.0
 30
0.0
  3
SW_NOTE_0_1
  1

  0
MTEXT
  5
105
330
101
100
AcDbEntity
  8
NOTES
 62
     0
100
AcDbMText
 10
0.0
 20
0.2381282770514712
 30
0.0
 40
0.1847290640394089
 41
0.0
 71
     1
 72
     1
  1
PROPRIETARY AND CONFIDENTIAL
  7
SLDTEXTSTYLE2
 73
     1
 44
1.0
  0
MTEXT
  5
107
330
101
100
AcDbEntity
  8
NOTES
 62
     0
100
AcDbMText
 10
0.0
 20
-0.0504364795553608
 30
0.0
 40
0.25
 41
0.0
 71
     1
 72
     1
  1
THE INFORMATION CONTAINED IN THIS DRAWING IS THE SOLE PROPERTY OF 
  7
SLDTEXTSTYLE3
 73
     1
 44
1.0
  0
MTEXT
  5
108
330
101
100
AcDbEntity
  8
NOTES
 62
     0
100
AcDbMText
 10
0.0
 20
-0.4231398940537119
 30
0.0
 40
0.25
 41
0.0
 71
     1
 72
     1
  1
FROST PRODUCTS LTD.  ANY REPRODUCTION IN PART OR AS A WHOLE WITHOUT 
  7
SLDTEXTSTYLE3
 73
     1
 44
1.0
  0
MTEXT
  5
109
330
101
100
AcDbEntity
  8
NOTES
 62
     0
100
AcDbMText
 10
0.0
 20
-0.7958433085520636
 30
0.0
 40
0.25
 41
0.0
 71
     1
 72
     1
  1
THE WRITTEN PERMISSION OF FROST PRODUCTS LTD. IS PROHIBITED.
  7
SLDTEXTSTYLE3
 73
     1
 44
1.0
  0
ENDBLK
  5
5B3
330
101
100
AcDbEntity
  8
0
100
AcDbBlockEnd
  0
BLOCK
  5
5B4
330
20E
100
AcDbEntity
  8
0
100
AcDbBlockBegin
  2
_D
 70
     0
 71
     0
 10
0.0
 20
0.0
 30
0.0
  3
_D
  1

  0
INSERT
  5
211
330
20E
100
AcDbEntity
  8
DIMS
100
AcDbBlockReference
  2
_Open90
 10
4.937740913200321
 20
17.03689633843452
 30
0.0
 41
0.25
 42
0.25
 50
90.00000000000041
  0
INSERT
  5
212
330
20E
100
AcDbEntity
  8
DIMS
100
AcDbBlockReference
  2
_Open90
 10
4.937740913200322
 20
7.327032827169852
 30
0.0
 41
0.25
 42
0.25
 50
270.0000000000004
  0
LINE
  5
213
330
20E
100
AcDbEntity
  8
DIMS
100
AcDbLine
 10
12.87688744322587
 20
17.03689633843452
 30
0.0
 11
4.562740913200321
 21
17.03689633843452
 31
0.0
  0
LINE
  5
214
330
20E
100
AcDbEntity
  8
DIMS
100
AcDbLine
 10
4.937740913200321
 20
17.03689633843452
 30
0.0
 11
4.937740913200322
 21
8.34792720953262
 31
0.0
  0
MTEXT
  5
215
330
20E
100
AcDbEntity
  8
DIMS
100
AcDbMText
 10
-3.206361432101088
 20
8.27038816259964
 30
0.0
 40
0.25
 41
0.0
 71
     1
 72
     1
  1
                                                                                      48" (1220mm) Max. height for barrier free installation
  7
SLDTEXTSTYLE1
 73
     1
 44
1.0
  0
MTEXT
  5
216
330
20E
100
AcDbEntity
  8
DIMS
100
AcDbMText
 10
4.891560357515376
 20
7.873513150666978
 30
0.0
 40
0.25
 41
0.0
 71
     1
 72
     1
  1
 
  7
SLDTEXTSTYLE1
 73
     1
 44
1.0
  0
MTEXT
  5
217
330
20E
100
AcDbEntity
  8
DIMS
100
AcDbMText
 10
4.891560357515376
 20
7.476638138734315
 30
0.0
 40
0.25
 41
0.0
 71
     1
 72
     1
  1
 
  7
SLDTEXTSTYLE1
 73
     1
 44
1.0
  0
ENDBLK
  5
5B5
330
20E
100
AcDbEntity
  8
0
100
AcDbBlockEnd
  0
BLOCK
  5
5B6
330
21A
100
AcDbEntity
  8
0
100
AcDbBlockBegin
  2
_D_1
 70
     0
 71
     0
 10
0.0
 20
0.0
 30
0.0
  3
_D_1
  1

  0
INSERT
  5
21D
330
21A
100
AcDbEntity
  8
DIMS
100
AcDbBlockReference
  2
_Open90
 10
5.861920770099638
 20
25.30407695717957
 30
-1.492261801079423
 41
0.25
 42
0.25
 50
179.9999998508657
  0
INSERT
  5
21E
330
21A
100
AcDbEntity
  8
DIMS
100
AcDbBlockReference
  2
_Open90
 10
19.96518707427822
 20
25.3040769204703
 30
-1.492261801079423
 41
0.25
 42
0.25
 50
359.9999998508657
  0
LINE
  5
21F
330
21A
100
AcDbEntity
  8
DIMS
100
AcDbLine
 10
12.86171483545327
 20
25.32971928816478
 30
0.0
 11
13.11970096017554
 21
25.32971928816478
 31
0.0
  0
LINE
  5
220
330
21A
100
AcDbEntity
  8
DIMS
100
AcDbLine
 10
5.861920764983403
 20
23.33848041334057
 30
0.0
 11
5.861920771075721
 21
25.67907695717957
 31
0.0
  0
LINE
  5
221
330
21A
100
AcDbEntity
  8
DIMS
100
AcDbLine
 10
19.96518706916198
 20
23.33848041334057
 30
0.0
 11
19.9651870752543
 21
25.6790769204703
 31
0.0
  0
LINE
  5
222
330
21A
100
AcDbEntity
  8
DIMS
100
AcDbLine
 10
5.861920770099638
 20
25.30407695717957
 30
0.0
 11
12.45563843898246
 21
25.30407694001684
 31
0.0
  0
LINE
  5
223
330
21A
100
AcDbEntity
  8
DIMS
100
AcDbLine
 10
19.96518707427822
 20
25.3040769204703
 30
0.0
 11
13.25945789319153
 21
25.30407693792459
 31
0.0
  0
MTEXT
  5
224
330
21A
100
AcDbEntity
  8
DIMS
100
AcDbMText
 10
12.45563843898246
 20
25.44441981838046
 30
0.0
 40
0.25
 41
0.0
 71
     1
 72
     1
  1
14
  7
SLDTEXTSTYLE1
 73
     1
 44
1.0
  0
MTEXT
  5
225
330
21A
100
AcDbEntity
  8
DIMS
100
AcDbMText
 10
12.89834678644451
 20
25.62707606790321
 30
0.0
 40
0.25
 41
0.0
 71
     1
 72
     1
  1
1
  7
SLDTEXTSTYLE1
 73
     1
 44
1.0
  0
MTEXT
  5
226
330
21A
100
AcDbEntity
  8
DIMS
100
AcDbMText
 10
12.89834678644451
 20
25.2964857786292
 30
0.0
 40
0.25
 41
0.0
 71
     1
 72
     1
  1
8
  7
SLDTEXTSTYLE1
 73
     1
 44
1.0
  0
MTEXT
  5
227
330
21A
100
AcDbEntity
  8
DIMS
100
AcDbMText
 10
13.15633291116679
 20
25.44441981838046
 30
0.0
 40
0.25
 41
0.0
 71
     1
 72
     1
  1
"
  7
SLDTEXTSTYLE1
 73
     1
 44
1.0
  0
ENDBLK
  5
5B7
330
21A
100
AcDbEntity
  8
0
100
AcDbBlockEnd
  0
BLOCK
  5
5B8
330
229
100
AcDbEntity
  8
0
100
AcDbBlockBegin
  2
_D_2
 70
     0
 71
     0
 10
0.0
 20
0.0
 30
0.0
  3
_D_2
  1

  0
INSERT
  5
22C
330
229
100
AcDbEntity
  8
DIMS
100
AcDbBlockReference
  2
_Open90
 10
5.468219010925616
 20
17.03689633843457
 30
-1.492261801079423
 41
0.25
 42
0.25
 50
90.00000000000003
  0
INSERT
  5
22D
330
229
100
AcDbEntity
  8
DIMS
100
AcDbBlockReference
  2
_Open90
 10
5.468219010925583
 20
12.00689633843456
 30
-1.492261801079423
 41
0.25
 42
0.25
 50
270.0000000000001
  0
LINE
  5
22E
330
229
100
AcDbEntity
  8
DIMS
100
AcDbLine
 10
12.87688744322587
 20
17.03689633843452
 30
0.0
 11
5.093219010925616
 21
17.03689633843457
 31
0.0
  0
LINE
  5
22F
330
229
100
AcDbEntity
  8
DIMS
100
AcDbLine
 10
8.062618005778885
 20
12.00689633843455
 30
0.0
 11
5.093219010925583
 21
12.00689633843457
 31
0.0
  0
LINE
  5
230
330
229
100
AcDbEntity
  8
DIMS
100
AcDbLine
 10
5.468219010925616
 20
17.03689633843457
 30
0.0
 11
5.468219010925599
 21
14.43939221740794
 31
0.0
  0
LINE
  5
231
330
229
100
AcDbEntity
  8
DIMS
100
AcDbLine
 10
5.468219010925583
 20
12.00689633843456
 30
0.0
 11
5.468219010925597
 21
14.04251720547528
 31
0.0
  0
MTEXT
  5
232
330
229
100
AcDbEntity
  8
DIMS
100
AcDbMText
 10
5.324295399376773
 20
14.36185317047497
 30
0.0
 40
0.25
 41
0.0
 71
     1
 72
     1
  1
5"
  7
SLDTEXTSTYLE1
 73
     1
 44
1.0
  0
ENDBLK
  5
5B9
330
229
100
AcDbEntity
  8
0
100
AcDbBlockEnd
  0
BLOCK
  5
5BA
330
2A4
100
AcDbEntity
  8
0
100
AcDbBlockBegin
  2
_D_3
 70
     0
 71
     0
 10
0.0
 20
0.0
 30
0.0
  3
_D_3
  1

  0
INSERT
  5
2A7
330
2A4
100
AcDbEntity
  8
DIMS
100
AcDbBlockReference
  2
_Open90
 10
22.49265839306775
 20
25.30407693897072
 30
-0.3150172413793266
 41
0.25
 42
0.25
 50
180.0000000000004
  0
INSERT
  5
2A8
330
2A4
100
AcDbEntity
  8
DIMS
100
AcDbBlockReference
  2
_Open90
 10
26.87739321390988
 20
25.30407693897072
 30
-0.3150172413793266
 41
0.25
 42
0.25
 50
0.0000000000004071
  0
LINE
  5
2A9
330
2A4
100
AcDbEntity
  8
DIMS
100
AcDbLine
 10
24.78553203851395
 20
25.32971928816479
 30
0.0
 11
25.04351816323623
 21
25.32971928816479
 31
0.0
  0
LINE
  5
2AA
330
2A4
100
AcDbEntity
  8
DIMS
100
AcDbLine
 10
22.49265839306775
 20
24.36356400291948
 30
0.0
 11
22.49265839306775
 21
25.67907693897072
 31
0.0
  0
LINE
  5
2AB
330
2A4
100
AcDbEntity
  8
DIMS
100
AcDbLine
 10
26.87739321390988
 20
24.17038041334057
 30
0.0
 11
26.87739321390988
 21
25.67907693897072
 31
0.0
  0
LINE
  5
2AC
330
2A4
100
AcDbEntity
  8
DIMS
100
AcDbLine
 10
22.49265839306775
 20
25.30407693897072
 30
0.0
 11
24.56417786478293
 21
25.30407693897072
 31
0.0
  0
LINE
  5
2AD
330
2A4
100
AcDbEntity
  8
DIMS
100
AcDbLine
 10
26.87739321390988
 20
25.30407693897072
 30
0.0
 11
25.18327513291844
 21
25.30407693897072
 31
0.0
  0
MTEXT
  5
2AE
330
2A4
100
AcDbEntity
  8
DIMS
100
AcDbMText
 10
24.56417786478292
 20
25.44441981838047
 30
0.0
 40
0.25
 41
0.0
 71
     1
 72
     1
  1
4
  7
SLDTEXTSTYLE1
 73
     1
 44
1.0
  0
MTEXT
  5
2AF
330
2A4
100
AcDbEntity
  8
DIMS
100
AcDbMText
 10
24.8221639895052
 20
25.62707606790323
 30
0.0
 40
0.25
 41
0.0
 71
     1
 72
     1
  1
3
  7
SLDTEXTSTYLE1
 73
     1
 44
1.0
  0
MTEXT
  5
2B0
330
2A4
100
AcDbEntity
  8
DIMS
100
AcDbMText
 10
24.8221639895052
 20
25.2964857786292
 30
0.0
 40
0.25
 41
0.0
 71
     1
 72
     1
  1
8
  7
SLDTEXTSTYLE1
 73
     1
 44
1.0
  0
MTEXT
  5
2B1
330
2A4
100
AcDbEntity
  8
DIMS
100
AcDbMText
 10
25.08015011422747
 20
25.44441981838047
 30
0.0
 40
0.25
 41
0.0
 71
     1
 72
     1
  1
"
  7
SLDTEXTSTYLE1
 73
     1
 44
1.0
  0
ENDBLK
  5
5BB
330
2A4
100
AcDbEntity
  8
0
100
AcDbBlockEnd
  0
BLOCK
  5
5BC
330
2B3
100
AcDbEntity
  8
0
100
AcDbBlockBegin
  2
_D_4
 70
     0
 71
     0
 10
0.0
 20
0.0
 30
0.0
  3
_D_4
  1

  0
INSERT
  5
2B6
330
2B3
100
AcDbEntity
  8
DIMS
100
AcDbBlockReference
  2
_Open90
 10
21.46974737302962
 20
11.97458117036123
 30
-0.3150172413793266
 41
0.25
 42
0.25
 50
269.9999997569377
  0
INSERT
  5
2B7
330
2B3
100
AcDbEntity
  8
DIMS
100
AcDbBlockReference
  2
_Open90
 10
21.46974742490011
 20
24.20171376923301
 30
-0.3150172413793266
 41
0.25
 42
0.25
 50
89.99999975693768
  0
LINE
  5
2B8
330
2B3
100
AcDbEntity
  8
DIMS
100
AcDbLine
 10
21.47391406708372
 20
17.81974157786595
 30
0.0
 11
21.73190019180599
 21
17.81974157786595
 31
0.0
  0
LINE
  5
2B9
330
2B3
100
AcDbEntity
  8
DIMS
100
AcDbLine
 10
22.47080913682216
 20
11.9745811642169
 30
0.0
 11
21.09474737302962
 21
11.97458117195207
 31
0.0
  0
LINE
  5
2BA
330
2B3
100
AcDbEntity
  8
DIMS
100
AcDbLine
 10
22.37080913682217
 20
24.20171376541049
 30
0.0
 11
21.09474742490011
 21
24.20171377082385
 31
0.0
  0
LINE
  5
2BB
330
2B3
100
AcDbEntity
  8
DIMS
100
AcDbLine
 10
21.46974737302962
 20
11.97458117036123
 30
0.0
 11
21.46974739633053
 21
17.46717215202804
 31
0.0
  0
LINE
  5
2BC
330
2B3
100
AcDbEntity
  8
DIMS
100
AcDbLine
 10
21.46974742490011
 20
24.20171376923301
 30
0.0
 11
21.46974739910434
 21
18.12102630531574
 31
0.0
  0
MTEXT
  5
2BD
330
2B3
100
AcDbEntity
  8
DIMS
100
AcDbMText
 10
21.0678376706129
 20
17.93444210808164
 30
0.0
 40
0.25
 41
0.0
 71
     1
 72
     1
  1
12
  7
SLDTEXTSTYLE1
 73
     1
 44
1.0
  0
MTEXT
  5
2BE
330
2B3
100
AcDbEntity
  8
DIMS
100
AcDbMText
 10
21.51054601807496
 20
18.11709835760439
 30
0.0
 40
0.25
 41
0.0
 71
     1
 72
     1
  1
1
  7
SLDTEXTSTYLE1
 73
     1
 44
1.0
  0
MTEXT
  5
2BF
330
2B3
100
AcDbEntity
  8
DIMS
100
AcDbMText
 10
21.51054601807496
 20
17.78650806833037
 30
0.0
 40
0.25
 41
0.0
 71
     1
 72
     1
  1
4
  7
SLDTEXTSTYLE1
 73
     1
 44
1.0
  0
MTEXT
  5
2C0
330
2B3
100
AcDbEntity
  8
DIMS
100
AcDbMText
 10
21.76853214279723
 20
17.93444210808164
 30
0.0
 40
0.25
 41
0.0
 71
     1
 72
     1
  1
"
  7
SLDTEXTSTYLE1
 73
     1
 44
1.0
  0
ENDBLK
  5
5BD
330
2B3
100
AcDbEntity
  8
0
100
AcDbBlockEnd
  0
BLOCK
  5
5BE
330
413
100
AcDbEntity
  8
0
100
AcDbBlockBegin
  2
SW_NOTE_0_2
 70
     0
 71
     0
 10
0.0
 20
0.0
 30
0.0
  3
SW_NOTE_0_2
  1

  0
MTEXT
  5
416
330
413
100
AcDbEntity
  8
NOTES
 62
     0
100
AcDbMText
 10
0.0
 20
0.3193359374999991
 30
0.0
 40
0.25
 41
0.0
 71
     1
 72
     1
  1
3D view
  7
SLDTEXTSTYLE1
 73
     1
 44
1.0
  0
MTEXT
  5
417
330
413
100
AcDbEntity
  8
NOTES
 62
     0
100
AcDbMText
 10
0.0
 20
-0.4306640717692272
 30
0.0
 40
0.25
 41
0.0
 71
     1
 72
     1
  1
Code 168, Code 168S
  7
SLDTEXTSTYLE1
 73
     1
 44
1.0
  0
ENDBLK
  5
5BF
330
413
100
AcDbEntity
  8
0
100
AcDbBlockEnd
  0
BLOCK
  5
5C0
330
54F
100
AcDbEntity
  8
0
100
AcDbBlockBegin
  2
_D_5
 70
     0
 71
     0
 10
0.0
 20
0.0
 30
0.0
  3
_D_5
  1

  0
INSERT
  5
552
330
54F
100
AcDbEntity
  8
DIMS
100
AcDbBlockReference
  2
_Open90
 10
35.95955330289283
 20
25.30407693897073
 30
1.492261801079426
 41
0.25
 42
0.25
 50
180.0000000000004
  0
INSERT
  5
553
330
54F
100
AcDbEntity
  8
DIMS
100
AcDbBlockReference
  2
_Open90
 10
44.86073040752999
 20
25.30407693897073
 30
1.492261801079426
 41
0.25
 42
0.25
 50
0.0000000000004071
  0
LINE
  5
554
330
54F
100
AcDbEntity
  8
DIMS
100
AcDbLine
 10
40.33902507483676
 20
25.32971928816479
 30
0.0
 11
40.59701119955903
 21
25.32971928816479
 31
0.0
  0
LINE
  5
555
330
54F
100
AcDbEntity
  8
DIMS
100
AcDbLine
 10
35.95955330289283
 20
21.64819182170073
 30
0.0
 11
35.95955330289283
 21
25.67907693897073
 31
0.0
  0
LINE
  5
556
330
54F
100
AcDbEntity
  8
DIMS
100
AcDbLine
 10
44.86073040752999
 20
21.64819182170073
 30
0.0
 11
44.86073040752999
 21
25.67907693897073
 31
0.0
  0
LINE
  5
557
330
54F
100
AcDbEntity
  8
DIMS
100
AcDbLine
 10
35.95955330289283
 20
25.30407693897073
 30
0.0
 11
40.11767090110573
 21
25.30407693897073
 31
0.0
  0
LINE
  5
558
330
54F
100
AcDbEntity
  8
DIMS
100
AcDbLine
 10
44.86073040752999
 20
25.30407693897073
 30
0.0
 11
40.73676816924127
 21
25.30407693897073
 31
0.0
  0
MTEXT
  5
559
330
54F
100
AcDbEntity
  8
DIMS
100
AcDbMText
 10
40.11767090110573
 20
25.44441981838048
 30
0.0
 40
0.25
 41
0.0
 71
     1
 72
     1
  1
8
  7
SLDTEXTSTYLE1
 73
     1
 44
1.0
  0
MTEXT
  5
55A
330
54F
100
AcDbEntity
  8
DIMS
100
AcDbMText
 10
40.375657025828
 20
25.62707606790323
 30
0.0
 40
0.25
 41
0.0
 71
     1
 72
     1
  1
7
  7
SLDTEXTSTYLE1
 73
     1
 44
1.0
  0
MTEXT
  5
55B
330
54F
100
AcDbEntity
  8
DIMS
100
AcDbMText
 10
40.375657025828
 20
25.29648577862921
 30
0.0
 40
0.25
 41
0.0
 71
     1
 72
     1
  1
8
  7
SLDTEXTSTYLE1
 73
     1
 44
1.0
  0
MTEXT
  5
55C
330
54F
100
AcDbEntity
  8
DIMS
100
AcDbMText
 10
40.63364315055028
 20
25.44441981838048
 30
0.0
 40
0.25
 41
0.0
 71
     1
 72
     1
  1
"
  7
SLDTEXTSTYLE1
 73
     1
 44
1.0
  0
ENDBLK
  5
5C1
330
54F
100
AcDbEntity
  8
0
100
AcDbBlockEnd
  0
BLOCK
  5
5C2
330
55E
100
AcDbEntity
  8
0
100
AcDbBlockBegin
  2
_D_6
 70
     0
 71
     0
 10
0.0
 20
0.0
 30
0.0
  3
_D_6
  1

  0
INSERT
  5
561
330
55E
100
AcDbEntity
  8
DIMS
100
AcDbBlockReference
  2
_Open90
 10
32.40631759061177
 20
21.48152515503406
 30
1.492261801079426
 41
0.25
 42
0.25
 50
90.00000000000041
  0
INSERT
  5
562
330
55E
100
AcDbEntity
  8
DIMS
100
AcDbBlockReference
  2
_Open90
 10
32.40631759061177
 20
17.48152515503406
 30
1.492261801079426
 41
0.25
 42
0.25
 50
270.0000000000004
  0
LINE
  5
563
330
55E
100
AcDbEntity
  8
DIMS
100
AcDbLine
 10
35.79288663622616
 20
21.48152515503406
 30
0.0
 11
32.03131759061177
 21
21.48152515503406
 31
0.0
  0
LINE
  5
564
330
55E
100
AcDbEntity
  8
DIMS
100
AcDbLine
 10
35.69288663622616
 20
17.48152515503406
 30
0.0
 11
32.03131759061177
 21
17.48152515503406
 31
0.0
  0
LINE
  5
565
330
55E
100
AcDbEntity
  8
DIMS
100
AcDbLine
 10
32.40631759061177
 20
21.48152515503406
 30
0.0
 11
32.40631759061177
 21
19.88726245425513
 31
0.0
  0
LINE
  5
566
330
55E
100
AcDbEntity
  8
DIMS
100
AcDbLine
 10
32.40631759061177
 20
17.48152515503406
 30
0.0
 11
32.40631759061177
 21
19.49038744232247
 31
0.0
  0
MTEXT
  5
567
330
55E
100
AcDbEntity
  8
DIMS
100
AcDbMText
 10
32.26239397906294
 20
19.80972340732214
 30
0.0
 40
0.25
 41
0.0
 71
     1
 72
     1
  1
4"
  7
SLDTEXTSTYLE1
 73
     1
 44
1.0
  0
ENDBLK
  5
5C3
330
55E
100
AcDbEntity
  8
0
100
AcDbBlockEnd
  0
BLOCK
  5
5C4
330
569
100
AcDbEntity
  8
0
100
AcDbBlockBegin
  2
_D_7
 70
     0
 71
     0
 10
0.0
 20
0.0
 30
0.0
  3
_D_7
  1

  0
INSERT
  5
56C
330
569
100
AcDbEntity
  8
DIMS
100
AcDbBlockReference
  2
_Open90
 10
32.40631759061177
 20
21.48152515503406
 30
1.492261801079426
 41
0.25
 42
0.25
 50
270.0000000000004
  0
INSERT
  5
56D
330
569
100
AcDbEntity
  8
DIMS
100
AcDbBlockReference
  2
_Open90
 10
32.40631759061177
 20
24.17181375568867
 30
1.492261801079426
 41
0.25
 42
0.25
 50
90.0000000000004
  0
LINE
  5
56E
330
569
100
AcDbEntity
  8
DIMS
100
AcDbLine
 10
32.22576203723826
 20
22.82391404054426
 30
0.0
 11
32.66847038470032
 21
22.82391404054426
 31
0.0
  0
LINE
  5
56F
330
569
100
AcDbEntity
  8
DIMS
100
AcDbLine
 10
35.79288663622616
 20
21.48152515503406
 30
0.0
 11
32.03131759061177
 21
21.48152515503406
 31
0.0
  0
LINE
  5
570
330
569
100
AcDbEntity
  8
DIMS
100
AcDbLine
 10
34.22174205448498
 20
24.17181375568867
 30
0.0
 11
32.03131759061177
 21
24.17181375568867
 31
0.0
  0
LINE
  5
571
330
569
100
AcDbEntity
  8
DIMS
100
AcDbLine
 10
32.40631759061177
 20
21.48152515503406
 30
0.0
 11
32.40631759061177
 21
22.47134461470636
 31
0.0
  0
LINE
  5
572
330
569
100
AcDbEntity
  8
DIMS
100
AcDbLine
 10
32.40631759061177
 20
24.17181375568867
 30
0.0
 11
32.40631759061177
 21
23.12519876799405
 31
0.0
  0
MTEXT
  5
573
330
569
100
AcDbEntity
  8
DIMS
100
AcDbMText
 10
32.00440786350723
 20
22.93861457075994
 30
0.0
 40
0.25
 41
0.0
 71
     1
 72
     1
  1
2
  7
SLDTEXTSTYLE1
 73
     1
 44
1.0
  0
MTEXT
  5
574
330
569
100
AcDbEntity
  8
DIMS
100
AcDbMText
 10
32.2623939882295
 20
23.12127082028269
 30
0.0
 40
0.25
 41
0.0
 71
     1
 72
     1
  1
11
  7
SLDTEXTSTYLE1
 73
     1
 44
1.0
  0
MTEXT
  5
575
330
569
100
AcDbEntity
  8
DIMS
100
AcDbMText
 10
32.2623939882295
 20
22.79068053100868
 30
0.0
 40
0.25
 41
0.0
 71
     1
 72
     1
  1
16
  7
SLDTEXTSTYLE1
 73
     1
 44
1.0
  0
MTEXT
  5
576
330
569
100
AcDbEntity
  8
DIMS
100
AcDbMText
 10
32.70510233569156
 20
22.93861457075994
 30
0.0
 40
0.25
 41
0.0
 71
     1
 72
     1
  1
"
  7
SLDTEXTSTYLE1
 73
     1
 44
1.0
  0
ENDBLK
  5
5C5
330
569
100
AcDbEntity
  8
0
100
AcDbBlockEnd
  0
BLOCK
  5
5C6
330
578
100
AcDbEntity
  8
0
100
AcDbBlockBegin
  2
_D_8
 70
     0
 71
     0
 10
0.0
 20
0.0
 30
0.0
  3
_D_8
  1

  0
INSERT
  5
57B
330
578
100
AcDbEntity
  8
DIMS
100
AcDbBlockReference
  2
_Open90
 10
32.40631759061175
 20
17.48152515503404
 30
1.492261801079426
 41
0.25
 42
0.25
 50
90.00000000000078
  0
INSERT
  5
57C
330
578
100
AcDbEntity
  8
DIMS
100
AcDbBlockReference
  2
_Open90
 10
32.40631759061178
 20
12.00689633843446
 30
1.492261801079426
 41
0.25
 42
0.25
 50
270.0000000000008
  0
LINE
  5
57D
330
578
100
AcDbEntity
  8
DIMS
100
AcDbLine
 10
32.31812313027503
 20
14.98826755351918
 30
0.0
 11
32.57610925499731
 21
14.98826755351918
 31
0.0
  0
LINE
  5
57E
330
578
100
AcDbEntity
  8
DIMS
100
AcDbLine
 10
35.79288663622616
 20
17.48152515503406
 30
0.0
 11
32.03131759061175
 21
17.48152515503404
 31
0.0
  0
LINE
  5
57F
330
578
100
AcDbEntity
  8
DIMS
100
AcDbLine
 10
35.55920546197
 20
12.00689633843448
 30
0.0
 11
32.03131759061178
 21
12.00689633843446
 31
0.0
  0
LINE
  5
580
330
578
100
AcDbEntity
  8
DIMS
100
AcDbLine
 10
32.40631759061175
 20
17.48152515503404
 30
0.0
 11
32.40631759061177
 21
15.28955228096898
 31
0.0
  0
LINE
  5
581
330
578
100
AcDbEntity
  8
DIMS
100
AcDbLine
 10
32.40631759061178
 20
12.00689633843446
 30
0.0
 11
32.40631759061178
 21
14.63569812768129
 31
0.0
  0
MTEXT
  5
582
330
578
100
AcDbEntity
  8
DIMS
100
AcDbMText
 10
32.096768956544
 20
15.10296808373487
 30
0.0
 40
0.25
 41
0.0
 71
     1
 72
     1
  1
5
  7
SLDTEXTSTYLE1
 73
     1
 44
1.0
  0
MTEXT
  5
583
330
578
100
AcDbEntity
  8
DIMS
100
AcDbMText
 10
32.35475508126628
 20
15.28562433325762
 30
0.0
 40
0.25
 41
0.0
 71
     1
 72
     1
  1
1
  7
SLDTEXTSTYLE1
 73
     1
 44
1.0
  0
MTEXT
  5
584
330
578
100
AcDbEntity
  8
DIMS
100
AcDbMText
 10
32.35475508126628
 20
14.9550340439836
 30
0.0
 40
0.25
 41
0.0
 71
     1
 72
     1
  1
2
  7
SLDTEXTSTYLE1
 73
     1
 44
1.0
  0
MTEXT
  5
585
330
578
100
AcDbEntity
  8
DIMS
100
AcDbMText
 10
32.61274120598855
 20
15.10296808373487
 30
0.0
 40
0.25
 41
0.0
 71
     1
 72
     1
  1
"
  7
SLDTEXTSTYLE1
 73
     1
 44
1.0
  0
ENDBLK
  5
5C7
330
578
100
AcDbEntity
  8
0
100
AcDbBlockEnd
  0
BLOCK
  5
5C8
330
588
100
AcDbEntity
  8
0
100
AcDbBlockBegin
  2
_D_9
 70
     0
 71
     0
 10
0.0
 20
0.0
 30
0.0
  3
_D_9
  1

  0
INSERT
  5
58B
330
588
100
AcDbEntity
  8
DIMS
100
AcDbBlockReference
  2
_Open90
 10
35.93367139838259
 20
21.57811773766297
 30
1.492261801079426
 41
0.25
 42
0.25
 50
285.0000000000002
  0
LINE
  5
58C
330
588
100
AcDbEntity
  8
DIMS
100
AcDbLine
 10
34.10283835888279
 20
25.3297192881648
 30
0.0
 11
34.54554670634485
 21
25.3297192881648
 31
0.0
  0
LINE
  5
58D
330
588
100
AcDbEntity
  8
DIMS
100
AcDbLine
 10
35.93367139838259
 20
21.57811773766297
 30
0.0
 11
34.93530363936084
 21
25.30407693897074
 31
0.0
  0
LINE
  5
58E
330
588
100
AcDbEntity
  8
DIMS
100
AcDbLine
 10
34.93530363936084
 20
25.30407693897074
 30
0.0
 11
34.68530363936084
 21
25.30407693897074
 31
0.0
  0
MTEXT
  5
58F
330
588
100
AcDbEntity
  8
DIMS
100
AcDbMText
 10
33.68917516672196
 20
25.44060037375304
 30
0.0
 40
0.25
 41
0.0
 71
     1
 72
     1
  1
%%c
  7
SLDTEXTSTYLE1
 73
     1
 44
1.0
  0
MTEXT
  5
590
330
588
100
AcDbEntity
  8
DIMS
100
AcDbMText
 10
34.23183142124393
 20
25.62707606790324
 30
0.0
 40
0.25
 41
0.0
 71
     1
 72
     1
  1
3
  7
SLDTEXTSTYLE1
 73
     1
 44
1.0
  0
MTEXT
  5
591
330
588
100
AcDbEntity
  8
DIMS
100
AcDbMText
 10
34.13947030987404
 20
25.29648577862922
 30
0.0
 40
0.25
 41
0.0
 71
     1
 72
     1
  1
16
  7
SLDTEXTSTYLE1
 73
     1
 44
1.0
  0
MTEXT
  5
592
330
588
100
AcDbEntity
  8
DIMS
100
AcDbMText
 10
34.58217865733609
 20
25.44441981838049
 30
0.0
 40
0.25
 41
0.0
 71
     1
 72
     1
  1
"
  7
SLDTEXTSTYLE1
 73
     1
 44
1.0
  0
ENDBLK
  5
5C9
330
588
100
AcDbEntity
  8
0
100
AcDbBlockEnd
  0
ENDSEC
  0
SECTION
  2
ENTITIES
  0
LINE
  5
7A
330
1F
100
AcDbEntity
  8
OBJECT
100
AcDbLine
 10
55.14235988647548
 20
17.22724179310174
 30
0.0
 11
55.09445637787388
 21
17.16211739487033
 31
0.0
  0
LINE
  5
7B
330
1F
100
AcDbEntity
  8
0
  6
SLD-Solid
 62
     7
370
    18
100
AcDbLine
 10
55.5698251446774
 20
16.48677001576625
 30
0.0
 11
55.48947317009473
 21
16.4778540995478
 31
0.0
  0
LINE
  5
7C
330
1F
100
AcDbEntity
  8
OBJECT
100
AcDbLine
 10
26.84239321390989
 20
14.49507811261415
 30
0.0
 11
26.8423932139099
 21
14.35635846806927
 31
0.0
  0
LINE
  5
7D
330
1F
100
AcDbEntity
  8
OBJECT
100
AcDbLine
 10
26.78747580348882
 20
14.26005307295943
 30
0.0
 11
26.8423932139099
 21
14.26005307295943
 31
0.0
  0
LINE
  5
7E
330
1F
100
AcDbEntity
  8
TITLE
370
    50
100
AcDbLine
 10
49.5182230240126
 20
1.48761176446163
 30
0.0
 11
66.49998645119504
 21
1.48761176446163
 31
0.0
  0
LINE
  5
7F
330
1F
100
AcDbEntity
  8
TITLE
370
    50
100
AcDbLine
 10
66.49993174424404
 20
5.475360393555786
 30
0.0
 11
56.31053507231783
 21
5.475360393555786
 31
0.0
  0
LINE
  5
80
330
1F
100
AcDbEntity
  8
TITLE
  6
SLD-Solid
370
    18
100
AcDbLine
 10
0.5
 20
0.5
 30
0.0
 11
0.5
 21
31.5
 31
0.0
  0
LINE
  5
81
330
1F
100
AcDbEntity
  8
TITLE
  6
SLD-Solid
370
    18
100
AcDbLine
 10
0.5
 20
31.5
 30
0.0
 11
66.5
 21
31.5
 31
0.0
  0
LINE
  5
82
330
1F
100
AcDbEntity
  8
TITLE
370
    50
100
AcDbLine
 10
49.5182230240126
 20
2.542787723103441
 30
0.0
 11
42.50597912026433
 21
2.54278772310344
 31
0.0
  0
LINE
  5
83
330
1F
100
AcDbEntity
  8
TITLE
370
    50
100
AcDbLine
 10
49.5182230240126
 20
1.48761176446163
 30
0.0
 11
42.50597912026433
 21
1.487611764461628
 31
0.0
  0
LINE
  5
84
330
1F
100
AcDbEntity
  8
TITLE
  6
SLD-Solid
370
    18
100
AcDbLine
 10
66.5
 20
31.5
 30
0.0
 11
66.5
 21
0.5
 31
0.0
  0
LINE
  5
85
330
1F
100
AcDbEntity
  8
TITLE
  6
SLD-Solid
370
    18
100
AcDbLine
 10
66.5
 20
0.5
 30
0.0
 11
0.5
 21
0.5
 31
0.0
  0
LINE
  5
86
330
1F
100
AcDbEntity
  8
TITLE
370
    50
100
AcDbLine
 10
49.5182230240126
 20
1.48761176446163
 30
0.0
 11
49.5182230240126
 21
3.597963681745253
 31
0.0
  0
LINE
  5
87
330
1F
100
AcDbEntity
  8
TITLE
370
    50
100
AcDbLine
 10
42.50597912026433
 20
3.597963681745253
 30
0.0
 11
42.50597912026433
 21
0.5
 31
0.0
  0
LINE
  5
88
330
1F
100
AcDbEntity
  8
TITLE
370
    50
100
AcDbLine
 10
42.50597912026433
 20
0.5
 30
0.0
 11
66.5
 21
0.5
 31
0.0
  0
LINE
  5
89
330
1F
100
AcDbEntity
  8
TITLE
370
    50
100
AcDbLine
 10
66.49993174424404
 20
5.475360393555786
 30
0.0
 11
66.5
 21
0.5
 31
0.0
  0
LINE
  5
8A
330
1F
100
AcDbEntity
  8
TITLE
  6
SLD-Solid
370
    18
100
AcDbLine
 10
0.4999606299212599
 20
16.0
 30
0.0
 11
0.5000393700787401
 21
16.0
 31
0.0
  0
LINE
  5
8B
330
1F
100
AcDbEntity
  8
TITLE
370
    50
100
AcDbLine
 10
49.5182230240126
 20
3.597963681745253
 30
0.0
 11
42.50597912026433
 21
3.597963681745253
 31
0.0
  0
LINE
  5
8C
330
1F
100
AcDbEntity
  8
TITLE
370
    50
100
AcDbLine
 10
49.5182230240126
 20
3.597963681745253
 30
0.0
 11
66.49976156426075
 21
3.597964834324628
 31
0.0
  0
LINE
  5
8D
330
1F
100
AcDbEntity
  8
TITLE
370
    50
100
AcDbLine
 10
56.31053507231783
 20
5.475360393555786
 30
0.0
 11
56.31053507231783
 21
0.4636772425222311
 31
0.0
  0
LINE
  5
8E
330
1F
100
AcDbEntity
  8
TITLE
  6
SLD-Solid
370
    18
100
AcDbLine
 10
33.5
 20
31.50003937007874
 30
0.0
 11
33.5
 21
31.49996062992126
 31
0.0
  0
LINE
  5
8F
330
1F
100
AcDbEntity
  8
TITLE
  6
SLD-Solid
370
    18
100
AcDbLine
 10
66.50003937007874
 20
16.0
 30
0.0
 11
66.49996062992126
 21
16.0
 31
0.0
  0
LINE
  5
90
330
1F
100
AcDbEntity
  8
TITLE
  6
SLD-Solid
370
    18
100
AcDbLine
 10
33.5
 20
0.4999606299212599
 30
0.0
 11
33.5
 21
0.5000393700787401
 31
0.0
  0
LINE
  5
91
330
1F
100
AcDbEntity
  8
TITLE
  6
SLD-Solid
370
    18
100
AcDbLine
 10
0.5
 20
2.22047244094488
 30
0.0
 11
0.1653543307086614
 21
2.22047244094488
 31
0.0
  0
LINE
  5
5CA
330
1F
100
AcDbEntity
  8
TITLE
  6
SLD-Solid
370
    18
100
AcDbLine
 10
66.5
 20
2.22047244094488
 30
0.0
 11
66.83464566929133
 21
2.22047244094488
 31
0.0
  0
LINE
  5
5CB
330
1F
100
AcDbEntity
  8
TITLE
  6
SLD-Solid
370
    18
100
AcDbLine
 10
0.5
 20
4.188976377952754
 30
0.0
 11
0.1653543307086614
 21
4.188976377952754
 31
0.0
  0
LINE
  5
94
330
1F
100
AcDbEntity
  8
TITLE
  6
SLD-Solid
370
    18
100
AcDbLine
 10
66.5
 20
4.188976377952754
 30
0.0
 11
66.83464566929133
 21
4.188976377952754
 31
0.0
  0
LINE
  5
95
330
1F
100
AcDbEntity
  8
TITLE
  6
SLD-Solid
370
    18
100
AcDbLine
 10
0.5
 20
6.15748031496063
 30
0.0
 11
0.1653543307086614
 21
6.15748031496063
 31
0.0
  0
LINE
  5
96
330
1F
100
AcDbEntity
  8
TITLE
  6
SLD-Solid
370
    18
100
AcDbLine
 10
66.5
 20
6.15748031496063
 30
0.0
 11
66.83464566929133
 21
6.15748031496063
 31
0.0
  0
LINE
  5
5CC
330
1F
100
AcDbEntity
  8
TITLE
  6
SLD-Solid
370
    18
100
AcDbLine
 10
0.5
 20
8.125984251968504
 30
0.0
 11
0.1653543307086614
 21
8.125984251968504
 31
0.0
  0
LINE
  5
5CD
330
1F
100
AcDbEntity
  8
TITLE
  6
SLD-Solid
370
    18
100
AcDbLine
 10
66.5
 20
8.125984251968504
 30
0.0
 11
66.83464566929133
 21
8.125984251968504
 31
0.0
  0
LINE
  5
99
330
1F
100
AcDbEntity
  8
TITLE
  6
SLD-Solid
370
    18
100
AcDbLine
 10
0.5
 20
10.09448818897638
 30
0.0
 11
0.1653543307086614
 21
10.09448818897638
 31
0.0
  0
LINE
  5
9A
330
1F
100
AcDbEntity
  8
TITLE
  6
SLD-Solid
370
    18
100
AcDbLine
 10
66.5
 20
10.09448818897638
 30
0.0
 11
66.83464566929133
 21
10.09448818897638
 31
0.0
  0
LINE
  5
9B
330
1F
100
AcDbEntity
  8
TITLE
  6
SLD-Solid
370
    18
100
AcDbLine
 10
0.5
 20
12.06299212598425
 30
0.0
 11
0.1653543307086614
 21
12.06299212598425
 31
0.0
  0
LINE
  5
9C
330
1F
100
AcDbEntity
  8
TITLE
  6
SLD-Solid
370
    18
100
AcDbLine
 10
66.5
 20
12.06299212598425
 30
0.0
 11
66.83464566929133
 21
12.06299212598425
 31
0.0
  0
LINE
  5
9D
330
1F
100
AcDbEntity
  8
TITLE
  6
SLD-Solid
370
    18
100
AcDbLine
 10
0.5
 20
14.03149606299213
 30
0.0
 11
0.1653543307086614
 21
14.03149606299213
 31
0.0
  0
LINE
  5
9E
330
1F
100
AcDbEntity
  8
TITLE
  6
SLD-Solid
370
    18
100
AcDbLine
 10
66.5
 20
14.03149606299213
 30
0.0
 11
66.83464566929133
 21
14.03149606299213
 31
0.0
  0
LINE
  5
9F
330
1F
100
AcDbEntity
  8
TITLE
  6
SLD-Solid
370
    18
100
AcDbLine
 10
0.5
 20
16.0
 30
0.0
 11
0.1653543307086614
 21
16.0
 31
0.0
  0
LINE
  5
A0
330
1F
100
AcDbEntity
  8
TITLE
  6
SLD-Solid
370
    18
100
AcDbLine
 10
66.5
 20
16.0
 30
0.0
 11
66.83464566929133
 21
16.0
 31
0.0
  0
LINE
  5
A1
330
1F
100
AcDbEntity
  8
TITLE
  6
SLD-Solid
370
    18
100
AcDbLine
 10
0.5
 20
17.96850393700787
 30
0.0
 11
0.1653543307086614
 21
17.96850393700787
 31
0.0
  0
LINE
  5
A2
330
1F
100
AcDbEntity
  8
TITLE
  6
SLD-Solid
370
    18
100
AcDbLine
 10
66.5
 20
17.96850393700787
 30
0.0
 11
66.83464566929133
 21
17.96850393700787
 31
0.0
  0
LINE
  5
A3
330
1F
100
AcDbEntity
  8
TITLE
  6
SLD-Solid
370
    18
100
AcDbLine
 10
0.5
 20
19.93700787401575
 30
0.0
 11
0.1653543307086614
 21
19.93700787401575
 31
0.0
  0
LINE
  5
A4
330
1F
100
AcDbEntity
  8
TITLE
  6
SLD-Solid
370
    18
100
AcDbLine
 10
66.5
 20
19.93700787401575
 30
0.0
 11
66.83464566929133
 21
19.93700787401575
 31
0.0
  0
LINE
  5
A5
330
1F
100
AcDbEntity
  8
TITLE
  6
SLD-Solid
370
    18
100
AcDbLine
 10
0.5
 20
21.90551181102362
 30
0.0
 11
0.1653543307086614
 21
21.90551181102362
 31
0.0
  0
LINE
  5
A6
330
1F
100
AcDbEntity
  8
TITLE
  6
SLD-Solid
370
    18
100
AcDbLine
 10
66.5
 20
21.90551181102362
 30
0.0
 11
66.83464566929133
 21
21.90551181102362
 31
0.0
  0
LINE
  5
A7
330
1F
100
AcDbEntity
  8
TITLE
  6
SLD-Solid
370
    18
100
AcDbLine
 10
0.5
 20
23.8740157480315
 30
0.0
 11
0.1653543307086614
 21
23.8740157480315
 31
0.0
  0
LINE
  5
A8
330
1F
100
AcDbEntity
  8
TITLE
  6
SLD-Solid
370
    18
100
AcDbLine
 10
66.5
 20
23.8740157480315
 30
0.0
 11
66.83464566929133
 21
23.8740157480315
 31
0.0
  0
LINE
  5
A9
330
1F
100
AcDbEntity
  8
TITLE
  6
SLD-Solid
370
    18
100
AcDbLine
 10
0.5
 20
25.84251968503937
 30
0.0
 11
0.1653543307086614
 21
25.84251968503937
 31
0.0
  0
LINE
  5
AA
330
1F
100
AcDbEntity
  8
TITLE
  6
SLD-Solid
370
    18
100
AcDbLine
 10
66.5
 20
25.84251968503937
 30
0.0
 11
66.83464566929133
 21
25.84251968503937
 31
0.0
  0
LINE
  5
AB
330
1F
100
AcDbEntity
  8
TITLE
  6
SLD-Solid
370
    18
100
AcDbLine
 10
0.5
 20
27.81102362204724
 30
0.0
 11
0.1653543307086614
 21
27.81102362204724
 31
0.0
  0
LINE
  5
AC
330
1F
100
AcDbEntity
  8
TITLE
  6
SLD-Solid
370
    18
100
AcDbLine
 10
66.5
 20
27.81102362204724
 30
0.0
 11
66.83464566929133
 21
27.81102362204724
 31
0.0
  0
LINE
  5
AD
330
1F
100
AcDbEntity
  8
TITLE
  6
SLD-Solid
370
    18
100
AcDbLine
 10
0.5
 20
29.77952755905512
 30
0.0
 11
0.1653543307086614
 21
29.77952755905512
 31
0.0
  0
LINE
  5
AE
330
1F
100
AcDbEntity
  8
TITLE
  6
SLD-Solid
370
    18
100
AcDbLine
 10
66.5
 20
29.77952755905512
 30
0.0
 11
66.83464566929133
 21
29.77952755905512
 31
0.0
  0
LINE
  5
AF
330
1F
100
AcDbEntity
  8
TITLE
  6
SLD-Solid
370
    18
100
AcDbLine
 10
2.003937007874014
 20
31.5
 30
0.0
 11
2.003937007874014
 21
31.83464566929133
 31
0.0
  0
LINE
  5
B0
330
1F
100
AcDbEntity
  8
TITLE
  6
SLD-Solid
370
    18
100
AcDbLine
 10
2.003937007874014
 20
0.5
 30
0.0
 11
2.003937007874014
 21
0.1653543307086614
 31
0.0
  0
LINE
  5
B1
330
1F
100
AcDbEntity
  8
TITLE
  6
SLD-Solid
370
    18
100
AcDbLine
 10
3.972440944881889
 20
31.5
 30
0.0
 11
3.972440944881889
 21
31.83464566929133
 31
0.0
  0
LINE
  5
B2
330
1F
100
AcDbEntity
  8
TITLE
  6
SLD-Solid
370
    18
100
AcDbLine
 10
3.972440944881889
 20
0.5
 30
0.0
 11
3.972440944881889
 21
0.1653543307086614
 31
0.0
  0
LINE
  5
B3
330
1F
100
AcDbEntity
  8
TITLE
  6
SLD-Solid
370
    18
100
AcDbLine
 10
5.940944881889761
 20
31.5
 30
0.0
 11
5.940944881889761
 21
31.83464566929133
 31
0.0
  0
LINE
  5
B4
330
1F
100
AcDbEntity
  8
TITLE
  6
SLD-Solid
370
    18
100
AcDbLine
 10
5.940944881889761
 20
0.5
 30
0.0
 11
5.940944881889761
 21
0.1653543307086614
 31
0.0
  0
LINE
  5
B5
330
1F
100
AcDbEntity
  8
TITLE
  6
SLD-Solid
370
    18
100
AcDbLine
 10
7.909448818897637
 20
31.5
 30
0.0
 11
7.909448818897637
 21
31.83464566929133
 31
0.0
  0
LINE
  5
B6
330
1F
100
AcDbEntity
  8
TITLE
  6
SLD-Solid
370
    18
100
AcDbLine
 10
7.909448818897637
 20
0.5
 30
0.0
 11
7.909448818897637
 21
0.1653543307086614
 31
0.0
  0
LINE
  5
B7
330
1F
100
AcDbEntity
  8
TITLE
  6
SLD-Solid
370
    18
100
AcDbLine
 10
9.877952755905508
 20
31.5
 30
0.0
 11
9.877952755905508
 21
31.83464566929133
 31
0.0
  0
LINE
  5
B8
330
1F
100
AcDbEntity
  8
TITLE
  6
SLD-Solid
370
    18
100
AcDbLine
 10
9.877952755905508
 20
0.5
 30
0.0
 11
9.877952755905508
 21
0.1653543307086614
 31
0.0
  0
LINE
  5
B9
330
1F
100
AcDbEntity
  8
TITLE
  6
SLD-Solid
370
    18
100
AcDbLine
 10
11.84645669291338
 20
31.5
 30
0.0
 11
11.84645669291338
 21
31.83464566929133
 31
0.0
  0
LINE
  5
BA
330
1F
100
AcDbEntity
  8
TITLE
  6
SLD-Solid
370
    18
100
AcDbLine
 10
11.84645669291338
 20
0.5
 30
0.0
 11
11.84645669291338
 21
0.1653543307086614
 31
0.0
  0
LINE
  5
BB
330
1F
100
AcDbEntity
  8
TITLE
  6
SLD-Solid
370
    18
100
AcDbLine
 10
13.81496062992126
 20
31.5
 30
0.0
 11
13.81496062992126
 21
31.83464566929133
 31
0.0
  0
LINE
  5
BC
330
1F
100
AcDbEntity
  8
TITLE
  6
SLD-Solid
370
    18
100
AcDbLine
 10
13.81496062992126
 20
0.5
 30
0.0
 11
13.81496062992126
 21
0.1653543307086614
 31
0.0
  0
LINE
  5
BD
330
1F
100
AcDbEntity
  8
TITLE
  6
SLD-Solid
370
    18
100
AcDbLine
 10
15.78346456692913
 20
31.5
 30
0.0
 11
15.78346456692913
 21
31.83464566929133
 31
0.0
  0
LINE
  5
BE
330
1F
100
AcDbEntity
  8
TITLE
  6
SLD-Solid
370
    18
100
AcDbLine
 10
15.78346456692913
 20
0.5
 30
0.0
 11
15.78346456692913
 21
0.1653543307086614
 31
0.0
  0
LINE
  5
BF
330
1F
100
AcDbEntity
  8
TITLE
  6
SLD-Solid
370
    18
100
AcDbLine
 10
17.75196850393701
 20
31.5
 30
0.0
 11
17.75196850393701
 21
31.83464566929133
 31
0.0
  0
LINE
  5
C0
330
1F
100
AcDbEntity
  8
TITLE
  6
SLD-Solid
370
    18
100
AcDbLine
 10
17.75196850393701
 20
0.5
 30
0.0
 11
17.75196850393701
 21
0.1653543307086614
 31
0.0
  0
LINE
  5
C1
330
1F
100
AcDbEntity
  8
TITLE
  6
SLD-Solid
370
    18
100
AcDbLine
 10
19.72047244094488
 20
31.5
 30
0.0
 11
19.72047244094488
 21
31.83464566929133
 31
0.0
  0
LINE
  5
C2
330
1F
100
AcDbEntity
  8
TITLE
  6
SLD-Solid
370
    18
100
AcDbLine
 10
19.72047244094488
 20
0.5
 30
0.0
 11
19.72047244094488
 21
0.1653543307086614
 31
0.0
  0
LINE
  5
C3
330
1F
100
AcDbEntity
  8
TITLE
  6
SLD-Solid
370
    18
100
AcDbLine
 10
21.68897637795276
 20
31.5
 30
0.0
 11
21.68897637795276
 21
31.83464566929133
 31
0.0
  0
LINE
  5
C4
330
1F
100
AcDbEntity
  8
TITLE
  6
SLD-Solid
370
    18
100
AcDbLine
 10
21.68897637795276
 20
0.5
 30
0.0
 11
21.68897637795276
 21
0.1653543307086614
 31
0.0
  0
LINE
  5
C5
330
1F
100
AcDbEntity
  8
TITLE
  6
SLD-Solid
370
    18
100
AcDbLine
 10
23.65748031496063
 20
31.5
 30
0.0
 11
23.65748031496063
 21
31.83464566929133
 31
0.0
  0
LINE
  5
C6
330
1F
100
AcDbEntity
  8
TITLE
  6
SLD-Solid
370
    18
100
AcDbLine
 10
23.65748031496063
 20
0.5
 30
0.0
 11
23.65748031496063
 21
0.1653543307086614
 31
0.0
  0
LINE
  5
C7
330
1F
100
AcDbEntity
  8
TITLE
  6
SLD-Solid
370
    18
100
AcDbLine
 10
25.62598425196851
 20
31.5
 30
0.0
 11
25.62598425196851
 21
31.83464566929133
 31
0.0
  0
LINE
  5
C8
330
1F
100
AcDbEntity
  8
TITLE
  6
SLD-Solid
370
    18
100
AcDbLine
 10
25.62598425196851
 20
0.5
 30
0.0
 11
25.62598425196851
 21
0.1653543307086614
 31
0.0
  0
LINE
  5
C9
330
1F
100
AcDbEntity
  8
TITLE
  6
SLD-Solid
370
    18
100
AcDbLine
 10
27.59448818897638
 20
31.5
 30
0.0
 11
27.59448818897638
 21
31.83464566929133
 31
0.0
  0
LINE
  5
CA
330
1F
100
AcDbEntity
  8
TITLE
  6
SLD-Solid
370
    18
100
AcDbLine
 10
27.59448818897638
 20
0.5
 30
0.0
 11
27.59448818897638
 21
0.1653543307086614
 31
0.0
  0
LINE
  5
CB
330
1F
100
AcDbEntity
  8
TITLE
  6
SLD-Solid
370
    18
100
AcDbLine
 10
29.56299212598425
 20
31.5
 30
0.0
 11
29.56299212598425
 21
31.83464566929133
 31
0.0
  0
LINE
  5
CC
330
1F
100
AcDbEntity
  8
TITLE
  6
SLD-Solid
370
    18
100
AcDbLine
 10
29.56299212598425
 20
0.5
 30
0.0
 11
29.56299212598425
 21
0.1653543307086614
 31
0.0
  0
LINE
  5
CD
330
1F
100
AcDbEntity
  8
TITLE
  6
SLD-Solid
370
    18
100
AcDbLine
 10
31.53149606299213
 20
31.5
 30
0.0
 11
31.53149606299213
 21
31.83464566929133
 31
0.0
  0
LINE
  5
CE
330
1F
100
AcDbEntity
  8
TITLE
  6
SLD-Solid
370
    18
100
AcDbLine
 10
31.53149606299213
 20
0.5
 30
0.0
 11
31.53149606299213
 21
0.1653543307086614
 31
0.0
  0
LINE
  5
CF
330
1F
100
AcDbEntity
  8
TITLE
  6
SLD-Solid
370
    18
100
AcDbLine
 10
33.5
 20
31.5
 30
0.0
 11
33.5
 21
31.83464566929133
 31
0.0
  0
LINE
  5
D0
330
1F
100
AcDbEntity
  8
TITLE
  6
SLD-Solid
370
    18
100
AcDbLine
 10
33.5
 20
0.5
 30
0.0
 11
33.5
 21
0.1653543307086614
 31
0.0
  0
LINE
  5
D1
330
1F
100
AcDbEntity
  8
TITLE
  6
SLD-Solid
370
    18
100
AcDbLine
 10
35.46850393700787
 20
31.5
 30
0.0
 11
35.46850393700787
 21
31.83464566929133
 31
0.0
  0
LINE
  5
D2
330
1F
100
AcDbEntity
  8
TITLE
  6
SLD-Solid
370
    18
100
AcDbLine
 10
35.46850393700787
 20
0.5
 30
0.0
 11
35.46850393700787
 21
0.1653543307086614
 31
0.0
  0
LINE
  5
D3
330
1F
100
AcDbEntity
  8
TITLE
  6
SLD-Solid
370
    18
100
AcDbLine
 10
37.43700787401575
 20
31.5
 30
0.0
 11
37.43700787401575
 21
31.83464566929133
 31
0.0
  0
LINE
  5
D4
330
1F
100
AcDbEntity
  8
TITLE
  6
SLD-Solid
370
    18
100
AcDbLine
 10
37.43700787401575
 20
0.5
 30
0.0
 11
37.43700787401575
 21
0.1653543307086614
 31
0.0
  0
LINE
  5
D5
330
1F
100
AcDbEntity
  8
TITLE
  6
SLD-Solid
370
    18
100
AcDbLine
 10
39.40551181102363
 20
31.5
 30
0.0
 11
39.40551181102363
 21
31.83464566929133
 31
0.0
  0
LINE
  5
D6
330
1F
100
AcDbEntity
  8
TITLE
  6
SLD-Solid
370
    18
100
AcDbLine
 10
39.40551181102363
 20
0.5
 30
0.0
 11
39.40551181102363
 21
0.1653543307086614
 31
0.0
  0
LINE
  5
D7
330
1F
100
AcDbEntity
  8
TITLE
  6
SLD-Solid
370
    18
100
AcDbLine
 10
41.3740157480315
 20
31.5
 30
0.0
 11
41.3740157480315
 21
31.83464566929133
 31
0.0
  0
LINE
  5
D8
330
1F
100
AcDbEntity
  8
TITLE
  6
SLD-Solid
370
    18
100
AcDbLine
 10
41.3740157480315
 20
0.5
 30
0.0
 11
41.3740157480315
 21
0.1653543307086614
 31
0.0
  0
LINE
  5
D9
330
1F
100
AcDbEntity
  8
TITLE
  6
SLD-Solid
370
    18
100
AcDbLine
 10
43.34251968503937
 20
31.5
 30
0.0
 11
43.34251968503937
 21
31.83464566929133
 31
0.0
  0
LINE
  5
DA
330
1F
100
AcDbEntity
  8
TITLE
  6
SLD-Solid
370
    18
100
AcDbLine
 10
43.34251968503937
 20
0.5
 30
0.0
 11
43.34251968503937
 21
0.1653543307086614
 31
0.0
  0
LINE
  5
DB
330
1F
100
AcDbEntity
  8
TITLE
  6
SLD-Solid
370
    18
100
AcDbLine
 10
45.31102362204724
 20
31.5
 30
0.0
 11
45.31102362204724
 21
31.83464566929133
 31
0.0
  0
LINE
  5
DC
330
1F
100
AcDbEntity
  8
TITLE
  6
SLD-Solid
370
    18
100
AcDbLine
 10
45.31102362204724
 20
0.5
 30
0.0
 11
45.31102362204724
 21
0.1653543307086614
 31
0.0
  0
LINE
  5
DD
330
1F
100
AcDbEntity
  8
TITLE
  6
SLD-Solid
370
    18
100
AcDbLine
 10
47.27952755905513
 20
31.5
 30
0.0
 11
47.27952755905513
 21
31.83464566929133
 31
0.0
  0
LINE
  5
DE
330
1F
100
AcDbEntity
  8
TITLE
  6
SLD-Solid
370
    18
100
AcDbLine
 10
47.27952755905513
 20
0.5
 30
0.0
 11
47.27952755905513
 21
0.1653543307086614
 31
0.0
  0
LINE
  5
DF
330
1F
100
AcDbEntity
  8
TITLE
  6
SLD-Solid
370
    18
100
AcDbLine
 10
49.248031496063
 20
31.5
 30
0.0
 11
49.248031496063
 21
31.83464566929133
 31
0.0
  0
LINE
  5
E0
330
1F
100
AcDbEntity
  8
TITLE
  6
SLD-Solid
370
    18
100
AcDbLine
 10
49.248031496063
 20
0.5
 30
0.0
 11
49.248031496063
 21
0.1653543307086614
 31
0.0
  0
LINE
  5
E1
330
1F
100
AcDbEntity
  8
TITLE
  6
SLD-Solid
370
    18
100
AcDbLine
 10
51.21653543307087
 20
31.5
 30
0.0
 11
51.21653543307087
 21
31.83464566929133
 31
0.0
  0
LINE
  5
E2
330
1F
100
AcDbEntity
  8
TITLE
  6
SLD-Solid
370
    18
100
AcDbLine
 10
51.21653543307087
 20
0.5
 30
0.0
 11
51.21653543307087
 21
0.1653543307086614
 31
0.0
  0
LINE
  5
E3
330
1F
100
AcDbEntity
  8
TITLE
  6
SLD-Solid
370
    18
100
AcDbLine
 10
53.18503937007874
 20
31.5
 30
0.0
 11
53.18503937007874
 21
31.83464566929133
 31
0.0
  0
LINE
  5
E4
330
1F
100
AcDbEntity
  8
TITLE
  6
SLD-Solid
370
    18
100
AcDbLine
 10
53.18503937007874
 20
0.5
 30
0.0
 11
53.18503937007874
 21
0.1653543307086614
 31
0.0
  0
LINE
  5
E5
330
1F
100
AcDbEntity
  8
TITLE
  6
SLD-Solid
370
    18
100
AcDbLine
 10
55.15354330708661
 20
31.5
 30
0.0
 11
55.15354330708661
 21
31.83464566929133
 31
0.0
  0
LINE
  5
E6
330
1F
100
AcDbEntity
  8
TITLE
  6
SLD-Solid
370
    18
100
AcDbLine
 10
55.15354330708661
 20
0.5
 30
0.0
 11
55.15354330708661
 21
0.1653543307086614
 31
0.0
  0
LINE
  5
E7
330
1F
100
AcDbEntity
  8
TITLE
  6
SLD-Solid
370
    18
100
AcDbLine
 10
57.1220472440945
 20
31.5
 30
0.0
 11
57.1220472440945
 21
31.83464566929133
 31
0.0
  0
LINE
  5
E8
330
1F
100
AcDbEntity
  8
TITLE
  6
SLD-Solid
370
    18
100
AcDbLine
 10
57.1220472440945
 20
0.5
 30
0.0
 11
57.1220472440945
 21
0.1653543307086614
 31
0.0
  0
LINE
  5
E9
330
1F
100
AcDbEntity
  8
TITLE
  6
SLD-Solid
370
    18
100
AcDbLine
 10
59.09055118110237
 20
31.5
 30
0.0
 11
59.09055118110237
 21
31.83464566929133
 31
0.0
  0
LINE
  5
EA
330
1F
100
AcDbEntity
  8
TITLE
  6
SLD-Solid
370
    18
100
AcDbLine
 10
59.09055118110237
 20
0.5
 30
0.0
 11
59.09055118110237
 21
0.1653543307086614
 31
0.0
  0
LINE
  5
EB
330
1F
100
AcDbEntity
  8
TITLE
  6
SLD-Solid
370
    18
100
AcDbLine
 10
61.05905511811024
 20
31.5
 30
0.0
 11
61.05905511811024
 21
31.83464566929133
 31
0.0
  0
LINE
  5
EC
330
1F
100
AcDbEntity
  8
TITLE
  6
SLD-Solid
370
    18
100
AcDbLine
 10
61.05905511811024
 20
0.5
 30
0.0
 11
61.05905511811024
 21
0.1653543307086614
 31
0.0
  0
LINE
  5
ED
330
1F
100
AcDbEntity
  8
TITLE
  6
SLD-Solid
370
    18
100
AcDbLine
 10
63.02755905511811
 20
31.5
 30
0.0
 11
63.02755905511811
 21
31.83464566929133
 31
0.0
  0
LINE
  5
EE
330
1F
100
AcDbEntity
  8
TITLE
  6
SLD-Solid
370
    18
100
AcDbLine
 10
63.02755905511811
 20
0.5
 30
0.0
 11
63.02755905511811
 21
0.1653543307086614
 31
0.0
  0
LINE
  5
EF
330
1F
100
AcDbEntity
  8
TITLE
  6
SLD-Solid
370
    18
100
AcDbLine
 10
64.99606299212599
 20
31.5
 30
0.0
 11
64.99606299212599
 21
31.83464566929133
 31
0.0
  0
LINE
  5
F0
330
1F
100
AcDbEntity
  8
TITLE
  6
SLD-Solid
370
    18
100
AcDbLine
 10
64.99606299212599
 20
0.5
 30
0.0
 11
64.99606299212599
 21
0.1653543307086614
 31
0.0
  0
MTEXT
  5
F2
330
1F
100
AcDbEntity
  8
NOTES
100
AcDbMText
 10
43.40829780303407
 20
1.07029033469434
 30
0.0
 40
0.25
 41
0.0
 71
     1
 72
     1
  1
UNLESS OTHERWISE SPECIFIED DIMENSIONS ARE IN INCHES.
  7
SLDTEXTSTYLE0
 73
     1
 44
1.0
  0
MTEXT
  5
F3
330
1F
100
AcDbEntity
  8
NOTES
100
AcDbMText
 10
43.43006992789031
 20
3.083062777580424
 30
0.0
 40
0.25
 41
0.0
 71
     1
 72
     1
  1
DATE:
  7
SLDTEXTSTYLE0
 73
     1
 44
1.0
  0
MTEXT
  5
F4
330
1F
100
AcDbEntity
  8
NOTES
100
AcDbMText
 10
45.53870118800532
 20
2.193032963662711
 30
0.0
 40
0.25
 41
0.0
 71
     2
 72
     1
  1
DO NOT SCALE DRAWING
  7
SLDTEXTSTYLE0
 73
     1
 44
1.0
  0
MTEXT
  5
F6
330
1F
100
AcDbEntity
  8
NOTES
100
AcDbMText
 10
49.83073730750538
 20
3.268275555297606
 30
0.0
 40
0.25
 41
0.0
 71
     1
 72
     1
  1
TITLE:
  7
SLDTEXTSTYLE1
 73
     1
 44
1.0
  0
MTEXT
  5
F7
330
1F
100
AcDbEntity
  8
NOTES
100
AcDbMText
 10
57.15618310516096
 20
3.268275555297599
 30
0.0
 40
0.25
 41
0.0
 71
     1
 72
     1
  1
DWG NO.
  7
SLDTEXTSTYLE1
 73
     1
 44
1.0
  0
MTEXT
  5
F8
330
1F
100
AcDbEntity
  8
NOTES
100
AcDbMText
 10
57.18317532028495
 20
1.064581557673831
 30
0.0
 40
0.25
 41
0.0
 71
     1
 72
     1
  1
SCALE:     1:1
  7
SLDTEXTSTYLE1
 73
     1
 44
1.0
  0
MTEXT
  5
F9
330
1F
100
AcDbEntity
  8
NOTES
100
AcDbMText
 10
61.18479293442029
 20
2.651034429460864
 30
0.0
 40
0.25
 41
0.0
 71
     2
 72
     1
  1
168_168 S CAD
  7
SLDTEXTSTYLE1
 73
     1
 44
1.0
  0
MTEXT
  5
FA
330
1F
100
AcDbEntity
  8
NOTES
100
AcDbMText
 10
53.47398625819753
 20
2.651034429460864
 30
0.0
 40
0.25
 41
0.0
 71
     2
 72
     1
  1
13 in. Jumbo Roll Dispenser
  7
SLDTEXTSTYLE1
 73
     1
 44
1.0
  0
INSERT
  5
10A
330
1F
100
AcDbEntity
  8
NOTES
100
AcDbBlockReference
  2
SW_NOTE_0_1
 10
43.61597262459081
 20
5.148152684778704
 30
0.0
  0
MTEXT
  5
10B
330
1F
100
AcDbEntity
  8
NOTES
100
AcDbMText
 10
46.50646987787913
 20
3.086473326765869
 30
0.0
 40
0.25
 41
0.0
 71
     2
 72
     1
  1
July 6, 2021
  7
SLDTEXTSTYLE1
 73
     1
 44
1.0
  0
MTEXT
  5
10C
330
1F
100
AcDbEntity
  8
TITLE
100
AcDbMText
 10
0.3276279775836454
 20
1.44011416498992
 30
0.0
 40
0.125
 41
0.0
 71
     2
 72
     1
  1
A
  7
SLDTEXTSTYLE1
 73
     1
 44
1.0
  0
MTEXT
  5
10D
330
1F
100
AcDbEntity
  8
TITLE
100
AcDbMText
 10
66.662273646875
 20
1.44011416498992
 30
0.0
 40
0.125
 41
0.0
 71
     2
 72
     1
  1
A
  7
SLDTEXTSTYLE1
 73
     1
 44
1.0
  0
MTEXT
  5
10E
330
1F
100
AcDbEntity
  8
TITLE
100
AcDbMText
 10
0.3317512413046844
 20
3.284602353966297
 30
0.0
 40
0.125
 41
0.0
 71
     2
 72
     1
  1
B
  7
SLDTEXTSTYLE1
 73
     1
 44
1.0
  0
MTEXT
  5
10F
330
1F
100
AcDbEntity
  8
TITLE
100
AcDbMText
 10
66.66639691059603
 20
3.284602353966297
 30
0.0
 40
0.125
 41
0.0
 71
     2
 72
     1
  1
B
  7
SLDTEXTSTYLE1
 73
     1
 44
1.0
  0
MTEXT
  5
110
330
1F
100
AcDbEntity
  8
TITLE
100
AcDbMText
 10
0.3313750816934456
 20
5.253106290974171
 30
0.0
 40
0.125
 41
0.0
 71
     2
 72
     1
  1
C
  7
SLDTEXTSTYLE1
 73
     1
 44
1.0
  0
MTEXT
  5
111
330
1F
100
AcDbEntity
  8
TITLE
100
AcDbMText
 10
66.6660207509848
 20
5.253106290974172
 30
0.0
 40
0.125
 41
0.0
 71
     2
 72
     1
  1
C
  7
SLDTEXTSTYLE1
 73
     1
 44
1.0
  0
MTEXT
  5
112
330
1F
100
AcDbEntity
  8
TITLE
100
AcDbMText
 10
0.3311870028448152
 20
7.221610227982046
 30
0.0
 40
0.125
 41
0.0
 71
     2
 72
     1
  1
D
  7
SLDTEXTSTYLE1
 73
     1
 44
1.0
  0
MTEXT
  5
113
330
1F
100
AcDbEntity
  8
TITLE
100
AcDbMText
 10
66.66583267213616
 20
7.221610227982046
 30
0.0
 40
0.125
 41
0.0
 71
     2
 72
     1
  1
D
  7
SLDTEXTSTYLE1
 73
     1
 44
1.0
  0
MTEXT
  5
114
330
1F
100
AcDbEntity
  8
TITLE
100
AcDbMText
 10
0.3329231160377542
 20
9.19011416498992
 30
0.0
 40
0.125
 41
0.0
 71
     2
 72
     1
  1
E
  7
SLDTEXTSTYLE1
 73
     1
 44
1.0
  0
MTEXT
  5
115
330
1F
100
AcDbEntity
  8
TITLE
100
AcDbMText
 10
66.66756878532911
 20
9.190114164989922
 30
0.0
 40
0.125
 41
0.0
 71
     2
 72
     1
  1
E
  7
SLDTEXTSTYLE1
 73
     1
 44
1.0
  0
MTEXT
  5
116
330
1F
100
AcDbEntity
  8
TITLE
100
AcDbMText
 10
0.3313461474003637
 20
11.15861810199779
 30
0.0
 40
0.125
 41
0.0
 71
     2
 72
     1
  1
F
  7
SLDTEXTSTYLE1
 73
     1
 44
1.0
  0
MTEXT
  5
117
330
1F
100
AcDbEntity
  8
TITLE
100
AcDbMText
 10
66.66599181669172
 20
11.1586181019978
 30
0.0
 40
0.125
 41
0.0
 71
     2
 72
     1
  1
F
  7
SLDTEXTSTYLE1
 73
     1
 44
1.0
  0
MTEXT
  5
118
330
1F
100
AcDbEntity
  8
TITLE
100
AcDbMText
 10
0.332257605436456
 20
13.12712203900567
 30
0.0
 40
0.125
 41
0.0
 71
     2
 72
     1
  1
G
  7
SLDTEXTSTYLE1
 73
     1
 44
1.0
  0
MTEXT
  5
119
330
1F
100
AcDbEntity
  8
TITLE
100
AcDbMText
 10
66.66690327472779
 20
13.12712203900567
 30
0.0
 40
0.125
 41
0.0
 71
     2
 72
     1
  1
G
  7
SLDTEXTSTYLE1
 73
     1
 44
1.0
  0
MTEXT
  5
11A
330
1F
100
AcDbEntity
  8
TITLE
100
AcDbMText
 10
0.3323733456814148
 20
15.09562597601354
 30
0.0
 40
0.125
 41
0.0
 71
     2
 72
     1
  1
H
  7
SLDTEXTSTYLE1
 73
     1
 44
1.0
  0
MTEXT
  5
11B
330
1F
100
AcDbEntity
  8
TITLE
100
AcDbMText
 10
66.66701901497275
 20
15.09562597601354
 30
0.0
 40
0.125
 41
0.0
 71
     2
 72
     1
  1
H
  7
SLDTEXTSTYLE1
 73
     1
 44
1.0
  0
MTEXT
  5
11C
330
1F
100
AcDbEntity
  8
TITLE
100
AcDbMText
 10
0.3315776305595838
 20
17.06412991302141
 30
0.0
 40
0.125
 41
0.0
 71
     2
 72
     1
  1
J
  7
SLDTEXTSTYLE1
 73
     1
 44
1.0
  0
MTEXT
  5
11D
330
1F
100
AcDbEntity
  8
TITLE
100
AcDbMText
 10
66.66622329985091
 20
17.06412991302141
 30
0.0
 40
0.125
 41
0.0
 71
     2
 72
     1
  1
J
  7
SLDTEXTSTYLE1
 73
     1
 44
1.0
  0
MTEXT
  5
11E
330
1F
100
AcDbEntity
  8
TITLE
100
AcDbMText
 10
0.3323154765159244
 20
19.03263385002929
 30
0.0
 40
0.125
 41
0.0
 71
     2
 72
     1
  1
K
  7
SLDTEXTSTYLE1
 73
     1
 44
1.0
  0
MTEXT
  5
11F
330
1F
100
AcDbEntity
  8
TITLE
100
AcDbMText
 10
66.66696114580725
 20
19.03263385002929
 30
0.0
 40
0.125
 41
0.0
 71
     2
 72
     1
  1
K
  7
SLDTEXTSTYLE1
 73
     1
 44
1.0
  0
MTEXT
  5
120
330
1F
100
AcDbEntity
  8
TITLE
100
AcDbMText
 10
0.3312448739242835
 20
21.00113778703717
 30
0.0
 40
0.125
 41
0.0
 71
     2
 72
     1
  1
L
  7
SLDTEXTSTYLE1
 73
     1
 44
1.0
  0
MTEXT
  5
121
330
1F
100
AcDbEntity
  8
TITLE
100
AcDbMText
 10
66.66589054321564
 20
21.00113778703717
 30
0.0
 40
0.125
 41
0.0
 71
     2
 72
     1
  1
L
  7
SLDTEXTSTYLE1
 73
     1
 44
1.0
  0
MTEXT
  5
122
330
1F
100
AcDbEntity
  8
TITLE
100
AcDbMText
 10
0.3283224192293962
 20
22.96964172404504
 30
0.0
 40
0.125
 41
0.0
 71
     2
 72
     1
  1
M
  7
SLDTEXTSTYLE1
 73
     1
 44
1.0
  0
MTEXT
  5
123
330
1F
100
AcDbEntity
  8
TITLE
100
AcDbMText
 10
66.66296808852074
 20
22.96964172404504
 30
0.0
 40
0.125
 41
0.0
 71
     2
 72
     1
  1
M
  7
SLDTEXTSTYLE1
 73
     1
 44
1.0
  0
MTEXT
  5
124
330
1F
100
AcDbEntity
  8
TITLE
100
AcDbMText
 10
0.3315342275836453
 20
24.93814566105291
 30
0.0
 40
0.125
 41
0.0
 71
     2
 72
     1
  1
N
  7
SLDTEXTSTYLE1
 73
     1
 44
1.0
  0
MTEXT
  5
125
330
1F
100
AcDbEntity
  8
TITLE
100
AcDbMText
 10
66.66617989687498
 20
24.93814566105291
 30
0.0
 40
0.125
 41
0.0
 71
     2
 72
     1
  1
N
  7
SLDTEXTSTYLE1
 73
     1
 44
1.0
  0
MTEXT
  5
126
330
1F
100
AcDbEntity
  8
TITLE
100
AcDbMText
 10
0.3321997349363143
 20
26.90664959806079
 30
0.0
 40
0.125
 41
0.0
 71
     2
 72
     1
  1
P
  7
SLDTEXTSTYLE1
 73
     1
 44
1.0
  0
MTEXT
  5
127
330
1F
100
AcDbEntity
  8
TITLE
100
AcDbMText
 10
66.66684540422766
 20
26.90664959806079
 30
0.0
 40
0.125
 41
0.0
 71
     2
 72
     1
  1
P
  7
SLDTEXTSTYLE1
 73
     1
 44
1.0
  0
MTEXT
  5
128
330
1F
100
AcDbEntity
  8
TITLE
100
AcDbMText
 10
0.3309265867271644
 20
28.87515353506867
 30
0.0
 40
0.125
 41
0.0
 71
     2
 72
     1
  1
R
  7
SLDTEXTSTYLE1
 73
     1
 44
1.0
  0
MTEXT
  5
129
330
1F
100
AcDbEntity
  8
TITLE
100
AcDbMText
 10
66.6655722560185
 20
28.87515353506867
 30
0.0
 40
0.125
 41
0.0
 71
     2
 72
     1
  1
R
  7
SLDTEXTSTYLE1
 73
     1
 44
1.0
  0
MTEXT
  5
12A
330
1F
100
AcDbEntity
  8
TITLE
100
AcDbMText
 10
0.3323010070777432
 20
30.71964172404504
 30
0.0
 40
0.125
 41
0.0
 71
     2
 72
     1
  1
T
  7
SLDTEXTSTYLE1
 73
     1
 44
1.0
  0
MTEXT
  5
12B
330
1F
100
AcDbEntity
  8
TITLE
100
AcDbMText
 10
66.66694667636908
 20
30.71964172404504
 30
0.0
 40
0.125
 41
0.0
 71
     2
 72
     1
  1
T
  7
SLDTEXTSTYLE1
 73
     1
 44
1.0
  0
MTEXT
  5
12C
330
1F
100
AcDbEntity
  8
TITLE
100
AcDbMText
 10
1.249451142567114
 20
0.4125551098718104
 30
0.0
 40
0.125
 41
0.0
 71
     2
 72
     1
  1
34
  7
SLDTEXTSTYLE1
 73
     1
 44
1.0
  0
MTEXT
  5
12D
330
1F
100
AcDbEntity
  8
TITLE
100
AcDbMText
 10
1.249451142567114
 20
31.74720077916315
 30
0.0
 40
0.125
 41
0.0
 71
     2
 72
     1
  1
34
  7
SLDTEXTSTYLE1
 73
     1
 44
1.0
  0
MTEXT
  5
12E
330
1F
100
AcDbEntity
  8
TITLE
100
AcDbMText
 10
2.985671615008058
 20
0.4125551098718104
 30
0.0
 40
0.125
 41
0.0
 71
     2
 72
     1
  1
33
  7
SLDTEXTSTYLE1
 73
     1
 44
1.0
  0
MTEXT
  5
12F
330
1F
100
AcDbEntity
  8
TITLE
100
AcDbMText
 10
2.985671615008058
 20
31.74720077916315
 30
0.0
 40
0.125
 41
0.0
 71
     2
 72
     1
  1
33
  7
SLDTEXTSTYLE1
 73
     1
 44
1.0
  0
MTEXT
  5
130
330
1F
100
AcDbEntity
  8
TITLE
100
AcDbMText
 10
4.954175552015933
 20
0.4125551098718104
 30
0.0
 40
0.125
 41
0.0
 71
     2
 72
     1
  1
32
  7
SLDTEXTSTYLE1
 73
     1
 44
1.0
  0
MTEXT
  5
131
330
1F
100
AcDbEntity
  8
TITLE
100
AcDbMText
 10
4.954175552015933
 20
31.74720077916314
 30
0.0
 40
0.125
 41
0.0
 71
     2
 72
     1
  1
32
  7
SLDTEXTSTYLE1
 73
     1
 44
1.0
  0
MTEXT
  5
132
330
1F
100
AcDbEntity
  8
TITLE
100
AcDbMText
 10
6.922679489023806
 20
0.4125551098718104
 30
0.0
 40
0.125
 41
0.0
 71
     2
 72
     1
  1
31
  7
SLDTEXTSTYLE1
 73
     1
 44
1.0
  0
MTEXT
  5
133
330
1F
100
AcDbEntity
  8
TITLE
100
AcDbMText
 10
6.922679489023807
 20
31.74720077916315
 30
0.0
 40
0.125
 41
0.0
 71
     2
 72
     1
  1
31
  7
SLDTEXTSTYLE1
 73
     1
 44
1.0
  0
MTEXT
  5
134
330
1F
100
AcDbEntity
  8
TITLE
100
AcDbMText
 10
8.891183426031679
 20
0.4125551098718104
 30
0.0
 40
0.125
 41
0.0
 71
     2
 72
     1
  1
30
  7
SLDTEXTSTYLE1
 73
     1
 44
1.0
  0
MTEXT
  5
135
330
1F
100
AcDbEntity
  8
TITLE
100
AcDbMText
 10
8.891183426031679
 20
31.74720077916315
 30
0.0
 40
0.125
 41
0.0
 71
     2
 72
     1
  1
30
  7
SLDTEXTSTYLE1
 73
     1
 44
1.0
  0
MTEXT
  5
136
330
1F
100
AcDbEntity
  8
TITLE
100
AcDbMText
 10
10.85968736303955
 20
0.4125551098718104
 30
0.0
 40
0.125
 41
0.0
 71
     2
 72
     1
  1
29
  7
SLDTEXTSTYLE1
 73
     1
 44
1.0
  0
MTEXT
  5
137
330
1F
100
AcDbEntity
  8
TITLE
100
AcDbMText
 10
10.85968736303955
 20
31.74720077916315
 30
0.0
 40
0.125
 41
0.0
 71
     2
 72
     1
  1
29
  7
SLDTEXTSTYLE1
 73
     1
 44
1.0
  0
MTEXT
  5
138
330
1F
100
AcDbEntity
  8
TITLE
100
AcDbMText
 10
12.82819130004743
 20
0.4125551098718104
 30
0.0
 40
0.125
 41
0.0
 71
     2
 72
     1
  1
28
  7
SLDTEXTSTYLE1
 73
     1
 44
1.0
  0
MTEXT
  5
139
330
1F
100
AcDbEntity
  8
TITLE
100
AcDbMText
 10
12.82819130004743
 20
31.74720077916315
 30
0.0
 40
0.125
 41
0.0
 71
     2
 72
     1
  1
28
  7
SLDTEXTSTYLE1
 73
     1
 44
1.0
  0
MTEXT
  5
13A
330
1F
100
AcDbEntity
  8
TITLE
100
AcDbMText
 10
14.7966952370553
 20
0.4125551098718104
 30
0.0
 40
0.125
 41
0.0
 71
     2
 72
     1
  1
27
  7
SLDTEXTSTYLE1
 73
     1
 44
1.0
  0
MTEXT
  5
13B
330
1F
100
AcDbEntity
  8
TITLE
100
AcDbMText
 10
14.7966952370553
 20
31.74720077916315
 30
0.0
 40
0.125
 41
0.0
 71
     2
 72
     1
  1
27
  7
SLDTEXTSTYLE1
 73
     1
 44
1.0
  0
MTEXT
  5
13C
330
1F
100
AcDbEntity
  8
TITLE
100
AcDbMText
 10
16.76519917406317
 20
0.4125551098718104
 30
0.0
 40
0.125
 41
0.0
 71
     2
 72
     1
  1
26
  7
SLDTEXTSTYLE1
 73
     1
 44
1.0
  0
MTEXT
  5
13D
330
1F
100
AcDbEntity
  8
TITLE
100
AcDbMText
 10
16.76519917406317
 20
31.74720077916315
 30
0.0
 40
0.125
 41
0.0
 71
     2
 72
     1
  1
26
  7
SLDTEXTSTYLE1
 73
     1
 44
1.0
  0
MTEXT
  5
13E
330
1F
100
AcDbEntity
  8
TITLE
100
AcDbMText
 10
18.73370311107105
 20
0.4125551098718104
 30
0.0
 40
0.125
 41
0.0
 71
     2
 72
     1
  1
25
  7
SLDTEXTSTYLE1
 73
     1
 44
1.0
  0
MTEXT
  5
13F
330
1F
100
AcDbEntity
  8
TITLE
100
AcDbMText
 10
18.73370311107105
 20
31.74720077916315
 30
0.0
 40
0.125
 41
0.0
 71
     2
 72
     1
  1
25
  7
SLDTEXTSTYLE1
 73
     1
 44
1.0
  0
MTEXT
  5
140
330
1F
100
AcDbEntity
  8
TITLE
100
AcDbMText
 10
20.70220704807893
 20
0.4125551098718104
 30
0.0
 40
0.125
 41
0.0
 71
     2
 72
     1
  1
24
  7
SLDTEXTSTYLE1
 73
     1
 44
1.0
  0
MTEXT
  5
141
330
1F
100
AcDbEntity
  8
TITLE
100
AcDbMText
 10
20.70220704807893
 20
31.74720077916315
 30
0.0
 40
0.125
 41
0.0
 71
     2
 72
     1
  1
24
  7
SLDTEXTSTYLE1
 73
     1
 44
1.0
  0
MTEXT
  5
142
330
1F
100
AcDbEntity
  8
TITLE
100
AcDbMText
 10
22.6707109850868
 20
0.4125551098718105
 30
0.0
 40
0.125
 41
0.0
 71
     2
 72
     1
  1
23
  7
SLDTEXTSTYLE1
 73
     1
 44
1.0
  0
MTEXT
  5
143
330
1F
100
AcDbEntity
  8
TITLE
100
AcDbMText
 10
22.6707109850868
 20
31.74720077916315
 30
0.0
 40
0.125
 41
0.0
 71
     2
 72
     1
  1
23
  7
SLDTEXTSTYLE1
 73
     1
 44
1.0
  0
MTEXT
  5
144
330
1F
100
AcDbEntity
  8
TITLE
100
AcDbMText
 10
24.63921492209468
 20
0.4125551098718104
 30
0.0
 40
0.125
 41
0.0
 71
     2
 72
     1
  1
22
  7
SLDTEXTSTYLE1
 73
     1
 44
1.0
  0
MTEXT
  5
145
330
1F
100
AcDbEntity
  8
TITLE
100
AcDbMText
 10
24.63921492209468
 20
31.74720077916316
 30
0.0
 40
0.125
 41
0.0
 71
     2
 72
     1
  1
22
  7
SLDTEXTSTYLE1
 73
     1
 44
1.0
  0
MTEXT
  5
146
330
1F
100
AcDbEntity
  8
TITLE
100
AcDbMText
 10
26.60771885910255
 20
0.4125551098718104
 30
0.0
 40
0.125
 41
0.0
 71
     2
 72
     1
  1
21
  7
SLDTEXTSTYLE1
 73
     1
 44
1.0
  0
MTEXT
  5
147
330
1F
100
AcDbEntity
  8
TITLE
100
AcDbMText
 10
26.60771885910255
 20
31.74720077916315
 30
0.0
 40
0.125
 41
0.0
 71
     2
 72
     1
  1
21
  7
SLDTEXTSTYLE1
 73
     1
 44
1.0
  0
MTEXT
  5
148
330
1F
100
AcDbEntity
  8
TITLE
100
AcDbMText
 10
28.57622279611043
 20
0.4125551098718104
 30
0.0
 40
0.125
 41
0.0
 71
     2
 72
     1
  1
20
  7
SLDTEXTSTYLE1
 73
     1
 44
1.0
  0
MTEXT
  5
149
330
1F
100
AcDbEntity
  8
TITLE
100
AcDbMText
 10
28.57622279611043
 20
31.74720077916315
 30
0.0
 40
0.125
 41
0.0
 71
     2
 72
     1
  1
20
  7
SLDTEXTSTYLE1
 73
     1
 44
1.0
  0
MTEXT
  5
14A
330
1F
100
AcDbEntity
  8
TITLE
100
AcDbMText
 10
30.5447267331183
 20
0.4125551098718104
 30
0.0
 40
0.125
 41
0.0
 71
     2
 72
     1
  1
19
  7
SLDTEXTSTYLE1
 73
     1
 44
1.0
  0
MTEXT
  5
14B
330
1F
100
AcDbEntity
  8
TITLE
100
AcDbMText
 10
30.5447267331183
 20
31.74720077916315
 30
0.0
 40
0.125
 41
0.0
 71
     2
 72
     1
  1
19
  7
SLDTEXTSTYLE1
 73
     1
 44
1.0
  0
MTEXT
  5
14C
330
1F
100
AcDbEntity
  8
TITLE
100
AcDbMText
 10
32.51323067012617
 20
0.4125551098718104
 30
0.0
 40
0.125
 41
0.0
 71
     2
 72
     1
  1
18
  7
SLDTEXTSTYLE1
 73
     1
 44
1.0
  0
MTEXT
  5
14D
330
1F
100
AcDbEntity
  8
TITLE
100
AcDbMText
 10
32.51323067012617
 20
31.74720077916315
 30
0.0
 40
0.125
 41
0.0
 71
     2
 72
     1
  1
18
  7
SLDTEXTSTYLE1
 73
     1
 44
1.0
  0
MTEXT
  5
14E
330
1F
100
AcDbEntity
  8
TITLE
100
AcDbMText
 10
34.48173460713404
 20
0.4125551098718104
 30
0.0
 40
0.125
 41
0.0
 71
     2
 72
     1
  1
17
  7
SLDTEXTSTYLE1
 73
     1
 44
1.0
  0
MTEXT
  5
14F
330
1F
100
AcDbEntity
  8
TITLE
100
AcDbMText
 10
34.48173460713405
 20
31.74720077916315
 30
0.0
 40
0.125
 41
0.0
 71
     2
 72
     1
  1
17
  7
SLDTEXTSTYLE1
 73
     1
 44
1.0
  0
MTEXT
  5
150
330
1F
100
AcDbEntity
  8
TITLE
100
AcDbMText
 10
36.45023854414192
 20
0.4125551098718103
 30
0.0
 40
0.125
 41
0.0
 71
     2
 72
     1
  1
16
  7
SLDTEXTSTYLE1
 73
     1
 44
1.0
  0
MTEXT
  5
151
330
1F
100
AcDbEntity
  8
TITLE
100
AcDbMText
 10
36.45023854414192
 20
31.74720077916315
 30
0.0
 40
0.125
 41
0.0
 71
     2
 72
     1
  1
16
  7
SLDTEXTSTYLE1
 73
     1
 44
1.0
  0
MTEXT
  5
152
330
1F
100
AcDbEntity
  8
TITLE
100
AcDbMText
 10
38.41874248114978
 20
0.4125551098718104
 30
0.0
 40
0.125
 41
0.0
 71
     2
 72
     1
  1
15
  7
SLDTEXTSTYLE1
 73
     1
 44
1.0
  0
MTEXT
  5
153
330
1F
100
AcDbEntity
  8
TITLE
100
AcDbMText
 10
38.41874248114979
 20
31.74720077916315
 30
0.0
 40
0.125
 41
0.0
 71
     2
 72
     1
  1
15
  7
SLDTEXTSTYLE1
 73
     1
 44
1.0
  0
MTEXT
  5
154
330
1F
100
AcDbEntity
  8
TITLE
100
AcDbMText
 10
40.38724641815767
 20
0.4125551098718104
 30
0.0
 40
0.125
 41
0.0
 71
     2
 72
     1
  1
14
  7
SLDTEXTSTYLE1
 73
     1
 44
1.0
  0
MTEXT
  5
155
330
1F
100
AcDbEntity
  8
TITLE
100
AcDbMText
 10
40.38724641815767
 20
31.74720077916314
 30
0.0
 40
0.125
 41
0.0
 71
     2
 72
     1
  1
14
  7
SLDTEXTSTYLE1
 73
     1
 44
1.0
  0
MTEXT
  5
156
330
1F
100
AcDbEntity
  8
TITLE
100
AcDbMText
 10
42.35575035516554
 20
0.4125551098718104
 30
0.0
 40
0.125
 41
0.0
 71
     2
 72
     1
  1
13
  7
SLDTEXTSTYLE1
 73
     1
 44
1.0
  0
MTEXT
  5
157
330
1F
100
AcDbEntity
  8
TITLE
100
AcDbMText
 10
42.35575035516553
 20
31.74720077916314
 30
0.0
 40
0.125
 41
0.0
 71
     2
 72
     1
  1
13
  7
SLDTEXTSTYLE1
 73
     1
 44
1.0
  0
MTEXT
  5
158
330
1F
100
AcDbEntity
  8
TITLE
100
AcDbMText
 10
44.32425429217342
 20
0.4125551098718104
 30
0.0
 40
0.125
 41
0.0
 71
     2
 72
     1
  1
12
  7
SLDTEXTSTYLE1
 73
     1
 44
1.0
  0
MTEXT
  5
159
330
1F
100
AcDbEntity
  8
TITLE
100
AcDbMText
 10
44.32425429217342
 20
31.74720077916315
 30
0.0
 40
0.125
 41
0.0
 71
     2
 72
     1
  1
12
  7
SLDTEXTSTYLE1
 73
     1
 44
1.0
  0
MTEXT
  5
15A
330
1F
100
AcDbEntity
  8
TITLE
100
AcDbMText
 10
46.29275822918129
 20
0.4125551098718104
 30
0.0
 40
0.125
 41
0.0
 71
     2
 72
     1
  1
11
  7
SLDTEXTSTYLE1
 73
     1
 44
1.0
  0
MTEXT
  5
15B
330
1F
100
AcDbEntity
  8
TITLE
100
AcDbMText
 10
46.29275822918129
 20
31.74720077916315
 30
0.0
 40
0.125
 41
0.0
 71
     2
 72
     1
  1
11
  7
SLDTEXTSTYLE1
 73
     1
 44
1.0
  0
MTEXT
  5
15C
330
1F
100
AcDbEntity
  8
TITLE
100
AcDbMText
 10
48.26126216618918
 20
0.4125551098718104
 30
0.0
 40
0.125
 41
0.0
 71
     2
 72
     1
  1
10
  7
SLDTEXTSTYLE1
 73
     1
 44
1.0
  0
MTEXT
  5
15D
330
1F
100
AcDbEntity
  8
TITLE
100
AcDbMText
 10
48.26126216618918
 20
31.74720077916315
 30
0.0
 40
0.125
 41
0.0
 71
     2
 72
     1
  1
10
  7
SLDTEXTSTYLE1
 73
     1
 44
1.0
  0
MTEXT
  5
15E
330
1F
100
AcDbEntity
  8
TITLE
100
AcDbMText
 10
50.23102478388198
 20
0.4125551098718104
 30
0.0
 40
0.125
 41
0.0
 71
     2
 72
     1
  1
9
  7
SLDTEXTSTYLE1
 73
     1
 44
1.0
  0
MTEXT
  5
15F
330
1F
100
AcDbEntity
  8
TITLE
100
AcDbMText
 10
50.23102478388198
 20
31.74720077916315
 30
0.0
 40
0.125
 41
0.0
 71
     2
 72
     1
  1
9
  7
SLDTEXTSTYLE1
 73
     1
 44
1.0
  0
MTEXT
  5
160
330
1F
100
AcDbEntity
  8
TITLE
100
AcDbMText
 10
52.19952872088985
 20
0.4125551098718104
 30
0.0
 40
0.125
 41
0.0
 71
     2
 72
     1
  1
8
  7
SLDTEXTSTYLE1
 73
     1
 44
1.0
  0
MTEXT
  5
161
330
1F
100
AcDbEntity
  8
TITLE
100
AcDbMText
 10
52.19952872088986
 20
31.74720077916316
 30
0.0
 40
0.125
 41
0.0
 71
     2
 72
     1
  1
8
  7
SLDTEXTSTYLE1
 73
     1
 44
1.0
  0
MTEXT
  5
162
330
1F
100
AcDbEntity
  8
TITLE
100
AcDbMText
 10
54.16803265789774
 20
0.4125551098718104
 30
0.0
 40
0.125
 41
0.0
 71
     2
 72
     1
  1
7
  7
SLDTEXTSTYLE1
 73
     1
 44
1.0
  0
MTEXT
  5
163
330
1F
100
AcDbEntity
  8
TITLE
100
AcDbMText
 10
54.16803265789773
 20
31.74720077916314
 30
0.0
 40
0.125
 41
0.0
 71
     2
 72
     1
  1
7
  7
SLDTEXTSTYLE1
 73
     1
 44
1.0
  0
MTEXT
  5
164
330
1F
100
AcDbEntity
  8
TITLE
100
AcDbMText
 10
56.13653659490559
 20
0.4125551098718104
 30
0.0
 40
0.125
 41
0.0
 71
     2
 72
     1
  1
6
  7
SLDTEXTSTYLE1
 73
     1
 44
1.0
  0
MTEXT
  5
165
330
1F
100
AcDbEntity
  8
TITLE
100
AcDbMText
 10
56.13653659490561
 20
31.74720077916315
 30
0.0
 40
0.125
 41
0.0
 71
     2
 72
     1
  1
6
  7
SLDTEXTSTYLE1
 73
     1
 44
1.0
  0
MTEXT
  5
166
330
1F
100
AcDbEntity
  8
TITLE
100
AcDbMText
 10
58.10504053191351
 20
0.4125551098718104
 30
0.0
 40
0.125
 41
0.0
 71
     2
 72
     1
  1
5
  7
SLDTEXTSTYLE1
 73
     1
 44
1.0
  0
MTEXT
  5
167
330
1F
100
AcDbEntity
  8
TITLE
100
AcDbMText
 10
58.10504053191349
 20
31.74720077916315
 30
0.0
 40
0.125
 41
0.0
 71
     2
 72
     1
  1
5
  7
SLDTEXTSTYLE1
 73
     1
 44
1.0
  0
MTEXT
  5
168
330
1F
100
AcDbEntity
  8
TITLE
100
AcDbMText
 10
60.07354446892136
 20
0.4125551098718104
 30
0.0
 40
0.125
 41
0.0
 71
     2
 72
     1
  1
4
  7
SLDTEXTSTYLE1
 73
     1
 44
1.0
  0
MTEXT
  5
169
330
1F
100
AcDbEntity
  8
TITLE
100
AcDbMText
 10
60.07354446892136
 20
31.74720077916315
 30
0.0
 40
0.125
 41
0.0
 71
     2
 72
     1
  1
4
  7
SLDTEXTSTYLE1
 73
     1
 44
1.0
  0
MTEXT
  5
16A
330
1F
100
AcDbEntity
  8
TITLE
100
AcDbMText
 10
62.04204840592922
 20
0.4125551098718104
 30
0.0
 40
0.125
 41
0.0
 71
     2
 72
     1
  1
3
  7
SLDTEXTSTYLE1
 73
     1
 44
1.0
  0
MTEXT
  5
16B
330
1F
100
AcDbEntity
  8
TITLE
100
AcDbMText
 10
62.04204840592922
 20
31.74720077916315
 30
0.0
 40
0.125
 41
0.0
 71
     2
 72
     1
  1
3
  7
SLDTEXTSTYLE1
 73
     1
 44
1.0
  0
MTEXT
  5
16C
330
1F
100
AcDbEntity
  8
TITLE
100
AcDbMText
 10
64.0105523429371
 20
0.4125551098718104
 30
0.0
 40
0.125
 41
0.0
 71
     2
 72
     1
  1
2
  7
SLDTEXTSTYLE1
 73
     1
 44
1.0
  0
MTEXT
  5
16D
330
1F
100
AcDbEntity
  8
TITLE
100
AcDbMText
 10
64.0105523429371
 20
31.74720077916315
 30
0.0
 40
0.125
 41
0.0
 71
     2
 72
     1
  1
2
  7
SLDTEXTSTYLE1
 73
     1
 44
1.0
  0
MTEXT
  5
16E
330
1F
100
AcDbEntity
  8
TITLE
100
AcDbMText
 10
65.74677281537804
 20
0.4125551098718104
 30
0.0
 40
0.125
 41
0.0
 71
     2
 72
     1
  1
1
  7
SLDTEXTSTYLE1
 73
     1
 44
1.0
  0
MTEXT
  5
16F
330
1F
100
AcDbEntity
  8
TITLE
100
AcDbMText
 10
65.74677281537805
 20
31.74720077916315
 30
0.0
 40
0.125
 41
0.0
 71
     2
 72
     1
  1
1
  7
SLDTEXTSTYLE1
 73
     1
 44
1.0
  0
ARC
  5
170
330
1F
100
AcDbEntity
  8
OBJECT
  6
SLD-Solid
370
    25
100
AcDbCircle
 10
12.53555414564353
 20
18.09439708982983
 30
0.0
 40
0.0935000000000006
100
AcDbArc
 50
179.9999980000008
 51
359.9999979999994
  0
LINE
  5
171
330
1F
100
AcDbEntity
  8
OBJECT
  6
SLD-Solid
370
    25
100
AcDbLine
 10
12.62905414564353
 20
18.09439708656606
 30
0.0
 11
12.62905417402259
 21
18.90739708656606
 31
0.0
  0
ARC
  5
172
330
1F
100
AcDbEntity
  8
OBJECT
  6
SLD-Solid
370
    25
100
AcDbCircle
 10
12.53555417402259
 20
18.90739708982982
 30
0.0
 40
0.0935000000000006
100
AcDbArc
 50
359.9999979999994
 51
179.9999979999986
  0
LINE
  5
173
330
1F
100
AcDbEntity
  8
OBJECT
  6
SLD-Solid
370
    25
100
AcDbLine
 10
12.44205417402259
 20
18.90739709309359
 30
0.0
 11
12.44205414564354
 21
18.09439709309359
 31
0.0
  0
ARC
  5
174
330
1F
100
AcDbEntity
  8
OBJECT
  6
SLD-Solid
370
    25
100
AcDbCircle
 10
13.03855367401188
 20
18.90709029416598
 30
0.0
 40
0.0935009999973244
100
AcDbArc
 50
0.1873738158956428
 51
179.8126221841034
  0
LINE
  5
175
330
1F
100
AcDbEntity
  8
OBJECT
  6
SLD-Solid
370
    25
100
AcDbLine
 10
12.94505317402256
 20
18.90739607553561
 30
0.0
 11
12.9450531456435
 21
18.09439607553562
 31
0.0
  0
ARC
  5
176
330
1F
100
AcDbEntity
  8
OBJECT
  6
SLD-Solid
370
    25
100
AcDbCircle
 10
13.03855364563283
 20
18.09409029416641
 30
0.0
 40
0.093500999997323
100
AcDbArc
 50
179.8126221843603
 51
0.1873738156387534
  0
LINE
  5
177
330
1F
100
AcDbEntity
  8
OBJECT
  6
SLD-Solid
370
    25
100
AcDbLine
 10
13.1320541456435
 20
18.09439606900805
 30
0.0
 11
13.13205417402255
 21
18.90739606900804
 31
0.0
  0
ARC
  5
178
330
1F
100
AcDbEntity
  8
OBJECT
  6
SLD-Solid
370
    25
100
AcDbCircle
 10
13.54155414564353
 20
18.0943970547138
 30
0.0
 40
0.0935000000000006
100
AcDbArc
 50
179.9999979999986
 51
359.9999980000016
  0
LINE
  5
179
330
1F
100
AcDbEntity
  8
OBJECT
  6
SLD-Solid
370
    25
100
AcDbLine
 10
13.63505414564353
 20
18.09439705145003
 30
0.0
 11
13.63505417402259
 21
18.90739705145003
 31
0.0
  0
ARC
  5
17A
330
1F
100
AcDbEntity
  8
OBJECT
  6
SLD-Solid
370
    25
100
AcDbCircle
 10
13.54155417402259
 20
18.90739705471379
 30
0.0
 40
0.0935000000000006
100
AcDbArc
 50
359.9999980000016
 51
179.9999979999986
  0
LINE
  5
17B
330
1F
100
AcDbEntity
  8
OBJECT
  6
SLD-Solid
370
    25
100
AcDbLine
 10
13.44805417402259
 20
18.90739705797756
 30
0.0
 11
13.44805414564354
 21
18.09439705797757
 31
0.0
  0
LINE
  5
17C
330
1F
100
AcDbEntity
  8
OBJECT
  6
SLD-Solid
370
    25
100
AcDbLine
 10
5.992189320856718
 20
14.2439926971048
 30
0.0
 11
5.992189321005757
 21
14.24826233668923
 31
0.0
  0
LINE
  5
17D
330
1F
100
AcDbEntity
  8
OBJECT
  6
SLD-Solid
370
    25
100
AcDbLine
 10
5.992189321005757
 20
14.24826233668923
 30
0.0
 11
5.987919641485208
 21
14.24826237839841
 31
0.0
  0
LINE
  5
17E
330
1F
100
AcDbEntity
  8
OBJECT
  6
SLD-Solid
370
    25
100
AcDbLine
 10
5.958838696121259
 20
14.27734333685383
 30
0.0
 11
5.96355416594073
 21
14.27734333668923
 31
0.0
  0
LINE
  5
17F
330
1F
100
AcDbEntity
  8
OBJECT
  6
SLD-Solid
370
    25
100
AcDbLine
 10
5.96355416594073
 20
14.27734333668923
 30
0.0
 11
5.963554166638861
 21
14.29734333668923
 31
0.0
  0
LINE
  5
180
330
1F
100
AcDbEntity
  8
OBJECT
  6
SLD-Solid
370
    25
100
AcDbLine
 10
5.96003281920992
 20
14.29734333843456
 30
0.0
 11
5.963554166638861
 21
14.29734333668923
 31
0.0
  0
LINE
  5
181
330
1F
100
AcDbEntity
  8
OBJECT
  6
SLD-Solid
370
    25
100
AcDbLine
 10
5.963554473713983
 20
23.09439633668923
 30
0.0
 11
5.960032819209977
 21
23.09439633843456
 31
0.0
  0
LINE
  5
182
330
1F
100
AcDbEntity
  8
OBJECT
  6
SLD-Solid
370
    25
100
AcDbLine
 10
5.963554473713983
 20
23.09439633668923
 30
0.0
 11
5.963554475895646
 21
23.15689633668922
 31
0.0
  0
LINE
  5
183
330
1F
100
AcDbEntity
  8
OBJECT
  6
SLD-Solid
370
    25
100
AcDbLine
 10
5.963554475895646
 20
23.15689633668922
 30
0.0
 11
5.913554168820581
 21
23.15689633843456
 31
0.0
  0
LINE
  5
184
330
1F
100
AcDbEntity
  8
OBJECT
  6
SLD-Solid
370
    25
100
AcDbLine
 10
5.873555168820581
 20
23.15689533843457
 30
0.0
 11
5.913554168820581
 21
23.15689633843456
 31
0.0
  0
LINE
  5
185
330
1F
100
AcDbEntity
  8
OBJECT
  6
SLD-Solid
370
    25
100
AcDbLine
 10
5.873554168820584
 20
23.19689733843457
 30
0.0
 11
5.873555168820581
 21
23.15689533843457
 31
0.0
  0
ARC
  5
186
330
1F
100
AcDbEntity
  8
OBJECT
  6
SLD-Solid
370
    25
100
AcDbCircle
 10
6.873554168818582
 20
23.19689533843506
 30
0.0
 40
0.999999999999998
100
AcDbArc
 50
89.99994270410558
 51
179.9998854084691
  0
LINE
  5
187
330
1F
100
AcDbEntity
  8
OBJECT
  6
SLD-Solid
370
    25
100
AcDbLine
 10
6.913554168820587
 20
24.19689633843456
 30
0.0
 11
6.873555168820587
 21
24.19689533843455
 31
0.0
  0
LINE
  5
188
330
1F
100
AcDbEntity
  8
OBJECT
  6
SLD-Solid
370
    25
100
AcDbLine
 10
18.95355411506443
 20
24.19689733625281
 30
0.0
 11
18.91355316742433
 21
24.19689533625282
 31
0.0
  0
ARC
  5
189
330
1F
100
AcDbEntity
  8
OBJECT
  6
SLD-Solid
370
    25
100
AcDbCircle
 10
18.95355316742482
 20
23.19689733625327
 30
0.0
 40
0.9999999999999978
100
AcDbArc
 50
359.9999427041952
 51
89.99994570424967
  0
LINE
  5
18A
330
1F
100
AcDbEntity
  8
OBJECT
  6
SLD-Solid
370
    25
100
AcDbLine
 10
19.95355416742432
 20
23.15689633625281
 30
0.0
 11
19.95355316742432
 21
23.19689633625281
 31
0.0
  0
LINE
  5
18B
330
1F
100
AcDbEntity
  8
OBJECT
  6
SLD-Solid
370
    25
100
AcDbLine
 10
19.86505675257272
 20
23.15689633934194
 30
0.0
 11
19.95355416742432
 21
23.15689633625281
 31
0.0
  0
LINE
  5
18C
330
1F
100
AcDbEntity
  8
OBJECT
  6
SLD-Solid
370
    25
100
AcDbLine
 10
19.86505675257272
 20
23.15689633934194
 30
0.0
 11
19.86505675039098
 21
23.0943943393944
 31
0.0
  0
LINE
  5
18D
330
1F
100
AcDbEntity
  8
OBJECT
  6
SLD-Solid
370
    25
100
AcDbLine
 10
19.86707496464738
 20
23.09439433764907
 30
0.0
 11
19.86505675039098
 21
23.0943943393944
 31
0.0
  0
LINE
  5
18E
330
1F
100
AcDbEntity
  8
OBJECT
  6
SLD-Solid
370
    25
100
AcDbLine
 10
19.8650564433159
 20
14.29734234012736
 30
0.0
 11
19.86707496464734
 21
14.29734233843446
 31
0.0
  0
LINE
  5
18F
330
1F
100
AcDbEntity
  8
OBJECT
  6
SLD-Solid
370
    25
100
AcDbLine
 10
19.8650564433159
 20
14.29734234012736
 30
0.0
 11
19.86505644261777
 21
14.27734234012736
 31
0.0
  0
LINE
  5
190
330
1F
100
AcDbEntity
  8
OBJECT
  6
SLD-Solid
370
    25
100
AcDbLine
 10
19.86505644261777
 20
14.27734234012736
 30
0.0
 11
19.86826964479439
 21
14.2773423400152
 31
0.0
  0
LINE
  5
191
330
1F
100
AcDbEntity
  8
OBJECT
  6
SLD-Solid
370
    25
100
AcDbLine
 10
19.83918964480993
 20
14.24826234003073
 30
0.0
 11
19.83491916592517
 21
14.2482623401798
 31
0.0
  0
LINE
  5
192
330
1F
100
AcDbEntity
  8
OBJECT
  6
SLD-Solid
370
    25
100
AcDbLine
 10
19.83491916592517
 20
14.2482623401798
 30
0.0
 11
19.8349191657761
 21
14.2439918609969
 31
0.0
  0
LINE
  5
193
330
1F
100
AcDbEntity
  8
OBJECT
  6
SLD-Solid
370
    25
100
AcDbLine
 10
8.229284672445553
 20
12.00689633843455
 30
0.0
 11
17.59782364321364
 21
12.00689633843449
 31
0.0
  0
LINE
  5
194
330
1F
100
AcDbEntity
  8
OBJECT
  6
SLD-Solid
370
    25
100
AcDbLine
 10
19.83735158472676
 20
14.22582992068007
 30
0.0
 11
19.8349191657761
 21
14.2439918609969
 31
0.0
  0
SPLINE
  5
195
330
1F
100
AcDbEntity
  8
OBJECT
  6
SLD-Solid
370
    25
100
AcDbSpline
210
0.0
220
0.0
230
1.0
 70
    12
 71
     3
 72
     9
 73
     5
 74
     0
 42
0.00000001
 43
0.00000001
 40
0.0
 40
0.0
 40
0.0
 40
0.0
 40
0.4999999999999815
 40
1.0
 40
1.0
 40
1.0
 40
1.0
 10
19.88860168033595
 20
14.22457982332556
 30
0.0
 41
1.0
 10
19.88096264439474
 20
14.22388552622433
 30
0.0
 41
1.0
 10
19.86568457251231
 20
14.22249693202187
 30
0.0
 41
1.0
 10
19.84679591398861
 20
14.22471892446067
 30
0.0
 41
1.0
 10
19.83735158472676
 20
14.22582992068007
 30
0.0
 41
1.0
  0
LINE
  5
196
330
1F
100
AcDbEntity
  8
OBJECT
  6
SLD-Solid
370
    25
100
AcDbLine
 10
19.89546797628557
 20
14.21771352737593
 30
0.0
 11
19.88860168041012
 21
14.22457982325137
 31
0.0
  0
LINE
  5
197
330
1F
100
AcDbEntity
  8
OBJECT
  6
SLD-Solid
370
    25
100
AcDbLine
 10
19.8954679763737
 20
14.21771352728781
 30
0.0
 11
17.67410245022142
 21
11.99634800048249
 31
0.0
  0
SPLINE
  5
198
330
1F
100
AcDbEntity
  8
OBJECT
  6
SLD-Solid
370
    25
100
AcDbSpline
210
0.0
220
0.0
230
1.0
 70
    12
 71
     3
 72
     9
 73
     5
 74
     0
 42
0.00000001
 43
0.00000001
 40
0.0
 40
0.0
 40
0.0
 40
0.0
 40
0.4999999999999796
 40
1.0
 40
1.0
 40
1.0
 40
1.0
 10
17.66723653705875
 20
12.00321396660275
 30
0.0
 41
1.0
 10
17.66922142576514
 20
12.0012290690701
 30
0.0
 41
1.0
 10
17.67319120317791
 20
11.9972592740048
 30
0.0
 41
1.0
 10
17.67379870098922
 20
11.99665175854095
 30
0.0
 41
1.0
 10
17.67410244989488
 20
11.99634800080903
 30
0.0
 41
1.0
  0
SPLINE
  5
199
330
1F
100
AcDbEntity
  8
OBJECT
  6
SLD-Solid
370
    25
100
AcDbSpline
210
0.0
220
0.0
230
1.0
 70
    12
 71
     3
 72
    11
 73
     7
 74
     0
 42
0.00000001
 43
0.00000001
 40
0.0
 40
0.0
 40
0.0
 40
0.0
 40
0.2500000000000182
 40
0.5000000000000022
 40
0.7499999999999981
 40
1.0
 40
1.0
 40
1.0
 40
1.0
 10
17.59782364321364
 20
12.00689633843449
 30
0.0
 41
1.0
 10
17.60418494082353
 20
12.00601258432572
 30
0.0
 41
1.0
 10
17.61690753604329
 20
12.00424507610818
 30
0.0
 41
1.0
 10
17.63527416225421
 20
12.00231108040061
 30
0.0
 41
1.0
 10
17.65249471834419
 20
12.00152315481397
 30
0.0
 41
1.0
 10
17.66232259748723
 20
12.00265036267316
 30
0.0
 41
1.0
 10
17.66723653705875
 20
12.00321396660275
 30
0.0
 41
1.0
  0
LINE
  5
19A
330
1F
100
AcDbEntity
  8
OBJECT
  6
SLD-Solid
370
    25
100
AcDbLine
 10
5.992189320856718
 20
14.2439926971048
 30
0.0
 11
5.989756782564509
 21
14.22582980004117
 31
0.0
  0
SPLINE
  5
19B
330
1F
100
AcDbEntity
  8
OBJECT
  6
SLD-Solid
370
    25
100
AcDbSpline
210
0.0
220
0.0
230
1.0
 70
    12
 71
     3
 72
     9
 73
     5
 74
     0
 42
0.00000001
 43
0.00000001
 40
0.0
 40
0.0
 40
0.0
 40
0.0
 40
0.5000000000000119
 40
1.0
 40
1.0
 40
1.0
 40
1.0
 10
8.153005887649305
 20
11.99634800421905
 30
0.0
 41
1.0
 10
8.153309635884202
 20
11.99665176254827
 30
0.0
 41
1.0
 10
8.153917132353996
 20
11.9972592792067
 30
0.0
 41
1.0
 10
8.157886908775412
 20
12.00122907430314
 30
0.0
 41
1.0
 10
8.15987179698612
 20
12.00321397185136
 30
0.0
 41
1.0
  0
LINE
  5
19C
330
1F
100
AcDbEntity
  8
OBJECT
  6
SLD-Solid
370
    25
100
AcDbLine
 10
8.153005887649307
 20
11.99634800421905
 30
0.0
 11
5.931640882072829
 21
14.21771399864258
 31
0.0
  0
SPLINE
  5
19D
330
1F
100
AcDbEntity
  8
OBJECT
  6
SLD-Solid
370
    25
100
AcDbSpline
210
0.0
220
0.0
230
1.0
 70
    12
 71
     3
 72
     9
 73
     5
 74
     0
 42
0.00000001
 43
0.00000001
 40
0.0
 40
0.0
 40
0.0
 40
0.0
 40
0.5000000000000088
 40
1.0
 40
1.0
 40
1.0
 40
1.0
 10
5.938506796986134
 20
14.22457997185137
 30
0.0
 41
1.0
 10
5.936521908775426
 20
14.22259507430315
 30
0.0
 41
1.0
 10
5.932552132354008
 20
14.21862527920671
 30
0.0
 41
1.0
 10
5.931944635884213
 20
14.21801776254828
 30
0.0
 41
1.0
 10
5.931640887649317
 20
14.21771400421907
 30
0.0
 41
1.0
  0
SPLINE
  5
19E
330
1F
100
AcDbEntity
  8
OBJECT
  6
SLD-Solid
370
    25
100
AcDbSpline
210
0.0
220
0.0
230
1.0
 70
    12
 71
     3
 72
     9
 73
     5
 74
     0
 42
0.00000001
 43
0.00000001
 40
0.0
 40
0.0
 40
0.0
 40
0.0
 40
0.500000000000012
 40
1.0
 40
1.0
 40
1.0
 40
1.0
 10
5.989756782564509
 20
14.22582980004117
 30
0.0
 41
1.0
 10
5.98031244805963
 20
14.22471882550742
 30
0.0
 41
1.0
 10
5.961423779049873
 20
14.2224968764399
 30
0.0
 41
1.0
 10
5.946145791007381
 20
14.22388560671421
 30
0.0
 41
1.0
 10
5.938506796986134
 20
14.22457997185137
 30
0.0
 41
1.0
  0
SPLINE
  5
19F
330
1F
100
AcDbEntity
  8
OBJECT
  6
SLD-Solid
370
    25
100
AcDbSpline
210
0.0
220
0.0
230
1.0
 70
    12
 71
     3
 72
    11
 73
     7
 74
     0
 42
0.00000001
 43
0.00000001
 40
0.0
 40
0.0
 40
0.0
 40
0.0
 40
0.2499999999999921
 40
0.4999999999999964
 40
0.7500000000000048
 40
1.0
 40
1.0
 40
1.0
 40
1.0
 10
8.159871796986122
 20
12.00321397185136
 30
0.0
 41
1.0
 10
8.164785734934826
 20
12.00265036778557
 30
0.0
 41
1.0
 10
8.17461361083224
 20
12.001523159654
 30
0.0
 41
1.0
 10
8.191834162311979
 20
12.0023110839744
 30
0.0
 41
1.0
 10
8.210200784032045
 20
12.0042450780192
 30
0.0
 41
1.0
 10
8.222923376307717
 20
12.00601258496276
 30
0.0
 41
1.0
 10
8.229284672445553
 20
12.00689633843455
 30
0.0
 41
1.0
  0
LINE
  5
1A0
330
1F
100
AcDbEntity
  8
OBJECT
  6
SLD-Solid
370
    25
100
AcDbLine
 10
19.91876152056632
 20
16.23689633843447
 30
0.0
 11
19.91876152286475
 21
17.36189633843446
 31
0.0
  0
LINE
  5
1A1
330
1F
100
AcDbEntity
  8
OBJECT
  6
SLD-Solid
370
    25
100
AcDbLine
 10
19.92847108717698
 20
16.23689633843447
 30
0.0
 11
19.91876152056632
 21
16.23689633843447
 31
0.0
  0
LINE
  5
1A2
330
1F
100
AcDbEntity
  8
OBJECT
  6
SLD-Solid
370
    25
100
AcDbLine
 10
19.92847108717698
 20
16.23689633843447
 30
0.0
 11
19.92847107705994
 21
14.29734233843447
 31
0.0
  0
LINE
  5
1A3
330
1F
100
AcDbEntity
  8
OBJECT
  6
SLD-Solid
370
    25
100
AcDbLine
 10
19.86707496464734
 20
14.29734233843446
 30
0.0
 11
19.92847107705994
 21
14.29734233843447
 31
0.0
  0
LINE
  5
1A4
330
1F
100
AcDbEntity
  8
OBJECT
  6
SLD-Solid
370
    25
100
AcDbLine
 10
19.92847107705997
 20
23.09439433764907
 30
0.0
 11
19.86707496464738
 21
23.09439433764907
 31
0.0
  0
LINE
  5
1A5
330
1F
100
AcDbEntity
  8
OBJECT
  6
SLD-Solid
370
    25
100
AcDbLine
 10
19.92847107705997
 20
23.09439433764907
 30
0.0
 11
19.92847108990717
 21
17.36189633843447
 31
0.0
  0
LINE
  5
1A6
330
1F
100
AcDbEntity
  8
OBJECT
  6
SLD-Solid
370
    25
100
AcDbLine
 10
19.91876152286475
 20
17.36189633843446
 30
0.0
 11
19.92847108990717
 21
17.36189633843447
 31
0.0
  0
LINE
  5
1A7
330
1F
100
AcDbEntity
  8
OBJECT
  6
SLD-Solid
370
    25
100
AcDbLine
 10
19.91355416522703
 20
14.25689633843447
 30
0.0
 11
19.91355416594073
 21
14.27734233843447
 31
0.0
  0
LINE
  5
1A8
330
1F
100
AcDbEntity
  8
OBJECT
  6
SLD-Solid
370
    25
100
AcDbLine
 10
19.89491916557001
 20
14.23826198955446
 30
0.0
 11
19.91355416522703
 21
14.25689633843447
 31
0.0
  0
LINE
  5
1A9
330
1F
100
AcDbEntity
  8
OBJECT
  6
SLD-Solid
370
    25
100
AcDbLine
 10
19.89491916557001
 20
14.23826198955446
 30
0.0
 11
19.88491916592516
 21
14.24826233843447
 31
0.0
  0
LINE
  5
1AA
330
1F
100
AcDbEntity
  8
OBJECT
  6
SLD-Solid
370
    25
100
AcDbLine
 10
19.88491916592516
 20
14.24826233843447
 30
0.0
 11
19.83918964480993
 21
14.24826234003073
 31
0.0
  0
LINE
  5
1AB
330
1F
100
AcDbEntity
  8
OBJECT
  6
SLD-Solid
370
    25
100
AcDbLine
 10
19.86826964479439
 20
14.2773423400152
 30
0.0
 11
19.91355416594073
 21
14.27734233843447
 31
0.0
  0
LINE
  5
1AC
330
1F
100
AcDbEntity
  8
OBJECT
  6
SLD-Solid
370
    25
100
AcDbLine
 10
5.898636756217807
 20
16.269397110077
 30
0.0
 11
5.898636756600323
 21
14.29734333843457
 31
0.0
  0
SPLINE
  5
1AD
330
1F
100
AcDbEntity
  8
OBJECT
  6
SLD-Solid
370
    25
100
AcDbSpline
210
0.0
220
0.0
230
1.0
 70
    12
 71
     3
 72
     9
 73
     5
 74
     0
 42
0.00000001
 43
0.00000001
 40
0.0
 40
0.0
 40
0.0
 40
0.0
 40
0.4999999992211848
 40
0.9999999999999999
 40
0.9999999999999999
 40
0.9999999999999999
 40
0.9999999999999999
 10
5.908346490296937
 20
16.26939732098127
 30
0.0
 41
1.0
 10
5.905539476478488
 20
16.26939728583055
 30
0.0
 41
1.0
 10
5.899925448832844
 20
16.26939721552913
 30
0.0
 41
1.0
 10
5.899066320423266
 20
16.26939714522771
 30
0.0
 41
1.0
 10
5.898636756217807
 20
16.269397110077
 30
0.0
 41
1.0
  0
LINE
  5
1AE
330
1F
100
AcDbEntity
  8
OBJECT
  6
SLD-Solid
370
    25
100
AcDbLine
 10
5.908346518313349
 20
17.39439732098127
 30
0.0
 11
5.908346490296937
 21
16.26939732098127
 31
0.0
  0
SPLINE
  5
1AF
330
1F
100
AcDbEntity
  8
OBJECT
  6
SLD-Solid
370
    25
100
AcDbSpline
210
0.0
220
0.0
230
1.0
 70
    12
 71
     3
 72
     9
 73
     5
 74
     0
 42
0.00000001
 43
0.00000001
 40
0.0
 40
0.0
 40
0.0
 40
0.0
 40
0.4999999999999999
 40
1.0
 40
1.0
 40
1.0
 40
1.0
 10
5.898636756600344
 20
17.39439732190555
 30
0.0
 41
1.0
 10
5.899066321963513
 20
17.3943973217515
 30
0.0
 41
1.0
 10
5.899925452689856
 20
17.39439732144341
 30
0.0
 41
1.0
 10
5.90553949643885
 20
17.39439732113532
 30
0.0
 41
1.0
 10
5.908346518313349
 20
17.39439732098127
 30
0.0
 41
1.0
  0
LINE
  5
1B0
330
1F
100
AcDbEntity
  8
OBJECT
  6
SLD-Solid
370
    25
100
AcDbLine
 10
5.898636756217852
 20
23.09439633843456
 30
0.0
 11
5.898636756600344
 21
17.39439732190555
 31
0.0
  0
LINE
  5
1B1
330
1F
100
AcDbEntity
  8
OBJECT
  6
SLD-Solid
370
    25
100
AcDbLine
 10
5.960032819209977
 20
23.09439633843456
 30
0.0
 11
5.898636756217852
 21
23.09439633843456
 31
0.0
  0
LINE
  5
1B2
330
1F
100
AcDbEntity
  8
OBJECT
  6
SLD-Solid
370
    25
100
AcDbLine
 10
5.898636756600323
 20
14.29734333843457
 30
0.0
 11
5.96003281920992
 21
14.29734333843456
 31
0.0
  0
LINE
  5
1B3
330
1F
100
AcDbEntity
  8
OBJECT
  6
SLD-Solid
370
    25
100
AcDbLine
 10
5.942189027052525
 20
14.24826282512667
 30
0.0
 11
5.932189173689308
 21
14.23826232997228
 31
0.0
  0
LINE
  5
1B4
330
1F
100
AcDbEntity
  8
OBJECT
  6
SLD-Solid
370
    25
100
AcDbLine
 10
5.913554165227029
 20
14.25689733843456
 30
0.0
 11
5.932189173689308
 21
14.23826232997228
 31
0.0
  0
LINE
  5
1B5
330
1F
100
AcDbEntity
  8
OBJECT
  6
SLD-Solid
370
    25
100
AcDbLine
 10
5.91355416594073
 20
14.27734333843456
 30
0.0
 11
5.913554165227029
 21
14.25689733843456
 31
0.0
  0
LINE
  5
1B6
330
1F
100
AcDbEntity
  8
OBJECT
  6
SLD-Solid
370
    25
100
AcDbLine
 10
5.91355416594073
 20
14.27734333843456
 30
0.0
 11
5.958838696121259
 21
14.27734333685383
 31
0.0
  0
LINE
  5
1B7
330
1F
100
AcDbEntity
  8
OBJECT
  6
SLD-Solid
370
    25
100
AcDbLine
 10
5.987919641485208
 20
14.24826237839841
 30
0.0
 11
5.942189027052525
 21
14.24826282512667
 31
0.0
  0
LINE
  5
1B8
330
1F
100
AcDbEntity
  8
OBJECT
  6
SLD-Solid
370
    25
100
AcDbLine
 10
17.67410197670022
 20
11.99634752696129
 30
0.0
 11
17.66723561481191
 21
12.0032138888496
 31
0.0
  0
LINE
  5
1B9
330
1F
100
AcDbEntity
  8
OBJECT
  6
SLD-Solid
370
    25
100
AcDbLine
 10
17.67410245022142
 20
11.99634800048249
 30
0.0
 11
17.67410197670022
 21
11.99634752696129
 31
0.0
  0
LINE
  5
1BA
330
1F
100
AcDbEntity
  8
OBJECT
  6
SLD-Solid
370
    25
100
AcDbLine
 10
8.153006430959735
 20
11.9963474497554
 30
0.0
 11
8.159872866018317
 21
12.00321388172289
 31
0.0
  0
LINE
  5
1BB
330
1F
100
AcDbEntity
  8
OBJECT
  6
SLD-Solid
370
    25
100
AcDbLine
 10
8.153006430959735
 20
11.9963474497554
 30
0.0
 11
8.153005887649307
 21
11.99634800421905
 31
0.0
  0
LINE
  5
1BC
330
1F
100
AcDbEntity
  8
OBJECT
  6
SLD-Solid
370
    25
100
AcDbLine
 10
5.898636756217815
 20
17.39439732534459
 30
0.0
 11
5.898636756217813
 21
17.29507711261415
 31
0.0
  0
LINE
  5
1BD
330
1F
100
AcDbEntity
  8
OBJECT
  6
SLD-Solid
370
    25
100
AcDbLine
 10
5.898636756217807
 20
16.29507311261415
 30
0.0
 11
5.898636756217807
 21
16.26939632534459
 31
0.0
  0
LINE
  5
1BE
330
1F
100
AcDbEntity
  8
OBJECT
  6
SLD-Solid
370
    25
100
AcDbLine
 10
19.92847107705995
 20
16.23689633843447
 30
0.0
 11
19.92847107705995
 21
16.29507311261415
 31
0.0
  0
LINE
  5
1BF
330
1F
100
AcDbEntity
  8
OBJECT
  6
SLD-Solid
370
    25
100
AcDbLine
 10
19.92847107705995
 20
17.29507711261415
 30
0.0
 11
19.92847107705995
 21
17.36189633843447
 31
0.0
  0
SPLINE
  5
1C0
330
1F
100
AcDbEntity
  8
0
  6
SLD-Solid
 62
     7
370
    25
100
AcDbSpline
210
0.0
220
0.0
230
1.0
 70
    12
 71
     3
 72
     9
 73
     5
 74
     0
 42
0.00000001
 43
0.00000001
 40
0.0
 40
0.0
 40
0.0
 40
0.0
 40
0.1173054695847109
 40
1.0
 40
1.0
 40
1.0
 40
1.0
 10
5.908346490936362
 20
16.29507359257458
 30
0.0
 41
1.0
 10
5.907578072607977
 20
16.29507357380725
 30
0.0
 41
1.0
 10
5.901027497165036
 20
16.29507341382044
 30
0.0
 41
1.0
 10
5.895266165557716
 20
16.29507325383363
 30
0.0
 41
1.0
 10
5.890180669660027
 20
16.29507311261415
 30
0.0
 41
1.0
  0
LINE
  5
1C1
330
1F
100
AcDbEntity
  8
0
  6
SLD-Solid
 62
     7
370
    25
100
AcDbLine
 10
5.861920782579142
 20
17.29507711261415
 30
0.0
 11
5.90834651583993
 21
17.29507711261415
 31
0.0
  0
LINE
  5
1C2
330
1F
100
AcDbEntity
  8
0
  6
SLD-Solid
 62
     7
370
    25
100
AcDbLine
 10
5.890180669660027
 20
16.29507311261415
 30
0.0
 11
5.861920782961671
 21
16.29507311261415
 31
0.0
  0
LINE
  5
1C3
330
1F
100
AcDbEntity
  8
0
  6
SLD-Solid
 62
     7
370
    25
100
AcDbLine
 10
5.861920782579142
 20
16.29507311261415
 30
0.0
 11
5.861920782579142
 21
17.29507711261415
 31
0.0
  0
LINE
  5
1C4
330
1F
100
AcDbEntity
  8
0
  6
SLD-Solid
 62
     7
370
    25
100
AcDbLine
 10
19.93692716361773
 20
16.29507311261415
 30
0.0
 11
19.96518705031609
 21
16.29507311261415
 31
0.0
  0
SPLINE
  5
1C5
330
1F
100
AcDbEntity
  8
0
  6
SLD-Solid
 62
     7
370
    25
100
AcDbSpline
210
0.0
220
0.0
230
1.0
 70
    12
 71
     3
 72
     9
 73
     5
 74
     0
 42
0.00000001
 43
0.00000001
 40
0.0
 40
0.0
 40
0.0
 40
0.0
 40
0.1172974209437417
 40
1.0
 40
1.0
 40
1.0
 40
1.0
 10
19.91876152068518
 20
16.2950735925702
 30
0.0
 41
1.0
 10
19.91952987903587
 20
16.29507357380433
 30
0.0
 41
1.0
 10
19.92608039263206
 20
16.29507341381898
 30
0.0
 41
1.0
 10
19.93184166958909
 20
16.29507325383364
 30
0.0
 41
1.0
 10
19.93692716361773
 20
16.29507311261415
 30
0.0
 41
1.0
  0
LINE
  5
1C6
330
1F
100
AcDbEntity
  8
0
  6
SLD-Solid
 62
     7
370
    25
100
AcDbLine
 10
19.96518705069861
 20
17.29507711261415
 30
0.0
 11
19.91876152286475
 21
17.29507711261415
 31
0.0
  0
LINE
  5
1C7
330
1F
100
AcDbEntity
  8
0
  6
SLD-Solid
 62
     7
370
    25
100
AcDbLine
 10
19.96518705069861
 20
16.29507311261415
 30
0.0
 11
19.96518705069861
 21
17.29507711261415
 31
0.0
  0
LINE
  5
1C8
330
1F
100
AcDbEntity
  8
0
  6
SLD-Solid
 62
     7
370
    25
100
AcDbLine
 10
9.36355341663888
 20
24.20171374667391
 30
0.0
 11
10.46355441663888
 21
24.20171374629138
 31
0.0
  0
LINE
  5
1C9
330
1F
100
AcDbEntity
  8
0
  6
SLD-Solid
 62
     7
370
    25
100
AcDbLine
 10
16.46355441663887
 20
24.20171374667391
 30
0.0
 11
15.36355341663887
 21
24.20171374629138
 31
0.0
  0
LINE
  5
1CA
330
1F
100
AcDbEntity
  8
0
  6
SLD-Solid
 62
     7
370
    25
100
AcDbLine
 10
5.901045765848862
 20
14.23778199323702
 30
0.0
 11
8.072393424699925
 21
12.06643433438598
 31
0.0
  0
LINE
  5
1CB
330
1F
100
AcDbEntity
  8
0
  6
SLD-Solid
 62
     7
370
    25
100
AcDbLine
 10
5.879903273091386
 20
14.21663950047955
 30
0.0
 11
8.05125093194245
 21
12.04529184162851
 31
0.0
  0
LINE
  5
1CC
330
1F
100
AcDbEntity
  8
0
  6
SLD-Solid
 62
     7
370
    25
100
AcDbLine
 10
8.143104102818583
 20
11.99572365626733
 30
0.0
 11
8.121961610061106
 21
11.97458116350985
 31
0.0
  0
LINE
  5
1CD
330
1F
100
AcDbEntity
  8
0
  6
SLD-Solid
 62
     7
370
    25
100
AcDbLine
 10
8.072393424699925
 20
12.06643433438598
 30
0.0
 11
8.143104102818583
 21
11.99572365626733
 31
0.0
  0
LINE
  5
1CE
330
1F
100
AcDbEntity
  8
0
  6
SLD-Solid
 62
     7
370
    25
100
AcDbLine
 10
8.121961610061106
 20
11.97458116350985
 30
0.0
 11
8.05125093194245
 21
12.04529184162851
 31
0.0
  0
LINE
  5
1CF
330
1F
100
AcDbEntity
  8
0
  6
SLD-Solid
 62
     7
370
    25
100
AcDbLine
 10
5.891820782579144
 20
16.24507311261415
 30
0.0
 11
5.861920782579142
 21
16.24507311261415
 31
0.0
  0
LINE
  5
1D0
330
1F
100
AcDbEntity
  8
0
  6
SLD-Solid
 62
     7
370
    25
100
AcDbLine
 10
5.891820782579144
 20
16.24507311261415
 30
0.0
 11
5.891820782579148
 21
14.26005307295944
 31
0.0
  0
LINE
  5
1D1
330
1F
100
AcDbEntity
  8
0
  6
SLD-Solid
 62
     7
370
    25
100
AcDbLine
 10
5.861920782579142
 20
16.24507311261415
 30
0.0
 11
5.86192078257915
 21
14.26005307295944
 31
0.0
  0
ARC
  5
1D2
330
1F
100
AcDbEntity
  8
0
  6
SLD-Solid
 62
     7
370
    25
100
AcDbCircle
 10
5.923316852530376
 20
14.26005307295944
 30
0.0
 40
0.0314960699512277
100
AcDbArc
 50
180.0
 51
224.9999910483245
  0
ARC
  5
1D3
330
1F
100
AcDbEntity
  8
0
  6
SLD-Solid
 62
     7
370
    25
100
AcDbCircle
 10
5.923316845571279
 20
14.26005307295944
 30
0.0
 40
0.0613960629921291
100
AcDbArc
 50
179.9999999999996
 51
224.9999999999979
  0
LINE
  5
1D4
330
1F
100
AcDbEntity
  8
0
  6
SLD-Solid
 62
     7
370
    25
100
AcDbLine
 10
17.70514622321665
 20
11.97458116350985
 30
0.0
 11
17.77585690133531
 21
12.04529184162851
 31
0.0
  0
LINE
  5
1D5
330
1F
100
AcDbEntity
  8
0
  6
SLD-Solid
 62
     7
370
    25
100
AcDbLine
 10
17.68400373045917
 20
11.99572365626733
 30
0.0
 11
17.70514622321665
 21
11.97458116350985
 31
0.0
  0
LINE
  5
1D6
330
1F
100
AcDbEntity
  8
0
  6
SLD-Solid
 62
     7
370
    25
100
AcDbLine
 10
17.75471440857783
 20
12.06643433438598
 30
0.0
 11
17.68400373045917
 21
11.99572365626733
 31
0.0
  0
LINE
  5
1D7
330
1F
100
AcDbEntity
  8
0
  6
SLD-Solid
 62
     7
370
    25
100
AcDbLine
 10
19.94720456018637
 20
14.21663950047955
 30
0.0
 11
17.77585690133531
 21
12.04529184162851
 31
0.0
  0
LINE
  5
1D8
330
1F
100
AcDbEntity
  8
0
  6
SLD-Solid
 62
     7
370
    25
100
AcDbLine
 10
5.861920782579142
 20
17.34507711261415
 30
0.0
 11
5.891820782579139
 21
17.34507711261415
 31
0.0
  0
LINE
  5
1D9
330
1F
100
AcDbEntity
  8
0
  6
SLD-Solid
 62
     7
370
    25
100
AcDbLine
 10
5.861920764549588
 20
23.17181374667391
 30
0.0
 11
5.861920782579142
 21
17.34507711261415
 31
0.0
  0
LINE
  5
1DA
330
1F
100
AcDbEntity
  8
0
  6
SLD-Solid
 62
     7
370
    25
100
AcDbLine
 10
19.96518705069861
 20
16.24507311261415
 30
0.0
 11
19.9651870506986
 21
14.26005307295944
 31
0.0
  0
ARC
  5
1DB
330
1F
100
AcDbEntity
  8
0
  6
SLD-Solid
 62
     7
370
    25
100
AcDbCircle
 10
19.90379098770648
 20
14.26005307295944
 30
0.0
 40
0.0613960629921282
100
AcDbArc
 50
315.0000000000031
 51
0.0
  0
LINE
  5
1DC
330
1F
100
AcDbEntity
  8
0
  6
SLD-Solid
 62
     7
370
    25
100
AcDbLine
 10
19.96518705069861
 20
17.34507711261415
 30
0.0
 11
19.93528705069862
 21
17.34507711261415
 31
0.0
  0
LINE
  5
1DD
330
1F
100
AcDbEntity
  8
0
  6
SLD-Solid
 62
     7
370
    25
100
AcDbLine
 10
19.96518706872817
 20
23.17181374667391
 30
0.0
 11
19.96518705069861
 21
17.34507711261415
 31
0.0
  0
ARC
  5
1DE
330
1F
100
AcDbEntity
  8
0
  6
SLD-Solid
 62
     7
370
    25
100
AcDbCircle
 10
6.891820782579121
 20
23.17181374667392
 30
0.0
 40
1.029900018029533
100
AcDbArc
 50
90.0
 51
110.7991208101285
  0
ARC
  5
1DF
330
1F
100
AcDbEntity
  8
0
  6
SLD-Solid
 62
     7
370
    25
100
AcDbCircle
 10
6.891820782579121
 20
23.17181374667392
 30
0.0
 40
1.029900018029533
100
AcDbArc
 50
141.331657435115
 51
180.0000000000014
  0
LINE
  5
1E0
330
1F
100
AcDbEntity
  8
0
  6
SLD-Solid
 62
     7
370
    25
100
AcDbLine
 10
9.31355341663888
 20
24.20171374667391
 30
0.0
 11
6.891820782579121
 21
24.20171376470345
 31
0.0
  0
LINE
  5
1E1
330
1F
100
AcDbEntity
  8
0
  6
SLD-Solid
 62
     7
370
    25
100
AcDbLine
 10
15.31355341663888
 20
24.20171374667391
 30
0.0
 11
10.51355441663888
 21
24.20171374667391
 31
0.0
  0
ARC
  5
1E2
330
1F
100
AcDbEntity
  8
0
  6
SLD-Solid
 62
     7
370
    25
100
AcDbCircle
 10
18.93528705069863
 20
23.17181374667392
 30
0.0
 40
1.029900018029533
100
AcDbArc
 50
69.21245715076451
 51
90.0
  0
ARC
  5
1E3
330
1F
100
AcDbEntity
  8
0
  6
SLD-Solid
 62
     7
370
    25
100
AcDbCircle
 10
18.93528705069863
 20
23.17181374667392
 30
0.0
 40
1.029900018029533
100
AcDbArc
 50
0.0000000000002036
 51
38.66259176268033
  0
LINE
  5
1E4
330
1F
100
AcDbEntity
  8
0
  6
SLD-Solid
 62
     7
370
    25
100
AcDbLine
 10
16.51355441663887
 20
24.20171374667391
 30
0.0
 11
18.93528705069863
 21
24.20171376470345
 31
0.0
  0
LINE
  5
1E5
330
1F
100
AcDbEntity
  8
0
  6
SLD-Solid
 62
     7
370
    25
100
AcDbLine
 10
5.891820782579144
 20
16.24507311261415
 30
0.0
 11
5.891820782579144
 21
16.29507311261415
 31
0.0
  0
LINE
  5
1E6
330
1F
100
AcDbEntity
  8
0
  6
SLD-Solid
 62
     7
370
    25
100
AcDbLine
 10
5.861920782579142
 20
16.24507311261415
 30
0.0
 11
5.861920782579142
 21
16.29507311261415
 31
0.0
  0
LINE
  5
1E7
330
1F
100
AcDbEntity
  8
0
  6
SLD-Solid
 62
     7
370
    25
100
AcDbLine
 10
5.891820782579139
 20
17.29507711261415
 30
0.0
 11
5.891820782579139
 21
17.34507711261415
 31
0.0
  0
LINE
  5
1E8
330
1F
100
AcDbEntity
  8
0
  6
SLD-Solid
 62
     7
370
    25
100
AcDbLine
 10
5.861920782579142
 20
17.29507711261415
 30
0.0
 11
5.861920782579138
 21
17.34507711261415
 31
0.0
  0
LINE
  5
1E9
330
1F
100
AcDbEntity
  8
0
  6
SLD-Solid
 62
     7
370
    25
100
AcDbLine
 10
19.96518705069861
 20
16.24507311261415
 30
0.0
 11
19.96518705069861
 21
16.29507311261415
 31
0.0
  0
LINE
  5
1EA
330
1F
100
AcDbEntity
  8
0
  6
SLD-Solid
 62
     7
370
    25
100
AcDbLine
 10
19.96518705069861
 20
17.29507711261415
 30
0.0
 11
19.96518705069862
 21
17.34507711261415
 31
0.0
  0
LINE
  5
1EB
330
1F
100
AcDbEntity
  8
0
  6
SLD-Solid
 62
     7
370
    25
100
AcDbLine
 10
10.46355441663888
 20
24.20171374667391
 30
0.0
 11
10.51355441663888
 21
24.20171374667391
 31
0.0
  0
LINE
  5
1EC
330
1F
100
AcDbEntity
  8
0
  6
SLD-Solid
 62
     7
370
    25
100
AcDbLine
 10
9.31355341663888
 20
24.20171374667391
 30
0.0
 11
9.36355341663888
 21
24.20171374667391
 31
0.0
  0
LINE
  5
1ED
330
1F
100
AcDbEntity
  8
0
  6
SLD-Solid
 62
     7
370
    25
100
AcDbLine
 10
15.36355341663887
 20
24.20171374667391
 30
0.0
 11
15.31355341663888
 21
24.20171374667391
 31
0.0
  0
LINE
  5
1EE
330
1F
100
AcDbEntity
  8
0
  6
SLD-Solid
 62
     7
370
    25
100
AcDbLine
 10
16.51355441663887
 20
24.20171374667391
 30
0.0
 11
16.46355441663887
 21
24.20171374667391
 31
0.0
  0
SPLINE
  5
1EF
330
1F
100
AcDbEntity
  8
0
  6
SLD-Solid
 62
     7
370
    25
100
AcDbSpline
210
0.0
220
0.0
230
1.0
 70
    12
 71
     3
 72
     9
 73
     5
 74
     0
 42
0.00000001
 43
0.00000001
 40
0.0
 40
0.0
 40
0.0
 40
0.0
 40
0.6591537299917111
 40
1.0
 40
1.0
 40
1.0
 40
1.0
 10
8.080819243084685
 20
12.05844113331159
 30
0.0
 41
1.0
 10
8.077456683659431
 20
12.06291319739855
 30
0.0
 41
1.0
 10
8.072355355589428
 20
12.06969775141603
 30
0.0
 41
1.0
 10
8.06913488275485
 20
12.07836316066895
 30
0.0
 41
1.0
 10
8.068037196601523
 20
12.0813167330909
 30
0.0
 41
1.0
  0
LINE
  5
1F0
330
1F
100
AcDbEntity
  8
0
  6
SLD-Solid
 62
     7
370
    25
100
AcDbLine
 10
8.080602932092997
 20
12.05822482231991
 30
0.0
 11
8.080819243073394
 21
12.0584411333003
 31
0.0
  0
SPLINE
  5
1F1
330
1F
100
AcDbEntity
  8
0
  6
SLD-Solid
 62
     7
370
    25
100
AcDbSpline
210
0.0
220
0.0
230
1.0
 70
    12
 71
     3
 72
     9
 73
     5
 74
     0
 42
0.00000001
 43
0.00000001
 40
0.0
 40
0.0
 40
0.0
 40
0.0
 40
0.6591776457752815
 40
1.0
 40
1.0
 40
1.0
 40
1.0
 10
17.74628859019307
 20
12.0584411333116
 30
0.0
 41
1.0
 10
17.7496511595017
 20
12.06291318751517
 30
0.0
 41
1.0
 10
17.75475231748268
 20
12.06969748038712
 30
0.0
 41
1.0
 10
17.757972688468
 20
12.07836256025472
 30
0.0
 41
1.0
 10
17.7590702628887
 20
12.08131581317474
 30
0.0
 41
1.0
  0
LINE
  5
1F2
330
1F
100
AcDbEntity
  8
0
  6
SLD-Solid
 62
     7
370
    25
100
AcDbLine
 10
17.74650490118475
 20
12.05822482231991
 30
0.0
 11
17.74628859020436
 21
12.05844113330031
 31
0.0
  0
LINE
  5
1F3
330
1F
100
AcDbEntity
  8
0
  6
SLD-Solid
 62
     7
370
    25
100
AcDbLine
 10
5.898636756217806
 20
16.24507811261415
 30
0.0
 11
5.891820779258707
 21
16.24507811261415
 31
0.0
  0
LINE
  5
1F4
330
1F
100
AcDbEntity
  8
0
  6
SLD-Solid
 62
     7
370
    25
100
AcDbLine
 10
5.891820782579148
 20
14.49507811261415
 30
0.0
 11
5.898636756217795
 21
14.49507811261415
 31
0.0
  0
SPLINE
  5
1F5
330
1F
100
AcDbEntity
  8
0
  6
SLD-Solid
 62
     7
370
    25
100
AcDbSpline
210
0.0
220
0.0
230
1.0
 70
    28
 71
     3
 72
    11
 73
     7
 74
     0
 42
0.00000001
 43
0.00000001
 40
0.0
 40
0.0
 40
0.0
 40
0.0
 40
0.3214582555415969
 40
0.5371127373139479
 40
0.8232146499689121
 40
1.0
 40
1.0
 40
1.0
 40
1.0
 10
13.00275476068894
 20
16.9881588808983
 30
0.0
 41
1.0
 10
13.01076904708903
 20
16.98802831047091
 30
0.0
 41
1.0
 10
13.02415982250626
 20
16.98781014516184
 30
0.0
 41
1.0
 10
13.04808586421922
 20
16.98742033709453
 30
0.0
 41
1.0
 10
13.06707561093761
 20
16.98711095217597
 30
0.0
 41
1.0
 10
13.07841385625974
 20
16.98692622711578
 30
0.0
 41
1.0
 10
13.08274414535946
 20
16.98685567714161
 30
0.0
 41
1.0
  0
SPLINE
  5
1F6
330
1F
100
AcDbEntity
  8
0
  6
SLD-Solid
 62
     7
370
    25
100
AcDbSpline
210
0.0
220
0.0
230
1.0
 70
    28
 71
     3
 72
    13
 73
     9
 74
     0
 42
0.00000001
 43
0.00000001
 40
0.0
 40
0.0
 40
0.0
 40
0.0
 40
0.0927803330943184
 40
0.2527208986593958
 40
0.3424057533954421
 40
0.4322118492993064
 40
0.6524556481691631
 40
1.0
 40
1.0
 40
1.0
 40
1.0
 10
13.08274414535946
 20
16.98685567714161
 30
0.0
 41
1.0
 10
13.08281116759108
 20
16.99096943681977
 30
0.0
 41
1.0
 10
13.08299372695513
 20
17.00217475380949
 30
0.0
 41
1.0
 10
13.08326513328413
 20
17.01883341147598
 30
0.0
 41
1.0
 10
13.08357539929519
 20
17.03787723879866
 30
0.0
 41
1.0
 10
13.08393393827215
 20
17.05988401402502
 30
0.0
 41
1.0
 10
13.08442705049068
 20
17.09015076450864
 30
0.0
 41
1.0
 10
13.08480804008619
 20
17.11353553696224
 30
0.0
 41
1.0
 10
13.08504124463945
 20
17.12784940662485
 30
0.0
 41
1.0
  0
SPLINE
  5
1F7
330
1F
100
AcDbEntity
  8
0
  6
SLD-Solid
 62
     7
370
    25
100
AcDbSpline
210
0.0
220
0.0
230
1.0
 70
    28
 71
     3
 72
    13
 73
     9
 74
     0
 42
0.00000001
 43
0.00000001
 40
0.0
 40
0.0
 40
0.0
 40
0.0
 40
0.3475443518308367
 40
0.5677881507006932
 40
0.6575942466045576
 40
0.747279101340607
 40
0.9072196669056842
 40
1.0
 40
1.0
 40
1.0
 40
1.0
 10
13.00505185996893
 20
17.12915261038154
 30
0.0
 41
1.0
 10
13.00481865541567
 20
17.11483874071894
 30
0.0
 41
1.0
 10
13.00443766582016
 20
17.09145396826533
 30
0.0
 41
1.0
 10
13.00394455360163
 20
17.06118721778171
 30
0.0
 41
1.0
 10
13.00358601462467
 20
17.03918044255536
 30
0.0
 41
1.0
 10
13.00327574861361
 20
17.02013661523268
 30
0.0
 41
1.0
 10
13.00300434228461
 20
17.00347795756619
 30
0.0
 41
1.0
 10
13.00282178292056
 20
16.99227264057647
 30
0.0
 41
1.0
 10
13.00275476068894
 20
16.9881588808983
 30
0.0
 41
1.0
  0
CIRCLE
  5
1F8
330
1F
100
AcDbEntity
  8
0
  6
SLD-Solid
 62
     7
370
    25
100
AcDbCircle
 10
13.04355410989253
 20
17.03689633843452
 30
0.0
 40
0.340000000000001
  0
CIRCLE
  5
1F9
330
1F
100
AcDbEntity
  8
0
  6
SLD-Solid
 62
     7
370
    25
100
AcDbCircle
 10
13.04355410989253
 20
17.03689633843452
 30
0.0
 40
0.4274999999999984
  0
LINE
  5
1FA
330
1F
100
AcDbEntity
  8
0
  6
SLD-Solid
 62
     7
370
    25
100
AcDbLine
 10
13.08763115944707
 20
17.28681586965606
 30
0.0
 11
13.00764177477655
 21
17.28811907341276
 31
0.0
  0
LINE
  5
1FB
330
1F
100
AcDbEntity
  8
0
  6
SLD-Solid
 62
     7
370
    25
100
AcDbLine
 10
13.08504124463945
 20
17.12784940662485
 30
0.0
 11
13.08763115944707
 21
17.28681586965606
 31
0.0
  0
LINE
  5
1FC
330
1F
100
AcDbEntity
  8
0
  6
SLD-Solid
 62
     7
370
    25
100
AcDbLine
 10
13.00764177477655
 20
17.28811907341276
 30
0.0
 11
13.00505185996893
 21
17.12915261038154
 31
0.0
  0
ARC
  5
1FD
330
1F
100
AcDbEntity
  8
0
  6
SLD-Solid
 62
     7
370
    25
100
AcDbCircle
 10
13.04355410989253
 20
17.03689633843452
 30
0.0
 40
0.3279999999999992
100
AcDbArc
 50
16.46124908321368
 51
16.75106869809531
  0
LINE
  5
1FE
330
1F
100
AcDbEntity
  8
0
  6
SLD-Solid
 62
     8
370
    25
100
AcDbLine
 10
6.891820782579121
 20
24.20171376470345
 30
0.0
 11
6.891820782579121
 21
24.19689579508632
 31
0.0
  0
LINE
  5
1FF
330
1F
100
AcDbEntity
  8
NOTES
100
AcDbLine
 10
4.356853765693181
 20
7.327032827169852
 30
0.0
 11
64.93304114654522
 21
7.327032827169852
 31
0.0
  0
LINE
  5
200
330
1F
100
AcDbEntity
  8
DIMS
100
AcDbLine
 10
4.937743566615878
 20
7.955333448242299
 30
0.0
 11
4.937743566615878
 21
7.718254511029394
 31
0.0
  0
LINE
  5
201
330
1F
100
AcDbEntity
  8
DIMS
100
AcDbLine
 10
4.937743566615878
 20
7.718254511029394
 30
0.0
 11
4.841443636714048
 21
7.70027944937066
 31
0.0
  0
LINE
  5
202
330
1F
100
AcDbEntity
  8
DIMS
100
AcDbLine
 10
4.841443636714048
 20
7.70027944937066
 30
0.0
 11
5.034043496517708
 21
7.569680161949697
 31
0.0
  0
LINE
  5
203
330
1F
100
AcDbEntity
  8
DIMS
100
AcDbLine
 10
5.034043496517708
 20
7.569680161949697
 30
0.0
 11
4.937743566615878
 21
7.551705100290963
 31
0.0
  0
LINE
  5
204
330
1F
100
AcDbEntity
  8
DIMS
100
AcDbLine
 10
4.937743566615878
 20
7.551705100290963
 30
0.0
 11
4.937743566615878
 21
7.327032827169852
 31
0.0
  0
CIRCLE
  5
205
330
1F
100
AcDbEntity
  8
NOTES
  6
SLD-Center
100
AcDbCircle
 10
13.03855391663894
 20
17.32703282716985
 30
0.0
 40
6.500000000000001
  0
DIMENSION
  5
206
330
1F
100
AcDbEntity
  8
DIMS
100
AcDbDimension
  2
_D
 10
4.93774091320032
 20
7.327032827169852
 30
0.0
 11
4.93774091320032
 21
7.752614673300502
 31
0.0
 70
    32
  1
                                                                                      48" (1220mm) Max. height for barrier free installation\P \P 
 71
     2
 42
-1.0
  3
SLDDIMSTYLE0
100
AcDbAlignedDimension
 13
13.04355410989253
 23
17.03689633843452
 33
0.0
 14
4.356853765693181
 24
7.327032827169852
 34
0.0
 50
90.0000000000002
100
AcDbRotatedDimension
  0
DIMENSION
  5
218
330
1F
100
AcDbEntity
  8
DIMS
100
AcDbDimension
  2
_D_1
 10
19.96518707427822
 20
25.3040769204703
 30
0.0
 11
12.85754816608699
 21
25.30407693897071
 31
0.0
 70
    32
  1
<>
 71
     2
 42
-1.0
  3
SLDDIMSTYLE1
100
AcDbAlignedDimension
 13
5.861920764549588
 23
23.17181374667391
 33
0.0
 14
19.96518706872817
 24
23.17181374667391
 34
0.0
 50
359.9999998508653
100
AcDbRotatedDimension
  0
DIMENSION
  5
228
330
1F
100
AcDbEntity
  8
DIMS
100
AcDbDimension
  2
_D_2
 10
5.468219010925582
 20
12.00689633843456
 30
0.0
 11
5.468219010925597
 21
14.24095471144162
 31
0.0
 70
    32
  1
<>
 71
     2
 42
-1.0
  3
SLDDIMSTYLE0
100
AcDbAlignedDimension
 13
13.04355410989253
 23
17.03689633843452
 33
0.0
 14
8.229284672445553
 24
12.00689633843455
 34
0.0
 50
90.0000000000002
100
AcDbRotatedDimension
  0
MTEXT
  5
233
330
1F
100
AcDbEntity
  8
NOTES
100
AcDbMText
 10
5.566825268619223
 20
7.723119787532301
 30
0.0
 40
0.25
 41
0.0
 71
     1
 72
     1
  1
Floor
  7
SLDTEXTSTYLE1
 73
     1
 44
1.0
  0
MTEXT
  5
234
330
1F
100
AcDbEntity
  8
NOTES
100
AcDbMText
 10
6.398715447493005
 20
11.64798472029834
 30
0.0
 40
0.25
 41
0.0
 71
     1
 72
     1
  1
Front view
  7
SLDTEXTSTYLE1
 73
     1
 44
1.0
  0
MTEXT
  5
236
330
1F
100
AcDbEntity
  8
NOTES
100
AcDbMText
 10
18.00698689550303
 20
10.63702075062499
 30
0.0
 40
0.25
 41
0.0
 71
     1
 72
     1
  1
13" jumbo roll with 2 1/4\U+2033 to 3\U+2033 spindle diameter 
  7
SLDTEXTSTYLE4
 73
     1
 44
1.0
  0
LEADER
  5
238
330
1F
100
AcDbEntity
  8
NOTES
100
AcDbLeader
  3
SLDDIMSTYLE2
 76
     3
 10
16.28119652820695
 20
11.69362631834738
 30
0.0
 10
17.48515469179798
 20
10.5139012312939
 30
0.0
 10
17.98515469179798
 20
10.5139012312939
 30
0.0
1001
ACAD
1000
DSTYLE
1002
{
1070
   176
1070
     0
1070
    77
1070
     0
1070
    40
1040
1.0
1070
   147
1040
0.0
1002
}
  0
MTEXT
  5
239
330
1F
100
AcDbEntity
  8
NOTES
100
AcDbMText
 10
16.66823814414081
 20
24.66429031729626
 30
0.0
 40
0.25
 41
0.0
 71
     1
 72
     1
  1
lock
  7
SLDTEXTSTYLE1
 73
     1
 44
1.0
  0
LEADER
  5
23A
330
1F
100
AcDbEntity
  8
NOTES
100
AcDbLeader
  3
SLDDIMSTYLE2
 76
     3
 10
13.38738217612556
 20
17.29094064730693
 30
0.0
 10
16.14761180062577
 20
24.54155953871138
 30
0.0
 10
16.64761180062577
 20
24.54155953871138
 30
0.0
1001
ACAD
1000
DSTYLE
1002
{
1070
   176
1070
     0
1070
    77
1070
     0
1070
    40
1040
1.0
1070
   147
1040
0.0
1002
}
  0
LINE
  5
23B
330
1F
100
AcDbEntity
  8
0
  6
SLD-Solid
 62
     7
370
    25
100
AcDbLine
 10
22.49265839306781
 20
17.46439633843452
 30
0.0
 11
22.36265839306781
 21
17.46439633843452
 31
0.0
  0
LINE
  5
23C
330
1F
100
AcDbEntity
  8
0
  6
SLD-Solid
 62
     7
370
    25
100
AcDbLine
 10
22.36265839306781
 20
16.60939633843453
 30
0.0
 11
22.49265839306781
 21
16.60939633843453
 31
0.0
  0
ARC
  5
23D
330
1F
100
AcDbEntity
  8
0
  6
SLD-Solid
 62
     7
370
    25
100
AcDbCircle
 10
22.36265839306781
 20
16.62939633843452
 30
0.0
 40
0.0200000000000031
100
AcDbArc
 50
179.9999999999999
 51
270.0000000000008
  0
ARC
  5
23E
330
1F
100
AcDbEntity
  8
0
  6
SLD-Solid
 62
     7
370
    25
100
AcDbCircle
 10
22.36265839306781
 20
17.44439633843452
 30
0.0
 40
0.0200000000000031
100
AcDbArc
 50
90.0
 51
179.9999999999999
  0
LINE
  5
23F
330
1F
100
AcDbEntity
  8
OBJECT
  6
SLD-Solid
370
    25
100
AcDbLine
 10
22.49265839306777
 20
23.15689633625281
 30
0.0
 11
22.49265839306777
 21
23.19689633625281
 31
0.0
  0
LINE
  5
240
330
1F
100
AcDbEntity
  8
OBJECT
  6
SLD-Solid
370
    25
100
AcDbLine
 10
22.49265839306777
 20
24.19689733625281
 30
0.0
 11
22.52255839306778
 21
24.19689733625281
 31
0.0
  0
LINE
  5
241
330
1F
100
AcDbEntity
  8
OBJECT
  6
SLD-Solid
370
    25
100
AcDbLine
 10
22.49265839306777
 20
23.19689633625281
 30
0.0
 11
22.49265839306777
 21
24.19689733625281
 31
0.0
  0
LINE
  5
242
330
1F
100
AcDbEntity
  8
OBJECT
  6
SLD-Solid
370
    25
100
AcDbLine
 10
22.4926583880091
 20
23.09439433764907
 30
0.0
 11
22.49265838295045
 21
14.29734233843446
 31
0.0
  0
LINE
  5
243
330
1F
100
AcDbEntity
  8
OBJECT
  6
SLD-Solid
370
    25
100
AcDbLine
 10
22.52255839306779
 20
14.2773423400152
 30
0.0
 11
22.49265839306779
 21
14.2773423400152
 31
0.0
  0
LINE
  5
244
330
1F
100
AcDbEntity
  8
OBJECT
  6
SLD-Solid
370
    25
100
AcDbLine
 10
22.49265839306779
 20
14.25689633843447
 30
0.0
 11
22.49265839306779
 21
14.27734233843447
 31
0.0
  0
LINE
  5
245
330
1F
100
AcDbEntity
  8
OBJECT
  6
SLD-Solid
370
    25
100
AcDbLine
 10
22.49265839306779
 20
14.23826198955446
 30
0.0
 11
22.49265839306779
 21
14.25689633843447
 31
0.0
  0
SPLINE
  5
246
330
1F
100
AcDbEntity
  8
OBJECT
  6
SLD-Solid
370
    25
100
AcDbSpline
210
0.0
220
0.0
230
1.0
 70
    12
 71
     3
 72
     9
 73
     5
 74
     0
 42
0.00000001
 43
0.00000001
 40
0.0
 40
0.0
 40
0.0
 40
0.0
 40
0.4999999999999796
 40
1.0
 40
1.0
 40
1.0
 40
1.0
 10
22.52091810801065
 20
12.00321396660275
 30
0.0
 41
1.0
 10
22.52609249605427
 20
12.0012290690701
 30
0.0
 41
1.0
 10
22.53644127214151
 20
11.9972592740048
 30
0.0
 41
1.0
 10
22.54818339475379
 20
11.99665175854095
 30
0.0
 41
1.0
 10
22.55405445605993
 20
11.99634800080903
 30
0.0
 41
1.0
  0
SPLINE
  5
247
330
1F
100
AcDbEntity
  8
OBJECT
  6
SLD-Solid
370
    25
100
AcDbSpline
210
0.0
220
0.0
230
1.0
 70
    12
 71
     3
 72
    11
 73
     7
 74
     0
 42
0.00000001
 43
0.00000001
 40
0.0
 40
0.0
 40
0.0
 40
0.0
 40
0.2500000000000182
 40
0.5000000000000022
 40
0.7499999999999981
 40
1.0
 40
1.0
 40
1.0
 40
1.0
 10
22.49265839352961
 20
12.00689633843449
 30
0.0
 41
1.0
 10
22.49302803338884
 20
12.00601258432572
 30
0.0
 41
1.0
 10
22.49376731310731
 20
12.00424507610818
 30
0.0
 41
1.0
 10
22.49969056120793
 20
12.00231108040061
 30
0.0
 41
1.0
 10
22.50857818108347
 20
12.00152315481397
 30
0.0
 41
1.0
 10
22.51680479903492
 20
12.00265036267316
 30
0.0
 41
1.0
 10
22.52091810801065
 20
12.00321396660275
 30
0.0
 41
1.0
  0
LINE
  5
248
330
1F
100
AcDbEntity
  8
OBJECT
  6
SLD-Solid
370
    25
100
AcDbLine
 10
22.49265839306779
 20
14.23826198955446
 30
0.0
 11
22.49265839306781
 21
12.00689633843448
 31
0.0
  0
LINE
  5
249
330
1F
100
AcDbEntity
  8
OBJECT
  6
SLD-Solid
370
    25
100
AcDbLine
 10
22.55405445605993
 20
11.99634800048249
 30
0.0
 11
22.56530241070678
 21
11.99634798923454
 31
0.0
  0
LINE
  5
24A
330
1F
100
AcDbEntity
  8
OBJECT
  6
SLD-Solid
370
    25
100
AcDbLine
 10
22.49265839306777
 20
23.15689633934194
 30
0.0
 11
22.49265839306777
 21
23.0943943393944
 31
0.0
  0
LINE
  5
24B
330
1F
100
AcDbEntity
  8
OBJECT
  6
SLD-Solid
370
    25
100
AcDbLine
 10
22.49265839306779
 20
14.29734234012736
 30
0.0
 11
22.49265839306779
 21
14.27734234012736
 31
0.0
  0
SPLINE
  5
24C
330
1F
100
AcDbEntity
  8
OBJECT
  6
SLD-Solid
370
    25
100
AcDbSpline
210
0.0
220
0.0
230
1.0
 70
    12
 71
     3
 72
    10
 73
     6
 74
     0
 42
0.00000001
 43
0.00000001
 40
0.0
 40
0.0
 40
0.0
 40
0.0
 40
0.3814886342225304
 40
0.7629772684450425
 40
1.0
 40
1.0
 40
1.0
 40
1.0
 10
22.5225583754134
 20
24.11041768368175
 30
0.0
 41
1.0
 10
22.52305194965363
 20
24.11450663287817
 30
0.0
 41
1.0
 10
22.5240390981341
 20
24.122684531271
 30
0.0
 41
1.0
 10
22.53013920533473
 20
24.13228196140436
 30
0.0
 41
1.0
 10
22.53591758797311
 20
24.13564283056084
 30
0.0
 41
1.0
 10
22.5381319499278
 20
24.13693076548322
 30
0.0
 41
1.0
  0
SPLINE
  5
24D
330
1F
100
AcDbEntity
  8
OBJECT
  6
SLD-Solid
370
    25
100
AcDbSpline
210
0.0
220
0.0
230
1.0
 70
    12
 71
     3
 72
     9
 73
     5
 74
     0
 42
0.00000001
 43
0.00000001
 40
0.0
 40
0.0
 40
0.0
 40
0.0
 40
0.60577598353686
 40
1.0
 40
1.0
 40
1.0
 40
1.0
 10
22.52154898842966
 20
24.16111983962712
 30
0.0
 41
1.0
 10
22.52438902657393
 20
24.16352104304435
 30
0.0
 41
1.0
 10
22.52907729124841
 20
24.16748489021308
 30
0.0
 41
1.0
 10
22.53510108092731
 20
24.16822449150741
 30
0.0
 41
1.0
 10
22.53747580348886
 20
24.16851606010024
 30
0.0
 41
1.0
  0
LINE
  5
24E
330
1F
100
AcDbEntity
  8
OBJECT
  6
SLD-Solid
370
    25
100
AcDbLine
 10
22.52255840095419
 20
14.2439926971048
 30
0.0
 11
22.52345727512931
 21
14.23084480688162
 31
0.0
  0
LINE
  5
24F
330
1F
100
AcDbEntity
  8
OBJECT
  6
SLD-Solid
370
    25
100
AcDbLine
 10
22.5296028144881
 20
14.23660094713997
 30
0.0
 11
22.53705557696013
 21
14.24237873501086
 31
0.0
  0
SPLINE
  5
250
330
1F
100
AcDbEntity
  8
OBJECT
  6
SLD-Solid
370
    25
100
AcDbSpline
210
0.0
220
0.0
230
1.0
 70
    12
 71
     3
 72
    11
 73
     7
 74
     0
 42
0.00000001
 43
0.00000001
 40
0.0
 40
0.0
 40
0.0
 40
0.0
 40
0.2499999999999921
 40
0.4999999999999964
 40
0.7500000000000048
 40
1.0
 40
1.0
 40
1.0
 40
1.0
 10
22.52091811201799
 20
12.00321397185136
 30
0.0
 41
1.0
 10
22.51680480353966
 20
12.00265036778557
 30
0.0
 41
1.0
 10
22.508578186583
 20
12.001523159654
 30
0.0
 41
1.0
 10
22.49969056778217
 20
12.0023110839744
 30
0.0
 41
1.0
 10
22.49376732039779
 20
12.0042450780192
 30
0.0
 41
1.0
 10
22.49302804076872
 20
12.00601258496276
 30
0.0
 41
1.0
 10
22.49265840095419
 20
12.00689633843455
 30
0.0
 41
1.0
  0
SPLINE
  5
251
330
1F
100
AcDbEntity
  8
OBJECT
  6
SLD-Solid
370
    25
100
AcDbSpline
210
0.0
220
0.0
230
1.0
 70
    12
 71
     3
 72
     9
 73
     5
 74
     0
 42
0.00000001
 43
0.00000001
 40
0.0
 40
0.0
 40
0.0
 40
0.0
 40
0.5000000000000119
 40
1.0
 40
1.0
 40
1.0
 40
1.0
 10
22.55405445605996
 20
11.99634800421905
 30
0.0
 41
1.0
 10
22.54818339546384
 20
11.99665176254827
 30
0.0
 41
1.0
 10
22.5364412742716
 20
11.9972592792067
 30
0.0
 41
1.0
 10
22.52609249943586
 20
12.00122907430314
 30
0.0
 41
1.0
 10
22.52091811201799
 20
12.00321397185136
 30
0.0
 41
1.0
  0
LINE
  5
252
330
1F
100
AcDbEntity
  8
OBJECT
  6
SLD-Solid
370
    25
100
AcDbLine
 10
22.52255839306782
 20
23.09439633843456
 30
0.0
 11
22.53747580348886
 21
23.09439633843456
 31
0.0
  0
LINE
  5
253
330
1F
100
AcDbEntity
  8
0
  6
SLD-Solid
 62
     7
370
    25
100
AcDbLine
 10
22.53747580348885
 20
14.26005307295944
 30
0.0
 11
26.78747580348885
 21
14.26005307295943
 31
0.0
  0
LINE
  5
254
330
1F
100
AcDbEntity
  8
0
  6
SLD-Solid
 62
     7
370
    25
100
AcDbLine
 10
26.78747580348886
 20
24.20171374667391
 30
0.0
 11
22.53747580348886
 21
24.20171376470345
 31
0.0
  0
LINE
  5
255
330
1F
100
AcDbEntity
  8
0
  6
SLD-Solid
 62
     7
370
    25
100
AcDbLine
 10
26.84239321390992
 20
14.49507811261415
 30
0.0
 11
26.84239321390992
 21
16.24507811261415
 31
0.0
  0
ARC
  5
256
330
1F
100
AcDbEntity
  8
0
  6
SLD-Solid
 62
     7
370
    25
100
AcDbCircle
 10
26.21871706699591
 20
12.09892718115645
 30
0.0
 40
0.0618542829352185
100
AcDbArc
 50
236.3496592185136
 51
271.000688200492
  0
LINE
  5
257
330
1F
100
AcDbEntity
  8
0
  6
SLD-Solid
 62
     7
370
    25
100
AcDbLine
 10
26.11069880349085
 20
12.09958137896766
 30
0.0
 11
26.18444217686584
 21
12.04743752953594
 31
0.0
  0
LINE
  5
258
330
1F
100
AcDbEntity
  8
0
  6
SLD-Solid
 62
     7
370
    25
100
AcDbLine
 10
26.03695543011586
 20
12.04743752953594
 30
0.0
 11
26.11069880349085
 21
12.09958137896766
 31
0.0
  0
ARC
  5
259
330
1F
100
AcDbEntity
  8
0
  6
SLD-Solid
 62
     7
370
    25
100
AcDbCircle
 10
26.0026805399858
 20
12.09892718115645
 30
0.0
 40
0.061854282935208
100
AcDbArc
 50
268.9993117995028
 51
303.6503407814935
  0
LINE
  5
25A
330
1F
100
AcDbEntity
  8
0
  6
SLD-Solid
 62
     7
370
    25
100
AcDbLine
 10
25.86624415023813
 20
12.03708233189893
 30
0.0
 11
26.00160029105902
 21
12.03708233189893
 31
0.0
  0
ARC
  5
25B
330
1F
100
AcDbEntity
  8
0
  6
SLD-Solid
 62
     7
370
    25
100
AcDbCircle
 10
25.86516392302102
 20
12.09892729648286
 30
0.0
 40
0.0618543978648919
100
AcDbArc
 50
236.3499284805113
 51
271.0006662282098
  0
LINE
  5
25C
330
1F
100
AcDbEntity
  8
0
  6
SLD-Solid
 62
     7
370
    25
100
AcDbLine
 10
25.75714480349085
 20
12.09958137896766
 30
0.0
 11
25.83088921118264
 21
12.04743738811603
 31
0.0
  0
LINE
  5
25D
330
1F
100
AcDbEntity
  8
0
  6
SLD-Solid
 62
     7
370
    25
100
AcDbLine
 10
25.68340143011586
 20
12.04743752953595
 30
0.0
 11
25.75714480349085
 21
12.09958137896766
 31
0.0
  0
ARC
  5
25E
330
1F
100
AcDbEntity
  8
0
  6
SLD-Solid
 62
     7
370
    25
100
AcDbCircle
 10
25.6491265399858
 20
12.09892718115642
 30
0.0
 40
0.0618542829351843
100
AcDbArc
 50
268.9993117995057
 51
303.6503407815081
  0
LINE
  5
25F
330
1F
100
AcDbEntity
  8
0
  6
SLD-Solid
 62
     7
370
    25
100
AcDbLine
 10
25.51269031592269
 20
12.03708233189893
 30
0.0
 11
25.64804629105902
 21
12.03708233189893
 31
0.0
  0
ARC
  5
260
330
1F
100
AcDbEntity
  8
0
  6
SLD-Solid
 62
     7
370
    25
100
AcDbCircle
 10
25.51161006699591
 20
12.09892718115645
 30
0.0
 40
0.0618542829352129
100
AcDbArc
 50
236.3496592185072
 51
271.0006882004922
  0
LINE
  5
261
330
1F
100
AcDbEntity
  8
0
  6
SLD-Solid
 62
     7
370
    25
100
AcDbLine
 10
25.40359180349085
 20
12.09958137896766
 30
0.0
 11
25.47733517686584
 21
12.04743752953594
 31
0.0
  0
LINE
  5
262
330
1F
100
AcDbEntity
  8
0
  6
SLD-Solid
 62
     7
370
    25
100
AcDbLine
 10
25.32984843011586
 20
12.04743752953595
 30
0.0
 11
25.40359180349085
 21
12.09958137896766
 31
0.0
  0
ARC
  5
263
330
1F
100
AcDbEntity
  8
0
  6
SLD-Solid
 62
     7
370
    25
100
AcDbCircle
 10
25.2955735399858
 20
12.09892718115644
 30
0.0
 40
0.0618542829352044
100
AcDbArc
 50
268.9993117995061
 51
303.6503407814998
  0
LINE
  5
264
330
1F
100
AcDbEntity
  8
0
  6
SLD-Solid
 62
     7
370
    25
100
AcDbLine
 10
25.15913731592268
 20
12.03708233189893
 30
0.0
 11
25.29449329105902
 21
12.03708233189893
 31
0.0
  0
ARC
  5
265
330
1F
100
AcDbEntity
  8
0
  6
SLD-Solid
 62
     7
370
    25
100
AcDbCircle
 10
25.15805706699591
 20
12.09892718115648
 30
0.0
 40
0.0618542829352451
100
AcDbArc
 50
236.3496592185218
 51
271.0006882004883
  0
LINE
  5
266
330
1F
100
AcDbEntity
  8
0
  6
SLD-Solid
 62
     7
370
    25
100
AcDbLine
 10
25.05003880349085
 20
12.09958137896766
 30
0.0
 11
25.12378217686584
 21
12.04743752953594
 31
0.0
  0
LINE
  5
267
330
1F
100
AcDbEntity
  8
0
  6
SLD-Solid
 62
     7
370
    25
100
AcDbLine
 10
24.97629439579907
 20
12.04743738811603
 30
0.0
 11
25.05003880349085
 21
12.09958137896766
 31
0.0
  0
ARC
  5
268
330
1F
100
AcDbEntity
  8
0
  6
SLD-Solid
 62
     7
370
    25
100
AcDbCircle
 10
24.94201968396068
 20
12.0989272964829
 30
0.0
 40
0.061854397864929
100
AcDbArc
 50
268.9993337718055
 51
303.6500715194803
  0
LINE
  5
269
330
1F
100
AcDbEntity
  8
0
  6
SLD-Solid
 62
     7
370
    25
100
AcDbLine
 10
24.80558415023813
 20
12.03708233189893
 30
0.0
 11
24.94093945674358
 21
12.03708233189893
 31
0.0
  0
ARC
  5
26A
330
1F
100
AcDbEntity
  8
0
  6
SLD-Solid
 62
     7
370
    25
100
AcDbCircle
 10
24.80450392302102
 20
12.09892729648286
 30
0.0
 40
0.0618543978648919
100
AcDbArc
 50
236.3499284805113
 51
271.0006662282066
  0
LINE
  5
26B
330
1F
100
AcDbEntity
  8
0
  6
SLD-Solid
 62
     7
370
    25
100
AcDbLine
 10
24.69648480349085
 20
12.09958137896766
 30
0.0
 11
24.77022921118264
 21
12.04743738811603
 31
0.0
  0
LINE
  5
26C
330
1F
100
AcDbEntity
  8
0
  6
SLD-Solid
 62
     7
370
    25
100
AcDbLine
 10
24.62274143011586
 20
12.04743752953595
 30
0.0
 11
24.69648480349085
 21
12.09958137896766
 31
0.0
  0
ARC
  5
26D
330
1F
100
AcDbEntity
  8
0
  6
SLD-Solid
 62
     7
370
    25
100
AcDbCircle
 10
24.58846653998579
 20
12.09892718115644
 30
0.0
 40
0.0618542829352045
100
AcDbArc
 50
268.9993117995126
 51
303.6503407815035
  0
LINE
  5
26E
330
1F
100
AcDbEntity
  8
0
  6
SLD-Solid
 62
     7
370
    25
100
AcDbLine
 10
24.45203031592268
 20
12.03708233189893
 30
0.0
 11
24.58738629105902
 21
12.03708233189893
 31
0.0
  0
ARC
  5
26F
330
1F
100
AcDbEntity
  8
0
  6
SLD-Solid
 62
     7
370
    25
100
AcDbCircle
 10
24.4509500669959
 20
12.09892718115641
 30
0.0
 40
0.0618542829351689
100
AcDbArc
 50
236.3496592184917
 51
271.0006882004994
  0
LINE
  5
270
330
1F
100
AcDbEntity
  8
0
  6
SLD-Solid
 62
     7
370
    25
100
AcDbLine
 10
24.34293180349085
 20
12.09958137896766
 30
0.0
 11
24.41667517686584
 21
12.04743752953595
 31
0.0
  0
LINE
  5
271
330
1F
100
AcDbEntity
  8
0
  6
SLD-Solid
 62
     7
370
    25
100
AcDbLine
 10
24.26918843011586
 20
12.04743752953595
 30
0.0
 11
24.34293180349085
 21
12.09958137896766
 31
0.0
  0
ARC
  5
272
330
1F
100
AcDbEntity
  8
0
  6
SLD-Solid
 62
     7
370
    25
100
AcDbCircle
 10
24.2349135399858
 20
12.09892718115642
 30
0.0
 40
0.0618542829351838
100
AcDbArc
 50
268.9993117995024
 51
303.6503407815044
  0
LINE
  5
273
330
1F
100
AcDbEntity
  8
0
  6
SLD-Solid
 62
     7
370
    25
100
AcDbLine
 10
24.09847731592268
 20
12.03708233189893
 30
0.0
 11
24.23383329105902
 21
12.03708233189893
 31
0.0
  0
ARC
  5
274
330
1F
100
AcDbEntity
  8
0
  6
SLD-Solid
 62
     7
370
    25
100
AcDbCircle
 10
24.0973970669959
 20
12.09892718115644
 30
0.0
 40
0.0618542829351942
100
AcDbArc
 50
236.3496592185036
 51
271.0006882004957
  0
LINE
  5
275
330
1F
100
AcDbEntity
  8
0
  6
SLD-Solid
 62
     7
370
    25
100
AcDbLine
 10
23.98937880349085
 20
12.09958137896766
 30
0.0
 11
24.06312217686584
 21
12.04743752953595
 31
0.0
  0
LINE
  5
276
330
1F
100
AcDbEntity
  8
0
  6
SLD-Solid
 62
     7
370
    25
100
AcDbLine
 10
23.91563439579907
 20
12.04743738811604
 30
0.0
 11
23.98937880349085
 21
12.09958137896766
 31
0.0
  0
ARC
  5
277
330
1F
100
AcDbEntity
  8
0
  6
SLD-Solid
 62
     7
370
    25
100
AcDbCircle
 10
23.88135968396068
 20
12.09892729648289
 30
0.0
 40
0.0618543978649202
100
AcDbArc
 50
268.9993337717988
 51
303.6500715194812
  0
LINE
  5
278
330
1F
100
AcDbEntity
  8
0
  6
SLD-Solid
 62
     7
370
    25
100
AcDbLine
 10
23.74492331592268
 20
12.03708233189893
 30
0.0
 11
23.88027945674358
 21
12.03708233189893
 31
0.0
  0
ARC
  5
279
330
1F
100
AcDbEntity
  8
0
  6
SLD-Solid
 62
     7
370
    25
100
AcDbCircle
 10
23.7438430669959
 20
12.09892718115644
 30
0.0
 40
0.0618542829351992
100
AcDbArc
 50
236.3496592185091
 51
271.0006882005022
  0
LINE
  5
27A
330
1F
100
AcDbEntity
  8
0
  6
SLD-Solid
 62
     7
370
    25
100
AcDbLine
 10
23.63582480349085
 20
12.09958137896766
 30
0.0
 11
23.70956817686584
 21
12.04743752953595
 31
0.0
  0
LINE
  5
27B
330
1F
100
AcDbEntity
  8
0
  6
SLD-Solid
 62
     7
370
    25
100
AcDbLine
 10
23.56208143011586
 20
12.04743752953595
 30
0.0
 11
23.63582480349085
 21
12.09958137896766
 31
0.0
  0
ARC
  5
27C
330
1F
100
AcDbEntity
  8
0
  6
SLD-Solid
 62
     7
370
    25
100
AcDbCircle
 10
23.5278065399858
 20
12.09892718115644
 30
0.0
 40
0.0618542829351938
100
AcDbArc
 50
268.9993117995026
 51
303.6503407814989
  0
LINE
  5
27D
330
1F
100
AcDbEntity
  8
0
  6
SLD-Solid
 62
     7
370
    25
100
AcDbLine
 10
23.39137031592269
 20
12.03708233189893
 30
0.0
 11
23.52672629105902
 21
12.03708233189893
 31
0.0
  0
ARC
  5
27E
330
1F
100
AcDbEntity
  8
0
  6
SLD-Solid
 62
     7
370
    25
100
AcDbCircle
 10
23.3902900669959
 20
12.09892718115645
 30
0.0
 40
0.0618542829352044
100
AcDbArc
 50
236.3496592185091
 51
271.0006882004988
  0
LINE
  5
27F
330
1F
100
AcDbEntity
  8
0
  6
SLD-Solid
 62
     7
370
    25
100
AcDbLine
 10
23.28227180349085
 20
12.09958137896766
 30
0.0
 11
23.35601517686584
 21
12.04743752953595
 31
0.0
  0
LINE
  5
280
330
1F
100
AcDbEntity
  8
0
  6
SLD-Solid
 62
     7
370
    25
100
AcDbLine
 10
23.12013946443152
 20
11.98493650256917
 30
0.0
 11
23.28227180349085
 21
12.09958137896766
 31
0.0
  0
ARC
  5
281
330
1F
100
AcDbEntity
  8
0
  6
SLD-Solid
 62
     7
370
    25
100
AcDbCircle
 10
23.08586439600917
 20
12.03642589743905
 30
0.0
 40
0.0618541680036437
100
AcDbArc
 50
268.9992898266113
 51
303.650610047164
  0
LINE
  5
282
330
1F
100
AcDbEntity
  8
0
  6
SLD-Solid
 62
     7
370
    25
100
AcDbLine
 10
22.63747580348885
 20
11.97458116350985
 30
0.0
 11
23.08478412537219
 21
11.97458116350985
 31
0.0
  0
ARC
  5
283
330
1F
100
AcDbEntity
  8
0
  6
SLD-Solid
 62
     7
370
    25
100
AcDbCircle
 10
22.62497580348885
 20
12.06296951115818
 30
0.0
 40
0.0892678553567921
100
AcDbArc
 50
191.4217536589651
 51
278.0494669755259
  0
LINE
  5
284
330
1F
100
AcDbEntity
  8
0
  6
SLD-Solid
 62
     7
370
    25
100
AcDbLine
 10
26.21979731592268
 20
12.03708233189893
 30
0.0
 11
26.78099715091779
 21
12.03708233189893
 31
0.0
  0
SPLINE
  5
285
330
1F
100
AcDbEntity
  8
0
  6
SLD-Solid
 62
     7
370
    25
100
AcDbSpline
210
0.0
220
0.0
230
1.0
 70
    12
 71
     3
 72
    11
 73
     7
 74
     0
 42
0.00000001
 43
0.00000001
 40
0.0
 40
0.0
 40
0.0
 40
0.0
 40
0.2500000000000021
 40
0.5000000000000165
 40
0.7500000000000049
 40
1.0
 40
1.0
 40
1.0
 40
1.0
 10
26.78953340012503
 20
12.03750398997548
 30
0.0
 41
1.0
 10
26.79668624075666
 20
12.04267658190074
 30
0.0
 41
1.0
 10
26.81099192201992
 20
12.05302176575126
 30
0.0
 41
1.0
 10
26.82822216953863
 20
12.07496750359493
 30
0.0
 41
1.0
 10
26.84010274320752
 20
12.10020203172857
 30
0.0
 41
1.0
 10
26.84162972588941
 20
12.11840310754424
 30
0.0
 41
1.0
 10
26.84239321723036
 20
12.12750364545207
 30
0.0
 41
1.0
  0
ARC
  5
286
330
1F
100
AcDbEntity
  8
0
  6
SLD-Solid
 62
     7
370
    25
100
AcDbCircle
 10
26.7810053687871
 20
12.12353228341635
 30
0.0
 40
0.0864499542559097
100
AcDbArc
 50
269.9945535051693
 51
275.6612658479144
  0
LINE
  5
287
330
1F
100
AcDbEntity
  8
0
  6
SLD-Solid
 62
     7
370
    25
100
AcDbLine
 10
26.84239321390993
 20
12.12750364545207
 30
0.0
 11
26.84239321390993
 21
14.09123393974903
 31
0.0
  0
LINE
  5
288
330
1F
100
AcDbEntity
  8
0
  6
SLD-Solid
 62
     7
370
    25
100
AcDbLine
 10
26.84239321390993
 20
14.32706914618793
 30
0.0
 11
26.84239321390993
 21
14.09123393974903
 31
0.0
  0
LINE
  5
289
330
1F
100
AcDbEntity
  8
0
  6
SLD-Solid
 62
     7
370
    25
100
AcDbLine
 10
26.84239321390993
 20
14.32706914618793
 30
0.0
 11
26.84239321390993
 21
14.35635846806927
 31
0.0
  0
LINE
  5
28A
330
1F
100
AcDbEntity
  8
0
  6
SLD-Solid
 62
     7
370
    25
100
AcDbLine
 10
26.84239321390993
 20
24.14031768368178
 30
0.0
 11
26.84239321390993
 21
24.00371374667391
 31
0.0
  0
SPLINE
  5
28B
330
1F
100
AcDbEntity
  8
0
  6
SLD-Solid
 62
     7
370
    25
100
AcDbSpline
210
0.0
220
0.0
230
1.0
 70
    12
 71
     3
 72
    11
 73
     7
 74
     0
 42
0.00000001
 43
0.00000001
 40
0.0
 40
0.0
 40
0.0
 40
0.0
 40
0.2499999999999998
 40
0.499999999999999
 40
0.7500000000000047
 40
1.0
 40
1.0
 40
1.0
 40
1.0
 10
26.78953340012243
 20
24.20111743210373
 30
0.0
 41
1.0
 10
26.79668624075434
 20
24.19934219786417
 30
0.0
 41
1.0
 10
26.81099192201818
 20
24.19579172938504
 30
0.0
 41
1.0
 10
26.82822216953781
 20
24.18137551553082
 30
0.0
 41
1.0
 10
26.84010274320738
 20
24.16230824984431
 30
0.0
 41
1.0
 10
26.84162972588937
 20
24.14764787240263
 30
0.0
 41
1.0
 10
26.84239321723036
 20
24.14031768368178
 30
0.0
 41
1.0
  0
LWPOLYLINE
  5
28C
330
1F
100
AcDbEntity
  8
0
  6
SLD-Solid
 62
     7
370
    25
100
AcDbPolyline
 90
        3
 70
   128
 43
0.0
 10
26.7874758034889
 20
24.20137097204137
 10
26.78847205448712
 20
24.20125702052824
 10
26.78953340012243
 20
24.20111743210373
  0
LINE
  5
28D
330
1F
100
AcDbEntity
  8
0
  6
SLD-Solid
 62
     7
370
    25
100
AcDbLine
 10
26.78099715091781
 20
24.20171374999434
 30
0.0
 11
26.73747580348886
 21
24.20171374667391
 31
0.0
  0
LWPOLYLINE
  5
28E
330
1F
100
AcDbEntity
  8
0
  6
SLD-Solid
 62
     7
370
    25
100
AcDbPolyline
 90
        3
 70
   128
 43
0.0
 10
22.52799202674861
 20
24.16557006989651
 10
22.53290549536696
 20
24.17442750870481
 10
22.53747580348886
 20
24.1804326604254
  0
LINE
  5
28F
330
1F
100
AcDbEntity
  8
0
  6
SLD-Solid
 62
     7
370
    25
100
AcDbLine
 10
22.53747580348886
 20
24.04179633625285
 30
0.0
 11
22.52255839306779
 21
24.04179633625285
 31
0.0
  0
LINE
  5
290
330
1F
100
AcDbEntity
  8
0
  6
SLD-Solid
 62
     7
370
    25
100
AcDbLine
 10
22.34265839306781
 20
17.44434226659999
 30
0.0
 11
22.34265839306781
 21
17.44439633843452
 31
0.0
  0
LINE
  5
291
330
1F
100
AcDbEntity
  8
0
  6
SLD-Solid
 62
     7
370
    25
100
AcDbLine
 10
22.34265839306781
 20
16.62939633843452
 30
0.0
 11
22.34265839306781
 21
17.44434226659999
 31
0.0
  0
LINE
  5
292
330
1F
100
AcDbEntity
  8
0
  6
SLD-Solid
 62
     7
370
    25
100
AcDbLine
 10
26.8773932139099
 20
18.21999155204924
 30
0.0
 11
26.9123932139099
 21
18.21999155204924
 31
0.0
  0
LINE
  5
293
330
1F
100
AcDbEntity
  8
0
  6
SLD-Solid
 62
     7
370
    25
100
AcDbLine
 10
26.9123932139099
 20
18.21999155204924
 30
0.0
 11
26.9123932139099
 21
18.11999155204924
 31
0.0
  0
LINE
  5
294
330
1F
100
AcDbEntity
  8
0
  6
SLD-Solid
 62
     7
370
    25
100
AcDbLine
 10
26.9123932139099
 20
18.11999155204924
 30
0.0
 11
26.9123932139099
 21
17.86799155204924
 31
0.0
  0
ARC
  5
295
330
1F
100
AcDbEntity
  8
0
  6
SLD-Solid
 62
     7
370
    25
100
AcDbCircle
 10
26.8483932139099
 20
17.86799155204924
 30
0.0
 40
0.0640000000000001
100
AcDbArc
 50
296.9443581804589
 51
0.0
  0
LINE
  5
296
330
1F
100
AcDbEntity
  8
0
  6
SLD-Solid
 62
     7
370
    25
100
AcDbLine
 10
26.8773932139099
 20
21.37871374667392
 30
0.0
 11
26.8773932139099
 21
16.31571374667391
 31
0.0
  0
LINE
  5
297
330
1F
100
AcDbEntity
  8
0
  6
SLD-Solid
 62
     7
370
    25
100
AcDbLine
 10
26.8773932139099
 20
16.31571374667391
 30
0.0
 11
26.8773932139099
 21
16.28571374667391
 31
0.0
  0
LINE
  5
298
330
1F
100
AcDbEntity
  8
0
  6
SLD-Solid
 62
     7
370
    25
100
AcDbLine
 10
26.8773932139099
 20
16.28571374667391
 30
0.0
 11
26.8773932139099
 21
16.04571374667391
 31
0.0
  0
LINE
  5
299
330
1F
100
AcDbEntity
  8
0
  6
SLD-Solid
 62
     7
370
    25
100
AcDbLine
 10
26.8773932139099
 20
16.01571374667391
 30
0.0
 11
26.8423932139099
 21
16.01571374667391
 31
0.0
  0
LINE
  5
29A
330
1F
100
AcDbEntity
  8
0
  6
SLD-Solid
 62
     7
370
    25
100
AcDbLine
 10
26.8773932139099
 20
16.04571374667391
 30
0.0
 11
26.8773932139099
 21
16.01571374667391
 31
0.0
  0
LINE
  5
29B
330
1F
100
AcDbEntity
  8
0
  6
SLD-Solid
 62
     7
370
    25
100
AcDbLine
 10
26.8773932139099
 20
21.42871374667392
 30
0.0
 11
26.8773932139099
 21
21.37871374667392
 31
0.0
  0
LINE
  5
29C
330
1F
100
AcDbEntity
  8
0
  6
SLD-Solid
 62
     7
370
    25
100
AcDbLine
 10
26.8773932139099
 20
23.62871374667391
 30
0.0
 11
26.8773932139099
 21
23.37871374667391
 31
0.0
  0
LINE
  5
29D
330
1F
100
AcDbEntity
  8
0
  6
SLD-Solid
 62
     7
370
    25
100
AcDbLine
 10
26.8773932139099
 20
21.42871374667392
 30
0.0
 11
26.8773932139099
 21
23.37871374667391
 31
0.0
  0
LINE
  5
29E
330
1F
100
AcDbEntity
  8
0
  6
SLD-Solid
 62
     7
370
    25
100
AcDbLine
 10
26.8773932139099
 20
23.67871374667391
 30
0.0
 11
26.8773932139099
 21
23.62871374667391
 31
0.0
  0
LINE
  5
29F
330
1F
100
AcDbEntity
  8
0
  6
SLD-Solid
 62
     7
370
    25
100
AcDbLine
 10
26.8423932139099
 20
24.00371374667391
 30
0.0
 11
26.8773932139099
 21
24.00371374667391
 31
0.0
  0
LINE
  5
2A0
330
1F
100
AcDbEntity
  8
0
  6
SLD-Solid
 62
     7
370
    25
100
AcDbLine
 10
26.8773932139099
 20
24.00371374667391
 30
0.0
 11
26.8773932139099
 21
23.95371374667391
 31
0.0
  0
LINE
  5
2A1
330
1F
100
AcDbEntity
  8
0
  6
SLD-Solid
 62
     7
370
    25
100
AcDbLine
 10
26.8773932139099
 20
23.95371374667391
 30
0.0
 11
26.8773932139099
 21
23.67871374667391
 31
0.0
  0
LINE
  5
2A2
330
1F
100
AcDbEntity
  8
OBJECT
  6
SLD-Solid
370
    25
100
AcDbLine
 10
22.55405445605993
 20
12.00629902951432
 30
0.0
 11
22.55405445605993
 21
11.99634800048249
 31
0.0
  0
DIMENSION
  5
2A3
330
1F
100
AcDbEntity
  8
DIMS
100
AcDbDimension
  2
_D_3
 10
26.87739321390988
 20
25.30407693897072
 30
0.0
 11
24.87372649885068
 21
25.30407693897072
 31
0.0
 70
    32
  1
<>
 71
     2
 42
-1.0
  3
SLDDIMSTYLE1
100
AcDbAlignedDimension
 13
22.49265839306775
 23
24.19689733625281
 33
0.0
 14
26.87739321390988
 24
24.00371374667391
 34
0.0
100
AcDbRotatedDimension
  0
DIMENSION
  5
2B2
330
1F
100
AcDbEntity
  8
DIMS
100
AcDbDimension
  2
_D_4
 10
21.46974742490011
 20
24.20171376923301
 30
0.0
 11
21.46974739771744
 21
17.79409922867189
 31
0.0
 70
    32
  1
<>
 71
     2
 42
-1.0
  3
SLDDIMSTYLE1
100
AcDbAlignedDimension
 13
22.63747580348883
 23
11.97458116350985
 33
0.0
 14
22.53747580348884
 24
24.20171376470345
 34
0.0
 50
89.99999975693729
100
AcDbRotatedDimension
  0
MTEXT
  5
2C1
330
1F
100
AcDbEntity
  8
NOTES
100
AcDbMText
 10
22.64083219192067
 20
11.63265352838403
 30
0.0
 40
0.25
 41
0.0
 71
     1
 72
     1
  1
Side view
  7
SLDTEXTSTYLE1
 73
     1
 44
1.0
  0
LINE
  5
2C2
330
1F
100
AcDbEntity
  8
OBJECT
  6
SLD-Solid
370
    25
100
AcDbLine
 10
50.60635072531616
 20
25.33683618094996
 30
0.0
 11
50.58520823255868
 21
25.32463087967821
 31
0.0
  0
LINE
  5
2C3
330
1F
100
AcDbEntity
  8
OBJECT
  6
SLD-Solid
370
    25
100
AcDbLine
 10
50.42122796768007
 20
24.77285264262187
 30
0.0
 11
50.42122796768005
 21
17.58969984379993
 31
0.0
  0
LINE
  5
2C4
330
1F
100
AcDbEntity
  8
OBJECT
  6
SLD-Solid
370
    25
100
AcDbLine
 10
50.44901917839908
 20
17.50780716616833
 30
0.0
 11
52.01976326993545
 21
14.78719778538158
 31
0.0
  0
LINE
  5
2C5
330
1F
100
AcDbEntity
  8
0
  6
SLD-Solid
 62
     7
370
    25
100
AcDbLine
 10
62.39664625465718
 20
22.27087393021238
 30
0.0
 11
54.4415564114115
 21
26.86324954525463
 31
0.0
  0
LINE
  5
2C6
330
1F
100
AcDbEntity
  8
0
  6
SLD-Solid
 62
     7
370
    25
100
AcDbLine
 10
63.39264589599233
 20
13.78471486996502
 30
0.0
 11
63.39264589599235
 21
15.21366129076508
 31
0.0
  0
LINE
  5
2C7
330
1F
100
AcDbEntity
  8
0
  6
SLD-Solid
 62
     7
370
    25
100
AcDbLine
 10
53.6200703998179
 20
27.07575099348556
 30
0.0
 11
50.62611780075635
 21
25.34737894748076
 31
0.0
  0
LINE
  5
2C8
330
1F
100
AcDbEntity
  8
0
  6
SLD-Solid
 62
     7
370
    25
100
AcDbLine
 10
58.79510862421559
 20
10.93748766368791
 30
0.0
 11
58.81005862421559
 21
10.91159350419075
 31
0.0
  0
LINE
  5
2C9
330
1F
100
AcDbEntity
  8
0
  6
SLD-Solid
 62
     7
370
    25
100
AcDbLine
 10
50.41640834649971
 20
20.06466472421362
 30
0.0
 11
50.41640834649972
 21
19.24812064616463
 31
0.0
  0
LINE
  5
2CA
330
1F
100
AcDbEntity
  8
0
  6
SLD-Solid
 62
     7
370
    25
100
AcDbLine
 10
55.23428376802973
 20
17.28030832037021
 30
0.0
 11
55.14235988647548
 21
17.22724179310174
 31
0.0
  0
LINE
  5
2CB
330
1F
100
AcDbEntity
  8
0
  6
SLD-Solid
 62
     7
370
    25
100
AcDbLine
 10
55.5698251446774
 20
16.48677001576625
 30
0.0
 11
55.66174902623165
 21
16.53983654303473
 31
0.0
  0
LINE
  5
2CC
330
1F
100
AcDbEntity
  8
0
  6
SLD-Solid
 62
     7
370
    25
100
AcDbLine
 10
55.11921174387894
 20
16.98559018204608
 30
0.0
 11
55.11921174387894
 21
16.97742610092785
 31
0.0
  0
LINE
  5
2CD
330
1F
100
AcDbEntity
  8
0
  6
SLD-Solid
 62
     7
370
    25
100
AcDbLine
 10
55.34191417866016
 20
16.59165236953026
 30
0.0
 11
55.34898409722464
 21
16.58756966552475
 31
0.0
  0
LINE
  5
2CE
330
1F
100
AcDbEntity
  8
0
  6
SLD-Solid
 62
     7
370
    25
100
AcDbLine
 10
63.38785284559413
 20
15.30616700028789
 30
0.0
 11
63.38785284559413
 21
19.44031313086545
 31
0.0
  0
LWPOLYLINE
  5
2CF
330
1F
100
AcDbEntity
  8
OBJECT
  6
SLD-Solid
370
    25
100
AcDbPolyline
 90
        9
 70
   128
 43
0.0
 10
55.02269169352676
 20
18.01909968151856
 10
55.02772435807656
 20
17.98697782001982
 10
55.04205617593581
 20
17.95393562851616
 10
55.06350525775371
 20
17.92500348113579
 10
55.08880617525987
 20
17.90458603504682
 10
55.11410709311738
 20
17.89579166133167
 10
55.13555617593582
 20
17.89995922366728
 10
55.1498879952925
 20
17.91645424846711
 10
55.15492066160864
 20
17.94276551773314
  0
LINE
  5
2D0
330
1F
100
AcDbEntity
  8
OBJECT
  6
SLD-Solid
370
    25
100
AcDbLine
 10
55.15492066160864
 20
17.94276551773314
 30
0.0
 11
55.15492068167566
 21
18.60661318621181
 31
0.0
  0
LWPOLYLINE
  5
2D1
330
1F
100
AcDbEntity
  8
OBJECT
  6
SLD-Solid
370
    25
100
AcDbPolyline
 90
        9
 70
   128
 43
0.0
 10
55.15492068167566
 20
18.60661318621181
 10
55.14988801712586
 20
18.63873504771055
 10
55.13555619926661
 20
18.67177723921421
 10
55.11410711744871
 20
18.70070938659457
 10
55.08880619994255
 20
18.72112683268355
 10
55.06350528208505
 20
18.7299212063987
 10
55.04205619926661
 20
18.72575364406308
 10
55.02772437990992
 20
18.70925861926326
 10
55.02269171359377
 20
18.68294734999722
  0
LINE
  5
2D2
330
1F
100
AcDbEntity
  8
OBJECT
  6
SLD-Solid
370
    25
100
AcDbLine
 10
55.02269171359377
 20
18.68294734999722
 30
0.0
 11
55.02269169352676
 21
18.01909968151856
 31
0.0
  0
LWPOLYLINE
  5
2D3
330
1F
100
AcDbEntity
  8
OBJECT
  6
SLD-Solid
370
    25
100
AcDbPolyline
 90
        9
 70
   128
 43
0.0
 10
55.51059539261247
 20
18.40128571521076
 10
55.5055007867844
 20
18.43336688496618
 10
55.49115454951545
 20
18.46633295064356
 10
55.46973179708947
 20
18.49518573572279
 10
55.44448055731845
 20
18.51555070202471
 10
55.41922931719751
 20
18.52434019882997
 10
55.39780656377486
 20
18.52022159952229
 10
55.38346032501359
 20
18.50381934884303
 10
55.3783657174238
 20
18.47762028720027
  0
LINE
  5
2D4
330
1F
100
AcDbEntity
  8
OBJECT
  6
SLD-Solid
370
    25
100
AcDbLine
 10
55.3783657174238
 20
18.47762028720027
 30
0.0
 11
55.37836569735678
 21
17.8137726187216
 31
0.0
  0
LWPOLYLINE
  5
2D5
330
1F
100
AcDbEntity
  8
OBJECT
  6
SLD-Solid
370
    25
100
AcDbPolyline
 90
        9
 70
   128
 43
0.0
 10
55.37836569735678
 20
17.8137726187216
 10
55.38333618864471
 20
17.78160975021657
 10
55.39765365118683
 20
17.74849083465597
 10
55.41912941311215
 20
17.71947867130831
 10
55.44448053263571
 20
17.6990082713111
 10
55.46983165251208
 20
17.69020888948376
 10
55.49130741544184
 20
17.69442566358592
 10
55.50562487948653
 20
17.71101398673725
 10
55.51059537254545
 20
17.73743804673209
  0
LINE
  5
2D6
330
1F
100
AcDbEntity
  8
OBJECT
  6
SLD-Solid
370
    25
100
AcDbLine
 10
55.51059537254545
 20
17.73743804673209
 30
0.0
 11
55.51059539261247
 21
18.40128571521076
 31
0.0
  0
LWPOLYLINE
  5
2D7
330
1F
100
AcDbEntity
  8
OBJECT
  6
SLD-Solid
370
    25
100
AcDbPolyline
 90
        9
 70
   128
 43
0.0
 10
55.73404111540042
 20
17.60844637259806
 10
55.73907377995022
 20
17.57632451109933
 10
55.75340559780948
 20
17.54328231959566
 10
55.77485467962737
 20
17.51435017221529
 10
55.80015559713353
 20
17.49393272612632
 10
55.82545651499104
 20
17.48513835241117
 10
55.84690559780948
 20
17.48930591474678
 10
55.86123741716617
 20
17.50580093954661
 10
55.86627008348231
 20
17.53211220881265
  0
LINE
  5
2D8
330
1F
100
AcDbEntity
  8
OBJECT
  6
SLD-Solid
370
    25
100
AcDbLine
 10
55.86627008348231
 20
17.53211220881265
 30
0.0
 11
55.86627010354933
 21
18.19595987729131
 31
0.0
  0
LWPOLYLINE
  5
2D9
330
1F
100
AcDbEntity
  8
OBJECT
  6
SLD-Solid
370
    25
100
AcDbPolyline
 90
        9
 70
   128
 43
0.0
 10
55.86627010354933
 20
18.19595987729131
 10
55.86123743899953
 20
18.22808173879005
 10
55.84690562114027
 20
18.26112393029371
 10
55.82545653932238
 20
18.29005607767408
 10
55.80015562181622
 20
18.31047352376305
 10
55.7748547039587
 20
18.3192678974782
 10
55.75340562114027
 20
18.31510033514259
 10
55.73907380178358
 20
18.29860531034277
 10
55.73404113546744
 20
18.27229404107673
  0
LINE
  5
2DA
330
1F
100
AcDbEntity
  8
OBJECT
  6
SLD-Solid
370
    25
100
AcDbLine
 10
55.73404113546744
 20
18.27229404107673
 30
0.0
 11
55.73404111540042
 21
17.60844637259806
 31
0.0
  0
LINE
  5
2DB
330
1F
100
AcDbEntity
  8
OBJECT
  6
SLD-Solid
370
    25
100
AcDbLine
 10
50.46194853818344
 20
17.50794833148738
 30
0.0
 11
50.46194853828882
 21
17.51143466639927
 31
0.0
  0
LINE
  5
2DC
330
1F
100
AcDbEntity
  8
OBJECT
  6
SLD-Solid
370
    25
100
AcDbLine
 10
50.46194853828882
 20
17.51143466639927
 30
0.0
 11
50.45892941894635
 21
17.51317760095425
 31
0.0
  0
LINE
  5
2DD
330
1F
100
AcDbEntity
  8
OBJECT
  6
SLD-Solid
370
    25
100
AcDbLine
 10
50.45892941894635
 20
17.51317760095425
 30
0.0
 11
50.43836608527619
 21
17.54879435022916
 31
0.0
  0
LINE
  5
2DE
330
1F
100
AcDbEntity
  8
OBJECT
  6
SLD-Solid
370
    25
100
AcDbLine
 10
50.43836608527619
 20
17.54879435022916
 30
0.0
 11
50.44170042596202
 21
17.54686947618892
 31
0.0
  0
LINE
  5
2DF
330
1F
100
AcDbEntity
  8
OBJECT
  6
SLD-Solid
370
    25
100
AcDbLine
 10
50.44170042596202
 20
17.54686947618892
 30
0.0
 11
50.44170042645568
 21
17.56320029214166
 31
0.0
  0
LINE
  5
2E0
330
1F
100
AcDbEntity
  8
OBJECT
  6
SLD-Solid
370
    25
100
AcDbLine
 10
50.43921045794499
 20
17.56463772194763
 30
0.0
 11
50.44170042645568
 21
17.56320029214166
 31
0.0
  0
LINE
  5
2E1
330
1F
100
AcDbEntity
  8
OBJECT
  6
SLD-Solid
370
    25
100
AcDbLine
 10
50.44170064359056
 20
24.7463529656143
 30
0.0
 11
50.43921045780979
 21
24.7477905206915
 31
0.0
  0
LINE
  5
2E2
330
1F
100
AcDbEntity
  8
OBJECT
  6
SLD-Solid
370
    25
100
AcDbLine
 10
50.44170064359056
 20
24.7463529656143
 30
0.0
 11
50.44170064513324
 21
24.7973867654666
 31
0.0
  0
LINE
  5
2E3
330
1F
100
AcDbEntity
  8
OBJECT
  6
SLD-Solid
370
    25
100
AcDbLine
 10
50.44170064513324
 20
24.7973867654666
 30
0.0
 11
50.40634508893904
 21
24.81779709503659
 31
0.0
  0
LINE
  5
2E4
330
1F
100
AcDbEntity
  8
OBJECT
  6
SLD-Solid
370
    25
100
AcDbLine
 10
50.37806152479836
 20
24.83412403252819
 30
0.0
 11
50.40634508893904
 21
24.81779709503659
 31
0.0
  0
LINE
  5
2E5
330
1F
100
AcDbEntity
  8
OBJECT
  6
SLD-Solid
370
    25
100
AcDbLine
 10
50.37806081769158
 20
24.86678770628929
 30
0.0
 11
50.37806152479836
 21
24.83412403252819
 31
0.0
  0
LWPOLYLINE
  5
2E6
330
1F
100
AcDbEntity
  8
OBJECT
  6
SLD-Solid
370
    25
100
AcDbPolyline
 90
       14
 70
   128
 43
0.0
 10
51.08516830598492
 20
25.27512242097799
 10
50.9999360508352
 20
25.31837255867996
 10
50.91594666200013
 20
25.3490850301529
 10
50.83442489233904
 20
25.36681197897379
 10
50.75655951131289
 20
25.37129490663994
 10
50.68348597007067
 20
25.36246844205443
 10
50.61626984403588
 20
25.34046129478272
 10
50.5558912944372
 20
25.30559437817969
 10
50.50323077536876
 20
25.25837612975632
 10
50.45905619480321
 20
25.19949509702523
 10
50.4240117167785
 20
25.12980989694029
 10
50.39860836804767
 20
25.05033669534388
 10
50.38321658616748
 20
24.9622343889996
 10
50.37806081769158
 20
24.86678770628929
  0
LINE
  5
2E7
330
1F
100
AcDbEntity
  8
OBJECT
  6
SLD-Solid
370
    25
100
AcDbLine
 10
51.11345187012559
 20
25.25879548348641
 30
0.0
 11
51.08516830598492
 21
25.27512242097799
 31
0.0
  0
LINE
  5
2E8
330
1F
100
AcDbEntity
  8
OBJECT
  6
SLD-Solid
370
    25
100
AcDbLine
 10
51.11345186790416
 20
25.18530715016806
 30
0.0
 11
51.11345187012559
 21
25.25879548348641
 31
0.0
  0
LINE
  5
2E9
330
1F
100
AcDbEntity
  8
OBJECT
  6
SLD-Solid
370
    25
100
AcDbLine
 10
51.11345186790416
 20
25.18530715016806
 30
0.0
 11
51.15764604172832
 21
25.15979439489218
 31
0.0
  0
LINE
  5
2EA
330
1F
100
AcDbEntity
  8
OBJECT
  6
SLD-Solid
370
    25
100
AcDbLine
 10
51.15764603672068
 20
25.16266937599603
 30
0.0
 11
51.15764604172832
 21
25.15979439489218
 31
0.0
  0
LINE
  5
2EB
330
1F
100
AcDbEntity
  8
OBJECT
  6
SLD-Solid
370
    25
100
AcDbLine
 10
59.55453905592191
 20
20.31524620910759
 30
0.0
 11
59.55453906831852
 21
20.3123708924758
 31
0.0
  0
LINE
  5
2EC
330
1F
100
AcDbEntity
  8
OBJECT
  6
SLD-Solid
370
    25
100
AcDbLine
 10
59.55453906831852
 20
20.3123708924758
 30
0.0
 11
59.59873324214271
 21
20.28685813719991
 31
0.0
  0
LINE
  5
2ED
330
1F
100
AcDbEntity
  8
OBJECT
  6
SLD-Solid
370
    25
100
AcDbLine
 10
59.59873324214271
 20
20.28685813719991
 30
0.0
 11
59.59873324337681
 21
20.32768436232237
 31
0.0
  0
LINE
  5
2EE
330
1F
100
AcDbEntity
  8
OBJECT
  6
SLD-Solid
370
    25
100
AcDbLine
 10
59.59873253627003
 20
20.36034640300186
 30
0.0
 11
59.59873324337681
 21
20.32768436232237
 31
0.0
  0
LINE
  5
2EF
330
1F
100
AcDbEntity
  8
OBJECT
  6
SLD-Solid
370
    25
100
AcDbLine
 10
59.62701747760024
 20
20.34401948701649
 30
0.0
 11
59.59873253627003
 21
20.36034640300186
 31
0.0
  0
ARC
  5
2F0
330
1F
100
AcDbEntity
  8
OBJECT
  6
SLD-Solid
370
    25
100
AcDbCircle
 10
58.803205913689
 20
19.05189593894182
 30
0.0
 40
1.532399672514629
100
AcDbArc
 50
2.520056904238231
 51
57.4798788104839
  0
LINE
  5
2F1
330
1F
100
AcDbEntity
  8
OBJECT
  6
SLD-Solid
370
    25
100
AcDbLine
 10
60.33412429581082
 20
19.08661214882962
 30
0.0
 11
60.33412358870403
 21
19.1192741895091
 31
0.0
  0
LINE
  5
2F2
330
1F
100
AcDbEntity
  8
OBJECT
  6
SLD-Solid
370
    25
100
AcDbLine
 10
60.27154717365177
 20
19.12273715503212
 30
0.0
 11
60.33412429581082
 21
19.08661214882962
 31
0.0
  0
LINE
  5
2F3
330
1F
100
AcDbEntity
  8
OBJECT
  6
SLD-Solid
370
    25
100
AcDbLine
 10
60.27154717365177
 20
19.12273715503212
 30
0.0
 11
60.27154717210905
 21
19.07170172214106
 31
0.0
  0
LINE
  5
2F4
330
1F
100
AcDbEntity
  8
OBJECT
  6
SLD-Solid
370
    25
100
AcDbLine
 10
60.27297426151861
 20
19.07087787540579
 30
0.0
 11
60.27154717210905
 21
19.07170172214106
 31
0.0
  0
LINE
  5
2F5
330
1F
100
AcDbEntity
  8
OBJECT
  6
SLD-Solid
370
    25
100
AcDbLine
 10
60.27154695497418
 20
11.88854986580769
 30
0.0
 11
60.27297425794158
 21
11.88772589170099
 31
0.0
  0
LINE
  5
2F6
330
1F
100
AcDbEntity
  8
OBJECT
  6
SLD-Solid
370
    25
100
AcDbLine
 10
60.27154695497418
 20
11.88854986580769
 30
0.0
 11
60.27154695448053
 21
11.87221904985496
 31
0.0
  0
LINE
  5
2F7
330
1F
100
AcDbEntity
  8
OBJECT
  6
SLD-Solid
370
    25
100
AcDbLine
 10
60.27154695448053
 20
11.87221904985496
 30
0.0
 11
60.27381903152895
 21
11.87090740760241
 31
0.0
  0
LINE
  5
2F8
330
1F
100
AcDbEntity
  8
OBJECT
  6
SLD-Solid
370
    25
100
AcDbLine
 10
60.25325636634303
 20
11.85903297474502
 30
0.0
 11
60.2502366817647
 21
11.86077620166818
 31
0.0
  0
LINE
  5
2F9
330
1F
100
AcDbEntity
  8
OBJECT
  6
SLD-Solid
370
    25
100
AcDbLine
 10
60.2502366817647
 20
11.86077620166818
 30
0.0
 11
60.25023668165929
 21
11.85728918118989
 31
0.0
  0
LINE
  5
2FA
330
1F
100
AcDbEntity
  8
OBJECT
  6
SLD-Solid
370
    25
100
AcDbLine
 10
60.25023668165929
 20
11.85728918118989
 30
0.0
 11
58.66837126749333
 21
10.94380085270192
 31
0.0
  0
LINE
  5
2FB
330
1F
100
AcDbEntity
  8
OBJECT
  6
SLD-Solid
370
    25
100
AcDbLine
 10
52.04381383145281
 20
14.76807645853311
 30
0.0
 11
58.66837126749333
 21
10.94380085270193
 31
0.0
  0
LINE
  5
2FC
330
1F
100
AcDbEntity
  8
OBJECT
  6
SLD-Solid
370
    25
100
AcDbLine
 10
52.04381383145281
 20
14.76807645853311
 30
0.0
 11
50.46194853818344
 21
17.50794833148738
 31
0.0
  0
ARC
  5
2FD
330
1F
100
AcDbEntity
  8
OBJECT
  6
SLD-Solid
370
    25
100
AcDbCircle
 10
58.82434840644645
 20
19.06410124021355
 30
0.0
 40
1.532399672514659
100
AcDbArc
 50
2.52005690423898
 51
57.47987881048366
  0
LINE
  5
2FE
330
1F
100
AcDbEntity
  8
OBJECT
  6
SLD-Solid
370
    25
100
AcDbLine
 10
60.33412429581082
 20
19.08661214882962
 30
0.0
 11
60.35526678856829
 21
19.09881745010136
 31
0.0
  0
LINE
  5
2FF
330
1F
100
AcDbEntity
  8
OBJECT
  6
SLD-Solid
370
    25
100
AcDbLine
 10
60.35526678856829
 20
19.09881745010136
 30
0.0
 11
60.35526608146152
 21
19.13147949078085
 31
0.0
  0
LINE
  5
300
330
1F
100
AcDbEntity
  8
OBJECT
  6
SLD-Solid
370
    25
100
AcDbLine
 10
59.59873253627003
 20
20.36034640300186
 30
0.0
 11
59.61987502902751
 21
20.3725517042736
 31
0.0
  0
LINE
  5
301
330
1F
100
AcDbEntity
  8
OBJECT
  6
SLD-Solid
370
    25
100
AcDbLine
 10
59.64815997035772
 20
20.35622478828823
 30
0.0
 11
59.61987502902751
 21
20.3725517042736
 31
0.0
  0
LINE
  5
302
330
1F
100
AcDbEntity
  8
OBJECT
  6
SLD-Solid
370
    25
100
AcDbLine
 10
60.32950518941278
 20
13.46188817812389
 30
0.0
 11
60.32950518999609
 21
14.38049658995564
 31
0.0
  0
ARC
  5
303
330
1F
100
AcDbEntity
  8
OBJECT
  6
SLD-Solid
370
    25
100
AcDbCircle
 10
60.31914740152029
 20
13.54912206586295
 30
0.0
 40
0.0878466558276195
100
AcDbArc
 50
276.7713592615653
 51
292.5941562046518
  0
ARC
  5
304
330
1F
100
AcDbEntity
  8
OBJECT
  6
SLD-Solid
370
    25
100
AcDbCircle
 10
60.31667493852772
 20
11.97304557515052
 30
0.0
 40
0.0958603039199196
100
AcDbArc
 50
242.8785077872983
 51
292.2021415430938
  0
ARC
  5
305
330
1F
100
AcDbEntity
  8
OBJECT
  6
SLD-Solid
370
    25
100
AcDbCircle
 10
60.3166749496398
 20
19.15619771862755
 30
0.0
 40
0.0958604495589892
100
AcDbArc
 50
242.87854731335
 51
292.202098841951
  0
ARC
  5
306
330
1F
100
AcDbEntity
  8
OBJECT
  6
SLD-Solid
370
    25
100
AcDbCircle
 10
60.31914750453549
 20
14.46773006318374
 30
0.0
 40
0.087846232130571
100
AcDbArc
 50
276.7713247956245
 51
292.5941984288688
  0
ARC
  5
307
330
1F
100
AcDbEntity
  8
OBJECT
  6
SLD-Solid
370
    25
100
AcDbCircle
 10
60.31638786632374
 20
19.12606622187036
 30
0.0
 40
0.0484101745382512
100
AcDbArc
 50
242.6098471127633
 51
297.3903141277816
  0
SPLINE
  5
308
330
1F
100
AcDbEntity
  8
OBJECT
  6
SLD-Solid
370
    25
100
AcDbSpline
210
0.0
220
0.0
230
1.0
 70
    12
 71
     3
 72
     9
 73
     5
 74
     0
 42
0.00000001
 43
0.00000001
 40
0.0
 40
0.0
 40
0.0
 40
0.0
 40
0.4999999999999925
 40
1.0
 40
1.0
 40
1.0
 40
1.0
 10
53.67593348448623
 20
23.80914963350672
 30
0.0
 41
1.0
 10
53.6717820127469
 20
23.80640227624421
 30
0.0
 41
1.0
 10
53.66347906926823
 20
23.8009075617192
 30
0.0
 41
1.0
 10
53.65616137303776
 20
23.79209897526781
 30
0.0
 41
1.0
 10
53.65250252492253
 20
23.78769468204211
 30
0.0
 41
1.0
  0
SPLINE
  5
309
330
1F
100
AcDbEntity
  8
OBJECT
  6
SLD-Solid
370
    25
100
AcDbSpline
210
0.0
220
0.0
230
1.0
 70
    12
 71
     3
 72
     9
 73
     5
 74
     0
 42
0.00000001
 43
0.00000001
 40
0.0
 40
0.0
 40
0.0
 40
0.0
 40
0.5000000359435341
 40
1.0
 40
1.0
 40
1.0
 40
1.0
 10
57.09964794930346
 20
21.79769973304062
 30
0.0
 41
1.0
 10
57.10330681489945
 20
21.80210406595073
 30
0.0
 41
1.0
 10
57.11062454556538
 20
21.81091273113771
 30
0.0
 41
1.0
 10
57.11892754390117
 20
21.81640747485978
 30
0.0
 41
1.0
 10
57.12307904277063
 20
21.81915484652332
 30
0.0
 41
1.0
  0
SPLINE
  5
30A
330
1F
100
AcDbEntity
  8
OBJECT
  6
SLD-Solid
370
    25
100
AcDbSpline
210
0.0
220
0.0
230
1.0
 70
    12
 71
     3
 72
     9
 73
     5
 74
     0
 42
0.00000001
 43
0.00000001
 40
0.0
 40
0.0
 40
0.0
 40
0.0
 40
0.4999999999999977
 40
1.0
 40
1.0
 40
1.0
 40
1.0
 10
57.91857417160549
 20
21.35992529803855
 30
0.0
 41
1.0
 10
57.91442266663346
 20
21.35717791586618
 30
0.0
 41
1.0
 10
57.90611965668941
 20
21.35168315152144
 30
0.0
 41
1.0
 10
57.89880191705484
 20
21.34287447012371
 30
0.0
 41
1.0
 10
57.89514304723757
 20
21.33847012942484
 30
0.0
 41
1.0
  0
SPLINE
  5
30B
330
1F
100
AcDbEntity
  8
OBJECT
  6
SLD-Solid
370
    25
100
AcDbSpline
210
0.0
220
0.0
230
1.0
 70
    12
 71
     3
 72
    11
 73
     7
 74
     0
 42
0.00000001
 43
0.00000001
 40
0.0
 40
0.0
 40
0.0
 40
0.0
 40
0.2931288877538706
 40
0.5862577755077605
 40
0.879386663261606
 40
1.0
 40
1.0
 40
1.0
 40
1.0
 10
59.55453905592191
 20
20.31524620910759
 30
0.0
 41
1.0
 10
59.55518699818304
 20
20.32220537597411
 30
0.0
 41
1.0
 10
59.55648288270528
 20
20.33612370970716
 30
0.0
 41
1.0
 10
59.5665917248059
 20
20.35829169777627
 30
0.0
 41
1.0
 10
59.57791445421068
 20
20.37487617413096
 30
0.0
 41
1.0
 10
59.58585900306309
 20
20.38081813121433
 30
0.0
 41
1.0
 10
59.58817498264952
 20
20.3825503191037
 30
0.0
 41
1.0
  0
ARC
  5
30C
330
1F
100
AcDbEntity
  8
OBJECT
  6
SLD-Solid
370
    25
100
AcDbCircle
 10
51.2526749504205
 20
25.15826134378962
 30
0.0
 40
0.0951310947424713
100
AcDbArc
 50
130.7218278491772
 51
177.3441690430059
  0
SPLINE
  5
30D
330
1F
100
AcDbEntity
  8
OBJECT
  6
SLD-Solid
370
    25
100
AcDbSpline
210
0.0
220
0.0
230
1.0
 70
    12
 71
     3
 72
     9
 73
     5
 74
     0
 42
0.00000001
 43
0.00000001
 40
0.0
 40
0.0
 40
0.0
 40
0.0
 40
0.5000000359435153
 40
1.0
 40
1.0
 40
1.0
 40
1.0
 10
52.8570074269885
 20
24.24692428565778
 30
0.0
 41
1.0
 10
52.86066627088242
 20
24.25132857109474
 30
0.0
 41
1.0
 10
52.86798395814419
 20
24.26013714133544
 30
0.0
 41
1.0
 10
52.87628689001459
 20
24.26563183523781
 30
0.0
 41
1.0
 10
52.88043835565136
 20
24.26837918199148
 30
0.0
 41
1.0
  0
SPLINE
  5
30E
330
1F
100
AcDbEntity
  8
OBJECT
  6
SLD-Solid
370
    25
100
AcDbSpline
210
0.0
220
0.0
230
1.0
 70
    12
 71
     3
 72
    11
 73
     7
 74
     0
 42
0.00000001
 43
0.00000001
 40
0.0
 40
0.0
 40
0.0
 40
0.0
 40
0.2500000175163985
 40
0.500000035032785
 40
0.750000052549156
 40
1.0
 40
1.0
 40
1.0
 40
1.0
 10
59.57568154867939
 20
20.32745151037934
 30
0.0
 41
1.0
 10
59.57601631830354
 20
20.33101475785044
 30
0.0
 41
1.0
 10
59.57668585755185
 20
20.33814125279264
 30
0.0
 41
1.0
 10
59.58183603061155
 20
20.34961528304498
 30
0.0
 41
1.0
 10
59.58919762612834
 20
20.35981227481562
 30
0.0
 41
1.0
 10
59.59503430367045
 20
20.36395486408476
 30
0.0
 41
1.0
 10
59.59795264203254
 20
20.36602615842908
 30
0.0
 41
1.0
  0
LINE
  5
30F
330
1F
100
AcDbEntity
  8
OBJECT
  6
SLD-Solid
370
    25
100
AcDbLine
 10
60.29268966486653
 20
19.08390702341281
 30
0.0
 11
60.27154717210905
 21
19.07170172214106
 31
0.0
  0
LINE
  5
310
330
1F
100
AcDbEntity
  8
OBJECT
  6
SLD-Solid
370
    25
100
AcDbLine
 10
60.29268966567135
 20
19.11053185333412
 30
0.0
 11
60.29268966486653
 21
19.08390702341281
 31
0.0
  0
LINE
  5
311
330
1F
100
AcDbEntity
  8
OBJECT
  6
SLD-Solid
370
    25
100
AcDbLine
 10
59.575681561076
 20
20.32457619374755
 30
0.0
 11
59.55453906831852
 21
20.3123708924758
 31
0.0
  0
LINE
  5
312
330
1F
100
AcDbEntity
  8
OBJECT
  6
SLD-Solid
370
    25
100
AcDbLine
 10
59.575681561076
 20
20.32457619374755
 30
0.0
 11
59.59873324288059
 21
20.31126874016966
 31
0.0
  0
LINE
  5
313
330
1F
100
AcDbEntity
  8
OBJECT
  6
SLD-Solid
370
    25
100
AcDbLine
 10
60.29411690136609
 20
19.08308309589424
 30
0.0
 11
60.29268966486653
 21
19.08390702341281
 31
0.0
  0
LINE
  5
314
330
1F
100
AcDbEntity
  8
OBJECT
  6
SLD-Solid
370
    25
100
AcDbLine
 10
60.35289818852533
 20
19.09130329470387
 30
0.0
 11
60.33865895224348
 21
19.08308315856888
 31
0.0
  0
LINE
  5
315
330
1F
100
AcDbEntity
  8
OBJECT
  6
SLD-Solid
370
    25
100
AcDbLine
 10
59.57568156116291
 20
20.32745151758593
 30
0.0
 11
59.575681561076
 21
20.32457619374755
 31
0.0
  0
LINE
  5
316
330
1F
100
AcDbEntity
  8
OBJECT
  6
SLD-Solid
370
    25
100
AcDbLine
 10
59.59795264203254
 20
20.36602615842908
 30
0.0
 11
59.60737570612793
 21
20.37146597754154
 31
0.0
  0
LINE
  5
317
330
1F
100
AcDbEntity
  8
OBJECT
  6
SLD-Solid
370
    25
100
AcDbLine
 10
57.91857417160549
 20
21.35992529803855
 30
0.0
 11
57.96341983356174
 21
21.38581413653909
 31
0.0
  0
LINE
  5
318
330
1F
100
AcDbEntity
  8
OBJECT
  6
SLD-Solid
370
    25
100
AcDbLine
 10
53.67593348448623
 20
23.80914963350672
 30
0.0
 11
53.72077914644241
 21
23.83503847200724
 31
0.0
  0
LINE
  5
319
330
1F
100
AcDbEntity
  8
OBJECT
  6
SLD-Solid
370
    25
100
AcDbLine
 10
60.40832435876363
 20
14.35794572768532
 30
0.0
 11
60.40832435876363
 21
14.37436216573611
 31
0.0
  0
LWPOLYLINE
  5
31A
330
1F
100
AcDbEntity
  8
OBJECT
  6
SLD-Solid
370
    25
100
AcDbPolyline
 90
        7
 70
   128
 43
0.0
 10
60.33865895224347
 20
13.4836561747853
 10
60.33701671287459
 20
13.48277339108749
 10
60.33526976201188
 20
13.48196034928851
 10
60.33342696713562
 20
13.48122117636881
 10
60.33149768222792
 20
13.48055962435224
 10
60.32949170029224
 20
13.47997905126079
 10
60.32950518999608
 20
13.47998260999678
  0
LINE
  5
31B
330
1F
100
AcDbEntity
  8
OBJECT
  6
SLD-Solid
370
    25
100
AcDbLine
 10
60.33865895224347
 20
13.4836561747853
 30
0.0
 11
60.37899030668176
 21
13.50693897011429
 31
0.0
  0
LINE
  5
31C
330
1F
100
AcDbEntity
  8
OBJECT
  6
SLD-Solid
370
    25
100
AcDbLine
 10
60.31380558114224
 20
11.84032356531146
 30
0.0
 11
60.32698251576712
 21
11.84793238923301
 31
0.0
  0
ARC
  5
31D
330
1F
100
AcDbEntity
  8
OBJECT
  6
SLD-Solid
370
    25
100
AcDbCircle
 10
60.31496278589018
 20
11.87429526481808
 30
0.0
 40
0.0437639371723167
100
AcDbArc
 50
261.0814223529453
 51
299.427145549802
  0
LINE
  5
31E
330
1F
100
AcDbEntity
  8
OBJECT
  6
SLD-Solid
370
    25
100
AcDbLine
 10
60.33646472870552
 20
11.83617770111189
 30
0.0
 11
58.76572210166924
 21
10.92911250779628
 31
0.0
  0
SPLINE
  5
31F
330
1F
100
AcDbEntity
  8
OBJECT
  6
SLD-Solid
370
    25
100
AcDbSpline
210
0.0
220
0.0
230
1.0
 70
    12
 71
     3
 72
     9
 73
     5
 74
     0
 42
0.00000001
 43
0.00000001
 40
0.0
 40
0.0
 40
0.0
 40
0.0
 40
0.4999999999999796
 40
1.0
 40
1.0
 40
1.0
 40
1.0
 10
58.73743623150347
 20
10.92399515127523
 30
0.0
 41
1.0
 10
58.7424986046418
 20
10.92367636799819
 30
0.0
 41
1.0
 10
58.75262335091843
 20
10.92303880144413
 30
0.0
 41
1.0
 10
58.76135585126504
 20
10.92708793927885
 30
0.0
 41
1.0
 10
58.76572210143834
 20
10.92911250819621
 30
0.0
 41
1.0
  0
SPLINE
  5
320
330
1F
100
AcDbEntity
  8
OBJECT
  6
SLD-Solid
370
    25
100
AcDbSpline
210
0.0
220
0.0
230
1.0
 70
    12
 71
     3
 72
    11
 73
     7
 74
     0
 42
0.00000001
 43
0.00000001
 40
0.0
 40
0.0
 40
0.0
 40
0.0
 40
0.2500000000000182
 40
0.5000000000000022
 40
0.7499999999999981
 40
1.0
 40
1.0
 40
1.0
 40
1.0
 10
58.66837126781987
 20
10.94380085289044
 30
0.0
 41
1.0
 10
58.67313075934803
 20
10.9406334125975
 30
0.0
 41
1.0
 10
58.68264974240433
 20
10.93429853201165
 30
0.0
 41
1.0
 10
58.6998252772442
 20
10.92763990817254
 30
0.0
 41
1.0
 10
58.71828654551383
 20
10.92359499641394
 30
0.0
 41
1.0
 10
58.73105300284026
 20
10.92386176632146
 30
0.0
 41
1.0
 10
58.73743623150347
 20
10.92399515127523
 30
0.0
 41
1.0
  0
LINE
  5
321
330
1F
100
AcDbEntity
  8
OBJECT
  6
SLD-Solid
370
    25
100
AcDbLine
 10
60.3528199644763
 20
11.84561937721739
 30
0.0
 11
60.33646472870552
 21
11.83617770111189
 31
0.0
  0
LINE
  5
322
330
1F
100
AcDbEntity
  8
OBJECT
  6
SLD-Solid
370
    25
100
AcDbLine
 10
59.10055192264279
 20
11.12240564902127
 30
0.0
 11
60.35281513657328
 21
11.84555682223499
 31
0.0
  0
LINE
  5
323
330
1F
100
AcDbEntity
  8
OBJECT
  6
SLD-Solid
370
    25
100
AcDbLine
 10
58.76572210166924
 20
10.92911250779628
 30
0.0
 11
59.10055192264279
 21
11.12240564902127
 31
0.0
  0
LWPOLYLINE
  5
324
330
1F
100
AcDbEntity
  8
OBJECT
  6
SLD-Solid
370
    25
100
AcDbPolyline
 90
        3
 70
   128
 43
0.0
 10
55.76519124956136
 20
18.319108157505
 10
55.76021629454107
 20
18.31081061161451
 10
55.75518362822492
 20
18.28449934234848
  0
LINE
  5
325
330
1F
100
AcDbEntity
  8
OBJECT
  6
SLD-Solid
370
    25
100
AcDbLine
 10
55.75518362822492
 20
18.28449934234848
 30
0.0
 11
55.7551836081579
 21
17.62065167386982
 31
0.0
  0
LWPOLYLINE
  5
326
330
1F
100
AcDbEntity
  8
OBJECT
  6
SLD-Solid
370
    25
100
AcDbPolyline
 90
        3
 70
   128
 43
0.0
 10
55.40951567181411
 20
18.52418540829859
 10
55.40460281777106
 20
18.51602465011478
 10
55.39950821018128
 20
18.48982558847202
  0
LINE
  5
327
330
1F
100
AcDbEntity
  8
OBJECT
  6
SLD-Solid
370
    25
100
AcDbLine
 10
55.39950821018128
 20
18.48982558847202
 30
0.0
 11
55.39950819011426
 21
17.82597791999335
 31
0.0
  0
LWPOLYLINE
  5
328
330
1F
100
AcDbEntity
  8
OBJECT
  6
SLD-Solid
370
    25
100
AcDbPolyline
 90
        7
 70
   128
 43
0.0
 10
55.7551836081579
 20
17.62065167386982
 10
55.76021627270769
 20
17.58852981237107
 10
55.77454809056696
 20
17.55548762086741
 10
55.79599717238484
 20
17.52655547348704
 10
55.82129808989101
 20
17.50613802739807
 10
55.84659900774852
 20
17.49734365368292
 10
55.85626246214586
 20
17.49750339365613
  0
LWPOLYLINE
  5
329
330
1F
100
AcDbEntity
  8
OBJECT
  6
SLD-Solid
370
    25
100
AcDbPolyline
 90
        3
 70
   128
 43
0.0
 10
55.05384182768763
 20
18.7297614664254
 10
55.0488668726674
 20
18.72146392053501
 10
55.04383420635126
 20
18.69515265126898
  0
LINE
  5
32A
330
1F
100
AcDbEntity
  8
OBJECT
  6
SLD-Solid
370
    25
100
AcDbLine
 10
55.04383420635126
 20
18.69515265126898
 30
0.0
 11
55.04383418628423
 21
18.03130498279031
 31
0.0
  0
LWPOLYLINE
  5
32B
330
1F
100
AcDbEntity
  8
OBJECT
  6
SLD-Solid
370
    25
100
AcDbPolyline
 90
        7
 70
   128
 43
0.0
 10
55.39950819011426
 20
17.82597791999335
 10
55.40447868140219
 20
17.79381505148832
 10
55.41879614394431
 20
17.76069613592772
 10
55.44027190586962
 20
17.73168397258005
 10
55.46562302539319
 20
17.71121357258285
 10
55.49097414526955
 20
17.7024141907555
 10
55.50058791089755
 20
17.702578866309
  0
LINE
  5
32C
330
1F
100
AcDbEntity
  8
OBJECT
  6
SLD-Solid
370
    25
100
AcDbLine
 10
51.11345187012559
 20
25.25879548348641
 30
0.0
 11
51.13459436288307
 21
25.27100078475815
 31
0.0
  0
LINE
  5
32D
330
1F
100
AcDbEntity
  8
OBJECT
  6
SLD-Solid
370
    25
100
AcDbLine
 10
51.13459436288307
 20
25.27100078475815
 30
0.0
 11
51.10631079874238
 21
25.28732772224974
 31
0.0
  0
LINE
  5
32E
330
1F
100
AcDbEntity
  8
OBJECT
  6
SLD-Solid
370
    25
100
AcDbLine
 10
51.13459436066164
 20
25.19751245143981
 30
0.0
 11
51.11345186790416
 21
25.18530715016806
 31
0.0
  0
LINE
  5
32F
330
1F
100
AcDbEntity
  8
OBJECT
  6
SLD-Solid
370
    25
100
AcDbLine
 10
51.13459436066164
 20
25.19751245143981
 30
0.0
 11
51.13459436288307
 21
25.27100078475815
 31
0.0
  0
LINE
  5
330
330
1F
100
AcDbEntity
  8
OBJECT
  6
SLD-Solid
370
    25
100
AcDbLine
 10
51.13459436066164
 20
25.19751245143981
 30
0.0
 11
51.16058756371225
 21
25.18250689367319
 31
0.0
  0
LWPOLYLINE
  5
331
330
1F
100
AcDbEntity
  8
OBJECT
  6
SLD-Solid
370
    25
100
AcDbPolyline
 90
        8
 70
   128
 43
0.0
 10
51.10631079874238
 20
25.28732772224974
 10
51.02107854359268
 20
25.33057785995172
 10
50.93708915475761
 20
25.36129033142465
 10
50.85556738509652
 20
25.37901728024554
 10
50.77770200407037
 20
25.38350020791168
 10
50.70462846282815
 20
25.37467374332618
 10
50.63741233679336
 20
25.35266659605447
 10
50.60635072531616
 20
25.33683618094996
  0
LWPOLYLINE
  5
332
330
1F
100
AcDbEntity
  8
OBJECT
  6
SLD-Solid
370
    25
100
AcDbPolyline
 90
        7
 70
   128
 43
0.0
 10
55.04383418628423
 20
18.03130498279031
 10
55.04886685083404
 20
17.99918312129157
 10
55.06319866869329
 20
17.9661409297879
 10
55.08464775051119
 20
17.93720878240754
 10
55.10994866801735
 20
17.91679133631856
 10
55.13524958587485
 20
17.90799696260342
 10
55.14491304027212
 20
17.90815670257661
  0
ARC
  5
333
330
1F
100
AcDbEntity
  8
OBJECT
  6
SLD-Solid
370
    25
100
AcDbCircle
 10
50.44872234616265
 20
24.77285263188712
 30
0.0
 40
0.0268064439569953
100
AcDbArc
 50
110.7836348916312
 51
249.2166133101534
  0
ARC
  5
334
330
1F
100
AcDbEntity
  8
OBJECT
  6
SLD-Solid
370
    25
100
AcDbCircle
 10
50.45195405997406
 20
17.59276389841297
 30
0.0
 40
0.0308784908186031
100
AcDbArc
 50
185.6947986523213
 51
245.6253426434521
  0
LINE
  5
335
330
1F
100
AcDbEntity
  8
OBJECT
  6
SLD-Solid
370
    25
100
AcDbLine
 10
50.43921034924235
 20
24.7979147018776
 30
0.0
 11
50.43999824135909
 21
24.79836954231504
 31
0.0
  0
LINE
  5
336
330
1F
100
AcDbEntity
  8
OBJECT
  6
SLD-Solid
370
    25
100
AcDbLine
 10
50.46194854375994
 20
17.50794833470662
 30
0.0
 11
50.46146747060718
 21
17.49482581436647
 31
0.0
  0
SPLINE
  5
337
330
1F
100
AcDbEntity
  8
OBJECT
  6
SLD-Solid
370
    25
100
AcDbSpline
210
0.0
220
0.0
230
1.0
 70
    12
 71
     3
 72
    10
 73
     6
 74
     0
 42
0.00000001
 43
0.00000001
 40
0.0
 40
0.0
 40
0.0
 40
0.0
 40
0.1870748109771709
 40
0.5935374054885962
 40
1.0
 40
1.0
 40
1.0
 40
1.0
 10
52.02017606731933
 20
14.78743611435268
 30
0.0
 41
1.0
 10
52.02098061159108
 20
14.78584237443858
 30
0.0
 41
1.0
 10
52.02353321136205
 20
14.78078587191591
 30
0.0
 41
1.0
 10
52.03121800420722
 20
14.77422042888688
 30
0.0
 41
1.0
 10
52.03961522608861
 20
14.7701244507972
 30
0.0
 41
1.0
 10
52.0438138370293
 20
14.76807646175235
 30
0.0
 41
1.0
  0
SPLINE
  5
338
330
1F
100
AcDbEntity
  8
OBJECT
  6
SLD-Solid
370
    25
100
AcDbSpline
210
0.0
220
0.0
230
1.0
 70
    12
 71
     3
 72
     9
 73
     5
 74
     0
 42
0.00000001
 43
0.00000001
 40
0.0
 40
0.0
 40
0.0
 40
0.0
 40
0.500000000000012
 40
1.0
 40
1.0
 40
1.0
 40
1.0
 10
50.46146747060718
 20
17.49482581436647
 30
0.0
 41
1.0
 10
50.45664909549416
 20
17.49884750087427
 30
0.0
 41
1.0
 10
50.44701234526811
 20
17.50689087388988
 30
0.0
 41
1.0
 10
50.44498538204098
 20
17.51932776124191
 30
0.0
 41
1.0
 10
50.44397190042743
 20
17.52554620491793
 30
0.0
 41
1.0
  0
LINE
  5
339
330
1F
100
AcDbEntity
  8
OBJECT
  6
SLD-Solid
370
    25
100
AcDbLine
 10
50.42659299137318
 20
17.53184538801684
 30
0.0
 11
50.41952202724918
 21
17.52776155628561
 31
0.0
  0
LINE
  5
33A
330
1F
100
AcDbEntity
  8
OBJECT
  6
SLD-Solid
370
    25
100
AcDbLine
 10
50.40634508639803
 20
17.55058468726114
 30
0.0
 11
50.41952202724918
 21
17.52776155628561
 31
0.0
  0
LINE
  5
33B
330
1F
100
AcDbEntity
  8
OBJECT
  6
SLD-Solid
370
    25
100
AcDbLine
 10
50.40634508690269
 20
17.56727968040962
 30
0.0
 11
50.40634508639803
 21
17.55058468726114
 31
0.0
  0
LINE
  5
33C
330
1F
100
AcDbEntity
  8
OBJECT
  6
SLD-Solid
370
    25
100
AcDbLine
 10
50.40634508690269
 20
17.56727968040962
 30
0.0
 11
50.43836608527619
 21
17.54879435022916
 31
0.0
  0
LINE
  5
33D
330
1F
100
AcDbEntity
  8
OBJECT
  6
SLD-Solid
370
    25
100
AcDbLine
 10
50.45892941894635
 20
17.51317760095425
 30
0.0
 11
50.42659299137318
 21
17.53184538801684
 31
0.0
  0
LINE
  5
33E
330
1F
100
AcDbEntity
  8
OBJECT
  6
SLD-Solid
370
    25
100
AcDbLine
 10
50.42473340139678
 20
17.57789502841302
 30
0.0
 11
50.40634508690269
 21
17.56727968040962
 31
0.0
  0
LINE
  5
33F
330
1F
100
AcDbEntity
  8
OBJECT
  6
SLD-Solid
370
    25
100
AcDbLine
 10
50.41952202724918
 20
17.52776155628561
 30
0.0
 11
50.4265945945701
 21
17.53184446249288
 31
0.0
  0
ARC
  5
340
330
1F
100
AcDbEntity
  8
0
  6
SLD-Solid
 62
     7
370
    25
100
AcDbCircle
 10
61.80255249169992
 20
20.7778123725185
 30
0.0
 40
1.578218370350055
100
AcDbArc
 50
2.520088941250064
 51
57.47991178350566
  0
ARC
  5
341
330
1F
100
AcDbEntity
  8
0
  6
SLD-Solid
 62
     7
370
    25
100
AcDbCircle
 10
58.79734523232027
 20
19.04294316472496
 30
0.0
 40
1.578221892989365
100
AcDbArc
 50
2.520154907024699
 51
57.47984523860342
  0
LINE
  5
342
330
1F
100
AcDbEntity
  8
0
  6
SLD-Solid
 62
     7
370
    25
100
AcDbLine
 10
60.35289818852533
 20
19.09745008640171
 30
0.0
 11
60.35289818852531
 21
14.36677592127307
 31
0.0
  0
LINE
  5
343
330
1F
100
AcDbEntity
  8
0
  6
SLD-Solid
 62
     7
370
    25
100
AcDbLine
 10
60.37404069403161
 20
19.11233887446118
 30
0.0
 11
60.37404068128279
 21
14.35457062000132
 31
0.0
  0
LINE
  5
344
330
1F
100
AcDbEntity
  8
0
  6
SLD-Solid
 62
     7
370
    25
100
AcDbLine
 10
60.37404068128279
 20
14.35457062000132
 30
0.0
 11
60.35289818852531
 21
14.36677592127307
 31
0.0
  0
LINE
  5
345
330
1F
100
AcDbEntity
  8
0
  6
SLD-Solid
 62
     7
370
    25
100
AcDbLine
 10
60.37404068128279
 20
13.45637246076375
 30
0.0
 11
60.37404068128277
 21
11.8355225859746
 31
0.0
  0
LINE
  5
346
330
1F
100
AcDbEntity
  8
0
  6
SLD-Solid
 62
     7
370
    25
100
AcDbLine
 10
60.37404068128279
 20
13.45637246076375
 30
0.0
 11
60.43060922377771
 21
13.48902878523666
 31
0.0
  0
LINE
  5
347
330
1F
100
AcDbEntity
  8
0
  6
SLD-Solid
 62
     7
370
    25
100
AcDbLine
 10
60.43060922377771
 20
13.48902878523666
 30
0.0
 11
60.43060922377771
 21
13.52985582583094
 31
0.0
  0
LINE
  5
348
330
1F
100
AcDbEntity
  8
0
  6
SLD-Solid
 62
     7
370
    25
100
AcDbLine
 10
60.43060922377771
 20
13.52985582583094
 30
0.0
 11
60.4069060516962
 21
13.51617227585083
 31
0.0
  0
LINE
  5
349
330
1F
100
AcDbEntity
  8
0
  6
SLD-Solid
 62
     7
370
    25
100
AcDbLine
 10
60.4069060516962
 20
13.51617227585083
 30
0.0
 11
60.4069060516962
 21
14.33271635389983
 31
0.0
  0
LINE
  5
34A
330
1F
100
AcDbEntity
  8
0
  6
SLD-Solid
 62
     7
370
    25
100
AcDbLine
 10
60.43060922377771
 20
14.34639990387994
 30
0.0
 11
60.4069060516962
 21
14.33271635389983
 31
0.0
  0
LINE
  5
34B
330
1F
100
AcDbEntity
  8
0
  6
SLD-Solid
 62
     7
370
    25
100
AcDbLine
 10
60.43060922377771
 20
14.34639990387994
 30
0.0
 11
60.43060922377772
 21
14.38722694447423
 31
0.0
  0
LINE
  5
34C
330
1F
100
AcDbEntity
  8
0
  6
SLD-Solid
 62
     7
370
    25
100
AcDbLine
 10
60.43060922377772
 20
14.38722694447423
 30
0.0
 11
60.37404068128279
 21
14.35457062000132
 31
0.0
  0
LINE
  5
34D
330
1F
100
AcDbEntity
  8
0
  6
SLD-Solid
 62
     7
370
    25
100
AcDbLine
 10
63.37924450132562
 20
15.23207082168534
 30
0.0
 11
63.37924451407444
 21
20.84720611208443
 31
0.0
  0
LINE
  5
34E
330
1F
100
AcDbEntity
  8
0
  6
SLD-Solid
 62
     7
370
    25
100
AcDbLine
 10
63.37924450132562
 20
15.23207082168534
 30
0.0
 11
63.34388916226629
 21
15.21166061888977
 31
0.0
  0
LINE
  5
34F
330
1F
100
AcDbEntity
  8
0
  6
SLD-Solid
 62
     7
370
    25
100
AcDbLine
 10
63.34388916226629
 20
15.21166061888977
 30
0.0
 11
63.34388916226629
 21
15.17083357829549
 31
0.0
  0
LINE
  5
350
330
1F
100
AcDbEntity
  8
0
  6
SLD-Solid
 62
     7
370
    25
100
AcDbLine
 10
63.37466340215967
 20
15.18859916883471
 30
0.0
 11
63.34388916226629
 21
15.17083357829549
 31
0.0
  0
LINE
  5
351
330
1F
100
AcDbEntity
  8
0
  6
SLD-Solid
 62
     7
370
    25
100
AcDbLine
 10
63.37466340215966
 20
13.75965274803465
 30
0.0
 11
63.37466340215967
 21
15.18859916883471
 31
0.0
  0
LINE
  5
352
330
1F
100
AcDbEntity
  8
0
  6
SLD-Solid
 62
     7
370
    25
100
AcDbLine
 10
63.34388916226628
 20
13.74188715749542
 30
0.0
 11
63.37466340215966
 21
13.75965274803465
 31
0.0
  0
LINE
  5
353
330
1F
100
AcDbEntity
  8
0
  6
SLD-Solid
 62
     7
370
    25
100
AcDbLine
 10
63.34388916226628
 20
13.74188715749542
 30
0.0
 11
63.34388916226628
 21
13.70106011690114
 31
0.0
  0
LINE
  5
354
330
1F
100
AcDbEntity
  8
0
  6
SLD-Solid
 62
     7
370
    25
100
AcDbLine
 10
63.34388916226628
 20
13.70106011690114
 30
0.0
 11
63.3792445013256
 21
13.72147031969671
 31
0.0
  0
LINE
  5
355
330
1F
100
AcDbEntity
  8
0
  6
SLD-Solid
 62
     7
370
    25
100
AcDbLine
 10
63.3792445013256
 20
13.57038982359785
 30
0.0
 11
63.3792445013256
 21
13.72147031969671
 31
0.0
  0
LINE
  5
356
330
1F
100
AcDbEntity
  8
0
  6
SLD-Solid
 62
     7
370
    25
100
AcDbLine
 10
57.93336783957437
 20
21.36226470472123
 30
0.0
 11
59.64579140733878
 21
20.373703635887
 31
0.0
  0
LINE
  5
357
330
1F
100
AcDbEntity
  8
0
  6
SLD-Solid
 62
     7
370
    25
100
AcDbLine
 10
57.93336783957437
 20
21.33785013444585
 30
0.0
 11
59.61268499879479
 21
20.36840098817073
 31
0.0
  0
LINE
  5
358
330
1F
100
AcDbEntity
  8
0
  6
SLD-Solid
 62
     7
370
    25
100
AcDbLine
 10
57.93336783957437
 20
21.33785013444585
 30
0.0
 11
57.93336783957437
 21
21.36226470472123
 31
0.0
  0
LINE
  5
359
330
1F
100
AcDbEntity
  8
0
  6
SLD-Solid
 62
     7
370
    25
100
AcDbLine
 10
52.89876685041938
 20
24.33399063995995
 30
0.0
 11
52.93412218947871
 21
24.31358043716439
 31
0.0
  0
LINE
  5
35A
330
1F
100
AcDbEntity
  8
0
  6
SLD-Solid
 62
     7
370
    25
100
AcDbLine
 10
52.84219830792446
 20
24.30133431548704
 30
0.0
 11
52.89876685041938
 21
24.33399063995995
 31
0.0
  0
LINE
  5
35B
330
1F
100
AcDbEntity
  8
0
  6
SLD-Solid
 62
     7
370
    25
100
AcDbLine
 10
52.84219830792446
 20
24.30133431548704
 30
0.0
 11
51.12977474016004
 21
25.28989541376497
 31
0.0
  0
LINE
  5
35C
330
1F
100
AcDbEntity
  8
0
  6
SLD-Solid
 62
     7
370
    25
100
AcDbLine
 10
54.13497856020287
 20
27.02476263666637
 30
0.0
 11
54.38015767832555
 21
26.88322374451419
 31
0.0
  0
LINE
  5
35D
330
1F
100
AcDbEntity
  8
0
  6
SLD-Solid
 62
     7
370
    25
100
AcDbLine
 10
54.34480233926622
 20
26.86281354171862
 30
0.0
 11
54.38015767832555
 21
26.88322374451419
 31
0.0
  0
LINE
  5
35E
330
1F
100
AcDbEntity
  8
0
  6
SLD-Solid
 62
     7
370
    25
100
AcDbLine
 10
54.38015767832555
 20
26.84240333892305
 30
0.0
 11
54.34480233926622
 21
26.86281354171862
 31
0.0
  0
LINE
  5
35F
330
1F
100
AcDbEntity
  8
0
  6
SLD-Solid
 62
     7
370
    25
100
AcDbLine
 10
54.41093191821894
 20
26.86016893217354
 30
0.0
 11
54.38015767832555
 21
26.84240333892305
 31
0.0
  0
LINE
  5
360
330
1F
100
AcDbEntity
  8
0
  6
SLD-Solid
 62
     7
370
    25
100
AcDbLine
 10
62.36587967103367
 20
22.26787534419108
 30
0.0
 11
54.41093191821894
 21
26.86016893217354
 31
0.0
  0
LINE
  5
361
330
1F
100
AcDbEntity
  8
0
  6
SLD-Solid
 62
     7
370
    25
100
AcDbLine
 10
62.36587967103367
 20
22.26787534419108
 30
0.0
 11
62.33510543114029
 21
22.25010975094059
 31
0.0
  0
LINE
  5
362
330
1F
100
AcDbEntity
  8
0
  6
SLD-Solid
 62
     7
370
    25
100
AcDbLine
 10
62.33510543114029
 20
22.25010975094059
 30
0.0
 11
62.37046077019961
 21
22.22969954814502
 31
0.0
  0
LINE
  5
363
330
1F
100
AcDbEntity
  8
0
  6
SLD-Solid
 62
     7
370
    25
100
AcDbLine
 10
62.37046077019961
 20
22.22969954814502
 30
0.0
 11
62.40581610925894
 21
22.25010975094059
 31
0.0
  0
LINE
  5
364
330
1F
100
AcDbEntity
  8
0
  6
SLD-Solid
 62
     7
370
    25
100
AcDbLine
 10
62.65099522738161
 20
22.1085708587884
 30
0.0
 11
62.40581610925894
 21
22.25010975094059
 31
0.0
  0
LINE
  5
365
330
1F
100
AcDbEntity
  8
0
  6
SLD-Solid
 62
     7
370
    25
100
AcDbLine
 10
57.93336783957437
 20
21.36226470472123
 30
0.0
 11
57.98993638206929
 21
21.39492102919414
 31
0.0
  0
LINE
  5
366
330
1F
100
AcDbEntity
  8
0
  6
SLD-Solid
 62
     7
370
    25
100
AcDbLine
 10
57.98993638206929
 20
21.39492102919414
 30
0.0
 11
57.95458104300997
 21
21.41533123198971
 31
0.0
  0
LINE
  5
367
330
1F
100
AcDbEntity
  8
0
  6
SLD-Solid
 62
     7
370
    25
100
AcDbLine
 10
57.93087787092846
 20
21.4016476820096
 30
0.0
 11
57.95458104300997
 21
21.41533123198971
 31
0.0
  0
LINE
  5
368
330
1F
100
AcDbEntity
  8
0
  6
SLD-Solid
 62
     7
370
    25
100
AcDbLine
 10
57.93087787092846
 20
21.4016476820096
 30
0.0
 11
57.15305970451647
 21
21.85067255140379
 31
0.0
  0
LINE
  5
369
330
1F
100
AcDbEntity
  8
0
  6
SLD-Solid
 62
     7
370
    25
100
AcDbLine
 10
57.17676287659798
 20
21.86435610169626
 30
0.0
 11
57.15305970451647
 21
21.85067255140379
 31
0.0
  0
LINE
  5
36A
330
1F
100
AcDbEntity
  8
0
  6
SLD-Solid
 62
     7
370
    25
100
AcDbLine
 10
57.17676287659798
 20
21.86435610169626
 30
0.0
 11
57.14140753753865
 21
21.88476630449182
 31
0.0
  0
LINE
  5
36B
330
1F
100
AcDbEntity
  8
0
  6
SLD-Solid
 62
     7
370
    25
100
AcDbLine
 10
57.14140753753865
 20
21.88476630449182
 30
0.0
 11
57.08483899504373
 21
21.85210998001892
 31
0.0
  0
LINE
  5
36C
330
1F
100
AcDbEntity
  8
0
  6
SLD-Solid
 62
     7
370
    25
100
AcDbLine
 10
57.08483899504373
 20
21.85210998001892
 30
0.0
 11
53.69072715245509
 21
23.81148904018936
 31
0.0
  0
LINE
  5
36D
330
1F
100
AcDbEntity
  8
0
  6
SLD-Solid
 62
     7
370
    25
100
AcDbLine
 10
53.74729569495001
 20
23.84414536466227
 30
0.0
 11
53.69072715245509
 21
23.81148904018936
 31
0.0
  0
LINE
  5
36E
330
1F
100
AcDbEntity
  8
0
  6
SLD-Solid
 62
     7
370
    25
100
AcDbLine
 10
53.71194035589068
 20
23.86455556745784
 30
0.0
 11
53.74729569495001
 21
23.84414536466227
 31
0.0
  0
LINE
  5
36F
330
1F
100
AcDbEntity
  8
0
  6
SLD-Solid
 62
     7
370
    25
100
AcDbLine
 10
53.71194035589068
 20
23.86455556745784
 30
0.0
 11
53.68823718380918
 21
23.85087201716538
 31
0.0
  0
LINE
  5
370
330
1F
100
AcDbEntity
  8
0
  6
SLD-Solid
 62
     7
370
    25
100
AcDbLine
 10
52.9104190173972
 20
24.29989688718427
 30
0.0
 11
53.68823718380918
 21
23.85087201716538
 31
0.0
  0
LINE
  5
371
330
1F
100
AcDbEntity
  8
0
  6
SLD-Solid
 62
     7
370
    25
100
AcDbLine
 10
52.9104190173972
 20
24.29989688718427
 30
0.0
 11
52.93412218947871
 21
24.31358043716439
 31
0.0
  0
ARC
  5
372
330
1F
100
AcDbEntity
  8
0
  6
SLD-Solid
 62
     7
370
    25
100
AcDbCircle
 10
57.98226270814037
 20
21.3215353689375
 30
0.0
 40
0.0951755441332354
100
AcDbArc
 50
122.6765176556991
 51
167.6732737821453
  0
LINE
  5
373
330
1F
100
AcDbEntity
  8
0
  6
SLD-Solid
 62
     7
370
    25
100
AcDbLine
 10
57.93087787092846
 20
21.37723311157804
 30
0.0
 11
57.93087787092846
 21
21.4016476820096
 31
0.0
  0
ARC
  5
374
330
1F
100
AcDbEntity
  8
0
  6
SLD-Solid
 62
     7
370
    25
100
AcDbCircle
 10
57.95607987414576
 20
21.33736724635125
 30
0.0
 40
0.0471638439532395
100
AcDbArc
 50
122.2998453479291
 51
156.8244532886648
  0
ARC
  5
375
330
1F
100
AcDbEntity
  8
0
  6
SLD-Solid
 62
     7
370
    25
100
AcDbCircle
 10
57.20574081697368
 20
21.76965846087939
 30
0.0
 40
0.0966363413692064
100
AcDbArc
 50
123.0347810064365
 51
167.3149793600261
  0
LINE
  5
376
330
1F
100
AcDbEntity
  8
0
  6
SLD-Solid
 62
     7
370
    25
100
AcDbLine
 10
57.95458104300997
 20
21.39091666171432
 30
0.0
 11
57.95458104300997
 21
21.41533123198971
 31
0.0
  0
LINE
  5
377
330
1F
100
AcDbEntity
  8
0
  6
SLD-Solid
 62
     7
370
    25
100
AcDbLine
 10
57.96879045278286
 20
21.38271374405645
 30
0.0
 11
57.95458104300997
 21
21.39091666171432
 31
0.0
  0
LINE
  5
378
330
1F
100
AcDbEntity
  8
0
  6
SLD-Solid
 62
     7
370
    25
100
AcDbLine
 10
57.93087787092846
 20
21.37723311157804
 30
0.0
 11
57.95458104300997
 21
21.39091666171432
 31
0.0
  0
LINE
  5
379
330
1F
100
AcDbEntity
  8
0
  6
SLD-Solid
 62
     7
370
    25
100
AcDbLine
 10
57.08483899504373
 20
21.85210998001892
 30
0.0
 11
57.08483899504373
 21
21.82769540974353
 31
0.0
  0
LINE
  5
37A
330
1F
100
AcDbEntity
  8
0
  6
SLD-Solid
 62
     7
370
    25
100
AcDbLine
 10
53.69072715245509
 20
23.81148904018936
 30
0.0
 11
53.69072715245509
 21
23.78707446991397
 31
0.0
  0
LINE
  5
37B
330
1F
100
AcDbEntity
  8
0
  6
SLD-Solid
 62
     7
370
    25
100
AcDbLine
 10
57.08483899504373
 20
21.82769540974353
 30
0.0
 11
53.69072715245509
 21
23.78707446991397
 31
0.0
  0
LINE
  5
37C
330
1F
100
AcDbEntity
  8
0
  6
SLD-Solid
 62
     7
370
    25
100
AcDbLine
 10
57.14140753753865
 20
21.88476630449182
 30
0.0
 11
57.14140753753865
 21
21.86035173421644
 31
0.0
  0
LINE
  5
37D
330
1F
100
AcDbEntity
  8
0
  6
SLD-Solid
 62
     7
370
    25
100
AcDbLine
 10
57.14140753753865
 20
21.86035173421644
 30
0.0
 11
57.08483899504373
 21
21.82769540974353
 31
0.0
  0
LINE
  5
37E
330
1F
100
AcDbEntity
  8
0
  6
SLD-Solid
 62
     7
370
    25
100
AcDbLine
 10
57.15561694755289
 20
21.85214881641924
 30
0.0
 11
57.14140753753865
 21
21.86035173421644
 31
0.0
  0
LINE
  5
37F
330
1F
100
AcDbEntity
  8
0
  6
SLD-Solid
 62
     7
370
    25
100
AcDbLine
 10
62.36587967103367
 20
22.2434607739157
 30
0.0
 11
62.36587967103367
 21
22.26787534419108
 31
0.0
  0
LINE
  5
380
330
1F
100
AcDbEntity
  8
0
  6
SLD-Solid
 62
     7
370
    25
100
AcDbLine
 10
62.36587967103367
 20
22.2434607739157
 30
0.0
 11
62.35625135881315
 21
22.2379024667344
 31
0.0
  0
SPLINE
  5
381
330
1F
100
AcDbEntity
  8
0
  6
SLD-Solid
 62
     7
370
    25
100
AcDbSpline
210
0.0
220
0.0
230
1.0
 70
    12
 71
     3
 72
     9
 73
     5
 74
     0
 42
0.00000001
 43
0.00000001
 40
0.0
 40
0.0
 40
0.0
 40
0.0
 40
0.5537440001500512
 40
1.0
 40
1.0
 40
1.0
 40
1.0
 10
54.41696795791741
 20
26.8631665458266
 30
0.0
 41
1.0
 10
54.42210175740616
 20
26.86478348835915
 30
0.0
 41
1.0
 10
54.43137282758907
 20
26.86770350651215
 30
0.0
 41
1.0
 10
54.43827484929039
 20
26.86421613837554
 30
0.0
 41
1.0
 10
54.4413549178857
 20
26.8626598794209
 30
0.0
 41
1.0
  0
SPLINE
  5
382
330
1F
100
AcDbEntity
  8
0
  6
SLD-Solid
 62
     7
370
    25
100
AcDbSpline
210
0.0
220
0.0
230
1.0
 70
    12
 71
     3
 72
    11
 73
     7
 74
     0
 42
0.00000001
 43
0.00000001
 40
0.0
 40
0.0
 40
0.0
 40
0.0
 40
0.2812526540277318
 40
0.562505308055463
 40
0.8437579620832014
 40
1.0
 40
1.0
 40
1.0
 40
1.0
 10
62.37191571073215
 20
22.27087295784413
 30
0.0
 41
1.0
 10
62.37698144494154
 20
22.27235048338215
 30
0.0
 41
1.0
 10
62.38711291336033
 20
22.27530553445817
 30
0.0
 41
1.0
 10
62.39917898499588
 20
22.2704580403101
 30
0.0
 41
1.0
 10
62.40671644519487
 20
22.26168081745503
 30
0.0
 41
1.0
 10
62.4077150514396
 20
22.25300264208958
 30
0.0
 41
1.0
 10
62.40807168268022
 20
22.24990341407731
 30
0.0
 41
1.0
  0
ARC
  5
383
330
1F
100
AcDbEntity
  8
0
  6
SLD-Solid
 62
     7
370
    25
100
AcDbCircle
 10
62.39194390805867
 20
22.2229679433227
 30
0.0
 40
0.0519232039116354
100
AcDbArc
 50
112.6888994460163
 51
120.1308618666811
  0
ARC
  5
384
330
1F
100
AcDbEntity
  8
0
  6
SLD-Solid
 62
     7
370
    25
100
AcDbCircle
 10
54.43699615524498
 20
26.81526153130324
 30
0.0
 40
0.0519232039138148
100
AcDbArc
 50
112.6888994462601
 51
120.1308618666084
  0
LINE
  5
385
330
1F
100
AcDbEntity
  8
0
  6
SLD-Solid
 62
     7
370
    25
100
AcDbLine
 10
62.37191571073215
 20
22.27087295784413
 30
0.0
 11
62.36897614802517
 21
22.24499854408443
 31
0.0
  0
ARC
  5
386
330
1F
100
AcDbEntity
  8
0
  6
SLD-Solid
 62
     7
370
    25
100
AcDbCircle
 10
62.37925057705697
 20
22.22042335919126
 30
0.0
 40
0.0266365088640202
100
AcDbArc
 50
112.6889002576445
 51
120.1308618370271
  0
SPLINE
  5
387
330
1F
100
AcDbEntity
  8
0
  6
SLD-Solid
 62
     7
370
    25
100
AcDbSpline
210
0.0
220
0.0
230
1.0
 70
    12
 71
     3
 72
    10
 73
     6
 74
     0
 42
0.00000001
 43
0.00000001
 40
0.0
 40
0.0
 40
0.0
 40
0.0
 40
0.3377010367316524
 40
0.6754020734633364
 40
0.9999999999999999
 40
0.9999999999999999
 40
0.9999999999999999
 40
0.9999999999999999
 10
62.36897614802359
 20
22.24499854407047
 30
0.0
 41
1.0
 10
62.37155713784382
 20
22.2457396254813
 30
0.0
 41
1.0
 10
62.37671911748429
 20
22.24722178830295
 30
0.0
 41
1.0
 10
62.38309187027372
 20
22.24501690270749
 30
0.0
 41
1.0
 10
62.3854350030927
 20
22.24098366195174
 30
0.0
 41
1.0
 10
62.38658339090066
 20
22.23900693896235
 30
0.0
 41
1.0
  0
ARC
  5
388
330
1F
100
AcDbEntity
  8
0
  6
SLD-Solid
 62
     7
370
    25
100
AcDbCircle
 10
60.36379773100372
 20
13.5991362844332
 30
0.0
 40
0.093495208346473
100
AcDbArc
 50
261.7461140431032
 51
297.4565089683036
  0
SPLINE
  5
389
330
1F
100
AcDbEntity
  8
0
  6
SLD-Solid
 62
     7
370
    25
100
AcDbSpline
210
0.0
220
0.0
230
1.0
 70
    12
 71
     3
 72
     9
 73
     5
 74
     0
 42
0.00000001
 43
0.00000001
 40
0.0
 40
0.0
 40
0.0
 40
0.0
 40
0.2451443996238731
 40
1.0
 40
1.0
 40
1.0
 40
1.0
 10
60.32950518944466
 20
13.51209680185146
 30
0.0
 41
1.0
 10
60.33098483228778
 20
13.51141002667241
 30
0.0
 41
1.0
 10
60.33702063341308
 20
13.50860851384934
 30
0.0
 41
1.0
 10
60.34463091744418
 20
13.5074693990967
 30
0.0
 41
1.0
 10
60.3503755829655
 20
13.5066095319462
 30
0.0
 41
1.0
  0
ARC
  5
38A
330
1F
100
AcDbEntity
  8
0
  6
SLD-Solid
 62
     7
370
    25
100
AcDbCircle
 10
60.36314565515993
 20
14.41840118083177
 30
0.0
 40
0.0962125868655845
100
AcDbArc
 50
249.5342599216227
 51
297.0540138174131
  0
ARC
  5
38B
330
1F
100
AcDbEntity
  8
0
  6
SLD-Solid
 62
     7
370
    25
100
AcDbCircle
 10
60.3634924792163
 20
14.38790468232927
 30
0.0
 40
0.0484101395953453
100
AcDbArc
 50
242.6096727047993
 51
297.3903272952202
  0
LINE
  5
38C
330
1F
100
AcDbEntity
  8
0
  6
SLD-Solid
 62
     7
370
    25
100
AcDbLine
 10
60.4069060516962
 20
14.33271635389983
 30
0.0
 11
60.38576355893872
 21
14.34492165517158
 31
0.0
  0
LINE
  5
38D
330
1F
100
AcDbEntity
  8
0
  6
SLD-Solid
 62
     7
370
    25
100
AcDbLine
 10
60.43060922377771
 20
14.34639990387994
 30
0.0
 11
60.40946673102023
 21
14.35860520515169
 31
0.0
  0
LINE
  5
38E
330
1F
100
AcDbEntity
  8
0
  6
SLD-Solid
 62
     7
370
    25
100
AcDbLine
 10
60.40946673102023
 20
14.35860520515169
 30
0.0
 11
60.40946673102023
 21
14.37502164320248
 31
0.0
  0
LINE
  5
38F
330
1F
100
AcDbEntity
  8
0
  6
SLD-Solid
 62
     7
370
    25
100
AcDbLine
 10
60.34122139949389
 20
14.34492165517158
 30
0.0
 11
60.32950518997779
 21
14.35168527895744
 31
0.0
  0
LINE
  5
390
330
1F
100
AcDbEntity
  8
0
  6
SLD-Solid
 62
     7
370
    25
100
AcDbLine
 10
60.40946673102023
 20
14.35860520515169
 30
0.0
 11
60.38576355893872
 21
14.34492165517158
 31
0.0
  0
LINE
  5
391
330
1F
100
AcDbEntity
  8
0
  6
SLD-Solid
 62
     7
370
    25
100
AcDbLine
 10
60.40946673102023
 20
13.50123408650841
 30
0.0
 11
60.43060922377771
 21
13.48902878523666
 31
0.0
  0
LINE
  5
392
330
1F
100
AcDbEntity
  8
0
  6
SLD-Solid
 62
     7
370
    25
100
AcDbLine
 10
60.35289818852531
 20
13.4685777620355
 30
0.0
 11
60.37404068128279
 21
13.45637246076375
 31
0.0
  0
LINE
  5
393
330
1F
100
AcDbEntity
  8
0
  6
SLD-Solid
 62
     7
370
    25
100
AcDbLine
 10
60.35289818852531
 20
13.4685777620355
 30
0.0
 11
60.40946673102023
 21
13.50123408650841
 31
0.0
  0
LINE
  5
394
330
1F
100
AcDbEntity
  8
0
  6
SLD-Solid
 62
     7
370
    25
100
AcDbLine
 10
60.35289818852531
 20
13.4685777620355
 30
0.0
 11
60.35289818852529
 21
11.84772788724635
 31
0.0
  0
LINE
  5
395
330
1F
100
AcDbEntity
  8
0
  6
SLD-Solid
 62
     7
370
    25
100
AcDbLine
 10
60.40946673102023
 20
13.50123408650841
 30
0.0
 11
60.40946673102023
 21
13.51765052455919
 31
0.0
  0
ARC
  5
396
330
1F
100
AcDbEntity
  8
0
  6
SLD-Solid
 62
     7
370
    25
100
AcDbCircle
 10
53.74091830838906
 20
23.76985791821909
 30
0.0
 40
0.0966363550382601
100
AcDbArc
 50
123.0347843099304
 51
167.3148388980457
  0
ARC
  5
397
330
1F
100
AcDbEntity
  8
0
  6
SLD-Solid
 62
     7
370
    25
100
AcDbCircle
 10
52.96180385865629
 20
24.21978457464953
 30
0.0
 40
0.0951755458659805
100
AcDbArc
 50
122.6765198811509
 51
167.6730728167849
  0
LINE
  5
398
330
1F
100
AcDbEntity
  8
0
  6
SLD-Solid
 62
     7
370
    25
100
AcDbLine
 10
53.68823718380918
 20
23.85087201716538
 30
0.0
 11
53.68823718380918
 21
23.82645744688999
 31
0.0
  0
ARC
  5
399
330
1F
100
AcDbEntity
  8
0
  6
SLD-Solid
 62
     7
370
    25
100
AcDbCircle
 10
53.71394114994771
 20
23.7861621662651
 30
0.0
 40
0.0477954340485558
100
AcDbArc
 50
122.5334057533791
 51
156.6378445466457
  0
LINE
  5
39A
330
1F
100
AcDbEntity
  8
0
  6
SLD-Solid
 62
     7
370
    25
100
AcDbLine
 10
53.71194035589068
 20
23.86455556745784
 30
0.0
 11
53.71194035589068
 21
23.84014099718246
 31
0.0
  0
LINE
  5
39B
330
1F
100
AcDbEntity
  8
0
  6
SLD-Solid
 62
     7
370
    25
100
AcDbLine
 10
53.71194035589068
 20
23.84014099718246
 30
0.0
 11
53.72614976566358
 21
23.83193807952458
 31
0.0
  0
LINE
  5
39C
330
1F
100
AcDbEntity
  8
0
  6
SLD-Solid
 62
     7
370
    25
100
AcDbLine
 10
53.71194035589068
 20
23.84014099718246
 30
0.0
 11
53.68823718380918
 21
23.82645744688999
 31
0.0
  0
ARC
  5
39D
330
1F
100
AcDbEntity
  8
0
  6
SLD-Solid
 62
     7
370
    25
100
AcDbCircle
 10
60.34330215457876
 20
11.83249760850432
 30
0.0
 40
0.0308870120378945
100
AcDbArc
 50
305.698038528807
 51
5.620378963668924
  0
ARC
  5
39E
330
1F
100
AcDbEntity
  8
0
  6
SLD-Solid
 62
     7
370
    25
100
AcDbCircle
 10
60.33712938772224
 20
11.84617607747773
 30
0.0
 40
0.0158449737243246
100
AcDbArc
 50
305.6980292976866
 51
5.620388194786387
  0
ARC
  5
39F
330
1F
100
AcDbEntity
  8
0
  6
SLD-Solid
 62
     7
370
    25
100
AcDbCircle
 10
63.34850597462162
 20
13.56736484612756
 30
0.0
 40
0.0308870120378707
100
AcDbArc
 50
305.6980385287738
 51
5.620378963697043
  0
LINE
  5
3A0
330
1F
100
AcDbEntity
  8
0
  6
SLD-Solid
 62
     7
370
    25
100
AcDbLine
 10
60.36132514029896
 20
11.80741415781749
 30
0.0
 11
63.36652896034179
 21
13.54228139544074
 31
0.0
  0
LINE
  5
3A1
330
1F
100
AcDbEntity
  8
0
  6
SLD-Solid
 62
     7
370
    25
100
AcDbLine
 10
58.82595048641183
 20
10.92077309870967
 30
0.0
 11
58.81100048641184
 21
10.94666725820683
 31
0.0
  0
LINE
  5
3A2
330
1F
100
AcDbEntity
  8
0
  6
SLD-Solid
 62
     7
370
    25
100
AcDbLine
 10
60.34637514029895
 20
11.83330831731465
 30
0.0
 11
58.81100048641184
 21
10.94666725820683
 31
0.0
  0
LINE
  5
3A3
330
1F
100
AcDbEntity
  8
0
  6
SLD-Solid
 62
     7
370
    25
100
AcDbLine
 10
60.36132514029896
 20
11.80741415781749
 30
0.0
 11
58.82595048641183
 21
10.92077309870967
 31
0.0
  0
LWPOLYLINE
  5
3A4
330
1F
100
AcDbEntity
  8
0
  6
SLD-Solid
 62
     7
370
    25
100
AcDbPolyline
 90
        9
 70
   128
 43
0.0
 10
61.4239399983629
 20
12.42055943068367
 10
61.42059497411326
 20
12.418628411879
 10
61.41752292401297
 20
12.41685502266147
 10
61.41475343315802
 20
12.41525634149285
 10
61.41231317287539
 20
12.41384776432512
 10
61.41022564386734
 20
12.41264285633115
 10
61.40851094988998
 20
12.41165322126658
 10
61.407185604146
 20
12.41088838972089
 10
61.40626237025568
 20
12.41035572733393
  0
LINE
  5
3A5
330
1F
100
AcDbEntity
  8
0
  6
SLD-Solid
 62
     7
370
    25
100
AcDbLine
 10
61.390989200405
 20
12.40154563354664
 30
0.0
 11
61.40626237025568
 21
12.41035572733393
 31
0.0
  0
LINE
  5
3A6
330
1F
100
AcDbEntity
  8
0
  6
SLD-Solid
 62
     7
370
    25
100
AcDbLine
 10
61.30197349149363
 20
12.35015103911742
 30
0.0
 11
61.390989200405
 21
12.40154563354664
 31
0.0
  0
LWPOLYLINE
  5
3A7
330
1F
100
AcDbEntity
  8
0
  6
SLD-Solid
 62
     7
370
    25
100
AcDbPolyline
 90
        9
 70
   128
 43
0.0
 10
61.30197349149363
 20
12.35015103911742
 10
61.29775511699049
 20
12.34771551415848
 10
61.29350685244988
 20
12.34526276897492
 10
61.28926961039276
 20
12.34281642450367
 10
61.28508419718909
 20
12.34040004004018
 10
61.28099092007584
 20
12.33803688635282
 10
61.27702919898181
 20
12.33574972157585
 10
61.27323718689767
 20
12.33356057203933
 10
61.26965140244708
 20
12.33149052014654
  0
LINE
  5
3A8
330
1F
100
AcDbEntity
  8
0
  6
SLD-Solid
 62
     7
370
    25
100
AcDbLine
 10
61.17394015739739
 20
12.27623759447094
 30
0.0
 11
61.26965140244708
 21
12.33149052014654
 31
0.0
  0
LWPOLYLINE
  5
3A9
330
1F
100
AcDbEntity
  8
0
  6
SLD-Solid
 62
     7
370
    25
100
AcDbPolyline
 90
        9
 70
   128
 43
0.0
 10
61.17394015739739
 20
12.27623759447094
 10
61.17059515629462
 20
12.27430658902836
 10
61.16752312518925
 20
12.27253321077539
 10
61.16475364856849
 20
12.27093453782239
 10
61.16231339723835
 20
12.26952596582063
 10
61.16022587147661
 20
12.26832105969798
 10
61.15851117471876
 20
12.26733142302503
 10
61.15718581995657
 20
12.26656658626957
 10
61.1562625707135
 20
12.26603391501561
  0
LINE
  5
3AA
330
1F
100
AcDbEntity
  8
0
  6
SLD-Solid
 62
     7
370
    25
100
AcDbLine
 10
61.14098876948937
 20
12.25722345676296
 30
0.0
 11
61.1562625707135
 21
12.26603391501561
 31
0.0
  0
LINE
  5
3AB
330
1F
100
AcDbEntity
  8
0
  6
SLD-Solid
 62
     7
370
    25
100
AcDbLine
 10
61.051973060578
 20
12.20582886233374
 30
0.0
 11
61.14098876948937
 21
12.25722345676296
 31
0.0
  0
LWPOLYLINE
  5
3AC
330
1F
100
AcDbEntity
  8
0
  6
SLD-Solid
 62
     7
370
    25
100
AcDbPolyline
 90
        9
 70
   128
 43
0.0
 10
61.051973060578
 20
12.20582886233374
 10
61.04775468607487
 20
12.2033933373748
 10
61.04350642153425
 20
12.20094059219124
 10
61.03926917947713
 20
12.19849424771999
 10
61.03508376627346
 20
12.1960778632565
 10
61.0309904891602
 20
12.19371470956914
 10
61.02702876806618
 20
12.19142754479217
 10
61.02323675598205
 20
12.18923839525565
 10
61.01965097153145
 20
12.18716834336285
  0
LINE
  5
3AD
330
1F
100
AcDbEntity
  8
0
  6
SLD-Solid
 62
     7
370
    25
100
AcDbLine
 10
60.92393984363844
 20
12.13191548532037
 30
0.0
 11
61.01965097153145
 21
12.18716834336285
 31
0.0
  0
LWPOLYLINE
  5
3AE
330
1F
100
AcDbEntity
  8
0
  6
SLD-Solid
 62
     7
370
    25
100
AcDbPolyline
 90
        9
 70
   128
 43
0.0
 10
60.92393984363844
 20
12.13191548532037
 10
60.92059481938878
 20
12.12998446651569
 10
60.9175227692885
 20
12.12821107729816
 10
60.91475327843354
 20
12.12661239612954
 10
60.91231301815092
 20
12.12520381896181
 10
60.91022548914286
 20
12.12399891096784
 10
60.90851079516551
 20
12.12300927590327
 10
60.90718544942152
 20
12.12224444435758
 10
60.90626221553121
 20
12.12171178197062
  0
LINE
  5
3AF
330
1F
100
AcDbEntity
  8
0
  6
SLD-Solid
 62
     7
370
    25
100
AcDbLine
 10
60.89098904568051
 20
12.11290168818333
 30
0.0
 11
60.90626221553121
 21
12.12171178197062
 31
0.0
  0
LINE
  5
3B0
330
1F
100
AcDbEntity
  8
0
  6
SLD-Solid
 62
     7
370
    25
100
AcDbLine
 10
60.80197333676915
 20
12.06150709375411
 30
0.0
 11
60.89098904568051
 21
12.11290168818333
 31
0.0
  0
LWPOLYLINE
  5
3B1
330
1F
100
AcDbEntity
  8
0
  6
SLD-Solid
 62
     7
370
    25
100
AcDbPolyline
 90
        9
 70
   128
 43
0.0
 10
60.80197333676915
 20
12.06150709375411
 10
60.79775496226603
 20
12.05907156879517
 10
60.79350669772541
 20
12.05661882361161
 10
60.78926945566828
 20
12.05417247914036
 10
60.78508404246462
 20
12.05175609467688
 10
60.78099076535136
 20
12.04939294098951
 10
60.77702904425733
 20
12.04710577621255
 10
60.77323703217319
 20
12.04491662667602
 10
60.7696512477226
 20
12.04284657478323
  0
LINE
  5
3B2
330
1F
100
AcDbEntity
  8
0
  6
SLD-Solid
 62
     7
370
    25
100
AcDbLine
 10
60.67394011982958
 20
11.98759371674074
 30
0.0
 11
60.7696512477226
 21
12.04284657478323
 31
0.0
  0
LWPOLYLINE
  5
3B3
330
1F
100
AcDbEntity
  8
0
  6
SLD-Solid
 62
     7
370
    25
100
AcDbPolyline
 90
        9
 70
   128
 43
0.0
 10
60.67394011982958
 20
11.98759371674074
 10
60.67059509557993
 20
11.98566269793607
 10
60.66752304547965
 20
11.98388930871853
 10
60.6647535546247
 20
11.98229062754992
 10
60.66231329434207
 20
11.98088205038218
 10
60.66022576533402
 20
11.97967714238821
 10
60.65851107135666
 20
11.97868750732365
 10
60.65718572561268
 20
11.97792267577795
 10
60.65626249172236
 20
11.97739001339099
  0
LINE
  5
3B4
330
1F
100
AcDbEntity
  8
0
  6
SLD-Solid
 62
     7
370
    25
100
AcDbLine
 10
60.64098932187166
 20
11.9685799196037
 30
0.0
 11
60.65626249172236
 21
11.97739001339099
 31
0.0
  0
LINE
  5
3B5
330
1F
100
AcDbEntity
  8
0
  6
SLD-Solid
 62
     7
370
    25
100
AcDbLine
 10
60.55197278158891
 20
11.91718484521523
 30
0.0
 11
60.64098932187166
 21
11.9685799196037
 31
0.0
  0
LWPOLYLINE
  5
3B6
330
1F
100
AcDbEntity
  8
0
  6
SLD-Solid
 62
     7
370
    25
100
AcDbPolyline
 90
        9
 70
   128
 43
0.0
 10
60.55197278158891
 20
11.91718484521523
 10
60.54775443472833
 20
11.91474933621803
 10
60.54350620031924
 20
11.9122966084327
 10
60.53926899000355
 20
11.90985028228863
 10
60.53508360925822
 20
11.90743391656568
 10
60.53099036442745
 20
11.9050707815168
 10
60.52702867456178
 20
11.90278363476917
 10
60.52323669180197
 20
11.90059450216218
 10
60.51965093396365
 20
11.89852446563265
  0
LINE
  5
3B7
330
1F
100
AcDbEntity
  8
0
  6
SLD-Solid
 62
     7
370
    25
100
AcDbLine
 10
60.42394027886407
 20
11.843271880528
 30
0.0
 11
60.51965093396365
 21
11.89852446563265
 31
0.0
  0
LWPOLYLINE
  5
3B8
330
1F
100
AcDbEntity
  8
0
  6
SLD-Solid
 62
     7
370
    25
100
AcDbPolyline
 90
        9
 70
   128
 43
0.0
 10
60.42394027886407
 20
11.843271880528
 10
60.4205952777613
 20
11.84134087508542
 10
60.41752324665593
 20
11.83956749683245
 10
60.41475377003516
 20
11.83796882387945
 10
60.41231351870503
 20
11.83656025187769
 10
60.41022599294327
 20
11.83535534575504
 10
60.40851129618544
 20
11.83436570908209
 10
60.40718594142325
 20
11.83360087232663
 10
60.40626269218018
 20
11.83306820107268
  0
LINE
  5
3B9
330
1F
100
AcDbEntity
  8
0
  6
SLD-Solid
 62
     7
370
    25
100
AcDbLine
 10
60.39098889095605
 20
11.82425774282002
 30
0.0
 11
60.40626269218018
 21
11.83306820107268
 31
0.0
  0
LINE
  5
3BA
330
1F
100
AcDbEntity
  8
0
  6
SLD-Solid
 62
     7
370
    25
100
AcDbLine
 10
60.30197318204468
 20
11.7728631483908
 30
0.0
 11
60.39098889095605
 21
11.82425774282002
 31
0.0
  0
LWPOLYLINE
  5
3BB
330
1F
100
AcDbEntity
  8
0
  6
SLD-Solid
 62
     7
370
    25
100
AcDbPolyline
 90
        9
 70
   128
 43
0.0
 10
60.30197318204468
 20
11.7728631483908
 10
60.29775480754155
 20
11.77042762343186
 10
60.29350654300092
 20
11.7679748782483
 10
60.28926930094381
 20
11.76552853377705
 10
60.28508388774014
 20
11.76311214931357
 10
60.28099061062688
 20
11.76074899562621
 10
60.27702888953286
 20
11.75846183084924
 10
60.27323687744872
 20
11.75627268131271
 10
60.26965109299813
 20
11.75420262941992
  0
LINE
  5
3BC
330
1F
100
AcDbEntity
  8
0
  6
SLD-Solid
 62
     7
370
    25
100
AcDbLine
 10
60.17393996510511
 20
11.69894977137743
 30
0.0
 11
60.26965109299813
 21
11.75420262941992
 31
0.0
  0
LWPOLYLINE
  5
3BD
330
1F
100
AcDbEntity
  8
0
  6
SLD-Solid
 62
     7
370
    25
100
AcDbPolyline
 90
        9
 70
   128
 43
0.0
 10
60.17393996510511
 20
11.69894977137743
 10
60.17059494085547
 20
11.69701875257275
 10
60.16752289075517
 20
11.69524536335522
 10
60.16475339990021
 20
11.6936466821866
 10
60.16231313961759
 20
11.69223810501887
 10
60.16022561060954
 20
11.69103319702491
 10
60.15851091663219
 20
11.69004356196034
 10
60.1571855708882
 20
11.68927873041464
 10
60.15626233699788
 20
11.68874606802769
  0
LINE
  5
3BE
330
1F
100
AcDbEntity
  8
0
  6
SLD-Solid
 62
     7
370
    25
100
AcDbLine
 10
60.14098916714719
 20
11.6799359742404
 30
0.0
 11
60.15626233699788
 21
11.68874606802769
 31
0.0
  0
LINE
  5
3BF
330
1F
100
AcDbEntity
  8
0
  6
SLD-Solid
 62
     7
370
    25
100
AcDbLine
 10
60.05197345823583
 20
11.62854137981117
 30
0.0
 11
60.14098916714719
 21
11.6799359742404
 31
0.0
  0
LWPOLYLINE
  5
3C0
330
1F
100
AcDbEntity
  8
0
  6
SLD-Solid
 62
     7
370
    25
100
AcDbPolyline
 90
        9
 70
   128
 43
0.0
 10
60.05197345823583
 20
11.62854137981117
 10
60.0477550837327
 20
11.62610585485224
 10
60.04350681919208
 20
11.62365310966868
 10
60.03926957713495
 20
11.62120676519742
 10
60.03508416393129
 20
11.61879038073394
 10
60.03099088681804
 20
11.61642722704658
 10
60.027029165724
 20
11.61414006226961
 10
60.02323715363987
 20
11.61195091273309
 10
60.01965136918928
 20
11.60988086084029
  0
LINE
  5
3C1
330
1F
100
AcDbEntity
  8
0
  6
SLD-Solid
 62
     7
370
    25
100
AcDbLine
 10
59.92394024129626
 20
11.5546280027978
 30
0.0
 11
60.01965136918928
 21
11.60988086084029
 31
0.0
  0
LWPOLYLINE
  5
3C2
330
1F
100
AcDbEntity
  8
0
  6
SLD-Solid
 62
     7
370
    25
100
AcDbPolyline
 90
        9
 70
   128
 43
0.0
 10
59.92394024129626
 20
11.5546280027978
 10
59.92059521704662
 20
11.55269698399313
 10
59.91752316694632
 20
11.5509235947756
 10
59.91475367609137
 20
11.54932491360698
 10
59.91231341580875
 20
11.54791633643925
 10
59.9102258868007
 20
11.54671142844528
 10
59.90851119282333
 20
11.54572179338071
 10
59.90718584707935
 20
11.54495696183502
 10
59.90626261318904
 20
11.54442429944806
  0
LINE
  5
3C3
330
1F
100
AcDbEntity
  8
0
  6
SLD-Solid
 62
     7
370
    25
100
AcDbLine
 10
59.89098944333834
 20
11.53561420566077
 30
0.0
 11
59.90626261318904
 21
11.54442429944806
 31
0.0
  0
LINE
  5
3C4
330
1F
100
AcDbEntity
  8
0
  6
SLD-Solid
 62
     7
370
    25
100
AcDbLine
 10
59.80197290305559
 20
11.48421913127229
 30
0.0
 11
59.89098944333834
 21
11.53561420566077
 31
0.0
  0
LWPOLYLINE
  5
3C5
330
1F
100
AcDbEntity
  8
0
  6
SLD-Solid
 62
     7
370
    25
100
AcDbPolyline
 90
        9
 70
   128
 43
0.0
 10
59.80197290305559
 20
11.48421913127229
 10
59.79775455619501
 20
11.48178362227509
 10
59.79350632178591
 20
11.47933089448976
 10
59.78926911147023
 20
11.47688456834569
 10
59.78508373072489
 20
11.47446820262275
 10
59.78099048589413
 20
11.47210506757386
 10
59.77702879602845
 20
11.46981792082623
 10
59.77323681326865
 20
11.46762878821925
 10
59.76965105543033
 20
11.46555875168972
  0
LINE
  5
3C6
330
1F
100
AcDbEntity
  8
0
  6
SLD-Solid
 62
     7
370
    25
100
AcDbLine
 10
59.67393981038063
 20
11.41030582601412
 30
0.0
 11
59.76965105543033
 21
11.46555875168972
 31
0.0
  0
LWPOLYLINE
  5
3C7
330
1F
100
AcDbEntity
  8
0
  6
SLD-Solid
 62
     7
370
    25
100
AcDbPolyline
 90
        9
 70
   128
 43
0.0
 10
59.67393981038063
 20
11.41030582601412
 10
59.67059478613098
 20
11.40837480720945
 10
59.6675227360307
 20
11.40660141799192
 10
59.66475324517575
 20
11.4050027368233
 10
59.66231298489311
 20
11.40359415965556
 10
59.66022545588506
 20
11.4023892516616
 10
59.65851076190771
 20
11.40139961659703
 10
59.65718541616372
 20
11.40063478505133
 10
59.6562621822734
 20
11.40010212266438
  0
LINE
  5
3C8
330
1F
100
AcDbEntity
  8
0
  6
SLD-Solid
 62
     7
370
    25
100
AcDbLine
 10
59.64098901242271
 20
11.39129202887709
 30
0.0
 11
59.6562621822734
 21
11.40010212266438
 31
0.0
  0
LINE
  5
3C9
330
1F
100
AcDbEntity
  8
0
  6
SLD-Solid
 62
     7
370
    25
100
AcDbLine
 10
59.55197330351135
 20
11.33989743444787
 30
0.0
 11
59.64098901242271
 21
11.39129202887709
 31
0.0
  0
LWPOLYLINE
  5
3CA
330
1F
100
AcDbEntity
  8
0
  6
SLD-Solid
 62
     7
370
    25
100
AcDbPolyline
 90
        9
 70
   128
 43
0.0
 10
59.55197330351135
 20
11.33989743444787
 10
59.54775492900822
 20
11.33746190948893
 10
59.54350666446761
 20
11.33500916430537
 10
59.53926942241048
 20
11.33256281983411
 10
59.53508400920681
 20
11.33014643537063
 10
59.53099073209356
 20
11.32778328168327
 10
59.52702901099953
 20
11.3254961169063
 10
59.5232369989154
 20
11.32330696736977
 10
59.51965121446481
 20
11.32123691547698
  0
LINE
  5
3CB
330
1F
100
AcDbEntity
  8
0
  6
SLD-Solid
 62
     7
370
    25
100
AcDbLine
 10
59.42394008657179
 20
11.26598405743449
 30
0.0
 11
59.51965121446481
 21
11.32123691547698
 31
0.0
  0
LWPOLYLINE
  5
3CC
330
1F
100
AcDbEntity
  8
0
  6
SLD-Solid
 62
     7
370
    25
100
AcDbPolyline
 90
        9
 70
   128
 43
0.0
 10
59.42394008657179
 20
11.26598405743449
 10
59.42059506232214
 20
11.26405303862982
 10
59.41752301222184
 20
11.26227964941229
 10
59.41475352136689
 20
11.26068096824367
 10
59.41231326108426
 20
11.25927239107594
 10
59.41022573207621
 20
11.25806748308197
 10
59.40851103809887
 20
11.2570778480174
 10
59.40718569235487
 20
11.25631301647171
 10
59.40626245846456
 20
11.25578035408475
  0
LINE
  5
3CD
330
1F
100
AcDbEntity
  8
0
  6
SLD-Solid
 62
     7
370
    25
100
AcDbLine
 10
59.39098928861387
 20
11.24697026029746
 30
0.0
 11
59.40626245846456
 21
11.25578035408475
 31
0.0
  0
LINE
  5
3CE
330
1F
100
AcDbEntity
  8
0
  6
SLD-Solid
 62
     7
370
    25
100
AcDbLine
 10
59.19527824268572
 20
11.1339734649814
 30
0.0
 11
59.39098928861387
 21
11.24697026029746
 31
0.0
  0
LWPOLYLINE
  5
3CF
330
1F
100
AcDbEntity
  8
0
  6
SLD-Solid
 62
     7
370
    25
100
AcDbPolyline
 90
        9
 70
   128
 43
0.0
 10
59.19527824268572
 20
11.1339734649814
 10
59.19105984053988
 20
11.13153792406064
 10
59.18681154586749
 20
11.1290851614787
 10
59.18257427206861
 20
11.12663879868009
 10
59.17838882640625
 20
11.12422239547585
 10
59.17429551701013
 20
11.1218592231498
 10
59.17033376468737
 20
11.11957204034327
 10
59.16654172327854
 20
11.117382873877
 10
59.16295591221537
 20
11.11531280662077
  0
LINE
  5
3D0
330
1F
100
AcDbEntity
  8
0
  6
SLD-Solid
 62
     7
370
    25
100
AcDbLine
 10
58.84666116453049
 20
10.93271973538508
 30
0.0
 11
59.16295591221537
 21
11.11531280662077
 31
0.0
  0
LWPOLYLINE
  5
3D1
330
1F
100
AcDbEntity
  8
0
  6
SLD-Solid
 62
     7
370
    25
100
AcDbPolyline
 90
        9
 70
   128
 43
0.0
 10
58.84666116453049
 20
10.93271973538508
 10
58.83382693154618
 20
10.9253108706869
 10
58.82340738289761
 20
10.91929632725096
 10
58.815802935996
 20
10.91490724060852
 10
58.81130582547116
 20
10.91231228089781
 10
58.81008887275854
 20
10.91161117096525
 10
58.81219884466841
 20
10.91283085407237
 10
58.81755465616357
 20
10.91592445848134
 10
58.82595048641183
 20
10.92077309870967
  0
LINE
  5
3D2
330
1F
100
AcDbEntity
  8
0
  6
SLD-Solid
 62
     7
370
    25
100
AcDbLine
 10
63.26215580645467
 20
13.48200846891392
 30
0.0
 11
63.36652896034179
 21
13.54228139544074
 31
0.0
  0
LINE
  5
3D3
330
1F
100
AcDbEntity
  8
0
  6
SLD-Solid
 62
     7
370
    25
100
AcDbLine
 10
63.26215580645467
 20
13.48200846891392
 30
0.0
 11
63.24094260301908
 21
13.46976234723657
 31
0.0
  0
LINE
  5
3D4
330
1F
100
AcDbEntity
  8
0
  6
SLD-Solid
 62
     7
370
    25
100
AcDbLine
 10
63.24094260301908
 20
13.46976234723657
 30
0.0
 11
63.22594260301908
 21
13.46110021656185
 31
0.0
  0
LINE
  5
3D5
330
1F
100
AcDbEntity
  8
0
  6
SLD-Solid
 62
     7
370
    25
100
AcDbLine
 10
63.24257470728872
 20
13.47070172598285
 30
0.0
 11
63.22594260301908
 21
13.46110021656185
 31
0.0
  0
LINE
  5
3D6
330
1F
100
AcDbEntity
  8
0
  6
SLD-Solid
 62
     7
370
    25
100
AcDbLine
 10
61.82076820728873
 20
12.64964347950546
 30
0.0
 11
63.24257470728872
 21
13.47070172598285
 31
0.0
  0
LINE
  5
3D7
330
1F
100
AcDbEntity
  8
0
  6
SLD-Solid
 62
     7
370
    25
100
AcDbLine
 10
61.4239399983629
 20
12.42055943068367
 30
0.0
 11
61.82076820728873
 21
12.64964347950546
 31
0.0
  0
LINE
  5
3D8
330
1F
100
AcDbEntity
  8
0
  6
SLD-Solid
 62
     7
370
    25
100
AcDbLine
 10
52.84219830792446
 20
24.27691974521166
 30
0.0
 11
52.84219830792446
 21
24.30133431548704
 31
0.0
  0
LINE
  5
3D9
330
1F
100
AcDbEntity
  8
0
  6
SLD-Solid
 62
     7
370
    25
100
AcDbLine
 10
52.84219830792446
 20
24.27691974521166
 30
0.0
 11
51.13459436263211
 21
25.26269853461815
 31
0.0
  0
LINE
  5
3DA
330
1F
100
AcDbEntity
  8
0
  6
SLD-Solid
 62
     7
370
    25
100
AcDbLine
 10
52.89876685041938
 20
24.30957606968457
 30
0.0
 11
52.89876685041938
 21
24.33399063995995
 31
0.0
  0
LINE
  5
3DB
330
1F
100
AcDbEntity
  8
0
  6
SLD-Solid
 62
     7
370
    25
100
AcDbLine
 10
52.84219830792446
 20
24.27691974521166
 30
0.0
 11
52.89876685041938
 21
24.30957606968457
 31
0.0
  0
LINE
  5
3DC
330
1F
100
AcDbEntity
  8
0
  6
SLD-Solid
 62
     7
370
    25
100
AcDbLine
 10
52.89876685041938
 20
24.30957606968457
 30
0.0
 11
52.91297626019227
 21
24.30137315202669
 31
0.0
  0
LINE
  5
3DD
330
1F
100
AcDbEntity
  8
0
  6
SLD-Solid
 62
     7
370
    25
100
AcDbLine
 10
63.37466340215967
 20
15.18859916883471
 30
0.0
 11
63.3535209117501
 21
15.20080446875104
 31
0.0
  0
LINE
  5
3DE
330
1F
100
AcDbEntity
  8
0
  6
SLD-Solid
 62
     7
370
    25
100
AcDbLine
 10
63.3535209117501
 20
15.20080446875104
 30
0.0
 11
63.34388916226629
 21
15.19524417897659
 31
0.0
  0
ARC
  5
3DF
330
1F
100
AcDbEntity
  8
0
  6
SLD-Solid
 62
     7
370
    25
100
AcDbCircle
 10
63.36191979933836
 20
13.78777892502484
 30
0.0
 40
0.0308784916236384
100
AcDbArc
 50
294.3746582936049
 51
354.3052007487888
  0
LWPOLYLINE
  5
3E0
330
1F
100
AcDbEntity
  8
0
  6
SLD-Solid
 62
     7
370
    25
100
AcDbPolyline
 90
        9
 70
   128
 43
0.0
 10
63.37924450132562
 20
15.23576461467554
 10
63.38229879037274
 20
15.23335247361226
 10
63.38797239565498
 20
15.22722481341519
 10
63.39146618453717
 20
15.22057591464919
 10
63.39264589267191
 20
15.21366129076508
 10
63.39146618453717
 20
15.20674666688098
 10
63.38797239565498
 20
15.20009776811498
 10
63.38229879037274
 20
15.1939701079179
 10
63.37466340215967
 20
15.18859916883471
  0
ARC
  5
3E1
330
1F
100
AcDbEntity
  8
0
  6
SLD-Solid
 62
     7
370
    25
100
AcDbCircle
 10
63.34885867497292
 20
15.2134740472791
 30
0.0
 40
0.0135001730301941
100
AcDbArc
 50
290.202945551082
 51
33.87952470497369
  0
LWPOLYLINE
  5
3E2
330
1F
100
AcDbEntity
  8
0
  6
SLD-Solid
 62
     7
370
    25
100
AcDbPolyline
 90
        8
 70
   128
 43
0.0
 10
51.12977474016004
 20
25.28989541376497
 10
51.04199398874378
 20
25.33443865123862
 10
50.95549327834821
 20
25.36606932465408
 10
50.87153398411352
 20
25.38432618756688
 10
50.79134042160954
 20
25.38894301380487
 10
50.71608199355773
 20
25.37985247964531
 10
50.64685613730633
 20
25.35718714554637
 10
50.63360315379805
 20
25.35094025647722
  0
LWPOLYLINE
  5
3E3
330
1F
100
AcDbEntity
  8
0
  6
SLD-Solid
 62
     7
370
    25
100
AcDbPolyline
 90
        8
 70
   128
 43
0.0
 10
53.6200703998179
 20
27.07575099348556
 10
53.65205995734916
 20
27.09205438316961
 10
53.72128581360056
 20
27.11471971726856
 10
53.79654424165236
 20
27.12381025142811
 10
53.87673780415635
 20
27.11919342519013
 10
53.96069709839104
 20
27.10093656227733
 10
54.04719780878661
 20
27.06930588886187
 10
54.13497856020287
 20
27.02476263666637
  0
LINE
  5
3E4
330
1F
100
AcDbEntity
  8
0
  6
SLD-Solid
 62
     7
370
    25
100
AcDbLine
 10
63.3792445013256
 20
13.72147031969671
 30
0.0
 11
63.35810200856813
 21
13.73367562096846
 31
0.0
  0
LINE
  5
3E5
330
1F
100
AcDbEntity
  8
0
  6
SLD-Solid
 62
     7
370
    25
100
AcDbLine
 10
63.34388916226629
 20
13.72547071944464
 30
0.0
 11
63.35810200856813
 21
13.73367562096846
 31
0.0
  0
LWPOLYLINE
  5
3E6
330
1F
100
AcDbEntity
  8
0
  6
SLD-Solid
 62
     7
370
    25
100
AcDbPolyline
 90
        5
 70
   128
 43
0.0
 10
58.81100048641184
 20
10.94666725820683
 10
58.80260465616358
 20
10.9418186179785
 10
58.79724884466841
 20
10.93872501356952
 10
58.79513887275854
 20
10.93750533046241
 10
58.79510862421558
 20
10.93748766368791
  0
LINE
  5
3E7
330
1F
100
AcDbEntity
  8
0
  6
SLD-Solid
 62
     7
370
    25
100
AcDbLine
 10
50.42266795897349
 20
24.80837410208177
 30
0.0
 11
50.4226679589735
 21
24.78048389747611
 31
0.0
  0
LINE
  5
3E8
330
1F
100
AcDbEntity
  8
0
  6
SLD-Solid
 62
     7
370
    25
100
AcDbLine
 10
50.42266795897351
 20
17.5820685886333
 30
0.0
 11
50.42266795897351
 21
17.58032777694701
 31
0.0
  0
LINE
  5
3E9
330
1F
100
AcDbEntity
  8
0
  6
SLD-Solid
 62
     7
370
    25
100
AcDbLine
 10
50.40152545359789
 20
24.82057927215387
 30
0.0
 11
50.40152546621603
 21
20.11158111224548
 31
0.0
  0
LINE
  5
3EA
330
1F
100
AcDbEntity
  8
0
  6
SLD-Solid
 62
     7
370
    25
100
AcDbLine
 10
50.40152546621603
 20
20.11158111224548
 30
0.0
 11
50.42122796768006
 21
20.10020710025295
 31
0.0
  0
LINE
  5
3EB
330
1F
100
AcDbEntity
  8
0
  6
SLD-Solid
 62
     7
370
    25
100
AcDbLine
 10
54.38015767832555
 20
26.8588091742388
 30
0.0
 11
54.38015767832555
 21
26.88322374451419
 31
0.0
  0
LINE
  5
3EC
330
1F
100
AcDbEntity
  8
0
  6
SLD-Solid
 62
     7
370
    25
100
AcDbLine
 10
54.36594826855266
 20
26.85060625658092
 30
0.0
 11
54.38015767832555
 21
26.8588091742388
 31
0.0
  0
ARC
  5
3ED
330
1F
100
AcDbEntity
  8
0
  6
SLD-Solid
 62
     7
370
    25
100
AcDbCircle
 10
50.43951461151125
 20
20.06466472421362
 30
0.0
 40
0.0228885968654571
100
AcDbArc
 50
143.0291162867211
 51
216.9708837132797
  0
LWPOLYLINE
  5
3EE
330
1F
100
AcDbEntity
  8
0
  6
SLD-Solid
 62
     7
370
    25
100
AcDbPolyline
 90
        3
 70
   128
 43
0.0
 10
50.41782588347967
 20
19.24054842313834
 10
50.41665802497026
 20
19.24492744606063
 10
50.41640834649972
 20
19.24812064616463
  0
LINE
  5
3EF
330
1F
100
AcDbEntity
  8
0
  6
SLD-Solid
 62
     7
370
    25
100
AcDbLine
 10
50.45346574702312
 20
17.51633177325149
 30
0.0
 11
50.45573666277247
 21
17.51239843180544
 31
0.0
  0
LINE
  5
3F0
330
1F
100
AcDbEntity
  8
0
  6
SLD-Solid
 62
     7
370
    25
100
AcDbLine
 10
50.42507991646971
 20
17.53097005743776
 30
0.0
 11
51.94961566108697
 21
14.89039669755561
 31
0.0
  0
LINE
  5
3F1
330
1F
100
AcDbEntity
  8
0
  6
SLD-Solid
 62
     7
370
    25
100
AcDbLine
 10
50.42122796768006
 20
19.20200894101538
 30
0.0
 11
50.40152546621602
 21
19.21338295300791
 31
0.0
  0
LINE
  5
3F2
330
1F
100
AcDbEntity
  8
0
  6
SLD-Solid
 62
     7
370
    25
100
AcDbLine
 10
50.42266795897351
 20
17.58032777694701
 30
0.0
 11
50.40152546621603
 21
17.59253307821876
 31
0.0
  0
LINE
  5
3F3
330
1F
100
AcDbEntity
  8
0
  6
SLD-Solid
 62
     7
370
    25
100
AcDbLine
 10
50.40152546621602
 20
19.21338295300791
 30
0.0
 11
50.40152546621603
 21
17.59253307821876
 31
0.0
  0
LINE
  5
3F4
330
1F
100
AcDbEntity
  8
0
  6
SLD-Solid
 62
     7
370
    25
100
AcDbLine
 10
50.40152546621602
 20
19.21338295300791
 30
0.0
 11
50.42122796768006
 21
19.22475696500044
 31
0.0
  0
ARC
  5
3F5
330
1F
100
AcDbEntity
  8
0
  6
SLD-Solid
 62
     7
370
    25
100
AcDbCircle
 10
52.05196201489454
 20
14.94896410337585
 30
0.0
 40
0.1179191127943889
100
AcDbArc
 50
209.7802235826955
 51
232.7211346113984
  0
LWPOLYLINE
  5
3F6
330
1F
100
AcDbEntity
  8
0
  6
SLD-Solid
 62
     7
370
    25
100
AcDbPolyline
 90
        3
 70
   128
 43
0.0
 10
50.42266795897351
 20
17.58032777694701
 10
50.42277520029074
 20
17.5777450805403
 10
50.42286337816764
 20
17.57681548698153
  0
ARC
  5
3F7
330
1F
100
AcDbEntity
  8
0
  6
SLD-Solid
 62
     7
370
    25
100
AcDbCircle
 10
50.48023790773346
 20
17.59395027137478
 30
0.0
 40
0.0787251985458062
100
AcDbArc
 50
181.0314813344973
 51
200.1793946979535
  0
LWPOLYLINE
  5
3F8
330
1F
100
AcDbEntity
  8
0
  6
SLD-Solid
 62
     7
370
    25
100
AcDbPolyline
 90
       11
 70
   128
 43
0.0
 10
55.62466870849197
 20
16.62135336890876
 10
55.62839604216524
 20
16.64738569294826
 10
55.62926224130091
 20
16.70828031732693
 10
55.62034437959097
 20
16.7739615952071
 10
55.60194614412016
 20
16.84219282944659
 10
55.57469406473117
 20
16.9106504871977
 10
55.53951617830232
 20
16.97700332503163
 10
55.49761042556474
 20
17.03899177663741
 10
55.45040385666749
 20
17.09450489964255
 10
55.39950403469633
 20
17.14165226122376
 10
55.3600949448615
 20
17.17044721922026
  0
ARC
  5
3F9
330
1F
100
AcDbEntity
  8
0
  6
SLD-Solid
 62
     7
370
    25
100
AcDbCircle
 10
55.32399221011902
 20
17.08992864157531
 30
0.0
 40
0.2104567097531902
100
AcDbArc
 50
52.21444429094247
 51
115.2301920962864
  0
LWPOLYLINE
  5
3FA
330
1F
100
AcDbEntity
  8
0
  6
SLD-Solid
 62
     7
370
    25
100
AcDbPolyline
 90
       14
 70
   128
 43
0.0
 10
55.66174902623165
 20
16.53983654303473
 10
55.68624799165582
 20
16.55767194481312
 10
55.71638280140165
 20
16.59448378464008
 10
55.73737871512006
 20
16.64204261733588
 10
55.7485207421512
 20
16.69872888389361
 10
55.74942945412789
 20
16.76261220149332
 10
55.74007390595366
 20
16.83151710037376
 10
55.72077268960084
 20
16.90309710684585
 10
55.69218308484306
 20
16.97491464963996
 10
55.6552786763809
 20
17.04452406847187
 10
55.61131619958257
 20
17.10955489807057
 10
55.56179274386829
 20
17.16779259152995
 10
55.50839477112553
 20
17.21725393404767
 10
55.45294068527226
 20
17.25625457892662
  0
LWPOLYLINE
  5
3FB
330
1F
100
AcDbEntity
  8
0
  6
SLD-Solid
 62
     7
370
    25
100
AcDbPolyline
 90
       30
 70
   128
 43
0.0
 10
55.34557880279386
 20
17.10392340548093
 10
55.29761810320503
 20
17.12649861019781
 10
55.25173033160512
 20
17.13609089215343
 10
55.21006114919357
 20
17.13225172690462
 10
55.17455896062797
 20
17.11516062955148
 10
55.1468838087878
 20
17.08561676081084
 10
55.12832975301436
 20
17.04500155914938
 10
55.11976436033429
 20
16.99521414625623
 10
55.12158813898956
 20
16.93858252622354
 10
55.13371581111721
 20
16.8777547306625
 10
55.15558030024753
 20
16.81557499968832
 10
55.18615924716938
 20
16.75495078841354
 10
55.22402281431077
 20
16.6987168175784
 10
55.26740054335451
 20
16.64950252515958
 10
55.31426413990139
 20
16.60960911677282
 10
55.36242231426202
 20
16.58090196385596
 10
55.40962324372727
 20
16.56472338097367
 10
55.45365986529539
 20
16.56182986068033
 10
55.49247307548508
 20
16.57235670076894
 10
55.52424801172563
 20
16.59581167789669
 10
55.54749891331375
 20
16.63109806340143
 10
55.56113859393269
 20
16.67656590511496
 10
55.56452927727612
 20
16.73008917729263
 10
55.5575124187594
 20
16.78916519121426
 10
55.54041611888807
 20
16.85103161812713
 10
55.51403978164294
 20
16.91279565266841
 10
55.47961673523841
 20
16.97156927722874
 10
55.43875656306589
 20
17.02460430244587
 10
55.39336984136334
 20
17.06942086948483
 10
55.34557880279386
 20
17.10392340548093
  0
LWPOLYLINE
  5
3FC
330
1F
100
AcDbEntity
  8
0
  6
SLD-Solid
 62
     7
370
    25
100
AcDbPolyline
 90
       15
 70
   128
 43
0.0
 10
55.37128621426425
 20
16.90617349878757
 10
55.39353418354072
 20
16.87487454528828
 10
55.40803555312109
 20
16.83966612676133
 10
55.41261257926857
 20
16.80583566881884
 10
55.40657790690469
 20
16.77846366178889
 10
55.39083779318476
 20
16.76166069788438
 10
55.36775601029458
 20
16.75795016285862
 10
55.34079886587116
 20
16.76788928645241
 10
55.3140146501194
 20
16.7899854603962
 10
55.29142568367429
 20
16.82092039091457
 10
55.27642426544414
 20
16.85604842362216
 10
55.27126323399106
 20
16.89009420485041
 10
55.27671764741282
 20
16.91794490808846
 10
55.29196838896318
 20
16.93541805290188
 10
55.31472517794079
 20
16.93988960909347
  0
LINE
  5
3FD
330
1F
100
AcDbEntity
  8
0
  6
SLD-Solid
 62
     7
370
    25
100
AcDbLine
 10
55.37128621426425
 20
16.90617349878757
 30
0.0
 11
55.37311756058741
 21
17.03491888984474
 31
0.0
  0
LINE
  5
3FE
330
1F
100
AcDbEntity
  8
0
  6
SLD-Solid
 62
     7
370
    25
100
AcDbLine
 10
55.37311756058741
 20
17.03491888984474
 30
0.0
 11
55.31655652426395
 21
17.06863500015065
 31
0.0
  0
LINE
  5
3FF
330
1F
100
AcDbEntity
  8
0
  6
SLD-Solid
 62
     7
370
    25
100
AcDbLine
 10
55.31655652426395
 20
17.06863500015065
 30
0.0
 11
55.31472517794079
 21
16.93988960909347
 31
0.0
  0
LINE
  5
400
330
1F
100
AcDbEntity
  8
0
  6
SLD-Solid
 62
     7
370
    25
100
AcDbLine
 10
55.80280646419869
 20
17.51986000232863
 30
0.0
 11
55.83771213107444
 21
17.49905268706033
 31
0.0
  0
ARC
  5
401
330
1F
100
AcDbEntity
  8
0
  6
SLD-Solid
 62
     7
370
    25
100
AcDbCircle
 10
63.36859086814169
 20
19.44031313086545
 30
0.0
 40
0.0189047466825343
100
AcDbArc
 50
304.3011592639155
 51
55.69884073607924
  0
ARC
  5
402
330
1F
100
AcDbEntity
  8
0
  6
SLD-Solid
 62
     7
370
    25
100
AcDbCircle
 10
63.36643293163137
 20
15.30779301578125
 30
0.0
 40
0.0214815418570566
100
AcDbArc
 50
306.6124267335866
 51
355.6589233669613
  0
LINE
  5
403
330
1F
100
AcDbEntity
  8
OBJECT
  6
SLD-Solid
370
    25
100
AcDbLine
 10
53.67593348448623
 20
23.80914963350672
 30
0.0
 11
53.69072715245509
 21
23.80060943070976
 31
0.0
  0
LINE
  5
404
330
1F
100
AcDbEntity
  8
OBJECT
  6
SLD-Solid
370
    25
100
AcDbLine
 10
57.0965618727957
 20
21.83446288302002
 30
0.0
 11
57.12293040991293
 21
21.81924065044568
 31
0.0
  0
LINE
  5
405
330
1F
100
AcDbEntity
  8
OBJECT
  6
SLD-Solid
370
    25
100
AcDbLine
 10
57.91857417160549
 20
21.35992529803855
 30
0.0
 11
57.93336783957437
 21
21.35138509517646
 31
0.0
  0
LINE
  5
406
330
1F
100
AcDbEntity
  8
OBJECT
  6
SLD-Solid
370
    25
100
AcDbLine
 10
52.85392118577756
 20
24.28368721854654
 30
0.0
 11
52.88028972279367
 21
24.26846498591385
 31
0.0
  0
LINE
  5
407
330
1F
100
AcDbEntity
  8
OBJECT
  6
SLD-Solid
370
    25
100
AcDbLine
 10
59.59795264203254
 20
20.36602615842908
 30
0.0
 11
59.59795264203254
 21
20.37690579657298
 31
0.0
  0
LINE
  5
408
330
1F
100
AcDbEntity
  8
OBJECT
  6
SLD-Solid
370
    25
100
AcDbLine
 10
60.33865895224347
 20
13.4836561747853
 30
0.0
 11
60.35883813694584
 21
13.47200682126909
 31
0.0
  0
LINE
  5
409
330
1F
100
AcDbEntity
  8
OBJECT
  6
SLD-Solid
370
    25
100
AcDbLine
 10
50.43921045780979
 20
24.7477905206915
 30
0.0
 11
50.44170064367747
 21
24.74922807439372
 31
0.0
  0
LINE
  5
40A
330
1F
100
AcDbEntity
  8
OBJECT
  6
SLD-Solid
370
    25
100
AcDbLine
 10
50.43921034924235
 20
24.7979147018776
 30
0.0
 11
50.44170064510573
 21
24.79647708467622
 31
0.0
  0
LINE
  5
40B
330
1F
100
AcDbEntity
  8
OBJECT
  6
SLD-Solid
370
    25
100
AcDbLine
 10
50.44170042607839
 20
17.55071922420218
 30
0.0
 11
50.43836608527619
 21
17.54879435022916
 31
0.0
  0
LINE
  5
40C
330
1F
100
AcDbEntity
  8
0
  6
SLD-Solid
 62
     8
370
    25
100
AcDbLine
 10
62.38008546083556
 20
22.23525576378178
 30
0.0
 11
62.36587604871467
 21
22.24345868279513
 31
0.0
  0
LINE
  5
40D
330
1F
100
AcDbEntity
  8
0
  6
SLD-Solid
 62
     8
370
    25
100
AcDbLine
 10
60.32950518996921
 20
14.33815803138076
 30
0.0
 11
60.34122139949389
 21
14.34492165517158
 31
0.0
  0
LINE
  5
40E
330
1F
100
AcDbEntity
  8
0
  6
SLD-Solid
 62
     8
370
    25
100
AcDbLine
 10
63.35352090940219
 20
15.20080446875104
 30
0.0
 11
63.35352091173482
 21
15.21722090950384
 31
0.0
  0
LINE
  5
40F
330
1F
100
AcDbEntity
  8
0
  6
SLD-Solid
 62
     8
370
    25
100
AcDbLine
 10
63.24257470728872
 20
13.47070172598285
 30
0.0
 11
63.24257348832779
 21
13.47070383728511
 31
0.0
  0
LINE
  5
410
330
1F
100
AcDbEntity
  8
0
  6
SLD-Solid
 62
     8
370
    25
100
AcDbLine
 10
50.42266795897351
 20
17.58032777694701
 30
0.0
 11
50.42325535365759
 21
17.58066687268027
 31
0.0
  0
LINE
  5
411
330
1F
100
AcDbEntity
  8
0
  6
SLD-Solid
 62
     8
370
    25
100
AcDbLine
 10
51.94961566108697
 20
14.89039669755561
 30
0.0
 11
51.95753951253459
 21
14.89497252666803
 31
0.0
  0
LWPOLYLINE
  5
412
330
1F
100
AcDbEntity
  8
0
  6
SLD-Solid
 62
     8
370
    25
100
AcDbPolyline
 90
       27
 70
   128
 43
0.0
 10
55.3600949448615
 20
17.17044721922026
 10
55.34664429204087
 20
17.17882831452943
 10
55.29362470383898
 20
17.20476707365199
 10
55.24225078857688
 20
17.21858522525964
 10
55.1942720233226
 20
17.21981220877242
 10
55.15132226738269
 20
17.20840624073842
 10
55.11486412318313
 20
17.18475573771907
 10
55.08613912909792
 20
17.14966608922904
 10
55.06612548034879
 20
17.10433223116229
 10
55.05550471774017
 20
17.05029795368328
 10
55.05463851860449
 20
16.98940332930461
 10
55.06355638031443
 20
16.92372205142443
 10
55.08195461578525
 20
16.85549081718495
 10
55.10920669517424
 20
16.78703315943384
 10
55.14438458160308
 20
16.72068032159991
 10
55.18629033434066
 20
16.65869186999413
 10
55.23349690323791
 20
16.60317874698899
 10
55.28439672520908
 20
16.55603138540777
 10
55.33725646786454
 20
16.5188553321021
 10
55.39027605606643
 20
16.49291657297954
 10
55.44164997132854
 20
16.47909842137189
 10
55.48962873658282
 20
16.47787143785911
 10
55.53257849252272
 20
16.48927740589312
 10
55.56903663672227
 20
16.51292790891247
 10
55.59776163080748
 20
16.5480175574025
 10
55.61777527955661
 20
16.59335141546925
 10
55.62466870849197
 20
16.62135336890876
  0
INSERT
  5
418
330
1F
100
AcDbEntity
  8
NOTES
100
AcDbBlockReference
  2
SW_NOTE_0_2
 10
54.07944144114705
 20
11.57923796746952
 30
0.0
  0
LINE
  5
419
330
1F
100
AcDbEntity
  8
OBJECT
  6
SLD-Solid
370
    25
100
AcDbLine
 10
47.39205434089052
 20
14.21771344975541
 30
0.0
 11
47.37091184337415
 21
14.23885593775399
 31
0.0
  0
LINE
  5
41A
330
1F
100
AcDbEntity
  8
OBJECT
  6
SLD-Solid
370
    25
100
AcDbLine
 10
45.17068934089054
 20
11.9963474497554
 30
0.0
 11
45.14954684337417
 21
12.01748993775398
 31
0.0
  0
LINE
  5
41B
330
1F
100
AcDbEntity
  8
OBJECT
  6
SLD-Solid
370
    25
100
AcDbLine
 10
47.37091184337415
 20
14.23885593775399
 30
0.0
 11
47.22742485151591
 21
14.09536888130168
 31
0.0
  0
LINE
  5
41C
330
1F
100
AcDbEntity
  8
OBJECT
  6
SLD-Solid
370
    25
100
AcDbLine
 10
45.26782951944408
 20
12.13577266707165
 30
0.0
 11
45.14954684337417
 21
12.01748993775398
 31
0.0
  0
LINE
  5
41D
330
1F
100
AcDbEntity
  8
OBJECT
  6
SLD-Solid
370
    25
100
AcDbLine
 10
47.39205434089052
 20
14.21771344975541
 30
0.0
 11
47.24856734427338
 21
14.0742263885442
 31
0.0
  0
LINE
  5
41E
330
1F
100
AcDbEntity
  8
OBJECT
  6
SLD-Solid
370
    25
100
AcDbLine
 10
45.25565856790724
 20
12.08131671502301
 30
0.0
 11
45.17068934089054
 21
11.9963474497554
 31
0.0
  0
LINE
  5
41F
330
1F
100
AcDbEntity
  8
OBJECT
  6
SLD-Solid
370
    25
100
AcDbLine
 10
47.42505901563242
 20
23.09439633843456
 30
0.0
 11
47.39515901563242
 21
23.09439633843456
 31
0.0
  0
LINE
  5
420
330
1F
100
AcDbEntity
  8
OBJECT
  6
SLD-Solid
370
    25
100
AcDbLine
 10
47.39515901563242
 20
23.09439633843456
 30
0.0
 11
47.39515901563243
 21
21.37871374667392
 31
0.0
  0
LINE
  5
421
330
1F
100
AcDbEntity
  8
OBJECT
  6
SLD-Solid
370
    25
100
AcDbLine
 10
47.39515901563247
 20
16.31571374667391
 30
0.0
 11
47.39515901563247
 21
16.24507811261414
 31
0.0
  0
LINE
  5
422
330
1F
100
AcDbEntity
  8
OBJECT
  6
SLD-Solid
370
    25
100
AcDbLine
 10
47.39515901563247
 20
14.49507811261415
 30
0.0
 11
47.39515901563248
 21
14.29734333843456
 31
0.0
  0
LINE
  5
423
330
1F
100
AcDbEntity
  8
OBJECT
  6
SLD-Solid
370
    25
100
AcDbLine
 10
47.42505901563247
 20
14.29734333843456
 30
0.0
 11
47.39515901563248
 21
14.29734333843456
 31
0.0
  0
LINE
  5
424
330
1F
100
AcDbEntity
  8
OBJECT
  6
SLD-Solid
370
    25
100
AcDbLine
 10
47.42505901563242
 20
23.09439633843456
 30
0.0
 11
47.42505901563246
 21
16.24507811261415
 31
0.0
  0
LINE
  5
425
330
1F
100
AcDbEntity
  8
OBJECT
  6
SLD-Solid
370
    25
100
AcDbLine
 10
47.42505901563247
 20
14.49507811261415
 30
0.0
 11
47.42505901563247
 21
14.29734333843456
 31
0.0
  0
LINE
  5
426
330
1F
100
AcDbEntity
  8
OBJECT
  6
SLD-Solid
370
    25
100
AcDbLine
 10
47.37091239226107
 20
14.23885648664116
 30
0.0
 11
47.39205488977744
 21
14.21771399864258
 31
0.0
  0
LINE
  5
427
330
1F
100
AcDbEntity
  8
OBJECT
  6
SLD-Solid
370
    25
100
AcDbLine
 10
34.47264160442595
 20
24.17181374667388
 30
0.0
 11
34.47264160442595
 21
24.14191374667388
 31
0.0
  0
LINE
  5
428
330
1F
100
AcDbEntity
  8
OBJECT
  6
SLD-Solid
370
    25
100
AcDbLine
 10
46.34764160442595
 20
24.17181374667395
 30
0.0
 11
46.34764160442595
 21
24.14191374667395
 31
0.0
  0
LINE
  5
429
330
1F
100
AcDbEntity
  8
OBJECT
  6
SLD-Solid
370
    25
100
AcDbLine
 10
34.47264160442595
 20
24.14191374667388
 30
0.0
 11
34.78514331129016
 21
24.14191374667388
 31
0.0
  0
LINE
  5
42A
330
1F
100
AcDbEntity
  8
OBJECT
  6
SLD-Solid
370
    25
100
AcDbLine
 10
46.03514039913259
 20
24.14191374667395
 30
0.0
 11
46.34764160442595
 21
24.14191374667395
 31
0.0
  0
LINE
  5
42B
330
1F
100
AcDbEntity
  8
OBJECT
  6
SLD-Solid
370
    25
100
AcDbLine
 10
33.42822779515004
 20
14.21771352696127
 30
0.0
 11
33.44937028790751
 21
14.23885601971875
 31
0.0
  0
LINE
  5
42C
330
1F
100
AcDbEntity
  8
OBJECT
  6
SLD-Solid
370
    25
100
AcDbLine
 10
35.64959379515005
 20
11.99634752696129
 30
0.0
 11
35.56462550897863
 21
12.08131581313271
 31
0.0
  0
LINE
  5
42D
330
1F
100
AcDbEntity
  8
OBJECT
  6
SLD-Solid
370
    25
100
AcDbLine
 10
33.57171564985823
 20
14.07422567225308
 30
0.0
 11
33.42822779515004
 21
14.21771352696127
 31
0.0
  0
LINE
  5
42E
330
1F
100
AcDbEntity
  8
OBJECT
  6
SLD-Solid
370
    25
100
AcDbLine
 10
35.64959379515005
 20
11.99634752696129
 30
0.0
 11
35.67073628790753
 21
12.01749001971876
 31
0.0
  0
LINE
  5
42F
330
1F
100
AcDbEntity
  8
OBJECT
  6
SLD-Solid
370
    25
100
AcDbLine
 10
35.67073628790753
 20
12.01749001971876
 30
0.0
 11
35.55245419098003
 21
12.13577211664627
 31
0.0
  0
LINE
  5
430
330
1F
100
AcDbEntity
  8
OBJECT
  6
SLD-Solid
370
    25
100
AcDbLine
 10
33.5928581426157
 20
14.09536816501056
 30
0.0
 11
33.44937028790751
 21
14.23885601971875
 31
0.0
  0
LINE
  5
431
330
1F
100
AcDbEntity
  8
OBJECT
  6
SLD-Solid
370
    25
100
AcDbLine
 10
33.39522469479033
 20
14.29734233843447
 30
0.0
 11
33.42512469479033
 21
14.29734233843447
 31
0.0
  0
LINE
  5
432
330
1F
100
AcDbEntity
  8
OBJECT
  6
SLD-Solid
370
    25
100
AcDbLine
 10
33.39522469479033
 20
14.29734233843447
 30
0.0
 11
33.39522469479033
 21
14.49507811261415
 31
0.0
  0
LINE
  5
433
330
1F
100
AcDbEntity
  8
OBJECT
  6
SLD-Solid
370
    25
100
AcDbLine
 10
33.39522469479033
 20
16.24507811261415
 30
0.0
 11
33.3952246947903
 21
23.09439433764907
 31
0.0
  0
LINE
  5
434
330
1F
100
AcDbEntity
  8
OBJECT
  6
SLD-Solid
370
    25
100
AcDbLine
 10
33.3952246947903
 20
23.09439433764907
 30
0.0
 11
33.4251246947903
 21
23.09439433764907
 31
0.0
  0
LINE
  5
435
330
1F
100
AcDbEntity
  8
OBJECT
  6
SLD-Solid
370
    25
100
AcDbLine
 10
33.42512469479033
 20
14.29734233843447
 30
0.0
 11
33.42512469479033
 21
14.49507811261415
 31
0.0
  0
LINE
  5
436
330
1F
100
AcDbEntity
  8
OBJECT
  6
SLD-Solid
370
    25
100
AcDbLine
 10
33.42512469479032
 20
16.24507811261415
 30
0.0
 11
33.42512469479032
 21
16.31571374667391
 31
0.0
  0
LINE
  5
437
330
1F
100
AcDbEntity
  8
OBJECT
  6
SLD-Solid
370
    25
100
AcDbLine
 10
33.42512469479031
 20
21.37871374667392
 30
0.0
 11
33.4251246947903
 21
23.09439433764907
 31
0.0
  0
SPLINE
  5
438
330
1F
100
AcDbEntity
  8
OBJECT
  6
SLD-Solid
370
    25
100
AcDbSpline
210
0.0
220
0.0
230
1.0
 70
    12
 71
     3
 72
     9
 73
     5
 74
     0
 42
0.00000001
 43
0.00000001
 40
0.0
 40
0.0
 40
0.0
 40
0.0
 40
0.4999999999999877
 40
1.0
 40
1.0
 40
1.0
 40
1.0
 10
47.36739020369212
 20
14.24237873501086
 30
0.0
 41
1.0
 10
47.36840844493582
 20
14.24136048399449
 30
0.0
 41
1.0
 10
47.37044492742321
 20
14.23932398196175
 30
0.0
 41
1.0
 10
47.37075656693079
 20
14.23901232213235
 30
0.0
 41
1.0
 10
47.37091238668459
 20
14.23885649221765
 30
0.0
 41
1.0
  0
SPLINE
  5
439
330
1F
100
AcDbEntity
  8
OBJECT
  6
SLD-Solid
370
    25
100
AcDbSpline
210
0.0
220
0.0
230
1.0
 70
    12
 71
     3
 72
     9
 73
     5
 74
     0
 42
0.00000001
 43
0.00000001
 40
0.0
 40
0.0
 40
0.0
 40
0.0
 40
0.5000000000000034
 40
1.0
 40
1.0
 40
1.0
 40
1.0
 10
45.1495473866846
 20
12.01749049221763
 30
0.0
 41
1.0
 10
45.1493915669308
 20
12.01764632213234
 30
0.0
 41
1.0
 10
45.14907992742322
 20
12.01795798196174
 30
0.0
 41
1.0
 10
45.14704344493583
 20
12.01999448399448
 30
0.0
 41
1.0
 10
45.14602520369214
 20
12.02101273501084
 30
0.0
 41
1.0
  0
SPLINE
  5
43A
330
1F
100
AcDbEntity
  8
OBJECT
  6
SLD-Solid
370
    25
100
AcDbSpline
210
0.0
220
0.0
230
1.0
 70
    12
 71
     3
 72
     9
 73
     5
 74
     0
 42
0.00000001
 43
0.00000001
 40
0.0
 40
0.0
 40
0.0
 40
0.0
 40
0.4999999999999901
 40
0.9999999999999999
 40
0.9999999999999999
 40
0.9999999999999999
 40
0.9999999999999999
 10
45.14602520369213
 20
12.02101273501084
 30
0.0
 41
1.0
 10
45.13807771052718
 20
12.01800514499331
 30
0.0
 41
1.0
 10
45.12218272419727
 20
12.01198996495825
 30
0.0
 41
1.0
 10
45.1036683076689
 20
12.00859421394244
 30
0.0
 41
1.0
 10
45.09441109940472
 20
12.00689633843455
 30
0.0
 41
1.0
  0
LINE
  5
43B
330
1F
100
AcDbEntity
  8
OBJECT
  6
SLD-Solid
370
    25
100
AcDbLine
 10
47.33150645099356
 20
14.2439926971048
 30
0.0
 11
47.3289239801877
 21
14.23084480688162
 31
0.0
  0
SPLINE
  5
43C
330
1F
100
AcDbEntity
  8
OBJECT
  6
SLD-Solid
370
    25
100
AcDbSpline
210
0.0
220
0.0
230
1.0
 70
    12
 71
     3
 72
     9
 73
     5
 74
     0
 42
0.00000001
 43
0.00000001
 40
0.0
 40
0.0
 40
0.0
 40
0.0
 40
0.5000000000000082
 40
1.0
 40
1.0
 40
1.0
 40
1.0
 10
47.3289239801877
 20
14.23084480688162
 30
0.0
 41
1.0
 10
47.33579808549109
 20
14.23230406039229
 30
0.0
 41
1.0
 10
47.34954629609787
 20
14.23522256741365
 30
0.0
 41
1.0
 10
47.36144223449404
 20
14.23999334581179
 30
0.0
 41
1.0
 10
47.36739020369212
 20
14.24237873501086
 30
0.0
 41
1.0
  0
LINE
  5
43D
330
1F
100
AcDbEntity
  8
OBJECT
  6
SLD-Solid
370
    25
100
AcDbLine
 10
47.33150645099356
 20
14.2439926971048
 30
0.0
 11
47.33393898928576
 21
14.22582980004117
 31
0.0
  0
SPLINE
  5
43E
330
1F
100
AcDbEntity
  8
OBJECT
  6
SLD-Solid
370
    25
100
AcDbSpline
210
0.0
220
0.0
230
1.0
 70
    12
 71
     3
 72
    11
 73
     7
 74
     0
 42
0.00000001
 43
0.00000001
 40
0.0
 40
0.0
 40
0.0
 40
0.0
 40
0.2499999999999921
 40
0.4999999999999964
 40
0.7500000000000048
 40
1.0
 40
1.0
 40
1.0
 40
1.0
 10
45.16382397486416
 20
12.00321397185136
 30
0.0
 41
1.0
 10
45.15891003691545
 20
12.00265036778557
 30
0.0
 41
1.0
 10
45.14908216101803
 20
12.001523159654
 30
0.0
 41
1.0
 10
45.1318616095383
 20
12.0023110839744
 30
0.0
 41
1.0
 10
45.11349498781823
 20
12.0042450780192
 30
0.0
 41
1.0
 10
45.10077239554256
 20
12.00601258496276
 30
0.0
 41
1.0
 10
45.09441109940472
 20
12.00689633843455
 30
0.0
 41
1.0
  0
LINE
  5
43F
330
1F
100
AcDbEntity
  8
OBJECT
  6
SLD-Solid
370
    25
100
AcDbLine
 10
33.48634418712351
 20
14.22582992068007
 30
0.0
 11
33.48877660607418
 21
14.2439918609969
 31
0.0
  0
SPLINE
  5
440
330
1F
100
AcDbEntity
  8
OBJECT
  6
SLD-Solid
370
    25
100
AcDbSpline
210
0.0
220
0.0
230
1.0
 70
    12
 71
     3
 72
    11
 73
     7
 74
     0
 42
0.00000001
 43
0.00000001
 40
0.0
 40
0.0
 40
0.0
 40
0.0
 40
0.2500000000000182
 40
0.5000000000000022
 40
0.7499999999999981
 40
1.0
 40
1.0
 40
1.0
 40
1.0
 10
35.72587212863663
 20
12.00689633843449
 30
0.0
 41
1.0
 10
35.71951083102675
 20
12.00601258432572
 30
0.0
 41
1.0
 10
35.70678823580698
 20
12.00424507610818
 30
0.0
 41
1.0
 10
35.68842160959606
 20
12.00231108040061
 30
0.0
 41
1.0
 10
35.67120105350609
 20
12.00152315481397
 30
0.0
 41
1.0
 10
35.66137317436304
 20
12.00265036267316
 30
0.0
 41
1.0
 10
35.65645923479153
 20
12.00321396660275
 30
0.0
 41
1.0
  0
SPLINE
  5
441
330
1F
100
AcDbEntity
  8
OBJECT
  6
SLD-Solid
370
    25
100
AcDbSpline
210
0.0
220
0.0
230
1.0
 70
    12
 71
     3
 72
     9
 73
     5
 74
     0
 42
0.00000001
 43
0.00000001
 40
0.0
 40
0.0
 40
0.0
 40
0.0
 40
0.4999999999999824
 40
1.0
 40
1.0
 40
1.0
 40
1.0
 10
35.67425800195723
 20
12.02101273376847
 30
0.0
 41
1.0
 10
35.67323976000029
 20
12.01999448298526
 30
0.0
 41
1.0
 10
35.67120327608642
 20
12.01795798141884
 30
0.0
 41
1.0
 10
35.67089163517072
 20
12.01764632285062
 30
0.0
 41
1.0
 10
35.67073581471288
 20
12.01749049356651
 30
0.0
 41
1.0
  0
LINE
  5
442
330
1F
100
AcDbEntity
  8
OBJECT
  6
SLD-Solid
370
    25
100
AcDbLine
 10
33.44937028823406
 20
14.23885602004529
 30
0.0
 11
33.45289268495534
 21
14.24237841676658
 31
0.0
  0
SPLINE
  5
443
330
1F
100
AcDbEntity
  8
OBJECT
  6
SLD-Solid
370
    25
100
AcDbSpline
210
0.0
220
0.0
230
1.0
 70
    12
 71
     3
 72
     9
 73
     5
 74
     0
 42
0.00000001
 43
0.00000001
 40
0.0
 40
0.0
 40
0.0
 40
0.0
 40
0.4999999999999467
 40
0.9999999999999999
 40
0.9999999999999999
 40
0.9999999999999999
 40
0.9999999999999999
 10
33.45289268495534
 20
14.24237841676658
 30
0.0
 41
1.0
 10
33.45884067034088
 20
14.23999306910967
 30
0.0
 41
1.0
 10
33.47073664111198
 20
14.23522237379587
 30
0.0
 41
1.0
 10
33.48448483591728
 20
14.23230390251628
 30
0.0
 41
1.0
 10
33.49135893331994
 20
14.23084466687649
 30
0.0
 41
1.0
  0
LINE
  5
444
330
1F
100
AcDbEntity
  8
OBJECT
  6
SLD-Solid
370
    25
100
AcDbLine
 10
33.49135893331994
 20
14.23084466687649
 30
0.0
 11
33.48877660607418
 21
14.2439918609969
 31
0.0
  0
SPLINE
  5
445
330
1F
100
AcDbEntity
  8
OBJECT
  6
SLD-Solid
370
    25
100
AcDbSpline
210
0.0
220
0.0
230
1.0
 70
    12
 71
     3
 72
     9
 73
     5
 74
     0
 42
0.00000001
 43
0.00000001
 40
0.0
 40
0.0
 40
0.0
 40
0.0
 40
0.4999999999999926
 40
0.9999999999999999
 40
0.9999999999999999
 40
0.9999999999999999
 40
0.9999999999999999
 10
35.72587212863663
 20
12.00689633843449
 30
0.0
 41
1.0
 10
35.71661491663349
 20
12.00859421343357
 30
0.0
 41
1.0
 10
35.6981004926272
 20
12.01198996343174
 30
0.0
 41
1.0
 10
35.68220549884722
 20
12.01800514365622
 30
0.0
 41
1.0
 10
35.67425800195723
 20
12.02101273376847
 30
0.0
 41
1.0
  0
LINE
  5
446
330
1F
100
AcDbEntity
  8
OBJECT
  6
SLD-Solid
370
    25
100
AcDbLine
 10
47.3636629526403
 20
23.09439633843456
 30
0.0
 11
47.39515901563242
 21
23.09439633843456
 31
0.0
  0
LINE
  5
447
330
1F
100
AcDbEntity
  8
OBJECT
  6
SLD-Solid
370
    25
100
AcDbLine
 10
47.39017794011951
 20
16.29507428636259
 30
0.0
 11
47.39017794044754
 21
16.26939732098127
 31
0.0
  0
SPLINE
  5
448
330
1F
100
AcDbEntity
  8
OBJECT
  6
SLD-Solid
370
    25
100
AcDbSpline
210
0.0
220
0.0
230
1.0
 70
    12
 71
     3
 72
     9
 73
     5
 74
     0
 42
0.00000001
 43
0.00000001
 40
0.0
 40
0.0
 40
0.0
 40
0.0
 40
0.4999999984818476
 40
1.0
 40
1.0
 40
1.0
 40
1.0
 10
47.39017794044754
 20
16.26939732098127
 30
0.0
 41
1.0
 10
47.39161793314841
 20
16.26939728583055
 30
0.0
 41
1.0
 10
47.39449791855888
 20
16.26939721552913
 30
0.0
 41
1.0
 10
47.39493864994083
 20
16.26939714522771
 30
0.0
 41
1.0
 10
47.39515901563247
 20
16.269397110077
 30
0.0
 41
1.0
  0
LINE
  5
449
330
1F
100
AcDbEntity
  8
OBJECT
  6
SLD-Solid
370
    25
100
AcDbLine
 10
47.39515901563248
 20
14.29734333843456
 30
0.0
 11
47.36366295264035
 21
14.29734333843456
 31
0.0
  0
SPLINE
  5
44A
330
1F
100
AcDbEntity
  8
OBJECT
  6
SLD-Solid
370
    25
100
AcDbSpline
210
0.0
220
0.0
230
1.0
 70
    12
 71
     3
 72
    11
 73
     7
 74
     0
 42
0.00000001
 43
0.00000001
 40
0.0
 40
0.0
 40
0.0
 40
0.0
 40
0.2500000175163985
 40
0.500000035032785
 40
0.750000052549156
 40
1.0
 40
1.0
 40
1.0
 40
1.0
 10
34.47264160604836
 20
24.11041768368175
 30
0.0
 41
1.0
 10
34.47264160591315
 20
24.1145448370855
 30
0.0
 41
1.0
 10
34.47264160564276
 20
24.12279914389299
 30
0.0
 41
1.0
 10
34.47264160523715
 20
24.1332100123239
 30
0.0
 41
1.0
 10
34.47264160483154
 20
24.14049346145716
 30
0.0
 41
1.0
 10
34.47264160456115
 20
24.14144031831253
 30
0.0
 41
1.0
 10
34.47264160442595
 20
24.14191374667388
 30
0.0
 41
1.0
  0
LINE
  5
44B
330
1F
100
AcDbEntity
  8
OBJECT
  6
SLD-Solid
370
    25
100
AcDbLine
 10
46.34764160442595
 20
24.14191374667395
 30
0.0
 11
46.34764160442595
 21
24.11041768368182
 31
0.0
  0
LINE
  5
44C
330
1F
100
AcDbEntity
  8
OBJECT
  6
SLD-Solid
370
    25
100
AcDbLine
 10
33.4251246947903
 20
23.09439433764907
 30
0.0
 11
33.4566206042449
 21
23.09439433764907
 31
0.0
  0
LINE
  5
44D
330
1F
100
AcDbEntity
  8
OBJECT
  6
SLD-Solid
370
    25
100
AcDbLine
 10
33.43010567339034
 20
16.24507811261415
 30
0.0
 11
33.43010567339034
 21
16.29507428635949
 31
0.0
  0
LINE
  5
44E
330
1F
100
AcDbEntity
  8
OBJECT
  6
SLD-Solid
370
    25
100
AcDbLine
 10
33.45662078313507
 20
14.29734233843447
 30
0.0
 11
33.42512469479033
 21
14.29734233843447
 31
0.0
  0
LINE
  5
44F
330
1F
100
AcDbEntity
  8
OBJECT
  6
SLD-Solid
370
    25
100
AcDbLine
 10
33.48877660592511
 20
14.2482623401798
 30
0.0
 11
33.48877660607418
 21
14.2439918609969
 31
0.0
  0
LINE
  5
450
330
1F
100
AcDbEntity
  8
OBJECT
  6
SLD-Solid
370
    25
100
AcDbLine
 10
33.48450612704034
 20
14.24826234003073
 30
0.0
 11
33.48877660592511
 21
14.2482623401798
 31
0.0
  0
LINE
  5
451
330
1F
100
AcDbEntity
  8
OBJECT
  6
SLD-Solid
370
    25
100
AcDbLine
 10
33.45542612705588
 20
14.2773423400152
 30
0.0
 11
33.48450612704034
 21
14.24826234003073
 31
0.0
  0
LINE
  5
452
330
1F
100
AcDbEntity
  8
OBJECT
  6
SLD-Solid
370
    25
100
AcDbLine
 10
33.4586393292325
 20
14.27734234012736
 30
0.0
 11
33.45542612705588
 21
14.2773423400152
 31
0.0
  0
LINE
  5
453
330
1F
100
AcDbEntity
  8
OBJECT
  6
SLD-Solid
370
    25
100
AcDbLine
 10
33.45863932853437
 20
14.29734234012736
 30
0.0
 11
33.4586393292325
 21
14.27734234012736
 31
0.0
  0
LINE
  5
454
330
1F
100
AcDbEntity
  8
OBJECT
  6
SLD-Solid
370
    25
100
AcDbLine
 10
33.45863932853437
 20
14.29734234012736
 30
0.0
 11
33.45662078313507
 21
14.29734233843447
 31
0.0
  0
LINE
  5
455
330
1F
100
AcDbEntity
  8
OBJECT
  6
SLD-Solid
370
    25
100
AcDbLine
 10
33.4566206042449
 20
23.09439433764907
 30
0.0
 11
33.45863902145929
 21
23.0943943393944
 31
0.0
  0
LINE
  5
456
330
1F
100
AcDbEntity
  8
OBJECT
  6
SLD-Solid
370
    25
100
AcDbLine
 10
33.45863901927756
 20
23.15689633934194
 30
0.0
 11
33.45863902145929
 21
23.0943943393944
 31
0.0
  0
LINE
  5
457
330
1F
100
AcDbEntity
  8
OBJECT
  6
SLD-Solid
370
    25
100
AcDbLine
 10
33.45863901927756
 20
23.15689633934194
 30
0.0
 11
33.38840870316119
 21
23.15689633689044
 31
0.0
  0
ARC
  5
458
330
1F
100
AcDbEntity
  8
OBJECT
  6
SLD-Solid
370
    25
100
AcDbCircle
 10
34.37014260442545
 20
23.19689733625327
 30
0.0
 40
1.000000000000002
100
AcDbArc
 50
110.3191545609642
 51
141.8057968411875
  0
LINE
  5
459
330
1F
100
AcDbEntity
  8
OBJECT
  6
SLD-Solid
370
    25
100
AcDbLine
 10
34.41014197738642
 20
24.17181375512363
 30
0.0
 11
34.41014160442595
 21
24.15689533625282
 31
0.0
  0
LINE
  5
45A
330
1F
100
AcDbEntity
  8
OBJECT
  6
SLD-Solid
370
    25
100
AcDbLine
 10
34.41014160617124
 20
24.10689633407115
 30
0.0
 11
34.41014160442595
 21
24.15689533625282
 31
0.0
  0
LINE
  5
45B
330
1F
100
AcDbEntity
  8
OBJECT
  6
SLD-Solid
370
    25
100
AcDbLine
 10
34.47264160617127
 20
24.10689633625281
 30
0.0
 11
34.41014160617124
 21
24.10689633407115
 31
0.0
  0
LINE
  5
45C
330
1F
100
AcDbEntity
  8
OBJECT
  6
SLD-Solid
370
    25
100
AcDbLine
 10
34.47264160604836
 20
24.11041768368175
 30
0.0
 11
34.47264160617127
 21
24.10689633625281
 31
0.0
  0
LINE
  5
45D
330
1F
100
AcDbEntity
  8
OBJECT
  6
SLD-Solid
370
    25
100
AcDbLine
 10
46.34764160442595
 20
24.11041768368182
 30
0.0
 11
46.34764160617127
 21
24.10689675076857
 31
0.0
  0
LINE
  5
45E
330
1F
100
AcDbEntity
  8
OBJECT
  6
SLD-Solid
370
    25
100
AcDbLine
 10
46.41014160617127
 20
24.10689675295023
 30
0.0
 11
46.34764160617127
 21
24.10689675076857
 31
0.0
  0
LINE
  5
45F
330
1F
100
AcDbEntity
  8
OBJECT
  6
SLD-Solid
370
    25
100
AcDbLine
 10
46.41014160617127
 20
24.10689675295023
 30
0.0
 11
46.41014160390524
 21
24.17181375512363
 31
0.0
  0
ARC
  5
460
330
1F
100
AcDbEntity
  8
OBJECT
  6
SLD-Solid
370
    25
100
AcDbCircle
 10
46.4501416030317
 20
23.19689533843506
 30
0.0
 40
0.9999999999999984
100
AcDbArc
 50
38.20023689151941
 51
69.6689849884479
  0
LINE
  5
461
330
1F
100
AcDbEntity
  8
OBJECT
  6
SLD-Solid
370
    25
100
AcDbLine
 10
47.43187500726154
 20
23.15689579508587
 30
0.0
 11
47.41014160302969
 21
23.15689633843456
 31
0.0
  0
LINE
  5
462
330
1F
100
AcDbEntity
  8
OBJECT
  6
SLD-Solid
370
    25
100
AcDbLine
 10
47.36014129595463
 20
23.15689633668922
 30
0.0
 11
47.41014160302969
 21
23.15689633843456
 31
0.0
  0
LINE
  5
463
330
1F
100
AcDbEntity
  8
OBJECT
  6
SLD-Solid
370
    25
100
AcDbLine
 10
47.36014129813629
 20
23.09439633668923
 30
0.0
 11
47.36014129595463
 21
23.15689633668922
 31
0.0
  0
LINE
  5
464
330
1F
100
AcDbEntity
  8
OBJECT
  6
SLD-Solid
370
    25
100
AcDbLine
 10
47.36014129813629
 20
23.09439633668923
 30
0.0
 11
47.3636629526403
 21
23.09439633843456
 31
0.0
  0
LINE
  5
465
330
1F
100
AcDbEntity
  8
OBJECT
  6
SLD-Solid
370
    25
100
AcDbLine
 10
47.36366295264035
 20
14.29734333843456
 30
0.0
 11
47.36014160521141
 21
14.29734333668923
 31
0.0
  0
LINE
  5
466
330
1F
100
AcDbEntity
  8
OBJECT
  6
SLD-Solid
370
    25
100
AcDbLine
 10
47.36014160590955
 20
14.27734333668923
 30
0.0
 11
47.36014160521141
 21
14.29734333668923
 31
0.0
  0
LINE
  5
467
330
1F
100
AcDbEntity
  8
OBJECT
  6
SLD-Solid
370
    25
100
AcDbLine
 10
47.36485707572902
 20
14.27734333685383
 30
0.0
 11
47.36014160590955
 21
14.27734333668923
 31
0.0
  0
LINE
  5
468
330
1F
100
AcDbEntity
  8
OBJECT
  6
SLD-Solid
370
    25
100
AcDbLine
 10
47.33577613036506
 20
14.24826237839841
 30
0.0
 11
47.36485707572902
 21
14.27734333685383
 31
0.0
  0
LINE
  5
469
330
1F
100
AcDbEntity
  8
OBJECT
  6
SLD-Solid
370
    25
100
AcDbLine
 10
47.33150645084452
 20
14.24826233668923
 30
0.0
 11
47.33577613036506
 21
14.24826237839841
 31
0.0
  0
LINE
  5
46A
330
1F
100
AcDbEntity
  8
OBJECT
  6
SLD-Solid
370
    25
100
AcDbLine
 10
47.33150645099356
 20
14.2439926971048
 30
0.0
 11
47.33150645084452
 21
14.24826233668923
 31
0.0
  0
LINE
  5
46B
330
1F
100
AcDbEntity
  8
OBJECT
  6
SLD-Solid
370
    25
100
AcDbLine
 10
45.09441109940472
 20
12.00689633843455
 30
0.0
 11
35.72587212863664
 21
12.00689633843449
 31
0.0
  0
LINE
  5
46C
330
1F
100
AcDbEntity
  8
OBJECT
  6
SLD-Solid
370
    25
100
AcDbLine
 10
47.41014160590954
 20
14.27734333843456
 30
0.0
 11
47.36485707572902
 21
14.27734333685383
 31
0.0
  0
LINE
  5
46D
330
1F
100
AcDbEntity
  8
OBJECT
  6
SLD-Solid
370
    25
100
AcDbLine
 10
47.41014160590954
 20
14.27734333843456
 30
0.0
 11
47.41014160662324
 21
14.25689733843456
 31
0.0
  0
LINE
  5
46E
330
1F
100
AcDbEntity
  8
OBJECT
  6
SLD-Solid
370
    25
100
AcDbLine
 10
47.38150674479775
 20
14.24826282512667
 30
0.0
 11
47.39150659816097
 21
14.23826232997228
 31
0.0
  0
LINE
  5
46F
330
1F
100
AcDbEntity
  8
OBJECT
  6
SLD-Solid
370
    25
100
AcDbLine
 10
47.33577613036506
 20
14.24826237839841
 30
0.0
 11
47.38150674479775
 21
14.24826282512667
 31
0.0
  0
LINE
  5
470
330
1F
100
AcDbEntity
  8
OBJECT
  6
SLD-Solid
370
    25
100
AcDbLine
 10
47.41014160662324
 20
14.25689733843456
 30
0.0
 11
47.39150659816097
 21
14.23826232997228
 31
0.0
  0
LINE
  5
471
330
1F
100
AcDbEntity
  8
OBJECT
  6
SLD-Solid
370
    25
100
AcDbLine
 10
33.43877660592511
 20
14.24826233843447
 30
0.0
 11
33.48450612704034
 21
14.24826234003073
 31
0.0
  0
LINE
  5
472
330
1F
100
AcDbEntity
  8
OBJECT
  6
SLD-Solid
370
    25
100
AcDbLine
 10
33.42877660628026
 20
14.23826198955446
 30
0.0
 11
33.43877660592511
 21
14.24826233843447
 31
0.0
  0
LINE
  5
473
330
1F
100
AcDbEntity
  8
OBJECT
  6
SLD-Solid
370
    25
100
AcDbLine
 10
33.41014160662324
 20
14.25689633843447
 30
0.0
 11
33.41014160590954
 21
14.27734233843447
 31
0.0
  0
LINE
  5
474
330
1F
100
AcDbEntity
  8
OBJECT
  6
SLD-Solid
370
    25
100
AcDbLine
 10
33.42877660628026
 20
14.23826198955446
 30
0.0
 11
33.41014160662324
 21
14.25689633843447
 31
0.0
  0
LINE
  5
475
330
1F
100
AcDbEntity
  8
OBJECT
  6
SLD-Solid
370
    25
100
AcDbLine
 10
33.45542612705588
 20
14.2773423400152
 30
0.0
 11
33.41014160590954
 21
14.27734233843447
 31
0.0
  0
LINE
  5
476
330
1F
100
AcDbEntity
  8
0
  6
SLD-Solid
 62
     7
370
    25
100
AcDbLine
 10
45.36064185521137
 20
23.70679633625284
 30
0.0
 11
44.9601423552114
 21
23.70679633625284
 31
0.0
  0
LINE
  5
477
330
1F
100
AcDbEntity
  8
0
  6
SLD-Solid
 62
     7
370
    25
100
AcDbLine
 10
44.9601423552114
 20
23.70679633625284
 30
0.0
 11
44.9601423552114
 21
23.95679633625284
 31
0.0
  0
LINE
  5
478
330
1F
100
AcDbEntity
  8
0
  6
SLD-Solid
 62
     7
370
    25
100
AcDbLine
 10
44.9601423552114
 20
23.95679633625284
 30
0.0
 11
35.8601413552114
 21
23.95679633625284
 31
0.0
  0
LINE
  5
479
330
1F
100
AcDbEntity
  8
0
  6
SLD-Solid
 62
     7
370
    25
100
AcDbLine
 10
35.8601413552114
 20
23.70679633625284
 30
0.0
 11
35.8601413552114
 21
23.95679633625284
 31
0.0
  0
LINE
  5
47A
330
1F
100
AcDbEntity
  8
0
  6
SLD-Solid
 62
     7
370
    25
100
AcDbLine
 10
35.45964185521146
 20
23.70679633625284
 30
0.0
 11
35.8601413552114
 21
23.70679633625284
 31
0.0
  0
LINE
  5
47B
330
1F
100
AcDbEntity
  8
0
  6
SLD-Solid
 62
     7
370
    25
100
AcDbLine
 10
34.78514329155296
 20
24.14031768368178
 30
0.0
 11
34.78514110588997
 21
24.00371374667391
 31
0.0
  0
LINE
  5
47C
330
1F
100
AcDbEntity
  8
0
  6
SLD-Solid
 62
     7
370
    25
100
AcDbLine
 10
34.78514329155296
 20
24.14031768368178
 30
0.0
 11
46.03514041886983
 21
24.14031768368178
 31
0.0
  0
LINE
  5
47D
330
1F
100
AcDbEntity
  8
0
  6
SLD-Solid
 62
     7
370
    25
100
AcDbLine
 10
46.03514041886983
 20
24.14031768368178
 30
0.0
 11
46.03514260453283
 21
24.00371374667391
 31
0.0
  0
SPLINE
  5
47E
330
1F
100
AcDbEntity
  8
0
  6
SLD-Solid
 62
     7
370
    25
100
AcDbSpline
210
0.0
220
0.0
230
1.0
 70
    12
 71
     3
 72
    11
 73
     7
 74
     0
 42
0.00000001
 43
0.00000001
 40
0.0
 40
0.0
 40
0.0
 40
0.0
 40
0.2499999999999981
 40
0.4999999999999967
 40
0.7499999999999953
 40
1.0
 40
1.0
 40
1.0
 40
1.0
 10
46.0351393552114
 20
24.20111743210373
 30
0.0
 41
1.0
 10
46.0351394438496
 20
24.19934219786417
 30
0.0
 41
1.0
 10
46.035139621126
 20
24.19579172938503
 30
0.0
 41
1.0
 10
46.03513988704061
 20
24.18137551553082
 30
0.0
 41
1.0
 10
46.03514015295523
 20
24.16230824984431
 30
0.0
 41
1.0
 10
46.03514033023163
 20
24.14764787240263
 30
0.0
 41
1.0
 10
46.03514041886983
 20
24.14031768368178
 30
0.0
 41
1.0
  0
SPLINE
  5
47F
330
1F
100
AcDbEntity
  8
0
  6
SLD-Solid
 62
     7
370
    25
100
AcDbSpline
210
0.0
220
0.0
230
1.0
 70
    12
 71
     3
 72
    11
 73
     7
 74
     0
 42
0.00000001
 43
0.00000001
 40
0.0
 40
0.0
 40
0.0
 40
0.0
 40
0.2499999999999998
 40
0.499999999999999
 40
0.7500000000000047
 40
1.0
 40
1.0
 40
1.0
 40
1.0
 10
34.7851443552114
 20
24.20111743210373
 30
0.0
 41
1.0
 10
34.7851442665732
 20
24.19934219786417
 30
0.0
 41
1.0
 10
34.78514408929679
 20
24.19579172938504
 30
0.0
 41
1.0
 10
34.78514382338219
 20
24.18137551553082
 30
0.0
 41
1.0
 10
34.78514355746757
 20
24.16230824984431
 30
0.0
 41
1.0
 10
34.78514338019117
 20
24.14764787240263
 30
0.0
 41
1.0
 10
34.78514329155296
 20
24.14031768368178
 30
0.0
 41
1.0
  0
LINE
  5
480
330
1F
100
AcDbEntity
  8
0
  6
SLD-Solid
 62
     7
370
    25
100
AcDbLine
 10
34.7851443552114
 20
24.20171374999434
 30
0.0
 11
34.7851443552114
 21
24.20111743210373
 31
0.0
  0
LINE
  5
481
330
1F
100
AcDbEntity
  8
0
  6
SLD-Solid
 62
     7
370
    25
100
AcDbLine
 10
34.7851443552114
 20
24.20171374999434
 30
0.0
 11
46.0351393552114
 21
24.20171374999434
 31
0.0
  0
LINE
  5
482
330
1F
100
AcDbEntity
  8
0
  6
SLD-Solid
 62
     7
370
    25
100
AcDbLine
 10
46.0351393552114
 20
24.20171374999434
 30
0.0
 11
46.0351393552114
 21
24.20111743210373
 31
0.0
  0
LINE
  5
483
330
1F
100
AcDbEntity
  8
0
  6
SLD-Solid
 62
     7
370
    25
100
AcDbLine
 10
47.2315597930686
 20
14.09123393974902
 30
0.0
 11
47.27497336554848
 21
14.04782036726913
 31
0.0
  0
LINE
  5
484
330
1F
100
AcDbEntity
  8
0
  6
SLD-Solid
 62
     7
370
    25
100
AcDbLine
 10
45.26423533017825
 20
12.03708233189893
 30
0.0
 11
47.27497336554848
 21
14.04782036726913
 31
0.0
  0
LINE
  5
485
330
1F
100
AcDbEntity
  8
0
  6
SLD-Solid
 62
     7
370
    25
100
AcDbLine
 10
45.26423533252616
 20
12.03708232955103
 30
0.0
 11
45.2638136721017
 21
12.03750398997547
 31
0.0
  0
SPLINE
  5
486
330
1F
100
AcDbEntity
  8
0
  6
SLD-Solid
 62
     7
370
    25
100
AcDbSpline
210
0.0
220
0.0
230
1.0
 70
    12
 71
     3
 72
    11
 73
     7
 74
     0
 42
0.00000001
 43
0.00000001
 40
0.0
 40
0.0
 40
0.0
 40
0.0
 40
0.2500000000000023
 40
0.5000000000000155
 40
0.750000000000002
 40
0.9999999999999999
 40
0.9999999999999999
 40
0.9999999999999999
 40
0.9999999999999999
 10
45.2638136721017
 20
12.03750398997548
 30
0.0
 41
1.0
 10
45.26647570368866
 20
12.04267658190074
 30
0.0
 41
1.0
 10
45.27179976686255
 20
12.05302176575126
 30
0.0
 41
1.0
 10
45.27335789955551
 20
12.07496750359492
 30
0.0
 41
1.0
 10
45.2716272419585
 20
12.10020203172857
 30
0.0
 41
1.0
 10
45.26909541316725
 20
12.11840310754424
 30
0.0
 41
1.0
 10
45.26782949877162
 20
12.12750364545207
 30
0.0
 41
1.0
  0
LINE
  5
487
330
1F
100
AcDbEntity
  8
0
  6
SLD-Solid
 62
     7
370
    25
100
AcDbLine
 10
45.26782949877161
 20
12.12750364545207
 30
0.0
 11
47.23155979306858
 21
14.09123393974903
 31
0.0
  0
LINE
  5
488
330
1F
100
AcDbEntity
  8
0
  6
SLD-Solid
 62
     7
370
    25
100
AcDbLine
 10
45.26782949877161
 20
12.12750364545207
 30
0.0
 11
45.26782997084086
 21
12.3163318179245
 31
0.0
  0
LINE
  5
489
330
1F
100
AcDbEntity
  8
0
  6
SLD-Solid
 62
     7
370
    25
100
AcDbLine
 10
45.26782997084086
 20
12.3163318179245
 30
0.0
 11
46.57146051791776
 21
14.04422643371331
 31
0.0
  0
LINE
  5
48A
330
1F
100
AcDbEntity
  8
0
  6
SLD-Solid
 62
     7
370
    25
100
AcDbLine
 10
46.57146051791776
 20
14.04422643371331
 30
0.0
 11
46.85430323039239
 21
14.32706914618792
 31
0.0
  0
ARC
  5
48B
330
1F
100
AcDbEntity
  8
0
  6
SLD-Solid
 62
     7
370
    25
100
AcDbCircle
 10
46.92501390851103
 20
14.25635846806927
 30
0.0
 40
0.1000000000000048
100
AcDbArc
 50
45.0
 51
134.9999999999964
  0
LINE
  5
48C
330
1F
100
AcDbEntity
  8
0
  6
SLD-Solid
 62
     7
370
    25
100
AcDbLine
 10
46.99572458662969
 20
14.32706914618793
 30
0.0
 11
47.2315597930686
 21
14.09123393974902
 31
0.0
  0
SPLINE
  5
48D
330
1F
100
AcDbEntity
  8
0
  6
SLD-Solid
 62
     7
370
    25
100
AcDbSpline
210
0.0
220
0.0
230
1.0
 70
    12
 71
     3
 72
    11
 73
     7
 74
     0
 42
0.00000001
 43
0.00000001
 40
0.0
 40
0.0
 40
0.0
 40
0.0
 40
0.2500000000000094
 40
0.5000000000000153
 40
0.7500000000000112
 40
1.0
 40
1.0
 40
1.0
 40
1.0
 10
45.24287652876559
 20
12.05844113331159
 30
0.0
 41
1.0
 10
45.24614988416059
 20
12.0630024014288
 30
0.0
 41
1.0
 10
45.25269659495061
 20
12.07212493766321
 30
0.0
 41
1.0
 10
45.25921912870879
 20
12.08910627444165
 30
0.0
 41
1.0
 10
45.26405451924621
 20
12.10777475444086
 30
0.0
 41
1.0
 10
45.26657117226316
 20
12.12092734844834
 30
0.0
 41
1.0
 10
45.26782949877162
 20
12.12750364545207
 30
0.0
 41
1.0
  0
LINE
  5
48E
330
1F
100
AcDbEntity
  8
0
  6
SLD-Solid
 62
     7
370
    25
100
AcDbLine
 10
45.2638136721017
 20
12.03750398997548
 30
0.0
 11
45.24287652877688
 21
12.0584411333003
 31
0.0
  0
SPLINE
  5
48F
330
1F
100
AcDbEntity
  8
0
  6
SLD-Solid
 62
     7
370
    25
100
AcDbSpline
210
0.0
220
0.0
230
1.0
 70
    12
 71
     3
 72
    11
 73
     7
 74
     0
 42
0.00000001
 43
0.00000001
 40
0.0
 40
0.0
 40
0.0
 40
0.0
 40
0.2500000000000021
 40
0.5000000000000165
 40
0.7500000000000049
 40
1.0
 40
1.0
 40
1.0
 40
1.0
 10
35.55647003832109
 20
12.03750398997548
 30
0.0
 41
1.0
 10
35.55380800673414
 20
12.04267658190074
 30
0.0
 41
1.0
 10
35.54848394356024
 20
12.05302176575126
 30
0.0
 41
1.0
 10
35.54692581086728
 20
12.07496750359493
 30
0.0
 41
1.0
 10
35.54865646846429
 20
12.10020203172857
 30
0.0
 41
1.0
 10
35.55118829725555
 20
12.11840310754424
 30
0.0
 41
1.0
 10
35.55245421165117
 20
12.12750364545207
 30
0.0
 41
1.0
  0
LINE
  5
490
330
1F
100
AcDbEntity
  8
0
  6
SLD-Solid
 62
     7
370
    25
100
AcDbLine
 10
35.55604837789664
 20
12.03708232955103
 30
0.0
 11
35.55647003832109
 21
12.03750398997548
 31
0.0
  0
LINE
  5
491
330
1F
100
AcDbEntity
  8
0
  6
SLD-Solid
 62
     7
370
    25
100
AcDbLine
 10
35.55604838024454
 20
12.03708233189893
 30
0.0
 11
33.54531034487431
 21
14.04782036726914
 31
0.0
  0
LINE
  5
492
330
1F
100
AcDbEntity
  8
0
  6
SLD-Solid
 62
     7
370
    25
100
AcDbLine
 10
33.5887239173542
 20
14.09123393974903
 30
0.0
 11
33.54531034487431
 21
14.04782036726914
 31
0.0
  0
LINE
  5
493
330
1F
100
AcDbEntity
  8
0
  6
SLD-Solid
 62
     7
370
    25
100
AcDbLine
 10
35.55245421165119
 20
12.12750364545207
 30
0.0
 11
33.58872391735421
 21
14.09123393974903
 31
0.0
  0
ARC
  5
494
330
1F
100
AcDbEntity
  8
0
  6
SLD-Solid
 62
     7
370
    25
100
AcDbCircle
 10
33.89526980191176
 20
14.25635846806927
 30
0.0
 40
0.1000000000000036
100
AcDbArc
 50
45.0
 51
135.0000000000007
  0
LINE
  5
495
330
1F
100
AcDbEntity
  8
0
  6
SLD-Solid
 62
     7
370
    25
100
AcDbLine
 10
34.24882319250502
 20
14.04422643371331
 30
0.0
 11
33.96598048003041
 21
14.32706914618792
 31
0.0
  0
LINE
  5
496
330
1F
100
AcDbEntity
  8
0
  6
SLD-Solid
 62
     7
370
    25
100
AcDbLine
 10
35.55245373958193
 20
12.3163318179245
 30
0.0
 11
34.24882319250502
 21
14.04422643371331
 31
0.0
  0
LINE
  5
497
330
1F
100
AcDbEntity
  8
0
  6
SLD-Solid
 62
     7
370
    25
100
AcDbLine
 10
35.55245421165118
 20
12.12750364545207
 30
0.0
 11
35.55245373958193
 21
12.3163318179245
 31
0.0
  0
LINE
  5
498
330
1F
100
AcDbEntity
  8
0
  6
SLD-Solid
 62
     7
370
    25
100
AcDbLine
 10
33.8245591237931
 20
14.32706914618793
 30
0.0
 11
33.5887239173542
 21
14.09123393974903
 31
0.0
  0
SPLINE
  5
499
330
1F
100
AcDbEntity
  8
0
  6
SLD-Solid
 62
     7
370
    25
100
AcDbSpline
210
0.0
220
0.0
230
1.0
 70
    12
 71
     3
 72
    11
 73
     7
 74
     0
 42
0.00000001
 43
0.00000001
 40
0.0
 40
0.0
 40
0.0
 40
0.0
 40
0.249999999999998
 40
0.5000000000000143
 40
0.7500000000000047
 40
1.0
 40
1.0
 40
1.0
 40
1.0
 10
35.57740718165721
 20
12.0584411333116
 30
0.0
 41
1.0
 10
35.57413382626221
 20
12.0630024014288
 30
0.0
 41
1.0
 10
35.56758711547219
 20
12.07212493766321
 30
0.0
 41
1.0
 10
35.56106458171401
 20
12.08910627444165
 30
0.0
 41
1.0
 10
35.55622919117658
 20
12.10777475444086
 30
0.0
 41
1.0
 10
35.55371253815964
 20
12.12092734844834
 30
0.0
 41
1.0
 10
35.55245421165117
 20
12.12750364545208
 30
0.0
 41
1.0
  0
LINE
  5
49A
330
1F
100
AcDbEntity
  8
0
  6
SLD-Solid
 62
     7
370
    25
100
AcDbLine
 10
35.55647003832109
 20
12.03750398997548
 30
0.0
 11
35.57740718164592
 21
12.05844113330031
 31
0.0
  0
LINE
  5
49B
330
1F
100
AcDbEntity
  8
0
  6
SLD-Solid
 62
     7
370
    25
100
AcDbLine
 10
47.400378926279
 20
16.24507811261415
 30
0.0
 11
47.46177498927113
 21
16.24507811261415
 31
0.0
  0
LINE
  5
49C
330
1F
100
AcDbEntity
  8
0
  6
SLD-Solid
 62
     7
370
    25
100
AcDbLine
 10
47.46177498927112
 20
14.49507811261415
 30
0.0
 11
47.46177498927113
 21
16.24507811261415
 31
0.0
  0
LINE
  5
49D
330
1F
100
AcDbEntity
  8
0
  6
SLD-Solid
 62
     7
370
    25
100
AcDbLine
 10
47.46177498927112
 20
14.49507811261415
 30
0.0
 11
47.400378926279
 21
14.49507811261415
 31
0.0
  0
LINE
  5
49E
330
1F
100
AcDbEntity
  8
0
  6
SLD-Solid
 62
     7
370
    25
100
AcDbLine
 10
47.400378926279
 20
14.49507811261415
 30
0.0
 11
47.400378926279
 21
16.24507811261415
 31
0.0
  0
LINE
  5
49F
330
1F
100
AcDbEntity
  8
0
  6
SLD-Solid
 62
     7
370
    25
100
AcDbLine
 10
33.35850872115167
 20
14.49507811261415
 30
0.0
 11
33.4199047841438
 21
14.49507811261415
 31
0.0
  0
LINE
  5
4A0
330
1F
100
AcDbEntity
  8
0
  6
SLD-Solid
 62
     7
370
    25
100
AcDbLine
 10
33.35850872115167
 20
14.49507811261415
 30
0.0
 11
33.35850872115166
 21
16.24507811261415
 31
0.0
  0
LINE
  5
4A1
330
1F
100
AcDbEntity
  8
0
  6
SLD-Solid
 62
     7
370
    25
100
AcDbLine
 10
33.4199047841438
 20
16.24507811261415
 30
0.0
 11
33.35850872115166
 21
16.24507811261415
 31
0.0
  0
LINE
  5
4A2
330
1F
100
AcDbEntity
  8
0
  6
SLD-Solid
 62
     7
370
    25
100
AcDbLine
 10
33.4199047841438
 20
14.49507811261415
 30
0.0
 11
33.4199047841438
 21
16.24507811261415
 31
0.0
  0
LINE
  5
4A3
330
1F
100
AcDbEntity
  8
0
  6
SLD-Solid
 62
     7
370
    25
100
AcDbLine
 10
47.400378926279
 20
14.49507811261415
 30
0.0
 11
47.06685757885006
 21
14.49507811261415
 31
0.0
  0
ARC
  5
4A4
330
1F
100
AcDbEntity
  8
0
  6
SLD-Solid
 62
     7
370
    25
100
AcDbCircle
 10
47.06685757885006
 20
14.59507811261414
 30
0.0
 40
0.1000000000000014
100
AcDbArc
 50
179.9999999999997
 51
270.0000000000008
  0
LINE
  5
4A5
330
1F
100
AcDbEntity
  8
0
  6
SLD-Solid
 62
     7
370
    25
100
AcDbLine
 10
46.96685757885006
 20
14.59507811261414
 30
0.0
 11
46.96685757885006
 21
16.01661152480184
 31
0.0
  0
LINE
  5
4A6
330
1F
100
AcDbEntity
  8
0
  6
SLD-Solid
 62
     7
370
    25
100
AcDbLine
 10
47.31914185521142
 20
16.24507811261415
 30
0.0
 11
47.400378926279
 21
16.24507811261415
 31
0.0
  0
ARC
  5
4A7
330
1F
100
AcDbEntity
  8
0
  6
SLD-Solid
 62
     7
370
    25
100
AcDbCircle
 10
33.75342613157274
 20
14.59507811261415
 30
0.0
 40
0.1000000000000014
100
AcDbArc
 50
270.0000000000008
 51
0.0000000000002544
  0
LINE
  5
4A8
330
1F
100
AcDbEntity
  8
0
  6
SLD-Solid
 62
     7
370
    25
100
AcDbLine
 10
33.4199047841438
 20
14.49507811261415
 30
0.0
 11
33.75342613157274
 21
14.49507811261415
 31
0.0
  0
LINE
  5
4A9
330
1F
100
AcDbEntity
  8
0
  6
SLD-Solid
 62
     7
370
    25
100
AcDbLine
 10
33.50114185521142
 20
16.24507811261415
 30
0.0
 11
33.4199047841438
 21
16.24507811261415
 31
0.0
  0
LINE
  5
4AA
330
1F
100
AcDbEntity
  8
0
  6
SLD-Solid
 62
     7
370
    25
100
AcDbLine
 10
33.85342613157274
 20
14.59507811261415
 30
0.0
 11
33.85342613157273
 21
16.01661152480182
 31
0.0
  0
ARC
  5
4AB
330
1F
100
AcDbEntity
  8
0
  6
SLD-Solid
 62
     7
370
    25
100
AcDbCircle
 10
46.43187498927115
 20
23.17181372864437
 30
0.0
 40
1.000000027044301
100
AcDbArc
 50
0.0000010330156441
 51
90.0
  0
LINE
  5
4AC
330
1F
100
AcDbEntity
  8
0
  6
SLD-Solid
 62
     7
370
    25
100
AcDbLine
 10
46.43187498927115
 20
24.17181375568867
 30
0.0
 11
46.43187498927115
 21
24.20171374667391
 31
0.0
  0
LINE
  5
4AD
330
1F
100
AcDbEntity
  8
0
  6
SLD-Solid
 62
     7
370
    25
100
AcDbLine
 10
47.43187500730069
 20
23.1718137466739
 30
0.0
 11
47.46177500730069
 21
23.1718137466739
 31
0.0
  0
ARC
  5
4AE
330
1F
100
AcDbEntity
  8
0
  6
SLD-Solid
 62
     7
370
    25
100
AcDbCircle
 10
46.43187498927115
 20
23.17181374667391
 30
0.0
 40
1.029900018029537
100
AcDbArc
 50
0.0000000000004071
 51
90.0
  0
LINE
  5
4AF
330
1F
100
AcDbEntity
  8
0
  6
SLD-Solid
 62
     7
370
    25
100
AcDbLine
 10
47.46177498927113
 20
16.29507811261415
 30
0.0
 11
47.46177500730069
 21
23.1718137466739
 31
0.0
  0
LINE
  5
4B0
330
1F
100
AcDbEntity
  8
0
  6
SLD-Solid
 62
     7
370
    25
100
AcDbLine
 10
47.46177498927113
 20
16.29507811261415
 30
0.0
 11
47.43187498927113
 21
16.29507811261415
 31
0.0
  0
LINE
  5
4B1
330
1F
100
AcDbEntity
  8
0
  6
SLD-Solid
 62
     7
370
    25
100
AcDbLine
 10
47.43187498927113
 20
16.29507811261415
 30
0.0
 11
47.43187500730069
 21
23.1718137466739
 31
0.0
  0
LINE
  5
4B2
330
1F
100
AcDbEntity
  8
0
  6
SLD-Solid
 62
     7
370
    25
100
AcDbLine
 10
46.43187498927115
 20
24.20171374667391
 30
0.0
 11
46.08513935521139
 21
24.20171374667391
 31
0.0
  0
LINE
  5
4B3
330
1F
100
AcDbEntity
  8
0
  6
SLD-Solid
 62
     7
370
    25
100
AcDbLine
 10
46.43187498927115
 20
24.17181375568867
 30
0.0
 11
46.08513935521139
 21
24.17181374667391
 31
0.0
  0
LINE
  5
4B4
330
1F
100
AcDbEntity
  8
0
  6
SLD-Solid
 62
     7
370
    25
100
AcDbLine
 10
46.08513935521139
 20
24.17181374667391
 30
0.0
 11
46.08513935521139
 21
24.20171374667391
 31
0.0
  0
LINE
  5
4B5
330
1F
100
AcDbEntity
  8
0
  6
SLD-Solid
 62
     7
370
    25
100
AcDbLine
 10
47.46177498927112
 20
14.44507811261415
 30
0.0
 11
47.43187498927112
 21
14.44507811261415
 31
0.0
  0
LINE
  5
4B6
330
1F
100
AcDbEntity
  8
0
  6
SLD-Solid
 62
     7
370
    25
100
AcDbLine
 10
47.46177498927112
 20
14.26005307295943
 30
0.0
 11
47.43187499623021
 21
14.26005307295943
 31
0.0
  0
LINE
  5
4B7
330
1F
100
AcDbEntity
  8
0
  6
SLD-Solid
 62
     7
370
    25
100
AcDbLine
 10
47.46177498927112
 20
14.26005307295943
 30
0.0
 11
47.46177498927112
 21
14.44507811261415
 31
0.0
  0
LINE
  5
4B8
330
1F
100
AcDbEntity
  8
0
  6
SLD-Solid
 62
     7
370
    25
100
AcDbLine
 10
47.43187499623021
 20
14.26005307295943
 30
0.0
 11
47.43187498927112
 21
14.44507811261415
 31
0.0
  0
LINE
  5
4B9
330
1F
100
AcDbEntity
  8
0
  6
SLD-Solid
 62
     7
370
    25
100
AcDbLine
 10
47.44379249875889
 20
14.21663950047954
 30
0.0
 11
47.42265001092224
 21
14.23778198831619
 31
0.0
  0
ARC
  5
4BA
330
1F
100
AcDbEntity
  8
0
  6
SLD-Solid
 62
     7
370
    25
100
AcDbCircle
 10
47.4003789193199
 20
14.26005307295943
 30
0.0
 40
0.0314960769103152
100
AcDbArc
 50
315.0000089516843
 51
0.0
  0
ARC
  5
4BB
330
1F
100
AcDbEntity
  8
0
  6
SLD-Solid
 62
     7
370
    25
100
AcDbCircle
 10
47.400378926279
 20
14.26005307295943
 30
0.0
 40
0.0613960629921282
100
AcDbArc
 50
315.0000000000031
 51
0.0000000000004144
  0
LINE
  5
4BC
330
1F
100
AcDbEntity
  8
0
  6
SLD-Solid
 62
     7
370
    25
100
AcDbLine
 10
47.29618656898408
 20
14.06903357070473
 30
0.0
 11
47.44379249875889
 21
14.21663950047954
 31
0.0
  0
LINE
  5
4BD
330
1F
100
AcDbEntity
  8
0
  6
SLD-Solid
 62
     7
370
    25
100
AcDbLine
 10
47.29618656898408
 20
14.06903357070473
 30
0.0
 11
47.27504407622661
 21
14.09017606346221
 31
0.0
  0
LINE
  5
4BE
330
1F
100
AcDbEntity
  8
0
  6
SLD-Solid
 62
     7
370
    25
100
AcDbLine
 10
47.27504407622661
 20
14.09017606346221
 30
0.0
 11
47.42265001092224
 21
14.23778198831619
 31
0.0
  0
LINE
  5
4BF
330
1F
100
AcDbEntity
  8
0
  6
SLD-Solid
 62
     7
370
    25
100
AcDbLine
 10
34.38840872115164
 20
24.17181375568867
 30
0.0
 11
34.38840872115164
 21
24.20171374667391
 31
0.0
  0
LINE
  5
4C0
330
1F
100
AcDbEntity
  8
0
  6
SLD-Solid
 62
     7
370
    25
100
AcDbLine
 10
34.7351443552114
 20
24.17181374667391
 30
0.0
 11
34.7351443552114
 21
24.20171374667391
 31
0.0
  0
LINE
  5
4C1
330
1F
100
AcDbEntity
  8
0
  6
SLD-Solid
 62
     7
370
    25
100
AcDbLine
 10
34.38840872115164
 20
24.20171374667391
 30
0.0
 11
34.7351443552114
 21
24.20171374667391
 31
0.0
  0
LINE
  5
4C2
330
1F
100
AcDbEntity
  8
0
  6
SLD-Solid
 62
     7
370
    25
100
AcDbLine
 10
34.38840872115164
 20
24.17181375568867
 30
0.0
 11
34.7351443552114
 21
24.17181374667391
 31
0.0
  0
ARC
  5
4C3
330
1F
100
AcDbEntity
  8
0
  6
SLD-Solid
 62
     7
370
    25
100
AcDbCircle
 10
34.38840872115164
 20
23.17181372864437
 30
0.0
 40
1.000000027044301
100
AcDbArc
 50
90.0
 51
179.9999989669842
  0
LINE
  5
4C4
330
1F
100
AcDbEntity
  8
0
  6
SLD-Solid
 62
     7
370
    25
100
AcDbLine
 10
33.38840870312211
 20
23.1718137466739
 30
0.0
 11
33.35850870312211
 21
23.1718137466739
 31
0.0
  0
ARC
  5
4C5
330
1F
100
AcDbEntity
  8
0
  6
SLD-Solid
 62
     7
370
    25
100
AcDbCircle
 10
34.38840872115164
 20
23.17181374667391
 30
0.0
 40
1.029900018029529
100
AcDbArc
 50
90.0
 51
180.0000000000012
  0
LINE
  5
4C6
330
1F
100
AcDbEntity
  8
0
  6
SLD-Solid
 62
     7
370
    25
100
AcDbLine
 10
33.35850872115166
 20
16.29507811261415
 30
0.0
 11
33.38840872115166
 21
16.29507811261415
 31
0.0
  0
LINE
  5
4C7
330
1F
100
AcDbEntity
  8
0
  6
SLD-Solid
 62
     7
370
    25
100
AcDbLine
 10
33.35850872115166
 20
16.29507811261415
 30
0.0
 11
33.35850870312211
 21
23.1718137466739
 31
0.0
  0
LINE
  5
4C8
330
1F
100
AcDbEntity
  8
0
  6
SLD-Solid
 62
     7
370
    25
100
AcDbLine
 10
33.38840872115166
 20
16.29507811261415
 30
0.0
 11
33.38840870312211
 21
23.1718137466739
 31
0.0
  0
LINE
  5
4C9
330
1F
100
AcDbEntity
  8
0
  6
SLD-Solid
 62
     7
370
    25
100
AcDbLine
 10
33.52409714143872
 20
14.06903357070473
 30
0.0
 11
33.54523963419619
 21
14.09017606346221
 31
0.0
  0
LINE
  5
4CA
330
1F
100
AcDbEntity
  8
0
  6
SLD-Solid
 62
     7
370
    25
100
AcDbLine
 10
33.37649121166391
 20
14.21663950047954
 30
0.0
 11
33.39763369950056
 21
14.2377819883162
 31
0.0
  0
LINE
  5
4CB
330
1F
100
AcDbEntity
  8
0
  6
SLD-Solid
 62
     7
370
    25
100
AcDbLine
 10
33.52409714143872
 20
14.06903357070473
 30
0.0
 11
33.37649121166391
 21
14.21663950047954
 31
0.0
  0
LINE
  5
4CC
330
1F
100
AcDbEntity
  8
0
  6
SLD-Solid
 62
     7
370
    25
100
AcDbLine
 10
33.54523963419619
 20
14.09017606346221
 30
0.0
 11
33.39763369950056
 21
14.2377819883162
 31
0.0
  0
LINE
  5
4CD
330
1F
100
AcDbEntity
  8
0
  6
SLD-Solid
 62
     7
370
    25
100
AcDbLine
 10
33.35850872115167
 20
14.44507811261415
 30
0.0
 11
33.38840872115167
 21
14.44507811261415
 31
0.0
  0
LINE
  5
4CE
330
1F
100
AcDbEntity
  8
0
  6
SLD-Solid
 62
     7
370
    25
100
AcDbLine
 10
33.35850872115167
 20
14.26005307295943
 30
0.0
 11
33.38840871419257
 21
14.26005307295943
 31
0.0
  0
LINE
  5
4CF
330
1F
100
AcDbEntity
  8
0
  6
SLD-Solid
 62
     7
370
    25
100
AcDbLine
 10
33.35850872115167
 20
14.26005307295943
 30
0.0
 11
33.35850872115167
 21
14.44507811261415
 31
0.0
  0
LINE
  5
4D0
330
1F
100
AcDbEntity
  8
0
  6
SLD-Solid
 62
     7
370
    25
100
AcDbLine
 10
33.38840871419257
 20
14.26005307295943
 30
0.0
 11
33.38840872115167
 21
14.44507811261415
 31
0.0
  0
ARC
  5
4D1
330
1F
100
AcDbEntity
  8
0
  6
SLD-Solid
 62
     7
370
    25
100
AcDbCircle
 10
33.4199047841438
 20
14.26005307295943
 30
0.0
 40
0.0613960629921309
100
AcDbArc
 50
179.9999999999996
 51
224.9999999999985
  0
ARC
  5
4D2
330
1F
100
AcDbEntity
  8
0
  6
SLD-Solid
 62
     7
370
    25
100
AcDbCircle
 10
33.4199047911029
 20
14.26005307295943
 30
0.0
 40
0.0314960769103294
100
AcDbArc
 50
180.0
 51
224.999991048315
  0
LINE
  5
4D3
330
1F
100
AcDbEntity
  8
0
  6
SLD-Solid
 62
     7
370
    25
100
AcDbLine
 10
47.29618656898408
 20
14.06903357070473
 30
0.0
 11
47.27497336554849
 21
14.04782036726913
 31
0.0
  0
LINE
  5
4D4
330
1F
100
AcDbEntity
  8
0
  6
SLD-Solid
 62
     7
370
    25
100
AcDbLine
 10
47.27504407622661
 20
14.09017606346221
 30
0.0
 11
47.25383087279101
 21
14.06896286002661
 31
0.0
  0
LINE
  5
4D5
330
1F
100
AcDbEntity
  8
0
  6
SLD-Solid
 62
     7
370
    25
100
AcDbLine
 10
33.52409714143872
 20
14.06903357070473
 30
0.0
 11
33.54531034487431
 21
14.04782036726913
 31
0.0
  0
LINE
  5
4D6
330
1F
100
AcDbEntity
  8
0
  6
SLD-Solid
 62
     7
370
    25
100
AcDbLine
 10
33.54523963419619
 20
14.09017606346221
 30
0.0
 11
33.56645283763179
 21
14.06896286002661
 31
0.0
  0
LINE
  5
4D7
330
1F
100
AcDbEntity
  8
0
  6
SLD-Solid
 62
     7
370
    25
100
AcDbLine
 10
46.0351393552114
 20
24.20171374667391
 30
0.0
 11
46.08513935521139
 21
24.20171374667391
 31
0.0
  0
LINE
  5
4D8
330
1F
100
AcDbEntity
  8
0
  6
SLD-Solid
 62
     7
370
    25
100
AcDbLine
 10
46.0351393552114
 20
24.17181374667391
 30
0.0
 11
46.08513935521139
 21
24.17181374667391
 31
0.0
  0
LINE
  5
4D9
330
1F
100
AcDbEntity
  8
0
  6
SLD-Solid
 62
     7
370
    25
100
AcDbLine
 10
47.46177498927113
 20
16.29507811261415
 30
0.0
 11
47.46177498927113
 21
16.24507811261415
 31
0.0
  0
LINE
  5
4DA
330
1F
100
AcDbEntity
  8
0
  6
SLD-Solid
 62
     7
370
    25
100
AcDbLine
 10
47.43187498927113
 20
16.29507811261415
 30
0.0
 11
47.43187498927113
 21
16.24507811261415
 31
0.0
  0
LINE
  5
4DB
330
1F
100
AcDbEntity
  8
0
  6
SLD-Solid
 62
     7
370
    25
100
AcDbLine
 10
47.46177498927112
 20
14.49507811261415
 30
0.0
 11
47.46177498927112
 21
14.44507811261415
 31
0.0
  0
LINE
  5
4DC
330
1F
100
AcDbEntity
  8
0
  6
SLD-Solid
 62
     7
370
    25
100
AcDbLine
 10
47.43187498927112
 20
14.49507811261415
 30
0.0
 11
47.43187498927112
 21
14.44507811261415
 31
0.0
  0
LINE
  5
4DD
330
1F
100
AcDbEntity
  8
0
  6
SLD-Solid
 62
     7
370
    25
100
AcDbLine
 10
34.7851443552114
 20
24.20171374667391
 30
0.0
 11
34.7351443552114
 21
24.20171374667391
 31
0.0
  0
LINE
  5
4DE
330
1F
100
AcDbEntity
  8
0
  6
SLD-Solid
 62
     7
370
    25
100
AcDbLine
 10
34.7851443552114
 20
24.17181374667391
 30
0.0
 11
34.7351443552114
 21
24.17181374667391
 31
0.0
  0
LINE
  5
4DF
330
1F
100
AcDbEntity
  8
0
  6
SLD-Solid
 62
     7
370
    25
100
AcDbLine
 10
33.35850872115166
 20
16.29507811261415
 30
0.0
 11
33.35850872115166
 21
16.24507811261415
 31
0.0
  0
LINE
  5
4E0
330
1F
100
AcDbEntity
  8
0
  6
SLD-Solid
 62
     7
370
    25
100
AcDbLine
 10
33.38840872115166
 20
16.29507811261415
 30
0.0
 11
33.38840872115166
 21
16.24507811261415
 31
0.0
  0
LINE
  5
4E1
330
1F
100
AcDbEntity
  8
0
  6
SLD-Solid
 62
     7
370
    25
100
AcDbLine
 10
33.35850872115167
 20
14.49507811261415
 30
0.0
 11
33.35850872115167
 21
14.44507811261415
 31
0.0
  0
LINE
  5
4E2
330
1F
100
AcDbEntity
  8
0
  6
SLD-Solid
 62
     7
370
    25
100
AcDbLine
 10
33.38840872115167
 20
14.49507811261415
 30
0.0
 11
33.38840872115167
 21
14.44507811261415
 31
0.0
  0
LINE
  5
4E3
330
1F
100
AcDbEntity
  8
0
  6
SLD-Solid
 62
     7
370
    25
100
AcDbLine
 10
45.19094700809102
 20
12.00607899532665
 30
0.0
 11
45.2120895008485
 21
11.98493650256917
 31
0.0
  0
LINE
  5
4E4
330
1F
100
AcDbEntity
  8
0
  6
SLD-Solid
 62
     7
370
    25
100
AcDbLine
 10
45.2120895008485
 20
11.98493650256917
 30
0.0
 11
45.26423533017825
 21
12.03708233189893
 31
0.0
  0
LINE
  5
4E5
330
1F
100
AcDbEntity
  8
0
  6
SLD-Solid
 62
     7
370
    25
100
AcDbLine
 10
45.19094700809102
 20
12.00607899532665
 30
0.0
 11
45.24309283742078
 21
12.05822482465641
 31
0.0
  0
LINE
  5
4E6
330
1F
100
AcDbEntity
  8
0
  6
SLD-Solid
 62
     7
370
    25
100
AcDbLine
 10
35.62933670233178
 20
12.00607899532665
 30
0.0
 11
35.60819420957429
 21
11.98493650256917
 31
0.0
  0
LINE
  5
4E7
330
1F
100
AcDbEntity
  8
0
  6
SLD-Solid
 62
     7
370
    25
100
AcDbLine
 10
35.60819420957429
 20
11.98493650256917
 30
0.0
 11
35.55604838024453
 21
12.03708233189893
 31
0.0
  0
LINE
  5
4E8
330
1F
100
AcDbEntity
  8
0
  6
SLD-Solid
 62
     7
370
    25
100
AcDbLine
 10
35.62933670233178
 20
12.00607899532665
 30
0.0
 11
35.57719087300202
 21
12.05822482465642
 31
0.0
  0
LINE
  5
4E9
330
1F
100
AcDbEntity
  8
0
  6
SLD-Solid
 62
     7
370
    25
100
AcDbLine
 10
45.20173416178916
 20
11.97458116350985
 30
0.0
 11
45.18059166903169
 21
11.99572365626733
 31
0.0
  0
LINE
  5
4EA
330
1F
100
AcDbEntity
  8
0
  6
SLD-Solid
 62
     7
370
    25
100
AcDbLine
 10
45.2120895008485
 20
11.98493650256917
 30
0.0
 11
45.20173416178916
 21
11.97458116350985
 31
0.0
  0
LINE
  5
4EB
330
1F
100
AcDbEntity
  8
0
  6
SLD-Solid
 62
     7
370
    25
100
AcDbLine
 10
45.18059166903169
 20
11.99572365626733
 30
0.0
 11
45.19094700809102
 21
12.00607899532665
 31
0.0
  0
LINE
  5
4EC
330
1F
100
AcDbEntity
  8
0
  6
SLD-Solid
 62
     7
370
    25
100
AcDbLine
 10
35.61854954863362
 20
11.97458116350985
 30
0.0
 11
35.6396920413911
 21
11.99572365626733
 31
0.0
  0
LINE
  5
4ED
330
1F
100
AcDbEntity
  8
0
  6
SLD-Solid
 62
     7
370
    25
100
AcDbLine
 10
35.60819420957429
 20
11.98493650256917
 30
0.0
 11
35.61854954863362
 21
11.97458116350985
 31
0.0
  0
LINE
  5
4EE
330
1F
100
AcDbEntity
  8
0
  6
SLD-Solid
 62
     7
370
    25
100
AcDbLine
 10
35.6396920413911
 20
11.99572365626733
 30
0.0
 11
35.62933670233178
 21
12.00607899532665
 31
0.0
  0
LINE
  5
4EF
330
1F
100
AcDbEntity
  8
0
  6
SLD-Solid
 62
     7
370
    25
100
AcDbLine
 10
47.42505901563246
 20
16.29507311261415
 30
0.0
 11
47.43187498897664
 21
16.29507311261415
 31
0.0
  0
LINE
  5
4F0
330
1F
100
AcDbEntity
  8
0
  6
SLD-Solid
 62
     7
370
    25
100
AcDbLine
 10
47.43187498927114
 20
17.29507711261415
 30
0.0
 11
47.42505901563246
 21
17.29507711261415
 31
0.0
  0
LINE
  5
4F1
330
1F
100
AcDbEntity
  8
0
  6
SLD-Solid
 62
     7
370
    25
100
AcDbLine
 10
33.38840872115166
 20
17.29507711261415
 30
0.0
 11
33.39522469479031
 21
17.29507711261415
 31
0.0
  0
LINE
  5
4F2
330
1F
100
AcDbEntity
  8
0
  6
SLD-Solid
 62
     7
370
    25
100
AcDbLine
 10
33.39522469479032
 20
16.29507311261415
 30
0.0
 11
33.38840872144615
 21
16.29507311261415
 31
0.0
  0
LINE
  5
4F3
330
1F
100
AcDbEntity
  8
0
  6
SLD-Solid
 62
     7
370
    25
100
AcDbLine
 10
47.32064030027914
 20
16.29507651156707
 30
0.0
 11
47.39515901563247
 21
16.29507412696817
 31
0.0
  0
LINE
  5
4F4
330
1F
100
AcDbEntity
  8
0
  6
SLD-Solid
 62
     7
370
    25
100
AcDbLine
 10
33.49964341014363
 20
16.29507651156707
 30
0.0
 11
33.42512469479032
 21
16.29507412696818
 31
0.0
  0
ARC
  5
4F5
330
1F
100
AcDbEntity
  8
0
  6
SLD-Solid
 62
     7
370
    25
100
AcDbCircle
 10
35.95955330289284
 20
17.48152515503406
 30
0.0
 40
0.1000000000000014
100
AcDbArc
 50
0.0
 51
180.0
  0
LINE
  5
4F6
330
1F
100
AcDbEntity
  8
0
  6
SLD-Solid
 62
     7
370
    25
100
AcDbLine
 10
35.85955330289284
 20
17.48152515503406
 30
0.0
 11
35.85955330289284
 21
17.24013237428968
 31
0.0
  0
ARC
  5
4F7
330
1F
100
AcDbEntity
  8
0
  6
SLD-Solid
 62
     7
370
    25
100
AcDbCircle
 10
35.95955330289284
 20
17.08152515503406
 30
0.0
 40
0.187500000000003
100
AcDbArc
 50
122.230952635502
 51
57.76904736449737
  0
LINE
  5
4F8
330
1F
100
AcDbEntity
  8
0
  6
SLD-Solid
 62
     7
370
    25
100
AcDbLine
 10
36.05955330289284
 20
17.24013237428968
 30
0.0
 11
36.05955330289284
 21
17.48152515503406
 31
0.0
  0
ARC
  5
4F9
330
1F
100
AcDbEntity
  8
0
  6
SLD-Solid
 62
     7
370
    25
100
AcDbCircle
 10
35.95955330289284
 20
21.48152515503406
 30
0.0
 40
0.1000000000000014
100
AcDbArc
 50
0.0
 51
180.0
  0
LINE
  5
4FA
330
1F
100
AcDbEntity
  8
0
  6
SLD-Solid
 62
     7
370
    25
100
AcDbLine
 10
35.85955330289284
 20
21.48152515503406
 30
0.0
 11
35.85955330289284
 21
21.24013237428968
 31
0.0
  0
ARC
  5
4FB
330
1F
100
AcDbEntity
  8
0
  6
SLD-Solid
 62
     7
370
    25
100
AcDbCircle
 10
35.95955330289284
 20
21.08152515503406
 30
0.0
 40
0.1874999999999999
100
AcDbArc
 50
122.2309526355026
 51
57.76904736449679
  0
LINE
  5
4FC
330
1F
100
AcDbEntity
  8
0
  6
SLD-Solid
 62
     7
370
    25
100
AcDbLine
 10
36.05955330289284
 20
21.24013237428968
 30
0.0
 11
36.05955330289284
 21
21.48152515503406
 31
0.0
  0
ARC
  5
4FD
330
1F
100
AcDbEntity
  8
0
  6
SLD-Solid
 62
     7
370
    25
100
AcDbCircle
 10
33.47114185521142
 20
16.28571374667391
 30
0.0
 40
0.0300000000000011
100
AcDbArc
 50
0.0
 51
90.0
  0
LINE
  5
4FE
330
1F
100
AcDbEntity
  8
0
  6
SLD-Solid
 62
     7
370
    25
100
AcDbLine
 10
33.45564185521142
 20
16.31571374667391
 30
0.0
 11
33.47114185521142
 21
16.31571374667391
 31
0.0
  0
LINE
  5
4FF
330
1F
100
AcDbEntity
  8
0
  6
SLD-Solid
 62
     7
370
    25
100
AcDbLine
 10
33.45564185521142
 20
21.37871374667392
 30
0.0
 11
33.86014185521147
 21
21.37871374667392
 31
0.0
  0
ARC
  5
500
330
1F
100
AcDbEntity
  8
0
  6
SLD-Solid
 62
     7
370
    25
100
AcDbCircle
 10
33.86014185521147
 20
21.42871374667392
 30
0.0
 40
0.0499999999999972
100
AcDbArc
 50
270.0000000000008
 51
0.0
  0
LINE
  5
501
330
1F
100
AcDbEntity
  8
0
  6
SLD-Solid
 62
     7
370
    25
100
AcDbLine
 10
33.91014185521146
 20
21.42871374667392
 30
0.0
 11
33.91014185521146
 21
23.37871374667391
 31
0.0
  0
ARC
  5
502
330
1F
100
AcDbEntity
  8
0
  6
SLD-Solid
 62
     7
370
    25
100
AcDbCircle
 10
34.16014185521146
 20
23.37871374667391
 30
0.0
 40
0.25
100
AcDbArc
 50
90.0
 51
180.0
  0
LINE
  5
503
330
1F
100
AcDbEntity
  8
0
  6
SLD-Solid
 62
     7
370
    25
100
AcDbLine
 10
34.65964185521147
 20
23.62871374667391
 30
0.0
 11
34.16014185521146
 21
23.62871374667391
 31
0.0
  0
ARC
  5
504
330
1F
100
AcDbEntity
  8
0
  6
SLD-Solid
 62
     7
370
    25
100
AcDbCircle
 10
34.65964185521147
 20
23.67871374667391
 30
0.0
 40
0.0500000000000043
100
AcDbArc
 50
270.0000000000008
 51
0.0
  0
LINE
  5
505
330
1F
100
AcDbEntity
  8
0
  6
SLD-Solid
 62
     7
370
    25
100
AcDbLine
 10
34.70964185521146
 20
23.95371374667391
 30
0.0
 11
34.70964185521146
 21
23.67871374667391
 31
0.0
  0
ARC
  5
506
330
1F
100
AcDbEntity
  8
0
  6
SLD-Solid
 62
     7
370
    25
100
AcDbCircle
 10
34.75964185521146
 20
23.95371374667391
 30
0.0
 40
0.0500000000000043
100
AcDbArc
 50
90.0
 51
180.0
  0
LINE
  5
507
330
1F
100
AcDbEntity
  8
0
  6
SLD-Solid
 62
     7
370
    25
100
AcDbLine
 10
35.40964185521147
 20
24.00371374667391
 30
0.0
 11
34.75964185521146
 21
24.00371374667391
 31
0.0
  0
ARC
  5
508
330
1F
100
AcDbEntity
  8
0
  6
SLD-Solid
 62
     7
370
    25
100
AcDbCircle
 10
35.40964185521147
 20
23.95371374667391
 30
0.0
 40
0.0500000000000007
100
AcDbArc
 50
0.0
 51
90.0
  0
LINE
  5
509
330
1F
100
AcDbEntity
  8
0
  6
SLD-Solid
 62
     7
370
    25
100
AcDbLine
 10
35.45964185521146
 20
23.67871374667391
 30
0.0
 11
35.45964185521146
 21
23.95371374667391
 31
0.0
  0
ARC
  5
50A
330
1F
100
AcDbEntity
  8
0
  6
SLD-Solid
 62
     7
370
    25
100
AcDbCircle
 10
35.50964185521146
 20
23.67871374667391
 30
0.0
 40
0.0500000000000043
100
AcDbArc
 50
180.0
 51
270.0000000000008
  0
LINE
  5
50B
330
1F
100
AcDbEntity
  8
0
  6
SLD-Solid
 62
     7
370
    25
100
AcDbLine
 10
35.90957134020071
 20
23.62871374667391
 30
0.0
 11
35.50964185521146
 21
23.62871374667391
 31
0.0
  0
ARC
  5
50C
330
1F
100
AcDbEntity
  8
0
  6
SLD-Solid
 62
     7
370
    25
100
AcDbCircle
 10
35.90957134020071
 20
23.67871374667391
 30
0.0
 40
0.0500000000000043
100
AcDbArc
 50
270.0000000000008
 51
0.0000000000005089
  0
LINE
  5
50D
330
1F
100
AcDbEntity
  8
0
  6
SLD-Solid
 62
     7
370
    25
100
AcDbLine
 10
35.9595713402007
 20
23.71821374667391
 30
0.0
 11
35.9595713402007
 21
23.67871374667391
 31
0.0
  0
LINE
  5
50E
330
1F
100
AcDbEntity
  8
0
  6
SLD-Solid
 62
     7
370
    25
100
AcDbLine
 10
44.86071237022213
 20
23.71821374667391
 30
0.0
 11
44.86071237022213
 21
23.67871374667391
 31
0.0
  0
ARC
  5
50F
330
1F
100
AcDbEntity
  8
0
  6
SLD-Solid
 62
     7
370
    25
100
AcDbCircle
 10
44.91071237022214
 20
23.67871374667391
 30
0.0
 40
0.0500000000000043
100
AcDbArc
 50
179.9999999999995
 51
270.0000000000008
  0
LINE
  5
510
330
1F
100
AcDbEntity
  8
0
  6
SLD-Solid
 62
     7
370
    25
100
AcDbLine
 10
44.91071237022214
 20
23.62871374667391
 30
0.0
 11
45.31064185521138
 21
23.62871374667391
 31
0.0
  0
ARC
  5
511
330
1F
100
AcDbEntity
  8
0
  6
SLD-Solid
 62
     7
370
    25
100
AcDbCircle
 10
45.31064185521138
 20
23.67871374667391
 30
0.0
 40
0.0500000000000043
100
AcDbArc
 50
270.0000000000008
 51
0.0
  0
LINE
  5
512
330
1F
100
AcDbEntity
  8
0
  6
SLD-Solid
 62
     7
370
    25
100
AcDbLine
 10
45.36064185521137
 20
23.67871374667391
 30
0.0
 11
45.36064185521137
 21
23.95371374667391
 31
0.0
  0
ARC
  5
513
330
1F
100
AcDbEntity
  8
0
  6
SLD-Solid
 62
     7
370
    25
100
AcDbCircle
 10
45.41064185521137
 20
23.95371374667391
 30
0.0
 40
0.0500000000000043
100
AcDbArc
 50
90.0
 51
180.0
  0
LINE
  5
514
330
1F
100
AcDbEntity
  8
0
  6
SLD-Solid
 62
     7
370
    25
100
AcDbLine
 10
45.41064185521137
 20
24.00371374667391
 30
0.0
 11
46.06064185521138
 21
24.00371374667391
 31
0.0
  0
ARC
  5
515
330
1F
100
AcDbEntity
  8
0
  6
SLD-Solid
 62
     7
370
    25
100
AcDbCircle
 10
46.06064185521138
 20
23.95371374667391
 30
0.0
 40
0.0500000000000007
100
AcDbArc
 50
0.0
 51
90.0
  0
LINE
  5
516
330
1F
100
AcDbEntity
  8
0
  6
SLD-Solid
 62
     7
370
    25
100
AcDbLine
 10
46.11064185521138
 20
23.95371374667391
 30
0.0
 11
46.11064185521138
 21
23.67871374667391
 31
0.0
  0
ARC
  5
517
330
1F
100
AcDbEntity
  8
0
  6
SLD-Solid
 62
     7
370
    25
100
AcDbCircle
 10
46.16064185521137
 20
23.67871374667391
 30
0.0
 40
0.0500000000000043
100
AcDbArc
 50
180.0
 51
269.9999999999927
  0
LINE
  5
518
330
1F
100
AcDbEntity
  8
0
  6
SLD-Solid
 62
     7
370
    25
100
AcDbLine
 10
46.16064185521137
 20
23.62871374667391
 30
0.0
 11
46.66014185521137
 21
23.62871374667391
 31
0.0
  0
ARC
  5
519
330
1F
100
AcDbEntity
  8
0
  6
SLD-Solid
 62
     7
370
    25
100
AcDbCircle
 10
46.66014185521137
 20
23.37871374667391
 30
0.0
 40
0.25
100
AcDbArc
 50
0.0
 51
90.0
  0
LINE
  5
51A
330
1F
100
AcDbEntity
  8
0
  6
SLD-Solid
 62
     7
370
    25
100
AcDbLine
 10
46.91014185521137
 20
21.42871374667392
 30
0.0
 11
46.91014185521137
 21
23.37871374667391
 31
0.0
  0
ARC
  5
51B
330
1F
100
AcDbEntity
  8
0
  6
SLD-Solid
 62
     7
370
    25
100
AcDbCircle
 10
46.96014185521138
 20
21.42871374667392
 30
0.0
 40
0.0500000000000043
100
AcDbArc
 50
180.0
 51
270.0000000000008
  0
LINE
  5
51C
330
1F
100
AcDbEntity
  8
0
  6
SLD-Solid
 62
     7
370
    25
100
AcDbLine
 10
47.36464185521142
 20
21.37871374667392
 30
0.0
 11
46.96014185521138
 21
21.37871374667392
 31
0.0
  0
LINE
  5
51D
330
1F
100
AcDbEntity
  8
0
  6
SLD-Solid
 62
     7
370
    25
100
AcDbLine
 10
47.36464185521142
 20
16.31571374667391
 30
0.0
 11
47.34914185521141
 21
16.31571374667391
 31
0.0
  0
ARC
  5
51E
330
1F
100
AcDbEntity
  8
0
  6
SLD-Solid
 62
     7
370
    25
100
AcDbCircle
 10
47.34914185521142
 20
16.28571374667391
 30
0.0
 40
0.0300000000000011
100
AcDbArc
 50
90.00000000001357
 51
180.0
  0
LINE
  5
51F
330
1F
100
AcDbEntity
  8
0
  6
SLD-Solid
 62
     7
370
    25
100
AcDbLine
 10
47.31914185521142
 20
16.28571374667391
 30
0.0
 11
47.31914185521142
 21
16.04571374667391
 31
0.0
  0
ARC
  5
520
330
1F
100
AcDbEntity
  8
0
  6
SLD-Solid
 62
     7
370
    25
100
AcDbCircle
 10
47.28914185521142
 20
16.04571374667391
 30
0.0
 40
0.0300000000000011
100
AcDbArc
 50
270.0000000000008
 51
0.0
  0
LINE
  5
521
330
1F
100
AcDbEntity
  8
0
  6
SLD-Solid
 62
     7
370
    25
100
AcDbLine
 10
47.28914185521142
 20
16.01571374667391
 30
0.0
 11
46.97414185521142
 21
16.01571374667391
 31
0.0
  0
ARC
  5
522
330
1F
100
AcDbEntity
  8
0
  6
SLD-Solid
 62
     7
370
    25
100
AcDbCircle
 10
46.97414185521142
 20
16.04571374667391
 30
0.0
 40
0.0300000000000011
100
AcDbArc
 50
180.0
 51
270.0000000000008
  0
LINE
  5
523
330
1F
100
AcDbEntity
  8
0
  6
SLD-Solid
 62
     7
370
    25
100
AcDbLine
 10
46.94414185521142
 20
16.04571374667391
 30
0.0
 11
46.94414185521142
 21
16.28571374667391
 31
0.0
  0
ARC
  5
524
330
1F
100
AcDbEntity
  8
0
  6
SLD-Solid
 62
     7
370
    25
100
AcDbCircle
 10
46.91414185521142
 20
16.28571374667391
 30
0.0
 40
0.0300000000000011
100
AcDbArc
 50
0.0
 51
90.0
  0
LINE
  5
525
330
1F
100
AcDbEntity
  8
0
  6
SLD-Solid
 62
     7
370
    25
100
AcDbLine
 10
33.90614185521142
 20
16.31571374667391
 30
0.0
 11
46.91414185521142
 21
16.31571374667391
 31
0.0
  0
ARC
  5
526
330
1F
100
AcDbEntity
  8
0
  6
SLD-Solid
 62
     7
370
    25
100
AcDbCircle
 10
33.90614185521142
 20
16.28571374667391
 30
0.0
 40
0.0300000000000011
100
AcDbArc
 50
89.99999999998644
 51
180.0
  0
LINE
  5
527
330
1F
100
AcDbEntity
  8
0
  6
SLD-Solid
 62
     7
370
    25
100
AcDbLine
 10
33.87614185521142
 20
16.04571374667391
 30
0.0
 11
33.87614185521142
 21
16.28571374667391
 31
0.0
  0
ARC
  5
528
330
1F
100
AcDbEntity
  8
0
  6
SLD-Solid
 62
     7
370
    25
100
AcDbCircle
 10
33.84614185521142
 20
16.04571374667391
 30
0.0
 40
0.0300000000000011
100
AcDbArc
 50
270.0000000000008
 51
0.0
  0
LINE
  5
529
330
1F
100
AcDbEntity
  8
0
  6
SLD-Solid
 62
     7
370
    25
100
AcDbLine
 10
33.53114185521142
 20
16.01571374667391
 30
0.0
 11
33.84614185521142
 21
16.01571374667391
 31
0.0
  0
ARC
  5
52A
330
1F
100
AcDbEntity
  8
0
  6
SLD-Solid
 62
     7
370
    25
100
AcDbCircle
 10
33.53114185521142
 20
16.04571374667391
 30
0.0
 40
0.0300000000000011
100
AcDbArc
 50
180.0
 51
270.0000000000008
  0
LINE
  5
52B
330
1F
100
AcDbEntity
  8
0
  6
SLD-Solid
 62
     7
370
    25
100
AcDbLine
 10
33.50114185521142
 20
16.28571374667391
 30
0.0
 11
33.50114185521142
 21
16.04571374667391
 31
0.0
  0
ARC
  5
52C
330
1F
100
AcDbEntity
  8
0
  6
SLD-Solid
 62
     7
370
    25
100
AcDbCircle
 10
44.86073040753
 20
17.08152515503406
 30
0.0
 40
0.187500000000003
100
AcDbArc
 50
122.2309526355026
 51
57.76904736449794
  0
LINE
  5
52D
330
1F
100
AcDbEntity
  8
0
  6
SLD-Solid
 62
     7
370
    25
100
AcDbLine
 10
44.96073040753
 20
17.48152515503406
 30
0.0
 11
44.96073040753
 21
17.24013237428968
 31
0.0
  0
ARC
  5
52E
330
1F
100
AcDbEntity
  8
0
  6
SLD-Solid
 62
     7
370
    25
100
AcDbCircle
 10
44.86073040753
 20
17.48152515503406
 30
0.0
 40
0.1000000000000014
100
AcDbArc
 50
0.0
 51
180.0
  0
LINE
  5
52F
330
1F
100
AcDbEntity
  8
0
  6
SLD-Solid
 62
     7
370
    25
100
AcDbLine
 10
44.76073040753
 20
17.24013237428968
 30
0.0
 11
44.76073040753
 21
17.48152515503406
 31
0.0
  0
ARC
  5
530
330
1F
100
AcDbEntity
  8
0
  6
SLD-Solid
 62
     7
370
    25
100
AcDbCircle
 10
44.86073040753
 20
21.08152515503406
 30
0.0
 40
0.1874999999999999
100
AcDbArc
 50
122.2309526355032
 51
57.76904736449737
  0
LINE
  5
531
330
1F
100
AcDbEntity
  8
0
  6
SLD-Solid
 62
     7
370
    25
100
AcDbLine
 10
44.96073040753
 20
21.48152515503406
 30
0.0
 11
44.96073040753
 21
21.24013237428968
 31
0.0
  0
ARC
  5
532
330
1F
100
AcDbEntity
  8
0
  6
SLD-Solid
 62
     7
370
    25
100
AcDbCircle
 10
44.86073040753
 20
21.48152515503406
 30
0.0
 40
0.1000000000000014
100
AcDbArc
 50
0.0
 51
180.0
  0
LINE
  5
533
330
1F
100
AcDbEntity
  8
0
  6
SLD-Solid
 62
     7
370
    25
100
AcDbLine
 10
44.76073040753
 20
21.24013237428968
 30
0.0
 11
44.76073040753
 21
21.48152515503406
 31
0.0
  0
LINE
  5
534
330
1F
100
AcDbEntity
  8
0
  6
SLD-Solid
 62
     7
370
    25
100
AcDbLine
 10
47.41145287883347
 20
21.37871374667392
 30
0.0
 11
47.36464185521142
 21
21.37871374667392
 31
0.0
  0
LINE
  5
535
330
1F
100
AcDbEntity
  8
0
  6
SLD-Solid
 62
     7
370
    25
100
AcDbLine
 10
47.41145287883347
 20
21.37871374667392
 30
0.0
 11
47.41145287883347
 21
16.31571374667391
 31
0.0
  0
LINE
  5
536
330
1F
100
AcDbEntity
  8
0
  6
SLD-Solid
 62
     7
370
    25
100
AcDbLine
 10
47.36464185521142
 20
16.31571374667391
 30
0.0
 11
47.41145287883347
 21
16.31571374667391
 31
0.0
  0
LINE
  5
537
330
1F
100
AcDbEntity
  8
0
  6
SLD-Solid
 62
     7
370
    25
100
AcDbLine
 10
35.9595713402007
 20
23.71821374667391
 30
0.0
 11
35.9595713402007
 21
23.78321374667391
 31
0.0
  0
LINE
  5
538
330
1F
100
AcDbEntity
  8
0
  6
SLD-Solid
 62
     7
370
    25
100
AcDbLine
 10
44.86071237022213
 20
23.71821374667391
 30
0.0
 11
44.86071237022213
 21
23.78321374667391
 31
0.0
  0
LINE
  5
539
330
1F
100
AcDbEntity
  8
0
  6
SLD-Solid
 62
     7
370
    25
100
AcDbLine
 10
33.40883083158937
 20
21.37871374667392
 30
0.0
 11
33.40883083158937
 21
16.31571374667391
 31
0.0
  0
LINE
  5
53A
330
1F
100
AcDbEntity
  8
0
  6
SLD-Solid
 62
     7
370
    25
100
AcDbLine
 10
33.40883083158937
 20
21.37871374667392
 30
0.0
 11
33.45564185521142
 21
21.37871374667392
 31
0.0
  0
LINE
  5
53B
330
1F
100
AcDbEntity
  8
0
  6
SLD-Solid
 62
     7
370
    25
100
AcDbLine
 10
33.45564185521142
 20
16.31571374667391
 30
0.0
 11
33.40883083158937
 21
16.31571374667391
 31
0.0
  0
LINE
  5
53C
330
1F
100
AcDbEntity
  8
0
  6
SLD-Solid
 62
     7
370
    25
100
AcDbLine
 10
35.9595713402007
 20
23.81321374667391
 30
0.0
 11
35.9595713402007
 21
23.78321374667391
 31
0.0
  0
LINE
  5
53D
330
1F
100
AcDbEntity
  8
0
  6
SLD-Solid
 62
     7
370
    25
100
AcDbLine
 10
44.86071237022213
 20
23.81321374667391
 30
0.0
 11
44.86071237022213
 21
23.78321374667391
 31
0.0
  0
LINE
  5
53E
330
1F
100
AcDbEntity
  8
0
  6
SLD-Solid
 62
     7
370
    25
100
AcDbLine
 10
44.86071237022213
 20
23.81321374667391
 30
0.0
 11
44.86071237022213
 21
23.92181374667391
 31
0.0
  0
LINE
  5
53F
330
1F
100
AcDbEntity
  8
0
  6
SLD-Solid
 62
     7
370
    25
100
AcDbLine
 10
35.9595713402007
 20
23.81321374667391
 30
0.0
 11
35.9595713402007
 21
23.92181374667391
 31
0.0
  0
LINE
  5
540
330
1F
100
AcDbEntity
  8
0
  6
SLD-Solid
 62
     7
370
    25
100
AcDbLine
 10
35.96203100323246
 20
23.95679633625284
 30
0.0
 11
35.9595713402007
 21
23.92181374667391
 31
0.0
  0
LINE
  5
541
330
1F
100
AcDbEntity
  8
0
  6
SLD-Solid
 62
     7
370
    25
100
AcDbLine
 10
44.85825270719038
 20
23.95679633625284
 30
0.0
 11
44.86071237022213
 21
23.92181374667391
 31
0.0
  0
LINE
  5
542
330
1F
100
AcDbEntity
  8
OBJECT
  6
SLD-Solid
370
    25
100
AcDbLine
 10
45.09441109940472
 20
12.00689633843455
 30
0.0
 11
45.26782963079951
 21
12.18031494789779
 31
0.0
  0
LINE
  5
543
330
1F
100
AcDbEntity
  8
OBJECT
  6
SLD-Solid
370
    25
100
AcDbLine
 10
47.2051537717935
 20
14.11763996102409
 30
0.0
 11
47.33150645099356
 21
14.2439926971048
 31
0.0
  0
LINE
  5
544
330
1F
100
AcDbEntity
  8
OBJECT
  6
SLD-Solid
370
    25
100
AcDbLine
 10
33.48877660607418
 20
14.2439918609969
 30
0.0
 11
33.61512922233811
 21
14.11763924473297
 31
0.0
  0
LINE
  5
545
330
1F
100
AcDbEntity
  8
OBJECT
  6
SLD-Solid
370
    25
100
AcDbLine
 10
35.55245407962462
 20
12.18031438744649
 30
0.0
 11
35.72587212863664
 21
12.00689633843448
 31
0.0
  0
LINE
  5
546
330
1F
100
AcDbEntity
  8
OBJECT
  6
SLD-Solid
370
    25
100
AcDbLine
 10
47.3636629526403
 20
23.09439633843456
 30
0.0
 11
47.3636629526403
 21
21.37871374667392
 31
0.0
  0
LINE
  5
547
330
1F
100
AcDbEntity
  8
OBJECT
  6
SLD-Solid
370
    25
100
AcDbLine
 10
47.36366295264034
 20
16.29507513484219
 30
0.0
 11
47.36366295264034
 21
16.24507811261415
 31
0.0
  0
LINE
  5
548
330
1F
100
AcDbEntity
  8
OBJECT
  6
SLD-Solid
370
    25
100
AcDbLine
 10
47.36366295264035
 20
14.49507811261415
 30
0.0
 11
47.36366295264035
 21
14.29734333843456
 31
0.0
  0
LINE
  5
549
330
1F
100
AcDbEntity
  8
OBJECT
  6
SLD-Solid
370
    25
100
AcDbLine
 10
46.34764160442595
 20
24.11041768368182
 30
0.0
 11
46.03514089726981
 21
24.11041768368182
 31
0.0
  0
LINE
  5
54A
330
1F
100
AcDbEntity
  8
OBJECT
  6
SLD-Solid
370
    25
100
AcDbLine
 10
34.78514281315294
 20
24.11041768368176
 30
0.0
 11
34.47264160604836
 21
24.11041768368175
 31
0.0
  0
LINE
  5
54B
330
1F
100
AcDbEntity
  8
OBJECT
  6
SLD-Solid
370
    25
100
AcDbLine
 10
33.4566206042449
 20
23.09439433764907
 30
0.0
 11
33.45662063913367
 21
21.37871374667392
 31
0.0
  0
LINE
  5
54C
330
1F
100
AcDbEntity
  8
OBJECT
  6
SLD-Solid
370
    25
100
AcDbLine
 10
33.45662074251069
 20
16.29507513484171
 30
0.0
 11
33.4566207435274
 21
16.24507811261415
 31
0.0
  0
LINE
  5
54D
330
1F
100
AcDbEntity
  8
OBJECT
  6
SLD-Solid
370
    25
100
AcDbLine
 10
33.45662077911407
 20
14.49507811261415
 30
0.0
 11
33.45662078313507
 21
14.29734233843447
 31
0.0
  0
DIMENSION
  5
54E
330
1F
100
AcDbEntity
  8
DIMS
100
AcDbDimension
  2
_D_5
 10
44.86073040752999
 20
25.30407693897073
 30
0.0
 11
40.4272195351735
 21
25.30407693897073
 31
0.0
 70
    32
  1
<>
 71
     2
 42
-1.0
  3
SLDDIMSTYLE1
100
AcDbAlignedDimension
 13
35.95955330289283
 23
21.48152515503406
 33
0.0
 14
44.86073040752999
 24
21.48152515503406
 34
0.0
100
AcDbRotatedDimension
  0
DIMENSION
  5
55D
330
1F
100
AcDbEntity
  8
DIMS
100
AcDbDimension
  2
_D_6
 10
32.40631759061178
 20
17.48152515503406
 30
0.0
 11
32.40631759061178
 21
19.68882494828879
 31
0.0
 70
    32
  1
<>
 71
     2
 42
-1.0
  3
SLDDIMSTYLE0
100
AcDbAlignedDimension
 13
35.95955330289283
 23
21.48152515503406
 33
0.0
 14
35.85955330289283
 24
17.48152515503406
 34
0.0
 50
90.0000000000002
100
AcDbRotatedDimension
  0
DIMENSION
  5
568
330
1F
100
AcDbEntity
  8
DIMS
100
AcDbDimension
  2
_D_7
 10
32.40631759061178
 20
24.17181375568867
 30
0.0
 11
32.40631759061178
 21
22.7982716913502
 31
0.0
 70
    32
  1
<>
 71
     2
 42
-1.0
  3
SLDDIMSTYLE1
100
AcDbAlignedDimension
 13
35.95955330289283
 23
21.48152515503406
 33
0.0
 14
34.38840872115164
 24
24.17181375568867
 34
0.0
 50
90.0000000000002
100
AcDbRotatedDimension
  0
DIMENSION
  5
577
330
1F
100
AcDbEntity
  8
DIMS
100
AcDbDimension
  2
_D_8
 10
32.4063175906118
 20
12.00689633843446
 30
0.0
 11
32.40631759061178
 21
14.96262520432512
 31
0.0
 70
    32
  1
<>
 71
     2
 42
-1.0
  3
SLDDIMSTYLE1
100
AcDbAlignedDimension
 13
35.95955330289283
 23
17.48152515503406
 33
0.0
 14
35.72587212863666
 24
12.00689633843449
 34
0.0
 50
90.0000000000002
100
AcDbRotatedDimension
  0
DIMENSION
  5
586
330
1F
100
AcDbEntity
  8
DIMS
100
AcDbDimension
  2
_D_9
 10
35.98543520740307
 20
21.38493257240515
 30
0.0
 11
34.1872394030414
 21
25.30407693897074
 31
0.0
 70
    35
  1
<>
 71
     1
 42
-1.0
  3
SLDDIMSTYLE3
100
AcDbDiametricDimension
 15
35.93367139838259
 25
21.57811773766297
 35
0.0
 40
0.0
  0
MTEXT
  5
593
330
1F
100
AcDbEntity
  8
NOTES
100
AcDbMText
 10
46.3396435436749
 20
25.55014898823807
 30
0.0
 40
0.25
 41
0.0
 71
     1
 72
     1
  1
mounting hole (4)
  7
SLDTEXTSTYLE1
 73
     1
 44
1.0
  0
LEADER
  5
594
330
1F
100
AcDbEntity
  8
NOTES
100
AcDbLeader
  3
SLDDIMSTYLE2
 76
     3
 10
44.92422535064284
 20
21.55878052506811
 30
0.0
 10
45.81932300479248
 20
25.42537763287818
 30
0.0
 10
46.31932300479248
 20
25.42537763287818
 30
0.0
1001
ACAD
1000
DSTYLE
1002
{
1070
   176
1070
     0
1070
    77
1070
     0
1070
    40
1040
1.0
1070
   147
1040
0.0
1002
}
  0
MTEXT
  5
595
330
1F
100
AcDbEntity
  8
NOTES
100
AcDbMText
 10
33.76410068294173
 20
11.74594706612662
 30
0.0
 40
0.25
 41
0.0
 71
     1
 72
     1
  1
Back view
  7
SLDTEXTSTYLE1
 73
     1
 44
1.0
  0
MTEXT
  5
599
330
1F
100
AcDbEntity
  8
NOTES
100
AcDbMText
 10
57.2661315570167
 20
4.986500874567163
 30
0.0
 40
0.2916666666666666
 41
0.0
 71
     1
 72
     1
  1
FROST PRODUCTS LTD.
  7
SLDTEXTSTYLE0
 73
     1
 44
1.0
  0
MTEXT
  5
59A
330
1F
100
AcDbEntity
  8
NOTES
100
AcDbMText
 10
57.2661315570167
 20
4.561008512941703
 30
0.0
 40
0.2291666666666666
 41
0.0
 71
     1
 72
     1
  1
5280 JOHN LUCAS DRIVE, BURLINGTON, ON, L7L 5Z9
  7
SLDTEXTSTYLE0
 73
     1
 44
1.0
  0
ENDSEC
  0
SECTION
  2
OBJECTS
  0
DICTIONARY
  5
C
330
0
100
AcDbDictionary
281
     1
  3
ACAD_COLOR
350
6C
  3
ACAD_GROUP
350
D
  3
ACAD_LAYOUT
350
1A
  3
ACAD_MATERIAL
350
6B
  3
ACAD_MLINESTYLE
350
17
  3
ACAD_PLOTSETTINGS
350
19
  3
ACAD_PLOTSTYLENAME
350
E
  3
ACAD_SCALELIST
350
47
  3
ACAD_TABLESTYLE
350
92
  3
AcDbVariableDictionary
350
59
  0
DICTIONARY
  5
6C
102
{ACAD_REACTORS
330
C
102
}
330
C
100
AcDbDictionary
281
     1
  0
DICTIONARY
  5
D
102
{ACAD_REACTORS
330
C
102
}
330
C
100
AcDbDictionary
281
     1
  0
DICTIONARY
  5
1A
102
{ACAD_REACTORS
330
C
102
}
330
C
100
AcDbDictionary
281
     1
  3
Layout1
350
74
  3
Layout2
350
26
  3
Model
350
22
  0
DICTIONARY
  5
6B
102
{ACAD_REACTORS
330
C
102
}
330
C
100
AcDbDictionary
281
     1
  0
DICTIONARY
  5
17
102
{ACAD_REACTORS
330
C
102
}
330
C
100
AcDbDictionary
281
     1
  3
Standard
350
18
  0
DICTIONARY
  5
19
102
{ACAD_REACTORS
330
C
102
}
330
C
100
AcDbDictionary
281
     1
  0
ACDBDICTIONARYWDFLT
  5
E
102
{ACAD_REACTORS
330
C
102
}
330
C
100
AcDbDictionary
281
     1
  3
Normal
350
F
100
AcDbDictionaryWithDefault
340
F
  0
DICTIONARY
  5
47
102
{ACAD_REACTORS
330
C
102
}
330
C
100
AcDbDictionary
281
     1
  3
A0
350
48
  3
A1
350
49
  3
A2
350
4A
  3
A3
350
4B
  3
A4
350
4C
  3
A5
350
4D
  3
A6
350
4E
  3
A7
350
4F
  3
A8
350
50
  3
A9
350
51
  3
B0
350
52
  3
B1
350
53
  3
B2
350
54
  3
B3
350
55
  3
B4
350
56
  3
B5
350
57
  3
B6
350
58
  3
B7
350
5AB
  3
B8
350
5AC
  3
B9
350
5B
  3
C0
350
5C
  3
C1
350
5D
  3
C2
350
5AD
  3
C3
350
5F
  3
C4
350
60
  3
C5
350
61
  3
C6
350
62
  3
C7
350
63
  3
C8
350
64
  3
C9
350
65
  3
D0
350
66
  3
D1
350
67
  3
D2
350
68
  0
DICTIONARY
  5
92
102
{ACAD_REACTORS
330
C
102
}
330
C
100
AcDbDictionary
281
     1
  3
Standard
350
93
  0
DICTIONARY
  5
59
102
{ACAD_REACTORS
330
C
102
}
330
C
100
AcDbDictionary
281
     1
  3
CTABLESTYLE
350
98
  3
HIDETEXT
350
598
  0
LAYOUT
  5
74
102
{ACAD_REACTORS
330
1A
102
}
330
1A
100
AcDbPlotSettings
  1

  2
none_device
  4

  6

 40
0.0
 41
0.0
 42
0.0
 43
0.0
 44
0.0
 45
0.0
 46
0.0
 47
0.0
 48
0.0
 49
0.0
140
0.0
141
0.0
142
1.0
143
1.0
 70
   688
 72
     0
 73
     0
 74
     5
  7

 75
    16
 76
     0
 77
     2
 78
   300
147
1.0
148
0.0
149
0.0
100
AcDbLayout
  1
Layout1
 70
     1
 71
     1
 10
0.0
 20
0.0
 11
12.0
 21
9.0
 12
0.0
 22
0.0
 32
0.0
 14
1.000000000000000E+20
 24
1.000000000000000E+20
 34
1.000000000000000E+20
 15
-1.000000000000000E+20
 25
-1.000000000000000E+20
 35
-1.000000000000000E+20
146
0.0
 13
0.0
 23
0.0
 33
0.0
 16
1.0
 26
0.0
 36
0.0
 17
0.0
 27
1.0
 37
0.0
 76
     0
330
73
  0
LAYOUT
  5
26
102
{ACAD_REACTORS
330
1A
102
}
330
1A
100
AcDbPlotSettings
  1

  2
none_device
  4

  6

 40
0.0
 41
0.0
 42
0.0
 43
0.0
 44
0.0
 45
0.0
 46
0.0
 47
0.0
 48
0.0
 49
0.0
140
0.0
141
0.0
142
1.0
143
1.0
 70
   688
 72
     0
 73
     0
 74
     5
  7

 75
    16
 76
     0
 77
     2
 78
   300
147
1.0
148
0.0
149
0.0
100
AcDbLayout
  1
Layout2
 70
     1
 71
     2
 10
0.0
 20
0.0
 11
0.0
 21
0.0
 12
0.0
 22
0.0
 32
0.0
 14
0.0
 24
0.0
 34
0.0
 15
0.0
 25
0.0
 35
0.0
146
0.0
 13
0.0
 23
0.0
 33
0.0
 16
1.0
 26
0.0
 36
0.0
 17
0.0
 27
1.0
 37
0.0
 76
     0
330
23
  0
LAYOUT
  5
22
102
{ACAD_REACTORS
330
1A
102
}
330
1A
100
AcDbPlotSettings
  1

  2
none_device
  4
Letter_(8.50_x_11.00_Inches)
  6

 40
6.35
 41
6.35
 42
6.35000508
 43
6.35000508
 44
215.9
 45
279.4
 46
0.0
 47
0.0
 48
0.0
 49
0.0
140
0.0
141
0.0
142
1.0
143
1.0
 70
 11952
 72
     0
 73
     0
 74
     0
  7

 75
     0
 76
     0
 77
     2
 78
   300
147
1.0
148
0.0
149
0.0
100
AcDbLayout
  1
Model
 70
     1
 71
     0
 10
0.0
 20
0.0
 11
67.0
 21
32.0
 12
0.0
 22
0.0
 32
0.0
 14
0.1653543307086614
 24
0.1653543307086614
 34
-1.492261801079423
 15
66.83464566929133
 25
31.83464566929133
 35
1.492261801079426
146
0.0
 13
0.0
 23
0.0
 33
0.0
 16
1.0
 26
0.0
 36
0.0
 17
0.0
 27
1.0
 37
0.0
 76
     0
330
1F
  0
MLINESTYLE
  5
18
102
{ACAD_REACTORS
330
17
102
}
330
17
100
AcDbMlineStyle
  2
Standard
 70
     0
  3

 62
   256
 51
90.0
 52
90.0
 71
     2
 49
0.5
 62
   256
  6
BYLAYER
 49
-0.5
 62
   256
  6
BYLAYER
  0
ACDBPLACEHOLDER
  5
F
102
{ACAD_REACTORS
330
E
102
}
330
E
  0
ACAD_PROXY_OBJECT
  5
48
102
{ACAD_REACTORS
330
47
102
}
330
47
100
AcDbProxyObject
 90
      499
 91
      505
 95
   393239
 70
     0
 93
       41
310
903313A31580
  0
ACAD_PROXY_OBJECT
  5
49
102
{ACAD_REACTORS
330
47
102
}
330
47
100
AcDbProxyObject
 90
      499
 91
      505
 95
   393239
 70
     0
 93
      105
310
903313A324000000000000004000
  0
ACAD_PROXY_OBJECT
  5
4A
102
{ACAD_REACTORS
330
47
102
}
330
47
100
AcDbProxyObject
 90
      499
 91
      505
 95
   393239
 70
     0
 93
      105
310
903313A344000000000000104000
  0
ACAD_PROXY_OBJECT
  5
4B
102
{ACAD_REACTORS
330
47
102
}
330
47
100
AcDbProxyObject
 90
      499
 91
      505
 95
   393239
 70
     0
 93
      105
310
903313A354000000000000144000
  0
ACAD_PROXY_OBJECT
  5
4C
102
{ACAD_REACTORS
330
47
102
}
330
47
100
AcDbProxyObject
 90
      499
 91
      505
 95
   393239
 70
     0
 93
      105
310
903313A384000000000000204000
  0
ACAD_PROXY_OBJECT
  5
4D
102
{ACAD_REACTORS
330
47
102
}
330
47
100
AcDbProxyObject
 90
      499
 91
      505
 95
   393239
 70
     0
 93
      113
310
904313A31304000000000000244000
  0
ACAD_PROXY_OBJECT
  5
4E
102
{ACAD_REACTORS
330
47
102
}
330
47
100
AcDbProxyObject
 90
      499
 91
      505
 95
   393239
 70
     0
 93
      113
310
904313A31364000000000000304000
  0
ACAD_PROXY_OBJECT
  5
4F
102
{ACAD_REACTORS
330
47
102
}
330
47
100
AcDbProxyObject
 90
      499
 91
      505
 95
   393239
 70
     0
 93
      113
310
904313A32304000000000000344000
  0
ACAD_PROXY_OBJECT
  5
50
102
{ACAD_REACTORS
330
47
102
}
330
47
100
AcDbProxyObject
 90
      499
 91
      505
 95
   393239
 70
     0
 93
      113
310
904313A333040000000000003E4000
  0
ACAD_PROXY_OBJECT
  5
51
102
{ACAD_REACTORS
330
47
102
}
330
47
100
AcDbProxyObject
 90
      499
 91
      505
 95
   393239
 70
     0
 93
      113
310
904313A34304000000000000444000
  0
ACAD_PROXY_OBJECT
  5
52
102
{ACAD_REACTORS
330
47
102
}
330
47
100
AcDbProxyObject
 90
      499
 91
      505
 95
   393239
 70
     0
 93
      113
310
904313A35304000000000000494000
  0
ACAD_PROXY_OBJECT
  5
53
102
{ACAD_REACTORS
330
47
102
}
330
47
100
AcDbProxyObject
 90
      499
 91
      505
 95
   393239
 70
     0
 93
      121
310
905313A3130304000000000000594000
  0
ACAD_PROXY_OBJECT
  5
54
102
{ACAD_REACTORS
330
47
102
}
330
47
100
AcDbProxyObject
 90
      499
 91
      505
 95
   393239
 70
     0
 93
      105
310
903323A310000000000000010100
  0
ACAD_PROXY_OBJECT
  5
55
102
{ACAD_REACTORS
330
47
102
}
330
47
100
AcDbProxyObject
 90
      499
 91
      505
 95
   393239
 70
     0
 93
      105
310
903343A310000000000000410100
  0
ACAD_PROXY_OBJECT
  5
56
102
{ACAD_REACTORS
330
47
102
}
330
47
100
AcDbProxyObject
 90
      499
 91
      505
 95
   393239
 70
     0
 93
      105
310
903383A310000000000000810100
  0
ACAD_PROXY_OBJECT
  5
57
102
{ACAD_REACTORS
330
47
102
}
330
47
100
AcDbProxyObject
 90
      499
 91
      505
 95
   393239
 70
     0
 93
      113
310
90431303A310000000000000910100
  0
ACAD_PROXY_OBJECT
  5
58
102
{ACAD_REACTORS
330
47
102
}
330
47
100
AcDbProxyObject
 90
      499
 91
      505
 95
   393239
 70
     0
 93
      121
310
9053130303A310000000000001650100
  0
ACAD_PROXY_OBJECT
  5
5AB
102
{ACAD_REACTORS
330
47
102
}
330
47
100
AcDbProxyObject
 90
      499
 91
      505
 95
   393239
 70
     0
 93
      257
310
90E312F31323822203D2031272D3022000000000000200FC000000000000284000
  0
ACAD_PROXY_OBJECT
  5
5AC
102
{ACAD_REACTORS
330
47
102
}
330
47
100
AcDbProxyObject
 90
      499
 91
      505
 95
   393239
 70
     0
 93
      249
310
90D312F363422203D2031272D3022000000000000240FC000000000000284000
  0
ACAD_PROXY_OBJECT
  5
5B
102
{ACAD_REACTORS
330
47
102
}
330
47
100
AcDbProxyObject
 90
      499
 91
      505
 95
   393239
 70
     0
 93
      249
310
90D312F333222203D2031272D3022000000000000280FC000000000000284000
  0
ACAD_PROXY_OBJECT
  5
5C
102
{ACAD_REACTORS
330
47
102
}
330
47
100
AcDbProxyObject
 90
      499
 91
      505
 95
   393239
 70
     0
 93
      249
310
90D312F313622203D2031272D30220000000000002C0FC000000000000284000
  0
ACAD_PROXY_OBJECT
  5
5D
102
{ACAD_REACTORS
330
47
102
}
330
47
100
AcDbProxyObject
 90
      499
 91
      505
 95
   393239
 70
     0
 93
      249
310
90D332F333222203D2031272D30220000000000002E0FC000000000000284000
  0
ACAD_PROXY_OBJECT
  5
5AD
102
{ACAD_REACTORS
330
47
102
}
330
47
100
AcDbProxyObject
 90
      499
 91
      505
 95
   393239
 70
     0
 93
      241
310
90C312F3822203D2031272D3022000000000000300FC000000000000284000
  0
ACAD_PROXY_OBJECT
  5
5F
102
{ACAD_REACTORS
330
47
102
}
330
47
100
AcDbProxyObject
 90
      499
 91
      505
 95
   393239
 70
     0
 93
      249
310
90D332F313622203D2031272D3022000000000000320FC000000000000284000
  0
ACAD_PROXY_OBJECT
  5
60
102
{ACAD_REACTORS
330
47
102
}
330
47
100
AcDbProxyObject
 90
      499
 91
      505
 95
   393239
 70
     0
 93
      241
310
90C312F3422203D2031272D3022000000000000340FC000000000000284000
  0
ACAD_PROXY_OBJECT
  5
61
102
{ACAD_REACTORS
330
47
102
}
330
47
100
AcDbProxyObject
 90
      499
 91
      505
 95
   393239
 70
     0
 93
      241
310
90C332F3822203D2031272D3022000000000000360FC000000000000284000
  0
ACAD_PROXY_OBJECT
  5
62
102
{ACAD_REACTORS
330
47
102
}
330
47
100
AcDbProxyObject
 90
      499
 91
      505
 95
   393239
 70
     0
 93
      241
310
90C312F3222203D2031272D3022000000000000380FC000000000000284000
  0
ACAD_PROXY_OBJECT
  5
63
102
{ACAD_REACTORS
330
47
102
}
330
47
100
AcDbProxyObject
 90
      499
 91
      505
 95
   393239
 70
     0
 93
      241
310
90C332F3422203D2031272D30220000000000003A0FC000000000000284000
  0
ACAD_PROXY_OBJECT
  5
64
102
{ACAD_REACTORS
330
47
102
}
330
47
100
AcDbProxyObject
 90
      499
 91
      505
 95
   393239
 70
     0
 93
      161
310
90A3122203D2031272D30224000000000000284000
  0
ACAD_PROXY_OBJECT
  5
65
102
{ACAD_REACTORS
330
47
102
}
330
47
100
AcDbProxyObject
 90
      499
 91
      505
 95
   393239
 70
     0
 93
      257
310
90E312D312F3222203D2031272D30220000000000003E0FC000000000000284000
  0
ACAD_PROXY_OBJECT
  5
66
102
{ACAD_REACTORS
330
47
102
}
330
47
100
AcDbProxyObject
 90
      499
 91
      505
 95
   393239
 70
     0
 93
      225
310
90A3322203D2031272D302200000000000002100000000000000284000
  0
ACAD_PROXY_OBJECT
  5
67
102
{ACAD_REACTORS
330
47
102
}
330
47
100
AcDbProxyObject
 90
      499
 91
      505
 95
   393239
 70
     0
 93
      225
310
90A3622203D2031272D302200000000000006100000000000000284000
  0
ACAD_PROXY_OBJECT
  5
68
102
{ACAD_REACTORS
330
47
102
}
330
47
100
AcDbProxyObject
 90
      499
 91
      505
 95
   393239
 70
     0
 93
      249
310
90D31272D3022203D2031272D30220000000000000A100000000000000284000
  0
TABLESTYLE
  5
93
102
{ACAD_REACTORS
330
92
102
}
330
92
100
AcDbTableStyle
  3
Standard
 70
     0
 71
     0
 40
0.06
 41
0.06
280
     0
281
     0
  7
Standard
140
0.18
170
     2
 62
     0
 63
     7
283
     0
274
    -2
284
     1
 64
     0
275
    -2
285
     1
 65
     0
276
    -2
286
     1
 66
     0
277
    -2
287
     1
 67
     0
278
    -2
288
     1
 68
     0
279
    -2
289
     1
 69
     0
  7
Standard
140
0.25
170
     5
 62
     0
 63
     7
283
     0
274
    -2
284
     1
 64
     0
275
    -2
285
     1
 65
     0
276
    -2
286
     1
 66
     0
277
    -2
287
     1
 67
     0
278
    -2
288
     1
 68
     0
279
    -2
289
     1
 69
     0
  7
Standard
140
0.18
170
     5
 62
     0
 63
     7
283
     0
274
    -2
284
     1
 64
     0
275
    -2
285
     1
 65
     0
276
    -2
286
     1
 66
     0
277
    -2
287
     1
 67
     0
278
    -2
288
     1
 68
     0
279
    -2
289
     1
 69
     0
  0
DICTIONARYVAR
  5
98
102
{ACAD_REACTORS
330
59
102
}
330
59
100
DictionaryVariables
280
     0
  1
STANDARD
  0
DICTIONARYVAR
  5
598
102
{ACAD_REACTORS
330
59
102
}
330
59
100
DictionaryVariables
280
     0
  1
2
  0
ENDSEC
  0
EOF
