  0
SECTION
  2
HEADER
  9
$ACADVER
  1
AC1018
  9
$ACADMAINTVER
 70
    39
  9
$DWGCODEPAGE
  3
ANSI_1252
  9
$LASTSAVEDBY
  1
fottrem
  9
$INSBASE
 10
0.0
 20
0.0
 30
0.0
  9
$EXTMIN
 10
0.1653543307086614
 20
0.1653543307086614
 30
-1.277330381675059
  9
$EXTMAX
 10
41.83464566929134
 20
44.83464566929134
 30
1.277330381675058
  9
$LIMMIN
 10
0.0
 20
0.0
  9
$LIMMAX
 10
42.0
 20
45.0
  9
$ORTHOMODE
 70
     0
  9
$REGENMODE
 70
     1
  9
$FILLMODE
 70
     1
  9
$QTEXTMODE
 70
     0
  9
$MIRRTEXT
 70
     1
  9
$LTSCALE
 40
1.0
  9
$ATTMODE
 70
     1
  9
$TEXTSIZE
 40
0.3750000000000001
  9
$TRACEWID
 40
0.05
  9
$TEXTSTYLE
  7
Standard
  9
$CLAYER
  8
0
  9
$CELTYPE
  6
ByLayer
  9
$CECOLOR
 62
   256
  9
$CELTSCALE
 40
1.0
  9
$DISPSILH
 70
     0
  9
$DIMSCALE
 40
1.0
  9
$DIMASZ
 40
0.1
  9
$DIMEXO
 40
0.1666666666666667
  9
$DIMDLI
 40
0.38
  9
$DIMRND
 40
0.0
  9
$DIMDLE
 40
0.0
  9
$DIMEXE
 40
0.3750000000000001
  9
$DIMTP
 40
0.0
  9
$DIMTM
 40
0.0
  9
$DIMTXT
 40
0.3750000000000001
  9
$DIMCEN
 40
0.09
  9
$DIMTSZ
 40
0.0
  9
$DIMTOL
 70
     0
  9
$DIMLIM
 70
     0
  9
$DIMTIH
 70
     1
  9
$DIMTOH
 70
     1
  9
$DIMSE1
 70
     0
  9
$DIMSE2
 70
     0
  9
$DIMTAD
 70
     0
  9
$DIMZIN
 70
     1
  9
$DIMBLK
  1

  9
$DIMASO
 70
     1
  9
$DIMSHO
 70
     1
  9
$DIMPOST
  1

  9
$DIMAPOST
  1

  9
$DIMALT
 70
     0
  9
$DIMALTD
 70
     2
  9
$DIMALTF
 40
25.4
  9
$DIMLFAC
 40
1.0
  9
$DIMTOFL
 70
     0
  9
$DIMTVP
 40
0.0
  9
$DIMTIX
 70
     0
  9
$DIMSOXD
 70
     0
  9
$DIMSAH
 70
     0
  9
$DIMBLK1
  1

  9
$DIMBLK2
  1

  9
$DIMSTYLE
  2
Standard
  9
$DIMCLRD
 70
     0
  9
$DIMCLRE
 70
     0
  9
$DIMCLRT
 70
     0
  9
$DIMTFAC
 40
1.0
  9
$DIMGAP
 40
0.2
  9
$DIMJUST
 70
     0
  9
$DIMSD1
 70
     0
  9
$DIMSD2
 70
     0
  9
$DIMTOLJ
 70
     1
  9
$DIMTZIN
 70
     1
  9
$DIMALTZ
 70
     0
  9
$DIMALTTZ
 70
     0
  9
$DIMUPT
 70
     0
  9
$DIMDEC
 70
     4
  9
$DIMTDEC
 70
     4
  9
$DIMALTU
 70
     2
  9
$DIMALTTD
 70
     2
  9
$DIMTXSTY
  7
Standard
  9
$DIMAUNIT
 70
     0
  9
$DIMADEC
 70
     2
  9
$DIMALTRND
 40
0.0
  9
$DIMAZIN
 70
     0
  9
$DIMDSEP
 70
    46
  9
$DIMATFIT
 70
     3
  9
$DIMFRAC
 70
     0
  9
$DIMLDRBLK
  1

  9
$DIMLUNIT
 70
     2
  9
$DIMLWD
 70
    -2
  9
$DIMLWE
 70
    -2
  9
$DIMTMOVE
 70
     0
  9
$LUNITS
 70
     2
  9
$LUPREC
 70
     4
  9
$SKETCHINC
 40
0.1
  9
$FILLETRAD
 40
0.5
  9
$AUNITS
 70
     0
  9
$AUPREC
 70
     2
  9
$MENU
  1
.
  9
$ELEVATION
 40
0.0
  9
$PELEVATION
 40
0.0
  9
$THICKNESS
 40
0.0
  9
$LIMCHECK
 70
     0
  9
$CHAMFERA
 40
0.0
  9
$CHAMFERB
 40
0.0
  9
$CHAMFERC
 40
0.0
  9
$CHAMFERD
 40
0.0
  9
$SKPOLY
 70
     0
  9
$TDCREATE
 40
2453353.550459155
  9
$TDUCREATE
 40
2453353.717125822
  9
$TDUPDATE
 40
2459488.500869653
  9
$TDUUPDATE
 40
2459488.667536319
  9
$TDINDWG
 40
0.0428356597
  9
$TDUSRTIMER
 40
0.0428356597
  9
$USRTIMER
 70
     1
  9
$ANGBASE
 50
0.0
  9
$ANGDIR
 70
     0
  9
$PDMODE
 70
     0
  9
$PDSIZE
 40
-1.0
  9
$PLINEWID
 40
0.0
  9
$SPLFRAME
 70
     0
  9
$SPLINETYPE
 70
     6
  9
$SPLINESEGS
 70
     8
  9
$HANDSEED
  5
3F5
  9
$SURFTAB1
 70
     6
  9
$SURFTAB2
 70
     6
  9
$SURFTYPE
 70
     6
  9
$SURFU
 70
     6
  9
$SURFV
 70
     6
  9
$UCSBASE
  2

  9
$UCSNAME
  2

  9
$UCSORG
 10
0.0
 20
0.0
 30
0.0
  9
$UCSXDIR
 10
1.0
 20
0.0
 30
0.0
  9
$UCSYDIR
 10
0.0
 20
1.0
 30
0.0
  9
$UCSORTHOREF
  2

  9
$UCSORTHOVIEW
 70
     0
  9
$UCSORGTOP
 10
0.0
 20
0.0
 30
0.0
  9
$UCSORGBOTTOM
 10
0.0
 20
0.0
 30
0.0
  9
$UCSORGLEFT
 10
0.0
 20
0.0
 30
0.0
  9
$UCSORGRIGHT
 10
0.0
 20
0.0
 30
0.0
  9
$UCSORGFRONT
 10
0.0
 20
0.0
 30
0.0
  9
$UCSORGBACK
 10
0.0
 20
0.0
 30
0.0
  9
$PUCSBASE
  2

  9
$PUCSNAME
  2

  9
$PUCSORG
 10
0.0
 20
0.0
 30
0.0
  9
$PUCSXDIR
 10
1.0
 20
0.0
 30
0.0
  9
$PUCSYDIR
 10
0.0
 20
1.0
 30
0.0
  9
$PUCSORTHOREF
  2

  9
$PUCSORTHOVIEW
 70
     0
  9
$PUCSORGTOP
 10
0.0
 20
0.0
 30
0.0
  9
$PUCSORGBOTTOM
 10
0.0
 20
0.0
 30
0.0
  9
$PUCSORGLEFT
 10
0.0
 20
0.0
 30
0.0
  9
$PUCSORGRIGHT
 10
0.0
 20
0.0
 30
0.0
  9
$PUCSORGFRONT
 10
0.0
 20
0.0
 30
0.0
  9
$PUCSORGBACK
 10
0.0
 20
0.0
 30
0.0
  9
$USERI1
 70
     0
  9
$USERI2
 70
     0
  9
$USERI3
 70
     0
  9
$USERI4
 70
     0
  9
$USERI5
 70
     0
  9
$USERR1
 40
0.0
  9
$USERR2
 40
0.0
  9
$USERR3
 40
0.0
  9
$USERR4
 40
0.0
  9
$USERR5
 40
0.0
  9
$WORLDVIEW
 70
     1
  9
$SHADEDGE
 70
     3
  9
$SHADEDIF
 70
    70
  9
$TILEMODE
 70
     1
  9
$MAXACTVP
 70
    64
  9
$PINSBASE
 10
0.0
 20
0.0
 30
0.0
  9
$PLIMCHECK
 70
     0
  9
$PEXTMIN
 10
1.000000000000000E+20
 20
1.000000000000000E+20
 30
1.000000000000000E+20
  9
$PEXTMAX
 10
-1.000000000000000E+20
 20
-1.000000000000000E+20
 30
-1.000000000000000E+20
  9
$PLIMMIN
 10
0.0
 20
0.0
  9
$PLIMMAX
 10
12.0
 20
9.0
  9
$UNITMODE
 70
     0
  9
$VISRETAIN
 70
     1
  9
$PLINEGEN
 70
     0
  9
$PSLTSCALE
 70
     1
  9
$TREEDEPTH
 70
  3020
  9
$CMLSTYLE
  2
Standard
  9
$CMLJUST
 70
     0
  9
$CMLSCALE
 40
1.0
  9
$PROXYGRAPHICS
 70
     1
  9
$MEASUREMENT
 70
     0
  9
$CELWEIGHT
370
    -1
  9
$ENDCAPS
280
     0
  9
$JOINSTYLE
280
     0
  9
$LWDISPLAY
290
     1
  9
$INSUNITS
 70
     1
  9
$HYPERLINKBASE
  1

  9
$STYLESHEET
  1

  9
$XEDIT
290
     0
  9
$CEPSNTYPE
380
     0
  9
$PSTYLEMODE
290
     1
  9
$FINGERPRINTGUID
  2
{6079ab2c-806c-4761-b85d-2da302b1772e}
  9
$VERSIONGUID
  2
{FAEB1C32-E019-11D5-929B-00C0DF256EC4}
  9
$EXTNAMES
290
     1
  9
$PSVPSCALE
 40
0.0
  9
$OLESTARTUP
290
     0
  9
$SORTENTS
280
   127
  9
$INDEXCTL
280
     0
  9
$HIDETEXT
280
     1
  9
$XCLIPFRAME
290
     0
  9
$HALOGAP
280
     0
  9
$OBSCOLOR
 70
   257
  9
$OBSLTYPE
280
     0
  9
$INTERSECTIONDISPLAY
280
     0
  9
$INTERSECTIONCOLOR
 70
   257
  9
$DIMASSOC
280
     2
  9
$PROJECTNAME
  1

  0
ENDSEC
  0
SECTION
  2
CLASSES
  0
CLASS
  1
ACDBDICTIONARYWDFLT
  2
AcDbDictionaryWithDefault
  3
ObjectDBX Classes
 90
        0
 91
        3
280
     0
281
     0
  0
CLASS
  1
ACDBPLACEHOLDER
  2
AcDbPlaceHolder
  3
ObjectDBX Classes
 90
        0
 91
        1
280
     0
281
     0
  0
CLASS
  1
LAYOUT
  2
AcDbLayout
  3
ObjectDBX Classes
 90
        0
 91
        1
280
     0
281
     0
  0
CLASS
  1
DICTIONARYVAR
  2
AcDbDictionaryVar
  3
ObjectDBX Classes
 90
        0
 91
        3
280
     0
281
     0
  0
CLASS
  1
TABLESTYLE
  2
AcDbTableStyle
  3
ObjectDBX Classes
 90
     2047
 91
        3
280
     0
281
     0
  0
CLASS
  1
SCALE
  2
AcDbScale
  3
ObjectDBX Classes
 90
     1153
 91
       67
280
     1
281
     0
  0
ENDSEC
  0
SECTION
  2
TABLES
  0
TABLE
  2
VPORT
  5
8
330
0
100
AcDbSymbolTable
 70
     2
  0
VPORT
  5
97
330
8
100
AcDbSymbolTableRecord
100
AcDbViewportTableRecord
  2
*Active
 70
     0
 10
0.0
 20
0.0
 11
1.0
 21
1.0
 12
21.0
 22
22.5
 13
0.0
 23
0.0
 14
0.5
 24
0.5
 15
0.5
 25
0.5
 16
0.0
 26
0.0
 36
1.0
 17
0.0
 27
0.0
 37
0.0
 40
45.56267716535434
 41
0.9333333333333333
 42
50.0
 43
0.0
 44
0.0
 50
0.0
 51
0.0
 71
    16
 72
  2000
 73
     1
 74
     1
 75
     0
 76
     0
 77
     0
 78
     0
281
     0
 65
     0
110
0.0
120
0.0
130
0.0
111
1.0
121
0.0
131
0.0
112
0.0
122
1.0
132
0.0
 79
     0
146
0.0
  0
ENDTAB
  0
TABLE
  2
LTYPE
  5
5
330
0
100
AcDbSymbolTable
 70
     8
  0
LTYPE
  5
14
330
5
100
AcDbSymbolTableRecord
100
AcDbLinetypeTableRecord
  2
ByBlock
 70
     0
  3

 72
    65
 73
     0
 40
0.0
  0
LTYPE
  5
15
330
5
100
AcDbSymbolTableRecord
100
AcDbLinetypeTableRecord
  2
ByLayer
 70
     0
  3

 72
    65
 73
     0
 40
0.0
  0
LTYPE
  5
16
330
5
100
AcDbSymbolTableRecord
100
AcDbLinetypeTableRecord
  2
Continuous
 70
     0
  3
Solid line
 72
    65
 73
     0
 40
0.0
  0
LTYPE
  5
3C7
330
5
100
AcDbSymbolTableRecord
100
AcDbLinetypeTableRecord
  2
SLD-Solid
 70
     0
  3
SolidWorks Line Style
 72
    65
 73
     0
 40
0.0
  0
LTYPE
  5
3C8
330
5
100
AcDbSymbolTableRecord
100
AcDbLinetypeTableRecord
  2
SLD-Dashed
 70
     0
  3
SolidWorks Line Style
 72
    65
 73
     2
 40
0.075
 49
0.05
 74
     4
 75
     0
340
0
 46
1.0
 50
0.0
 44
0.0
 45
0.0
 49
-0.025
 74
     4
 75
     0
340
0
 46
1.0
 50
0.0
 44
0.0
 45
0.0
  0
LTYPE
  5
3C9
330
5
100
AcDbSymbolTableRecord
100
AcDbLinetypeTableRecord
  2
SLD-Phantom
 70
     0
  3
SolidWorks Line Style
 72
    65
 73
     6
 40
0.4999999999999999
 49
0.25
 74
     4
 75
     0
340
0
 46
1.0
 50
0.0
 44
0.0
 45
0.0
 49
-0.05
 74
     4
 75
     0
340
0
 46
1.0
 50
0.0
 44
0.0
 45
0.0
 49
0.05
 74
     4
 75
     0
340
0
 46
1.0
 50
0.0
 44
0.0
 45
0.0
 49
-0.05
 74
     4
 75
     0
340
0
 46
1.0
 50
0.0
 44
0.0
 45
0.0
 49
0.05
 74
     4
 75
     0
340
0
 46
1.0
 50
0.0
 44
0.0
 45
0.0
 49
-0.05
 74
     4
 75
     0
340
0
 46
1.0
 50
0.0
 44
0.0
 45
0.0
  0
LTYPE
  5
3CA
330
5
100
AcDbSymbolTableRecord
100
AcDbLinetypeTableRecord
  2
SLD-Chain
 70
     0
  3
SolidWorks Line Style
 72
    65
 73
     4
 40
0.4
 49
0.25
 74
     4
 75
     0
340
0
 46
1.0
 50
0.0
 44
0.0
 45
0.0
 49
-0.05
 74
     4
 75
     0
340
0
 46
1.0
 50
0.0
 44
0.0
 45
0.0
 49
0.05
 74
     4
 75
     0
340
0
 46
1.0
 50
0.0
 44
0.0
 45
0.0
 49
-0.05
 74
     4
 75
     0
340
0
 46
1.0
 50
0.0
 44
0.0
 45
0.0
  0
LTYPE
  5
3CB
330
5
100
AcDbSymbolTableRecord
100
AcDbLinetypeTableRecord
  2
SLD-Center
 70
     0
  3
SolidWorks Line Style
 72
    65
 73
     4
 40
0.7500000000000002
 49
0.6000000000000001
 74
     4
 75
     0
340
0
 46
1.0
 50
0.0
 44
0.0
 45
0.0
 49
-0.05
 74
     4
 75
     0
340
0
 46
1.0
 50
0.0
 44
0.0
 45
0.0
 49
0.05
 74
     4
 75
     0
340
0
 46
1.0
 50
0.0
 44
0.0
 45
0.0
 49
-0.05
 74
     4
 75
     0
340
0
 46
1.0
 50
0.0
 44
0.0
 45
0.0
  0
LTYPE
  5
3CC
330
5
100
AcDbSymbolTableRecord
100
AcDbLinetypeTableRecord
  2
SLD-Stitch
 70
     0
  3
SolidWorks Line Style
 72
    65
 73
     2
 40
0.025
 49
0.0
 74
     4
 75
     0
340
0
 46
1.0
 50
0.0
 44
0.0
 45
0.0
 49
-0.025
 74
     4
 75
     0
340
0
 46
1.0
 50
0.0
 44
0.0
 45
0.0
  0
LTYPE
  5
3CD
330
5
100
AcDbSymbolTableRecord
100
AcDbLinetypeTableRecord
  2
SLD-Thin-Thick-Chain
 70
     0
  3
SolidWorks Line Style
 72
    65
 73
     4
 40
0.4
 49
0.25
 74
     4
 75
     0
340
0
 46
1.0
 50
0.0
 44
0.0
 45
0.0
 49
-0.05
 74
     4
 75
     0
340
0
 46
1.0
 50
0.0
 44
0.0
 45
0.0
 49
0.05
 74
     4
 75
     0
340
0
 46
1.0
 50
0.0
 44
0.0
 45
0.0
 49
-0.05
 74
     4
 75
     0
340
0
 46
1.0
 50
0.0
 44
0.0
 45
0.0
  0
ENDTAB
  0
TABLE
  2
LAYER
  5
2
330
0
100
AcDbSymbolTable
 70
     6
  0
LAYER
  5
10
330
2
100
AcDbSymbolTableRecord
100
AcDbLayerTableRecord
  2
0
 70
     0
 62
     7
  6
Continuous
370
    -3
390
F
  0
LAYER
  5
3CE
330
2
100
AcDbSymbolTableRecord
100
AcDbLayerTableRecord
  2
FORMAT
 70
     0
 62
     7
  6
SLD-Solid
370
    -3
390
F
  0
LAYER
  5
3CF
330
2
100
AcDbSymbolTableRecord
100
AcDbLayerTableRecord
  2
NOTES
 70
     0
 62
     1
  6
SLD-Solid
370
    -3
390
F
  0
LAYER
  5
77
330
2
100
AcDbSymbolTableRecord
100
AcDbLayerTableRecord
  2
OBJECT
 70
     0
 62
     7
  6
SLD-Solid
370
    -3
390
F
  0
LAYER
  5
78
330
2
100
AcDbSymbolTableRecord
100
AcDbLayerTableRecord
  2
DIMS
 70
     0
 62
     5
  6
SLD-Solid
370
    -3
390
F
  0
LAYER
  5
79
330
2
100
AcDbSymbolTableRecord
100
AcDbLayerTableRecord
  2
TITLE
 70
     0
 62
     8
  6
SLD-Solid
370
    -3
390
F
  0
ENDTAB
  0
TABLE
  2
STYLE
  5
3
330
0
100
AcDbSymbolTable
 70
     5
  0
STYLE
  5
11
330
3
100
AcDbSymbolTableRecord
100
AcDbTextStyleTableRecord
  2
Standard
 70
     0
 40
0.0
 41
1.0
 50
0.0
 71
     0
 42
0.3750000000000001
  3
GOTHIC.TTF
  4

1001
ACAD
1000
CENTURY GOTHIC
1071
       34
  0
STYLE
  5
DD
330
3
100
AcDbSymbolTableRecord
100
AcDbTextStyleTableRecord
  2
SLDTEXTSTYLE0
 70
     0
 40
0.0
 41
0.948
 50
0.0
 71
     0
 42
0.3750000000000001
  3
ARIAL.TTF
  4

1001
ACAD
1000
Arial
1071
      290
  0
STYLE
  5
E1
330
3
100
AcDbSymbolTableRecord
100
AcDbTextStyleTableRecord
  2
SLDTEXTSTYLE1
 70
     0
 40
0.0
 41
0.913
 50
0.0
 71
     0
 42
0.3750000000000001
  3
GOTHIC.TTF
  4

1001
ACAD
1000
Century Gothic
1071
      290
  0
STYLE
  5
F0
330
3
100
AcDbSymbolTableRecord
100
AcDbTextStyleTableRecord
  2
SLDTEXTSTYLE2
 70
     0
 40
0.0
 41
0.87
 50
0.0
 71
     0
 42
0.3750000000000001
  3
ARIALNB.TTF
  4

1001
ACAD
1000
Arial Narrow
1071
 33554722
  0
STYLE
  5
F2
330
3
100
AcDbSymbolTableRecord
100
AcDbTextStyleTableRecord
  2
SLDTEXTSTYLE3
 70
     0
 40
0.0
 41
0.87
 50
0.0
 71
     0
 42
0.3750000000000001
  3
ARIALN.TTF
  4

1001
ACAD
1000
Arial Narrow
1071
      290
  0
ENDTAB
  0
TABLE
  2
VIEW
  5
6
330
0
100
AcDbSymbolTable
 70
     0
  0
ENDTAB
  0
TABLE
  2
UCS
  5
7
330
0
100
AcDbSymbolTable
 70
     0
  0
ENDTAB
  0
TABLE
  2
APPID
  5
9
330
0
100
AcDbSymbolTable
 70
     1
  0
APPID
  5
12
330
9
100
AcDbSymbolTableRecord
100
AcDbRegAppTableRecord
  2
ACAD
 70
     0
  0
ENDTAB
  0
TABLE
  2
DIMSTYLE
  5
A
330
0
100
AcDbSymbolTable
 70
     5
100
AcDbDimStyleTable
  0
DIMSTYLE
105
27
330
A
100
AcDbSymbolTableRecord
100
AcDbDimStyleTableRecord
  2
Standard
 70
     0
340
11
  0
DIMSTYLE
105
1D3
102
{ACAD_REACTORS
330
1D2
330
1E6
330
1F1
330
32D
330
397
102
}
330
A
100
AcDbSymbolTableRecord
100
AcDbDimStyleTableRecord
  2
SLDDIMSTYLE0
 70
     0
 41
0.1
 44
0.0
 45
0.000000001
 78
    12
 79
     3
140
0.3750000000000001
147
0.09375
173
     1
276
     2
277
     5
284
    12
340
E1
341
3D0
343
3D0
344
3D0
  0
DIMSTYLE
105
23E
330
A
100
AcDbSymbolTableRecord
100
AcDbDimStyleTableRecord
  2
SLDDIMSTYLE1
 70
     0
 41
0.1
 44
0.0
 45
0.000000001
146
0.1
147
0.0
173
     1
271
     0
272
     0
276
     2
277
     5
340
11
341
3D0
343
3D0
344
3D0
  0
DIMSTYLE
105
379
102
{ACAD_REACTORS
330
378
330
388
330
3AF
102
}
330
A
100
AcDbSymbolTableRecord
100
AcDbDimStyleTableRecord
  2
SLDDIMSTYLE2
 70
     0
 41
0.1
 44
0.0
 45
0.000000001
 78
    12
 79
     3
140
0.3750000000000001
147
0.09375
173
     1
271
     6
276
     2
277
     5
284
    12
340
E1
341
3D0
343
3D0
344
3D0
  0
DIMSTYLE
105
3A3
102
{ACAD_REACTORS
330
3A2
102
}
330
A
100
AcDbSymbolTableRecord
100
AcDbDimStyleTableRecord
  2
SLDDIMSTYLE3
 70
     0
 41
0.1
 44
0.0
 45
0.000000001
 78
    12
 79
     3
140
0.3750000000000001
141
0.0
147
0.09375
173
     1
276
     2
277
     5
284
    12
340
E1
341
3D0
343
3D0
344
3D0
  0
ENDTAB
  0
TABLE
  2
BLOCK_RECORD
  5
1
330
0
100
AcDbSymbolTable
 70
    13
  0
BLOCK_RECORD
  5
1F
330
1
100
AcDbSymbolTableRecord
100
AcDbBlockTableRecord
  2
*Model_Space
340
22
  0
BLOCK_RECORD
  5
73
330
1
100
AcDbSymbolTableRecord
100
AcDbBlockTableRecord
  2
*Paper_Space
340
74
  0
BLOCK_RECORD
  5
3D0
330
1
100
AcDbSymbolTableRecord
100
AcDbBlockTableRecord
  2
_Open90
340
0
102
{BLKREFS
331
1DD
331
1DE
331
1EA
331
1EB
331
1F5
331
1F6
331
331
331
332
331
37D
331
37E
331
38C
331
38D
331
39B
331
39C
331
3A7
331
3B3
331
3B4
102
}
  0
BLOCK_RECORD
  5
23
330
1
100
AcDbSymbolTableRecord
100
AcDbBlockTableRecord
  2
*Paper_Space1
340
26
  0
BLOCK_RECORD
  5
E7
330
1
100
AcDbSymbolTableRecord
100
AcDbBlockTableRecord
  2
SW_NOTE_0
340
0
  0
BLOCK_RECORD
  5
ED
330
1
100
AcDbSymbolTableRecord
100
AcDbBlockTableRecord
  2
SW_NOTE_0_1
340
0
102
{BLKREFS
331
F6
102
}
  0
BLOCK_RECORD
  5
1DA
330
1
100
AcDbSymbolTableRecord
100
AcDbBlockTableRecord
  2
_D
340
0
  0
BLOCK_RECORD
  5
1E7
330
1
100
AcDbSymbolTableRecord
100
AcDbBlockTableRecord
  2
_D_1
340
0
  0
BLOCK_RECORD
  5
1F2
330
1
100
AcDbSymbolTableRecord
100
AcDbBlockTableRecord
  2
_D_2
340
0
  0
BLOCK_RECORD
  5
32E
330
1
100
AcDbSymbolTableRecord
100
AcDbBlockTableRecord
  2
_D_3
340
0
  0
BLOCK_RECORD
  5
37A
330
1
100
AcDbSymbolTableRecord
100
AcDbBlockTableRecord
  2
_D_4
340
0
  0
BLOCK_RECORD
  5
389
330
1
100
AcDbSymbolTableRecord
100
AcDbBlockTableRecord
  2
_D_5
340
0
  0
BLOCK_RECORD
  5
398
330
1
100
AcDbSymbolTableRecord
100
AcDbBlockTableRecord
  2
_D_6
340
0
  0
BLOCK_RECORD
  5
3A4
330
1
100
AcDbSymbolTableRecord
100
AcDbBlockTableRecord
  2
_D_7
340
0
  0
BLOCK_RECORD
  5
3B0
330
1
100
AcDbSymbolTableRecord
100
AcDbBlockTableRecord
  2
_D_8
340
0
  0
ENDTAB
  0
ENDSEC
  0
SECTION
  2
BLOCKS
  0
BLOCK
  5
20
330
1F
100
AcDbEntity
  8
0
100
AcDbBlockBegin
  2
*Model_Space
 70
     0
 71
     0
 10
0.0
 20
0.0
 30
0.0
  3
*Model_Space
  1

  0
ENDBLK
  5
21
330
1F
100
AcDbEntity
  8
0
100
AcDbBlockEnd
  0
BLOCK
  5
75
330
73
100
AcDbEntity
 67
     1
  8
0
100
AcDbBlockBegin
  2
*Paper_Space
 70
     0
 71
     0
 10
0.0
 20
0.0
 30
0.0
  3
*Paper_Space
  1

  0
ENDBLK
  5
76
330
73
100
AcDbEntity
 67
     1
  8
0
100
AcDbBlockEnd
  0
BLOCK
  5
3D1
330
3D0
100
AcDbEntity
  8
0
100
AcDbBlockBegin
  2
_Open90
 70
     0
 71
     0
 10
0.0
 20
0.0
 30
0.0
  3
_Open90
  1

  0
LINE
  5
1D7
330
3D0
100
AcDbEntity
  8
0
  6
ByBlock
 62
     0
370
    -2
100
AcDbLine
 10
-0.5
 20
0.5
 30
0.0
 11
0.0
 21
0.0
 31
0.0
  0
LINE
  5
1D8
330
3D0
100
AcDbEntity
  8
0
  6
ByBlock
 62
     0
370
    -2
100
AcDbLine
 10
0.0
 20
0.0
 30
0.0
 11
-0.5
 21
-0.5
 31
0.0
  0
LINE
  5
1D9
330
3D0
100
AcDbEntity
  8
0
  6
ByBlock
 62
     0
370
    -2
100
AcDbLine
 10
0.0
 20
0.0
 30
0.0
 11
-1.0
 21
0.0
 31
0.0
  0
ENDBLK
  5
3D2
330
3D0
100
AcDbEntity
  8
0
100
AcDbBlockEnd
  0
BLOCK
  5
3D9
330
23
100
AcDbEntity
  8
0
100
AcDbBlockBegin
  2
*Paper_Space1
 70
     0
 71
     0
 10
0.0
 20
0.0
 30
0.0
  3
*Paper_Space1
  1

  0
ENDBLK
  5
3DA
330
23
100
AcDbEntity
  8
0
100
AcDbBlockEnd
  0
BLOCK
  5
3DB
330
E7
100
AcDbEntity
  8
0
100
AcDbBlockBegin
  2
SW_NOTE_0
 70
     0
 71
     0
 10
0.0
 20
0.0
 30
0.0
  3
SW_NOTE_0
  1

  0
MTEXT
  5
EA
330
E7
100
AcDbEntity
  8
NOTES
 62
     0
100
AcDbMText
 10
0.0
 20
0.3759780907668229
 30
0.0
 40
0.2916666666666666
 41
0.0
 71
     1
 72
     1
  1
FROST PRODUCTS LTD.
  7
SLDTEXTSTYLE0
 73
     1
 44
1.0
  0
MTEXT
  5
EB
330
E7
100
AcDbEntity
  8
NOTES
 62
     0
100
AcDbMText
 10
0.0
 20
-0.0495142708586375
 30
0.0
 40
0.2291666666666666
 41
0.0
 71
     1
 72
     1
  1
5280 JOHN LUCUS DRIVE, BURLINGTON, ON, L7L 5Z9
  7
SLDTEXTSTYLE0
 73
     1
 44
1.0
  0
ENDBLK
  5
3DC
330
E7
100
AcDbEntity
  8
0
100
AcDbBlockEnd
  0
BLOCK
  5
3DD
330
ED
100
AcDbEntity
  8
0
100
AcDbBlockBegin
  2
SW_NOTE_0_1
 70
     0
 71
     0
 10
0.0
 20
0.0
 30
0.0
  3
SW_NOTE_0_1
  1

  0
MTEXT
  5
F1
330
ED
100
AcDbEntity
  8
NOTES
 62
     0
100
AcDbMText
 10
0.0
 20
0.2381282770514712
 30
0.0
 40
0.1847290640394089
 41
0.0
 71
     1
 72
     1
  1
PROPRIETARY AND CONFIDENTIAL
  7
SLDTEXTSTYLE2
 73
     1
 44
1.0
  0
MTEXT
  5
F3
330
ED
100
AcDbEntity
  8
NOTES
 62
     0
100
AcDbMText
 10
0.0
 20
-0.0504364795553608
 30
0.0
 40
0.25
 41
0.0
 71
     1
 72
     1
  1
THE INFORMATION CONTAINED IN THIS DRAWING IS THE SOLE PROPERTY OF 
  7
SLDTEXTSTYLE3
 73
     1
 44
1.0
  0
MTEXT
  5
F4
330
ED
100
AcDbEntity
  8
NOTES
 62
     0
100
AcDbMText
 10
0.0
 20
-0.4231398940537119
 30
0.0
 40
0.25
 41
0.0
 71
     1
 72
     1
  1
FROST PRODUCTS LTD.  ANY REPRODUCTION IN PART OR AS A WHOLE WITHOUT 
  7
SLDTEXTSTYLE3
 73
     1
 44
1.0
  0
MTEXT
  5
F5
330
ED
100
AcDbEntity
  8
NOTES
 62
     0
100
AcDbMText
 10
0.0
 20
-0.7958433085520636
 30
0.0
 40
0.25
 41
0.0
 71
     1
 72
     1
  1
THE WRITTEN PERMISSION OF FROST PRODUCTS LTD. IS PROHIBITED.
  7
SLDTEXTSTYLE3
 73
     1
 44
1.0
  0
ENDBLK
  5
3DE
330
ED
100
AcDbEntity
  8
0
100
AcDbBlockEnd
  0
BLOCK
  5
3DF
330
1DA
100
AcDbEntity
  8
0
100
AcDbBlockBegin
  2
_D
 70
     0
 71
     0
 10
0.0
 20
0.0
 30
0.0
  3
_D
  1

  0
INSERT
  5
1DD
330
1DA
100
AcDbEntity
  8
DIMS
100
AcDbBlockReference
  2
_Open90
 10
1.93208766880272
 20
7.523375871352409
 30
0.0
 41
0.1
 42
0.1
 50
270.0000000000004
  0
INSERT
  5
1DE
330
1DA
100
AcDbEntity
  8
DIMS
100
AcDbBlockReference
  2
_Open90
 10
1.93208766880272
 20
12.04958304135253
 30
0.0
 41
0.1
 42
0.1
 50
90.00000000000041
  0
LINE
  5
1DF
330
1DA
100
AcDbEntity
  8
DIMS
100
AcDbLine
 10
2.094268972622007
 20
7.523375871352409
 30
0.0
 11
2.30708766880272
 21
7.523375871352409
 31
0.0
  0
LINE
  5
1E0
330
1DA
100
AcDbEntity
  8
DIMS
100
AcDbLine
 10
2.721571479865714
 20
12.04958304135253
 30
0.0
 11
1.55708766880272
 21
12.04958304135253
 31
0.0
  0
LINE
  5
1E1
330
1DA
100
AcDbEntity
  8
DIMS
100
AcDbLine
 10
1.93208766880272
 20
7.523375871352409
 30
0.0
 11
1.93208766880272
 21
7.802181922580495
 31
0.0
  0
LINE
  5
1E2
330
1DA
100
AcDbEntity
  8
DIMS
100
AcDbLine
 10
1.93208766880272
 20
12.04958304135253
 30
0.0
 11
1.93208766880272
 21
9.588119384611868
 31
0.0
  0
MTEXT
  5
1E3
330
1DA
100
AcDbEntity
  8
DIMS
100
AcDbMText
 10
-7.943431635022238
 20
9.471810791295997
 30
0.0
 40
0.3750000000000001
 41
0.0
 71
     1
 72
     1
  1
                                                                     44" Max. (1117mm) for unrestricted access
  7
SLDTEXTSTYLE1
 73
     1
 44
1.0
  0
MTEXT
  5
1E4
330
1DA
100
AcDbEntity
  8
DIMS
100
AcDbMText
 10
1.793546001747881
 20
8.876498291730124
 30
0.0
 40
0.3750000000000001
 41
0.0
 71
     1
 72
     1
  1
  
  7
SLDTEXTSTYLE1
 73
     1
 44
1.0
  0
MTEXT
  5
1E5
330
1DA
100
AcDbEntity
  8
DIMS
100
AcDbMText
 10
1.862816835275301
 20
8.281185792164253
 30
0.0
 40
0.3750000000000001
 41
0.0
 71
     1
 72
     1
  1
 
  7
SLDTEXTSTYLE1
 73
     1
 44
1.0
  0
ENDBLK
  5
3E0
330
1DA
100
AcDbEntity
  8
0
100
AcDbBlockEnd
  0
BLOCK
  5
3E1
330
1E7
100
AcDbEntity
  8
0
100
AcDbBlockBegin
  2
_D_1
 70
     0
 71
     0
 10
0.0
 20
0.0
 30
0.0
  3
_D_1
  1

  0
INSERT
  5
1EA
330
1E7
100
AcDbEntity
  8
DIMS
100
AcDbBlockReference
  2
_Open90
 10
9.727036143238069
 20
23.99958304135241
 30
-1.277330381675059
 41
0.1
 42
0.1
 50
90.00000000000041
  0
INSERT
  5
1EB
330
1E7
100
AcDbEntity
  8
DIMS
100
AcDbBlockReference
  2
_Open90
 10
9.727036143238069
 20
11.99958304135241
 30
-1.277330381675059
 41
0.1
 42
0.1
 50
270.0000000000004
  0
LINE
  5
1EC
330
1E7
100
AcDbEntity
  8
DIMS
100
AcDbLine
 10
8.879904813199046
 20
23.99958304135241
 30
0.0
 11
10.10203614323807
 21
23.99958304135241
 31
0.0
  0
LINE
  5
1ED
330
1E7
100
AcDbEntity
  8
DIMS
100
AcDbLine
 10
8.804904813199046
 20
11.99958304135241
 30
0.0
 11
10.10203614323807
 21
11.99958304135241
 31
0.0
  0
LINE
  5
1EE
330
1E7
100
AcDbEntity
  8
DIMS
100
AcDbLine
 10
9.727036143238069
 20
23.99958304135241
 30
0.0
 11
9.727036143238069
 21
18.18379994813907
 31
0.0
  0
LINE
  5
1EF
330
1E7
100
AcDbEntity
  8
DIMS
100
AcDbLine
 10
9.727036143238069
 20
11.99958304135241
 30
0.0
 11
9.727036143238069
 21
17.5884874485732
 31
0.0
  0
MTEXT
  5
1F0
330
1E7
100
AcDbEntity
  8
DIMS
100
AcDbMText
 10
9.372609054276714
 20
18.06749135482321
 30
0.0
 40
0.3750000000000001
 41
0.0
 71
     1
 72
     1
  1
12"
  7
SLDTEXTSTYLE1
 73
     1
 44
1.0
  0
ENDBLK
  5
3E2
330
1E7
100
AcDbEntity
  8
0
100
AcDbBlockEnd
  0
BLOCK
  5
3E3
330
1F2
100
AcDbEntity
  8
0
100
AcDbBlockBegin
  2
_D_2
 70
     0
 71
     0
 10
0.0
 20
0.0
 30
0.0
  3
_D_2
  1

  0
INSERT
  5
1F5
330
1F2
100
AcDbEntity
  8
DIMS
100
AcDbBlockReference
  2
_Open90
 10
8.813238146532395
 20
24.77114764586964
 30
-1.277330381675059
 41
0.1
 42
0.1
 50
0.000000000000458
  0
INSERT
  5
1F6
330
1F2
100
AcDbEntity
  8
DIMS
100
AcDbBlockReference
  2
_Open90
 10
2.813238146532397
 20
24.77114764586963
 30
-1.277330381675059
 41
0.1
 42
0.1
 50
180.0000000000005
  0
LINE
  5
1F7
330
1F2
100
AcDbEntity
  8
DIMS
100
AcDbLine
 10
8.813238146532397
 20
24.02716297061126
 30
0.0
 11
8.813238146532395
 21
25.14614764586964
 31
0.0
  0
LINE
  5
1F8
330
1F2
100
AcDbEntity
  8
DIMS
100
AcDbLine
 10
2.813238146532398
 20
24.02716297061125
 30
0.0
 11
2.813238146532396
 21
25.14614764586963
 31
0.0
  0
LINE
  5
1F9
330
1F2
100
AcDbEntity
  8
DIMS
100
AcDbLine
 10
8.813238146532395
 20
24.77114764586964
 30
0.0
 11
6.123556332825732
 21
24.77114764586963
 31
0.0
  0
LINE
  5
1FA
330
1F2
100
AcDbEntity
  8
DIMS
100
AcDbLine
 10
2.813238146532397
 20
24.77114764586963
 30
0.0
 11
5.691785507345821
 21
24.77114764586963
 31
0.0
  0
MTEXT
  5
1FB
330
1F2
100
AcDbEntity
  8
DIMS
100
AcDbMText
 10
5.691785507345823
 20
24.9524953023367
 30
0.0
 40
0.3750000000000001
 41
0.0
 71
     1
 72
     1
  1
6"
  7
SLDTEXTSTYLE1
 73
     1
 44
1.0
  0
ENDBLK
  5
3E4
330
1F2
100
AcDbEntity
  8
0
100
AcDbBlockEnd
  0
BLOCK
  5
3E5
330
32E
100
AcDbEntity
  8
0
100
AcDbBlockBegin
  2
_D_3
 70
     0
 71
     0
 10
0.0
 20
0.0
 30
0.0
  3
_D_3
  1

  0
INSERT
  5
331
330
32E
100
AcDbEntity
  8
DIMS
100
AcDbBlockReference
  2
_Open90
 10
9.490815670797112
 20
37.00820068441608
 30
-0.4790990930083177
 41
0.1
 42
0.1
 50
90.00000000000063
  0
INSERT
  5
332
330
32E
100
AcDbEntity
  8
DIMS
100
AcDbBlockReference
  2
_Open90
 10
9.490815670797135
 20
31.0076568892533
 30
-0.4790990930083177
 41
0.1
 42
0.1
 50
270.0000000000006
  0
LINE
  5
333
330
32E
100
AcDbEntity
  8
DIMS
100
AcDbLine
 10
8.879904813199046
 20
37.00820068441608
 30
0.0
 11
9.86581567079711
 21
37.00820068441608
 31
0.0
  0
LINE
  5
334
330
32E
100
AcDbEntity
  8
DIMS
100
AcDbLine
 10
8.900904813199068
 20
31.00765688925329
 30
0.0
 11
9.865815670797135
 21
31.0076568892533
 31
0.0
  0
LINE
  5
335
330
32E
100
AcDbEntity
  8
DIMS
100
AcDbLine
 10
9.490815670797112
 20
37.00820068441608
 30
0.0
 11
9.49081567079712
 21
34.36280645708765
 31
0.0
  0
LINE
  5
336
330
32E
100
AcDbEntity
  8
DIMS
100
AcDbLine
 10
9.490815670797135
 20
31.0076568892533
 30
0.0
 11
9.490815670797122
 21
33.76749395752177
 31
0.0
  0
MTEXT
  5
337
330
32E
100
AcDbEntity
  8
DIMS
100
AcDbMText
 10
9.27493025805717
 20
34.24649786377178
 30
0.0
 40
0.3750000000000001
 41
0.0
 71
     1
 72
     1
  1
6"
  7
SLDTEXTSTYLE1
 73
     1
 44
1.0
  0
ENDBLK
  5
3E6
330
32E
100
AcDbEntity
  8
0
100
AcDbBlockEnd
  0
BLOCK
  5
3E7
330
37A
100
AcDbEntity
  8
0
100
AcDbBlockBegin
  2
_D_4
 70
     0
 71
     0
 10
0.0
 20
0.0
 30
0.0
  3
_D_4
  1

  0
INSERT
  5
37D
330
37A
100
AcDbEntity
  8
DIMS
100
AcDbBlockReference
  2
_Open90
 10
32.13353220838701
 20
24.77114764586964
 30
1.277330381675058
 41
0.1
 42
0.1
 50
180.0000000000004
  0
INSERT
  5
37E
330
37A
100
AcDbEntity
  8
DIMS
100
AcDbBlockReference
  2
_Open90
 10
34.88353220838701
 20
24.77114764586964
 30
1.277330381675058
 41
0.1
 42
0.1
 50
0.0000000000004071
  0
LINE
  5
37F
330
37A
100
AcDbEntity
  8
DIMS
100
AcDbLine
 10
33.44683457139497
 20
24.80961120403534
 30
0.0
 11
33.83381376764494
 21
24.80961120403534
 31
0.0
  0
LINE
  5
380
330
37A
100
AcDbEntity
  8
DIMS
100
AcDbLine
 10
32.13353220838701
 20
21.76624970801907
 30
0.0
 11
32.13353220838701
 21
25.14614764586964
 31
0.0
  0
LINE
  5
381
330
37A
100
AcDbEntity
  8
DIMS
100
AcDbLine
 10
34.88353220838701
 20
21.76624970801907
 30
0.0
 11
34.88353220838701
 21
25.14614764586964
 31
0.0
  0
LINE
  5
382
330
37A
100
AcDbEntity
  8
DIMS
100
AcDbLine
 10
32.13353220838701
 20
24.77114764586964
 30
0.0
 11
33.11480331538171
 21
24.77114764586964
 31
0.0
  0
LINE
  5
383
330
37A
100
AcDbEntity
  8
DIMS
100
AcDbLine
 10
34.88353220838701
 20
24.77114764586964
 30
0.0
 11
34.04344918091876
 21
24.77114764586964
 31
0.0
  0
MTEXT
  5
384
330
37A
100
AcDbEntity
  8
DIMS
100
AcDbMText
 10
33.11480331538171
 20
24.98166199706723
 30
0.0
 40
0.3750000000000001
 41
0.0
 71
     1
 72
     1
  1
2
  7
SLDTEXTSTYLE1
 73
     1
 44
1.0
  0
MTEXT
  5
385
330
37A
100
AcDbEntity
  8
DIMS
100
AcDbMText
 10
33.50178250246511
 20
25.25564636447644
 30
0.0
 40
0.3750000000000001
 41
0.0
 71
     1
 72
     1
  1
3
  7
SLDTEXTSTYLE1
 73
     1
 44
1.0
  0
MTEXT
  5
386
330
37A
100
AcDbEntity
  8
DIMS
100
AcDbMText
 10
33.50178250246511
 20
24.75976093142478
 30
0.0
 40
0.3750000000000001
 41
0.0
 71
     1
 72
     1
  1
4
  7
SLDTEXTSTYLE1
 73
     1
 44
1.0
  0
MTEXT
  5
387
330
37A
100
AcDbEntity
  8
DIMS
100
AcDbMText
 10
33.88876170788164
 20
24.98166199706723
 30
0.0
 40
0.3750000000000001
 41
0.0
 71
     1
 72
     1
  1
"
  7
SLDTEXTSTYLE1
 73
     1
 44
1.0
  0
ENDBLK
  5
3E8
330
37A
100
AcDbEntity
  8
0
100
AcDbBlockEnd
  0
BLOCK
  5
3E9
330
389
100
AcDbEntity
  8
0
100
AcDbBlockBegin
  2
_D_5
 70
     0
 71
     0
 10
0.0
 20
0.0
 30
0.0
  3
_D_5
  1

  0
INSERT
  5
38C
330
389
100
AcDbEntity
  8
DIMS
100
AcDbBlockReference
  2
_Open90
 10
27.89440346857323
 20
21.59958304135241
 30
1.277330381675058
 41
0.1
 42
0.1
 50
270.0000000000004
  0
INSERT
  5
38D
330
389
100
AcDbEntity
  8
DIMS
100
AcDbBlockReference
  2
_Open90
 10
27.89440346857323
 20
23.99958304135241
 30
1.277330381675058
 41
0.1
 42
0.1
 50
90.00000000000041
  0
LINE
  5
38E
330
389
100
AcDbEntity
  8
DIMS
100
AcDbLine
 10
27.76211179181797
 20
22.97952037782031
 30
0.0
 11
28.14909098806794
 21
22.97952037782031
 31
0.0
  0
LINE
  5
38F
330
389
100
AcDbEntity
  8
DIMS
100
AcDbLine
 10
31.84686554172034
 20
21.59958304135241
 30
0.0
 11
27.51940346857323
 21
21.59958304135241
 31
0.0
  0
LINE
  5
390
330
389
100
AcDbEntity
  8
DIMS
100
AcDbLine
 10
30.44186554172034
 20
23.99958304135241
 30
0.0
 11
27.51940346857323
 21
23.99958304135241
 31
0.0
  0
LINE
  5
391
330
389
100
AcDbEntity
  8
DIMS
100
AcDbLine
 10
27.89440346857323
 20
21.59958304135241
 30
0.0
 11
27.89440346857323
 21
22.4506661680226
 31
0.0
  0
LINE
  5
392
330
389
100
AcDbEntity
  8
DIMS
100
AcDbLine
 10
27.89440346857323
 20
23.99958304135241
 30
0.0
 11
27.89440346857323
 21
23.43144747128663
 31
0.0
  0
MTEXT
  5
393
330
389
100
AcDbEntity
  8
DIMS
100
AcDbMText
 10
27.43008053580471
 20
23.1515711708522
 30
0.0
 40
0.3750000000000001
 41
0.0
 71
     1
 72
     1
  1
2
  7
SLDTEXTSTYLE1
 73
     1
 44
1.0
  0
MTEXT
  5
394
330
389
100
AcDbEntity
  8
DIMS
100
AcDbMText
 10
27.81705972288812
 20
23.42555553826141
 30
0.0
 40
0.3750000000000001
 41
0.0
 71
     1
 72
     1
  1
3
  7
SLDTEXTSTYLE1
 73
     1
 44
1.0
  0
MTEXT
  5
395
330
389
100
AcDbEntity
  8
DIMS
100
AcDbMText
 10
27.81705972288812
 20
22.92967010520974
 30
0.0
 40
0.3750000000000001
 41
0.0
 71
     1
 72
     1
  1
8
  7
SLDTEXTSTYLE1
 73
     1
 44
1.0
  0
MTEXT
  5
396
330
389
100
AcDbEntity
  8
DIMS
100
AcDbMText
 10
28.20403892830465
 20
23.1515711708522
 30
0.0
 40
0.3750000000000001
 41
0.0
 71
     1
 72
     1
  1
"
  7
SLDTEXTSTYLE1
 73
     1
 44
1.0
  0
ENDBLK
  5
3EA
330
389
100
AcDbEntity
  8
0
100
AcDbBlockEnd
  0
BLOCK
  5
3EB
330
398
100
AcDbEntity
  8
0
100
AcDbBlockBegin
  2
_D_6
 70
     0
 71
     0
 10
0.0
 20
0.0
 30
0.0
  3
_D_6
  1

  0
INSERT
  5
39B
330
398
100
AcDbEntity
  8
DIMS
100
AcDbBlockReference
  2
_Open90
 10
27.89440346857324
 20
21.59958304135241
 30
1.277330381675058
 41
0.1
 42
0.1
 50
90.00000000000041
  0
INSERT
  5
39C
330
398
100
AcDbEntity
  8
DIMS
100
AcDbBlockReference
  2
_Open90
 10
27.89440346857324
 20
14.59958304135241
 30
1.277330381675058
 41
0.1
 42
0.1
 50
270.0000000000004
  0
LINE
  5
39D
330
398
100
AcDbEntity
  8
DIMS
100
AcDbLine
 10
31.96686554172035
 20
21.59958304135241
 30
0.0
 11
27.51940346857324
 21
21.59958304135241
 31
0.0
  0
LINE
  5
39E
330
398
100
AcDbEntity
  8
DIMS
100
AcDbLine
 10
31.59186554172035
 20
14.59958304135241
 30
0.0
 11
27.51940346857324
 21
14.59958304135241
 31
0.0
  0
LINE
  5
39F
330
398
100
AcDbEntity
  8
DIMS
100
AcDbLine
 10
27.89440346857324
 20
21.59958304135241
 30
0.0
 11
27.89440346857324
 21
18.76941281240643
 31
0.0
  0
LINE
  5
3A0
330
398
100
AcDbEntity
  8
DIMS
100
AcDbLine
 10
27.89440346857324
 20
14.59958304135241
 30
0.0
 11
27.89440346857324
 21
18.17410031284055
 31
0.0
  0
MTEXT
  5
3A1
330
398
100
AcDbEntity
  8
DIMS
100
AcDbMText
 10
27.67851805583329
 20
18.65310421909055
 30
0.0
 40
0.3750000000000001
 41
0.0
 71
     1
 72
     1
  1
7"
  7
SLDTEXTSTYLE1
 73
     1
 44
1.0
  0
ENDBLK
  5
3EC
330
398
100
AcDbEntity
  8
0
100
AcDbBlockEnd
  0
BLOCK
  5
3ED
330
3A4
100
AcDbEntity
  8
0
100
AcDbBlockBegin
  2
_D_7
 70
     0
 71
     0
 10
0.0
 20
0.0
 30
0.0
  3
_D_7
  1

  0
INSERT
  5
3A7
330
3A4
100
AcDbEntity
  8
DIMS
100
AcDbBlockReference
  2
_Open90
 10
32.02960915993287
 20
21.65958304135241
 30
1.277330381675057
 41
0.1
 42
0.1
 50
330.0000000000015
  0
LINE
  5
3A8
330
3A4
100
AcDbEntity
  8
DIMS
100
AcDbLine
 10
29.14389815314905
 20
22.87531946396441
 30
0.0
 11
29.53087734939902
 21
22.87531946396441
 31
0.0
  0
LINE
  5
3A9
330
3A4
100
AcDbEntity
  8
DIMS
100
AcDbLine
 10
32.02960915993287
 20
21.65958304135241
 30
0.0
 11
29.99051274433971
 21
22.83685590579871
 31
0.0
  0
LINE
  5
3AA
330
3A4
100
AcDbEntity
  8
DIMS
100
AcDbLine
 10
29.99051274433971
 20
22.83685590579871
 30
0.0
 11
29.74051274433971
 21
22.83685590579871
 31
0.0
  0
MTEXT
  5
3AB
330
3A4
100
AcDbEntity
  8
DIMS
100
AcDbMText
 10
28.52340335115795
 20
23.04164109234677
 30
0.0
 40
0.3750000000000001
 41
0.0
 71
     1
 72
     1
  1
%%c
  7
SLDTEXTSTYLE1
 73
     1
 44
1.0
  0
MTEXT
  5
3AC
330
3A4
100
AcDbEntity
  8
DIMS
100
AcDbMText
 10
29.19884608421919
 20
23.32135462440551
 30
0.0
 40
0.3750000000000001
 41
0.0
 71
     1
 72
     1
  1
1
  7
SLDTEXTSTYLE1
 73
     1
 44
1.0
  0
MTEXT
  5
3AD
330
3A4
100
AcDbEntity
  8
DIMS
100
AcDbMText
 10
29.19884608421919
 20
22.82546919135385
 30
0.0
 40
0.3750000000000001
 41
0.0
 71
     1
 72
     1
  1
4
  7
SLDTEXTSTYLE1
 73
     1
 44
1.0
  0
MTEXT
  5
3AE
330
3A4
100
AcDbEntity
  8
DIMS
100
AcDbMText
 10
29.5858252713026
 20
23.04737025699631
 30
0.0
 40
0.3750000000000001
 41
0.0
 71
     1
 72
     1
  1
"
  7
SLDTEXTSTYLE1
 73
     1
 44
1.0
  0
ENDBLK
  5
3EE
330
3A4
100
AcDbEntity
  8
0
100
AcDbBlockEnd
  0
BLOCK
  5
3EF
330
3B0
100
AcDbEntity
  8
0
100
AcDbBlockBegin
  2
_D_8
 70
     0
 71
     0
 10
0.0
 20
0.0
 30
0.0
  3
_D_8
  1

  0
INSERT
  5
3B3
330
3B0
100
AcDbEntity
  8
DIMS
100
AcDbBlockReference
  2
_Open90
 10
27.91044182502092
 20
14.59958304135241
 30
1.277330381675058
 41
0.1
 42
0.1
 50
90.00000000000041
  0
INSERT
  5
3B4
330
3B0
100
AcDbEntity
  8
DIMS
100
AcDbBlockReference
  2
_Open90
 10
27.91044182502092
 20
11.99958304135241
 30
1.277330381675058
 41
0.1
 42
0.1
 50
270.0000000000004
  0
LINE
  5
3B5
330
3B0
100
AcDbEntity
  8
DIMS
100
AcDbLine
 10
27.77815014826566
 20
13.50655952619565
 30
0.0
 11
28.16512934451563
 21
13.50655952619565
 31
0.0
  0
LINE
  5
3B6
330
3B0
100
AcDbEntity
  8
DIMS
100
AcDbLine
 10
31.59186554172035
 20
14.59958304135241
 30
0.0
 11
27.53544182502092
 21
14.59958304135241
 31
0.0
  0
LINE
  5
3B7
330
3B0
100
AcDbEntity
  8
DIMS
100
AcDbLine
 10
30.44186554172034
 20
11.99958304135241
 30
0.0
 11
27.53544182502092
 21
11.99958304135241
 31
0.0
  0
LINE
  5
3B8
330
3B0
100
AcDbEntity
  8
DIMS
100
AcDbLine
 10
27.91044182502092
 20
14.59958304135241
 30
0.0
 11
27.91044182502092
 21
13.95848661966198
 31
0.0
  0
LINE
  5
3B9
330
3B0
100
AcDbEntity
  8
DIMS
100
AcDbLine
 10
27.91044182502092
 20
11.99958304135241
 30
0.0
 11
27.91044182502092
 21
12.97770531639796
 31
0.0
  0
MTEXT
  5
3BA
330
3B0
100
AcDbEntity
  8
DIMS
100
AcDbMText
 10
27.4461188922524
 20
13.67861031922754
 30
0.0
 40
0.3750000000000001
 41
0.0
 71
     1
 72
     1
  1
2
  7
SLDTEXTSTYLE1
 73
     1
 44
1.0
  0
MTEXT
  5
3BB
330
3B0
100
AcDbEntity
  8
DIMS
100
AcDbMText
 10
27.83309807933581
 20
13.95259468663675
 30
0.0
 40
0.3750000000000001
 41
0.0
 71
     1
 72
     1
  1
5
  7
SLDTEXTSTYLE1
 73
     1
 44
1.0
  0
MTEXT
  5
3BC
330
3B0
100
AcDbEntity
  8
DIMS
100
AcDbMText
 10
27.83309807933581
 20
13.45670925358509
 30
0.0
 40
0.3750000000000001
 41
0.0
 71
     1
 72
     1
  1
8
  7
SLDTEXTSTYLE1
 73
     1
 44
1.0
  0
MTEXT
  5
3BD
330
3B0
100
AcDbEntity
  8
DIMS
100
AcDbMText
 10
28.22007728475234
 20
13.67861031922754
 30
0.0
 40
0.3750000000000001
 41
0.0
 71
     1
 72
     1
  1
"
  7
SLDTEXTSTYLE1
 73
     1
 44
1.0
  0
ENDBLK
  5
3F0
330
3B0
100
AcDbEntity
  8
0
100
AcDbBlockEnd
  0
ENDSEC
  0
SECTION
  2
ENTITIES
  0
LINE
  5
7A
330
1F
100
AcDbEntity
  8
TITLE
370
    50
100
AcDbLine
 10
25.85663516684254
 20
1.487611764461807
 30
0.0
 11
41.49998645119503
 21
1.487611764461631
 31
0.0
  0
LINE
  5
7B
330
1F
100
AcDbEntity
  8
TITLE
370
    50
100
AcDbLine
 10
41.49993174424403
 20
5.475360393555796
 30
0.0
 11
31.31053507231783
 21
5.475360393555794
 31
0.0
  0
LINE
  5
7C
330
1F
100
AcDbEntity
  8
TITLE
  6
SLD-Solid
370
    18
100
AcDbLine
 10
0.5
 20
0.5
 30
0.0
 11
0.5
 21
44.50000000000001
 31
0.0
  0
LINE
  5
7D
330
1F
100
AcDbEntity
  8
TITLE
  6
SLD-Solid
370
    18
100
AcDbLine
 10
0.5
 20
44.50000000000001
 30
0.0
 11
41.5
 21
44.50000000000001
 31
0.0
  0
LINE
  5
7E
330
1F
100
AcDbEntity
  8
TITLE
370
    50
100
AcDbLine
 10
25.85663516684254
 20
2.542787723103098
 30
0.0
 11
17.50597912026433
 21
2.542787723103448
 31
0.0
  0
LINE
  5
7F
330
1F
100
AcDbEntity
  8
TITLE
370
    50
100
AcDbLine
 10
25.85663516684254
 20
1.487611764461807
 30
0.0
 11
17.50597912026433
 21
1.48761176446163
 31
0.0
  0
LINE
  5
80
330
1F
100
AcDbEntity
  8
TITLE
  6
SLD-Solid
370
    18
100
AcDbLine
 10
41.5
 20
44.50000000000001
 30
0.0
 11
41.5
 21
0.5
 31
0.0
  0
LINE
  5
81
330
1F
100
AcDbEntity
  8
TITLE
  6
SLD-Solid
370
    18
100
AcDbLine
 10
41.5
 20
0.5
 30
0.0
 11
0.5
 21
0.5
 31
0.0
  0
LINE
  5
82
330
1F
100
AcDbEntity
  8
TITLE
370
    50
100
AcDbLine
 10
25.85663516684254
 20
1.487611764461807
 30
0.0
 11
25.85663516684254
 21
3.597963681745441
 31
0.0
  0
LINE
  5
83
330
1F
100
AcDbEntity
  8
TITLE
370
    50
100
AcDbLine
 10
17.50597912026433
 20
3.597963681745264
 30
0.0
 11
17.50597912026433
 21
0.5
 31
0.0
  0
LINE
  5
84
330
1F
100
AcDbEntity
  8
TITLE
370
    50
100
AcDbLine
 10
17.50597912026433
 20
0.5
 30
0.0
 11
41.5
 21
0.5
 31
0.0
  0
LINE
  5
85
330
1F
100
AcDbEntity
  8
TITLE
370
    50
100
AcDbLine
 10
41.49993174424403
 20
5.475360393555796
 30
0.0
 11
41.5
 21
0.5
 31
0.0
  0
LINE
  5
86
330
1F
100
AcDbEntity
  8
TITLE
  6
SLD-Solid
370
    18
100
AcDbLine
 10
0.4999606299212599
 20
22.5
 30
0.0
 11
0.5000393700787401
 21
22.5
 31
0.0
  0
LINE
  5
87
330
1F
100
AcDbEntity
  8
TITLE
370
    50
100
AcDbLine
 10
25.85663516684254
 20
3.597963681745441
 30
0.0
 11
17.50597912026433
 21
3.597963681745264
 31
0.0
  0
LINE
  5
88
330
1F
100
AcDbEntity
  8
TITLE
370
    50
100
AcDbLine
 10
25.85663516684254
 20
3.597963681745441
 30
0.0
 11
41.49976155952328
 21
3.597964828569105
 31
0.0
  0
LINE
  5
89
330
1F
100
AcDbEntity
  8
TITLE
370
    50
100
AcDbLine
 10
31.31053507231783
 20
5.475360393555794
 30
0.0
 11
31.31053507231783
 21
0.4636772425222355
 31
0.0
  0
LINE
  5
8A
330
1F
100
AcDbEntity
  8
TITLE
  6
SLD-Solid
370
    18
100
AcDbLine
 10
21.0
 20
44.50003937007874
 30
0.0
 11
21.0
 21
44.49996062992127
 31
0.0
  0
LINE
  5
8B
330
1F
100
AcDbEntity
  8
TITLE
  6
SLD-Solid
370
    18
100
AcDbLine
 10
41.50003937007874
 20
22.5
 30
0.0
 11
41.49996062992127
 21
22.5
 31
0.0
  0
LINE
  5
8C
330
1F
100
AcDbEntity
  8
TITLE
  6
SLD-Solid
370
    18
100
AcDbLine
 10
21.0
 20
0.4999606299212599
 30
0.0
 11
21.0
 21
0.5000393700787401
 31
0.0
  0
LINE
  5
8D
330
1F
100
AcDbEntity
  8
TITLE
  6
SLD-Solid
370
    18
100
AcDbLine
 10
0.5
 20
2.81496062992126
 30
0.0
 11
0.1653543307086614
 21
2.81496062992126
 31
0.0
  0
LINE
  5
8E
330
1F
100
AcDbEntity
  8
TITLE
  6
SLD-Solid
370
    18
100
AcDbLine
 10
41.5
 20
2.81496062992126
 30
0.0
 11
41.83464566929134
 21
2.81496062992126
 31
0.0
  0
LINE
  5
8F
330
1F
100
AcDbEntity
  8
TITLE
  6
SLD-Solid
370
    18
100
AcDbLine
 10
0.5
 20
4.783464566929134
 30
0.0
 11
0.1653543307086614
 21
4.783464566929134
 31
0.0
  0
LINE
  5
90
330
1F
100
AcDbEntity
  8
TITLE
  6
SLD-Solid
370
    18
100
AcDbLine
 10
41.5
 20
4.783464566929134
 30
0.0
 11
41.83464566929134
 21
4.783464566929134
 31
0.0
  0
LINE
  5
91
330
1F
100
AcDbEntity
  8
TITLE
  6
SLD-Solid
370
    18
100
AcDbLine
 10
0.5
 20
6.751968503937007
 30
0.0
 11
0.1653543307086614
 21
6.751968503937007
 31
0.0
  0
LINE
  5
3F1
330
1F
100
AcDbEntity
  8
TITLE
  6
SLD-Solid
370
    18
100
AcDbLine
 10
41.5
 20
6.751968503937007
 30
0.0
 11
41.83464566929134
 21
6.751968503937007
 31
0.0
  0
LINE
  5
3F2
330
1F
100
AcDbEntity
  8
TITLE
  6
SLD-Solid
370
    18
100
AcDbLine
 10
0.5
 20
8.720472440944881
 30
0.0
 11
0.1653543307086614
 21
8.720472440944881
 31
0.0
  0
LINE
  5
94
330
1F
100
AcDbEntity
  8
TITLE
  6
SLD-Solid
370
    18
100
AcDbLine
 10
41.5
 20
8.720472440944881
 30
0.0
 11
41.83464566929134
 21
8.720472440944881
 31
0.0
  0
LINE
  5
95
330
1F
100
AcDbEntity
  8
TITLE
  6
SLD-Solid
370
    18
100
AcDbLine
 10
0.5
 20
10.68897637795276
 30
0.0
 11
0.1653543307086614
 21
10.68897637795276
 31
0.0
  0
LINE
  5
96
330
1F
100
AcDbEntity
  8
TITLE
  6
SLD-Solid
370
    18
100
AcDbLine
 10
41.5
 20
10.68897637795276
 30
0.0
 11
41.83464566929134
 21
10.68897637795276
 31
0.0
  0
LINE
  5
3F3
330
1F
100
AcDbEntity
  8
TITLE
  6
SLD-Solid
370
    18
100
AcDbLine
 10
0.5
 20
12.65748031496063
 30
0.0
 11
0.1653543307086614
 21
12.65748031496063
 31
0.0
  0
LINE
  5
3F4
330
1F
100
AcDbEntity
  8
TITLE
  6
SLD-Solid
370
    18
100
AcDbLine
 10
41.5
 20
12.65748031496063
 30
0.0
 11
41.83464566929134
 21
12.65748031496063
 31
0.0
  0
LINE
  5
99
330
1F
100
AcDbEntity
  8
TITLE
  6
SLD-Solid
370
    18
100
AcDbLine
 10
0.5
 20
14.6259842519685
 30
0.0
 11
0.1653543307086614
 21
14.6259842519685
 31
0.0
  0
LINE
  5
9A
330
1F
100
AcDbEntity
  8
TITLE
  6
SLD-Solid
370
    18
100
AcDbLine
 10
41.5
 20
14.6259842519685
 30
0.0
 11
41.83464566929134
 21
14.6259842519685
 31
0.0
  0
LINE
  5
9B
330
1F
100
AcDbEntity
  8
TITLE
  6
SLD-Solid
370
    18
100
AcDbLine
 10
0.5
 20
16.59448818897638
 30
0.0
 11
0.1653543307086614
 21
16.59448818897638
 31
0.0
  0
LINE
  5
9C
330
1F
100
AcDbEntity
  8
TITLE
  6
SLD-Solid
370
    18
100
AcDbLine
 10
41.5
 20
16.59448818897638
 30
0.0
 11
41.83464566929134
 21
16.59448818897638
 31
0.0
  0
LINE
  5
9D
330
1F
100
AcDbEntity
  8
TITLE
  6
SLD-Solid
370
    18
100
AcDbLine
 10
0.5
 20
18.56299212598426
 30
0.0
 11
0.1653543307086614
 21
18.56299212598426
 31
0.0
  0
LINE
  5
9E
330
1F
100
AcDbEntity
  8
TITLE
  6
SLD-Solid
370
    18
100
AcDbLine
 10
41.5
 20
18.56299212598426
 30
0.0
 11
41.83464566929134
 21
18.56299212598426
 31
0.0
  0
LINE
  5
9F
330
1F
100
AcDbEntity
  8
TITLE
  6
SLD-Solid
370
    18
100
AcDbLine
 10
0.5
 20
20.53149606299213
 30
0.0
 11
0.1653543307086614
 21
20.53149606299213
 31
0.0
  0
LINE
  5
A0
330
1F
100
AcDbEntity
  8
TITLE
  6
SLD-Solid
370
    18
100
AcDbLine
 10
41.5
 20
20.53149606299213
 30
0.0
 11
41.83464566929134
 21
20.53149606299213
 31
0.0
  0
LINE
  5
A1
330
1F
100
AcDbEntity
  8
TITLE
  6
SLD-Solid
370
    18
100
AcDbLine
 10
0.5
 20
22.5
 30
0.0
 11
0.1653543307086614
 21
22.5
 31
0.0
  0
LINE
  5
A2
330
1F
100
AcDbEntity
  8
TITLE
  6
SLD-Solid
370
    18
100
AcDbLine
 10
41.5
 20
22.5
 30
0.0
 11
41.83464566929134
 21
22.5
 31
0.0
  0
LINE
  5
A3
330
1F
100
AcDbEntity
  8
TITLE
  6
SLD-Solid
370
    18
100
AcDbLine
 10
0.5
 20
24.46850393700788
 30
0.0
 11
0.1653543307086614
 21
24.46850393700788
 31
0.0
  0
LINE
  5
A4
330
1F
100
AcDbEntity
  8
TITLE
  6
SLD-Solid
370
    18
100
AcDbLine
 10
41.5
 20
24.46850393700788
 30
0.0
 11
41.83464566929134
 21
24.46850393700788
 31
0.0
  0
LINE
  5
A5
330
1F
100
AcDbEntity
  8
TITLE
  6
SLD-Solid
370
    18
100
AcDbLine
 10
0.5
 20
26.43700787401575
 30
0.0
 11
0.1653543307086614
 21
26.43700787401575
 31
0.0
  0
LINE
  5
A6
330
1F
100
AcDbEntity
  8
TITLE
  6
SLD-Solid
370
    18
100
AcDbLine
 10
41.5
 20
26.43700787401575
 30
0.0
 11
41.83464566929134
 21
26.43700787401575
 31
0.0
  0
LINE
  5
A7
330
1F
100
AcDbEntity
  8
TITLE
  6
SLD-Solid
370
    18
100
AcDbLine
 10
0.5
 20
28.40551181102363
 30
0.0
 11
0.1653543307086614
 21
28.40551181102363
 31
0.0
  0
LINE
  5
A8
330
1F
100
AcDbEntity
  8
TITLE
  6
SLD-Solid
370
    18
100
AcDbLine
 10
41.5
 20
28.40551181102363
 30
0.0
 11
41.83464566929134
 21
28.40551181102363
 31
0.0
  0
LINE
  5
A9
330
1F
100
AcDbEntity
  8
TITLE
  6
SLD-Solid
370
    18
100
AcDbLine
 10
0.5
 20
30.3740157480315
 30
0.0
 11
0.1653543307086614
 21
30.3740157480315
 31
0.0
  0
LINE
  5
AA
330
1F
100
AcDbEntity
  8
TITLE
  6
SLD-Solid
370
    18
100
AcDbLine
 10
41.5
 20
30.3740157480315
 30
0.0
 11
41.83464566929134
 21
30.3740157480315
 31
0.0
  0
LINE
  5
AB
330
1F
100
AcDbEntity
  8
TITLE
  6
SLD-Solid
370
    18
100
AcDbLine
 10
0.5
 20
32.34251968503937
 30
0.0
 11
0.1653543307086614
 21
32.34251968503937
 31
0.0
  0
LINE
  5
AC
330
1F
100
AcDbEntity
  8
TITLE
  6
SLD-Solid
370
    18
100
AcDbLine
 10
41.5
 20
32.34251968503937
 30
0.0
 11
41.83464566929134
 21
32.34251968503937
 31
0.0
  0
LINE
  5
AD
330
1F
100
AcDbEntity
  8
TITLE
  6
SLD-Solid
370
    18
100
AcDbLine
 10
0.5
 20
34.31102362204724
 30
0.0
 11
0.1653543307086614
 21
34.31102362204724
 31
0.0
  0
LINE
  5
AE
330
1F
100
AcDbEntity
  8
TITLE
  6
SLD-Solid
370
    18
100
AcDbLine
 10
41.5
 20
34.31102362204724
 30
0.0
 11
41.83464566929134
 21
34.31102362204724
 31
0.0
  0
LINE
  5
AF
330
1F
100
AcDbEntity
  8
TITLE
  6
SLD-Solid
370
    18
100
AcDbLine
 10
0.5
 20
36.27952755905512
 30
0.0
 11
0.1653543307086614
 21
36.27952755905512
 31
0.0
  0
LINE
  5
B0
330
1F
100
AcDbEntity
  8
TITLE
  6
SLD-Solid
370
    18
100
AcDbLine
 10
41.5
 20
36.27952755905512
 30
0.0
 11
41.83464566929134
 21
36.27952755905512
 31
0.0
  0
LINE
  5
B1
330
1F
100
AcDbEntity
  8
TITLE
  6
SLD-Solid
370
    18
100
AcDbLine
 10
0.5
 20
38.24803149606299
 30
0.0
 11
0.1653543307086614
 21
38.24803149606299
 31
0.0
  0
LINE
  5
B2
330
1F
100
AcDbEntity
  8
TITLE
  6
SLD-Solid
370
    18
100
AcDbLine
 10
41.5
 20
38.24803149606299
 30
0.0
 11
41.83464566929134
 21
38.24803149606299
 31
0.0
  0
LINE
  5
B3
330
1F
100
AcDbEntity
  8
TITLE
  6
SLD-Solid
370
    18
100
AcDbLine
 10
0.5
 20
40.21653543307087
 30
0.0
 11
0.1653543307086614
 21
40.21653543307087
 31
0.0
  0
LINE
  5
B4
330
1F
100
AcDbEntity
  8
TITLE
  6
SLD-Solid
370
    18
100
AcDbLine
 10
41.5
 20
40.21653543307087
 30
0.0
 11
41.83464566929134
 21
40.21653543307087
 31
0.0
  0
LINE
  5
B5
330
1F
100
AcDbEntity
  8
TITLE
  6
SLD-Solid
370
    18
100
AcDbLine
 10
0.5
 20
42.18503937007874
 30
0.0
 11
0.1653543307086614
 21
42.18503937007874
 31
0.0
  0
LINE
  5
B6
330
1F
100
AcDbEntity
  8
TITLE
  6
SLD-Solid
370
    18
100
AcDbLine
 10
41.5
 20
42.18503937007874
 30
0.0
 11
41.83464566929134
 21
42.18503937007874
 31
0.0
  0
LINE
  5
B7
330
1F
100
AcDbEntity
  8
TITLE
  6
SLD-Solid
370
    18
100
AcDbLine
 10
3.283464566929133
 20
44.50000000000001
 30
0.0
 11
3.283464566929133
 21
44.83464566929134
 31
0.0
  0
LINE
  5
B8
330
1F
100
AcDbEntity
  8
TITLE
  6
SLD-Solid
370
    18
100
AcDbLine
 10
3.283464566929133
 20
0.5
 30
0.0
 11
3.283464566929133
 21
0.1653543307086614
 31
0.0
  0
LINE
  5
B9
330
1F
100
AcDbEntity
  8
TITLE
  6
SLD-Solid
370
    18
100
AcDbLine
 10
5.251968503937007
 20
44.50000000000001
 30
0.0
 11
5.251968503937007
 21
44.83464566929134
 31
0.0
  0
LINE
  5
BA
330
1F
100
AcDbEntity
  8
TITLE
  6
SLD-Solid
370
    18
100
AcDbLine
 10
5.251968503937007
 20
0.5
 30
0.0
 11
5.251968503937007
 21
0.1653543307086614
 31
0.0
  0
LINE
  5
BB
330
1F
100
AcDbEntity
  8
TITLE
  6
SLD-Solid
370
    18
100
AcDbLine
 10
7.220472440944881
 20
44.50000000000001
 30
0.0
 11
7.220472440944881
 21
44.83464566929134
 31
0.0
  0
LINE
  5
BC
330
1F
100
AcDbEntity
  8
TITLE
  6
SLD-Solid
370
    18
100
AcDbLine
 10
7.220472440944881
 20
0.5
 30
0.0
 11
7.220472440944881
 21
0.1653543307086614
 31
0.0
  0
LINE
  5
BD
330
1F
100
AcDbEntity
  8
TITLE
  6
SLD-Solid
370
    18
100
AcDbLine
 10
9.188976377952754
 20
44.50000000000001
 30
0.0
 11
9.188976377952754
 21
44.83464566929134
 31
0.0
  0
LINE
  5
BE
330
1F
100
AcDbEntity
  8
TITLE
  6
SLD-Solid
370
    18
100
AcDbLine
 10
9.188976377952754
 20
0.5
 30
0.0
 11
9.188976377952754
 21
0.1653543307086614
 31
0.0
  0
LINE
  5
BF
330
1F
100
AcDbEntity
  8
TITLE
  6
SLD-Solid
370
    18
100
AcDbLine
 10
11.15748031496063
 20
44.50000000000001
 30
0.0
 11
11.15748031496063
 21
44.83464566929134
 31
0.0
  0
LINE
  5
C0
330
1F
100
AcDbEntity
  8
TITLE
  6
SLD-Solid
370
    18
100
AcDbLine
 10
11.15748031496063
 20
0.5
 30
0.0
 11
11.15748031496063
 21
0.1653543307086614
 31
0.0
  0
LINE
  5
C1
330
1F
100
AcDbEntity
  8
TITLE
  6
SLD-Solid
370
    18
100
AcDbLine
 10
13.1259842519685
 20
44.50000000000001
 30
0.0
 11
13.1259842519685
 21
44.83464566929134
 31
0.0
  0
LINE
  5
C2
330
1F
100
AcDbEntity
  8
TITLE
  6
SLD-Solid
370
    18
100
AcDbLine
 10
13.1259842519685
 20
0.5
 30
0.0
 11
13.1259842519685
 21
0.1653543307086614
 31
0.0
  0
LINE
  5
C3
330
1F
100
AcDbEntity
  8
TITLE
  6
SLD-Solid
370
    18
100
AcDbLine
 10
15.09448818897638
 20
44.50000000000001
 30
0.0
 11
15.09448818897638
 21
44.83464566929134
 31
0.0
  0
LINE
  5
C4
330
1F
100
AcDbEntity
  8
TITLE
  6
SLD-Solid
370
    18
100
AcDbLine
 10
15.09448818897638
 20
0.5
 30
0.0
 11
15.09448818897638
 21
0.1653543307086614
 31
0.0
  0
LINE
  5
C5
330
1F
100
AcDbEntity
  8
TITLE
  6
SLD-Solid
370
    18
100
AcDbLine
 10
17.06299212598425
 20
44.50000000000001
 30
0.0
 11
17.06299212598425
 21
44.83464566929134
 31
0.0
  0
LINE
  5
C6
330
1F
100
AcDbEntity
  8
TITLE
  6
SLD-Solid
370
    18
100
AcDbLine
 10
17.06299212598425
 20
0.5
 30
0.0
 11
17.06299212598425
 21
0.1653543307086614
 31
0.0
  0
LINE
  5
C7
330
1F
100
AcDbEntity
  8
TITLE
  6
SLD-Solid
370
    18
100
AcDbLine
 10
19.03149606299213
 20
44.50000000000001
 30
0.0
 11
19.03149606299213
 21
44.83464566929134
 31
0.0
  0
LINE
  5
C8
330
1F
100
AcDbEntity
  8
TITLE
  6
SLD-Solid
370
    18
100
AcDbLine
 10
19.03149606299213
 20
0.5
 30
0.0
 11
19.03149606299213
 21
0.1653543307086614
 31
0.0
  0
LINE
  5
C9
330
1F
100
AcDbEntity
  8
TITLE
  6
SLD-Solid
370
    18
100
AcDbLine
 10
21.0
 20
44.50000000000001
 30
0.0
 11
21.0
 21
44.83464566929134
 31
0.0
  0
LINE
  5
CA
330
1F
100
AcDbEntity
  8
TITLE
  6
SLD-Solid
370
    18
100
AcDbLine
 10
21.0
 20
0.5
 30
0.0
 11
21.0
 21
0.1653543307086614
 31
0.0
  0
LINE
  5
CB
330
1F
100
AcDbEntity
  8
TITLE
  6
SLD-Solid
370
    18
100
AcDbLine
 10
22.96850393700787
 20
44.50000000000001
 30
0.0
 11
22.96850393700787
 21
44.83464566929134
 31
0.0
  0
LINE
  5
CC
330
1F
100
AcDbEntity
  8
TITLE
  6
SLD-Solid
370
    18
100
AcDbLine
 10
22.96850393700787
 20
0.5
 30
0.0
 11
22.96850393700787
 21
0.1653543307086614
 31
0.0
  0
LINE
  5
CD
330
1F
100
AcDbEntity
  8
TITLE
  6
SLD-Solid
370
    18
100
AcDbLine
 10
24.93700787401575
 20
44.50000000000001
 30
0.0
 11
24.93700787401575
 21
44.83464566929134
 31
0.0
  0
LINE
  5
CE
330
1F
100
AcDbEntity
  8
TITLE
  6
SLD-Solid
370
    18
100
AcDbLine
 10
24.93700787401575
 20
0.5
 30
0.0
 11
24.93700787401575
 21
0.1653543307086614
 31
0.0
  0
LINE
  5
CF
330
1F
100
AcDbEntity
  8
TITLE
  6
SLD-Solid
370
    18
100
AcDbLine
 10
26.90551181102362
 20
44.50000000000001
 30
0.0
 11
26.90551181102362
 21
44.83464566929134
 31
0.0
  0
LINE
  5
D0
330
1F
100
AcDbEntity
  8
TITLE
  6
SLD-Solid
370
    18
100
AcDbLine
 10
26.90551181102362
 20
0.5
 30
0.0
 11
26.90551181102362
 21
0.1653543307086614
 31
0.0
  0
LINE
  5
D1
330
1F
100
AcDbEntity
  8
TITLE
  6
SLD-Solid
370
    18
100
AcDbLine
 10
28.8740157480315
 20
44.50000000000001
 30
0.0
 11
28.8740157480315
 21
44.83464566929134
 31
0.0
  0
LINE
  5
D2
330
1F
100
AcDbEntity
  8
TITLE
  6
SLD-Solid
370
    18
100
AcDbLine
 10
28.8740157480315
 20
0.5
 30
0.0
 11
28.8740157480315
 21
0.1653543307086614
 31
0.0
  0
LINE
  5
D3
330
1F
100
AcDbEntity
  8
TITLE
  6
SLD-Solid
370
    18
100
AcDbLine
 10
30.84251968503937
 20
44.50000000000001
 30
0.0
 11
30.84251968503937
 21
44.83464566929134
 31
0.0
  0
LINE
  5
D4
330
1F
100
AcDbEntity
  8
TITLE
  6
SLD-Solid
370
    18
100
AcDbLine
 10
30.84251968503937
 20
0.5
 30
0.0
 11
30.84251968503937
 21
0.1653543307086614
 31
0.0
  0
LINE
  5
D5
330
1F
100
AcDbEntity
  8
TITLE
  6
SLD-Solid
370
    18
100
AcDbLine
 10
32.81102362204724
 20
44.50000000000001
 30
0.0
 11
32.81102362204724
 21
44.83464566929134
 31
0.0
  0
LINE
  5
D6
330
1F
100
AcDbEntity
  8
TITLE
  6
SLD-Solid
370
    18
100
AcDbLine
 10
32.81102362204724
 20
0.5
 30
0.0
 11
32.81102362204724
 21
0.1653543307086614
 31
0.0
  0
LINE
  5
D7
330
1F
100
AcDbEntity
  8
TITLE
  6
SLD-Solid
370
    18
100
AcDbLine
 10
34.77952755905512
 20
44.50000000000001
 30
0.0
 11
34.77952755905512
 21
44.83464566929134
 31
0.0
  0
LINE
  5
D8
330
1F
100
AcDbEntity
  8
TITLE
  6
SLD-Solid
370
    18
100
AcDbLine
 10
34.77952755905512
 20
0.5
 30
0.0
 11
34.77952755905512
 21
0.1653543307086614
 31
0.0
  0
LINE
  5
D9
330
1F
100
AcDbEntity
  8
TITLE
  6
SLD-Solid
370
    18
100
AcDbLine
 10
36.74803149606299
 20
44.50000000000001
 30
0.0
 11
36.74803149606299
 21
44.83464566929134
 31
0.0
  0
LINE
  5
DA
330
1F
100
AcDbEntity
  8
TITLE
  6
SLD-Solid
370
    18
100
AcDbLine
 10
36.74803149606299
 20
0.5
 30
0.0
 11
36.74803149606299
 21
0.1653543307086614
 31
0.0
  0
LINE
  5
DB
330
1F
100
AcDbEntity
  8
TITLE
  6
SLD-Solid
370
    18
100
AcDbLine
 10
38.71653543307087
 20
44.50000000000001
 30
0.0
 11
38.71653543307087
 21
44.83464566929134
 31
0.0
  0
LINE
  5
DC
330
1F
100
AcDbEntity
  8
TITLE
  6
SLD-Solid
370
    18
100
AcDbLine
 10
38.71653543307087
 20
0.5
 30
0.0
 11
38.71653543307087
 21
0.1653543307086614
 31
0.0
  0
MTEXT
  5
DE
330
1F
100
AcDbEntity
  8
NOTES
100
AcDbMText
 10
18.40829780303408
 20
1.070290334694341
 30
0.0
 40
0.25
 41
0.0
 71
     1
 72
     1
  1
UNLESS OTHERWISE SPECIFIED DIMENSIONS ARE IN INCHES.
  7
SLDTEXTSTYLE0
 73
     1
 44
1.0
  0
MTEXT
  5
DF
330
1F
100
AcDbEntity
  8
NOTES
100
AcDbMText
 10
18.43006992789033
 20
3.083062777580424
 30
0.0
 40
0.25
 41
0.0
 71
     1
 72
     1
  1
DATE:
  7
SLDTEXTSTYLE0
 73
     1
 44
1.0
  0
MTEXT
  5
E0
330
1F
100
AcDbEntity
  8
NOTES
100
AcDbMText
 10
20.53870118800535
 20
2.193032963662702
 30
0.0
 40
0.25
 41
0.0
 71
     2
 72
     1
  1
DO NOT SCALE DRAWING
  7
SLDTEXTSTYLE0
 73
     1
 44
1.0
  0
MTEXT
  5
E2
330
1F
100
AcDbEntity
  8
NOTES
100
AcDbMText
 10
24.83073730750542
 20
3.268275555297613
 30
0.0
 40
0.25
 41
0.0
 71
     1
 72
     1
  1
TITLE:
  7
SLDTEXTSTYLE1
 73
     1
 44
1.0
  0
MTEXT
  5
E3
330
1F
100
AcDbEntity
  8
NOTES
100
AcDbMText
 10
32.15618310516095
 20
3.268275555297606
 30
0.0
 40
0.25
 41
0.0
 71
     1
 72
     1
  1
DWG NO.
  7
SLDTEXTSTYLE1
 73
     1
 44
1.0
  0
MTEXT
  5
E4
330
1F
100
AcDbEntity
  8
NOTES
100
AcDbMText
 10
32.18317532028493
 20
1.064581557673825
 30
0.0
 40
0.25
 41
0.0
 71
     1
 72
     1
  1
SCALE:     1:1
  7
SLDTEXTSTYLE1
 73
     1
 44
1.0
  0
MTEXT
  5
E5
330
1F
100
AcDbEntity
  8
NOTES
100
AcDbMText
 10
36.1814364861116
 20
2.651034429460868
 30
0.0
 40
0.25
 41
0.0
 71
     2
 72
     1
  1
165 CAD
  7
SLDTEXTSTYLE1
 73
     1
 44
1.0
  0
MTEXT
  5
E6
330
1F
100
AcDbEntity
  8
NOTES
100
AcDbMText
 10
28.43804906010446
 20
2.651034429460866
 30
0.0
 40
0.25
 41
0.0
 71
     2
 72
     1
  1
165
  7
SLDTEXTSTYLE1
 73
     1
 44
1.0
  0
INSERT
  5
F6
330
1F
100
AcDbEntity
  8
NOTES
100
AcDbBlockReference
  2
SW_NOTE_0_1
 10
18.61597262459083
 20
5.148152684778699
 30
0.0
  0
MTEXT
  5
F7
330
1F
100
AcDbEntity
  8
NOTES
100
AcDbMText
 10
21.50302654195551
 20
3.086473326765875
 30
0.0
 40
0.25
 41
0.0
 71
     2
 72
     1
  1
June 9, 2021
  7
SLDTEXTSTYLE1
 73
     1
 44
1.0
  0
MTEXT
  5
F8
330
1F
100
AcDbEntity
  8
TITLE
100
AcDbMText
 10
0.3276279775836454
 20
1.73735825947811
 30
0.0
 40
0.125
 41
0.0
 71
     2
 72
     1
  1
A
  7
SLDTEXTSTYLE1
 73
     1
 44
1.0
  0
MTEXT
  5
F9
330
1F
100
AcDbEntity
  8
TITLE
100
AcDbMText
 10
41.66227364687499
 20
1.73735825947811
 30
0.0
 40
0.125
 41
0.0
 71
     2
 72
     1
  1
A
  7
SLDTEXTSTYLE1
 73
     1
 44
1.0
  0
MTEXT
  5
FA
330
1F
100
AcDbEntity
  8
TITLE
100
AcDbMText
 10
0.3317512413046844
 20
3.879090542942678
 30
0.0
 40
0.125
 41
0.0
 71
     2
 72
     1
  1
B
  7
SLDTEXTSTYLE1
 73
     1
 44
1.0
  0
MTEXT
  5
FB
330
1F
100
AcDbEntity
  8
TITLE
100
AcDbMText
 10
41.66639691059603
 20
3.879090542942677
 30
0.0
 40
0.125
 41
0.0
 71
     2
 72
     1
  1
B
  7
SLDTEXTSTYLE1
 73
     1
 44
1.0
  0
MTEXT
  5
FC
330
1F
100
AcDbEntity
  8
TITLE
100
AcDbMText
 10
0.3313750816934456
 20
5.847594479950549
 30
0.0
 40
0.125
 41
0.0
 71
     2
 72
     1
  1
C
  7
SLDTEXTSTYLE1
 73
     1
 44
1.0
  0
MTEXT
  5
FD
330
1F
100
AcDbEntity
  8
TITLE
100
AcDbMText
 10
41.66602075098479
 20
5.847594479950549
 30
0.0
 40
0.125
 41
0.0
 71
     2
 72
     1
  1
C
  7
SLDTEXTSTYLE1
 73
     1
 44
1.0
  0
MTEXT
  5
FE
330
1F
100
AcDbEntity
  8
TITLE
100
AcDbMText
 10
0.3311870028448152
 20
7.816098416958424
 30
0.0
 40
0.125
 41
0.0
 71
     2
 72
     1
  1
D
  7
SLDTEXTSTYLE1
 73
     1
 44
1.0
  0
MTEXT
  5
FF
330
1F
100
AcDbEntity
  8
TITLE
100
AcDbMText
 10
41.66583267213616
 20
7.816098416958421
 30
0.0
 40
0.125
 41
0.0
 71
     2
 72
     1
  1
D
  7
SLDTEXTSTYLE1
 73
     1
 44
1.0
  0
MTEXT
  5
100
330
1F
100
AcDbEntity
  8
TITLE
100
AcDbMText
 10
0.3329231160377541
 20
9.784602353966298
 30
0.0
 40
0.125
 41
0.0
 71
     2
 72
     1
  1
E
  7
SLDTEXTSTYLE1
 73
     1
 44
1.0
  0
MTEXT
  5
101
330
1F
100
AcDbEntity
  8
TITLE
100
AcDbMText
 10
41.6675687853291
 20
9.784602353966298
 30
0.0
 40
0.125
 41
0.0
 71
     2
 72
     1
  1
E
  7
SLDTEXTSTYLE1
 73
     1
 44
1.0
  0
MTEXT
  5
102
330
1F
100
AcDbEntity
  8
TITLE
100
AcDbMText
 10
0.3313461474003637
 20
11.75310629097417
 30
0.0
 40
0.125
 41
0.0
 71
     2
 72
     1
  1
F
  7
SLDTEXTSTYLE1
 73
     1
 44
1.0
  0
MTEXT
  5
103
330
1F
100
AcDbEntity
  8
TITLE
100
AcDbMText
 10
41.66599181669171
 20
11.75310629097417
 30
0.0
 40
0.125
 41
0.0
 71
     2
 72
     1
  1
F
  7
SLDTEXTSTYLE1
 73
     1
 44
1.0
  0
MTEXT
  5
104
330
1F
100
AcDbEntity
  8
TITLE
100
AcDbMText
 10
0.332257605436456
 20
13.72161022798205
 30
0.0
 40
0.125
 41
0.0
 71
     2
 72
     1
  1
G
  7
SLDTEXTSTYLE1
 73
     1
 44
1.0
  0
MTEXT
  5
105
330
1F
100
AcDbEntity
  8
TITLE
100
AcDbMText
 10
41.6669032747278
 20
13.72161022798205
 30
0.0
 40
0.125
 41
0.0
 71
     2
 72
     1
  1
G
  7
SLDTEXTSTYLE1
 73
     1
 44
1.0
  0
MTEXT
  5
106
330
1F
100
AcDbEntity
  8
TITLE
100
AcDbMText
 10
0.3323733456814148
 20
15.69011416498992
 30
0.0
 40
0.125
 41
0.0
 71
     2
 72
     1
  1
H
  7
SLDTEXTSTYLE1
 73
     1
 44
1.0
  0
MTEXT
  5
107
330
1F
100
AcDbEntity
  8
TITLE
100
AcDbMText
 10
41.66701901497276
 20
15.69011416498992
 30
0.0
 40
0.125
 41
0.0
 71
     2
 72
     1
  1
H
  7
SLDTEXTSTYLE1
 73
     1
 44
1.0
  0
MTEXT
  5
108
330
1F
100
AcDbEntity
  8
TITLE
100
AcDbMText
 10
0.3315776305595838
 20
17.6586181019978
 30
0.0
 40
0.125
 41
0.0
 71
     2
 72
     1
  1
J
  7
SLDTEXTSTYLE1
 73
     1
 44
1.0
  0
MTEXT
  5
109
330
1F
100
AcDbEntity
  8
TITLE
100
AcDbMText
 10
41.66622329985093
 20
17.65861810199779
 30
0.0
 40
0.125
 41
0.0
 71
     2
 72
     1
  1
J
  7
SLDTEXTSTYLE1
 73
     1
 44
1.0
  0
MTEXT
  5
10A
330
1F
100
AcDbEntity
  8
TITLE
100
AcDbMText
 10
0.3323154765159244
 20
19.62712203900567
 30
0.0
 40
0.125
 41
0.0
 71
     2
 72
     1
  1
K
  7
SLDTEXTSTYLE1
 73
     1
 44
1.0
  0
MTEXT
  5
10B
330
1F
100
AcDbEntity
  8
TITLE
100
AcDbMText
 10
41.66696114580727
 20
19.62712203900567
 30
0.0
 40
0.125
 41
0.0
 71
     2
 72
     1
  1
K
  7
SLDTEXTSTYLE1
 73
     1
 44
1.0
  0
MTEXT
  5
10C
330
1F
100
AcDbEntity
  8
TITLE
100
AcDbMText
 10
0.3312448739242835
 20
21.59562597601354
 30
0.0
 40
0.125
 41
0.0
 71
     2
 72
     1
  1
L
  7
SLDTEXTSTYLE1
 73
     1
 44
1.0
  0
MTEXT
  5
10D
330
1F
100
AcDbEntity
  8
TITLE
100
AcDbMText
 10
41.66589054321563
 20
21.59562597601354
 30
0.0
 40
0.125
 41
0.0
 71
     2
 72
     1
  1
L
  7
SLDTEXTSTYLE1
 73
     1
 44
1.0
  0
MTEXT
  5
10E
330
1F
100
AcDbEntity
  8
TITLE
100
AcDbMText
 10
0.3283224192293962
 20
23.56412991302142
 30
0.0
 40
0.125
 41
0.0
 71
     2
 72
     1
  1
M
  7
SLDTEXTSTYLE1
 73
     1
 44
1.0
  0
MTEXT
  5
10F
330
1F
100
AcDbEntity
  8
TITLE
100
AcDbMText
 10
41.66296808852074
 20
23.56412991302142
 30
0.0
 40
0.125
 41
0.0
 71
     2
 72
     1
  1
M
  7
SLDTEXTSTYLE1
 73
     1
 44
1.0
  0
MTEXT
  5
110
330
1F
100
AcDbEntity
  8
TITLE
100
AcDbMText
 10
0.3315342275836453
 20
25.5326338500293
 30
0.0
 40
0.125
 41
0.0
 71
     2
 72
     1
  1
N
  7
SLDTEXTSTYLE1
 73
     1
 44
1.0
  0
MTEXT
  5
111
330
1F
100
AcDbEntity
  8
TITLE
100
AcDbMText
 10
41.66617989687499
 20
25.53263385002931
 30
0.0
 40
0.125
 41
0.0
 71
     2
 72
     1
  1
N
  7
SLDTEXTSTYLE1
 73
     1
 44
1.0
  0
MTEXT
  5
112
330
1F
100
AcDbEntity
  8
TITLE
100
AcDbMText
 10
0.3321997349363143
 20
27.50113778703717
 30
0.0
 40
0.125
 41
0.0
 71
     2
 72
     1
  1
P
  7
SLDTEXTSTYLE1
 73
     1
 44
1.0
  0
MTEXT
  5
113
330
1F
100
AcDbEntity
  8
TITLE
100
AcDbMText
 10
41.66684540422766
 20
27.50113778703717
 30
0.0
 40
0.125
 41
0.0
 71
     2
 72
     1
  1
P
  7
SLDTEXTSTYLE1
 73
     1
 44
1.0
  0
MTEXT
  5
114
330
1F
100
AcDbEntity
  8
TITLE
100
AcDbMText
 10
0.3309265867271644
 20
29.46964172404504
 30
0.0
 40
0.125
 41
0.0
 71
     2
 72
     1
  1
R
  7
SLDTEXTSTYLE1
 73
     1
 44
1.0
  0
MTEXT
  5
115
330
1F
100
AcDbEntity
  8
TITLE
100
AcDbMText
 10
41.66557225601851
 20
29.46964172404504
 30
0.0
 40
0.125
 41
0.0
 71
     2
 72
     1
  1
R
  7
SLDTEXTSTYLE1
 73
     1
 44
1.0
  0
MTEXT
  5
116
330
1F
100
AcDbEntity
  8
TITLE
100
AcDbMText
 10
0.3323010070777432
 20
31.43814566105292
 30
0.0
 40
0.125
 41
0.0
 71
     2
 72
     1
  1
T
  7
SLDTEXTSTYLE1
 73
     1
 44
1.0
  0
MTEXT
  5
117
330
1F
100
AcDbEntity
  8
TITLE
100
AcDbMText
 10
41.66694667636909
 20
31.43814566105291
 30
0.0
 40
0.125
 41
0.0
 71
     2
 72
     1
  1
T
  7
SLDTEXTSTYLE1
 73
     1
 44
1.0
  0
MTEXT
  5
118
330
1F
100
AcDbEntity
  8
TITLE
100
AcDbMText
 10
0.3328507755201046
 20
33.40664959806079
 30
0.0
 40
0.125
 41
0.0
 71
     2
 72
     1
  1
U
  7
SLDTEXTSTYLE1
 73
     1
 44
1.0
  0
MTEXT
  5
119
330
1F
100
AcDbEntity
  8
TITLE
100
AcDbMText
 10
41.66749644481145
 20
33.40664959806079
 30
0.0
 40
0.125
 41
0.0
 71
     2
 72
     1
  1
U
  7
SLDTEXTSTYLE1
 73
     1
 44
1.0
  0
MTEXT
  5
11A
330
1F
100
AcDbEntity
  8
TITLE
100
AcDbMText
 10
0.3307529773167151
 20
35.37515353506866
 30
0.0
 40
0.125
 41
0.0
 71
     2
 72
     1
  1
V
  7
SLDTEXTSTYLE1
 73
     1
 44
1.0
  0
MTEXT
  5
11B
330
1F
100
AcDbEntity
  8
TITLE
100
AcDbMText
 10
41.66539864660805
 20
35.37515353506866
 30
0.0
 40
0.125
 41
0.0
 71
     2
 72
     1
  1
V
  7
SLDTEXTSTYLE1
 73
     1
 44
1.0
  0
MTEXT
  5
11C
330
1F
100
AcDbEntity
  8
TITLE
100
AcDbMText
 10
0.3327784409203867
 20
37.34365747207654
 30
0.0
 40
0.125
 41
0.0
 71
     2
 72
     1
  1
W
  7
SLDTEXTSTYLE1
 73
     1
 44
1.0
  0
MTEXT
  5
11D
330
1F
100
AcDbEntity
  8
TITLE
100
AcDbMText
 10
41.66742411021173
 20
37.34365747207654
 30
0.0
 40
0.125
 41
0.0
 71
     2
 72
     1
  1
W
  7
SLDTEXTSTYLE1
 73
     1
 44
1.0
  0
MTEXT
  5
11E
330
1F
100
AcDbEntity
  8
TITLE
100
AcDbMText
 10
0.3321997349363143
 20
39.31216140908441
 30
0.0
 40
0.125
 41
0.0
 71
     2
 72
     1
  1
Y
  7
SLDTEXTSTYLE1
 73
     1
 44
1.0
  0
MTEXT
  5
11F
330
1F
100
AcDbEntity
  8
TITLE
100
AcDbMText
 10
41.66684540422766
 20
39.31216140908442
 30
0.0
 40
0.125
 41
0.0
 71
     2
 72
     1
  1
Y
  7
SLDTEXTSTYLE1
 73
     1
 44
1.0
  0
MTEXT
  5
120
330
1F
100
AcDbEntity
  8
TITLE
100
AcDbMText
 10
0.3225787898129602
 20
41.28066534609228
 30
0.0
 40
0.125
 41
0.0
 71
     2
 72
     1
  1
AA
  7
SLDTEXTSTYLE1
 73
     1
 44
1.0
  0
MTEXT
  5
121
330
1F
100
AcDbEntity
  8
TITLE
100
AcDbMText
 10
41.65722445910431
 20
41.28066534609228
 30
0.0
 40
0.125
 41
0.0
 71
     2
 72
     1
  1
AA
  7
SLDTEXTSTYLE1
 73
     1
 44
1.0
  0
MTEXT
  5
122
330
1F
100
AcDbEntity
  8
TITLE
100
AcDbMText
 10
0.3267020535339989
 20
43.42239762955685
 30
0.0
 40
0.125
 41
0.0
 71
     2
 72
     1
  1
AB
  7
SLDTEXTSTYLE1
 73
     1
 44
1.0
  0
MTEXT
  5
123
330
1F
100
AcDbEntity
  8
TITLE
100
AcDbMText
 10
41.66134772282534
 20
43.42239762955685
 30
0.0
 40
0.125
 41
0.0
 71
     2
 72
     1
  1
AB
  7
SLDTEXTSTYLE1
 73
     1
 44
1.0
  0
MTEXT
  5
124
330
1F
100
AcDbEntity
  8
TITLE
100
AcDbMText
 10
1.889214922094673
 20
0.4125551098718104
 30
0.0
 40
0.125
 41
0.0
 71
     2
 72
     1
  1
20
  7
SLDTEXTSTYLE1
 73
     1
 44
1.0
  0
MTEXT
  5
125
330
1F
100
AcDbEntity
  8
TITLE
100
AcDbMText
 10
1.889214922094673
 20
44.74720077916316
 30
0.0
 40
0.125
 41
0.0
 71
     2
 72
     1
  1
20
  7
SLDTEXTSTYLE1
 73
     1
 44
1.0
  0
MTEXT
  5
126
330
1F
100
AcDbEntity
  8
TITLE
100
AcDbMText
 10
4.265199174063176
 20
0.4125551098718104
 30
0.0
 40
0.125
 41
0.0
 71
     2
 72
     1
  1
19
  7
SLDTEXTSTYLE1
 73
     1
 44
1.0
  0
MTEXT
  5
127
330
1F
100
AcDbEntity
  8
TITLE
100
AcDbMText
 10
4.265199174063176
 20
44.74720077916316
 30
0.0
 40
0.125
 41
0.0
 71
     2
 72
     1
  1
19
  7
SLDTEXTSTYLE1
 73
     1
 44
1.0
  0
MTEXT
  5
128
330
1F
100
AcDbEntity
  8
TITLE
100
AcDbMText
 10
6.23370311107105
 20
0.4125551098718104
 30
0.0
 40
0.125
 41
0.0
 71
     2
 72
     1
  1
18
  7
SLDTEXTSTYLE1
 73
     1
 44
1.0
  0
MTEXT
  5
129
330
1F
100
AcDbEntity
  8
TITLE
100
AcDbMText
 10
6.233703111071053
 20
44.74720077916316
 30
0.0
 40
0.125
 41
0.0
 71
     2
 72
     1
  1
18
  7
SLDTEXTSTYLE1
 73
     1
 44
1.0
  0
MTEXT
  5
12A
330
1F
100
AcDbEntity
  8
TITLE
100
AcDbMText
 10
8.202207048078925
 20
0.4125551098718104
 30
0.0
 40
0.125
 41
0.0
 71
     2
 72
     1
  1
17
  7
SLDTEXTSTYLE1
 73
     1
 44
1.0
  0
MTEXT
  5
12B
330
1F
100
AcDbEntity
  8
TITLE
100
AcDbMText
 10
8.202207048078925
 20
44.74720077916316
 30
0.0
 40
0.125
 41
0.0
 71
     2
 72
     1
  1
17
  7
SLDTEXTSTYLE1
 73
     1
 44
1.0
  0
MTEXT
  5
12C
330
1F
100
AcDbEntity
  8
TITLE
100
AcDbMText
 10
10.1707109850868
 20
0.4125551098718104
 30
0.0
 40
0.125
 41
0.0
 71
     2
 72
     1
  1
16
  7
SLDTEXTSTYLE1
 73
     1
 44
1.0
  0
MTEXT
  5
12D
330
1F
100
AcDbEntity
  8
TITLE
100
AcDbMText
 10
10.1707109850868
 20
44.74720077916316
 30
0.0
 40
0.125
 41
0.0
 71
     2
 72
     1
  1
16
  7
SLDTEXTSTYLE1
 73
     1
 44
1.0
  0
MTEXT
  5
12E
330
1F
100
AcDbEntity
  8
TITLE
100
AcDbMText
 10
12.13921492209467
 20
0.4125551098718104
 30
0.0
 40
0.125
 41
0.0
 71
     2
 72
     1
  1
15
  7
SLDTEXTSTYLE1
 73
     1
 44
1.0
  0
MTEXT
  5
12F
330
1F
100
AcDbEntity
  8
TITLE
100
AcDbMText
 10
12.13921492209467
 20
44.74720077916316
 30
0.0
 40
0.125
 41
0.0
 71
     2
 72
     1
  1
15
  7
SLDTEXTSTYLE1
 73
     1
 44
1.0
  0
MTEXT
  5
130
330
1F
100
AcDbEntity
  8
TITLE
100
AcDbMText
 10
14.10771885910255
 20
0.4125551098718104
 30
0.0
 40
0.125
 41
0.0
 71
     2
 72
     1
  1
14
  7
SLDTEXTSTYLE1
 73
     1
 44
1.0
  0
MTEXT
  5
131
330
1F
100
AcDbEntity
  8
TITLE
100
AcDbMText
 10
14.10771885910254
 20
44.74720077916316
 30
0.0
 40
0.125
 41
0.0
 71
     2
 72
     1
  1
14
  7
SLDTEXTSTYLE1
 73
     1
 44
1.0
  0
MTEXT
  5
132
330
1F
100
AcDbEntity
  8
TITLE
100
AcDbMText
 10
16.07622279611042
 20
0.4125551098718104
 30
0.0
 40
0.125
 41
0.0
 71
     2
 72
     1
  1
13
  7
SLDTEXTSTYLE1
 73
     1
 44
1.0
  0
MTEXT
  5
133
330
1F
100
AcDbEntity
  8
TITLE
100
AcDbMText
 10
16.07622279611042
 20
44.74720077916317
 30
0.0
 40
0.125
 41
0.0
 71
     2
 72
     1
  1
13
  7
SLDTEXTSTYLE1
 73
     1
 44
1.0
  0
MTEXT
  5
134
330
1F
100
AcDbEntity
  8
TITLE
100
AcDbMText
 10
18.0447267331183
 20
0.4125551098718104
 30
0.0
 40
0.125
 41
0.0
 71
     2
 72
     1
  1
12
  7
SLDTEXTSTYLE1
 73
     1
 44
1.0
  0
MTEXT
  5
135
330
1F
100
AcDbEntity
  8
TITLE
100
AcDbMText
 10
18.0447267331183
 20
44.74720077916316
 30
0.0
 40
0.125
 41
0.0
 71
     2
 72
     1
  1
12
  7
SLDTEXTSTYLE1
 73
     1
 44
1.0
  0
MTEXT
  5
136
330
1F
100
AcDbEntity
  8
TITLE
100
AcDbMText
 10
20.01323067012617
 20
0.4125551098718104
 30
0.0
 40
0.125
 41
0.0
 71
     2
 72
     1
  1
11
  7
SLDTEXTSTYLE1
 73
     1
 44
1.0
  0
MTEXT
  5
137
330
1F
100
AcDbEntity
  8
TITLE
100
AcDbMText
 10
20.01323067012617
 20
44.74720077916316
 30
0.0
 40
0.125
 41
0.0
 71
     2
 72
     1
  1
11
  7
SLDTEXTSTYLE1
 73
     1
 44
1.0
  0
MTEXT
  5
138
330
1F
100
AcDbEntity
  8
TITLE
100
AcDbMText
 10
21.98173460713405
 20
0.4125551098718104
 30
0.0
 40
0.125
 41
0.0
 71
     2
 72
     1
  1
10
  7
SLDTEXTSTYLE1
 73
     1
 44
1.0
  0
MTEXT
  5
139
330
1F
100
AcDbEntity
  8
TITLE
100
AcDbMText
 10
21.98173460713405
 20
44.74720077916316
 30
0.0
 40
0.125
 41
0.0
 71
     2
 72
     1
  1
10
  7
SLDTEXTSTYLE1
 73
     1
 44
1.0
  0
MTEXT
  5
13A
330
1F
100
AcDbEntity
  8
TITLE
100
AcDbMText
 10
23.95149722482686
 20
0.4125551098718104
 30
0.0
 40
0.125
 41
0.0
 71
     2
 72
     1
  1
9
  7
SLDTEXTSTYLE1
 73
     1
 44
1.0
  0
MTEXT
  5
13B
330
1F
100
AcDbEntity
  8
TITLE
100
AcDbMText
 10
23.95149722482687
 20
44.74720077916316
 30
0.0
 40
0.125
 41
0.0
 71
     2
 72
     1
  1
9
  7
SLDTEXTSTYLE1
 73
     1
 44
1.0
  0
MTEXT
  5
13C
330
1F
100
AcDbEntity
  8
TITLE
100
AcDbMText
 10
25.92000116183474
 20
0.4125551098718105
 30
0.0
 40
0.125
 41
0.0
 71
     2
 72
     1
  1
8
  7
SLDTEXTSTYLE1
 73
     1
 44
1.0
  0
MTEXT
  5
13D
330
1F
100
AcDbEntity
  8
TITLE
100
AcDbMText
 10
25.92000116183474
 20
44.74720077916316
 30
0.0
 40
0.125
 41
0.0
 71
     2
 72
     1
  1
8
  7
SLDTEXTSTYLE1
 73
     1
 44
1.0
  0
MTEXT
  5
13E
330
1F
100
AcDbEntity
  8
TITLE
100
AcDbMText
 10
27.88850509884261
 20
0.4125551098718104
 30
0.0
 40
0.125
 41
0.0
 71
     2
 72
     1
  1
7
  7
SLDTEXTSTYLE1
 73
     1
 44
1.0
  0
MTEXT
  5
13F
330
1F
100
AcDbEntity
  8
TITLE
100
AcDbMText
 10
27.88850509884261
 20
44.74720077916316
 30
0.0
 40
0.125
 41
0.0
 71
     2
 72
     1
  1
7
  7
SLDTEXTSTYLE1
 73
     1
 44
1.0
  0
MTEXT
  5
140
330
1F
100
AcDbEntity
  8
TITLE
100
AcDbMText
 10
29.85700903585048
 20
0.4125551098718104
 30
0.0
 40
0.125
 41
0.0
 71
     2
 72
     1
  1
6
  7
SLDTEXTSTYLE1
 73
     1
 44
1.0
  0
MTEXT
  5
141
330
1F
100
AcDbEntity
  8
TITLE
100
AcDbMText
 10
29.85700903585048
 20
44.74720077916316
 30
0.0
 40
0.125
 41
0.0
 71
     2
 72
     1
  1
6
  7
SLDTEXTSTYLE1
 73
     1
 44
1.0
  0
MTEXT
  5
142
330
1F
100
AcDbEntity
  8
TITLE
100
AcDbMText
 10
31.82551297285836
 20
0.4125551098718104
 30
0.0
 40
0.125
 41
0.0
 71
     2
 72
     1
  1
5
  7
SLDTEXTSTYLE1
 73
     1
 44
1.0
  0
MTEXT
  5
143
330
1F
100
AcDbEntity
  8
TITLE
100
AcDbMText
 10
31.82551297285836
 20
44.74720077916316
 30
0.0
 40
0.125
 41
0.0
 71
     2
 72
     1
  1
5
  7
SLDTEXTSTYLE1
 73
     1
 44
1.0
  0
MTEXT
  5
144
330
1F
100
AcDbEntity
  8
TITLE
100
AcDbMText
 10
33.79401690986624
 20
0.4125551098718105
 30
0.0
 40
0.125
 41
0.0
 71
     2
 72
     1
  1
4
  7
SLDTEXTSTYLE1
 73
     1
 44
1.0
  0
MTEXT
  5
145
330
1F
100
AcDbEntity
  8
TITLE
100
AcDbMText
 10
33.79401690986624
 20
44.74720077916316
 30
0.0
 40
0.125
 41
0.0
 71
     2
 72
     1
  1
4
  7
SLDTEXTSTYLE1
 73
     1
 44
1.0
  0
MTEXT
  5
146
330
1F
100
AcDbEntity
  8
TITLE
100
AcDbMText
 10
35.7625208468741
 20
0.4125551098718104
 30
0.0
 40
0.125
 41
0.0
 71
     2
 72
     1
  1
3
  7
SLDTEXTSTYLE1
 73
     1
 44
1.0
  0
MTEXT
  5
147
330
1F
100
AcDbEntity
  8
TITLE
100
AcDbMText
 10
35.76252084687411
 20
44.74720077916316
 30
0.0
 40
0.125
 41
0.0
 71
     2
 72
     1
  1
3
  7
SLDTEXTSTYLE1
 73
     1
 44
1.0
  0
MTEXT
  5
148
330
1F
100
AcDbEntity
  8
TITLE
100
AcDbMText
 10
37.73102478388198
 20
0.4125551098718104
 30
0.0
 40
0.125
 41
0.0
 71
     2
 72
     1
  1
2
  7
SLDTEXTSTYLE1
 73
     1
 44
1.0
  0
MTEXT
  5
149
330
1F
100
AcDbEntity
  8
TITLE
100
AcDbMText
 10
37.73102478388198
 20
44.74720077916316
 30
0.0
 40
0.125
 41
0.0
 71
     2
 72
     1
  1
2
  7
SLDTEXTSTYLE1
 73
     1
 44
1.0
  0
MTEXT
  5
14A
330
1F
100
AcDbEntity
  8
TITLE
100
AcDbMText
 10
40.1070090358505
 20
0.4125551098718104
 30
0.0
 40
0.125
 41
0.0
 71
     2
 72
     1
  1
1
  7
SLDTEXTSTYLE1
 73
     1
 44
1.0
  0
MTEXT
  5
14B
330
1F
100
AcDbEntity
  8
TITLE
100
AcDbMText
 10
40.10700903585049
 20
44.74720077916316
 30
0.0
 40
0.125
 41
0.0
 71
     2
 72
     1
  1
1
  7
SLDTEXTSTYLE1
 73
     1
 44
1.0
  0
SPLINE
  5
14C
330
1F
100
AcDbEntity
  8
0
  6
SLD-Solid
 62
     7
370
    25
100
AcDbSpline
210
0.0
220
0.0
230
1.0
 70
    12
 71
     3
 72
    11
 73
     7
 74
     0
 42
0.00000001
 43
0.00000001
 40
0.0
 40
0.0
 40
0.0
 40
0.0
 40
0.1429059179804845
 40
0.4391879079636032
 40
0.7356136421123212
 40
1.0
 40
1.0
 40
1.0
 40
1.0
 10
6.00714960667553
 20
23.01512619180284
 30
0.0
 41
1.0
 10
5.998019649659181
 20
23.0201274150286
 30
0.0
 41
1.0
 10
5.969960862602118
 20
23.03549750464296
 30
0.0
 41
1.0
 10
5.918590972528436
 20
23.05218880325818
 30
0.0
 41
1.0
 10
5.857145252286029
 20
23.06528173492316
 30
0.0
 41
1.0
 10
5.816092054286694
 20
23.06674682218667
 30
0.0
 41
1.0
 10
5.796738146528975
 20
23.06743751536373
 30
0.0
 41
1.0
  0
SPLINE
  5
14D
330
1F
100
AcDbEntity
  8
0
  6
SLD-Solid
 62
     7
370
    25
100
AcDbSpline
210
0.0
220
0.0
230
1.0
 70
    12
 71
     3
 72
    11
 73
     7
 74
     0
 42
0.00000001
 43
0.00000001
 40
0.0
 40
0.0
 40
0.0
 40
0.0
 40
0.1860741959378073
 40
0.521759873259432
 40
0.8576574319439482
 40
1.0
 40
1.0
 40
1.0
 40
1.0
 10
5.796738146528975
 20
23.06743751536373
 30
0.0
 41
1.0
 10
5.784715922983605
 20
23.06716520440596
 30
0.0
 41
1.0
 10
5.751005102406286
 20
23.06640163302468
 30
0.0
 41
1.0
 10
5.696226120545988
 20
23.05747746329542
 30
0.0
 41
1.0
 10
5.645221605702107
 20
23.04367453178376
 30
0.0
 41
1.0
 10
5.617518959506276
 20
23.03023875873909
 30
0.0
 41
1.0
 10
5.609273591581299
 20
23.02623975837911
 30
0.0
 41
1.0
  0
LINE
  5
14E
330
1F
100
AcDbEntity
  8
0
  6
SLD-Solid
 62
     7
370
    25
100
AcDbLine
 10
5.481738146528976
 20
22.63914405367485
 30
0.0
 11
5.481738146528976
 21
22.6363140270983
 31
0.0
  0
LINE
  5
14F
330
1F
100
AcDbEntity
  8
0
  6
SLD-Solid
 62
     7
370
    25
100
AcDbLine
 10
6.111738146528975
 20
22.63631402709829
 30
0.0
 11
6.111738146528975
 21
22.63914405367484
 31
0.0
  0
LINE
  5
150
330
1F
100
AcDbEntity
  8
0
  6
SLD-Solid
 62
     7
370
    25
100
AcDbLine
 10
6.246738146528974
 20
22.58910918380147
 30
0.0
 11
6.246738146528974
 21
22.62782394736864
 31
0.0
  0
LINE
  5
151
330
1F
100
AcDbEntity
  8
0
  6
SLD-Solid
 62
     7
370
    25
100
AcDbLine
 10
5.346738146528975
 20
22.62782394736866
 30
0.0
 11
5.346738146528975
 21
22.58254352214389
 31
0.0
  0
LINE
  5
152
330
1F
100
AcDbEntity
  8
0
  6
SLD-Solid
 62
     7
370
    25
100
AcDbLine
 10
8.830894410954603
 20
12.11208304135241
 30
0.0
 11
8.860894410954602
 21
12.21670547466763
 31
0.0
  0
LINE
  5
153
330
1F
100
AcDbEntity
  8
0
  6
SLD-Solid
 62
     7
370
    25
100
AcDbLine
 10
8.860894410954602
 20
12.38246060803718
 30
0.0
 11
8.830894410954603
 21
12.48708304135241
 31
0.0
  0
LINE
  5
154
330
1F
100
AcDbEntity
  8
0
  6
SLD-Solid
 62
     7
370
    25
100
AcDbLine
 10
8.805894410954602
 20
12.11208304135241
 30
0.0
 11
8.830894410954603
 21
12.11208304135241
 31
0.0
  0
LINE
  5
155
330
1F
100
AcDbEntity
  8
0
  6
SLD-Solid
 62
     7
370
    25
100
AcDbLine
 10
8.830894410954603
 20
12.48708304135241
 30
0.0
 11
8.805894410954602
 21
12.48708304135241
 31
0.0
  0
LINE
  5
156
330
1F
100
AcDbEntity
  8
0
  6
SLD-Solid
 62
     7
370
    25
100
AcDbLine
 10
8.805894410954602
 20
12.3915830413524
 30
0.0
 11
8.738238146532376
 21
12.3915830413524
 31
0.0
  0
LINE
  5
157
330
1F
100
AcDbEntity
  8
0
  6
SLD-Solid
 62
     7
370
    25
100
AcDbLine
 10
8.738238146532376
 20
12.20758304135241
 30
0.0
 11
8.805894410954602
 21
12.20758304135241
 31
0.0
  0
LINE
  5
158
330
1F
100
AcDbEntity
  8
0
  6
SLD-Solid
 62
     7
370
    25
100
AcDbLine
 10
2.838238146537204
 20
12.48708304135241
 30
0.0
 11
2.808238146537204
 21
12.38246060803718
 31
0.0
  0
LINE
  5
159
330
1F
100
AcDbEntity
  8
0
  6
SLD-Solid
 62
     7
370
    25
100
AcDbLine
 10
2.808238146537204
 20
12.21670547466763
 30
0.0
 11
2.838238146537204
 21
12.11208304135241
 31
0.0
  0
LINE
  5
15A
330
1F
100
AcDbEntity
  8
0
  6
SLD-Solid
 62
     7
370
    25
100
AcDbLine
 10
2.863238146537204
 20
12.48708304135241
 30
0.0
 11
2.838238146537204
 21
12.48708304135241
 31
0.0
  0
LINE
  5
15B
330
1F
100
AcDbEntity
  8
0
  6
SLD-Solid
 62
     7
370
    25
100
AcDbLine
 10
2.838238146537204
 20
12.11208304135241
 30
0.0
 11
2.863238146537204
 21
12.11208304135241
 31
0.0
  0
LINE
  5
15C
330
1F
100
AcDbEntity
  8
0
  6
SLD-Solid
 62
     7
370
    25
100
AcDbLine
 10
2.863238146537204
 20
12.20758304135241
 30
0.0
 11
2.888238146532381
 21
12.20758304135241
 31
0.0
  0
LINE
  5
15D
330
1F
100
AcDbEntity
  8
0
  6
SLD-Solid
 62
     7
370
    25
100
AcDbLine
 10
2.888238146532381
 20
12.39158304135241
 30
0.0
 11
2.863238146537204
 21
12.39158304135241
 31
0.0
  0
ARC
  5
15E
330
1F
100
AcDbEntity
  8
0
  6
SLD-Solid
 62
     7
370
    25
100
AcDbCircle
 10
2.873500490505991
 20
18.70301685968402
 30
0.0
 40
0.102377820396529
100
AcDbArc
 50
79.45401803649007
 51
126.0596326988518
  0
LINE
  5
15F
330
1F
100
AcDbEntity
  8
0
  6
SLD-Solid
 62
     7
370
    25
100
AcDbLine
 10
2.813238146532398
 20
23.86049630394458
 30
0.0
 11
2.813238146532403
 21
18.78577958080865
 31
0.0
  0
ARC
  5
160
330
1F
100
AcDbEntity
  8
0
  6
SLD-Solid
 62
     7
370
    25
100
AcDbCircle
 10
2.873500490505993
 20
23.77773358281991
 30
0.0
 40
0.1023778203965732
100
AcDbArc
 50
79.45401803649847
 51
126.0596326988385
  0
LINE
  5
161
330
1F
100
AcDbEntity
  8
0
  6
SLD-Solid
 62
     7
370
    25
100
AcDbLine
 10
2.892238146532398
 20
23.87838207190836
 30
0.0
 11
2.892238146532398
 21
23.85690256639557
 31
0.0
  0
LINE
  5
162
330
1F
100
AcDbEntity
  8
0
  6
SLD-Solid
 62
     7
370
    25
100
AcDbLine
 10
2.892238146532403
 20
18.80366534877243
 30
0.0
 11
2.892238146532398
 21
23.85690256639557
 31
0.0
  0
LINE
  5
163
330
1F
100
AcDbEntity
  8
0
  6
SLD-Solid
 62
     7
370
    25
100
AcDbLine
 10
2.892238146532403
 20
18.79234524246624
 30
0.0
 11
2.892238146532403
 21
18.80366534877243
 31
0.0
  0
LINE
  5
164
330
1F
100
AcDbEntity
  8
0
  6
SLD-Solid
 62
     7
370
    25
100
AcDbLine
 10
2.892238146532403
 20
18.80366534877243
 30
0.0
 11
8.734238146532402
 21
18.80366534877243
 31
0.0
  0
LINE
  5
165
330
1F
100
AcDbEntity
  8
0
  6
SLD-Solid
 62
     7
370
    25
100
AcDbLine
 10
8.734238146532402
 20
18.79234524246624
 30
0.0
 11
8.734238146532402
 21
18.80366534877243
 31
0.0
  0
LINE
  5
166
330
1F
100
AcDbEntity
  8
0
  6
SLD-Solid
 62
     7
370
    25
100
AcDbLine
 10
2.892238146532403
 20
18.79234524246624
 30
0.0
 11
8.734238146532402
 21
18.79234524246624
 31
0.0
  0
LINE
  5
167
330
1F
100
AcDbEntity
  8
0
  6
SLD-Solid
 62
     7
370
    25
100
AcDbLine
 10
8.734238146532402
 20
18.80366534877243
 30
0.0
 11
8.734238146532396
 21
23.85690256639558
 31
0.0
  0
LINE
  5
168
330
1F
100
AcDbEntity
  8
0
  6
SLD-Solid
 62
     7
370
    25
100
AcDbLine
 10
8.734238146532396
 20
23.85690256639558
 30
0.0
 11
2.892238146532398
 21
23.85690256639557
 31
0.0
  0
LINE
  5
169
330
1F
100
AcDbEntity
  8
0
  6
SLD-Solid
 62
     7
370
    25
100
AcDbLine
 10
2.863238146532402
 20
18.78577958080865
 30
0.0
 11
2.813238146532403
 21
18.78577958080865
 31
0.0
  0
ARC
  5
16A
330
1F
100
AcDbEntity
  8
0
  6
SLD-Solid
 62
     7
370
    25
100
AcDbCircle
 10
2.885359766472072
 20
18.75539832875022
 30
0.0
 40
0.0375817315379864
100
AcDbArc
 50
79.45401803649251
 51
126.0596326988269
  0
LINE
  5
16B
330
1F
100
AcDbEntity
  8
0
  6
SLD-Solid
 62
     7
370
    25
100
AcDbLine
 10
8.734238146532396
 20
23.87838207190837
 30
0.0
 11
8.734238146532396
 21
23.85690256639558
 31
0.0
  0
ARC
  5
16C
330
1F
100
AcDbEntity
  8
0
  6
SLD-Solid
 62
     7
370
    25
100
AcDbCircle
 10
8.752975802558817
 20
23.77773358281994
 30
0.0
 40
0.1023778203965412
100
AcDbArc
 50
53.94036730115901
 51
100.545981963514
  0
LINE
  5
16D
330
1F
100
AcDbEntity
  8
0
  6
SLD-Solid
 62
     7
370
    25
100
AcDbLine
 10
8.813238146532397
 20
23.86049630394459
 30
0.0
 11
8.813238146532402
 21
18.78577958080865
 31
0.0
  0
ARC
  5
16E
330
1F
100
AcDbEntity
  8
0
  6
SLD-Solid
 62
     7
370
    25
100
AcDbCircle
 10
8.752975802558817
 20
18.70301685968402
 30
0.0
 40
0.1023778203965332
100
AcDbArc
 50
53.94036730115192
 51
100.5459819635118
  0
LINE
  5
16F
330
1F
100
AcDbEntity
  8
0
  6
SLD-Solid
 62
     7
370
    25
100
AcDbLine
 10
8.763238146532403
 20
18.78577958080865
 30
0.0
 11
8.813238146532402
 21
18.78577958080865
 31
0.0
  0
ARC
  5
170
330
1F
100
AcDbEntity
  8
0
  6
SLD-Solid
 62
     7
370
    25
100
AcDbCircle
 10
8.74111652659273
 20
18.75539832875023
 30
0.0
 40
0.0375817315379763
100
AcDbArc
 50
53.94036730115649
 51
100.5459819635078
  0
LINE
  5
171
330
1F
100
AcDbEntity
  8
0
  6
SLD-Solid
 62
     7
370
    25
100
AcDbLine
 10
2.813238146532379
 20
18.11087484283354
 30
0.0
 11
2.863238146532379
 21
18.11087484283354
 31
0.0
  0
LINE
  5
172
330
1F
100
AcDbEntity
  8
0
  6
SLD-Solid
 62
     7
370
    25
100
AcDbLine
 10
2.813238146532379
 20
18.11087484283354
 30
0.0
 11
2.813238146532403
 21
18.78577958080865
 31
0.0
  0
LINE
  5
173
330
1F
100
AcDbEntity
  8
0
  6
SLD-Solid
 62
     7
370
    25
100
AcDbLine
 10
2.863238146532379
 20
18.11087484283354
 30
0.0
 11
2.863238146532402
 21
18.78577958080865
 31
0.0
  0
LINE
  5
174
330
1F
100
AcDbEntity
  8
0
  6
SLD-Solid
 62
     7
370
    25
100
AcDbLine
 10
8.813238146532399
 20
18.11087484283354
 30
0.0
 11
8.7632381465324
 21
18.11087484283354
 31
0.0
  0
LINE
  5
175
330
1F
100
AcDbEntity
  8
0
  6
SLD-Solid
 62
     7
370
    25
100
AcDbLine
 10
8.813238146532399
 20
18.11087484283354
 30
0.0
 11
8.813238146532402
 21
18.78577958080865
 31
0.0
  0
LINE
  5
176
330
1F
100
AcDbEntity
  8
0
  6
SLD-Solid
 62
     7
370
    25
100
AcDbLine
 10
8.7632381465324
 20
18.11087484283354
 30
0.0
 11
8.763238146532403
 21
18.78577958080865
 31
0.0
  0
LINE
  5
177
330
1F
100
AcDbEntity
  8
0
  6
SLD-Solid
 62
     7
370
    25
100
AcDbLine
 10
2.892238146532398
 20
23.91794665309025
 30
0.0
 11
2.892238146532398
 21
23.87767111661217
 31
0.0
  0
LINE
  5
178
330
1F
100
AcDbEntity
  8
0
  6
SLD-Solid
 62
     7
370
    25
100
AcDbLine
 10
8.734238146532396
 20
23.91794665309026
 30
0.0
 11
2.892238146532398
 21
23.91794665309025
 31
0.0
  0
LINE
  5
179
330
1F
100
AcDbEntity
  8
0
  6
SLD-Solid
 62
     7
370
    25
100
AcDbLine
 10
8.734238146532396
 20
23.91794665309026
 30
0.0
 11
8.734238146532396
 21
23.87767111661218
 31
0.0
  0
LINE
  5
17A
330
1F
100
AcDbEntity
  8
0
  6
SLD-Solid
 62
     7
370
    25
100
AcDbLine
 10
2.820508473718785
 20
23.86799104887604
 30
0.0
 11
2.815962986885781
 21
23.86799104887603
 31
0.0
  0
LINE
  5
17B
330
1F
100
AcDbEntity
  8
0
  6
SLD-Solid
 62
     7
370
    25
100
AcDbLine
 10
2.815962986885781
 20
23.86799104887603
 30
0.0
 11
2.815962986885781
 21
23.91794665309025
 31
0.0
  0
LINE
  5
17C
330
1F
100
AcDbEntity
  8
0
  6
SLD-Solid
 62
     7
370
    25
100
AcDbLine
 10
2.892238146532398
 20
23.91794665309025
 30
0.0
 11
2.815962986885781
 21
23.91794665309025
 31
0.0
  0
LINE
  5
17D
330
1F
100
AcDbEntity
  8
0
  6
SLD-Solid
 62
     7
370
    25
100
AcDbLine
 10
8.810513306179013
 20
23.86799104887605
 30
0.0
 11
8.810513306179013
 21
23.91794665309026
 31
0.0
  0
LINE
  5
17E
330
1F
100
AcDbEntity
  8
0
  6
SLD-Solid
 62
     7
370
    25
100
AcDbLine
 10
8.80596781934601
 20
23.86799104887605
 30
0.0
 11
8.810513306179013
 21
23.86799104887605
 31
0.0
  0
LINE
  5
17F
330
1F
100
AcDbEntity
  8
0
  6
SLD-Solid
 62
     7
370
    25
100
AcDbLine
 10
8.734238146532396
 20
23.91794665309026
 30
0.0
 11
8.810513306179013
 21
23.91794665309026
 31
0.0
  0
LINE
  5
180
330
1F
100
AcDbEntity
  8
0
  6
SLD-Solid
 62
     7
370
    25
100
AcDbLine
 10
8.810513306179004
 20
23.99019868792579
 30
0.0
 11
2.815962986885772
 21
23.99019868792577
 31
0.0
  0
LINE
  5
181
330
1F
100
AcDbEntity
  8
0
  6
SLD-Solid
 62
     7
370
    25
100
AcDbLine
 10
8.810513306179013
 20
23.91794665309026
 30
0.0
 11
8.810513306179004
 21
23.99019868792579
 31
0.0
  0
LINE
  5
182
330
1F
100
AcDbEntity
  8
0
  6
SLD-Solid
 62
     7
370
    25
100
AcDbLine
 10
2.815962986885781
 20
23.91794665309025
 30
0.0
 11
2.815962986885772
 21
23.99019868792577
 31
0.0
  0
LINE
  5
183
330
1F
100
AcDbEntity
  8
0
  6
SLD-Solid
 62
     7
370
    25
100
AcDbLine
 10
2.815962986885779
 20
23.93382198955724
 30
0.0
 11
2.813238146532382
 21
23.93382198955724
 31
0.0
  0
LINE
  5
184
330
1F
100
AcDbEntity
  8
0
  6
SLD-Solid
 62
     7
370
    25
100
AcDbLine
 10
2.813238146532382
 20
23.93382198955724
 30
0.0
 11
2.813238146532398
 21
23.86049630394458
 31
0.0
  0
LINE
  5
185
330
1F
100
AcDbEntity
  8
0
  6
SLD-Solid
 62
     7
370
    25
100
AcDbLine
 10
8.810513306179011
 20
23.93382198955725
 30
0.0
 11
8.813238146532393
 21
23.93382198955725
 31
0.0
  0
LINE
  5
186
330
1F
100
AcDbEntity
  8
0
  6
SLD-Solid
 62
     7
370
    25
100
AcDbLine
 10
8.813238146532393
 20
23.93382198955725
 30
0.0
 11
8.813238146532397
 21
23.86049630394459
 31
0.0
  0
LINE
  5
187
330
1F
100
AcDbEntity
  8
0
  6
SLD-Solid
 62
     7
370
    25
100
AcDbLine
 10
8.138238146532379
 20
12.04958304135248
 30
0.0
 11
8.138238146532379
 21
18.79234524246624
 31
0.0
  0
LINE
  5
188
330
1F
100
AcDbEntity
  8
0
  6
SLD-Solid
 62
     7
370
    25
100
AcDbLine
 10
8.21723814653238
 20
12.04958304135248
 30
0.0
 11
8.138238146532379
 21
12.04958304135248
 31
0.0
  0
LINE
  5
189
330
1F
100
AcDbEntity
  8
0
  6
SLD-Solid
 62
     7
370
    25
100
AcDbLine
 10
8.21723814653238
 20
12.04958304135248
 30
0.0
 11
8.65923814653238
 21
12.04958304135248
 31
0.0
  0
LINE
  5
18A
330
1F
100
AcDbEntity
  8
0
  6
SLD-Solid
 62
     7
370
    25
100
AcDbLine
 10
8.738238146532376
 20
18.7922824867928
 30
0.0
 11
8.738238146532376
 21
12.04958304135248
 31
0.0
  0
LINE
  5
18B
330
1F
100
AcDbEntity
  8
0
  6
SLD-Solid
 62
     7
370
    25
100
AcDbLine
 10
8.738238146532376
 20
12.04958304135248
 30
0.0
 11
8.65923814653238
 21
12.04958304135248
 31
0.0
  0
LINE
  5
18C
330
1F
100
AcDbEntity
  8
0
  6
SLD-Solid
 62
     7
370
    25
100
AcDbLine
 10
3.488238146532377
 20
18.79234524246624
 30
0.0
 11
3.488238146532377
 21
12.04958304135253
 31
0.0
  0
LINE
  5
18D
330
1F
100
AcDbEntity
  8
0
  6
SLD-Solid
 62
     7
370
    25
100
AcDbLine
 10
3.488238146532377
 20
12.04958304135253
 30
0.0
 11
3.409238146532378
 21
12.04958304135253
 31
0.0
  0
LINE
  5
18E
330
1F
100
AcDbEntity
  8
0
  6
SLD-Solid
 62
     7
370
    25
100
AcDbLine
 10
2.967238146532376
 20
12.04958304135253
 30
0.0
 11
3.409238146532378
 21
12.04958304135253
 31
0.0
  0
LINE
  5
18F
330
1F
100
AcDbEntity
  8
0
  6
SLD-Solid
 62
     7
370
    25
100
AcDbLine
 10
2.967238146532376
 20
12.04958304135253
 30
0.0
 11
2.888238146532381
 21
12.04958304135253
 31
0.0
  0
LINE
  5
190
330
1F
100
AcDbEntity
  8
0
  6
SLD-Solid
 62
     7
370
    25
100
AcDbLine
 10
2.888238146532381
 20
12.04958304135253
 30
0.0
 11
2.888238146532381
 21
18.79228248679278
 31
0.0
  0
LWPOLYLINE
  5
191
330
1F
100
AcDbEntity
  8
0
  6
SLD-Solid
 62
     7
370
    25
100
AcDbPolyline
 90
       39
 70
   128
 43
0.0
 10
5.796738146528975
 20
23.02875762166993
 10
5.730900310416681
 20
23.02344380042586
 10
5.666858358847101
 20
23.0076472838851
 10
5.606359189314145
 20
22.98179895984043
 10
5.551053061453107
 20
22.94660390319023
 10
5.502448582259721
 20
22.90302214333326
 10
5.461871555223962
 20
22.85224247706926
 10
5.430428815866951
 20
22.79565004132118
 10
5.408978040153242
 20
22.73478853021078
 10
5.398104349326307
 20
22.67131808710701
 10
5.398104349326307
 20
22.60697002024267
 10
5.408978040153243
 20
22.5434995771389
 10
5.430428815866952
 20
22.4826380660285
 10
5.461871555223964
 20
22.42604563028042
 10
5.502448582259724
 20
22.37526596401642
 10
5.55105306145311
 20
22.33168420415945
 10
5.606359189314149
 20
22.29648914750926
 10
5.666858358847104
 20
22.27064082346459
 10
5.730900310416684
 20
22.25484430692383
 10
5.796738146528978
 20
22.24953048567976
 10
5.862575982641273
 20
22.25484430692383
 10
5.926617934210852
 20
22.27064082346459
 10
5.987117103743809
 20
22.29648914750927
 10
6.042423231604847
 20
22.33168420415946
 10
6.09102771079823
 20
22.37526596401642
 10
6.13160473783399
 20
22.42604563028043
 10
6.163047477191
 20
22.4826380660285
 10
6.184498252904709
 20
22.54349957713891
 10
6.195371943731644
 20
22.60697002024267
 10
6.195371943731644
 20
22.67131808710702
 10
6.184498252904707
 20
22.73478853021079
 10
6.163047477190998
 20
22.79565004132119
 10
6.131604737833984
 20
22.85224247706926
 10
6.091027710798225
 20
22.90302214333327
 10
6.042423231604839
 20
22.94660390319023
 10
5.9871171037438
 20
22.98179895984043
 10
5.926617934210843
 20
23.0076472838851
 10
5.862575982641263
 20
23.02344380042586
 10
5.796738146528975
 20
23.02875762166993
  0
LWPOLYLINE
  5
192
330
1F
100
AcDbEntity
  8
0
  6
SLD-Solid
 62
     7
370
    25
100
AcDbPolyline
 90
       37
 70
   128
 43
0.0
 10
6.0081636005056
 20
23.01474876467174
 10
6.055631543627356
 20
22.98633487106194
 10
6.108782771885484
 20
22.94363955988149
 10
6.154619938602019
 20
22.89354179841665
 10
6.1920686594389
 20
22.83721583573524
 10
6.220251168119779
 20
22.77598190466286
 10
6.238506890527561
 20
22.71127527664436
 10
6.24640792800184
 20
22.64461262019771
 10
6.24376908692083
 20
22.57755645148936
 10
6.230652219482889
 20
22.51167851027967
 10
6.207364773943422
 20
22.44852291967504
 10
6.174452588288353
 20
22.38956999319104
 10
6.132687096254358
 20
22.33620153745828
 10
6.083047245575926
 20
22.28966846384612
 10
6.026696552280175
 20
22.25106146816043
 10
5.964955828857319
 20
22.22128546565832
 10
5.899272225535386
 20
22.20103838060145
 10
5.831185310305396
 20
22.19079478750294
 10
5.762290982752549
 20
22.19079478750294
 10
5.694204067522561
 20
22.20103838060146
 10
5.628520464200626
 20
22.22128546565832
 10
5.566779740777773
 20
22.25106146816044
 10
5.51042904748202
 20
22.28966846384612
 10
5.46078919680359
 20
22.33620153745828
 10
5.419023704769595
 20
22.38956999319104
 10
5.386111519114524
 20
22.44852291967504
 10
5.36282407357506
 20
22.51167851027967
 10
5.349707206137119
 20
22.57755645148936
 10
5.347068365056109
 20
22.64461262019772
 10
5.35496940253039
 20
22.71127527664437
 10
5.373225124938172
 20
22.77598190466286
 10
5.401407633619052
 20
22.83721583573525
 10
5.438856354455935
 20
22.89354179841665
 10
5.48469352117247
 20
22.9436395598815
 10
5.537844749430599
 20
22.98633487106195
 10
5.597064219488848
 20
23.02062699005079
 10
5.608417767148918
 20
23.02591130625785
  0
LWPOLYLINE
  5
193
330
1F
100
AcDbEntity
  8
0
  6
SLD-Solid
 62
     7
370
    25
100
AcDbPolyline
 90
       36
 70
   128
 43
0.0
 10
5.796738146528975
 20
22.95570507767085
 10
5.738707155719418
 20
22.95061781178159
 10
5.682541328702539
 20
22.93551952302533
 10
5.630045881372055
 20
22.91089548282558
 10
5.582908060598568
 20
22.87753712809512
 10
5.542642914726865
 20
22.83651662380231
 10
5.510544598675534
 20
22.78915240270691
 10
5.487644778733049
 20
22.73696678984634
 10
5.474679473954397
 20
22.68163707375641
 10
5.472065399903048
 20
22.62494159703768
 10
5.479886575069883
 20
22.56870259896108
 10
5.497891620449755
 20
22.51472764719842
 10
5.525501839069553
 20
22.46475154111005
 10
5.561829815785075
 20
22.42038055386617
 10
5.605707939533922
 20
22.38304080550534
 10
5.655725931315771
 20
22.35393242626313
 10
5.710276171719809
 20
22.33399098339885
 10
5.767605371135362
 20
22.32385741129401
 10
5.825870921922593
 20
22.32385741129401
 10
5.883200121338148
 20
22.33399098339885
 10
5.937750361742184
 20
22.35393242626314
 10
5.98776835352403
 20
22.38304080550534
 10
6.031646477272879
 20
22.42038055386617
 10
6.0679744539884
 20
22.46475154111006
 10
6.095584672608198
 20
22.51472764719842
 10
6.113589717988068
 20
22.56870259896109
 10
6.121410893154903
 20
22.62494159703768
 10
6.118796819103553
 20
22.68163707375641
 10
6.105831514324898
 20
22.73696678984635
 10
6.082931694382412
 20
22.78915240270691
 10
6.050833378331082
 20
22.83651662380231
 10
6.010568232459378
 20
22.87753712809512
 10
5.96343041168589
 20
22.91089548282558
 10
5.910934964355407
 20
22.93551952302533
 10
5.854769137338527
 20
22.95061781178159
 10
5.796738146528975
 20
22.95570507767085
  0
ARC
  5
194
330
1F
100
AcDbEntity
  8
0
  6
SLD-Solid
 62
     7
370
    25
100
AcDbCircle
 10
5.792274246208873
 20
22.63234546702918
 30
0.0
 40
0.3205606661258124
100
AcDbArc
 50
89.20211385163961
 51
179.2906567291506
  0
ARC
  5
195
330
1F
100
AcDbEntity
  8
0
  6
SLD-Solid
 62
     7
370
    25
100
AcDbCircle
 10
5.80085016468357
 20
22.63198420428639
 30
0.0
 40
0.320917192213816
100
AcDbArc
 50
0.7730595503897068
 51
90.73416986881834
  0
LWPOLYLINE
  5
196
330
1F
100
AcDbEntity
  8
0
  6
SLD-Solid
 62
     7
370
    25
100
AcDbPolyline
 90
       35
 70
   128
 43
0.0
 10
5.796738146528975
 20
22.94596473847097
 10
5.738857048416755
 20
22.94074053325603
 10
5.682947021680022
 20
22.92524582165406
 10
5.630912015222608
 20
22.9000082574848
 10
5.58452401878031
 20
22.86588727572693
 10
5.545362719935699
 20
22.82404482549059
 10
5.51476170975213
 20
22.7759058012341
 10
5.493763068929537
 20
22.72310951969211
 10
5.483081880996039
 20
22.66745389491039
 10
5.48308188099604
 20
22.6108342124393
 10
5.493763068929538
 20
22.55517858765757
 10
5.514761709752131
 20
22.50238230611559
 10
5.545362719935701
 20
22.45424328185909
 10
5.584524018780312
 20
22.41240083162275
 10
5.63091201522261
 20
22.37827984986488
 10
5.682947021680024
 20
22.35304228569563
 10
5.738857048416758
 20
22.33754757409366
 10
5.796738146528978
 20
22.33232336887872
 10
5.854619244641198
 20
22.33754757409366
 10
5.910529271377931
 20
22.35304228569563
 10
5.962564277835345
 20
22.37827984986488
 10
6.008952274277643
 20
22.41240083162276
 10
6.048113573122253
 20
22.4542432818591
 10
6.07871458330582
 20
22.50238230611559
 10
6.099713224128414
 20
22.55517858765758
 10
6.110394412061911
 20
22.6108342124393
 10
6.11039441206191
 20
22.66745389491039
 10
6.099713224128411
 20
22.72310951969212
 10
6.078714583305817
 20
22.7759058012341
 10
6.048113573122248
 20
22.82404482549059
 10
6.008952274277638
 20
22.86588727572693
 10
5.962564277835338
 20
22.9000082574848
 10
5.910529271377925
 20
22.92524582165406
 10
5.85461924464119
 20
22.94074053325603
 10
5.796738146528975
 20
22.94596473847097
  0
LINE
  5
197
330
1F
100
AcDbEntity
  8
0
  6
SLD-Solid
 62
     7
370
    25
100
AcDbLine
 10
5.841738146528975
 20
22.5597123399753
 30
0.0
 11
5.841738146528975
 21
22.92497505997068
 31
0.0
  0
LINE
  5
198
330
1F
100
AcDbEntity
  8
0
  6
SLD-Solid
 62
     7
370
    25
100
AcDbLine
 10
5.841738146528975
 20
22.92497505997068
 30
0.0
 11
5.751738146528974
 21
22.92497505997068
 31
0.0
  0
LINE
  5
199
330
1F
100
AcDbEntity
  8
0
  6
SLD-Solid
 62
     7
370
    25
100
AcDbLine
 10
5.751738146528974
 20
22.92497505997068
 30
0.0
 11
5.751738146528975
 21
22.5597123399753
 31
0.0
  0
LINE
  5
19A
330
1F
100
AcDbEntity
  8
0
  6
SLD-Solid
 62
     7
370
    25
100
AcDbLine
 10
5.751738146528975
 20
22.5597123399753
 30
0.0
 11
5.841738146528975
 21
22.5597123399753
 31
0.0
  0
ARC
  5
19B
330
1F
100
AcDbEntity
  8
0
  6
SLD-Solid
 62
     7
370
    25
100
AcDbCircle
 10
5.796738146528975
 20
22.64240669982801
 30
0.0
 40
0.3150589161744056
100
AcDbArc
 50
181.1080663860851
 51
358.8919336139152
  0
LINE
  5
19C
330
1F
100
AcDbEntity
  8
0
  6
SLD-Solid
 62
     7
370
    25
100
AcDbLine
 10
6.246738146528974
 20
22.58254352214389
 30
0.0
 11
6.246738146528974
 21
22.58910918380148
 31
0.0
  0
ARC
  5
19D
330
1F
100
AcDbEntity
  8
0
  6
SLD-Solid
 62
     7
370
    25
100
AcDbCircle
 10
5.796738146528975
 20
22.59172934688076
 30
0.0
 40
0.4500937450977258
100
AcDbArc
 50
181.1694131217309
 51
358.8305868782702
  0
LINE
  5
19E
330
1F
100
AcDbEntity
  8
0
  6
SLD-Solid
 62
     7
370
    25
100
AcDbLine
 10
5.841738146528975
 20
22.89667479420521
 30
0.0
 11
5.751738146528974
 21
22.89667479420521
 31
0.0
  0
LINE
  5
19F
330
1F
100
AcDbEntity
  8
0
  6
SLD-Solid
 62
     7
370
    25
100
AcDbLine
 10
8.860894410954602
 20
12.38246060803718
 30
0.0
 11
8.860894410954602
 21
12.21670547466763
 31
0.0
  0
LINE
  5
1A0
330
1F
100
AcDbEntity
  8
0
  6
SLD-Solid
 62
     7
370
    25
100
AcDbLine
 10
8.830894410954603
 20
12.11208304135241
 30
0.0
 11
8.830894410954603
 21
12.48708304135241
 31
0.0
  0
LINE
  5
1A1
330
1F
100
AcDbEntity
  8
0
  6
SLD-Solid
 62
     7
370
    25
100
AcDbLine
 10
8.805894410954602
 20
12.48708304135241
 30
0.0
 11
8.805894410954602
 21
12.11208304135241
 31
0.0
  0
LINE
  5
1A2
330
1F
100
AcDbEntity
  8
0
  6
SLD-Solid
 62
     7
370
    25
100
AcDbLine
 10
2.808238146537204
 20
12.26783687164311
 30
0.0
 11
2.808238146537204
 21
12.38246060803718
 31
0.0
  0
LINE
  5
1A3
330
1F
100
AcDbEntity
  8
0
  6
SLD-Solid
 62
     7
370
    25
100
AcDbLine
 10
2.808238146537204
 20
12.21670547466763
 30
0.0
 11
2.808238146537204
 21
12.26783687164311
 31
0.0
  0
LINE
  5
1A4
330
1F
100
AcDbEntity
  8
0
  6
SLD-Solid
 62
     7
370
    25
100
AcDbLine
 10
2.838238146537205
 20
12.22776135234055
 30
0.0
 11
2.838238146537204
 21
12.11208304135241
 31
0.0
  0
LINE
  5
1A5
330
1F
100
AcDbEntity
  8
0
  6
SLD-Solid
 62
     7
370
    25
100
AcDbLine
 10
2.838238146537204
 20
12.48708304135241
 30
0.0
 11
2.838238146537205
 21
12.22776135234055
 31
0.0
  0
LINE
  5
1A6
330
1F
100
AcDbEntity
  8
0
  6
SLD-Solid
 62
     7
370
    25
100
AcDbLine
 10
2.863238146537205
 20
12.22776135234055
 30
0.0
 11
2.863238146537204
 21
12.48708304135241
 31
0.0
  0
LINE
  5
1A7
330
1F
100
AcDbEntity
  8
0
  6
SLD-Solid
 62
     7
370
    25
100
AcDbLine
 10
2.863238146537204
 20
12.11208304135241
 30
0.0
 11
2.863238146537205
 21
12.22776135234055
 31
0.0
  0
LINE
  5
1A8
330
1F
100
AcDbEntity
  8
0
  6
SLD-Solid
 62
     7
370
    25
100
AcDbLine
 10
2.938238146532377
 20
11.99958304135241
 30
0.0
 11
2.988238146532376
 21
11.99958304135241
 31
0.0
  0
LINE
  5
1A9
330
1F
100
AcDbEntity
  8
0
  6
SLD-Solid
 62
     7
370
    25
100
AcDbLine
 10
2.938238146532377
 20
12.04958304135253
 30
0.0
 11
2.938238146532377
 21
11.99958304135241
 31
0.0
  0
LINE
  5
1AA
330
1F
100
AcDbEntity
  8
0
  6
SLD-Solid
 62
     7
370
    25
100
AcDbLine
 10
2.988238146532376
 20
11.99958304135241
 30
0.0
 11
2.988238146532376
 21
12.04958304135253
 31
0.0
  0
LINE
  5
1AB
330
1F
100
AcDbEntity
  8
0
  6
SLD-Solid
 62
     7
370
    25
100
AcDbLine
 10
8.68823814653238
 20
11.99958304135241
 30
0.0
 11
8.638238146532379
 21
11.99958304135241
 31
0.0
  0
LINE
  5
1AC
330
1F
100
AcDbEntity
  8
0
  6
SLD-Solid
 62
     7
370
    25
100
AcDbLine
 10
8.638238146532379
 20
11.99958304135241
 30
0.0
 11
8.638238146532379
 21
12.04958304135248
 31
0.0
  0
LINE
  5
1AD
330
1F
100
AcDbEntity
  8
0
  6
SLD-Solid
 62
     7
370
    25
100
AcDbLine
 10
8.68823814653238
 20
12.04958304135248
 30
0.0
 11
8.68823814653238
 21
11.99958304135241
 31
0.0
  0
LINE
  5
1AE
330
1F
100
AcDbEntity
  8
0
  6
SLD-Solid
 62
     7
370
    25
100
AcDbLine
 10
3.488238146532377
 20
12.09958304135241
 30
0.0
 11
8.138238146532379
 21
12.09958304135241
 31
0.0
  0
LINE
  5
1AF
330
1F
100
AcDbEntity
  8
0
  6
SLD-Solid
 62
     7
370
    25
100
AcDbLine
 10
8.71323814653238
 20
11.99958304135241
 30
0.0
 11
8.68823814653238
 21
11.99958304135241
 31
0.0
  0
LINE
  5
1B0
330
1F
100
AcDbEntity
  8
0
  6
SLD-Solid
 62
     7
370
    25
100
AcDbLine
 10
2.913238146532377
 20
11.99958304135241
 30
0.0
 11
2.938238146532377
 21
11.99958304135241
 31
0.0
  0
LINE
  5
1B1
330
1F
100
AcDbEntity
  8
0
  6
SLD-Solid
 62
     7
370
    25
100
AcDbLine
 10
8.638238146532379
 20
11.99958304135241
 30
0.0
 11
2.988238146532376
 21
11.99958304135241
 31
0.0
  0
ARC
  5
1B2
330
1F
100
AcDbEntity
  8
0
  6
SLD-Solid
 62
     7
370
    25
100
AcDbCircle
 10
2.913238146532378
 20
12.09958304135241
 30
0.0
 40
0.1000000000000001
100
AcDbArc
 50
180.0
 51
270.0000000000006
  0
LINE
  5
1B3
330
1F
100
AcDbEntity
  8
0
  6
SLD-Solid
 62
     7
370
    25
100
AcDbLine
 10
2.813238146532377
 20
18.11087484283354
 30
0.0
 11
2.813238146532377
 21
12.39989768023955
 31
0.0
  0
LINE
  5
1B4
330
1F
100
AcDbEntity
  8
0
  6
SLD-Solid
 62
     7
370
    25
100
AcDbLine
 10
2.813238146532377
 20
12.19926840246526
 30
0.0
 11
2.813238146532377
 21
12.09958304135241
 31
0.0
  0
LINE
  5
1B5
330
1F
100
AcDbEntity
  8
0
  6
SLD-Solid
 62
     7
370
    25
100
AcDbLine
 10
8.813238146532377
 20
18.11087484283354
 30
0.0
 11
8.81323814653238
 21
12.48708304135241
 31
0.0
  0
LINE
  5
1B6
330
1F
100
AcDbEntity
  8
0
  6
SLD-Solid
 62
     7
370
    25
100
AcDbLine
 10
8.81323814653238
 20
12.11208304135241
 30
0.0
 11
8.81323814653238
 21
12.09958304135241
 31
0.0
  0
ARC
  5
1B7
330
1F
100
AcDbEntity
  8
0
  6
SLD-Solid
 62
     7
370
    25
100
AcDbCircle
 10
8.713238146532378
 20
12.09958304135241
 30
0.0
 40
0.1000000000000014
100
AcDbArc
 50
270.0000000000018
 51
0.0
  0
ARC
  5
1B8
330
1F
100
AcDbEntity
  8
0
  6
SLD-Solid
 62
     7
370
    25
100
AcDbCircle
 10
2.913238146532378
 20
23.89958304135241
 30
0.0
 40
0.099999999999998
100
AcDbArc
 50
90.0
 51
115.0205072682721
  0
ARC
  5
1B9
330
1F
100
AcDbEntity
  8
0
  6
SLD-Solid
 62
     7
370
    25
100
AcDbCircle
 10
8.713238146532378
 20
23.89958304135241
 30
0.0
 40
0.1
100
AcDbArc
 50
64.97949273173043
 51
90.0
  0
LINE
  5
1BA
330
1F
100
AcDbEntity
  8
0
  6
SLD-Solid
 62
     7
370
    25
100
AcDbLine
 10
2.913238146532378
 20
23.99958304135241
 30
0.0
 11
8.713238146532378
 21
23.99958304135241
 31
0.0
  0
ARC
  5
1BB
330
1F
100
AcDbEntity
  8
0
  6
SLD-Solid
 62
     7
370
    25
100
AcDbCircle
 10
4.063238146532378
 20
14.59958304135241
 30
0.0
 40
0.1250000000000018
100
AcDbArc
 50
90.0
 51
270.0000000000008
  0
LINE
  5
1BC
330
1F
100
AcDbEntity
  8
0
  6
SLD-Solid
 62
     7
370
    25
100
AcDbLine
 10
4.063238146532378
 20
14.47458304135241
 30
0.0
 11
4.813238146532377
 21
14.47458304135241
 31
0.0
  0
ARC
  5
1BD
330
1F
100
AcDbEntity
  8
0
  6
SLD-Solid
 62
     7
370
    25
100
AcDbCircle
 10
4.813238146532377
 20
14.59958304135241
 30
0.0
 40
0.1250000000000018
100
AcDbArc
 50
270.0000000000008
 51
90.0
  0
LINE
  5
1BE
330
1F
100
AcDbEntity
  8
0
  6
SLD-Solid
 62
     7
370
    25
100
AcDbLine
 10
4.813238146532377
 20
14.72458304135241
 30
0.0
 11
4.063238146532378
 21
14.72458304135241
 31
0.0
  0
ARC
  5
1BF
330
1F
100
AcDbEntity
  8
0
  6
SLD-Solid
 62
     7
370
    25
100
AcDbCircle
 10
7.563238146532377
 20
14.59958304135241
 30
0.0
 40
0.1250000000000018
100
AcDbArc
 50
270.0000000000008
 51
90.0
  0
LINE
  5
1C0
330
1F
100
AcDbEntity
  8
0
  6
SLD-Solid
 62
     7
370
    25
100
AcDbLine
 10
7.563238146532377
 20
14.72458304135241
 30
0.0
 11
6.813238146532378
 21
14.72458304135241
 31
0.0
  0
ARC
  5
1C1
330
1F
100
AcDbEntity
  8
0
  6
SLD-Solid
 62
     7
370
    25
100
AcDbCircle
 10
6.813238146532378
 20
14.59958304135241
 30
0.0
 40
0.1250000000000018
100
AcDbArc
 50
90.0
 51
270.0000000000008
  0
LINE
  5
1C2
330
1F
100
AcDbEntity
  8
0
  6
SLD-Solid
 62
     7
370
    25
100
AcDbLine
 10
6.813238146532378
 20
14.47458304135241
 30
0.0
 11
7.563238146532377
 21
14.47458304135241
 31
0.0
  0
LINE
  5
1C3
330
1F
100
AcDbEntity
  8
0
  6
SLD-Solid
 62
     8
370
    25
100
AcDbLine
 10
8.21723814653238
 20
18.79234524246624
 30
0.0
 11
8.21723814653238
 21
12.04958304135248
 31
0.0
  0
LINE
  5
1C4
330
1F
100
AcDbEntity
  8
0
  6
SLD-Solid
 62
     8
370
    25
100
AcDbLine
 10
8.65923814653238
 20
12.04958304135248
 30
0.0
 11
8.65923814653238
 21
18.79234524246624
 31
0.0
  0
LINE
  5
1C5
330
1F
100
AcDbEntity
  8
0
  6
SLD-Solid
 62
     8
370
    25
100
AcDbLine
 10
3.409238146532378
 20
12.04958304135253
 30
0.0
 11
3.409238146532378
 21
18.79234524246624
 31
0.0
  0
LINE
  5
1C6
330
1F
100
AcDbEntity
  8
0
  6
SLD-Solid
 62
     8
370
    25
100
AcDbLine
 10
2.967238146532376
 20
18.79234524246624
 30
0.0
 11
2.967238146532376
 21
12.04958304135253
 31
0.0
  0
LINE
  5
1C7
330
1F
100
AcDbEntity
  8
0
  6
SLD-Solid
 62
     8
370
    25
100
AcDbLine
 10
8.71323814653238
 20
11.99958304135241
 30
0.0
 11
8.713238146532378
 21
12.04958304135248
 31
0.0
  0
LINE
  5
1C8
330
1F
100
AcDbEntity
  8
0
  6
SLD-Solid
 62
     8
370
    25
100
AcDbLine
 10
2.913238146532377
 20
11.99958304135241
 30
0.0
 11
2.913238146532378
 21
12.04958304135253
 31
0.0
  0
LINE
  5
1C9
330
1F
100
AcDbEntity
  8
0
  6
SLD-Solid
 62
     8
370
    25
100
AcDbLine
 10
2.913238146532378
 20
23.99958304135241
 30
0.0
 11
2.913238146532378
 21
23.99019868792577
 31
0.0
  0
LINE
  5
1CA
330
1F
100
AcDbEntity
  8
0
  6
SLD-Solid
 62
     8
370
    25
100
AcDbLine
 10
8.713238146532378
 20
23.99958304135241
 30
0.0
 11
8.713238146532378
 21
23.99019868792578
 31
0.0
  0
LINE
  5
1CB
330
1F
100
AcDbEntity
  8
NOTES
100
AcDbLine
 10
1.526345433252273
 20
7.523375871352409
 30
0.0
 11
17.49252840528714
 21
7.523375871352409
 31
0.0
  0
LINE
  5
1CC
330
1F
100
AcDbEntity
  8
DIMS
100
AcDbLine
 10
1.927602305955341
 20
7.523375871352409
 30
0.0
 11
1.927602305955341
 21
7.877295292258133
 31
0.0
  0
LINE
  5
1CD
330
1F
100
AcDbEntity
  8
DIMS
100
AcDbLine
 10
1.927602305955341
 20
7.877295292258133
 30
0.0
 11
2.12861045265626
 21
8.112029638069933
 31
0.0
  0
LINE
  5
1CE
330
1F
100
AcDbEntity
  8
DIMS
100
AcDbLine
 10
2.12861045265626
 20
8.112029638069933
 30
0.0
 11
1.844757269255485
 21
8.355099318108538
 31
0.0
  0
LINE
  5
1CF
330
1F
100
AcDbEntity
  8
DIMS
100
AcDbLine
 10
1.844757269255485
 20
8.355099318108538
 30
0.0
 11
1.726594159254424
 21
8.456284969776117
 31
0.0
  0
LINE
  5
1D0
330
1F
100
AcDbEntity
  8
DIMS
100
AcDbLine
 10
1.726594159254424
 20
8.456284969776117
 30
0.0
 11
1.927602305955341
 21
8.691019315587916
 31
0.0
  0
LINE
  5
1D1
330
1F
100
AcDbEntity
  8
DIMS
100
AcDbLine
 10
1.927602305955341
 20
8.691019315587916
 30
0.0
 11
1.927602305955341
 21
8.881324298882378
 31
0.0
  0
DIMENSION
  5
1D2
330
1F
100
AcDbEntity
  8
DIMS
100
AcDbDimension
  2
_D
 10
1.932087668802721
 20
12.04958304135253
 30
0.0
 11
1.932087668802722
 21
8.695150653596182
 31
0.0
 70
    32
  1
                                                                     44" Max. (1117mm) for unrestricted access\P  \P 
 71
     2
 42
-1.0
  3
SLDDIMSTYLE0
100
AcDbAlignedDimension
 13
1.927602305955341
 23
7.523375871352409
 33
0.0
 14
2.888238146532381
 24
12.04958304135253
 34
0.0
 50
90.0000000000002
100
AcDbRotatedDimension
  0
DIMENSION
  5
1E6
330
1F
100
AcDbEntity
  8
DIMS
100
AcDbDimension
  2
_D_1
 10
9.727036143238069
 20
11.99958304135241
 30
0.0
 11
9.727036143238069
 21
17.88614369835614
 31
0.0
 70
    32
  1
<>
 71
     2
 42
-1.0
  3
SLDDIMSTYLE0
100
AcDbAlignedDimension
 13
8.713238146532378
 23
23.99958304135241
 33
0.0
 14
8.638238146532379
 24
11.99958304135241
 34
0.0
 50
90.0000000000002
100
AcDbRotatedDimension
  0
DIMENSION
  5
1F1
330
1F
100
AcDbEntity
  8
DIMS
100
AcDbDimension
  2
_D_2
 10
2.813238146532397
 20
24.77114764586963
 30
0.0
 11
5.90767092008578
 21
24.77114764586963
 31
0.0
 70
    32
  1
<>
 71
     2
 42
-1.0
  3
SLDDIMSTYLE0
100
AcDbAlignedDimension
 13
8.813238146532397
 23
23.86049630394459
 33
0.0
 14
2.813238146532398
 24
23.86049630394458
 34
0.0
 50
0.0000000000000679
100
AcDbRotatedDimension
  0
MTEXT
  5
1FC
330
1F
100
AcDbEntity
  8
NOTES
100
AcDbMText
 10
2.772157413901643
 20
11.71414940246489
 30
0.0
 40
0.3750000000000001
 41
0.0
 71
     1
 72
     1
  1
Front view
  7
SLDTEXTSTYLE1
 73
     1
 44
1.0
  0
ARC
  5
1FD
330
1F
100
AcDbEntity
  8
0
  6
SLD-Solid
 62
     7
370
    25
100
AcDbCircle
 10
16.85600672636867
 20
22.23821037937357
 30
0.0
 40
0.0499999999999992
100
AcDbArc
 50
166.9146580749745
 51
256.9146580749793
  0
ARC
  5
1FE
330
1F
100
AcDbEntity
  8
0
  6
SLD-Solid
 62
     7
370
    25
100
AcDbCircle
 10
17.03712842726772
 20
23.01743751536373
 30
0.0
 40
0.0499999999999984
100
AcDbArc
 50
76.9146580749785
 51
166.9146580749785
  0
LINE
  5
1FF
330
1F
100
AcDbEntity
  8
0
  6
SLD-Solid
 62
     7
370
    25
100
AcDbLine
 10
17.24325531757146
 20
23.02085878613835
 30
0.0
 11
17.04844853357391
 21
23.06613921136312
 31
0.0
  0
LINE
  5
200
330
1F
100
AcDbEntity
  8
0
  6
SLD-Solid
 62
     7
370
    25
100
AcDbLine
 10
16.84468662006248
 20
22.18950868337419
 30
0.0
 11
17.03949340406002
 21
22.14422825814942
 31
0.0
  0
LINE
  5
201
330
1F
100
AcDbEntity
  8
0
  6
SLD-Solid
 62
     7
370
    25
100
AcDbLine
 10
17.51952466885654
 20
23.86049630394459
 30
0.0
 11
16.33996959175143
 21
18.78577958080865
 31
0.0
  0
LINE
  5
202
330
1F
100
AcDbEntity
  8
0
  6
SLD-Solid
 62
     7
370
    25
100
AcDbLine
 10
19.22316094622153
 20
23.93382198955725
 30
0.0
 11
17.51952466885654
 21
23.86049630394459
 31
0.0
  0
LINE
  5
203
330
1F
100
AcDbEntity
  8
0
  6
SLD-Solid
 62
     7
370
    25
100
AcDbLine
 10
19.24356470723477
 20
23.45976454070543
 30
0.0
 11
19.22316094622153
 21
23.93382198955725
 31
0.0
  0
LINE
  5
204
330
1F
100
AcDbEntity
  8
0
  6
SLD-Solid
 62
     7
370
    25
100
AcDbLine
 10
19.24356470723477
 20
23.45976454070543
 30
0.0
 11
19.24356470723477
 21
18.11087484283354
 31
0.0
  0
LINE
  5
205
330
1F
100
AcDbEntity
  8
0
  6
SLD-Solid
 62
     7
370
    25
100
AcDbLine
 10
19.24356470723477
 20
18.11087484283354
 30
0.0
 11
16.33996959175143
 21
18.78577958080865
 31
0.0
  0
LINE
  5
206
330
1F
100
AcDbEntity
  8
0
  6
SLD-Solid
 62
     7
370
    25
100
AcDbLine
 10
17.44257598917751
 20
23.87838207190837
 30
0.0
 11
17.43758334403816
 21
23.85690256639558
 31
0.0
  0
LINE
  5
207
330
1F
100
AcDbEntity
  8
0
  6
SLD-Solid
 62
     7
370
    25
100
AcDbLine
 10
17.44257598917751
 20
23.87838207190837
 30
0.0
 11
17.51952466885654
 21
23.86049630394459
 31
0.0
  0
LINE
  5
208
330
1F
100
AcDbEntity
  8
0
  6
SLD-Solid
 62
     7
370
    25
100
AcDbLine
 10
16.33996959175143
 20
18.78577958080865
 30
0.0
 11
16.2630209120724
 21
18.80366534877243
 31
0.0
  0
LINE
  5
209
330
1F
100
AcDbEntity
  8
0
  6
SLD-Solid
 62
     7
370
    25
100
AcDbLine
 10
16.2630209120724
 20
18.80366534877243
 30
0.0
 11
17.43758334403816
 21
23.85690256639558
 31
0.0
  0
LINE
  5
20A
330
1F
100
AcDbEntity
  8
0
  6
SLD-Solid
 62
     7
370
    25
100
AcDbLine
 10
19.22671451062404
 20
23.94024308371157
 30
0.0
 11
19.22460794764311
 21
23.99019868792579
 31
0.0
  0
LINE
  5
20B
330
1F
100
AcDbEntity
  8
0
  6
SLD-Solid
 62
     7
370
    25
100
AcDbLine
 10
17.51331021718825
 20
23.86799104887605
 30
0.0
 11
19.22671451062404
 21
23.94024308371157
 31
0.0
  0
LINE
  5
20C
330
1F
100
AcDbEntity
  8
0
  6
SLD-Solid
 62
     7
370
    25
100
AcDbLine
 10
17.51331021718825
 20
23.86799104887605
 30
0.0
 11
17.51120365420732
 21
23.91794665309026
 31
0.0
  0
LINE
  5
20D
330
1F
100
AcDbEntity
  8
0
  6
SLD-Solid
 62
     7
370
    25
100
AcDbLine
 10
17.51120365420732
 20
23.91794665309026
 30
0.0
 11
19.22460794764311
 21
23.99019868792579
 31
0.0
  0
ARC
  5
20E
330
1F
100
AcDbEntity
  8
0
  6
SLD-Solid
 62
     7
370
    25
100
AcDbCircle
 10
17.51453202371719
 20
23.8390167984318
 30
0.0
 40
0.0790000000000009
100
AcDbArc
 50
92.41465807497775
 51
150.7057345403662
  0
ARC
  5
20F
330
1F
100
AcDbEntity
  8
0
  6
SLD-Solid
 62
     7
370
    25
100
AcDbCircle
 10
17.51453202371719
 20
23.8390167984318
 30
0.0
 40
0.0290000000000013
100
AcDbArc
 50
92.41465807497897
 51
117.4136254798147
  0
LWPOLYLINE
  5
210
330
1F
100
AcDbEntity
  8
0
  6
SLD-Solid
 62
     7
370
    25
100
AcDbPolyline
 90
        3
 70
   128
 43
0.0
 10
19.24356470723476
 20
23.54958304135249
 10
19.23876102733557
 20
23.59835562185652
 10
19.23730630833195
 20
23.60517109667537
  0
LINE
  5
211
330
1F
100
AcDbEntity
  8
0
  6
SLD-Solid
 62
     7
370
    25
100
AcDbLine
 10
19.24356470723476
 20
23.54958304135249
 30
0.0
 11
19.24356470723476
 21
23.45976454070563
 31
0.0
  0
LINE
  5
212
330
1F
100
AcDbEntity
  8
0
  6
SLD-Solid
 62
     7
370
    25
100
AcDbLine
 10
19.24356470723476
 20
18.11087484283354
 30
0.0
 11
19.24356470723476
 21
12.29958304135249
 31
0.0
  0
ARC
  5
213
330
1F
100
AcDbEntity
  8
0
  6
SLD-Solid
 62
     7
370
    25
100
AcDbCircle
 10
18.99356470723476
 20
12.29958304135249
 30
0.0
 40
0.25
100
AcDbArc
 50
270.0000000000008
 51
0.0
  0
LINE
  5
214
330
1F
100
AcDbEntity
  8
0
  6
SLD-Solid
 62
     7
370
    25
100
AcDbLine
 10
18.99356470723476
 20
12.04958304135249
 30
0.0
 11
18.69756470723476
 21
12.04958304135248
 31
0.0
  0
LINE
  5
215
330
1F
100
AcDbEntity
  8
0
  6
SLD-Solid
 62
     7
370
    25
100
AcDbLine
 10
18.69756470723476
 20
12.04958304135248
 30
0.0
 11
18.61856470723476
 21
12.04958304135248
 31
0.0
  0
LINE
  5
216
330
1F
100
AcDbEntity
  8
0
  6
SLD-Solid
 62
     7
370
    25
100
AcDbLine
 10
18.61856470723476
 20
12.04958304135248
 30
0.0
 11
18.61856470723476
 21
18.25614835530955
 31
0.0
  0
LINE
  5
217
330
1F
100
AcDbEntity
  8
0
  6
SLD-Solid
 62
     7
370
    25
100
AcDbLine
 10
18.96856470723475
 20
12.29958304135248
 30
0.0
 11
18.96856470723476
 21
12.35412660192537
 31
0.0
  0
LWPOLYLINE
  5
218
330
1F
100
AcDbEntity
  8
0
  6
SLD-Solid
 62
     7
370
    25
100
AcDbPolyline
 90
        3
 70
   128
 43
0.0
 10
18.9631556163259
 20
12.24785986289282
 10
18.96376102733556
 20
12.25081046084845
 10
18.96856470723475
 20
12.29958304135248
  0
ARC
  5
219
330
1F
100
AcDbEntity
  8
0
  6
SLD-Solid
 62
     7
370
    25
100
AcDbCircle
 10
19.6635647072352
 20
19.54567596764119
 30
0.0
 40
2.500000000000001
100
AcDbArc
 50
203.5738214477433
 51
245.2916166230584
  0
LINE
  5
21A
330
1F
100
AcDbEntity
  8
0
  6
SLD-Solid
 62
     7
370
    25
100
AcDbLine
 10
16.80730503333026
 20
22.24953049841855
 30
0.0
 11
16.98842673126834
 21
23.02875762166993
 31
0.0
  0
LINE
  5
21B
330
1F
100
AcDbEntity
  8
0
  6
SLD-Solid
 62
     7
370
    25
100
AcDbLine
 10
17.14137436081574
 20
22.58254352214389
 30
0.0
 11
17.1131273771361
 21
22.58910918380148
 31
0.0
  0
LINE
  5
21C
330
1F
100
AcDbEntity
  8
0
  6
SLD-Solid
 62
     7
370
    25
100
AcDbLine
 10
17.12793596998106
 20
22.65281914971581
 30
0.0
 11
17.1561829536607
 21
22.64625348805821
 31
0.0
  0
LINE
  5
21D
330
1F
100
AcDbEntity
  8
0
  6
SLD-Solid
 62
     7
370
    25
100
AcDbLine
 10
17.12793596998106
 20
22.65281914971581
 30
0.0
 11
17.1131273771361
 21
22.58910918380148
 31
0.0
  0
CIRCLE
  5
21E
330
1F
100
AcDbEntity
  8
0
  6
SLD-Solid
 62
     7
370
    25
100
AcDbCircle
 10
18.99356470723521
 20
12.29958304135241
 30
0.0
 40
0.0828775666847719
  0
CIRCLE
  5
21F
330
1F
100
AcDbEntity
  8
0
  6
SLD-Solid
 62
     7
370
    25
100
AcDbCircle
 10
18.99356470723521
 20
12.29958304135241
 30
0.0
 40
0.0599999999999987
  0
CIRCLE
  5
220
330
1F
100
AcDbEntity
  8
0
  6
SLD-Solid
 62
     7
370
    25
100
AcDbCircle
 10
18.99356470723521
 20
12.29958304135241
 30
0.0
 40
0.1875
  0
LINE
  5
221
330
1F
100
AcDbEntity
  8
0
  6
SLD-Solid
 62
     7
370
    25
100
AcDbLine
 10
22.1635647072352
 20
23.89958304135241
 30
0.0
 11
19.36356470723521
 21
23.89958304135241
 31
0.0
  0
LINE
  5
222
330
1F
100
AcDbEntity
  8
0
  6
SLD-Solid
 62
     7
370
    25
100
AcDbLine
 10
22.16356470723521
 20
12.09958304135241
 30
0.0
 11
22.1635647072352
 21
23.89958304135241
 31
0.0
  0
LINE
  5
223
330
1F
100
AcDbEntity
  8
0
  6
SLD-Solid
 62
     7
370
    25
100
AcDbLine
 10
19.36356470723521
 20
12.09958304135241
 30
0.0
 11
22.16356470723521
 21
12.09958304135241
 31
0.0
  0
LINE
  5
224
330
1F
100
AcDbEntity
  8
0
  6
SLD-Solid
 62
     7
370
    25
100
AcDbLine
 10
19.36356470723521
 20
23.89958304135241
 30
0.0
 11
19.36356470723521
 21
12.09958304135241
 31
0.0
  0
LINE
  5
225
330
1F
100
AcDbEntity
  8
0
  6
SLD-Solid
 62
     7
370
    25
100
AcDbLine
 10
22.2635647072352
 20
23.89958304135241
 30
0.0
 11
22.26356470723521
 21
12.09958304135241
 31
0.0
  0
LINE
  5
226
330
1F
100
AcDbEntity
  8
0
  6
SLD-Solid
 62
     7
370
    25
100
AcDbLine
 10
22.26356470723521
 20
12.09958304135241
 30
0.0
 11
22.16356470723521
 21
12.09958304135241
 31
0.0
  0
LINE
  5
227
330
1F
100
AcDbEntity
  8
0
  6
SLD-Solid
 62
     7
370
    25
100
AcDbLine
 10
22.2635647072352
 20
23.89958304135241
 30
0.0
 11
22.1635647072352
 21
23.89958304135241
 31
0.0
  0
LINE
  5
228
330
1F
100
AcDbEntity
  8
0
  6
SLD-Solid
 62
     7
370
    25
100
AcDbLine
 10
19.36356470723521
 20
23.99958304135241
 30
0.0
 11
22.1635647072352
 21
23.99958304135241
 31
0.0
  0
LINE
  5
229
330
1F
100
AcDbEntity
  8
0
  6
SLD-Solid
 62
     7
370
    25
100
AcDbLine
 10
22.1635647072352
 20
23.99958304135241
 30
0.0
 11
22.1635647072352
 21
23.89958304135241
 31
0.0
  0
LINE
  5
22A
330
1F
100
AcDbEntity
  8
0
  6
SLD-Solid
 62
     7
370
    25
100
AcDbLine
 10
19.36356470723521
 20
23.99958304135241
 30
0.0
 11
19.36356470723521
 21
23.89958304135241
 31
0.0
  0
LINE
  5
22B
330
1F
100
AcDbEntity
  8
0
  6
SLD-Solid
 62
     7
370
    25
100
AcDbLine
 10
22.16356470723521
 20
12.09958304135241
 30
0.0
 11
22.16356470723521
 21
11.99958304135241
 31
0.0
  0
LINE
  5
22C
330
1F
100
AcDbEntity
  8
0
  6
SLD-Solid
 62
     7
370
    25
100
AcDbLine
 10
22.16356470723521
 20
11.99958304135241
 30
0.0
 11
19.2635647072352
 21
11.99958304135241
 31
0.0
  0
LINE
  5
22D
330
1F
100
AcDbEntity
  8
0
  6
SLD-Solid
 62
     7
370
    25
100
AcDbLine
 10
19.36356470723521
 20
12.09958304135241
 30
0.0
 11
19.2635647072352
 21
11.99958304135241
 31
0.0
  0
ARC
  5
22E
330
1F
100
AcDbEntity
  8
0
  6
SLD-Solid
 62
     7
370
    25
100
AcDbCircle
 10
22.16356470723521
 20
12.09958304135241
 30
0.0
 40
0.0999999999999996
100
AcDbArc
 50
270.0000000000008
 51
0.0
  0
ARC
  5
22F
330
1F
100
AcDbEntity
  8
0
  6
SLD-Solid
 62
     7
370
    25
100
AcDbCircle
 10
22.1635647072352
 20
23.89958304135241
 30
0.0
 40
0.1000000000000014
100
AcDbArc
 50
0.0
 51
90.0
  0
ARC
  5
230
330
1F
100
AcDbEntity
  8
0
  6
SLD-Solid
 62
     7
370
    25
100
AcDbCircle
 10
19.36356470723521
 20
23.89958304135241
 30
0.0
 40
0.1000000000000014
100
AcDbArc
 50
90.0
 51
180.0
  0
LINE
  5
231
330
1F
100
AcDbEntity
  8
0
  6
SLD-Solid
 62
     7
370
    25
100
AcDbLine
 10
19.36356470723521
 20
23.89958304135241
 30
0.0
 11
19.2635647072352
 21
23.89958304135241
 31
0.0
  0
LINE
  5
232
330
1F
100
AcDbEntity
  8
0
  6
SLD-Solid
 62
     7
370
    25
100
AcDbLine
 10
19.2635647072352
 20
11.99958304135241
 30
0.0
 11
19.2635647072352
 21
23.89958304135241
 31
0.0
  0
ARC
  5
233
330
1F
100
AcDbEntity
  8
0
  6
SLD-Solid
 62
     7
370
    25
100
AcDbCircle
 10
18.91356470723521
 20
12.09958304135241
 30
0.0
 40
0.0999999999999996
100
AcDbArc
 50
209.999999999922
 51
270.0000000000008
  0
LINE
  5
234
330
1F
100
AcDbEntity
  8
0
  6
SLD-Solid
 62
     7
370
    25
100
AcDbLine
 10
19.2341570602002
 20
23.67834018222617
 30
0.0
 11
19.2635647072352
 21
23.67834018222617
 31
0.0
  0
LINE
  5
235
330
1F
100
AcDbEntity
  8
0
  6
SLD-Solid
 62
     7
370
    25
100
AcDbLine
 10
18.91356470723521
 20
11.99958304135241
 30
0.0
 11
19.2635647072352
 21
11.99958304135241
 31
0.0
  0
LINE
  5
236
330
1F
100
AcDbEntity
  8
0
  6
SLD-Solid
 62
     8
370
    25
100
AcDbLine
 10
18.69756470723476
 20
18.23778578333258
 30
0.0
 11
18.69756470723476
 21
12.04958304135248
 31
0.0
  0
LINE
  5
237
330
1F
100
AcDbEntity
  8
0
  6
SLD-Solid
 62
     8
370
    25
100
AcDbLine
 10
17.04844853357391
 20
23.06613921136312
 30
0.0
 11
16.84468662006248
 21
22.18950868337418
 31
0.0
  0
LINE
  5
238
330
1F
100
AcDbEntity
  8
NOTES
100
AcDbLine
 10
31.34931926266951
 20
7.523375871352409
 30
0.0
 11
14.70325018105146
 21
7.523375871352409
 31
0.0
  0
CIRCLE
  5
239
330
1F
100
AcDbEntity
  8
NOTES
  6
SLD-Center
100
AcDbCircle
 10
19.6635647072352
 20
19.54567596764119
 30
0.0
 40
2.50000000000001
  0
CIRCLE
  5
23A
330
1F
100
AcDbEntity
  8
NOTES
  6
SLD-Center
100
AcDbCircle
 10
19.6635647072352
 20
14.59958304135241
 30
0.0
 40
2.500000000000002
  0
MTEXT
  5
23B
330
1F
100
AcDbEntity
  8
NOTES
100
AcDbMText
 10
18.52071131447311
 20
11.78630686295833
 30
0.0
 40
0.3750000000000001
 41
0.0
 71
     1
 72
     1
  1
Side view
  7
SLDTEXTSTYLE1
 73
     1
 44
1.0
  0
MTEXT
  5
23C
330
1F
100
AcDbEntity
  8
NOTES
100
AcDbMText
 10
2.365830234631111
 20
8.022413629297523
 30
0.0
 40
0.3750000000000001
 41
0.0
 71
     1
 72
     1
  1
Floor
  7
SLDTEXTSTYLE1
 73
     1
 44
1.0
  0
MTEXT
  5
23D
330
1F
100
AcDbEntity
  8
NOTES
100
AcDbMText
 10
13.17582639075202
 20
10.65272013861021
 30
0.0
 40
0.3750000000000001
 41
0.0
 71
     1
 72
     1
  1
2 roll capacity
  7
SLDTEXTSTYLE1
 73
     1
 44
1.0
  0
LEADER
  5
23F
330
1F
100
AcDbEntity
  8
NOTES
100
AcDbLeader
  3
SLDDIMSTYLE1
 76
     3
 10
17.77167328145702
 20
12.9653410662866
 30
0.0
 10
16.88539189000935
 20
10.47030642734117
 30
0.0
 10
16.63539189000936
 20
10.47030642734117
 30
0.0
1001
ACAD
1000
DSTYLE
1002
{
1070
   176
1070
     0
1070
    77
1070
     0
1070
    40
1040
1.0
1070
   147
1040
0.0
1002
}
  0
LINE
  5
240
330
1F
100
AcDbEntity
  8
0
  6
SLD-Solid
 62
     7
370
    25
100
AcDbLine
 10
27.5585761995654
 20
39.75660432240375
 30
0.0
 11
26.72450480576137
 21
35.13139184255902
 31
0.0
  0
LINE
  5
241
330
1F
100
AcDbEntity
  8
0
  6
SLD-Solid
 62
     7
370
    25
100
AcDbLine
 10
28.44335529319844
 20
34.12176526418546
 30
0.0
 11
28.44335529319844
 21
33.61511195595957
 31
0.0
  0
LINE
  5
242
330
1F
100
AcDbEntity
  8
0
  6
SLD-Solid
 62
     7
370
    25
100
AcDbLine
 10
28.44335529319844
 20
30.57851886988411
 30
0.0
 11
28.44335529319844
 21
30.54875698704506
 31
0.0
  0
LINE
  5
243
330
1F
100
AcDbEntity
  8
0
  6
SLD-Solid
 62
     7
370
    25
100
AcDbLine
 10
32.15566589442781
 20
33.06074294356127
 30
0.0
 11
32.15566589442781
 21
28.40568569351041
 31
0.0
  0
LINE
  5
244
330
1F
100
AcDbEntity
  8
0
  6
SLD-Solid
 62
     7
370
    25
100
AcDbLine
 10
28.37695766961707
 20
30.61684940208931
 30
0.0
 11
31.55893818495652
 21
28.77993115048822
 31
0.0
  0
LINE
  5
245
330
1F
100
AcDbEntity
  8
0
  6
SLD-Solid
 62
     7
370
    25
100
AcDbLine
 10
31.49370270793449
 20
32.85627752345929
 30
0.0
 11
31.55893818495652
 21
32.81861788418242
 31
0.0
  0
SPLINE
  5
246
330
1F
100
AcDbEntity
  8
0
  6
SLD-Solid
 62
     7
370
    25
100
AcDbSpline
210
0.0
220
0.0
230
1.0
 70
    12
 71
     3
 72
    27
 73
    23
 74
     0
 42
0.00000001
 43
0.00000001
 40
0.0
 40
0.0
 40
0.0
 40
0.0
 40
0.0301079460654652
 40
0.0810498122243089
 40
0.1321359571390585
 40
0.1838926225432777
 40
0.2364872388188352
 40
0.2897583192734206
 40
0.3434161731432471
 40
0.3972181602880124
 40
0.4510336357469677
 40
0.5048557029071155
 40
0.5587186276284704
 40
0.6126607986344516
 40
0.6667260543819015
 40
0.7209416379987642
 40
0.7752671524321536
 40
0.829488957882997
 40
0.883255132366684
 40
0.9361661636821574
 40
0.9880555908844841
 40
1.0
 40
1.0
 40
1.0
 40
1.0
 10
29.14954516626998
 20
37.74407463168855
 30
0.0
 41
1.0
 10
29.13920654334609
 20
37.74091496420128
 30
0.0
 41
1.0
 10
29.11137523778915
 20
37.73240922103375
 30
0.0
 41
1.0
 10
29.07104713750405
 20
37.70560725225213
 30
0.0
 41
1.0
 10
29.02989617174617
 20
37.66620995256799
 30
0.0
 41
1.0
 10
28.99599940704318
 20
37.61693366088443
 30
0.0
 41
1.0
 10
28.9698991971829
 20
37.55947804535829
 30
0.0
 41
1.0
 10
28.95241292469666
 20
37.49503172127636
 30
0.0
 41
1.0
 10
28.94409107476949
 20
37.42542905439533
 30
0.0
 41
1.0
 10
28.94519401421296
 20
37.35269275285364
 30
0.0
 41
1.0
 10
28.95565960488103
 20
37.27891939694757
 30
0.0
 41
1.0
 10
28.9751701055829
 20
37.20615266552139
 30
0.0
 41
1.0
 10
29.0032031985728
 20
37.13635985017514
 30
0.0
 41
1.0
 10
29.03905763895219
 20
37.07142616390083
 30
0.0
 41
1.0
 10
29.08187591115858
 20
37.01312824741346
 30
0.0
 41
1.0
 10
29.13065324788147
 20
36.96313211873238
 30
0.0
 41
1.0
 10
29.18421505184373
 20
36.92296394626592
 30
0.0
 41
1.0
 10
29.24109606434473
 20
36.8941136333582
 30
0.0
 41
1.0
 10
29.2996813954485
 20
36.87732922059082
 30
0.0
 41
1.0
 10
29.3574863099979
 20
36.87449061189358
 30
0.0
 41
1.0
 10
29.39991194468307
 20
36.87919547694644
 30
0.0
 41
1.0
 10
29.42093253173065
 20
36.88836332359224
 30
0.0
 41
1.0
 10
29.42486584525257
 20
36.89007878544385
 30
0.0
 41
1.0
  0
LINE
  5
247
330
1F
100
AcDbEntity
  8
0
  6
SLD-Solid
 62
     7
370
    25
100
AcDbLine
 10
29.28991718707627
 20
37.78904959129959
 30
0.0
 11
29.15216798909046
 21
37.7465019871283
 31
0.0
  0
LINE
  5
248
330
1F
100
AcDbEntity
  8
0
  6
SLD-Solid
 62
     7
370
    25
100
AcDbLine
 10
29.4177759825248
 20
36.88658780895481
 30
0.0
 11
29.55552518051061
 21
36.9291354131261
 31
0.0
  0
LINE
  5
249
330
1F
100
AcDbEntity
  8
0
  6
SLD-Solid
 62
     7
370
    25
100
AcDbLine
 10
29.3434974840132
 20
37.00493803463802
 30
0.0
 11
29.35210680888731
 21
37.00759725989872
 31
0.0
  0
LINE
  5
24A
330
1F
100
AcDbEntity
  8
0
  6
SLD-Solid
 62
     7
370
    25
100
AcDbLine
 10
29.16618121348328
 20
37.60953718462017
 30
0.0
 11
29.15757188860916
 21
37.60687795935946
 31
0.0
  0
LINE
  5
24B
330
1F
100
AcDbEntity
  8
0
  6
SLD-Solid
 62
     7
370
    25
100
AcDbLine
 10
32.76646995683561
 20
28.32797326066058
 30
0.0
 11
32.78414762636528
 21
28.3177681592628
 31
0.0
  0
LINE
  5
24C
330
1F
100
AcDbEntity
  8
0
  6
SLD-Solid
 62
     7
370
    25
100
AcDbLine
 10
32.97163238873454
 20
28.64253648265556
 30
0.0
 11
32.95395471920487
 21
28.65274158405334
 31
0.0
  0
ARC
  5
24D
330
1F
100
AcDbEntity
  8
0
  6
SLD-Solid
 62
     7
370
    25
100
AcDbCircle
 10
35.03622296148923
 20
39.2940603604134
 30
0.0
 40
0.1000000000000055
100
AcDbArc
 50
0.0000000000002544
 51
60.00268826634733
  0
LINE
  5
24E
330
1F
100
AcDbEntity
  8
0
  6
SLD-Solid
 62
     7
370
    25
100
AcDbLine
 10
35.13622296148924
 20
29.65887878016155
 30
0.0
 11
35.13622296148923
 21
39.2940603604134
 31
0.0
  0
LINE
  5
24F
330
1F
100
AcDbEntity
  8
0
  6
SLD-Solid
 62
     7
370
    25
100
AcDbLine
 10
35.08621889812104
 20
39.38066524665147
 30
0.0
 11
30.98499956723906
 21
41.74824877093733
 31
0.0
  0
ARC
  5
250
330
1F
100
AcDbEntity
  8
0
  6
SLD-Solid
 62
     7
370
    25
100
AcDbCircle
 10
28.95510464328493
 20
40.51867252814747
 30
0.0
 40
0.1000000000000002
100
AcDbArc
 50
119.9973117336474
 51
169.9826432431358
  0
LINE
  5
251
330
1F
100
AcDbEntity
  8
0
  6
SLD-Solid
 62
     7
370
    25
100
AcDbLine
 10
30.88500769397546
 20
41.74824877093733
 30
0.0
 11
28.90510870665313
 21
40.60527741438554
 31
0.0
  0
ARC
  5
252
330
1F
100
AcDbEntity
  8
0
  6
SLD-Solid
 62
     7
370
    25
100
AcDbCircle
 10
30.93500363060727
 20
41.66164388469926
 30
0.0
 40
0.1000000000000019
100
AcDbArc
 50
60.00268826635261
 51
119.9973117336492
  0
LINE
  5
253
330
1F
100
AcDbEntity
  8
0
  6
SLD-Solid
 62
     7
370
    25
100
AcDbLine
 10
33.0563158477607
 20
28.4004358062255
 30
0.0
 11
35.08621889812104
 21
29.57227389392348
 31
0.0
  0
ARC
  5
254
330
1F
100
AcDbEntity
  8
0
  6
SLD-Solid
 62
     7
370
    25
100
AcDbCircle
 10
35.03622296148924
 20
29.65887878016155
 30
0.0
 40
0.1000000000000019
100
AcDbArc
 50
299.99731173365
 51
0.0
  0
LINE
  5
255
330
1F
100
AcDbEntity
  8
0
  6
SLD-Solid
 62
     7
370
    25
100
AcDbLine
 10
27.63043833907814
 20
39.78609815690096
 30
0.0
 11
27.57650365645593
 21
39.817233986434
 31
0.0
  0
LINE
  5
256
330
1F
100
AcDbEntity
  8
0
  6
SLD-Solid
 62
     7
370
    25
100
AcDbLine
 10
27.57650365645593
 20
39.817233986434
 30
0.0
 11
28.78806345125852
 21
40.57564930361541
 31
0.0
  0
LINE
  5
257
330
1F
100
AcDbEntity
  8
0
  6
SLD-Solid
 62
     7
370
    25
100
AcDbLine
 10
33.02685063219476
 20
38.12864954991523
 30
0.0
 11
28.78806345125852
 21
40.57564930361541
 31
0.0
  0
LINE
  5
258
330
1F
100
AcDbEntity
  8
0
  6
SLD-Solid
 62
     7
370
    25
100
AcDbLine
 10
31.81529083739217
 20
37.37023423273381
 30
0.0
 11
33.02685063219476
 21
38.12864954991523
 31
0.0
  0
LINE
  5
259
330
1F
100
AcDbEntity
  8
0
  6
SLD-Solid
 62
     7
370
    25
100
AcDbLine
 10
31.76135615476996
 20
37.40137006226684
 30
0.0
 11
31.81529083739217
 21
37.37023423273381
 31
0.0
  0
LINE
  5
25A
330
1F
100
AcDbEntity
  8
0
  6
SLD-Solid
 62
     7
370
    25
100
AcDbLine
 10
31.76135615476996
 20
37.40137006226684
 30
0.0
 11
27.63043833907814
 21
39.78609815690096
 31
0.0
  0
LINE
  5
25B
330
1F
100
AcDbEntity
  8
0
  6
SLD-Solid
 62
     7
370
    25
100
AcDbLine
 10
33.02834019716357
 20
38.08871866784474
 30
0.0
 11
33.02685063219476
 21
38.12864954991523
 31
0.0
  0
LINE
  5
25C
330
1F
100
AcDbEntity
  8
0
  6
SLD-Solid
 62
     7
370
    25
100
AcDbLine
 10
31.81678040236098
 20
37.33030335066334
 30
0.0
 11
33.02834019716357
 21
38.08871866784474
 31
0.0
  0
LINE
  5
25D
330
1F
100
AcDbEntity
  8
0
  6
SLD-Solid
 62
     7
370
    25
100
AcDbLine
 10
31.81678040236098
 20
37.33030335066334
 30
0.0
 11
31.81529083739217
 21
37.37023423273381
 31
0.0
  0
LINE
  5
25E
330
1F
100
AcDbEntity
  8
0
  6
SLD-Solid
 62
     7
370
    25
100
AcDbLine
 10
33.04218183854287
 20
33.33456761937263
 30
0.0
 11
30.98903004256447
 21
32.70039557919967
 31
0.0
  0
LINE
  5
25F
330
1F
100
AcDbEntity
  8
0
  6
SLD-Solid
 62
     7
370
    25
100
AcDbLine
 10
31.82310143636851
 20
37.32560805904443
 30
0.0
 11
30.98903004256447
 21
32.70039557919967
 31
0.0
  0
LINE
  5
260
330
1F
100
AcDbEntity
  8
0
  6
SLD-Solid
 62
     7
370
    25
100
AcDbLine
 10
33.0277542007687
 20
38.08091271212477
 30
0.0
 11
31.82310143636851
 21
37.32560805904443
 31
0.0
  0
LINE
  5
261
330
1F
100
AcDbEntity
  8
0
  6
SLD-Solid
 62
     7
370
    25
100
AcDbLine
 10
33.04218183854287
 20
37.70215435596027
 30
0.0
 11
33.0277542007687
 21
38.08091271212477
 31
0.0
  0
LINE
  5
262
330
1F
100
AcDbEntity
  8
0
  6
SLD-Solid
 62
     7
370
    25
100
AcDbLine
 10
33.04218183854287
 20
37.70215435596027
 30
0.0
 11
33.04218183854287
 21
33.33456761937263
 31
0.0
  0
LINE
  5
263
330
1F
100
AcDbEntity
  8
0
  6
SLD-Solid
 62
     7
370
    25
100
AcDbLine
 10
31.78774609730918
 20
37.34601826183999
 30
0.0
 11
31.82310143636851
 21
37.32560805904443
 31
0.0
  0
LINE
  5
264
330
1F
100
AcDbEntity
  8
0
  6
SLD-Solid
 62
     7
370
    25
100
AcDbLine
 10
31.78861486434615
 20
37.34656296966357
 30
0.0
 11
31.78774609730918
 21
37.34601826183999
 31
0.0
  0
LINE
  5
265
330
1F
100
AcDbEntity
  8
0
  6
SLD-Solid
 62
     7
370
    25
100
AcDbLine
 10
33.02157177252791
 20
38.08448175197903
 30
0.0
 11
33.0277542007687
 21
38.08091271212477
 31
0.0
  0
LINE
  5
266
330
1F
100
AcDbEntity
  8
0
  6
SLD-Solid
 62
     7
370
    25
100
AcDbLine
 10
31.71282906745038
 20
37.34104987581376
 30
0.0
 11
31.70929873421629
 21
37.32147296494784
 31
0.0
  0
ARC
  5
267
330
1F
100
AcDbEntity
  8
0
  6
SLD-Solid
 62
     7
370
    25
100
AcDbCircle
 10
31.78818709389728
 20
37.47773622553853
 30
0.0
 40
0.156083280177779
100
AcDbArc
 50
241.1311382797149
 51
282.9258851024634
  0
ARC
  5
268
330
1F
100
AcDbEntity
  8
0
  6
SLD-Solid
 62
     7
370
    25
100
AcDbCircle
 10
30.95411570009327
 20
32.85252374569388
 30
0.0
 40
0.1560832801778773
100
AcDbArc
 50
241.1311382797245
 51
282.9258851024457
  0
LINE
  5
269
330
1F
100
AcDbEntity
  8
0
  6
SLD-Solid
 62
     7
370
    25
100
AcDbLine
 10
30.87875767364634
 20
32.71583739596901
 30
0.0
 11
31.70929873421629
 21
37.32147296494784
 31
0.0
  0
LINE
  5
26A
330
1F
100
AcDbEntity
  8
0
  6
SLD-Solid
 62
     7
370
    25
100
AcDbLine
 10
31.71499188993643
 20
37.34171792264362
 30
0.0
 11
31.71282906745038
 21
37.34104987581376
 31
0.0
  0
LINE
  5
26B
330
1F
100
AcDbEntity
  8
0
  6
SLD-Solid
 62
     7
370
    25
100
AcDbLine
 10
31.74726636694683
 20
37.35168677685659
 30
0.0
 11
31.71499188993643
 21
37.34171792264362
 31
0.0
  0
ARC
  5
26C
330
1F
100
AcDbEntity
  8
0
  6
SLD-Solid
 62
     7
370
    25
100
AcDbCircle
 10
31.77492943994633
 20
37.40186277865426
 30
0.0
 40
0.0572963939892889
100
AcDbArc
 50
241.1311382797042
 51
282.9258851024648
  0
LINE
  5
26D
330
1F
100
AcDbEntity
  8
0
  6
SLD-Solid
 62
     7
370
    25
100
AcDbLine
 10
31.76284571973877
 20
37.36143918019637
 30
0.0
 11
31.76135615476996
 21
37.40137006226684
 31
0.0
  0
LINE
  5
26E
330
1F
100
AcDbEntity
  8
0
  6
SLD-Solid
 62
     7
370
    25
100
AcDbLine
 10
31.76284571973877
 20
37.36143918019637
 30
0.0
 11
31.81678040236098
 21
37.33030335066334
 31
0.0
  0
ARC
  5
26F
330
1F
100
AcDbEntity
  8
0
  6
SLD-Solid
 62
     7
370
    25
100
AcDbCircle
 10
27.69120414365515
 20
39.68539661885315
 30
0.0
 40
0.1147253454251839
100
AcDbArc
 50
159.0344939404963
 51
169.5521048113256
  0
ARC
  5
270
330
1F
100
AcDbEntity
  8
0
  6
SLD-Solid
 62
     7
370
    25
100
AcDbCircle
 10
27.69987078489496
 20
39.68428796615439
 30
0.0
 40
0.1232322176703775
100
AcDbArc
 50
124.2931795578768
 51
159.9949777133261
  0
ARC
  5
271
330
1F
100
AcDbEntity
  8
0
  6
SLD-Solid
 62
     7
370
    25
100
AcDbCircle
 10
31.83078860058681
 20
37.29955987152024
 30
0.0
 40
0.1232322176704248
100
AcDbArc
 50
124.2931795578857
 51
159.9949777133199
  0
LINE
  5
272
330
1F
100
AcDbEntity
  8
0
  6
SLD-Solid
 62
     7
370
    25
100
AcDbLine
 10
31.70929873421629
 20
37.32147296494784
 30
0.0
 11
27.57838091852447
 21
39.70620105958196
 31
0.0
  0
ARC
  5
273
330
1F
100
AcDbEntity
  8
0
  6
SLD-Solid
 62
     7
370
    25
100
AcDbCircle
 10
31.78542922155821
 20
37.32715151417325
 30
0.0
 40
0.041056772836428
100
AcDbArc
 50
123.3708174233578
 51
146.6485688001877
  0
LINE
  5
274
330
1F
100
AcDbEntity
  8
0
  6
SLD-Solid
 62
     7
370
    25
100
AcDbLine
 10
26.74783985795452
 20
35.10056549060315
 30
0.0
 11
30.87875767364634
 21
32.71583739596901
 31
0.0
  0
LINE
  5
275
330
1F
100
AcDbEntity
  8
0
  6
SLD-Solid
 62
     7
370
    25
100
AcDbLine
 10
26.74783985795452
 20
35.10056549060315
 30
0.0
 11
27.57838091852447
 21
39.70620105958196
 31
0.0
  0
LINE
  5
276
330
1F
100
AcDbEntity
  8
0
  6
SLD-Solid
 62
     7
370
    25
100
AcDbLine
 10
27.60377271723951
 20
39.76137468184722
 30
0.0
 11
27.58046074924922
 21
39.77483239451254
 31
0.0
  0
LINE
  5
277
330
1F
100
AcDbEntity
  8
0
  6
SLD-Solid
 62
     7
370
    25
100
AcDbLine
 10
27.58132951628619
 20
39.77537710233612
 30
0.0
 11
27.58046074924922
 21
39.77483239451254
 31
0.0
  0
LINE
  5
278
330
1F
100
AcDbEntity
  8
0
  6
SLD-Solid
 62
     7
370
    25
100
AcDbLine
 10
27.58191125175856
 20
39.72577797044789
 30
0.0
 11
27.57838091852447
 21
39.70620105958196
 31
0.0
  0
LINE
  5
279
330
1F
100
AcDbEntity
  8
0
  6
SLD-Solid
 62
     7
370
    25
100
AcDbLine
 10
27.58407407424461
 20
39.72644601727774
 30
0.0
 11
27.58191125175856
 21
39.72577797044789
 31
0.0
  0
ARC
  5
27A
330
1F
100
AcDbEntity
  8
0
  6
SLD-Solid
 62
     7
370
    25
100
AcDbCircle
 10
26.75963452361006
 20
35.13373916804701
 30
0.0
 40
0.0352080532417724
100
AcDbArc
 50
183.8227526082635
 51
250.4275176359133
  0
LWPOLYLINE
  5
27B
330
1F
100
AcDbEntity
  8
0
  6
SLD-Solid
 62
     7
370
    25
100
AcDbPolyline
 90
        9
 70
   128
 43
0.0
 10
27.58191125175856
 20
39.72577797044789
 10
27.5720587171014
 20
39.7323921950565
 10
27.5646757914748
 20
39.7393980955468
 10
27.56004619657018
 20
39.7465264390919
 10
27.55834784512344
 20
39.75350328744699
 10
27.55964600382821
 20
39.76006052424242
 10
27.56389078517349
 20
39.76594615854551
 10
27.57091906459268
 20
39.77093400873068
 10
27.58046074924922
 20
39.77483239451254
  0
LINE
  5
27C
330
1F
100
AcDbEntity
  8
0
  6
SLD-Solid
 62
     7
370
    25
100
AcDbLine
 10
27.57799322142474
 20
39.77730310436353
 30
0.0
 11
27.57650365645593
 21
39.817233986434
 31
0.0
  0
LINE
  5
27D
330
1F
100
AcDbEntity
  8
0
  6
SLD-Solid
 62
     7
370
    25
100
AcDbLine
 10
27.60433907647467
 20
39.76209396597882
 30
0.0
 11
27.57799322142474
 21
39.77730310436353
 31
0.0
  0
ARC
  5
27E
330
1F
100
AcDbEntity
  8
0
  6
SLD-Solid
 62
     7
370
    25
100
AcDbCircle
 10
28.83526073855653
 20
30.44484229362584
 30
0.0
 40
0.1224335836155631
100
AcDbArc
 50
242.6622997922114
 51
289.100157719591
  0
LINE
  5
27F
330
1F
100
AcDbEntity
  8
0
  6
SLD-Solid
 62
     7
370
    25
100
AcDbLine
 10
28.4664938574847
 20
30.51650886662808
 30
0.0
 11
28.77903505476916
 21
30.33608267391526
 31
0.0
  0
ARC
  5
280
330
1F
100
AcDbEntity
  8
0
  6
SLD-Solid
 62
     7
370
    25
100
AcDbCircle
 10
28.48289140113519
 20
30.55269959082011
 30
0.0
 40
0.0397322030010057
100
AcDbArc
 50
185.694799251198
 51
245.6253417064177
  0
ARC
  5
281
330
1F
100
AcDbEntity
  8
0
  6
SLD-Solid
 62
     7
370
    25
100
AcDbCircle
 10
32.54720709171227
 20
28.30082355609209
 30
0.0
 40
0.1214247307250177
100
AcDbArc
 50
242.609672236598
 51
297.3903277634006
  0
LINE
  5
282
330
1F
100
AcDbEntity
  8
0
  6
SLD-Solid
 62
     7
370
    25
100
AcDbLine
 10
32.98914882995386
 20
33.318186925398
 30
0.0
 11
32.98914882995386
 21
28.6276486153592
 31
0.0
  0
LINE
  5
283
330
1F
100
AcDbEntity
  8
0
  6
SLD-Solid
 62
     7
370
    25
100
AcDbLine
 10
32.80579819083041
 20
28.31004472393921
 30
0.0
 11
32.603068527426
 21
28.19301138038061
 31
0.0
  0
ARC
  5
284
330
1F
100
AcDbEntity
  8
0
  6
SLD-Solid
 62
     7
370
    25
100
AcDbCircle
 10
32.90164460328276
 20
28.46643908473704
 30
0.0
 40
0.1609903726501799
100
AcDbArc
 50
130.0939602707362
 51
169.9114162619043
  0
LINE
  5
285
330
1F
100
AcDbEntity
  8
0
  6
SLD-Solid
 62
     7
370
    25
100
AcDbLine
 10
32.17880445871408
 20
28.37343757309343
 30
0.0
 11
32.49134565599853
 21
28.19301138038061
 31
0.0
  0
ARC
  5
286
330
1F
100
AcDbEntity
  8
0
  6
SLD-Solid
 62
     7
370
    25
100
AcDbCircle
 10
32.19520200236455
 20
28.40962829728545
 30
0.0
 40
0.0397322030009919
100
AcDbArc
 50
185.6947992511847
 51
245.6253417064368
  0
LWPOLYLINE
  5
287
330
1F
100
AcDbEntity
  8
0
  6
SLD-Solid
 62
     7
370
    25
100
AcDbPolyline
 90
       16
 70
   128
 43
0.0
 10
27.86467486886046
 20
31.60253587414068
 10
27.85910879599792
 20
31.75184445730432
 10
27.86342868304263
 20
31.90691392907361
 10
27.87761037143391
 20
32.06687707806039
 10
27.90157455141766
 20
32.23083932544846
 10
27.93518720557864
 20
32.39788372784118
 10
27.97826035832021
 20
32.56707610518084
 10
28.03055312710017
 20
32.73747026506258
 10
28.09177306954357
 20
32.90811329422606
 10
28.16157781889916
 20
33.07805088763296
 10
28.23957699869311
 20
33.24633268532786
 10
28.32533440587261
 20
33.41201758723662
 10
28.41837045023027
 20
33.57417901617973
 10
28.51816483646713
 20
33.73191009966777
 10
28.62415947389499
 20
33.8843287415002
 10
28.69380906306239
 20
33.9771813803975
  0
LWPOLYLINE
  5
288
330
1F
100
AcDbEntity
  8
0
  6
SLD-Solid
 62
     7
370
    25
100
AcDbPolyline
 90
       11
 70
   128
 43
0.0
 10
28.37695766961707
 20
30.61684940208931
 10
28.33667684609728
 20
30.6416523300101
 10
28.24997420430805
 20
30.70683883415527
 10
28.17097164451306
 20
30.78363032224435
 10
28.10011098107311
 20
30.87159734512641
 10
28.03778849556191
 20
30.97024795552679
 10
27.98435272059877
 20
31.07903045921571
 10
27.94010249071286
 20
31.19733650030628
 10
27.90528527113926
 20
31.32450446342732
 10
27.88009577389299
 20
31.45982317374495
 10
27.86467486886046
 20
31.60253587414068
  0
LWPOLYLINE
  5
289
330
1F
100
AcDbEntity
  8
0
  6
SLD-Solid
 62
     7
370
    25
100
AcDbPolyline
 90
       19
 70
   128
 43
0.0
 10
31.04665538419992
 20
29.76561762253958
 10
31.04108931133738
 20
29.91492620570322
 10
31.04540919838208
 20
30.06999567747252
 10
31.05959088677336
 20
30.2299588264593
 10
31.08355506675712
 20
30.39392107384737
 10
31.1171677209181
 20
30.56096547624008
 10
31.16024087365967
 20
30.73015785357974
 10
31.21253364243963
 20
30.90055201346149
 10
31.27375358488303
 20
31.07119504262496
 10
31.34355833423862
 20
31.24113263603186
 10
31.42155751403257
 20
31.40941443372676
 10
31.50731492121206
 20
31.57509933563552
 10
31.60035096556973
 20
31.73726076457863
 10
31.70014535180659
 20
31.89499184806667
 10
31.80613998923445
 20
32.0474104898991
 10
31.9177421128454
 20
32.19366430320407
 10
32.03432759829419
 20
32.3329353773315
 10
32.15524445225473
 20
32.46444485194132
 10
32.15566589442781
 20
32.46488172923227
  0
LWPOLYLINE
  5
28A
330
1F
100
AcDbEntity
  8
0
  6
SLD-Solid
 62
     7
370
    25
100
AcDbPolyline
 90
       16
 70
   128
 43
0.0
 10
32.15566589442781
 20
28.67109003833765
 10
32.04935199571706
 20
28.66326043908041
 10
31.93218379924357
 20
28.66631520893909
 10
31.81991820083949
 20
28.68211360658094
 10
31.71318303527024
 20
28.71056728095791
 10
31.61257520887748
 20
28.75151710758103
 10
31.51865736143674
 20
28.80473407840901
 10
31.4319547196475
 20
28.86992058255417
 10
31.35295215985251
 20
28.94671207064325
 10
31.28209149641257
 20
29.03467909352532
 10
31.21976901090137
 20
29.13332970392569
 10
31.16633323593823
 20
29.24211220761461
 10
31.12208300605232
 20
29.36041824870518
 10
31.08726578647872
 20
29.48758621182622
 10
31.06207628923244
 20
29.62290492214385
 10
31.04665538419992
 20
29.76561762253958
  0
ARC
  5
28B
330
1F
100
AcDbEntity
  8
0
  6
SLD-Solid
 62
     7
370
    25
100
AcDbCircle
 10
32.01640841877099
 20
33.62808966809515
 30
0.0
 40
0.9288117245181945
100
AcDbArc
 50
236.0580295759802
 51
278.6229157630559
  0
LWPOLYLINE
  5
28C
330
1F
100
AcDbEntity
  8
0
  6
SLD-Solid
 62
     7
370
    25
100
AcDbPolyline
 90
       34
 70
   128
 43
0.0
 10
29.31457087777407
 20
37.66101068259143
 10
29.2598853250779
 20
37.68549476467093
 10
29.20486181593386
 20
37.69625959196308
 10
29.15148904332475
 20
37.69291609556207
 10
29.10169603831408
 20
37.67558511813921
 10
29.05728244983734
 20
37.64489304637399
 10
29.01985350070056
 20
37.60194917170741
 10
28.9907619706457
 20
37.54830559765911
 10
28.97105930336621
 20
37.48590114276215
 10
28.96145760459236
 20
37.41699126660973
 10
28.96230390473482
 20
37.34406655166894
 10
28.97356761630142
 20
37.26976268714122
 10
28.99484163940884
 20
37.19676520828745
 10
29.02535707543305
 20
37.12771243418645
 10
29.06401101700893
 20
37.06510011200951
 10
29.10940640997608
 20
37.0111912142149
 10
29.15990254655611
 20
36.96793414882718
 10
29.21367436480663
 20
36.93689233889466
 10
29.26877841111495
 20
36.91918771630694
 10
29.32322308167531
 20
36.91546017225328
 10
29.37504060423944
 20
36.92584442988782
 10
29.42235815853264
 20
36.9499651750837
 10
29.46346556485806
 20
36.98695062126357
 10
29.49687709444681
 20
37.03546401803784
 10
29.52138516756665
 20
37.09375196484668
 10
29.53610399859987
 20
37.15970778342465
 10
29.54050161064339
 20
37.23094765864212
 10
29.5344190625401
 20
37.30489679579505
 10
29.51807619342636
 20
37.37888248039415
 10
29.49206367717289
 20
37.45023067703018
 10
29.45732167389202
 20
37.51636267598079
 10
29.41510585010174
 20
37.57488829449868
 10
29.36694199566609
 20
37.62369226424358
 10
29.31457087777407
 20
37.66101068259143
  0
LINE
  5
28D
330
1F
100
AcDbEntity
  8
0
  6
SLD-Solid
 62
     7
370
    25
100
AcDbLine
 10
29.42437327039361
 20
36.88874214709432
 30
0.0
 11
29.4177759825248
 21
36.88658780895481
 31
0.0
  0
LINE
  5
28E
330
1F
100
AcDbEntity
  8
0
  6
SLD-Solid
 62
     7
370
    25
100
AcDbLine
 10
29.74091923532738
 20
37.17540067705274
 30
0.0
 11
29.72094560161944
 21
37.1692312744479
 31
0.0
  0
LWPOLYLINE
  5
28F
330
1F
100
AcDbEntity
  8
0
  6
SLD-Solid
 62
     7
370
    25
100
AcDbPolyline
 90
       13
 70
   128
 43
0.0
 10
29.74801123398358
 20
37.23541819599058
 10
29.74738869725493
 20
37.31092549126241
 10
29.7368087433136
 20
37.38791004866867
 10
29.71659585493387
 20
37.4640107839455
 10
29.68736995297114
 20
37.53689371928507
 10
29.65002738364792
 20
37.6043235654614
 10
29.60571342798904
 20
37.66423227721858
 10
29.55578717653034
 20
37.71478247935612
 10
29.50177984657882
 20
37.75442381825994
 10
29.4453478204166
 20
37.78194051060103
 10
29.38822184474716
 20
37.79648863090306
 10
29.33215394941591
 20
37.79762199438465
 10
29.28991718707627
 20
37.78904959129959
  0
ARC
  5
290
330
1F
100
AcDbEntity
  8
0
  6
SLD-Solid
 62
     7
370
    25
100
AcDbCircle
 10
29.44970677633178
 20
37.20171494725837
 30
0.0
 40
0.29239893483171
100
AcDbArc
 50
291.2167655390179
 51
354.8367143832841
  0
LINE
  5
291
330
1F
100
AcDbEntity
  8
0
  6
SLD-Solid
 62
     7
370
    25
100
AcDbLine
 10
29.72803760027564
 20
37.22924879338575
 30
0.0
 11
29.74801123398358
 21
37.23541819599058
 31
0.0
  0
ARC
  5
292
330
1F
100
AcDbEntity
  8
0
  6
SLD-Solid
 62
     7
370
    25
100
AcDbCircle
 10
29.22113057156118
 20
37.25871992924021
 30
0.0
 40
0.5077630191424738
100
AcDbArc
 50
349.8491161300824
 51
356.6726186288336
  0
LWPOLYLINE
  5
293
330
1F
100
AcDbEntity
  8
0
  6
SLD-Solid
 62
     7
370
    25
100
AcDbPolyline
 90
       31
 70
   128
 43
0.0
 10
29.30256409187477
 20
37.5944289290428
 10
29.25364700042963
 20
37.61570693296466
 10
29.20459388592296
 20
37.62344523680458
 10
29.15754860484168
 20
37.61730563955225
 10
29.11456726171734
 20
37.59755647106866
 10
29.07752834749184
 20
37.56506086478357
 10
29.04805064044927
 20
37.52123903462285
 10
29.02742245783712
 20
37.468006204845
 10
29.01654535022053
 20
37.40768890555076
 10
29.01589469939652
 20
37.34292329215382
 10
29.02549894192826
 20
37.27653993273951
 10
29.04493832633083
 20
37.21144009865693
 10
29.07336325822533
 20
37.15046896503916
 10
29.10953143169003
 20
37.09629126299725
 10
29.15186212399036
 20
37.0512748180839
 10
29.19850528074759
 20
37.01738706495468
 10
29.24742237219274
 20
36.99610906103283
 10
29.2964754866994
 20
36.9883707571929
 10
29.34352076778068
 20
36.99451035444523
 10
29.38650211090502
 20
37.01425952292882
 10
29.42354102513052
 20
37.04675512921391
 10
29.4530187321731
 20
37.09057695937463
 10
29.47364691478525
 20
37.14380978915248
 10
29.48452402240183
 20
37.20412708844672
 10
29.48517467322585
 20
37.26889270184366
 10
29.47557043069411
 20
37.33527606125797
 10
29.45613104629154
 20
37.40037589534055
 10
29.42770611439703
 20
37.46134702895832
 10
29.39153794093233
 20
37.51552473100023
 10
29.349207248632
 20
37.56054117591358
 10
29.30256409187477
 20
37.5944289290428
  0
ARC
  5
294
330
1F
100
AcDbEntity
  8
0
  6
SLD-Solid
 62
     7
370
    25
100
AcDbCircle
 10
29.24693537809454
 20
37.41812255971173
 30
0.0
 40
0.2181136513250328
100
AcDbArc
 50
113.7919906441211
 51
171.003357798493
  0
ARC
  5
295
330
1F
100
AcDbEntity
  8
0
  6
SLD-Solid
 62
     7
370
    25
100
AcDbCircle
 10
29.30980662177056
 20
37.2080249571063
 30
0.0
 40
0.2151779232896831
100
AcDbArc
 50
222.8989379142965
 51
280.9646451664378
  0
ARC
  5
296
330
1F
100
AcDbEntity
  8
0
  6
SLD-Solid
 62
     7
370
    25
100
AcDbCircle
 10
29.21374108432606
 20
37.43659480639165
 30
0.0
 40
0.1793627818191839
100
AcDbArc
 50
57.70434453972125
 51
105.3764720370953
  0
ARC
  5
297
330
1F
100
AcDbEntity
  8
0
  6
SLD-Solid
 62
     7
370
    25
100
AcDbCircle
 10
29.27701785960043
 20
37.19751672236672
 30
0.0
 40
0.2042247598337238
100
AcDbArc
 50
291.5724840292916
 51
350.0544994162271
  0
LWPOLYLINE
  5
298
330
1F
100
AcDbEntity
  8
0
  6
SLD-Solid
 62
     7
370
    25
100
AcDbPolyline
 90
        3
 70
   128
 43
0.0
 10
29.35750184795188
 20
37.552923445662
 10
29.35627574428655
 20
37.55403086193038
 10
29.30957251196232
 20
37.58821058716369
  0
LWPOLYLINE
  5
299
330
1F
100
AcDbEntity
  8
0
  6
SLD-Solid
 62
     7
370
    25
100
AcDbPolyline
 90
       30
 70
   128
 43
0.0
 10
29.3009631870882
 20
37.58555136190298
 10
29.25190197411488
 20
37.60665527419464
 10
29.20277682828349
 20
37.61369657806122
 10
29.15588478681443
 20
37.60634602995975
 10
29.11341846945003
 20
37.58494733334991
 10
29.07736355399233
 20
37.55050106750224
 10
29.04940592821596
 20
37.5046179015235
 10
29.03085285962957
 20
37.44944328125938
 10
29.0225718691
 20
37.38755711063123
 10
29.02495016654075
 20
37.32185311819612
 10
29.03787654540678
 20
37.25540354961554
 10
29.06074658258895
 20
37.19131551286293
 10
29.09249090056684
 20
37.13258569330812
 10
29.13162517031309
 20
37.08196023203997
 10
29.17631951686898
 20
37.04180631936124
 10
29.22448408226374
 20
37.0140015076009
 10
29.2738667449506
 20
36.99984591885404
 10
29.3221584265072
 20
37.00000145271766
 10
29.3671010615763
 20
37.01446083660116
 10
29.40659318249223
 20
37.04254796578461
 10
29.43878818157329
 20
37.08294951732396
 10
29.46218065644463
 20
37.13377635957236
 10
29.47567680098012
 20
37.19265188587624
 10
29.4786455504612
 20
37.25682314206109
 10
29.47094808946162
 20
37.32328955150892
 10
29.45294434270264
 20
37.38894321878607
 10
29.42547614537296
 20
37.45071425137946
 10
29.38982787985103
 20
37.5057143044586
 10
29.34766641941244
 20
37.55137163666967
 10
29.3009631870882
 20
37.58555136190298
  0
LINE
  5
29A
330
1F
100
AcDbEntity
  8
0
  6
SLD-Solid
 62
     7
370
    25
100
AcDbLine
 10
29.2692992366056
 20
37.21514294028079
 30
0.0
 11
29.32933316610206
 21
37.54805170802394
 31
0.0
  0
LINE
  5
29B
330
1F
100
AcDbEntity
  8
0
  6
SLD-Solid
 62
     7
370
    25
100
AcDbLine
 10
29.32933316610206
 20
37.54805170802394
 30
0.0
 11
29.26569355579527
 21
37.58479007305596
 31
0.0
  0
LINE
  5
29C
330
1F
100
AcDbEntity
  8
0
  6
SLD-Solid
 62
     7
370
    25
100
AcDbLine
 10
29.26569355579527
 20
37.58479007305596
 30
0.0
 11
29.20565962629882
 21
37.25188130531282
 31
0.0
  0
LINE
  5
29D
330
1F
100
AcDbEntity
  8
0
  6
SLD-Solid
 62
     7
370
    25
100
AcDbLine
 10
29.20565962629882
 20
37.25188130531282
 30
0.0
 11
29.2692992366056
 21
37.21514294028079
 31
0.0
  0
LINE
  5
29E
330
1F
100
AcDbEntity
  8
0
  6
SLD-Solid
 62
     7
370
    25
100
AcDbLine
 10
29.727952254315
 20
37.22784101295594
 30
0.0
 11
29.74801123398358
 21
37.23541819599058
 31
0.0
  0
LINE
  5
29F
330
1F
100
AcDbEntity
  8
0
  6
SLD-Solid
 62
     7
370
    25
100
AcDbLine
 10
29.74091923532738
 20
37.17540067705274
 30
0.0
 11
29.72358020210301
 21
37.18541028787261
 31
0.0
  0
LINE
  5
2A0
330
1F
100
AcDbEntity
  8
0
  6
SLD-Solid
 62
     7
370
    25
100
AcDbLine
 10
29.2800689417245
 20
37.27486465581998
 30
0.0
 11
29.20565962629882
 21
37.25188130531282
 31
0.0
  0
LWPOLYLINE
  5
2A1
330
1F
100
AcDbEntity
  8
0
  6
SLD-Solid
 62
     7
370
    25
100
AcDbPolyline
 90
       17
 70
   128
 43
0.0
 10
32.95770650039655
 20
28.50173715814663
 10
32.9532455906102
 20
28.52505923335758
 10
32.94054199432789
 20
28.53968027722404
 10
32.92152971892521
 20
28.54337436835744
 10
32.8991032109855
 20
28.53557911486974
 10
32.8766767030458
 20
28.51748127344028
 10
32.85766442764312
 20
28.49183607636937
 10
32.84496083136081
 20
28.46254777243676
 10
32.84049992157446
 20
28.43407524041705
 10
32.84496083136081
 20
28.4107531652061
 10
32.85766442764312
 20
28.39613212133963
 10
32.8766767030458
 20
28.39243803020624
 10
32.89910321098551
 20
28.40023328369394
 10
32.92152971892521
 20
28.41833112512339
 10
32.94054199432789
 20
28.44397632219431
 10
32.9532455906102
 20
28.47326462612692
 10
32.95770650039655
 20
28.50173715814663
  0
LWPOLYLINE
  5
2A2
330
1F
100
AcDbEntity
  8
0
  6
SLD-Solid
 62
     7
370
    25
100
AcDbPolyline
 90
       24
 70
   128
 43
0.0
 10
33.01047252902239
 20
28.55669058144256
 10
33.00555600947592
 20
28.51254607114127
 10
32.99117108659969
 20
28.46599906458053
 10
32.9683846243168
 20
28.42050174029854
 10
32.93888659029363
 20
28.37942842670091
 10
32.90486471876916
 20
28.34582534355926
 10
32.86884225631465
 20
28.32218467782632
 10
32.83349082417855
 20
28.31025974953068
 10
32.80143227636036
 20
28.31093497605108
 10
32.77504424869365
 20
28.32416027892548
 10
32.75628382047326
 20
28.3489547979414
 10
32.74654236683706
 20
28.38347963705083
 10
32.74654236683707
 20
28.42517424687763
 10
32.75628382047326
 20
28.47094632895111
 10
32.77504424869365
 20
28.51740117733722
 10
32.80143227636036
 20
28.56109344844795
 10
32.83349082417855
 20
28.59878268641385
 10
32.86884225631466
 20
28.62767365287179
 10
32.90486471876917
 20
28.64562363700697
 10
32.93888659029363
 20
28.65130137061178
 10
32.9683846243168
 20
28.64428576215865
 10
32.9911710865997
 20
28.6250971272323
 10
33.00555600947592
 20
28.59515859910304
 10
33.01047252902239
 20
28.55669058144256
  0
LWPOLYLINE
  5
2A3
330
1F
100
AcDbEntity
  8
0
  6
SLD-Solid
 62
     7
370
    25
100
AcDbPolyline
 90
       14
 70
   128
 43
0.0
 10
32.95395471920487
 20
28.65274158405334
 10
32.95070695478714
 20
28.65449086355644
 10
32.92120892076397
 20
28.66150647200956
 10
32.8871870492395
 20
28.65582873840475
 10
32.85116458678499
 20
28.63787875426958
 10
32.81581315464889
 20
28.60898778781163
 10
32.78375460683069
 20
28.57129854984573
 10
32.75736657916398
 20
28.527606278735
 10
32.7386061509436
 20
28.48115143034889
 10
32.7288646973074
 20
28.43537934827541
 10
32.7288646973074
 20
28.39368473844861
 10
32.7386061509436
 20
28.35915989933919
 10
32.75736657916399
 20
28.33436538032326
 10
32.76646995683561
 20
28.32797326066058
  0
LWPOLYLINE
  5
2A4
330
1F
100
AcDbEntity
  8
0
  6
SLD-Solid
 62
     7
370
    25
100
AcDbPolyline
 90
       17
 70
   128
 43
0.0
 10
32.9415296178567
 20
28.49239844263652
 10
32.9383000999318
 20
28.50928268005603
 10
32.9291032109855
 20
28.51986772335641
 10
32.91533909398989
 20
28.52254209564882
 10
32.8991032109855
 20
28.51689864799498
 10
32.88286732798112
 20
28.50379654414223
 10
32.86910321098551
 20
28.48523046063127
 10
32.85990632203922
 20
28.46402691537468
 10
32.85667680411431
 20
28.44341395592716
 10
32.85990632203922
 20
28.42652971850764
 10
32.86910321098551
 20
28.41594467520727
 10
32.88286732798112
 20
28.41327030291487
 10
32.89910321098551
 20
28.4189137505687
 10
32.91533909398989
 20
28.43201585442144
 10
32.9291032109855
 20
28.45058193793241
 10
32.9383000999318
 20
28.471785483189
 10
32.9415296178567
 20
28.49239844263652
  0
LINE
  5
2A5
330
1F
100
AcDbEntity
  8
0
  6
SLD-Solid
 62
     7
370
    25
100
AcDbLine
 10
32.96793562651858
 20
28.40363803822784
 30
0.0
 11
32.96793562651858
 21
28.41976054659962
 31
0.0
  0
LINE
  5
2A6
330
1F
100
AcDbEntity
  8
0
  6
SLD-Solid
 62
     7
370
    25
100
AcDbLine
 10
32.72044825310329
 20
28.26076661865886
 30
0.0
 11
32.80580705986239
 21
28.31004320891917
 31
0.0
  0
LINE
  5
2A7
330
1F
100
AcDbEntity
  8
0
  6
SLD-Solid
 62
     7
370
    25
100
AcDbLine
 10
32.94997295523742
 20
28.39326840882099
 30
0.0
 11
32.96793562651858
 21
28.40363803822784
 31
0.0
  0
ARC
  5
2A8
330
1F
100
AcDbEntity
  8
0
  6
SLD-Solid
 62
     7
370
    25
100
AcDbCircle
 10
32.97351304214879
 20
38.10328251304441
 30
0.0
 40
0.153680480757223
100
AcDbArc
 50
2.605478485657426
 51
57.39452165997049
  0
LINE
  5
2A9
330
1F
100
AcDbEntity
  8
0
  6
SLD-Solid
 62
     7
370
    25
100
AcDbLine
 10
33.12703465228555
 20
38.11026859827048
 30
0.0
 11
33.12703465228555
 21
28.47508701801862
 31
0.0
  0
ELLIPSE
  5
2AA
330
1F
100
AcDbEntity
  8
0
  6
SLD-Solid
 62
     7
370
    25
100
AcDbEllipse
 10
33.0563239741669
 20
28.51590742360976
 30
0.0
 11
0.07071355117875557
 21
0.1224728280626231
 31
0.0
210
0.0
220
0.0
230
0.9999999999999999
 40
0.5773346305488829
 41
3.141633285620851
 42
4.712429612415733
  0
LINE
  5
2AB
330
1F
100
AcDbEntity
  8
0
  6
SLD-Solid
 62
     7
370
    25
100
AcDbLine
 10
28.95510464328493
 20
40.60032660933605
 30
0.0
 11
33.0563239741669
 21
38.23274308505019
 31
0.0
  0
LINE
  5
2AC
330
1F
100
AcDbEntity
  8
0
  6
SLD-Solid
 62
     7
370
    25
100
AcDbLine
 10
33.0563239741669
 20
38.23274308505019
 30
0.0
 11
35.03622296148923
 21
39.37571444160198
 31
0.0
  0
ARC
  5
2AD
330
1F
100
AcDbEntity
  8
0
  6
SLD-Solid
 62
     7
370
    25
100
AcDbCircle
 10
34.95341202947115
 20
39.24625386959622
 30
0.0
 40
0.153680480757191
100
AcDbArc
 50
2.605478485649969
 51
57.39452165997736
  0
LINE
  5
2AE
330
1F
100
AcDbEntity
  8
0
  6
SLD-Solid
 62
     7
370
    25
100
AcDbLine
 10
35.10693363960789
 20
39.25323995482227
 30
0.0
 11
33.12703465228555
 21
38.11026859827048
 31
0.0
  0
LINE
  5
2AF
330
1F
100
AcDbEntity
  8
0
  6
SLD-Solid
 62
     7
370
    25
100
AcDbLine
 10
32.98561329604824
 20
28.39343293683005
 30
0.0
 11
32.96793562651858
 21
28.40363803822784
 31
0.0
  0
LINE
  5
2B0
330
1F
100
AcDbEntity
  8
0
  6
SLD-Solid
 62
     7
370
    25
100
AcDbLine
 10
35.10693363960789
 20
29.61805837457041
 30
0.0
 11
35.10693363960789
 21
39.25323995482227
 31
0.0
  0
LINE
  5
2B1
330
1F
100
AcDbEntity
  8
0
  6
SLD-Solid
 62
     7
370
    25
100
AcDbLine
 10
33.12703465228555
 20
28.47508701801862
 30
0.0
 11
35.10693363960789
 21
29.61805837457041
 31
0.0
  0
LINE
  5
2B2
330
1F
100
AcDbEntity
  8
0
  6
SLD-Solid
 62
     7
370
    25
100
AcDbLine
 10
28.95510464328493
 20
40.60032660933605
 30
0.0
 11
30.93500363060727
 21
41.74329796588783
 31
0.0
  0
LINE
  5
2B3
330
1F
100
AcDbEntity
  8
0
  6
SLD-Solid
 62
     7
370
    25
100
AcDbLine
 10
35.03622296148923
 20
39.37571444160198
 30
0.0
 11
30.93500363060727
 21
41.74329796588783
 31
0.0
  0
LINE
  5
2B4
330
1F
100
AcDbEntity
  8
0
  6
SLD-Solid
 62
     8
370
    25
100
AcDbLine
 10
28.77903505476916
 20
30.33608267391526
 30
0.0
 11
28.77903505476916
 21
30.38473506833353
 31
0.0
  0
LINE
  5
2B5
330
1F
100
AcDbEntity
  8
0
  6
SLD-Solid
 62
     8
370
    25
100
AcDbLine
 10
28.4664938574847
 20
34.1084076553477
 30
0.0
 11
28.4664938574847
 21
33.65213129960715
 31
0.0
  0
LINE
  5
2B6
330
1F
100
AcDbEntity
  8
0
  6
SLD-Solid
 62
     8
370
    25
100
AcDbLine
 10
28.4664938574847
 20
30.56516126104635
 30
0.0
 11
28.4664938574847
 21
30.51650886662808
 31
0.0
  0
LINE
  5
2B7
330
1F
100
AcDbEntity
  8
0
  6
SLD-Solid
 62
     8
370
    25
100
AcDbLine
 10
32.603068527426
 20
33.19893547326267
 30
0.0
 11
32.603068527426
 21
28.19301138038061
 31
0.0
  0
LINE
  5
2B8
330
1F
100
AcDbEntity
  8
0
  6
SLD-Solid
 62
     8
370
    25
100
AcDbLine
 10
32.49134565599853
 20
28.19301138038061
 30
0.0
 11
32.49134565599853
 21
33.16442681128945
 31
0.0
  0
LINE
  5
2B9
330
1F
100
AcDbEntity
  8
0
  6
SLD-Solid
 62
     8
370
    25
100
AcDbLine
 10
32.17880445871408
 20
33.0678899214656
 30
0.0
 11
32.17880445871408
 21
28.37343757309343
 31
0.0
  0
LWPOLYLINE
  5
2BA
330
1F
100
AcDbEntity
  8
0
  6
SLD-Solid
 62
     8
370
    25
100
AcDbPolyline
 90
       15
 70
   128
 43
0.0
 10
29.35701270120337
 20
37.71603541933334
 10
29.4126714332822
 20
37.67681600040474
 10
29.46422580004773
 20
37.62601717181415
 10
29.51001880173305
 20
37.56527164970987
 10
29.5485786135854
 20
37.49653184515392
 10
29.57866589152471
 20
37.42200711202403
 10
29.59931360568212
 20
37.34409273656213
 10
29.60985812153563
 20
37.26529295090375
 10
29.60996052966963
 20
37.18814044499663
 10
29.59961753860244
 20
37.11511496386189
 10
29.57916158057721
 20
37.0485636065488
 10
29.54925012691607
 20
36.99062538844003
 10
29.51084455635093
 20
36.94316249153731
 10
29.46517925551996
 20
36.90770041239971
 10
29.42437327039361
 20
36.88874214709432
  0
ARC
  5
2BB
330
1F
100
AcDbEntity
  8
0
  6
SLD-Solid
 62
     8
370
    25
100
AcDbCircle
 10
29.22056334693366
 20
37.50183310807594
 30
0.0
 40
0.2539705818173321
100
AcDbArc
 50
57.50239130829939
 51
106.2486117214494
  0
ARC
  5
2BC
330
1F
100
AcDbEntity
  8
0
  6
SLD-Solid
 62
     8
370
    25
100
AcDbCircle
 10
33.13980319909581
 20
38.10268664139331
 30
0.0
 40
0.1545427433799695
100
AcDbArc
 50
122.6951555060297
 51
162.7068348754061
  0
ARC
  5
2BD
330
1F
100
AcDbEntity
  8
0
  6
SLD-Solid
 62
     8
370
    25
100
AcDbCircle
 10
33.05635177717152
 20
38.24712993573488
 30
0.0
 40
0.154036016979565
100
AcDbArc
 50
259.4237348252346
 51
297.314368737438
  0
LINE
  5
2BE
330
1F
100
AcDbEntity
  8
0
  6
SLD-Solid
 62
     8
370
    25
100
AcDbLine
 10
32.98561329604824
 20
28.39343293683005
 30
0.0
 11
32.98561329604824
 21
28.45308745954241
 31
0.0
  0
ARC
  5
2BF
330
1F
100
AcDbEntity
  8
0
  6
SLD-Solid
 62
     8
370
    25
100
AcDbCircle
 10
29.03858386821386
 20
40.47027016567915
 30
0.0
 40
0.1545427433799975
100
AcDbArc
 50
122.6951555060343
 51
162.7068348754039
  0
ARC
  5
2C0
330
1F
100
AcDbEntity
  8
0
  6
SLD-Solid
 62
     8
370
    25
100
AcDbCircle
 10
35.08617725524019
 20
39.2990509981033
 30
0.0
 40
0.0502939278493612
100
AcDbArc
 50
294.3746582935779
 51
354.3052007488206
  0
ARC
  5
2C1
330
1F
100
AcDbEntity
  8
0
  6
SLD-Solid
 62
     8
370
    25
100
AcDbCircle
 10
35.06551496697429
 20
39.3348263086901
 30
0.0
 40
0.0502977235901978
100
AcDbArc
 50
65.69288095391195
 51
125.6175774751936
  0
ARC
  5
2C2
330
1F
100
AcDbEntity
  8
0
  6
SLD-Solid
 62
     8
370
    25
100
AcDbCircle
 10
35.08617725524016
 20
29.66386941785149
 30
0.0
 40
0.0502939278494068
100
AcDbArc
 50
294.3746582935963
 51
354.3052007487892
  0
ARC
  5
2C3
330
1F
100
AcDbEntity
  8
0
  6
SLD-Solid
 62
     8
370
    25
100
AcDbCircle
 10
30.96429563609231
 20
41.70240983297599
 30
0.0
 40
0.0502977235901708
100
AcDbArc
 50
65.69288095389493
 51
125.6175774751993
  0
ARC
  5
2C4
330
1F
100
AcDbEntity
  8
0
  6
SLD-Solid
 62
     8
370
    25
100
AcDbCircle
 10
28.92581263779988
 20
40.55943847642419
 30
0.0
 40
0.050297723590178
100
AcDbArc
 50
54.3824225248101
 51
114.3071190461017
  0
ARC
  5
2C5
330
1F
100
AcDbEntity
  8
0
  6
SLD-Solid
 62
     8
370
    25
100
AcDbCircle
 10
30.90571162512221
 20
41.70240983297597
 30
0.0
 40
0.0502977235901822
100
AcDbArc
 50
54.38242252480352
 51
114.3071190460947
  0
ARC
  5
2C6
330
1F
100
AcDbEntity
  8
0
  6
SLD-Solid
 62
     8
370
    25
100
AcDbCircle
 10
35.0593650840114
 20
29.61200197171324
 30
0.0
 40
0.0479525546462772
100
AcDbArc
 50
304.0563508350777
 51
7.255829558308418
  0
MTEXT
  5
2C7
330
1F
100
AcDbEntity
  8
NOTES
100
AcDbMText
 10
27.55745732327663
 20
28.65664969118021
 30
0.0
 40
0.3750000000000001
 41
0.0
 71
     1
 72
     1
  1
3D view 165
  7
SLDTEXTSTYLE1
 73
     1
 44
1.0
  0
SPLINE
  5
2C8
330
1F
100
AcDbEntity
  8
0
  6
SLD-Solid
 62
     7
370
    25
100
AcDbSpline
210
0.0
220
0.0
230
1.0
 70
    12
 71
     3
 72
    31
 73
    27
 74
     0
 42
0.00000001
 43
0.00000001
 40
0.0
 40
0.0
 40
0.0
 40
0.0
 40
0.004112471593894
 40
0.0349626141794466
 40
0.0648252679695298
 40
0.0973200012182589
 40
0.1369665279090682
 40
0.1870955483282914
 40
0.239399739697632
 40
0.2891095132981945
 40
0.3374153366816171
 40
0.3850159577943623
 40
0.4322429230615905
 40
0.4792750985541597
 40
0.526225812770253
 40
0.5731814270937134
 40
0.6201999486378316
 40
0.6673780902260844
 40
0.7148513368118926
 40
0.762842216923157
 40
0.8117670879868024
 40
0.8624997149539032
 40
0.9088725518800228
 40
0.9429011387902086
 40
0.9734068190539046
 40
1.0
 40
1.0
 40
1.0
 40
1.0
 10
5.347254968459907
 20
31.69262737320644
 30
0.0
 41
1.0
 10
5.347070084786244
 20
31.69150674723684
 30
0.0
 41
1.0
 10
5.345498276591875
 20
31.68197962649691
 30
0.0
 41
1.0
 10
5.351237939382422
 20
31.66379818631125
 30
0.0
 41
1.0
 10
5.363184482725813
 20
31.64324407515017
 30
0.0
 41
1.0
 10
5.380852876113731
 20
31.62625631007499
 30
0.0
 41
1.0
 10
5.404999447728534
 20
31.61070399555231
 30
0.0
 41
1.0
 10
5.438457847797403
 20
31.59607272573434
 30
0.0
 41
1.0
 10
5.481672172719041
 20
31.58288251935155
 30
0.0
 41
1.0
 10
5.531556052703431
 20
31.57194657477943
 30
0.0
 41
1.0
 10
5.585837254918959
 20
31.56333846249632
 30
0.0
 41
1.0
 10
5.643901628543513
 20
31.55690132474813
 30
0.0
 41
1.0
 10
5.704854713704054
 20
31.55261749799163
 30
0.0
 41
1.0
 10
5.767575039414264
 20
31.55051034338257
 30
0.0
 41
1.0
 10
5.830823831601268
 20
31.55059653367481
 30
0.0
 41
1.0
 10
5.893307666724477
 20
31.55286823314425
 30
0.0
 41
1.0
 10
5.953748430929235
 20
31.55728815605628
 30
0.0
 41
1.0
 10
6.01094094082513
 20
31.56379618228539
 30
0.0
 41
1.0
 10
6.063826592685571
 20
31.57233207175565
 30
0.0
 41
1.0
 10
6.111561970854673
 20
31.58288593000639
 30
0.0
 41
1.0
 10
6.153688369004073
 20
31.59563579716573
 30
0.0
 41
1.0
 10
6.188375479940239
 20
31.61053385668998
 30
0.0
 41
1.0
 10
6.214316941529686
 20
31.62719334434332
 30
0.0
 41
1.0
 10
6.23265335158235
 20
31.6464476028609
 30
0.0
 41
1.0
 10
6.24460119227425
 20
31.66778378449691
 30
0.0
 41
1.0
 10
6.245814818130235
 20
31.68378863780399
 30
0.0
 41
1.0
 10
6.246380051329378
 20
31.69124272622174
 30
0.0
 41
1.0
  0
LINE
  5
2C9
330
1F
100
AcDbEntity
  8
0
  6
SLD-Solid
 62
     7
370
    25
100
AcDbLine
 10
5.346738146528975
 20
31.88601033799663
 30
0.0
 11
5.346738146528975
 21
31.6912035539991
 31
0.0
  0
LINE
  5
2CA
330
1F
100
AcDbEntity
  8
0
  6
SLD-Solid
 62
     7
370
    25
100
AcDbLine
 10
6.246738146528974
 20
31.6912035539991
 30
0.0
 11
6.246738146528974
 21
31.85776335431699
 31
0.0
  0
LINE
  5
2CB
330
1F
100
AcDbEntity
  8
0
  6
SLD-Solid
 62
     7
370
    25
100
AcDbLine
 10
6.111738146528975
 20
31.64250185799971
 30
0.0
 11
6.111738146528975
 21
31.65467728199956
 31
0.0
  0
LINE
  5
2CC
330
1F
100
AcDbEntity
  8
0
  6
SLD-Solid
 62
     7
370
    25
100
AcDbLine
 10
5.481738146528976
 20
31.65467728199955
 30
0.0
 11
5.481738146528976
 21
31.64250185799971
 31
0.0
  0
LINE
  5
2CD
330
1F
100
AcDbEntity
  8
0
  6
SLD-Solid
 62
     7
370
    25
100
AcDbLine
 10
8.830894410954603
 20
33.55070068441611
 30
0.0
 11
8.860894410954602
 21
33.65532311773134
 31
0.0
  0
LINE
  5
2CE
330
1F
100
AcDbEntity
  8
0
  6
SLD-Solid
 62
     7
370
    25
100
AcDbLine
 10
8.860894410954602
 20
33.82107825110088
 30
0.0
 11
8.830894410954603
 21
33.92570068441611
 31
0.0
  0
LINE
  5
2CF
330
1F
100
AcDbEntity
  8
0
  6
SLD-Solid
 62
     7
370
    25
100
AcDbLine
 10
8.813238146532395
 20
33.55070068441611
 30
0.0
 11
8.830894410954603
 21
33.55070068441611
 31
0.0
  0
LINE
  5
2D0
330
1F
100
AcDbEntity
  8
0
  6
SLD-Solid
 62
     7
370
    25
100
AcDbLine
 10
8.830894410954603
 20
33.92570068441611
 30
0.0
 11
8.813238146532393
 21
33.92570068441611
 31
0.0
  0
LINE
  5
2D1
330
1F
100
AcDbEntity
  8
0
  6
SLD-Solid
 62
     7
370
    25
100
AcDbLine
 10
2.813238146532384
 20
33.83851532330326
 30
0.0
 11
2.808238146537204
 21
33.82107825110086
 31
0.0
  0
LINE
  5
2D2
330
1F
100
AcDbEntity
  8
0
  6
SLD-Solid
 62
     7
370
    25
100
AcDbLine
 10
2.808238146537204
 20
33.65532311773132
 30
0.0
 11
2.813238146532385
 21
33.63788604552892
 31
0.0
  0
LINE
  5
2D3
330
1F
100
AcDbEntity
  8
0
  6
SLD-Solid
 62
     7
370
    25
100
AcDbLine
 10
2.892238146532398
 20
32.25583963138821
 30
0.0
 11
2.815962986885781
 21
32.25583963138821
 31
0.0
  0
LINE
  5
2D4
330
1F
100
AcDbEntity
  8
0
  6
SLD-Solid
 62
     7
370
    25
100
AcDbLine
 10
2.815962986885781
 20
32.25583963138821
 30
0.0
 11
2.815962986885772
 21
33.96924392482399
 31
0.0
  0
LINE
  5
2D5
330
1F
100
AcDbEntity
  8
0
  6
SLD-Solid
 62
     7
370
    25
100
AcDbLine
 10
8.810513306179004
 20
33.96924392482401
 30
0.0
 11
2.815962986885772
 21
33.96924392482399
 31
0.0
  0
LINE
  5
2D6
330
1F
100
AcDbEntity
  8
0
  6
SLD-Solid
 62
     7
370
    25
100
AcDbLine
 10
8.810513306179013
 20
32.25583963138823
 30
0.0
 11
8.810513306179004
 21
33.96924392482401
 31
0.0
  0
LINE
  5
2D7
330
1F
100
AcDbEntity
  8
0
  6
SLD-Solid
 62
     7
370
    25
100
AcDbLine
 10
8.734238146532396
 20
32.25583963138822
 30
0.0
 11
8.810513306179013
 21
32.25583963138823
 31
0.0
  0
LINE
  5
2D8
330
1F
100
AcDbEntity
  8
0
  6
SLD-Solid
 62
     7
370
    25
100
AcDbLine
 10
8.734238146532396
 20
32.25583963138822
 30
0.0
 11
2.892238146532398
 21
32.25583963138821
 31
0.0
  0
LINE
  5
2D9
330
1F
100
AcDbEntity
  8
0
  6
SLD-Solid
 62
     7
370
    25
100
AcDbLine
 10
8.810513306179013
 20
32.26416064603744
 30
0.0
 11
8.813238146532397
 21
32.26416064603744
 31
0.0
  0
LINE
  5
2DA
330
1F
100
AcDbEntity
  8
0
  6
SLD-Solid
 62
     7
370
    25
100
AcDbLine
 10
8.810513306179004
 20
33.96779692340242
 30
0.0
 11
8.813238146532393
 21
33.96779692340242
 31
0.0
  0
LINE
  5
2DB
330
1F
100
AcDbEntity
  8
0
  6
SLD-Solid
 62
     7
370
    25
100
AcDbLine
 10
8.813238146532393
 20
33.96779692340242
 30
0.0
 11
8.813238146532397
 21
32.26416064603744
 31
0.0
  0
LINE
  5
2DC
330
1F
100
AcDbEntity
  8
0
  6
SLD-Solid
 62
     7
370
    25
100
AcDbLine
 10
2.815962986885772
 20
33.9677969234024
 30
0.0
 11
2.813238146532382
 21
33.9677969234024
 31
0.0
  0
LINE
  5
2DD
330
1F
100
AcDbEntity
  8
0
  6
SLD-Solid
 62
     7
370
    25
100
AcDbLine
 10
2.815962986885781
 20
32.26416064603742
 30
0.0
 11
2.813238146532398
 21
32.26416064603742
 31
0.0
  0
LINE
  5
2DE
330
1F
100
AcDbEntity
  8
0
  6
SLD-Solid
 62
     7
370
    25
100
AcDbLine
 10
2.813238146532382
 20
33.9677969234024
 30
0.0
 11
2.813238146532398
 21
32.26416064603742
 31
0.0
  0
LINE
  5
2DF
330
1F
100
AcDbEntity
  8
0
  6
SLD-Solid
 62
     7
370
    25
100
AcDbLine
 10
8.810513306179004
 20
33.97135048780493
 30
0.0
 11
2.815962986885772
 21
33.97135048780492
 31
0.0
  0
LINE
  5
2E0
330
1F
100
AcDbEntity
  8
0
  6
SLD-Solid
 62
     7
370
    25
100
AcDbLine
 10
2.815962986885772
 20
33.97135048780492
 30
0.0
 11
2.815962986885772
 21
33.96924392482399
 31
0.0
  0
LINE
  5
2E1
330
1F
100
AcDbEntity
  8
0
  6
SLD-Solid
 62
     7
370
    25
100
AcDbLine
 10
8.810513306179004
 20
33.97135048780493
 30
0.0
 11
8.810513306179004
 21
33.96924392482401
 31
0.0
  0
LINE
  5
2E2
330
1F
100
AcDbEntity
  8
0
  6
SLD-Solid
 62
     7
370
    25
100
AcDbLine
 10
8.763238146532395
 20
33.98820068441567
 30
0.0
 11
8.813238146532393
 21
33.98820068441567
 31
0.0
  0
LINE
  5
2E3
330
1F
100
AcDbEntity
  8
0
  6
SLD-Solid
 62
     7
370
    25
100
AcDbLine
 10
8.763238146532395
 20
33.98820068441567
 30
0.0
 11
8.763238146532395
 21
33.97135048780493
 31
0.0
  0
LINE
  5
2E4
330
1F
100
AcDbEntity
  8
0
  6
SLD-Solid
 62
     7
370
    25
100
AcDbLine
 10
8.813238146532393
 20
33.98820068441567
 30
0.0
 11
8.813238146532393
 21
33.96779692340242
 31
0.0
  0
LINE
  5
2E5
330
1F
100
AcDbEntity
  8
0
  6
SLD-Solid
 62
     7
370
    25
100
AcDbLine
 10
2.863238146532382
 20
33.98820068441565
 30
0.0
 11
2.813238146532382
 21
33.98820068441565
 31
0.0
  0
LINE
  5
2E6
330
1F
100
AcDbEntity
  8
0
  6
SLD-Solid
 62
     7
370
    25
100
AcDbLine
 10
2.813238146532382
 20
33.98820068441565
 30
0.0
 11
2.813238146532382
 21
33.9677969234024
 31
0.0
  0
LINE
  5
2E7
330
1F
100
AcDbEntity
  8
0
  6
SLD-Solid
 62
     7
370
    25
100
AcDbLine
 10
2.863238146532382
 20
33.98820068441565
 30
0.0
 11
2.863238146532382
 21
33.97135048780492
 31
0.0
  0
LINE
  5
2E8
330
1F
100
AcDbEntity
  8
0
  6
SLD-Solid
 62
     7
370
    25
100
AcDbLine
 10
2.892238146532398
 20
32.25583963138821
 30
0.0
 11
2.892238146532398
 21
32.19027065925117
 31
0.0
  0
LINE
  5
2E9
330
1F
100
AcDbEntity
  8
0
  6
SLD-Solid
 62
     7
370
    25
100
AcDbLine
 10
8.734238146532396
 20
32.25583963138822
 30
0.0
 11
8.734238146532396
 21
32.19027065925119
 31
0.0
  0
LINE
  5
2EA
330
1F
100
AcDbEntity
  8
0
  6
SLD-Solid
 62
     7
370
    25
100
AcDbLine
 10
8.734238146532396
 20
32.18221932121906
 30
0.0
 11
2.892238146532398
 21
32.18221932121904
 31
0.0
  0
ARC
  5
2EB
330
1F
100
AcDbEntity
  8
0
  6
SLD-Solid
 62
     7
370
    25
100
AcDbCircle
 10
8.735250490505981
 20
32.26519997737162
 30
0.0
 40
0.0779945812356064
100
AcDbArc
 50
269.256298771621
 51
359.236471809172
  0
ARC
  5
2EC
330
1F
100
AcDbEntity
  8
0
  6
SLD-Solid
 62
     7
370
    25
100
AcDbCircle
 10
8.735250490505988
 20
31.08564490026651
 30
0.0
 40
0.0779945812356029
100
AcDbArc
 50
269.2562987716196
 51
359.236471809172
  0
LINE
  5
2ED
330
1F
100
AcDbEntity
  8
0
  6
SLD-Solid
 62
     7
370
    25
100
AcDbLine
 10
8.734238146532402
 20
31.0076568892533
 30
0.0
 11
8.734238146532396
 21
32.18221932121906
 31
0.0
  0
LINE
  5
2EE
330
1F
100
AcDbEntity
  8
0
  6
SLD-Solid
 62
     7
370
    25
100
AcDbLine
 10
8.734238146532396
 20
32.1872119663584
 30
0.0
 11
8.734238146532396
 21
32.18221932121906
 31
0.0
  0
LINE
  5
2EF
330
1F
100
AcDbEntity
  8
0
  6
SLD-Solid
 62
     7
370
    25
100
AcDbLine
 10
8.813238146532397
 20
32.26416064603744
 30
0.0
 11
8.813238146532402
 21
31.08460556893233
 31
0.0
  0
ARC
  5
2F0
330
1F
100
AcDbEntity
  8
0
  6
SLD-Solid
 62
     7
370
    25
100
AcDbCircle
 10
8.734530864753959
 20
32.26474136570325
 30
0.0
 40
0.0288291894463052
100
AcDbArc
 50
269.4182352264418
 51
342.0145753830383
  0
LINE
  5
2F1
330
1F
100
AcDbEntity
  8
0
  6
SLD-Solid
 62
     7
370
    25
100
AcDbLine
 10
8.734238146532396
 20
32.19027065925119
 30
0.0
 11
8.734238146532396
 21
32.1872119663584
 31
0.0
  0
ARC
  5
2F2
330
1F
100
AcDbEntity
  8
0
  6
SLD-Solid
 62
     7
370
    25
100
AcDbCircle
 10
2.891945428310827
 20
32.26474136570321
 30
0.0
 40
0.0288291894462895
100
AcDbArc
 50
197.9854246169151
 51
270.5817647735778
  0
ARC
  5
2F3
330
1F
100
AcDbEntity
  8
0
  6
SLD-Solid
 62
     7
370
    25
100
AcDbCircle
 10
2.89122580255881
 20
32.26519997737159
 30
0.0
 40
0.0779945812355993
100
AcDbArc
 50
180.7635281908244
 51
270.7437012283823
  0
LINE
  5
2F4
330
1F
100
AcDbEntity
  8
0
  6
SLD-Solid
 62
     7
370
    25
100
AcDbLine
 10
2.892238146532398
 20
32.19027065925117
 30
0.0
 11
2.892238146532398
 21
32.18721196635838
 31
0.0
  0
ARC
  5
2F5
330
1F
100
AcDbEntity
  8
0
  6
SLD-Solid
 62
     7
370
    25
100
AcDbCircle
 10
2.891225802558822
 20
31.08564490026649
 30
0.0
 40
0.0779945812356063
100
AcDbArc
 50
180.7635281908321
 51
270.7437012283773
  0
LINE
  5
2F6
330
1F
100
AcDbEntity
  8
0
  6
SLD-Solid
 62
     7
370
    25
100
AcDbLine
 10
2.892238146532403
 20
31.00765688925328
 30
0.0
 11
2.892238146532398
 21
32.18221932121904
 31
0.0
  0
LINE
  5
2F7
330
1F
100
AcDbEntity
  8
0
  6
SLD-Solid
 62
     7
370
    25
100
AcDbLine
 10
2.892238146532398
 20
32.18721196635838
 30
0.0
 11
2.892238146532398
 21
32.18221932121904
 31
0.0
  0
LINE
  5
2F8
330
1F
100
AcDbEntity
  8
0
  6
SLD-Solid
 62
     7
370
    25
100
AcDbLine
 10
2.813238146532398
 20
32.26416064603742
 30
0.0
 11
2.813238146532403
 21
31.08460556893231
 31
0.0
  0
LINE
  5
2F9
330
1F
100
AcDbEntity
  8
0
  6
SLD-Solid
 62
     7
370
    25
100
AcDbLine
 10
2.892238146532403
 20
31.00765688925328
 30
0.0
 11
8.734238146532402
 21
31.0076568892533
 31
0.0
  0
LINE
  5
2FA
330
1F
100
AcDbEntity
  8
0
  6
SLD-Solid
 62
     7
370
    25
100
AcDbLine
 10
2.888238146532376
 20
33.98820068441565
 30
0.0
 11
2.938238146532377
 21
33.98820068441565
 31
0.0
  0
LINE
  5
2FB
330
1F
100
AcDbEntity
  8
0
  6
SLD-Solid
 62
     7
370
    25
100
AcDbLine
 10
2.888238146532376
 20
33.97135048780491
 30
0.0
 11
2.888238146532376
 21
33.98820068441565
 31
0.0
  0
LINE
  5
2FC
330
1F
100
AcDbEntity
  8
0
  6
SLD-Solid
 62
     7
370
    25
100
AcDbLine
 10
8.68823814653238
 20
33.98820068441566
 30
0.0
 11
8.738238146532378
 21
33.98820068441566
 31
0.0
  0
LINE
  5
2FD
330
1F
100
AcDbEntity
  8
0
  6
SLD-Solid
 62
     7
370
    25
100
AcDbLine
 10
8.738238146532378
 20
33.98820068441566
 30
0.0
 11
8.738238146532378
 21
33.97135048780493
 31
0.0
  0
LINE
  5
2FE
330
1F
100
AcDbEntity
  8
0
  6
SLD-Solid
 62
     7
370
    25
100
AcDbLine
 10
3.563238146532377
 20
33.97135048780491
 30
0.0
 11
3.563238146532377
 21
34.0082006844161
 31
0.0
  0
LINE
  5
2FF
330
1F
100
AcDbEntity
  8
0
  6
SLD-Solid
 62
     7
370
    25
100
AcDbLine
 10
8.063238146532377
 20
33.97135048780493
 30
0.0
 11
8.063238146532377
 21
34.0082006844161
 31
0.0
  0
LWPOLYLINE
  5
300
330
1F
100
AcDbEntity
  8
0
  6
SLD-Solid
 62
     7
370
    25
100
AcDbPolyline
 90
       39
 70
   128
 43
0.0
 10
5.796738146528975
 20
31.73306270844924
 10
5.730900310416681
 20
31.73182757648636
 10
5.666858358847101
 20
31.72815587177795
 10
5.606359189314145
 20
31.72214774885701
 10
5.551053061453107
 20
31.71396709365482
 10
5.502448582259721
 20
31.70383705311993
 10
5.461871555223962
 20
31.69203394835108
 10
5.430428815866951
 20
31.67887973727797
 10
5.408978040153242
 20
31.6647332324882
 10
5.398104349326307
 20
31.64998031375525
 10
5.398104349326307
 20
31.63502340224417
 10
5.408978040153243
 20
31.62027048351122
 10
5.430428815866952
 20
31.60612397872145
 10
5.461871555223964
 20
31.59296976764833
 10
5.502448582259724
 20
31.58116666287949
 10
5.55105306145311
 20
31.5710366223446
 10
5.606359189314149
 20
31.56285596714241
 10
5.666858358847104
 20
31.55684784422147
 10
5.730900310416684
 20
31.55317613951306
 10
5.796738146528978
 20
31.55194100755018
 10
5.862575982641273
 20
31.55317613951306
 10
5.926617934210852
 20
31.55684784422147
 10
5.987117103743809
 20
31.56285596714241
 10
6.042423231604847
 20
31.5710366223446
 10
6.09102771079823
 20
31.58116666287949
 10
6.13160473783399
 20
31.59296976764834
 10
6.163047477191
 20
31.60612397872145
 10
6.184498252904709
 20
31.62027048351122
 10
6.195371943731644
 20
31.63502340224417
 10
6.195371943731644
 20
31.64998031375525
 10
6.184498252904707
 20
31.6647332324882
 10
6.163047477190998
 20
31.67887973727797
 10
6.131604737833984
 20
31.69203394835109
 10
6.091027710798225
 20
31.70383705311993
 10
6.042423231604839
 20
31.71396709365482
 10
5.9871171037438
 20
31.72214774885701
 10
5.926617934210843
 20
31.72815587177795
 10
5.862575982641263
 20
31.73182757648636
 10
5.796738146528975
 20
31.73306270844924
  0
LINE
  5
301
330
1F
100
AcDbEntity
  8
0
  6
SLD-Solid
 62
     7
370
    25
100
AcDbLine
 10
6.246738146528974
 20
31.88601033799663
 30
0.0
 11
6.246738146528974
 21
31.85776335431699
 31
0.0
  0
LWPOLYLINE
  5
302
330
1F
100
AcDbEntity
  8
0
  6
SLD-Solid
 62
     7
370
    25
100
AcDbPolyline
 90
       21
 70
   128
 43
0.0
 10
6.241959154367943
 20
31.9008189308416
 10
6.226732340724062
 20
31.91605023427537
 10
6.201402593403586
 20
31.93057573497076
 10
6.166565047784336
 20
31.94405414885433
 10
6.123038229831545
 20
31.95616879369322
 10
6.071844824411348
 20
31.96663502970631
 10
6.014187646786418
 20
31.97520694732154
 10
5.951421381855736
 20
31.98168314494716
 10
5.885020755139513
 20
31.98591146100526
 10
5.816545883348287
 20
31.98779254904586
 10
5.747605618642293
 20
31.98728221194267
 10
5.679819747826506
 20
31.98439244032711
 10
5.614780934630591
 20
31.97919113086238
 10
5.554017299259412
 20
31.97180049097653
 10
5.498956514426672
 20
31.96239416753644
 10
5.450892261453784
 20
31.95119316692575
 10
5.410953834565081
 20
31.93846066238686
 10
5.380079607542001
 20
31.92449581063075
 10
5.358994986150811
 20
31.90962672299707
 10
5.348195364362841
 20
31.89420275631024
 10
5.346738146528975
 20
31.88601033799663
  0
LINE
  5
303
330
1F
100
AcDbEntity
  8
0
  6
SLD-Solid
 62
     7
370
    25
100
AcDbLine
 10
6.241959154367943
 20
31.87257194716196
 30
0.0
 11
6.241959154367943
 21
31.9008189308416
 31
0.0
  0
ARC
  5
304
330
1F
100
AcDbEntity
  8
0
  6
SLD-Solid
 62
     7
370
    25
100
AcDbCircle
 10
6.219616714316729
 20
31.85718622197457
 30
0.0
 40
0.0271275720805247
100
AcDbArc
 50
1.21904541648703
 51
34.55255223625022
  0
LWPOLYLINE
  5
305
330
1F
100
AcDbEntity
  8
0
  6
SLD-Solid
 62
     7
370
    25
100
AcDbPolyline
 90
       36
 70
   128
 43
0.0
 10
5.796738146528975
 20
31.71608254898995
 10
5.738707155719418
 20
31.71490007701454
 10
5.682541328702539
 20
31.71139066671054
 10
5.630045881372055
 20
31.70566711341267
 10
5.582908060598568
 20
31.69791337683329
 10
5.542642914726865
 20
31.68837866844584
 10
5.510544598675534
 20
31.67736944162309
 10
5.487644778733049
 20
31.66523954197354
 10
5.474679473954397
 20
31.65237883445245
 10
5.472065399903048
 20
31.63920067278136
 10
5.479886575069883
 20
31.62612861391941
 10
5.497891620449755
 20
31.61358280459415
 10
5.525501839069553
 20
31.60196647744003
 10
5.561829815785075
 20
31.59165299076971
 10
5.605707939533922
 20
31.58297382853075
 10
5.655725931315771
 20
31.57620794613875
 10
5.710276171719809
 20
31.57157280462078
 10
5.767605371135362
 20
31.56921738123902
 10
5.825870921922593
 20
31.56921738123902
 10
5.883200121338148
 20
31.57157280462078
 10
5.937750361742184
 20
31.57620794613875
 10
5.98776835352403
 20
31.58297382853075
 10
6.031646477272879
 20
31.59165299076971
 10
6.0679744539884
 20
31.60196647744003
 10
6.095584672608198
 20
31.61358280459415
 10
6.113589717988068
 20
31.62612861391941
 10
6.121410893154903
 20
31.63920067278136
 10
6.118796819103553
 20
31.65237883445245
 10
6.105831514324898
 20
31.66523954197355
 10
6.082931694382412
 20
31.67736944162309
 10
6.050833378331082
 20
31.68837866844584
 10
6.010568232459378
 20
31.69791337683329
 10
5.96343041168589
 20
31.70566711341267
 10
5.910934964355407
 20
31.71139066671054
 10
5.854769137338527
 20
31.71490007701454
 10
5.796738146528975
 20
31.71608254898995
  0
LWPOLYLINE
  5
306
330
1F
100
AcDbEntity
  8
0
  6
SLD-Solid
 62
     7
370
    25
100
AcDbPolyline
 90
        3
 70
   128
 43
0.0
 10
5.472852387059348
 20
31.64858956999961
 10
5.479886575069883
 20
31.63830403791926
 10
5.48343117965362
 20
31.63511773090269
  0
LWPOLYLINE
  5
307
330
1F
100
AcDbEntity
  8
0
  6
SLD-Solid
 62
     7
370
    25
100
AcDbPolyline
 90
        3
 70
   128
 43
0.0
 10
6.110045113441768
 20
31.63511773093343
 10
6.113589717988068
 20
31.63830403791926
 10
6.120623905998602
 20
31.64858956999961
  0
LWPOLYLINE
  5
308
330
1F
100
AcDbEntity
  8
0
  6
SLD-Solid
 62
     7
370
    25
100
AcDbPolyline
 90
        3
 70
   128
 43
0.0
 10
5.483431179613039
 20
31.6620614090598
 10
5.483081880996039
 20
31.66125755411784
 10
5.481738146528976
 20
31.65467728199955
  0
LWPOLYLINE
  5
309
330
1F
100
AcDbEntity
  8
0
  6
SLD-Solid
 62
     7
370
    25
100
AcDbPolyline
 90
        3
 70
   128
 43
0.0
 10
6.111738146528975
 20
31.65467728199956
 10
6.11039441206191
 20
31.66125755411784
 10
6.110045113442395
 20
31.66206140906527
  0
LWPOLYLINE
  5
30A
330
1F
100
AcDbEntity
  8
0
  6
SLD-Solid
 62
     7
370
    25
100
AcDbPolyline
 90
       35
 70
   128
 43
0.0
 10
5.796738146528975
 20
31.71381852772872
 10
5.738857048416755
 20
31.71260422590236
 10
5.682947021680022
 20
31.70900267201561
 10
5.630912015222608
 20
31.70313651266648
 10
5.58452401878031
 20
31.69520551287592
 10
5.545362719935699
 20
31.68547975332962
 10
5.51476170975213
 20
31.67429043310417
 10
5.493763068929537
 20
31.66201859107973
 10
5.483081880996039
 20
31.64908213011799
 10
5.48308188099604
 20
31.63592158588143
 10
5.493763068929538
 20
31.62298512491968
 10
5.514761709752131
 20
31.61071328289524
 10
5.545362719935701
 20
31.59952396266979
 10
5.584524018780312
 20
31.58979820312349
 10
5.63091201522261
 20
31.58186720333294
 10
5.682947021680024
 20
31.57600104398381
 10
5.738857048416758
 20
31.57239949009706
 10
5.796738146528978
 20
31.5711851882707
 10
5.854619244641198
 20
31.57239949009706
 10
5.910529271377931
 20
31.57600104398381
 10
5.962564277835345
 20
31.58186720333294
 10
6.008952274277643
 20
31.5897982031235
 10
6.048113573122253
 20
31.5995239626698
 10
6.07871458330582
 20
31.61071328289525
 10
6.099713224128414
 20
31.62298512491969
 10
6.110394412061911
 20
31.63592158588143
 10
6.11039441206191
 20
31.64908213011799
 10
6.099713224128411
 20
31.66201859107974
 10
6.078714583305817
 20
31.67429043310418
 10
6.048113573122248
 20
31.68547975332963
 10
6.008952274277638
 20
31.69520551287592
 10
5.962564277835338
 20
31.70313651266648
 10
5.910529271377925
 20
31.70900267201561
 10
5.85461924464119
 20
31.71260422590236
 10
5.796738146528975
 20
31.71381852772872
  0
LINE
  5
30B
330
1F
100
AcDbEntity
  8
0
  6
SLD-Solid
 62
     7
370
    25
100
AcDbLine
 10
5.841738146528975
 20
31.62403893951792
 30
0.0
 11
5.841738146528975
 21
31.70893973681435
 31
0.0
  0
LINE
  5
30C
330
1F
100
AcDbEntity
  8
0
  6
SLD-Solid
 62
     7
370
    25
100
AcDbLine
 10
5.841738146528975
 20
31.70893973681435
 30
0.0
 11
5.751738146528974
 21
31.70893973681435
 31
0.0
  0
LINE
  5
30D
330
1F
100
AcDbEntity
  8
0
  6
SLD-Solid
 62
     7
370
    25
100
AcDbLine
 10
5.751738146528974
 20
31.70893973681435
 30
0.0
 11
5.751738146528975
 21
31.62403893951792
 31
0.0
  0
LINE
  5
30E
330
1F
100
AcDbEntity
  8
0
  6
SLD-Solid
 62
     7
370
    25
100
AcDbLine
 10
5.751738146528975
 20
31.62403893951792
 30
0.0
 11
5.841738146528975
 21
31.62403893951792
 31
0.0
  0
LINE
  5
30F
330
1F
100
AcDbEntity
  8
0
  6
SLD-Solid
 62
     7
370
    25
100
AcDbLine
 10
6.246738146528974
 20
31.88601033799663
 30
0.0
 11
6.241959154367943
 21
31.88601033799663
 31
0.0
  0
LINE
  5
310
330
1F
100
AcDbEntity
  8
0
  6
SLD-Solid
 62
     7
370
    25
100
AcDbLine
 10
8.860894410954602
 20
33.82107825110088
 30
0.0
 11
8.860894410954602
 21
33.65532311773134
 31
0.0
  0
LINE
  5
311
330
1F
100
AcDbEntity
  8
0
  6
SLD-Solid
 62
     7
370
    25
100
AcDbLine
 10
8.830894410954603
 20
33.55070068441611
 30
0.0
 11
8.830894410954603
 21
33.92570068441611
 31
0.0
  0
LINE
  5
312
330
1F
100
AcDbEntity
  8
0
  6
SLD-Solid
 62
     7
370
    25
100
AcDbLine
 10
2.808238146537204
 20
33.65532311773132
 30
0.0
 11
2.808238146537204
 21
33.82107825110086
 31
0.0
  0
LINE
  5
313
330
1F
100
AcDbEntity
  8
0
  6
SLD-Solid
 62
     7
370
    25
100
AcDbLine
 10
8.713238146532378
 20
37.0082006844161
 30
0.0
 11
8.713238146532378
 21
36.9082006844161
 31
0.0
  0
LINE
  5
314
330
1F
100
AcDbEntity
  8
0
  6
SLD-Solid
 62
     7
370
    25
100
AcDbLine
 10
8.713238146532378
 20
36.9082006844161
 30
0.0
 11
2.913238146532378
 21
36.9082006844161
 31
0.0
  0
LINE
  5
315
330
1F
100
AcDbEntity
  8
0
  6
SLD-Solid
 62
     7
370
    25
100
AcDbLine
 10
2.913238146532378
 20
37.0082006844161
 30
0.0
 11
2.913238146532378
 21
36.9082006844161
 31
0.0
  0
LINE
  5
316
330
1F
100
AcDbEntity
  8
0
  6
SLD-Solid
 62
     7
370
    25
100
AcDbLine
 10
2.913238146532378
 20
37.0082006844161
 30
0.0
 11
8.713238146532378
 21
37.0082006844161
 31
0.0
  0
LINE
  5
317
330
1F
100
AcDbEntity
  8
0
  6
SLD-Solid
 62
     7
370
    25
100
AcDbLine
 10
2.813238146532377
 20
36.9082006844161
 30
0.0
 11
2.813238146532377
 21
34.1082006844161
 31
0.0
  0
LINE
  5
318
330
1F
100
AcDbEntity
  8
0
  6
SLD-Solid
 62
     7
370
    25
100
AcDbLine
 10
2.913238146532378
 20
36.9082006844161
 30
0.0
 11
2.813238146532377
 21
36.9082006844161
 31
0.0
  0
LINE
  5
319
330
1F
100
AcDbEntity
  8
0
  6
SLD-Solid
 62
     7
370
    25
100
AcDbLine
 10
2.913238146532378
 20
34.1082006844161
 30
0.0
 11
2.913238146532378
 21
36.9082006844161
 31
0.0
  0
LINE
  5
31A
330
1F
100
AcDbEntity
  8
0
  6
SLD-Solid
 62
     7
370
    25
100
AcDbLine
 10
2.913238146532378
 20
34.1082006844161
 30
0.0
 11
2.813238146532377
 21
34.1082006844161
 31
0.0
  0
ARC
  5
31B
330
1F
100
AcDbEntity
  8
0
  6
SLD-Solid
 62
     7
370
    25
100
AcDbCircle
 10
8.713238146532378
 20
36.9082006844161
 30
0.0
 40
0.1000000000000014
100
AcDbArc
 50
0.0
 51
90.0
  0
LINE
  5
31C
330
1F
100
AcDbEntity
  8
0
  6
SLD-Solid
 62
     7
370
    25
100
AcDbLine
 10
8.713238146532378
 20
36.9082006844161
 30
0.0
 11
8.81323814653238
 21
36.9082006844161
 31
0.0
  0
LINE
  5
31D
330
1F
100
AcDbEntity
  8
0
  6
SLD-Solid
 62
     7
370
    25
100
AcDbLine
 10
8.713238146532378
 20
34.1082006844161
 30
0.0
 11
8.713238146532378
 21
36.9082006844161
 31
0.0
  0
LINE
  5
31E
330
1F
100
AcDbEntity
  8
0
  6
SLD-Solid
 62
     7
370
    25
100
AcDbLine
 10
8.81323814653238
 20
36.9082006844161
 30
0.0
 11
8.81323814653238
 21
34.1082006844161
 31
0.0
  0
LINE
  5
31F
330
1F
100
AcDbEntity
  8
0
  6
SLD-Solid
 62
     7
370
    25
100
AcDbLine
 10
8.713238146532378
 20
34.1082006844161
 30
0.0
 11
8.81323814653238
 21
34.1082006844161
 31
0.0
  0
LINE
  5
320
330
1F
100
AcDbEntity
  8
0
  6
SLD-Solid
 62
     7
370
    25
100
AcDbLine
 10
2.913238146532378
 20
34.1082006844161
 30
0.0
 11
8.713238146532378
 21
34.1082006844161
 31
0.0
  0
ARC
  5
321
330
1F
100
AcDbEntity
  8
0
  6
SLD-Solid
 62
     7
370
    25
100
AcDbCircle
 10
2.913238146532378
 20
36.9082006844161
 30
0.0
 40
0.1000000000000014
100
AcDbArc
 50
90.0
 51
180.0
  0
LINE
  5
322
330
1F
100
AcDbEntity
  8
0
  6
SLD-Solid
 62
     7
370
    25
100
AcDbLine
 10
2.913238146532378
 20
34.1082006844161
 30
0.0
 11
2.913238146532378
 21
34.0082006844161
 31
0.0
  0
ARC
  5
323
330
1F
100
AcDbEntity
  8
0
  6
SLD-Solid
 62
     7
370
    25
100
AcDbCircle
 10
2.913238146532378
 20
34.1082006844161
 30
0.0
 40
0.1000000000000014
100
AcDbArc
 50
180.0
 51
270.0000000000008
  0
LINE
  5
324
330
1F
100
AcDbEntity
  8
0
  6
SLD-Solid
 62
     7
370
    25
100
AcDbLine
 10
8.713238146532378
 20
34.0082006844161
 30
0.0
 11
2.913238146532378
 21
34.0082006844161
 31
0.0
  0
LINE
  5
325
330
1F
100
AcDbEntity
  8
0
  6
SLD-Solid
 62
     7
370
    25
100
AcDbLine
 10
8.713238146532378
 20
34.1082006844161
 30
0.0
 11
8.713238146532378
 21
34.0082006844161
 31
0.0
  0
ARC
  5
326
330
1F
100
AcDbEntity
  8
0
  6
SLD-Solid
 62
     7
370
    25
100
AcDbCircle
 10
8.713238146532378
 20
34.1082006844161
 30
0.0
 40
0.1000000000000014
100
AcDbArc
 50
270.0000000000008
 51
0.0
  0
LINE
  5
327
330
1F
100
AcDbEntity
  8
0
  6
SLD-Solid
 62
     7
370
    25
100
AcDbLine
 10
8.68823814653238
 20
33.97135048780493
 30
0.0
 11
8.68823814653238
 21
34.0082006844161
 31
0.0
  0
LINE
  5
328
330
1F
100
AcDbEntity
  8
0
  6
SLD-Solid
 62
     7
370
    25
100
AcDbLine
 10
8.638238146532379
 20
33.97135048780493
 30
0.0
 11
8.638238146532379
 21
34.0082006844161
 31
0.0
  0
LINE
  5
329
330
1F
100
AcDbEntity
  8
0
  6
SLD-Solid
 62
     7
370
    25
100
AcDbLine
 10
2.938238146532377
 20
33.97135048780492
 30
0.0
 11
2.938238146532377
 21
34.0082006844161
 31
0.0
  0
LINE
  5
32A
330
1F
100
AcDbEntity
  8
0
  6
SLD-Solid
 62
     7
370
    25
100
AcDbLine
 10
2.988238146532376
 20
33.97135048780492
 30
0.0
 11
2.988238146532376
 21
34.0082006844161
 31
0.0
  0
LWPOLYLINE
  5
32B
330
1F
100
AcDbEntity
  8
0
  6
SLD-Solid
 62
     8
370
    25
100
AcDbPolyline
 90
       12
 70
   128
 43
0.0
 10
5.796738146528975
 20
31.79308451075481
 10
5.865430324427469
 20
31.79189050911678
 10
5.932512415896811
 20
31.7883364905891
 10
5.996412073569107
 20
31.78250575835381
 10
6.055631543627356
 20
31.77453497983261
 10
6.108782771885484
 20
31.7646109833183
 10
6.154619938602019
 20
31.75296637887801
 10
6.1920686594389
 20
31.73987410617029
 10
6.220251168119779
 20
31.72564103697094
 10
6.238506890527561
 20
31.71060078235857
 10
6.24640792800184
 20
31.6951058731538
 10
6.246738145164704
 20
31.691211487264
  0
LWPOLYLINE
  5
32C
330
1F
100
AcDbEntity
  8
0
  6
SLD-Solid
 62
     8
370
    25
100
AcDbPolyline
 90
       12
 70
   128
 43
0.0
 10
5.346743466197707
 20
31.69169893890123
 10
5.347068365056109
 20
31.69510587315379
 10
5.35496940253039
 20
31.71060078235857
 10
5.373225124938172
 20
31.72564103697093
 10
5.401407633619052
 20
31.73987410617029
 10
5.438856354455935
 20
31.75296637887801
 10
5.48469352117247
 20
31.7646109833183
 10
5.537844749430599
 20
31.7745349798326
 10
5.597064219488848
 20
31.78250575835381
 10
5.660963877161143
 20
31.7883364905891
 10
5.728045968630487
 20
31.79189050911678
 10
5.796738146528975
 20
31.79308451075481
  0
DIMENSION
  5
32D
330
1F
100
AcDbEntity
  8
DIMS
100
AcDbDimension
  2
_D_3
 10
9.490815670797133
 20
31.0076568892533
 30
0.0
 11
9.490815670797122
 21
34.06515020730471
 31
0.0
 70
    32
  1
<>
 71
     2
 42
-1.0
  3
SLDDIMSTYLE0
100
AcDbAlignedDimension
 13
8.713238146532378
 23
37.00820068441608
 33
0.0
 14
8.734238146532402
 24
31.00765688925329
 34
0.0
 50
90.0000000000002
100
AcDbRotatedDimension
  0
MTEXT
  5
338
330
1F
100
AcDbEntity
  8
NOTES
100
AcDbMText
 10
3.146652888289726
 20
30.43455494464133
 30
0.0
 40
0.3750000000000001
 41
0.0
 71
     1
 72
     1
  1
Top view
  7
SLDTEXTSTYLE1
 73
     1
 44
1.0
  0
LINE
  5
339
330
1F
100
AcDbEntity
  8
0
  6
SLD-Solid
 62
     7
370
    25
100
AcDbLine
 10
30.508532208387
 20
12.48708304135241
 30
0.0
 11
30.49087594396479
 21
12.48708304135241
 31
0.0
  0
LINE
  5
33A
330
1F
100
AcDbEntity
  8
0
  6
SLD-Solid
 62
     7
370
    25
100
AcDbLine
 10
30.49087594396479
 20
12.11208304135241
 30
0.0
 11
30.508532208387
 21
12.11208304135241
 31
0.0
  0
LINE
  5
33B
330
1F
100
AcDbEntity
  8
0
  6
SLD-Solid
 62
     7
370
    25
100
AcDbLine
 10
30.49087594396479
 20
12.48708304135241
 30
0.0
 11
30.46087594396479
 21
12.38246060803718
 31
0.0
  0
LINE
  5
33C
330
1F
100
AcDbEntity
  8
0
  6
SLD-Solid
 62
     7
370
    25
100
AcDbLine
 10
30.46087594396479
 20
12.21670547466763
 30
0.0
 11
30.49087594396479
 21
12.11208304135241
 31
0.0
  0
LINE
  5
33D
330
1F
100
AcDbEntity
  8
0
  6
SLD-Solid
 62
     7
370
    25
100
AcDbLine
 10
36.508532208387
 20
12.19926840246523
 30
0.0
 11
36.51353220838219
 21
12.21670547466764
 31
0.0
  0
LINE
  5
33E
330
1F
100
AcDbEntity
  8
0
  6
SLD-Solid
 62
     7
370
    25
100
AcDbLine
 10
36.51353220838219
 20
12.38246060803718
 30
0.0
 11
36.508532208387
 21
12.39989768023959
 31
0.0
  0
LINE
  5
33F
330
1F
100
AcDbEntity
  8
0
  6
SLD-Solid
 62
     7
370
    25
100
AcDbLine
 10
30.51457639735955
 20
23.93382198955725
 30
0.0
 11
30.508532208387
 21
23.93382198955725
 31
0.0
  0
LINE
  5
340
330
1F
100
AcDbEntity
  8
0
  6
SLD-Solid
 62
     7
370
    25
100
AcDbLine
 10
30.508532208387
 20
23.89958304135241
 30
0.0
 11
30.508532208387
 21
23.93382198955725
 31
0.0
  0
LINE
  5
341
330
1F
100
AcDbEntity
  8
0
  6
SLD-Solid
 62
     7
370
    25
100
AcDbLine
 10
36.50248801941446
 20
23.93382198955724
 30
0.0
 11
36.50853220838701
 21
23.93382198955724
 31
0.0
  0
LINE
  5
342
330
1F
100
AcDbEntity
  8
0
  6
SLD-Solid
 62
     7
370
    25
100
AcDbLine
 10
36.50853220838701
 20
23.89958304135241
 30
0.0
 11
36.50853220838701
 21
23.93382198955724
 31
0.0
  0
LINE
  5
343
330
1F
100
AcDbEntity
  8
0
  6
SLD-Solid
 62
     7
370
    25
100
AcDbLine
 10
30.51125704874039
 20
23.94024308371157
 30
0.0
 11
30.51125704874039
 21
23.99019868792579
 31
0.0
  0
LINE
  5
344
330
1F
100
AcDbEntity
  8
0
  6
SLD-Solid
 62
     7
370
    25
100
AcDbLine
 10
30.51125704874039
 20
23.99019868792579
 30
0.0
 11
30.56623794641105
 21
23.99019868792578
 31
0.0
  0
LINE
  5
345
330
1F
100
AcDbEntity
  8
0
  6
SLD-Solid
 62
     7
370
    25
100
AcDbLine
 10
36.45082647036296
 20
23.99019868792578
 30
0.0
 11
36.50580736803362
 21
23.99019868792578
 31
0.0
  0
LINE
  5
346
330
1F
100
AcDbEntity
  8
0
  6
SLD-Solid
 62
     7
370
    25
100
AcDbLine
 10
36.50580736803362
 20
23.94024308371156
 30
0.0
 11
36.50580736803362
 21
23.99019868792578
 31
0.0
  0
LINE
  5
347
330
1F
100
AcDbEntity
  8
0
  6
SLD-Solid
 62
     7
370
    25
100
AcDbLine
 10
30.51125704874039
 20
23.94024308371157
 30
0.0
 11
30.51717159895738
 21
23.94024308371156
 31
0.0
  0
LINE
  5
348
330
1F
100
AcDbEntity
  8
0
  6
SLD-Solid
 62
     7
370
    25
100
AcDbLine
 10
36.49989281781662
 20
23.94024308371156
 30
0.0
 11
36.50580736803362
 21
23.94024308371156
 31
0.0
  0
LINE
  5
349
330
1F
100
AcDbEntity
  8
0
  6
SLD-Solid
 62
     7
370
    25
100
AcDbLine
 10
30.51125704874039
 20
23.93382198955725
 30
0.0
 11
30.51125704874039
 21
23.94024308371157
 31
0.0
  0
LINE
  5
34A
330
1F
100
AcDbEntity
  8
0
  6
SLD-Solid
 62
     7
370
    25
100
AcDbLine
 10
36.50580736803362
 20
23.93382198955724
 30
0.0
 11
36.50580736803362
 21
23.94024308371156
 31
0.0
  0
LINE
  5
34B
330
1F
100
AcDbEntity
  8
0
  6
SLD-Solid
 62
     7
370
    25
100
AcDbLine
 10
30.49087594396479
 20
12.29958304135241
 30
0.0
 11
30.49087594396479
 21
12.11208304135241
 31
0.0
  0
LINE
  5
34C
330
1F
100
AcDbEntity
  8
0
  6
SLD-Solid
 62
     7
370
    25
100
AcDbLine
 10
30.49087594396479
 20
12.48708304135241
 30
0.0
 11
30.49087594396479
 21
12.29958304135241
 31
0.0
  0
LINE
  5
34D
330
1F
100
AcDbEntity
  8
0
  6
SLD-Solid
 62
     7
370
    25
100
AcDbLine
 10
30.46087594396479
 20
12.29958304135241
 30
0.0
 11
30.46087594396479
 21
12.38246060803718
 31
0.0
  0
LINE
  5
34E
330
1F
100
AcDbEntity
  8
0
  6
SLD-Solid
 62
     7
370
    25
100
AcDbLine
 10
30.46087594396479
 20
12.21670547466763
 30
0.0
 11
30.46087594396479
 21
12.29958304135241
 31
0.0
  0
LINE
  5
34F
330
1F
100
AcDbEntity
  8
0
  6
SLD-Solid
 62
     7
370
    25
100
AcDbLine
 10
36.51353220838219
 20
12.38246060803718
 30
0.0
 11
36.51353220838219
 21
12.21670547466764
 31
0.0
  0
ARC
  5
350
330
1F
100
AcDbEntity
  8
0
  6
SLD-Solid
 62
     7
370
    25
100
AcDbCircle
 10
36.40853220838702
 20
12.09958304135241
 30
0.0
 40
0.0999999999999996
100
AcDbArc
 50
270.0000000000008
 51
0.0
  0
LINE
  5
351
330
1F
100
AcDbEntity
  8
0
  6
SLD-Solid
 62
     7
370
    25
100
AcDbLine
 10
36.40853220838702
 20
12.09958304135241
 30
0.0
 11
36.40853220838702
 21
11.99958304135241
 31
0.0
  0
LINE
  5
352
330
1F
100
AcDbEntity
  8
0
  6
SLD-Solid
 62
     7
370
    25
100
AcDbLine
 10
36.40853220838702
 20
12.09958304135241
 30
0.0
 11
36.50853220838701
 21
12.09958304135241
 31
0.0
  0
LINE
  5
353
330
1F
100
AcDbEntity
  8
0
  6
SLD-Solid
 62
     7
370
    25
100
AcDbLine
 10
36.50853220838701
 20
12.09958304135241
 30
0.0
 11
36.50853220838701
 21
23.89958304135241
 31
0.0
  0
LINE
  5
354
330
1F
100
AcDbEntity
  8
0
  6
SLD-Solid
 62
     7
370
    25
100
AcDbLine
 10
36.40853220838702
 20
23.89958304135241
 30
0.0
 11
36.40853220838702
 21
12.09958304135241
 31
0.0
  0
LINE
  5
355
330
1F
100
AcDbEntity
  8
0
  6
SLD-Solid
 62
     7
370
    25
100
AcDbLine
 10
36.40853220838702
 20
23.89958304135241
 30
0.0
 11
36.50853220838701
 21
23.89958304135241
 31
0.0
  0
LINE
  5
356
330
1F
100
AcDbEntity
  8
0
  6
SLD-Solid
 62
     7
370
    25
100
AcDbLine
 10
36.40853220838702
 20
23.89958304135241
 30
0.0
 11
30.60853220838701
 21
23.89958304135241
 31
0.0
  0
LINE
  5
357
330
1F
100
AcDbEntity
  8
0
  6
SLD-Solid
 62
     7
370
    25
100
AcDbLine
 10
30.60853220838701
 20
12.09958304135241
 30
0.0
 11
36.40853220838702
 21
12.09958304135241
 31
0.0
  0
LINE
  5
358
330
1F
100
AcDbEntity
  8
0
  6
SLD-Solid
 62
     7
370
    25
100
AcDbLine
 10
30.60853220838701
 20
23.89958304135241
 30
0.0
 11
30.60853220838701
 21
12.09958304135241
 31
0.0
  0
LINE
  5
359
330
1F
100
AcDbEntity
  8
0
  6
SLD-Solid
 62
     7
370
    25
100
AcDbLine
 10
35.90853220838702
 20
12.59958304135241
 30
0.0
 11
35.90853220838702
 21
23.39958304135241
 31
0.0
  0
LINE
  5
35A
330
1F
100
AcDbEntity
  8
0
  6
SLD-Solid
 62
     7
370
    25
100
AcDbLine
 10
35.90853220838702
 20
23.39958304135241
 30
0.0
 11
31.10853220838701
 21
23.39958304135241
 31
0.0
  0
LINE
  5
35B
330
1F
100
AcDbEntity
  8
0
  6
SLD-Solid
 62
     7
370
    25
100
AcDbLine
 10
31.10853220838701
 20
23.39958304135241
 30
0.0
 11
31.10853220838701
 21
12.59958304135241
 31
0.0
  0
LINE
  5
35C
330
1F
100
AcDbEntity
  8
0
  6
SLD-Solid
 62
     7
370
    25
100
AcDbLine
 10
31.10853220838701
 20
12.59958304135241
 30
0.0
 11
35.90853220838702
 21
12.59958304135241
 31
0.0
  0
LINE
  5
35D
330
1F
100
AcDbEntity
  8
0
  6
SLD-Solid
 62
     7
370
    25
100
AcDbLine
 10
36.40853220838702
 20
11.99958304135241
 30
0.0
 11
30.60853220838701
 21
11.99958304135241
 31
0.0
  0
LINE
  5
35E
330
1F
100
AcDbEntity
  8
0
  6
SLD-Solid
 62
     7
370
    25
100
AcDbLine
 10
30.60853220838701
 20
12.09958304135241
 30
0.0
 11
30.60853220838701
 21
11.99958304135241
 31
0.0
  0
ARC
  5
35F
330
1F
100
AcDbEntity
  8
0
  6
SLD-Solid
 62
     7
370
    25
100
AcDbCircle
 10
36.40853220838702
 20
23.89958304135241
 30
0.0
 40
0.0999999999999979
100
AcDbArc
 50
0.0
 51
90.0
  0
LINE
  5
360
330
1F
100
AcDbEntity
  8
0
  6
SLD-Solid
 62
     7
370
    25
100
AcDbLine
 10
36.40853220838702
 20
23.89958304135241
 30
0.0
 11
36.40853220838702
 21
23.99958304135241
 31
0.0
  0
LINE
  5
361
330
1F
100
AcDbEntity
  8
0
  6
SLD-Solid
 62
     7
370
    25
100
AcDbLine
 10
30.60853220838701
 20
23.89958304135241
 30
0.0
 11
30.60853220838701
 21
23.99958304135241
 31
0.0
  0
LINE
  5
362
330
1F
100
AcDbEntity
  8
0
  6
SLD-Solid
 62
     7
370
    25
100
AcDbLine
 10
30.60853220838701
 20
23.99958304135241
 30
0.0
 11
36.40853220838702
 21
23.99958304135241
 31
0.0
  0
LINE
  5
363
330
1F
100
AcDbEntity
  8
0
  6
SLD-Solid
 62
     7
370
    25
100
AcDbLine
 10
30.60853220838701
 20
12.09958304135241
 30
0.0
 11
30.50853220838701
 21
12.09958304135241
 31
0.0
  0
LINE
  5
364
330
1F
100
AcDbEntity
  8
0
  6
SLD-Solid
 62
     7
370
    25
100
AcDbLine
 10
30.50853220838701
 20
12.09958304135241
 30
0.0
 11
30.50853220838701
 21
23.89958304135241
 31
0.0
  0
LINE
  5
365
330
1F
100
AcDbEntity
  8
0
  6
SLD-Solid
 62
     7
370
    25
100
AcDbLine
 10
30.60853220838701
 20
23.89958304135241
 30
0.0
 11
30.50853220838701
 21
23.89958304135241
 31
0.0
  0
ARC
  5
366
330
1F
100
AcDbEntity
  8
0
  6
SLD-Solid
 62
     7
370
    25
100
AcDbCircle
 10
30.60853220838701
 20
12.09958304135241
 30
0.0
 40
0.0999999999999996
100
AcDbArc
 50
180.0
 51
270.0000000000008
  0
ARC
  5
367
330
1F
100
AcDbEntity
  8
0
  6
SLD-Solid
 62
     7
370
    25
100
AcDbCircle
 10
30.60853220838701
 20
23.89958304135241
 30
0.0
 40
0.0999999999999979
100
AcDbArc
 50
90.0
 51
180.0
  0
LINE
  5
368
330
1F
100
AcDbEntity
  8
0
  6
SLD-Solid
 62
     7
370
    25
100
AcDbLine
 10
35.00353220838701
 20
21.31890016334702
 30
0.0
 11
35.00353220838701
 21
21.59958304135241
 31
0.0
  0
ARC
  5
369
330
1F
100
AcDbEntity
  8
0
  6
SLD-Solid
 62
     7
370
    25
100
AcDbCircle
 10
34.88353220838702
 20
21.59958304135241
 30
0.0
 40
0.1200000000000045
100
AcDbArc
 50
0.0
 51
180.0
  0
LINE
  5
36A
330
1F
100
AcDbEntity
  8
0
  6
SLD-Solid
 62
     7
370
    25
100
AcDbLine
 10
34.76353220838701
 20
21.59958304135241
 30
0.0
 11
34.76353220838701
 21
21.31890016334702
 31
0.0
  0
ARC
  5
36B
330
1F
100
AcDbEntity
  8
0
  6
SLD-Solid
 62
     7
370
    25
100
AcDbCircle
 10
34.88353220838702
 20
21.09958304135241
 30
0.0
 40
0.2499999999999996
100
AcDbArc
 50
118.6854020141202
 51
61.31459798588126
  0
LINE
  5
36C
330
1F
100
AcDbEntity
  8
0
  6
SLD-Solid
 62
     7
370
    25
100
AcDbLine
 10
34.50853220838702
 20
14.47458304135241
 30
0.0
 11
35.25853220838702
 21
14.47458304135241
 31
0.0
  0
ARC
  5
36D
330
1F
100
AcDbEntity
  8
0
  6
SLD-Solid
 62
     7
370
    25
100
AcDbCircle
 10
35.25853220838702
 20
14.59958304135241
 30
0.0
 40
0.125
100
AcDbArc
 50
270.0000000000008
 51
90.0
  0
LINE
  5
36E
330
1F
100
AcDbEntity
  8
0
  6
SLD-Solid
 62
     7
370
    25
100
AcDbLine
 10
35.25853220838702
 20
14.72458304135241
 30
0.0
 11
34.50853220838702
 21
14.72458304135241
 31
0.0
  0
ARC
  5
36F
330
1F
100
AcDbEntity
  8
0
  6
SLD-Solid
 62
     7
370
    25
100
AcDbCircle
 10
34.50853220838702
 20
14.59958304135241
 30
0.0
 40
0.125
100
AcDbArc
 50
90.0
 51
270.0000000000008
  0
LINE
  5
370
330
1F
100
AcDbEntity
  8
0
  6
SLD-Solid
 62
     7
370
    25
100
AcDbLine
 10
32.50853220838702
 20
14.72458304135241
 30
0.0
 11
31.75853220838701
 21
14.72458304135241
 31
0.0
  0
ARC
  5
371
330
1F
100
AcDbEntity
  8
0
  6
SLD-Solid
 62
     7
370
    25
100
AcDbCircle
 10
31.75853220838701
 20
14.59958304135241
 30
0.0
 40
0.125
100
AcDbArc
 50
90.0
 51
270.0000000000008
  0
LINE
  5
372
330
1F
100
AcDbEntity
  8
0
  6
SLD-Solid
 62
     7
370
    25
100
AcDbLine
 10
31.75853220838701
 20
14.47458304135241
 30
0.0
 11
32.50853220838702
 21
14.47458304135241
 31
0.0
  0
ARC
  5
373
330
1F
100
AcDbEntity
  8
0
  6
SLD-Solid
 62
     7
370
    25
100
AcDbCircle
 10
32.50853220838702
 20
14.59958304135241
 30
0.0
 40
0.125
100
AcDbArc
 50
270.0000000000008
 51
90.0
  0
LINE
  5
374
330
1F
100
AcDbEntity
  8
0
  6
SLD-Solid
 62
     7
370
    25
100
AcDbLine
 10
32.01353220838701
 20
21.59958304135241
 30
0.0
 11
32.01353220838701
 21
21.31890016334702
 31
0.0
  0
ARC
  5
375
330
1F
100
AcDbEntity
  8
0
  6
SLD-Solid
 62
     7
370
    25
100
AcDbCircle
 10
32.13353220838702
 20
21.09958304135241
 30
0.0
 40
0.2499999999999996
100
AcDbArc
 50
118.6854020141202
 51
61.31459798588126
  0
LINE
  5
376
330
1F
100
AcDbEntity
  8
0
  6
SLD-Solid
 62
     7
370
    25
100
AcDbLine
 10
32.25353220838701
 20
21.31890016334702
 30
0.0
 11
32.25353220838701
 21
21.59958304135241
 31
0.0
  0
ARC
  5
377
330
1F
100
AcDbEntity
  8
0
  6
SLD-Solid
 62
     7
370
    25
100
AcDbCircle
 10
32.13353220838702
 20
21.59958304135241
 30
0.0
 40
0.1200000000000045
100
AcDbArc
 50
0.0
 51
179.9999999999996
  0
DIMENSION
  5
378
330
1F
100
AcDbEntity
  8
DIMS
100
AcDbDimension
  2
_D_4
 10
34.88353220838701
 20
24.77114764586964
 30
0.0
 11
33.57912624815023
 21
24.77114764586964
 31
0.0
 70
    32
  1
<>
 71
     2
 42
-1.0
  3
SLDDIMSTYLE2
100
AcDbAlignedDimension
 13
32.13353220838701
 23
21.59958304135241
 33
0.0
 14
34.88353220838701
 24
21.59958304135241
 34
0.0
100
AcDbRotatedDimension
  0
DIMENSION
  5
388
330
1F
100
AcDbEntity
  8
DIMS
100
AcDbDimension
  2
_D_5
 10
27.89440346857323
 20
23.99958304135241
 30
0.0
 11
27.89440346857323
 21
22.94105681965461
 31
0.0
 70
    32
  1
<>
 71
     2
 42
-1.0
  3
SLDDIMSTYLE2
100
AcDbAlignedDimension
 13
32.01353220838701
 23
21.59958304135241
 33
0.0
 14
30.60853220838701
 24
23.99958304135241
 34
0.0
 50
90.0000000000002
100
AcDbRotatedDimension
  0
DIMENSION
  5
397
330
1F
100
AcDbEntity
  8
DIMS
100
AcDbDimension
  2
_D_6
 10
27.89440346857323
 20
14.59958304135241
 30
0.0
 11
27.89440346857323
 21
18.47175656262348
 31
0.0
 70
    32
  1
<>
 71
     2
 42
-1.0
  3
SLDDIMSTYLE0
100
AcDbAlignedDimension
 13
32.13353220838701
 23
21.59958304135241
 33
0.0
 14
31.75853220838701
 24
14.59958304135241
 34
0.0
 50
90.0000000000002
100
AcDbRotatedDimension
  0
DIMENSION
  5
3A2
330
1F
100
AcDbEntity
  8
DIMS
100
AcDbDimension
  2
_D_7
 10
32.23745525684114
 20
21.53958304135241
 30
0.0
 11
29.13195804774882
 21
22.83685590579871
 31
0.0
 70
    35
  1
<>
 71
     1
 42
-1.0
  3
SLDDIMSTYLE3
100
AcDbDiametricDimension
 15
32.02960915993287
 25
21.65958304135241
 35
0.0
 40
0.0
  0
DIMENSION
  5
3AF
330
1F
100
AcDbEntity
  8
DIMS
100
AcDbDimension
  2
_D_8
 10
27.91044182502092
 20
11.99958304135241
 30
0.0
 11
27.91044182502092
 21
13.46809596802995
 31
0.0
 70
    32
  1
<>
 71
     2
 42
-1.0
  3
SLDDIMSTYLE2
100
AcDbAlignedDimension
 13
31.75853220838701
 23
14.59958304135241
 33
0.0
 14
30.60853220838701
 24
11.99958304135241
 34
0.0
 50
90.0000000000002
100
AcDbRotatedDimension
  0
MTEXT
  5
3BE
330
1F
100
AcDbEntity
  8
NOTES
100
AcDbMText
 10
32.39351874749624
 20
11.68513060474658
 30
0.0
 40
0.3750000000000001
 41
0.0
 71
     1
 72
     1
  1
Back view
  7
SLDTEXTSTYLE1
 73
     1
 44
1.0
  0
MTEXT
  5
3BF
330
1F
100
AcDbEntity
  8
NOTES
100
AcDbMText
 10
36.30859172116032
 20
11.68513060474656
 30
0.0
 40
0.3750000000000001
 41
0.0
 71
     1
 72
     1
  1
mounting hole (4)
  7
SLDTEXTSTYLE1
 73
     1
 44
1.0
  0
LEADER
  5
3C0
330
1F
100
AcDbEntity
  8
NOTES
100
AcDbLeader
  3
SLDDIMSTYLE1
 76
     3
 10
34.72988634873016
 20
14.47458304135241
 30
0.0
 10
36.03538817101644
 20
11.50063982054099
 30
0.0
 10
36.28538817101644
 20
11.50063982054099
 30
0.0
1001
ACAD
1000
DSTYLE
1002
{
1070
   176
1070
     0
1070
    77
1070
     0
1070
    40
1040
1.0
1070
   147
1040
0.0
1002
}
  0
MTEXT
  5
3C4
330
1F
100
AcDbEntity
  8
NOTES
100
AcDbMText
 10
32.2661315570167
 20
4.986500874567165
 30
0.0
 40
0.2916666666666666
 41
0.0
 71
     1
 72
     1
  1
FROST PRODUCTS LTD.
  7
SLDTEXTSTYLE0
 73
     1
 44
1.0
  0
MTEXT
  5
3C5
330
1F
100
AcDbEntity
  8
NOTES
100
AcDbMText
 10
32.2661315570167
 20
4.561008512941704
 30
0.0
 40
0.2291666666666666
 41
0.0
 71
     1
 72
     1
  1
5280 JOHN LUCAS DRIVE, BURLINGTON, ON, L7L 5Z9
  7
SLDTEXTSTYLE0
 73
     1
 44
1.0
  0
ENDSEC
  0
SECTION
  2
OBJECTS
  0
DICTIONARY
  5
C
330
0
100
AcDbDictionary
281
     1
  3
ACAD_COLOR
350
6C
  3
ACAD_GROUP
350
D
  3
ACAD_LAYOUT
350
1A
  3
ACAD_MATERIAL
350
6B
  3
ACAD_MLINESTYLE
350
17
  3
ACAD_PLOTSETTINGS
350
19
  3
ACAD_PLOTSTYLENAME
350
E
  3
ACAD_SCALELIST
350
47
  3
ACAD_TABLESTYLE
350
92
  3
AcDbVariableDictionary
350
59
  0
DICTIONARY
  5
6C
102
{ACAD_REACTORS
330
C
102
}
330
C
100
AcDbDictionary
281
     1
  0
DICTIONARY
  5
D
102
{ACAD_REACTORS
330
C
102
}
330
C
100
AcDbDictionary
281
     1
  0
DICTIONARY
  5
1A
102
{ACAD_REACTORS
330
C
102
}
330
C
100
AcDbDictionary
281
     1
  3
Layout1
350
74
  3
Layout2
350
26
  3
Model
350
22
  0
DICTIONARY
  5
6B
102
{ACAD_REACTORS
330
C
102
}
330
C
100
AcDbDictionary
281
     1
  0
DICTIONARY
  5
17
102
{ACAD_REACTORS
330
C
102
}
330
C
100
AcDbDictionary
281
     1
  3
Standard
350
18
  0
DICTIONARY
  5
19
102
{ACAD_REACTORS
330
C
102
}
330
C
100
AcDbDictionary
281
     1
  0
ACDBDICTIONARYWDFLT
  5
E
102
{ACAD_REACTORS
330
C
102
}
330
C
100
AcDbDictionary
281
     1
  3
Normal
350
F
100
AcDbDictionaryWithDefault
340
F
  0
DICTIONARY
  5
47
102
{ACAD_REACTORS
330
C
102
}
330
C
100
AcDbDictionary
281
     1
  3
A0
350
48
  3
A1
350
49
  3
A2
350
4A
  3
A3
350
4B
  3
A4
350
4C
  3
A5
350
4D
  3
A6
350
4E
  3
A7
350
4F
  3
A8
350
50
  3
A9
350
51
  3
B0
350
52
  3
B1
350
53
  3
B2
350
54
  3
B3
350
55
  3
B4
350
56
  3
B5
350
57
  3
B6
350
58
  3
B7
350
3D6
  3
B8
350
3D7
  3
B9
350
5B
  3
C0
350
5C
  3
C1
350
5D
  3
C2
350
3D8
  3
C3
350
5F
  3
C4
350
60
  3
C5
350
61
  3
C6
350
62
  3
C7
350
63
  3
C8
350
64
  3
C9
350
65
  3
D0
350
66
  3
D1
350
67
  3
D2
350
68
  0
DICTIONARY
  5
92
102
{ACAD_REACTORS
330
C
102
}
330
C
100
AcDbDictionary
281
     1
  3
Standard
350
93
  0
DICTIONARY
  5
59
102
{ACAD_REACTORS
330
C
102
}
330
C
100
AcDbDictionary
281
     1
  3
CTABLESTYLE
350
98
  3
HIDETEXT
350
3C3
  0
LAYOUT
  5
74
102
{ACAD_REACTORS
330
1A
102
}
330
1A
100
AcDbPlotSettings
  1

  2
none_device
  4

  6

 40
0.0
 41
0.0
 42
0.0
 43
0.0
 44
0.0
 45
0.0
 46
0.0
 47
0.0
 48
0.0
 49
0.0
140
0.0
141
0.0
142
1.0
143
1.0
 70
   688
 72
     0
 73
     0
 74
     5
  7

 75
    16
 76
     0
 77
     2
 78
   300
147
1.0
148
0.0
149
0.0
100
AcDbLayout
  1
Layout1
 70
     1
 71
     1
 10
0.0
 20
0.0
 11
12.0
 21
9.0
 12
0.0
 22
0.0
 32
0.0
 14
1.000000000000000E+20
 24
1.000000000000000E+20
 34
1.000000000000000E+20
 15
-1.000000000000000E+20
 25
-1.000000000000000E+20
 35
-1.000000000000000E+20
146
0.0
 13
0.0
 23
0.0
 33
0.0
 16
1.0
 26
0.0
 36
0.0
 17
0.0
 27
1.0
 37
0.0
 76
     0
330
73
  0
LAYOUT
  5
26
102
{ACAD_REACTORS
330
1A
102
}
330
1A
100
AcDbPlotSettings
  1

  2
none_device
  4

  6

 40
0.0
 41
0.0
 42
0.0
 43
0.0
 44
0.0
 45
0.0
 46
0.0
 47
0.0
 48
0.0
 49
0.0
140
0.0
141
0.0
142
1.0
143
1.0
 70
   688
 72
     0
 73
     0
 74
     5
  7

 75
    16
 76
     0
 77
     2
 78
   300
147
1.0
148
0.0
149
0.0
100
AcDbLayout
  1
Layout2
 70
     1
 71
     2
 10
0.0
 20
0.0
 11
0.0
 21
0.0
 12
0.0
 22
0.0
 32
0.0
 14
0.0
 24
0.0
 34
0.0
 15
0.0
 25
0.0
 35
0.0
146
0.0
 13
0.0
 23
0.0
 33
0.0
 16
1.0
 26
0.0
 36
0.0
 17
0.0
 27
1.0
 37
0.0
 76
     0
330
23
  0
LAYOUT
  5
22
102
{ACAD_REACTORS
330
1A
102
}
330
1A
100
AcDbPlotSettings
  1

  2
none_device
  4
Letter_(8.50_x_11.00_Inches)
  6

 40
6.35
 41
6.35
 42
6.35000508
 43
6.35000508
 44
215.9
 45
279.4
 46
0.0
 47
0.0
 48
0.0
 49
0.0
140
0.0
141
0.0
142
1.0
143
1.0
 70
 11952
 72
     0
 73
     0
 74
     0
  7

 75
     0
 76
     0
 77
     2
 78
   300
147
1.0
148
0.0
149
0.0
100
AcDbLayout
  1
Model
 70
     1
 71
     0
 10
0.0
 20
0.0
 11
42.0
 21
45.0
 12
0.0
 22
0.0
 32
0.0
 14
0.1653543307086614
 24
0.1653543307086614
 34
-1.277330381675059
 15
41.83464566929134
 25
44.83464566929134
 35
1.277330381675058
146
0.0
 13
0.0
 23
0.0
 33
0.0
 16
1.0
 26
0.0
 36
0.0
 17
0.0
 27
1.0
 37
0.0
 76
     0
330
1F
  0
MLINESTYLE
  5
18
102
{ACAD_REACTORS
330
17
102
}
330
17
100
AcDbMlineStyle
  2
Standard
 70
     0
  3

 62
   256
 51
90.0
 52
90.0
 71
     2
 49
0.5
 62
   256
  6
BYLAYER
 49
-0.5
 62
   256
  6
BYLAYER
  0
ACDBPLACEHOLDER
  5
F
102
{ACAD_REACTORS
330
E
102
}
330
E
  0
ACAD_PROXY_OBJECT
  5
48
102
{ACAD_REACTORS
330
47
102
}
330
47
100
AcDbProxyObject
 90
      499
 91
      505
 95
   393239
 70
     0
 93
       41
310
903313A31580
  0
ACAD_PROXY_OBJECT
  5
49
102
{ACAD_REACTORS
330
47
102
}
330
47
100
AcDbProxyObject
 90
      499
 91
      505
 95
   393239
 70
     0
 93
      105
310
903313A324000000000000004000
  0
ACAD_PROXY_OBJECT
  5
4A
102
{ACAD_REACTORS
330
47
102
}
330
47
100
AcDbProxyObject
 90
      499
 91
      505
 95
   393239
 70
     0
 93
      105
310
903313A344000000000000104000
  0
ACAD_PROXY_OBJECT
  5
4B
102
{ACAD_REACTORS
330
47
102
}
330
47
100
AcDbProxyObject
 90
      499
 91
      505
 95
   393239
 70
     0
 93
      105
310
903313A354000000000000144000
  0
ACAD_PROXY_OBJECT
  5
4C
102
{ACAD_REACTORS
330
47
102
}
330
47
100
AcDbProxyObject
 90
      499
 91
      505
 95
   393239
 70
     0
 93
      105
310
903313A384000000000000204000
  0
ACAD_PROXY_OBJECT
  5
4D
102
{ACAD_REACTORS
330
47
102
}
330
47
100
AcDbProxyObject
 90
      499
 91
      505
 95
   393239
 70
     0
 93
      113
310
904313A31304000000000000244000
  0
ACAD_PROXY_OBJECT
  5
4E
102
{ACAD_REACTORS
330
47
102
}
330
47
100
AcDbProxyObject
 90
      499
 91
      505
 95
   393239
 70
     0
 93
      113
310
904313A31364000000000000304000
  0
ACAD_PROXY_OBJECT
  5
4F
102
{ACAD_REACTORS
330
47
102
}
330
47
100
AcDbProxyObject
 90
      499
 91
      505
 95
   393239
 70
     0
 93
      113
310
904313A32304000000000000344000
  0
ACAD_PROXY_OBJECT
  5
50
102
{ACAD_REACTORS
330
47
102
}
330
47
100
AcDbProxyObject
 90
      499
 91
      505
 95
   393239
 70
     0
 93
      113
310
904313A333040000000000003E4000
  0
ACAD_PROXY_OBJECT
  5
51
102
{ACAD_REACTORS
330
47
102
}
330
47
100
AcDbProxyObject
 90
      499
 91
      505
 95
   393239
 70
     0
 93
      113
310
904313A34304000000000000444000
  0
ACAD_PROXY_OBJECT
  5
52
102
{ACAD_REACTORS
330
47
102
}
330
47
100
AcDbProxyObject
 90
      499
 91
      505
 95
   393239
 70
     0
 93
      113
310
904313A35304000000000000494000
  0
ACAD_PROXY_OBJECT
  5
53
102
{ACAD_REACTORS
330
47
102
}
330
47
100
AcDbProxyObject
 90
      499
 91
      505
 95
   393239
 70
     0
 93
      121
310
905313A3130304000000000000594000
  0
ACAD_PROXY_OBJECT
  5
54
102
{ACAD_REACTORS
330
47
102
}
330
47
100
AcDbProxyObject
 90
      499
 91
      505
 95
   393239
 70
     0
 93
      105
310
903323A310000000000000010100
  0
ACAD_PROXY_OBJECT
  5
55
102
{ACAD_REACTORS
330
47
102
}
330
47
100
AcDbProxyObject
 90
      499
 91
      505
 95
   393239
 70
     0
 93
      105
310
903343A310000000000000410100
  0
ACAD_PROXY_OBJECT
  5
56
102
{ACAD_REACTORS
330
47
102
}
330
47
100
AcDbProxyObject
 90
      499
 91
      505
 95
   393239
 70
     0
 93
      105
310
903383A310000000000000810100
  0
ACAD_PROXY_OBJECT
  5
57
102
{ACAD_REACTORS
330
47
102
}
330
47
100
AcDbProxyObject
 90
      499
 91
      505
 95
   393239
 70
     0
 93
      113
310
90431303A310000000000000910100
  0
ACAD_PROXY_OBJECT
  5
58
102
{ACAD_REACTORS
330
47
102
}
330
47
100
AcDbProxyObject
 90
      499
 91
      505
 95
   393239
 70
     0
 93
      121
310
9053130303A310000000000001650100
  0
ACAD_PROXY_OBJECT
  5
3D6
102
{ACAD_REACTORS
330
47
102
}
330
47
100
AcDbProxyObject
 90
      499
 91
      505
 95
   393239
 70
     0
 93
      257
310
90E312F31323822203D2031272D3022000000000000200FC000000000000284000
  0
ACAD_PROXY_OBJECT
  5
3D7
102
{ACAD_REACTORS
330
47
102
}
330
47
100
AcDbProxyObject
 90
      499
 91
      505
 95
   393239
 70
     0
 93
      249
310
90D312F363422203D2031272D3022000000000000240FC000000000000284000
  0
ACAD_PROXY_OBJECT
  5
5B
102
{ACAD_REACTORS
330
47
102
}
330
47
100
AcDbProxyObject
 90
      499
 91
      505
 95
   393239
 70
     0
 93
      249
310
90D312F333222203D2031272D3022000000000000280FC000000000000284000
  0
ACAD_PROXY_OBJECT
  5
5C
102
{ACAD_REACTORS
330
47
102
}
330
47
100
AcDbProxyObject
 90
      499
 91
      505
 95
   393239
 70
     0
 93
      249
310
90D312F313622203D2031272D30220000000000002C0FC000000000000284000
  0
ACAD_PROXY_OBJECT
  5
5D
102
{ACAD_REACTORS
330
47
102
}
330
47
100
AcDbProxyObject
 90
      499
 91
      505
 95
   393239
 70
     0
 93
      249
310
90D332F333222203D2031272D30220000000000002E0FC000000000000284000
  0
ACAD_PROXY_OBJECT
  5
3D8
102
{ACAD_REACTORS
330
47
102
}
330
47
100
AcDbProxyObject
 90
      499
 91
      505
 95
   393239
 70
     0
 93
      241
310
90C312F3822203D2031272D3022000000000000300FC000000000000284000
  0
ACAD_PROXY_OBJECT
  5
5F
102
{ACAD_REACTORS
330
47
102
}
330
47
100
AcDbProxyObject
 90
      499
 91
      505
 95
   393239
 70
     0
 93
      249
310
90D332F313622203D2031272D3022000000000000320FC000000000000284000
  0
ACAD_PROXY_OBJECT
  5
60
102
{ACAD_REACTORS
330
47
102
}
330
47
100
AcDbProxyObject
 90
      499
 91
      505
 95
   393239
 70
     0
 93
      241
310
90C312F3422203D2031272D3022000000000000340FC000000000000284000
  0
ACAD_PROXY_OBJECT
  5
61
102
{ACAD_REACTORS
330
47
102
}
330
47
100
AcDbProxyObject
 90
      499
 91
      505
 95
   393239
 70
     0
 93
      241
310
90C332F3822203D2031272D3022000000000000360FC000000000000284000
  0
ACAD_PROXY_OBJECT
  5
62
102
{ACAD_REACTORS
330
47
102
}
330
47
100
AcDbProxyObject
 90
      499
 91
      505
 95
   393239
 70
     0
 93
      241
310
90C312F3222203D2031272D3022000000000000380FC000000000000284000
  0
ACAD_PROXY_OBJECT
  5
63
102
{ACAD_REACTORS
330
47
102
}
330
47
100
AcDbProxyObject
 90
      499
 91
      505
 95
   393239
 70
     0
 93
      241
310
90C332F3422203D2031272D30220000000000003A0FC000000000000284000
  0
ACAD_PROXY_OBJECT
  5
64
102
{ACAD_REACTORS
330
47
102
}
330
47
100
AcDbProxyObject
 90
      499
 91
      505
 95
   393239
 70
     0
 93
      161
310
90A3122203D2031272D30224000000000000284000
  0
ACAD_PROXY_OBJECT
  5
65
102
{ACAD_REACTORS
330
47
102
}
330
47
100
AcDbProxyObject
 90
      499
 91
      505
 95
   393239
 70
     0
 93
      257
310
90E312D312F3222203D2031272D30220000000000003E0FC000000000000284000
  0
ACAD_PROXY_OBJECT
  5
66
102
{ACAD_REACTORS
330
47
102
}
330
47
100
AcDbProxyObject
 90
      499
 91
      505
 95
   393239
 70
     0
 93
      225
310
90A3322203D2031272D302200000000000002100000000000000284000
  0
ACAD_PROXY_OBJECT
  5
67
102
{ACAD_REACTORS
330
47
102
}
330
47
100
AcDbProxyObject
 90
      499
 91
      505
 95
   393239
 70
     0
 93
      225
310
90A3622203D2031272D302200000000000006100000000000000284000
  0
ACAD_PROXY_OBJECT
  5
68
102
{ACAD_REACTORS
330
47
102
}
330
47
100
AcDbProxyObject
 90
      499
 91
      505
 95
   393239
 70
     0
 93
      249
310
90D31272D3022203D2031272D30220000000000000A100000000000000284000
  0
TABLESTYLE
  5
93
102
{ACAD_REACTORS
330
92
102
}
330
92
100
AcDbTableStyle
  3
Standard
 70
     0
 71
     0
 40
0.06
 41
0.06
280
     0
281
     0
  7
Standard
140
0.18
170
     2
 62
     0
 63
     7
283
     0
274
    -2
284
     1
 64
     0
275
    -2
285
     1
 65
     0
276
    -2
286
     1
 66
     0
277
    -2
287
     1
 67
     0
278
    -2
288
     1
 68
     0
279
    -2
289
     1
 69
     0
  7
Standard
140
0.25
170
     5
 62
     0
 63
     7
283
     0
274
    -2
284
     1
 64
     0
275
    -2
285
     1
 65
     0
276
    -2
286
     1
 66
     0
277
    -2
287
     1
 67
     0
278
    -2
288
     1
 68
     0
279
    -2
289
     1
 69
     0
  7
Standard
140
0.18
170
     5
 62
     0
 63
     7
283
     0
274
    -2
284
     1
 64
     0
275
    -2
285
     1
 65
     0
276
    -2
286
     1
 66
     0
277
    -2
287
     1
 67
     0
278
    -2
288
     1
 68
     0
279
    -2
289
     1
 69
     0
  0
DICTIONARYVAR
  5
98
102
{ACAD_REACTORS
330
59
102
}
330
59
100
DictionaryVariables
280
     0
  1
STANDARD
  0
DICTIONARYVAR
  5
3C3
102
{ACAD_REACTORS
330
59
102
}
330
59
100
DictionaryVariables
280
     0
  1
2
  0
ENDSEC
  0
EOF
