  0
SECTION
  2
HEADER
  9
$ACADVER
  1
AC1018
  9
$ACADMAINTVER
 70
    39
  9
$DWGCODEPAGE
  3
ANSI_1252
  9
$LASTSAVEDBY
  1
fottrem
  9
$INSBASE
 10
0.0
 20
0.0
 30
0.0
  9
$EXTMIN
 10
0.1653543307086614
 20
0.1653543307086614
 30
-6.310139009019255
  9
$EXTMAX
 10
80.20964566929135
 20
99.83464566929135
 30
2.788774964845078
  9
$LIMMIN
 10
0.0
 20
0.0
  9
$LIMMAX
 10
80.375
 20
100.0
  9
$ORTHOMODE
 70
     0
  9
$REGENMODE
 70
     1
  9
$FILLMODE
 70
     1
  9
$QTEXTMODE
 70
     0
  9
$MIRRTEXT
 70
     1
  9
$LTSCALE
 40
1.0
  9
$ATTMODE
 70
     1
  9
$TEXTSIZE
 40
0.7500000000000001
  9
$TRACEWID
 40
0.05
  9
$TEXTSTYLE
  7
Standard
  9
$CLAYER
  8
0
  9
$CELTYPE
  6
ByLayer
  9
$CECOLOR
 62
   256
  9
$CELTSCALE
 40
1.0
  9
$DISPSILH
 70
     0
  9
$DIMSCALE
 40
1.0
  9
$DIMASZ
 40
0.7500000000000001
  9
$DIMEXO
 40
0.1666666666666667
  9
$DIMDLI
 40
0.38
  9
$DIMRND
 40
0.0
  9
$DIMDLE
 40
0.0
  9
$DIMEXE
 40
0.3750000000000001
  9
$DIMTP
 40
0.0
  9
$DIMTM
 40
0.0
  9
$DIMTXT
 40
0.7500000000000001
  9
$DIMCEN
 40
0.09
  9
$DIMTSZ
 40
0.0
  9
$DIMTOL
 70
     0
  9
$DIMLIM
 70
     0
  9
$DIMTIH
 70
     1
  9
$DIMTOH
 70
     1
  9
$DIMSE1
 70
     0
  9
$DIMSE2
 70
     0
  9
$DIMTAD
 70
     0
  9
$DIMZIN
 70
     1
  9
$DIMBLK
  1

  9
$DIMASO
 70
     1
  9
$DIMSHO
 70
     1
  9
$DIMPOST
  1

  9
$DIMAPOST
  1

  9
$DIMALT
 70
     0
  9
$DIMALTD
 70
     2
  9
$DIMALTF
 40
25.4
  9
$DIMLFAC
 40
1.0
  9
$DIMTOFL
 70
     0
  9
$DIMTVP
 40
0.0
  9
$DIMTIX
 70
     0
  9
$DIMSOXD
 70
     0
  9
$DIMSAH
 70
     0
  9
$DIMBLK1
  1

  9
$DIMBLK2
  1

  9
$DIMSTYLE
  2
Standard
  9
$DIMCLRD
 70
     0
  9
$DIMCLRE
 70
     0
  9
$DIMCLRT
 70
     0
  9
$DIMTFAC
 40
1.0
  9
$DIMGAP
 40
0.125
  9
$DIMJUST
 70
     0
  9
$DIMSD1
 70
     0
  9
$DIMSD2
 70
     0
  9
$DIMTOLJ
 70
     1
  9
$DIMTZIN
 70
     1
  9
$DIMALTZ
 70
     0
  9
$DIMALTTZ
 70
     0
  9
$DIMUPT
 70
     0
  9
$DIMDEC
 70
     2
  9
$DIMTDEC
 70
     2
  9
$DIMALTU
 70
     2
  9
$DIMALTTD
 70
     2
  9
$DIMTXSTY
  7
Standard
  9
$DIMAUNIT
 70
     0
  9
$DIMADEC
 70
     2
  9
$DIMALTRND
 40
0.0
  9
$DIMAZIN
 70
     0
  9
$DIMDSEP
 70
    46
  9
$DIMATFIT
 70
     3
  9
$DIMFRAC
 70
     0
  9
$DIMLDRBLK
  1

  9
$DIMLUNIT
 70
     2
  9
$DIMLWD
 70
    -2
  9
$DIMLWE
 70
    -2
  9
$DIMTMOVE
 70
     0
  9
$LUNITS
 70
     2
  9
$LUPREC
 70
     4
  9
$SKETCHINC
 40
0.1
  9
$FILLETRAD
 40
0.5
  9
$AUNITS
 70
     0
  9
$AUPREC
 70
     2
  9
$MENU
  1
.
  9
$ELEVATION
 40
0.0
  9
$PELEVATION
 40
0.0
  9
$THICKNESS
 40
0.0
  9
$LIMCHECK
 70
     0
  9
$CHAMFERA
 40
0.0
  9
$CHAMFERB
 40
0.0
  9
$CHAMFERC
 40
0.0
  9
$CHAMFERD
 40
0.0
  9
$SKPOLY
 70
     0
  9
$TDCREATE
 40
2453353.550459155
  9
$TDUCREATE
 40
2453353.717125822
  9
$TDUPDATE
 40
2459488.564574549
  9
$TDUUPDATE
 40
2459488.731241215
  9
$TDINDWG
 40
0.0538541782
  9
$TDUSRTIMER
 40
0.0538541782
  9
$USRTIMER
 70
     1
  9
$ANGBASE
 50
0.0
  9
$ANGDIR
 70
     0
  9
$PDMODE
 70
     0
  9
$PDSIZE
 40
-1.0
  9
$PLINEWID
 40
0.0
  9
$SPLFRAME
 70
     0
  9
$SPLINETYPE
 70
     6
  9
$SPLINESEGS
 70
     8
  9
$HANDSEED
  5
504
  9
$SURFTAB1
 70
     6
  9
$SURFTAB2
 70
     6
  9
$SURFTYPE
 70
     6
  9
$SURFU
 70
     6
  9
$SURFV
 70
     6
  9
$UCSBASE
  2

  9
$UCSNAME
  2

  9
$UCSORG
 10
0.0
 20
0.0
 30
0.0
  9
$UCSXDIR
 10
1.0
 20
0.0
 30
0.0
  9
$UCSYDIR
 10
0.0
 20
1.0
 30
0.0
  9
$UCSORTHOREF
  2

  9
$UCSORTHOVIEW
 70
     0
  9
$UCSORGTOP
 10
0.0
 20
0.0
 30
0.0
  9
$UCSORGBOTTOM
 10
0.0
 20
0.0
 30
0.0
  9
$UCSORGLEFT
 10
0.0
 20
0.0
 30
0.0
  9
$UCSORGRIGHT
 10
0.0
 20
0.0
 30
0.0
  9
$UCSORGFRONT
 10
0.0
 20
0.0
 30
0.0
  9
$UCSORGBACK
 10
0.0
 20
0.0
 30
0.0
  9
$PUCSBASE
  2

  9
$PUCSNAME
  2

  9
$PUCSORG
 10
0.0
 20
0.0
 30
0.0
  9
$PUCSXDIR
 10
1.0
 20
0.0
 30
0.0
  9
$PUCSYDIR
 10
0.0
 20
1.0
 30
0.0
  9
$PUCSORTHOREF
  2

  9
$PUCSORTHOVIEW
 70
     0
  9
$PUCSORGTOP
 10
0.0
 20
0.0
 30
0.0
  9
$PUCSORGBOTTOM
 10
0.0
 20
0.0
 30
0.0
  9
$PUCSORGLEFT
 10
0.0
 20
0.0
 30
0.0
  9
$PUCSORGRIGHT
 10
0.0
 20
0.0
 30
0.0
  9
$PUCSORGFRONT
 10
0.0
 20
0.0
 30
0.0
  9
$PUCSORGBACK
 10
0.0
 20
0.0
 30
0.0
  9
$USERI1
 70
     0
  9
$USERI2
 70
     0
  9
$USERI3
 70
     0
  9
$USERI4
 70
     0
  9
$USERI5
 70
     0
  9
$USERR1
 40
0.0
  9
$USERR2
 40
0.0
  9
$USERR3
 40
0.0
  9
$USERR4
 40
0.0
  9
$USERR5
 40
0.0
  9
$WORLDVIEW
 70
     1
  9
$SHADEDGE
 70
     3
  9
$SHADEDIF
 70
    70
  9
$TILEMODE
 70
     1
  9
$MAXACTVP
 70
    64
  9
$PINSBASE
 10
0.0
 20
0.0
 30
0.0
  9
$PLIMCHECK
 70
     0
  9
$PEXTMIN
 10
1.000000000000000E+20
 20
1.000000000000000E+20
 30
1.000000000000000E+20
  9
$PEXTMAX
 10
-1.000000000000000E+20
 20
-1.000000000000000E+20
 30
-1.000000000000000E+20
  9
$PLIMMIN
 10
0.0
 20
0.0
  9
$PLIMMAX
 10
12.0
 20
9.0
  9
$UNITMODE
 70
     0
  9
$VISRETAIN
 70
     1
  9
$PLINEGEN
 70
     0
  9
$PSLTSCALE
 70
     1
  9
$TREEDEPTH
 70
  3020
  9
$CMLSTYLE
  2
Standard
  9
$CMLJUST
 70
     0
  9
$CMLSCALE
 40
1.0
  9
$PROXYGRAPHICS
 70
     1
  9
$MEASUREMENT
 70
     0
  9
$CELWEIGHT
370
    -1
  9
$ENDCAPS
280
     0
  9
$JOINSTYLE
280
     0
  9
$LWDISPLAY
290
     1
  9
$INSUNITS
 70
     1
  9
$HYPERLINKBASE
  1

  9
$STYLESHEET
  1

  9
$XEDIT
290
     0
  9
$CEPSNTYPE
380
     0
  9
$PSTYLEMODE
290
     1
  9
$FINGERPRINTGUID
  2
{858beb37-ced5-4189-b893-bd4f268ce865}
  9
$VERSIONGUID
  2
{FAEB1C32-E019-11D5-929B-00C0DF256EC4}
  9
$EXTNAMES
290
     1
  9
$PSVPSCALE
 40
0.0
  9
$OLESTARTUP
290
     0
  9
$SORTENTS
280
   127
  9
$INDEXCTL
280
     0
  9
$HIDETEXT
280
     1
  9
$XCLIPFRAME
290
     0
  9
$HALOGAP
280
     0
  9
$OBSCOLOR
 70
   257
  9
$OBSLTYPE
280
     0
  9
$INTERSECTIONDISPLAY
280
     0
  9
$INTERSECTIONCOLOR
 70
   257
  9
$DIMASSOC
280
     2
  9
$PROJECTNAME
  1

  0
ENDSEC
  0
SECTION
  2
CLASSES
  0
CLASS
  1
ACDBDICTIONARYWDFLT
  2
AcDbDictionaryWithDefault
  3
ObjectDBX Classes
 90
        0
 91
        3
280
     0
281
     0
  0
CLASS
  1
ACDBPLACEHOLDER
  2
AcDbPlaceHolder
  3
ObjectDBX Classes
 90
        0
 91
        1
280
     0
281
     0
  0
CLASS
  1
LAYOUT
  2
AcDbLayout
  3
ObjectDBX Classes
 90
        0
 91
        1
280
     0
281
     0
  0
CLASS
  1
DICTIONARYVAR
  2
AcDbDictionaryVar
  3
ObjectDBX Classes
 90
        0
 91
        3
280
     0
281
     0
  0
CLASS
  1
TABLESTYLE
  2
AcDbTableStyle
  3
ObjectDBX Classes
 90
     2047
 91
        3
280
     0
281
     0
  0
CLASS
  1
SCALE
  2
AcDbScale
  3
ObjectDBX Classes
 90
     1153
 91
       67
280
     1
281
     0
  0
ENDSEC
  0
SECTION
  2
TABLES
  0
TABLE
  2
VPORT
  5
8
330
0
100
AcDbSymbolTable
 70
     2
  0
VPORT
  5
97
330
8
100
AcDbSymbolTableRecord
100
AcDbViewportTableRecord
  2
*Active
 70
     0
 10
0.0
 20
0.0
 11
1.0
 21
1.0
 12
40.18750000000001
 22
50.00000000000001
 13
0.0
 23
0.0
 14
0.5
 24
0.5
 15
0.5
 25
0.5
 16
0.0
 26
0.0
 36
1.0
 17
0.0
 27
0.0
 37
0.0
 40
101.6626771653543
 41
0.80375
 42
50.0
 43
0.0
 44
0.0
 50
0.0
 51
0.0
 71
    16
 72
  2000
 73
     1
 74
     1
 75
     0
 76
     0
 77
     0
 78
     0
281
     0
 65
     0
110
0.0
120
0.0
130
0.0
111
1.0
121
0.0
131
0.0
112
0.0
122
1.0
132
0.0
 79
     0
146
0.0
  0
ENDTAB
  0
TABLE
  2
LTYPE
  5
5
330
0
100
AcDbSymbolTable
 70
     8
  0
LTYPE
  5
14
330
5
100
AcDbSymbolTableRecord
100
AcDbLinetypeTableRecord
  2
ByBlock
 70
     0
  3

 72
    65
 73
     0
 40
0.0
  0
LTYPE
  5
15
330
5
100
AcDbSymbolTableRecord
100
AcDbLinetypeTableRecord
  2
ByLayer
 70
     0
  3

 72
    65
 73
     0
 40
0.0
  0
LTYPE
  5
16
330
5
100
AcDbSymbolTableRecord
100
AcDbLinetypeTableRecord
  2
Continuous
 70
     0
  3
Solid line
 72
    65
 73
     0
 40
0.0
  0
LTYPE
  5
4D4
330
5
100
AcDbSymbolTableRecord
100
AcDbLinetypeTableRecord
  2
SLD-Solid
 70
     0
  3
SolidWorks Line Style
 72
    65
 73
     0
 40
0.0
  0
LTYPE
  5
4D5
330
5
100
AcDbSymbolTableRecord
100
AcDbLinetypeTableRecord
  2
SLD-Dashed
 70
     0
  3
SolidWorks Line Style
 72
    65
 73
     2
 40
0.075
 49
0.05
 74
     4
 75
     0
340
0
 46
1.0
 50
0.0
 44
0.0
 45
0.0
 49
-0.025
 74
     4
 75
     0
340
0
 46
1.0
 50
0.0
 44
0.0
 45
0.0
  0
LTYPE
  5
4D6
330
5
100
AcDbSymbolTableRecord
100
AcDbLinetypeTableRecord
  2
SLD-Phantom
 70
     0
  3
SolidWorks Line Style
 72
    65
 73
     6
 40
0.4999999999999999
 49
0.25
 74
     4
 75
     0
340
0
 46
1.0
 50
0.0
 44
0.0
 45
0.0
 49
-0.05
 74
     4
 75
     0
340
0
 46
1.0
 50
0.0
 44
0.0
 45
0.0
 49
0.05
 74
     4
 75
     0
340
0
 46
1.0
 50
0.0
 44
0.0
 45
0.0
 49
-0.05
 74
     4
 75
     0
340
0
 46
1.0
 50
0.0
 44
0.0
 45
0.0
 49
0.05
 74
     4
 75
     0
340
0
 46
1.0
 50
0.0
 44
0.0
 45
0.0
 49
-0.05
 74
     4
 75
     0
340
0
 46
1.0
 50
0.0
 44
0.0
 45
0.0
  0
LTYPE
  5
4D7
330
5
100
AcDbSymbolTableRecord
100
AcDbLinetypeTableRecord
  2
SLD-Chain
 70
     0
  3
SolidWorks Line Style
 72
    65
 73
     4
 40
0.4
 49
0.25
 74
     4
 75
     0
340
0
 46
1.0
 50
0.0
 44
0.0
 45
0.0
 49
-0.05
 74
     4
 75
     0
340
0
 46
1.0
 50
0.0
 44
0.0
 45
0.0
 49
0.05
 74
     4
 75
     0
340
0
 46
1.0
 50
0.0
 44
0.0
 45
0.0
 49
-0.05
 74
     4
 75
     0
340
0
 46
1.0
 50
0.0
 44
0.0
 45
0.0
  0
LTYPE
  5
4D8
330
5
100
AcDbSymbolTableRecord
100
AcDbLinetypeTableRecord
  2
SLD-Center
 70
     0
  3
SolidWorks Line Style
 72
    65
 73
     4
 40
0.7500000000000002
 49
0.6000000000000001
 74
     4
 75
     0
340
0
 46
1.0
 50
0.0
 44
0.0
 45
0.0
 49
-0.05
 74
     4
 75
     0
340
0
 46
1.0
 50
0.0
 44
0.0
 45
0.0
 49
0.05
 74
     4
 75
     0
340
0
 46
1.0
 50
0.0
 44
0.0
 45
0.0
 49
-0.05
 74
     4
 75
     0
340
0
 46
1.0
 50
0.0
 44
0.0
 45
0.0
  0
LTYPE
  5
4D9
330
5
100
AcDbSymbolTableRecord
100
AcDbLinetypeTableRecord
  2
SLD-Stitch
 70
     0
  3
SolidWorks Line Style
 72
    65
 73
     2
 40
0.025
 49
0.0
 74
     4
 75
     0
340
0
 46
1.0
 50
0.0
 44
0.0
 45
0.0
 49
-0.025
 74
     4
 75
     0
340
0
 46
1.0
 50
0.0
 44
0.0
 45
0.0
  0
LTYPE
  5
4DA
330
5
100
AcDbSymbolTableRecord
100
AcDbLinetypeTableRecord
  2
SLD-Thin-Thick-Chain
 70
     0
  3
SolidWorks Line Style
 72
    65
 73
     4
 40
0.4
 49
0.25
 74
     4
 75
     0
340
0
 46
1.0
 50
0.0
 44
0.0
 45
0.0
 49
-0.05
 74
     4
 75
     0
340
0
 46
1.0
 50
0.0
 44
0.0
 45
0.0
 49
0.05
 74
     4
 75
     0
340
0
 46
1.0
 50
0.0
 44
0.0
 45
0.0
 49
-0.05
 74
     4
 75
     0
340
0
 46
1.0
 50
0.0
 44
0.0
 45
0.0
  0
ENDTAB
  0
TABLE
  2
LAYER
  5
2
330
0
100
AcDbSymbolTable
 70
     6
  0
LAYER
  5
10
330
2
100
AcDbSymbolTableRecord
100
AcDbLayerTableRecord
  2
0
 70
     0
 62
     7
  6
Continuous
370
    -3
390
F
  0
LAYER
  5
4DB
330
2
100
AcDbSymbolTableRecord
100
AcDbLayerTableRecord
  2
FORMAT
 70
     0
 62
     7
  6
SLD-Solid
370
    -3
390
F
  0
LAYER
  5
4DC
330
2
100
AcDbSymbolTableRecord
100
AcDbLayerTableRecord
  2
NOTES
 70
     0
 62
     1
  6
SLD-Solid
370
    -3
390
F
  0
LAYER
  5
77
330
2
100
AcDbSymbolTableRecord
100
AcDbLayerTableRecord
  2
OBJECT
 70
     0
 62
     7
  6
SLD-Solid
370
    -3
390
F
  0
LAYER
  5
78
330
2
100
AcDbSymbolTableRecord
100
AcDbLayerTableRecord
  2
DIMS
 70
     0
 62
     5
  6
SLD-Solid
370
    -3
390
F
  0
LAYER
  5
79
330
2
100
AcDbSymbolTableRecord
100
AcDbLayerTableRecord
  2
TITLE
 70
     0
 62
     8
  6
SLD-Solid
370
    -3
390
F
  0
ENDTAB
  0
TABLE
  2
STYLE
  5
3
330
0
100
AcDbSymbolTable
 70
     5
  0
STYLE
  5
11
330
3
100
AcDbSymbolTableRecord
100
AcDbTextStyleTableRecord
  2
Standard
 70
     0
 40
0.0
 41
1.0
 50
0.0
 71
     0
 42
0.7500000000000001
  3
GOTHIC.TTF
  4

1001
ACAD
1000
CENTURY GOTHIC
1071
       34
  0
STYLE
  5
13D
330
3
100
AcDbSymbolTableRecord
100
AcDbTextStyleTableRecord
  2
SLDTEXTSTYLE0
 70
     0
 40
0.0
 41
0.948
 50
0.0
 71
     0
 42
0.7500000000000001
  3
ARIAL.TTF
  4

1001
ACAD
1000
Arial
1071
      290
  0
STYLE
  5
141
330
3
100
AcDbSymbolTableRecord
100
AcDbTextStyleTableRecord
  2
SLDTEXTSTYLE1
 70
     0
 40
0.0
 41
0.913
 50
0.0
 71
     0
 42
0.7500000000000001
  3
GOTHIC.TTF
  4

1001
ACAD
1000
Century Gothic
1071
      290
  0
STYLE
  5
150
330
3
100
AcDbSymbolTableRecord
100
AcDbTextStyleTableRecord
  2
SLDTEXTSTYLE2
 70
     0
 40
0.0
 41
0.87
 50
0.0
 71
     0
 42
0.7500000000000001
  3
ARIALNB.TTF
  4

1001
ACAD
1000
Arial Narrow
1071
 33554722
  0
STYLE
  5
152
330
3
100
AcDbSymbolTableRecord
100
AcDbTextStyleTableRecord
  2
SLDTEXTSTYLE3
 70
     0
 40
0.0
 41
0.87
 50
0.0
 71
     0
 42
0.7500000000000001
  3
ARIALN.TTF
  4

1001
ACAD
1000
Arial Narrow
1071
      290
  0
ENDTAB
  0
TABLE
  2
VIEW
  5
6
330
0
100
AcDbSymbolTable
 70
     0
  0
ENDTAB
  0
TABLE
  2
UCS
  5
7
330
0
100
AcDbSymbolTable
 70
     0
  0
ENDTAB
  0
TABLE
  2
APPID
  5
9
330
0
100
AcDbSymbolTable
 70
     1
  0
APPID
  5
12
330
9
100
AcDbSymbolTableRecord
100
AcDbRegAppTableRecord
  2
ACAD
 70
     0
  0
ENDTAB
  0
TABLE
  2
DIMSTYLE
  5
A
330
0
100
AcDbSymbolTable
 70
     6
100
AcDbDimStyleTable
  0
DIMSTYLE
105
27
330
A
100
AcDbSymbolTableRecord
100
AcDbDimStyleTableRecord
  2
Standard
 70
     0
340
11
  0
DIMSTYLE
105
329
102
{ACAD_REACTORS
330
328
330
42C
330
437
102
}
330
A
100
AcDbSymbolTableRecord
100
AcDbDimStyleTableRecord
  2
SLDDIMSTYLE0
 70
     0
 41
0.7500000000000001
 44
0.0
 45
0.000000001
 78
    12
 79
     3
140
0.7500000000000001
147
0.1875
173
     1
271
     2
272
     2
276
     2
277
     5
284
    12
340
141
341
4DD
343
4DD
344
4DD
  0
DIMSTYLE
105
33C
102
{ACAD_REACTORS
330
33B
330
384
330
442
330
45E
330
4BE
102
}
330
A
100
AcDbSymbolTableRecord
100
AcDbDimStyleTableRecord
  2
SLDDIMSTYLE1
 70
     0
 41
0.7500000000000001
 44
0.0
 45
0.000000001
 78
    12
 79
     3
140
0.7500000000000001
147
0.1875
173
     1
271
     6
272
     2
276
     2
277
     5
284
    12
340
141
341
4DD
343
4DD
344
4DD
  0
DIMSTYLE
105
34C
102
{ACAD_REACTORS
330
34B
102
}
330
A
100
AcDbSymbolTableRecord
100
AcDbDimStyleTableRecord
  2
SLDDIMSTYLE2
 70
     0
 41
0.7500000000000001
 44
0.0
 45
0.000000001
 78
    12
 79
     3
140
0.7500000000000001
147
0.1875
172
     1
173
     1
271
     2
272
     2
276
     2
277
     5
284
    12
289
     0
340
141
341
4DD
343
4DD
344
4DD
  0
DIMSTYLE
105
35A
330
A
100
AcDbSymbolTableRecord
100
AcDbDimStyleTableRecord
  2
SLDDIMSTYLE3
 70
     0
 41
0.7500000000000001
 44
0.0
 45
0.000000001
146
0.7500000000000001
147
0.0
173
     1
271
     0
272
     0
276
     2
277
     5
340
11
341
4DD
343
4DD
344
4DD
  0
DIMSTYLE
105
452
102
{ACAD_REACTORS
330
451
102
}
330
A
100
AcDbSymbolTableRecord
100
AcDbDimStyleTableRecord
  2
SLDDIMSTYLE4
 70
     0
 41
0.7500000000000001
 44
0.0
 45
0.000000001
 78
    12
 79
     3
140
0.7500000000000001
141
0.0
147
0.1875
173
     1
271
     2
272
     2
276
     2
277
     5
284
    12
340
141
341
4DD
343
4DD
344
4DD
  0
ENDTAB
  0
TABLE
  2
BLOCK_RECORD
  5
1
330
0
100
AcDbSymbolTable
 70
    14
  0
BLOCK_RECORD
  5
1F
330
1
100
AcDbSymbolTableRecord
100
AcDbBlockTableRecord
  2
*Model_Space
340
22
  0
BLOCK_RECORD
  5
73
330
1
100
AcDbSymbolTableRecord
100
AcDbBlockTableRecord
  2
*Paper_Space
340
74
  0
BLOCK_RECORD
  5
4DD
330
1
100
AcDbSymbolTableRecord
100
AcDbBlockTableRecord
  2
_Open90
340
0
102
{BLKREFS
331
333
331
334
331
340
331
341
331
350
331
351
331
388
331
389
331
430
331
431
331
43B
331
43C
331
446
331
447
331
456
331
462
331
463
331
4C2
331
4C3
102
}
  0
BLOCK_RECORD
  5
23
330
1
100
AcDbSymbolTableRecord
100
AcDbBlockTableRecord
  2
*Paper_Space1
340
26
  0
BLOCK_RECORD
  5
147
330
1
100
AcDbSymbolTableRecord
100
AcDbBlockTableRecord
  2
SW_NOTE_0
340
0
  0
BLOCK_RECORD
  5
14D
330
1
100
AcDbSymbolTableRecord
100
AcDbBlockTableRecord
  2
SW_NOTE_0_1
340
0
102
{BLKREFS
331
156
102
}
  0
BLOCK_RECORD
  5
330
330
1
100
AcDbSymbolTableRecord
100
AcDbBlockTableRecord
  2
_D
340
0
  0
BLOCK_RECORD
  5
33D
330
1
100
AcDbSymbolTableRecord
100
AcDbBlockTableRecord
  2
_D_1
340
0
  0
BLOCK_RECORD
  5
34D
330
1
100
AcDbSymbolTableRecord
100
AcDbBlockTableRecord
  2
_D_2
340
0
  0
BLOCK_RECORD
  5
385
330
1
100
AcDbSymbolTableRecord
100
AcDbBlockTableRecord
  2
_D_3
340
0
  0
BLOCK_RECORD
  5
42D
330
1
100
AcDbSymbolTableRecord
100
AcDbBlockTableRecord
  2
_D_4
340
0
  0
BLOCK_RECORD
  5
438
330
1
100
AcDbSymbolTableRecord
100
AcDbBlockTableRecord
  2
_D_5
340
0
  0
BLOCK_RECORD
  5
443
330
1
100
AcDbSymbolTableRecord
100
AcDbBlockTableRecord
  2
_D_6
340
0
  0
BLOCK_RECORD
  5
453
330
1
100
AcDbSymbolTableRecord
100
AcDbBlockTableRecord
  2
_D_7
340
0
  0
BLOCK_RECORD
  5
45F
330
1
100
AcDbSymbolTableRecord
100
AcDbBlockTableRecord
  2
_D_8
340
0
  0
BLOCK_RECORD
  5
4BF
330
1
100
AcDbSymbolTableRecord
100
AcDbBlockTableRecord
  2
_D_9
340
0
  0
ENDTAB
  0
ENDSEC
  0
SECTION
  2
BLOCKS
  0
BLOCK
  5
20
330
1F
100
AcDbEntity
  8
0
100
AcDbBlockBegin
  2
*Model_Space
 70
     0
 71
     0
 10
0.0
 20
0.0
 30
0.0
  3
*Model_Space
  1

  0
ENDBLK
  5
21
330
1F
100
AcDbEntity
  8
0
100
AcDbBlockEnd
  0
BLOCK
  5
75
330
73
100
AcDbEntity
 67
     1
  8
0
100
AcDbBlockBegin
  2
*Paper_Space
 70
     0
 71
     0
 10
0.0
 20
0.0
 30
0.0
  3
*Paper_Space
  1

  0
ENDBLK
  5
76
330
73
100
AcDbEntity
 67
     1
  8
0
100
AcDbBlockEnd
  0
BLOCK
  5
4DE
330
4DD
100
AcDbEntity
  8
0
100
AcDbBlockBegin
  2
_Open90
 70
     0
 71
     0
 10
0.0
 20
0.0
 30
0.0
  3
_Open90
  1

  0
LINE
  5
32D
330
4DD
100
AcDbEntity
  8
0
  6
ByBlock
 62
     0
370
    -2
100
AcDbLine
 10
-0.5
 20
0.5
 30
0.0
 11
0.0
 21
0.0
 31
0.0
  0
LINE
  5
32E
330
4DD
100
AcDbEntity
  8
0
  6
ByBlock
 62
     0
370
    -2
100
AcDbLine
 10
0.0
 20
0.0
 30
0.0
 11
-0.5
 21
-0.5
 31
0.0
  0
LINE
  5
32F
330
4DD
100
AcDbEntity
  8
0
  6
ByBlock
 62
     0
370
    -2
100
AcDbLine
 10
0.0
 20
0.0
 30
0.0
 11
-1.0
 21
0.0
 31
0.0
  0
ENDBLK
  5
4DF
330
4DD
100
AcDbEntity
  8
0
100
AcDbBlockEnd
  0
BLOCK
  5
4E6
330
23
100
AcDbEntity
  8
0
100
AcDbBlockBegin
  2
*Paper_Space1
 70
     0
 71
     0
 10
0.0
 20
0.0
 30
0.0
  3
*Paper_Space1
  1

  0
ENDBLK
  5
4E7
330
23
100
AcDbEntity
  8
0
100
AcDbBlockEnd
  0
BLOCK
  5
4E8
330
147
100
AcDbEntity
  8
0
100
AcDbBlockBegin
  2
SW_NOTE_0
 70
     0
 71
     0
 10
0.0
 20
0.0
 30
0.0
  3
SW_NOTE_0
  1

  0
MTEXT
  5
14A
330
147
100
AcDbEntity
  8
NOTES
 62
     0
100
AcDbMText
 10
0.0
 20
0.3759780907668229
 30
0.0
 40
0.2916666666666666
 41
0.0
 71
     1
 72
     1
  1
FROST PRODUCTS LTD.
  7
SLDTEXTSTYLE0
 73
     1
 44
1.0
  0
MTEXT
  5
14B
330
147
100
AcDbEntity
  8
NOTES
 62
     0
100
AcDbMText
 10
0.0
 20
-0.0495142708586375
 30
0.0
 40
0.2291666666666666
 41
0.0
 71
     1
 72
     1
  1
5280 JOHN LUCUS DRIVE, BURLINGTON, ON, L7L 5Z9
  7
SLDTEXTSTYLE0
 73
     1
 44
1.0
  0
ENDBLK
  5
4E9
330
147
100
AcDbEntity
  8
0
100
AcDbBlockEnd
  0
BLOCK
  5
4EA
330
14D
100
AcDbEntity
  8
0
100
AcDbBlockBegin
  2
SW_NOTE_0_1
 70
     0
 71
     0
 10
0.0
 20
0.0
 30
0.0
  3
SW_NOTE_0_1
  1

  0
MTEXT
  5
151
330
14D
100
AcDbEntity
  8
NOTES
 62
     0
100
AcDbMText
 10
0.0
 20
0.2381282770514712
 30
0.0
 40
0.1847290640394089
 41
0.0
 71
     1
 72
     1
  1
PROPRIETARY AND CONFIDENTIAL
  7
SLDTEXTSTYLE2
 73
     1
 44
1.0
  0
MTEXT
  5
153
330
14D
100
AcDbEntity
  8
NOTES
 62
     0
100
AcDbMText
 10
0.0
 20
-0.0504364795553608
 30
0.0
 40
0.25
 41
0.0
 71
     1
 72
     1
  1
THE INFORMATION CONTAINED IN THIS DRAWING IS THE SOLE PROPERTY OF 
  7
SLDTEXTSTYLE3
 73
     1
 44
1.0
  0
MTEXT
  5
154
330
14D
100
AcDbEntity
  8
NOTES
 62
     0
100
AcDbMText
 10
0.0
 20
-0.4231398940537119
 30
0.0
 40
0.25
 41
0.0
 71
     1
 72
     1
  1
FROST PRODUCTS LTD.  ANY REPRODUCTION IN PART OR AS A WHOLE WITHOUT 
  7
SLDTEXTSTYLE3
 73
     1
 44
1.0
  0
MTEXT
  5
155
330
14D
100
AcDbEntity
  8
NOTES
 62
     0
100
AcDbMText
 10
0.0
 20
-0.7958433085520636
 30
0.0
 40
0.25
 41
0.0
 71
     1
 72
     1
  1
THE WRITTEN PERMISSION OF FROST PRODUCTS LTD. IS PROHIBITED.
  7
SLDTEXTSTYLE3
 73
     1
 44
1.0
  0
ENDBLK
  5
4EB
330
14D
100
AcDbEntity
  8
0
100
AcDbBlockEnd
  0
BLOCK
  5
4EC
330
330
100
AcDbEntity
  8
0
100
AcDbBlockBegin
  2
_D
 70
     0
 71
     0
 10
0.0
 20
0.0
 30
0.0
  3
_D
  1

  0
INSERT
  5
333
330
330
100
AcDbEntity
  8
DIMS
100
AcDbBlockReference
  2
_Open90
 10
9.212481067903065
 20
23.60232311726968
 30
0.0
 41
0.7500000000000001
 42
0.7500000000000001
 50
270.0000000000004
  0
INSERT
  5
334
330
330
100
AcDbEntity
  8
DIMS
100
AcDbBlockReference
  2
_Open90
 10
9.212481067903068
 20
30.83623677357474
 30
0.0
 41
0.7500000000000001
 42
0.7500000000000001
 50
90.00000000000041
  0
LINE
  5
335
330
330
100
AcDbEntity
  8
DIMS
100
AcDbLine
 10
9.046097091896183
 20
23.60232311726968
 30
0.0
 11
8.837481067903065
 21
23.60232311726968
 31
0.0
  0
LINE
  5
336
330
330
100
AcDbEntity
  8
DIMS
100
AcDbLine
 10
12.90989442555164
 20
30.83623677357474
 30
0.0
 11
8.837481067903068
 21
30.83623677357474
 31
0.0
  0
LINE
  5
337
330
330
100
AcDbEntity
  8
DIMS
100
AcDbLine
 10
9.212481067903068
 20
30.83623677357474
 30
0.0
 11
9.212481067903067
 21
26.94019785217337
 31
0.0
  0
MTEXT
  5
338
330
330
100
AcDbEntity
  8
DIMS
100
AcDbMText
 10
-25.96252656074054
 20
26.70758066554163
 30
0.0
 40
0.7500000000000001
 41
0.0
 71
     1
 72
     1
  1
                                                                                                                             44"(1117mm)Max. height to bottom of dispenser for barrier free installation
  7
SLDTEXTSTYLE1
 73
     1
 44
1.0
  0
MTEXT
  5
339
330
330
100
AcDbEntity
  8
DIMS
100
AcDbMText
 10
8.935397733793387
 20
25.51695566640988
 30
0.0
 40
0.7500000000000001
 41
0.0
 71
     1
 72
     1
  1
  
  7
SLDTEXTSTYLE1
 73
     1
 44
1.0
  0
MTEXT
  5
33A
330
330
100
AcDbEntity
  8
DIMS
100
AcDbMText
 10
9.073939400848229
 20
24.32633066727814
 30
0.0
 40
0.7500000000000001
 41
0.0
 71
     1
 72
     1
  1
 
  7
SLDTEXTSTYLE1
 73
     1
 44
1.0
  0
ENDBLK
  5
4ED
330
330
100
AcDbEntity
  8
0
100
AcDbBlockEnd
  0
BLOCK
  5
4EE
330
33D
100
AcDbEntity
  8
0
100
AcDbBlockBegin
  2
_D_1
 70
     0
 71
     0
 10
0.0
 20
0.0
 30
0.0
  3
_D_1
  1

  0
INSERT
  5
340
330
33D
100
AcDbEntity
  8
DIMS
100
AcDbBlockReference
  2
_Open90
 10
27.16288901898149
 20
37.1887524345181
 30
2.788774964845078
 41
0.7500000000000001
 42
0.7500000000000001
 50
90.00000000000041
  0
INSERT
  5
341
330
33D
100
AcDbEntity
  8
DIMS
100
AcDbBlockReference
  2
_Open90
 10
27.16288901898149
 20
29.80623677357474
 30
2.788774964845078
 41
0.7500000000000001
 42
0.7500000000000001
 50
270.0000000000004
  0
LINE
  5
342
330
33D
100
AcDbEntity
  8
DIMS
100
AcDbLine
 10
26.89830566547097
 20
33.48631729165068
 30
0.0
 11
27.67226405797091
 21
33.48631729165068
 31
0.0
  0
LINE
  5
343
330
33D
100
AcDbEntity
  8
DIMS
100
AcDbLine
 10
24.96031889620332
 20
37.1887524345181
 30
0.0
 11
27.53788901898149
 21
37.1887524345181
 31
0.0
  0
LINE
  5
344
330
33D
100
AcDbEntity
  8
DIMS
100
AcDbLine
 10
25.09919073928442
 20
29.80623677357474
 30
0.0
 11
27.53788901898149
 21
29.80623677357474
 31
0.0
  0
LINE
  5
345
330
33D
100
AcDbEntity
  8
DIMS
100
AcDbLine
 10
27.16288901898149
 20
37.1887524345181
 30
0.0
 11
27.16288901898149
 21
34.39017147858333
 31
0.0
  0
LINE
  5
346
330
33D
100
AcDbEntity
  8
DIMS
100
AcDbLine
 10
27.16288901898149
 20
29.80623677357474
 30
0.0
 11
27.16288901898149
 21
32.42860887205529
 31
0.0
  0
MTEXT
  5
347
330
33D
100
AcDbEntity
  8
DIMS
100
AcDbMText
 10
26.23424315344444
 20
33.83041887771446
 30
0.0
 40
0.7500000000000001
 41
0.0
 71
     1
 72
     1
  1
7
  7
SLDTEXTSTYLE1
 73
     1
 44
1.0
  0
MTEXT
  5
348
330
33D
100
AcDbEntity
  8
DIMS
100
AcDbMText
 10
27.00820152761126
 20
34.37838761253288
 30
0.0
 40
0.7500000000000001
 41
0.0
 71
     1
 72
     1
  1
3
  7
SLDTEXTSTYLE1
 73
     1
 44
1.0
  0
MTEXT
  5
349
330
33D
100
AcDbEntity
  8
DIMS
100
AcDbMText
 10
27.00820152761126
 20
33.38661674642955
 30
0.0
 40
0.7500000000000001
 41
0.0
 71
     1
 72
     1
  1
8
  7
SLDTEXTSTYLE1
 73
     1
 44
1.0
  0
MTEXT
  5
34A
330
33D
100
AcDbEntity
  8
DIMS
100
AcDbMText
 10
27.78215993844432
 20
33.83041887771446
 30
0.0
 40
0.7500000000000001
 41
0.0
 71
     1
 72
     1
  1
"
  7
SLDTEXTSTYLE1
 73
     1
 44
1.0
  0
ENDBLK
  5
4EF
330
33D
100
AcDbEntity
  8
0
100
AcDbBlockEnd
  0
BLOCK
  5
4F0
330
34D
100
AcDbEntity
  8
0
100
AcDbBlockBegin
  2
_D_2
 70
     0
 71
     0
 10
0.0
 20
0.0
 30
0.0
  3
_D_2
  1

  0
INSERT
  5
350
330
34D
100
AcDbEntity
  8
DIMS
100
AcDbBlockReference
  2
_Open90
 10
11.06948196089973
 20
30.83623677357474
 30
2.788774964845078
 41
0.7500000000000001
 42
0.7500000000000001
 50
270.0000000000004
  0
INSERT
  5
351
330
34D
100
AcDbEntity
  8
DIMS
100
AcDbBlockReference
  2
_Open90
 10
11.06948196089973
 20
29.80623677357474
 30
2.788774964845078
 41
0.7500000000000001
 42
0.7500000000000001
 50
90.00000000000041
  0
LINE
  5
352
330
34D
100
AcDbEntity
  8
DIMS
100
AcDbLine
 10
12.90989442555164
 20
30.83623677357474
 30
0.0
 11
10.69448196089973
 21
30.83623677357474
 31
0.0
  0
LINE
  5
353
330
34D
100
AcDbEntity
  8
DIMS
100
AcDbLine
 10
11.71585740595099
 20
29.80623677357474
 30
0.0
 11
10.69448196089973
 21
29.80623677357474
 31
0.0
  0
LINE
  5
354
330
34D
100
AcDbEntity
  8
DIMS
100
AcDbLine
 10
10.81948196089973
 20
28.61855868676346
 30
0.0
 11
11.06948196089973
 21
28.61855868676346
 31
0.0
  0
LINE
  5
355
330
34D
100
AcDbEntity
  8
DIMS
100
AcDbLine
 10
11.06948196089973
 20
28.61855868676346
 30
0.0
 11
11.06948196089973
 21
29.80623677357474
 31
0.0
  0
LINE
  5
356
330
34D
100
AcDbEntity
  8
DIMS
100
AcDbLine
 10
11.06948196089973
 20
30.83623677357474
 30
0.0
 11
11.06948196089973
 21
32.27854446588243
 31
0.0
  0
MTEXT
  5
357
330
34D
100
AcDbEntity
  8
DIMS
100
AcDbMText
 10
9.9559403099399
 20
28.98125399969759
 30
0.0
 40
0.7500000000000001
 41
0.0
 71
     1
 72
     1
  1
1"
  7
SLDTEXTSTYLE1
 73
     1
 44
1.0
  0
ENDBLK
  5
4F1
330
34D
100
AcDbEntity
  8
0
100
AcDbBlockEnd
  0
BLOCK
  5
4F2
330
385
100
AcDbEntity
  8
0
100
AcDbBlockBegin
  2
_D_3
 70
     0
 71
     0
 10
0.0
 20
0.0
 30
0.0
  3
_D_3
  1

  0
INSERT
  5
388
330
385
100
AcDbEntity
  8
DIMS
100
AcDbBlockReference
  2
_Open90
 10
37.79213480489104
 20
38.05495082234626
 30
-0.326837243620996
 41
0.7500000000000001
 42
0.7500000000000001
 50
180.0000000000008
  0
INSERT
  5
389
330
385
100
AcDbEntity
  8
DIMS
100
AcDbBlockReference
  2
_Open90
 10
43.54705703120916
 20
38.05495082234629
 30
-0.326837243620996
 41
0.7500000000000001
 42
0.7500000000000001
 50
0.0000000000007633
  0
LINE
  5
38A
330
385
100
AcDbEntity
  8
DIMS
100
AcDbLine
 10
40.46482010018563
 20
38.13187793867767
 30
0.0
 11
41.23877849268557
 21
38.13187793867767
 31
0.0
  0
LINE
  5
38B
330
385
100
AcDbEntity
  8
DIMS
100
AcDbLine
 10
37.79213480489107
 20
33.60447626972712
 30
0.0
 11
37.79213480489103
 21
38.42995082234626
 31
0.0
  0
LINE
  5
38C
330
385
100
AcDbEntity
  8
DIMS
100
AcDbLine
 10
43.54705703120917
 20
37.08051542869779
 30
0.0
 11
43.54705703120916
 21
38.42995082234629
 31
0.0
  0
LINE
  5
38D
330
385
100
AcDbEntity
  8
DIMS
100
AcDbLine
 10
37.79213480489104
 20
38.05495082234626
 30
0.0
 11
39.8007575881591
 21
38.05495082234626
 31
0.0
  0
LINE
  5
38E
330
385
100
AcDbEntity
  8
DIMS
100
AcDbLine
 10
43.54705703120916
 20
38.05495082234629
 30
0.0
 11
41.6580493192332
 21
38.05495082234628
 31
0.0
  0
MTEXT
  5
38F
330
385
100
AcDbEntity
  8
DIMS
100
AcDbMText
 10
39.8007575881591
 20
38.47597952474145
 30
0.0
 40
0.7500000000000001
 41
0.0
 71
     1
 72
     1
  1
5
  7
SLDTEXTSTYLE1
 73
     1
 44
1.0
  0
MTEXT
  5
390
330
385
100
AcDbEntity
  8
DIMS
100
AcDbMText
 10
40.57471596232592
 20
39.02394825955987
 30
0.0
 40
0.7500000000000001
 41
0.0
 71
     1
 72
     1
  1
3
  7
SLDTEXTSTYLE1
 73
     1
 44
1.0
  0
MTEXT
  5
391
330
385
100
AcDbEntity
  8
DIMS
100
AcDbMText
 10
40.57471596232592
 20
38.03217739345654
 30
0.0
 40
0.7500000000000001
 41
0.0
 71
     1
 72
     1
  1
4
  7
SLDTEXTSTYLE1
 73
     1
 44
1.0
  0
MTEXT
  5
392
330
385
100
AcDbEntity
  8
DIMS
100
AcDbMText
 10
41.34867437315898
 20
38.47597952474145
 30
0.0
 40
0.7500000000000001
 41
0.0
 71
     1
 72
     1
  1
"
  7
SLDTEXTSTYLE1
 73
     1
 44
1.0
  0
ENDBLK
  5
4F3
330
385
100
AcDbEntity
  8
0
100
AcDbBlockEnd
  0
BLOCK
  5
4F4
330
42D
100
AcDbEntity
  8
0
100
AcDbBlockBegin
  2
_D_4
 70
     0
 71
     0
 10
0.0
 20
0.0
 30
0.0
  3
_D_4
  1

  0
INSERT
  5
430
330
42D
100
AcDbEntity
  8
DIMS
100
AcDbBlockReference
  2
_Open90
 10
68.31345691125199
 20
28.82185827801408
 30
-2.788774964845076
 41
0.7500000000000001
 42
0.7500000000000001
 50
0.0000000000004071
  0
INSERT
  5
431
330
42D
100
AcDbEntity
  8
DIMS
100
AcDbBlockReference
  2
_Open90
 10
60.31345691125199
 20
28.82185827801408
 30
-2.788774964845076
 41
0.7500000000000001
 42
0.7500000000000001
 50
180.0000000000004
  0
LINE
  5
432
330
42D
100
AcDbEntity
  8
DIMS
100
AcDbLine
 10
68.31345691125199
 20
32.01457010690807
 30
0.0
 11
68.31345691125199
 21
28.44685827801408
 31
0.0
  0
LINE
  5
433
330
42D
100
AcDbEntity
  8
DIMS
100
AcDbLine
 10
60.31345691125199
 20
32.01457010690807
 30
0.0
 11
60.31345691125199
 21
28.44685827801408
 31
0.0
  0
LINE
  5
434
330
42D
100
AcDbEntity
  8
DIMS
100
AcDbLine
 10
68.31345691125199
 20
28.82185827801408
 30
0.0
 11
64.87619308763631
 21
28.82185827801408
 31
0.0
  0
LINE
  5
435
330
42D
100
AcDbEntity
  8
DIMS
100
AcDbLine
 10
60.31345691125199
 20
28.82185827801408
 30
0.0
 11
64.01265143667648
 21
28.82185827801408
 31
0.0
  0
MTEXT
  5
436
330
42D
100
AcDbEntity
  8
DIMS
100
AcDbMText
 10
64.01265143667648
 20
29.18455359094821
 30
0.0
 40
0.7500000000000001
 41
0.0
 71
     1
 72
     1
  1
8"
  7
SLDTEXTSTYLE1
 73
     1
 44
1.0
  0
ENDBLK
  5
4F5
330
42D
100
AcDbEntity
  8
0
100
AcDbBlockEnd
  0
BLOCK
  5
4F6
330
438
100
AcDbEntity
  8
0
100
AcDbBlockBegin
  2
_D_5
 70
     0
 71
     0
 10
0.0
 20
0.0
 30
0.0
  3
_D_5
  1

  0
INSERT
  5
43B
330
438
100
AcDbEntity
  8
DIMS
100
AcDbBlockReference
  2
_Open90
 10
55.55809196488818
 20
37.18875243451811
 30
-2.788774964845076
 41
0.7500000000000001
 42
0.7500000000000001
 50
90.00000000000024
  0
INSERT
  5
43C
330
438
100
AcDbEntity
  8
DIMS
100
AcDbBlockReference
  2
_Open90
 10
55.55809196488817
 20
32.18123677357475
 30
-2.788774964845076
 41
0.7500000000000001
 42
0.7500000000000001
 50
270.0000000000002
  0
LINE
  5
43D
330
438
100
AcDbEntity
  8
DIMS
100
AcDbLine
 10
57.76066208766638
 20
37.1887524345181
 30
0.0
 11
55.18309196488818
 21
37.18875243451811
 31
0.0
  0
LINE
  5
43E
330
438
100
AcDbEntity
  8
DIMS
100
AcDbLine
 10
60.14679024458532
 20
32.18123677357474
 30
0.0
 11
55.18309196488817
 21
32.18123677357475
 31
0.0
  0
LINE
  5
43F
330
438
100
AcDbEntity
  8
DIMS
100
AcDbLine
 10
55.55809196488818
 20
37.18875243451811
 30
0.0
 11
55.55809196488818
 21
35.16508316587793
 31
0.0
  0
LINE
  5
440
330
438
100
AcDbEntity
  8
DIMS
100
AcDbLine
 10
55.55809196488817
 20
32.18123677357475
 30
0.0
 11
55.55809196488818
 21
33.9744581667462
 31
0.0
  0
MTEXT
  5
441
330
438
100
AcDbEntity
  8
DIMS
100
AcDbMText
 10
55.12632113940827
 20
34.93246597924621
 30
0.0
 40
0.7500000000000001
 41
0.0
 71
     1
 72
     1
  1
5"
  7
SLDTEXTSTYLE1
 73
     1
 44
1.0
  0
ENDBLK
  5
4F7
330
438
100
AcDbEntity
  8
0
100
AcDbBlockEnd
  0
BLOCK
  5
4F8
330
443
100
AcDbEntity
  8
0
100
AcDbBlockBegin
  2
_D_6
 70
     0
 71
     0
 10
0.0
 20
0.0
 30
0.0
  3
_D_6
  1

  0
INSERT
  5
446
330
443
100
AcDbEntity
  8
DIMS
100
AcDbBlockReference
  2
_Open90
 10
55.55809196488816
 20
32.18123677357474
 30
-2.788774964845076
 41
0.7500000000000001
 42
0.7500000000000001
 50
90.00000000000041
  0
INSERT
  5
447
330
443
100
AcDbEntity
  8
DIMS
100
AcDbBlockReference
  2
_Open90
 10
55.55809196488816
 20
29.80623677357474
 30
-2.788774964845076
 41
0.7500000000000001
 42
0.7500000000000001
 50
270.0000000000004
  0
LINE
  5
448
330
443
100
AcDbEntity
  8
DIMS
100
AcDbLine
 10
55.29350861137764
 20
31.01508875737499
 30
0.0
 11
56.06746700387757
 21
31.01508875737499
 31
0.0
  0
LINE
  5
449
330
443
100
AcDbEntity
  8
DIMS
100
AcDbLine
 10
59.14679024458533
 20
32.18123677357474
 30
0.0
 11
55.18309196488816
 21
32.18123677357474
 31
0.0
  0
LINE
  5
44A
330
443
100
AcDbEntity
  8
DIMS
100
AcDbLine
 10
57.59189023776458
 20
29.80623677357474
 30
0.0
 11
55.18309196488816
 21
29.80623677357474
 31
0.0
  0
LINE
  5
44B
330
443
100
AcDbEntity
  8
DIMS
100
AcDbLine
 10
55.55809196488816
 20
32.18123677357474
 30
0.0
 11
55.55809196488816
 21
31.91894294430761
 31
0.0
  0
LINE
  5
44C
330
443
100
AcDbEntity
  8
DIMS
100
AcDbLine
 10
55.55809196488816
 20
29.80623677357474
 30
0.0
 11
55.55809196488816
 21
29.95738033777956
 31
0.0
  0
MTEXT
  5
44D
330
443
100
AcDbEntity
  8
DIMS
100
AcDbMText
 10
54.62944609935111
 20
31.35919034343878
 30
0.0
 40
0.7500000000000001
 41
0.0
 71
     1
 72
     1
  1
2
  7
SLDTEXTSTYLE1
 73
     1
 44
1.0
  0
MTEXT
  5
44E
330
443
100
AcDbEntity
  8
DIMS
100
AcDbMText
 10
55.40340447351793
 20
31.90715907825719
 30
0.0
 40
0.7500000000000001
 41
0.0
 71
     1
 72
     1
  1
3
  7
SLDTEXTSTYLE1
 73
     1
 44
1.0
  0
MTEXT
  5
44F
330
443
100
AcDbEntity
  8
DIMS
100
AcDbMText
 10
55.40340447351793
 20
30.91538821215387
 30
0.0
 40
0.7500000000000001
 41
0.0
 71
     1
 72
     1
  1
8
  7
SLDTEXTSTYLE1
 73
     1
 44
1.0
  0
MTEXT
  5
450
330
443
100
AcDbEntity
  8
DIMS
100
AcDbMText
 10
56.17736288435099
 20
31.35919034343878
 30
0.0
 40
0.7500000000000001
 41
0.0
 71
     1
 72
     1
  1
"
  7
SLDTEXTSTYLE1
 73
     1
 44
1.0
  0
ENDBLK
  5
4F9
330
443
100
AcDbEntity
  8
0
100
AcDbBlockEnd
  0
BLOCK
  5
4FA
330
453
100
AcDbEntity
  8
0
100
AcDbBlockBegin
  2
_D_7
 70
     0
 71
     0
 10
0.0
 20
0.0
 30
0.0
  3
_D_7
  1

  0
INSERT
  5
456
330
453
100
AcDbEntity
  8
DIMS
100
AcDbBlockReference
  2
_Open90
 10
68.36345691125199
 20
32.0946342331963
 30
-2.788774964845076
 41
0.7500000000000001
 42
0.7500000000000001
 50
119.9999999999982
  0
LINE
  5
457
330
453
100
AcDbEntity
  8
DIMS
100
AcDbLine
 10
71.86594907294858
 20
28.68753672001157
 30
0.0
 11
73.19407417033412
 21
28.68753672001157
 31
0.0
  0
LINE
  5
458
330
453
100
AcDbEntity
  8
DIMS
100
AcDbLine
 10
68.36345691125199
 20
32.0946342331963
 30
0.0
 11
70.37495946896638
 21
28.61060960368017
 31
0.0
  0
LINE
  5
459
330
453
100
AcDbEntity
  8
DIMS
100
AcDbLine
 10
70.37495946896638
 20
28.61060960368017
 30
0.0
 11
70.62495946896638
 21
28.61060960368017
 31
0.0
  0
MTEXT
  5
45A
330
453
100
AcDbEntity
  8
DIMS
100
AcDbMText
 10
70.62495946896638
 20
29.02017997677628
 30
0.0
 40
0.7500000000000001
 41
0.0
 71
     1
 72
     1
  1
%%c
  7
SLDTEXTSTYLE1
 73
     1
 44
1.0
  0
MTEXT
  5
45B
330
453
100
AcDbEntity
  8
DIMS
100
AcDbMText
 10
72.25292828753167
 20
29.57960704089377
 30
0.0
 40
0.7500000000000001
 41
0.0
 71
     1
 72
     1
  1
3
  7
SLDTEXTSTYLE1
 73
     1
 44
1.0
  0
MTEXT
  5
45C
330
453
100
AcDbEntity
  8
DIMS
100
AcDbMText
 10
71.975844953422
 20
28.58783617479044
 30
0.0
 40
0.7500000000000001
 41
0.0
 71
     1
 72
     1
  1
16
  7
SLDTEXTSTYLE1
 73
     1
 44
1.0
  0
MTEXT
  5
45D
330
453
100
AcDbEntity
  8
DIMS
100
AcDbMText
 10
73.30397001414129
 20
29.03163830607535
 30
0.0
 40
0.7500000000000001
 41
0.0
 71
     1
 72
     1
  1
"
  7
SLDTEXTSTYLE1
 73
     1
 44
1.0
  0
ENDBLK
  5
4FB
330
453
100
AcDbEntity
  8
0
100
AcDbBlockEnd
  0
BLOCK
  5
4FC
330
45F
100
AcDbEntity
  8
0
100
AcDbBlockBegin
  2
_D_8
 70
     0
 71
     0
 10
0.0
 20
0.0
 30
0.0
  3
_D_8
  1

  0
INSERT
  5
462
330
45F
100
AcDbEntity
  8
DIMS
100
AcDbBlockReference
  2
_Open90
 10
72.59638091273379
 20
35.62623677357474
 30
-2.788774964845076
 41
0.7500000000000001
 42
0.7500000000000001
 50
90.00000000000041
  0
INSERT
  5
463
330
45F
100
AcDbEntity
  8
DIMS
100
AcDbBlockReference
  2
_Open90
 10
72.59638091273379
 20
32.18123677357474
 30
-2.788774964845076
 41
0.7500000000000001
 42
0.7500000000000001
 50
270.0000000000004
  0
LINE
  5
464
330
45F
100
AcDbEntity
  8
DIMS
100
AcDbLine
 10
72.05471420678047
 20
33.99786229910646
 30
0.0
 11
73.38283930416601
 21
33.99786229910646
 31
0.0
  0
LINE
  5
465
330
45F
100
AcDbEntity
  8
DIMS
100
AcDbLine
 10
64.48012357791866
 20
35.62623677357474
 30
0.0
 11
72.97138091273379
 21
35.62623677357474
 31
0.0
  0
LINE
  5
466
330
45F
100
AcDbEntity
  8
DIMS
100
AcDbLine
 10
68.48012357791866
 20
32.18123677357474
 30
0.0
 11
72.97138091273379
 21
32.18123677357474
 31
0.0
  0
LINE
  5
467
330
45F
100
AcDbEntity
  8
DIMS
100
AcDbLine
 10
72.59638091273379
 20
35.62623677357474
 30
0.0
 11
72.59638091273379
 21
34.90171648603909
 31
0.0
  0
LINE
  5
468
330
45F
100
AcDbEntity
  8
DIMS
100
AcDbLine
 10
72.59638091273379
 20
32.18123677357474
 30
0.0
 11
72.59638091273379
 21
32.94015387951104
 31
0.0
  0
MTEXT
  5
469
330
45F
100
AcDbEntity
  8
DIMS
100
AcDbMText
 10
71.39065169475394
 20
34.34196388517024
 30
0.0
 40
0.7500000000000001
 41
0.0
 71
     1
 72
     1
  1
3
  7
SLDTEXTSTYLE1
 73
     1
 44
1.0
  0
MTEXT
  5
46A
330
45F
100
AcDbEntity
  8
DIMS
100
AcDbMText
 10
72.44169342136355
 20
34.88993261998866
 30
0.0
 40
0.7500000000000001
 41
0.0
 71
     1
 72
     1
  1
7
  7
SLDTEXTSTYLE1
 73
     1
 44
1.0
  0
MTEXT
  5
46B
330
45F
100
AcDbEntity
  8
DIMS
100
AcDbMText
 10
72.16461008725388
 20
33.89816175388533
 30
0.0
 40
0.7500000000000001
 41
0.0
 71
     1
 72
     1
  1
16
  7
SLDTEXTSTYLE1
 73
     1
 44
1.0
  0
MTEXT
  5
46C
330
45F
100
AcDbEntity
  8
DIMS
100
AcDbMText
 10
73.49273518463941
 20
34.34196388517024
 30
0.0
 40
0.7500000000000001
 41
0.0
 71
     1
 72
     1
  1
"
  7
SLDTEXTSTYLE1
 73
     1
 44
1.0
  0
ENDBLK
  5
4FD
330
45F
100
AcDbEntity
  8
0
100
AcDbBlockEnd
  0
BLOCK
  5
4FE
330
4BF
100
AcDbEntity
  8
0
100
AcDbBlockBegin
  2
_D_9
 70
     0
 71
     0
 10
0.0
 20
0.0
 30
0.0
  3
_D_9
  1

  0
INSERT
  5
4C2
330
4BF
100
AcDbEntity
  8
DIMS
100
AcDbBlockReference
  2
_Open90
 10
11.77139591569891
 20
44.86038303508654
 30
-6.310139009019255
 41
0.7500000000000001
 42
0.7500000000000001
 50
180.0000000000006
  0
INSERT
  5
4C3
330
4BF
100
AcDbEntity
  8
DIMS
100
AcDbBlockReference
  2
_Open90
 10
25.07365222953667
 20
44.86038303508658
 30
-6.310139009019255
 41
0.7500000000000001
 42
0.7500000000000001
 50
0.0000000000005852
  0
LINE
  5
4C4
330
4BF
100
AcDbEntity
  8
DIMS
100
AcDbLine
 10
17.95317157712999
 20
44.93731015141795
 30
0.0
 11
19.28129667451553
 21
44.93731015141795
 31
0.0
  0
LINE
  5
4C5
330
4BF
100
AcDbEntity
  8
DIMS
100
AcDbLine
 10
11.7713959156989
 20
47.14131495502602
 30
0.0
 11
11.77139591569891
 21
44.48538303508654
 31
0.0
  0
LINE
  5
4C6
330
4BF
100
AcDbEntity
  8
DIMS
100
AcDbLine
 10
25.07365222953666
 20
47.14131495502603
 30
0.0
 11
25.07365222953667
 21
44.48538303508658
 31
0.0
  0
LINE
  5
4C7
330
4BF
100
AcDbEntity
  8
DIMS
100
AcDbLine
 10
11.77139591569891
 20
44.86038303508654
 30
0.0
 11
16.7349423968841
 21
44.86038303508656
 31
0.0
  0
LINE
  5
4C8
330
4BF
100
AcDbEntity
  8
DIMS
100
AcDbLine
 10
25.07365222953667
 20
44.86038303508658
 30
0.0
 11
19.70056768439438
 21
44.86038303508657
 31
0.0
  0
MTEXT
  5
4C9
330
4BF
100
AcDbEntity
  8
DIMS
100
AcDbMText
 10
16.7349423968841
 20
45.28141173748173
 30
0.0
 40
0.7500000000000001
 41
0.0
 71
     1
 72
     1
  1
13
  7
SLDTEXTSTYLE1
 73
     1
 44
1.0
  0
MTEXT
  5
4CA
330
4BF
100
AcDbEntity
  8
DIMS
100
AcDbMText
 10
18.34015079171308
 20
45.82938047230014
 30
0.0
 40
0.7500000000000001
 41
0.0
 71
     1
 72
     1
  1
5
  7
SLDTEXTSTYLE1
 73
     1
 44
1.0
  0
MTEXT
  5
4CB
330
4BF
100
AcDbEntity
  8
DIMS
100
AcDbMText
 10
18.0630674576034
 20
44.83760960619682
 30
0.0
 40
0.7500000000000001
 41
0.0
 71
     1
 72
     1
  1
16
  7
SLDTEXTSTYLE1
 73
     1
 44
1.0
  0
MTEXT
  5
4CC
330
4BF
100
AcDbEntity
  8
DIMS
100
AcDbMText
 10
19.39119259165519
 20
45.28141173748173
 30
0.0
 40
0.7500000000000001
 41
0.0
 71
     1
 72
     1
  1
"
  7
SLDTEXTSTYLE1
 73
     1
 44
1.0
  0
ENDBLK
  5
4FF
330
4BF
100
AcDbEntity
  8
0
100
AcDbBlockEnd
  0
ENDSEC
  0
SECTION
  2
ENTITIES
  0
LINE
  5
7A
330
1F
100
AcDbEntity
  8
TITLE
370
    50
100
AcDbLine
 10
62.89322302401259
 20
1.48761176446163
 30
0.0
 11
79.87498645119503
 21
1.48761176446163
 31
0.0
  0
LINE
  5
7B
330
1F
100
AcDbEntity
  8
TITLE
370
    50
100
AcDbLine
 10
79.87493174424402
 20
5.475360393555786
 30
0.0
 11
69.68553507231782
 21
5.475360393555786
 31
0.0
  0
LINE
  5
7C
330
1F
100
AcDbEntity
  8
TITLE
  6
SLD-Solid
370
    18
100
AcDbLine
 10
0.5
 20
0.5
 30
0.0
 11
0.5
 21
99.5
 31
0.0
  0
LINE
  5
7D
330
1F
100
AcDbEntity
  8
TITLE
  6
SLD-Solid
370
    18
100
AcDbLine
 10
0.5
 20
99.5
 30
0.0
 11
79.875
 21
99.5
 31
0.0
  0
LINE
  5
7E
330
1F
100
AcDbEntity
  8
TITLE
370
    50
100
AcDbLine
 10
62.89322302401259
 20
2.542787723103441
 30
0.0
 11
55.88097912026432
 21
2.54278772310344
 31
0.0
  0
LINE
  5
7F
330
1F
100
AcDbEntity
  8
TITLE
370
    50
100
AcDbLine
 10
62.89322302401259
 20
1.48761176446163
 30
0.0
 11
55.88097912026432
 21
1.487611764461628
 31
0.0
  0
LINE
  5
80
330
1F
100
AcDbEntity
  8
TITLE
  6
SLD-Solid
370
    18
100
AcDbLine
 10
79.875
 20
99.5
 30
0.0
 11
79.875
 21
0.5
 31
0.0
  0
LINE
  5
81
330
1F
100
AcDbEntity
  8
TITLE
  6
SLD-Solid
370
    18
100
AcDbLine
 10
79.875
 20
0.5
 30
0.0
 11
0.5
 21
0.5
 31
0.0
  0
LINE
  5
82
330
1F
100
AcDbEntity
  8
TITLE
370
    50
100
AcDbLine
 10
62.89322302401259
 20
1.48761176446163
 30
0.0
 11
62.89322302401259
 21
3.597963681745253
 31
0.0
  0
LINE
  5
83
330
1F
100
AcDbEntity
  8
TITLE
370
    50
100
AcDbLine
 10
55.88097912026432
 20
3.597963681745253
 30
0.0
 11
55.88097912026432
 21
0.5
 31
0.0
  0
LINE
  5
84
330
1F
100
AcDbEntity
  8
TITLE
370
    50
100
AcDbLine
 10
55.88097912026432
 20
0.5
 30
0.0
 11
79.875
 21
0.5
 31
0.0
  0
LINE
  5
85
330
1F
100
AcDbEntity
  8
TITLE
370
    50
100
AcDbLine
 10
79.87493174424402
 20
5.475360393555786
 30
0.0
 11
79.875
 21
0.5
 31
0.0
  0
LINE
  5
86
330
1F
100
AcDbEntity
  8
TITLE
  6
SLD-Solid
370
    18
100
AcDbLine
 10
0.4999606299212599
 20
50.0
 30
0.0
 11
0.5000393700787401
 21
50.0
 31
0.0
  0
LINE
  5
87
330
1F
100
AcDbEntity
  8
TITLE
370
    50
100
AcDbLine
 10
62.89322302401259
 20
3.597963681745253
 30
0.0
 11
55.88097912026432
 21
3.597963681745253
 31
0.0
  0
LINE
  5
88
330
1F
100
AcDbEntity
  8
TITLE
370
    50
100
AcDbLine
 10
62.89322302401259
 20
3.597963681745253
 30
0.0
 11
79.87476156426074
 21
3.597964834324628
 31
0.0
  0
LINE
  5
89
330
1F
100
AcDbEntity
  8
TITLE
370
    50
100
AcDbLine
 10
69.68553507231782
 20
5.475360393555786
 30
0.0
 11
69.68553507231782
 21
0.4636772425222311
 31
0.0
  0
LINE
  5
8A
330
1F
100
AcDbEntity
  8
TITLE
  6
SLD-Solid
370
    18
100
AcDbLine
 10
40.1875
 20
99.50003937007874
 30
0.0
 11
40.1875
 21
99.49996062992125
 31
0.0
  0
LINE
  5
8B
330
1F
100
AcDbEntity
  8
TITLE
  6
SLD-Solid
370
    18
100
AcDbLine
 10
79.87503937007874
 20
50.0
 30
0.0
 11
79.87496062992125
 21
50.0
 31
0.0
  0
LINE
  5
8C
330
1F
100
AcDbEntity
  8
TITLE
  6
SLD-Solid
370
    18
100
AcDbLine
 10
40.1875
 20
0.4999606299212599
 30
0.0
 11
40.1875
 21
0.5000393700787401
 31
0.0
  0
LINE
  5
8D
330
1F
100
AcDbEntity
  8
TITLE
  6
SLD-Solid
370
    18
100
AcDbLine
 10
0.5
 20
2.755905511811017
 30
0.0
 11
0.1653543307086614
 21
2.755905511811017
 31
0.0
  0
LINE
  5
8E
330
1F
100
AcDbEntity
  8
TITLE
  6
SLD-Solid
370
    18
100
AcDbLine
 10
79.875
 20
2.755905511811017
 30
0.0
 11
80.20964566929135
 21
2.755905511811017
 31
0.0
  0
LINE
  5
8F
330
1F
100
AcDbEntity
  8
TITLE
  6
SLD-Solid
370
    18
100
AcDbLine
 10
0.5
 20
4.724409448818893
 30
0.0
 11
0.1653543307086614
 21
4.724409448818893
 31
0.0
  0
LINE
  5
90
330
1F
100
AcDbEntity
  8
TITLE
  6
SLD-Solid
370
    18
100
AcDbLine
 10
79.875
 20
4.724409448818893
 30
0.0
 11
80.20964566929135
 21
4.724409448818893
 31
0.0
  0
LINE
  5
91
330
1F
100
AcDbEntity
  8
TITLE
  6
SLD-Solid
370
    18
100
AcDbLine
 10
0.5
 20
6.692913385826769
 30
0.0
 11
0.1653543307086614
 21
6.692913385826769
 31
0.0
  0
LINE
  5
500
330
1F
100
AcDbEntity
  8
TITLE
  6
SLD-Solid
370
    18
100
AcDbLine
 10
79.875
 20
6.692913385826769
 30
0.0
 11
80.20964566929135
 21
6.692913385826769
 31
0.0
  0
LINE
  5
501
330
1F
100
AcDbEntity
  8
TITLE
  6
SLD-Solid
370
    18
100
AcDbLine
 10
0.5
 20
8.661417322834644
 30
0.0
 11
0.1653543307086614
 21
8.661417322834644
 31
0.0
  0
LINE
  5
94
330
1F
100
AcDbEntity
  8
TITLE
  6
SLD-Solid
370
    18
100
AcDbLine
 10
79.875
 20
8.661417322834644
 30
0.0
 11
80.20964566929135
 21
8.661417322834644
 31
0.0
  0
LINE
  5
95
330
1F
100
AcDbEntity
  8
TITLE
  6
SLD-Solid
370
    18
100
AcDbLine
 10
0.5
 20
10.62992125984252
 30
0.0
 11
0.1653543307086614
 21
10.62992125984252
 31
0.0
  0
LINE
  5
96
330
1F
100
AcDbEntity
  8
TITLE
  6
SLD-Solid
370
    18
100
AcDbLine
 10
79.875
 20
10.62992125984252
 30
0.0
 11
80.20964566929135
 21
10.62992125984252
 31
0.0
  0
LINE
  5
502
330
1F
100
AcDbEntity
  8
TITLE
  6
SLD-Solid
370
    18
100
AcDbLine
 10
0.5
 20
12.59842519685039
 30
0.0
 11
0.1653543307086614
 21
12.59842519685039
 31
0.0
  0
LINE
  5
503
330
1F
100
AcDbEntity
  8
TITLE
  6
SLD-Solid
370
    18
100
AcDbLine
 10
79.875
 20
12.59842519685039
 30
0.0
 11
80.20964566929135
 21
12.59842519685039
 31
0.0
  0
LINE
  5
99
330
1F
100
AcDbEntity
  8
TITLE
  6
SLD-Solid
370
    18
100
AcDbLine
 10
0.5
 20
14.56692913385827
 30
0.0
 11
0.1653543307086614
 21
14.56692913385827
 31
0.0
  0
LINE
  5
9A
330
1F
100
AcDbEntity
  8
TITLE
  6
SLD-Solid
370
    18
100
AcDbLine
 10
79.875
 20
14.56692913385827
 30
0.0
 11
80.20964566929135
 21
14.56692913385827
 31
0.0
  0
LINE
  5
9B
330
1F
100
AcDbEntity
  8
TITLE
  6
SLD-Solid
370
    18
100
AcDbLine
 10
0.5
 20
16.53543307086614
 30
0.0
 11
0.1653543307086614
 21
16.53543307086614
 31
0.0
  0
LINE
  5
9C
330
1F
100
AcDbEntity
  8
TITLE
  6
SLD-Solid
370
    18
100
AcDbLine
 10
79.875
 20
16.53543307086614
 30
0.0
 11
80.20964566929135
 21
16.53543307086614
 31
0.0
  0
LINE
  5
9D
330
1F
100
AcDbEntity
  8
TITLE
  6
SLD-Solid
370
    18
100
AcDbLine
 10
0.5
 20
18.50393700787401
 30
0.0
 11
0.1653543307086614
 21
18.50393700787401
 31
0.0
  0
LINE
  5
9E
330
1F
100
AcDbEntity
  8
TITLE
  6
SLD-Solid
370
    18
100
AcDbLine
 10
79.875
 20
18.50393700787401
 30
0.0
 11
80.20964566929135
 21
18.50393700787401
 31
0.0
  0
LINE
  5
9F
330
1F
100
AcDbEntity
  8
TITLE
  6
SLD-Solid
370
    18
100
AcDbLine
 10
0.5
 20
20.47244094488189
 30
0.0
 11
0.1653543307086614
 21
20.47244094488189
 31
0.0
  0
LINE
  5
A0
330
1F
100
AcDbEntity
  8
TITLE
  6
SLD-Solid
370
    18
100
AcDbLine
 10
79.875
 20
20.47244094488189
 30
0.0
 11
80.20964566929135
 21
20.47244094488189
 31
0.0
  0
LINE
  5
A1
330
1F
100
AcDbEntity
  8
TITLE
  6
SLD-Solid
370
    18
100
AcDbLine
 10
0.5
 20
22.44094488188976
 30
0.0
 11
0.1653543307086614
 21
22.44094488188976
 31
0.0
  0
LINE
  5
A2
330
1F
100
AcDbEntity
  8
TITLE
  6
SLD-Solid
370
    18
100
AcDbLine
 10
79.875
 20
22.44094488188976
 30
0.0
 11
80.20964566929135
 21
22.44094488188976
 31
0.0
  0
LINE
  5
A3
330
1F
100
AcDbEntity
  8
TITLE
  6
SLD-Solid
370
    18
100
AcDbLine
 10
0.5
 20
24.40944881889764
 30
0.0
 11
0.1653543307086614
 21
24.40944881889764
 31
0.0
  0
LINE
  5
A4
330
1F
100
AcDbEntity
  8
TITLE
  6
SLD-Solid
370
    18
100
AcDbLine
 10
79.875
 20
24.40944881889764
 30
0.0
 11
80.20964566929135
 21
24.40944881889764
 31
0.0
  0
LINE
  5
A5
330
1F
100
AcDbEntity
  8
TITLE
  6
SLD-Solid
370
    18
100
AcDbLine
 10
0.5
 20
26.37795275590551
 30
0.0
 11
0.1653543307086614
 21
26.37795275590551
 31
0.0
  0
LINE
  5
A6
330
1F
100
AcDbEntity
  8
TITLE
  6
SLD-Solid
370
    18
100
AcDbLine
 10
79.875
 20
26.37795275590551
 30
0.0
 11
80.20964566929135
 21
26.37795275590551
 31
0.0
  0
LINE
  5
A7
330
1F
100
AcDbEntity
  8
TITLE
  6
SLD-Solid
370
    18
100
AcDbLine
 10
0.5
 20
28.34645669291339
 30
0.0
 11
0.1653543307086614
 21
28.34645669291339
 31
0.0
  0
LINE
  5
A8
330
1F
100
AcDbEntity
  8
TITLE
  6
SLD-Solid
370
    18
100
AcDbLine
 10
79.875
 20
28.34645669291339
 30
0.0
 11
80.20964566929135
 21
28.34645669291339
 31
0.0
  0
LINE
  5
A9
330
1F
100
AcDbEntity
  8
TITLE
  6
SLD-Solid
370
    18
100
AcDbLine
 10
0.5
 20
30.31496062992126
 30
0.0
 11
0.1653543307086614
 21
30.31496062992126
 31
0.0
  0
LINE
  5
AA
330
1F
100
AcDbEntity
  8
TITLE
  6
SLD-Solid
370
    18
100
AcDbLine
 10
79.875
 20
30.31496062992126
 30
0.0
 11
80.20964566929135
 21
30.31496062992126
 31
0.0
  0
LINE
  5
AB
330
1F
100
AcDbEntity
  8
TITLE
  6
SLD-Solid
370
    18
100
AcDbLine
 10
0.5
 20
32.28346456692914
 30
0.0
 11
0.1653543307086614
 21
32.28346456692914
 31
0.0
  0
LINE
  5
AC
330
1F
100
AcDbEntity
  8
TITLE
  6
SLD-Solid
370
    18
100
AcDbLine
 10
79.875
 20
32.28346456692914
 30
0.0
 11
80.20964566929135
 21
32.28346456692914
 31
0.0
  0
LINE
  5
AD
330
1F
100
AcDbEntity
  8
TITLE
  6
SLD-Solid
370
    18
100
AcDbLine
 10
0.5
 20
34.25196850393701
 30
0.0
 11
0.1653543307086614
 21
34.25196850393701
 31
0.0
  0
LINE
  5
AE
330
1F
100
AcDbEntity
  8
TITLE
  6
SLD-Solid
370
    18
100
AcDbLine
 10
79.875
 20
34.25196850393701
 30
0.0
 11
80.20964566929135
 21
34.25196850393701
 31
0.0
  0
LINE
  5
AF
330
1F
100
AcDbEntity
  8
TITLE
  6
SLD-Solid
370
    18
100
AcDbLine
 10
0.5
 20
36.22047244094488
 30
0.0
 11
0.1653543307086614
 21
36.22047244094488
 31
0.0
  0
LINE
  5
B0
330
1F
100
AcDbEntity
  8
TITLE
  6
SLD-Solid
370
    18
100
AcDbLine
 10
79.875
 20
36.22047244094488
 30
0.0
 11
80.20964566929135
 21
36.22047244094488
 31
0.0
  0
LINE
  5
B1
330
1F
100
AcDbEntity
  8
TITLE
  6
SLD-Solid
370
    18
100
AcDbLine
 10
0.5
 20
38.18897637795276
 30
0.0
 11
0.1653543307086614
 21
38.18897637795276
 31
0.0
  0
LINE
  5
B2
330
1F
100
AcDbEntity
  8
TITLE
  6
SLD-Solid
370
    18
100
AcDbLine
 10
79.875
 20
38.18897637795276
 30
0.0
 11
80.20964566929135
 21
38.18897637795276
 31
0.0
  0
LINE
  5
B3
330
1F
100
AcDbEntity
  8
TITLE
  6
SLD-Solid
370
    18
100
AcDbLine
 10
0.5
 20
40.15748031496063
 30
0.0
 11
0.1653543307086614
 21
40.15748031496063
 31
0.0
  0
LINE
  5
B4
330
1F
100
AcDbEntity
  8
TITLE
  6
SLD-Solid
370
    18
100
AcDbLine
 10
79.875
 20
40.15748031496063
 30
0.0
 11
80.20964566929135
 21
40.15748031496063
 31
0.0
  0
LINE
  5
B5
330
1F
100
AcDbEntity
  8
TITLE
  6
SLD-Solid
370
    18
100
AcDbLine
 10
0.5
 20
42.12598425196851
 30
0.0
 11
0.1653543307086614
 21
42.12598425196851
 31
0.0
  0
LINE
  5
B6
330
1F
100
AcDbEntity
  8
TITLE
  6
SLD-Solid
370
    18
100
AcDbLine
 10
79.875
 20
42.12598425196851
 30
0.0
 11
80.20964566929135
 21
42.12598425196851
 31
0.0
  0
LINE
  5
B7
330
1F
100
AcDbEntity
  8
TITLE
  6
SLD-Solid
370
    18
100
AcDbLine
 10
0.5
 20
44.09448818897638
 30
0.0
 11
0.1653543307086614
 21
44.09448818897638
 31
0.0
  0
LINE
  5
B8
330
1F
100
AcDbEntity
  8
TITLE
  6
SLD-Solid
370
    18
100
AcDbLine
 10
79.875
 20
44.09448818897638
 30
0.0
 11
80.20964566929135
 21
44.09448818897638
 31
0.0
  0
LINE
  5
B9
330
1F
100
AcDbEntity
  8
TITLE
  6
SLD-Solid
370
    18
100
AcDbLine
 10
0.5
 20
46.06299212598425
 30
0.0
 11
0.1653543307086614
 21
46.06299212598425
 31
0.0
  0
LINE
  5
BA
330
1F
100
AcDbEntity
  8
TITLE
  6
SLD-Solid
370
    18
100
AcDbLine
 10
79.875
 20
46.06299212598425
 30
0.0
 11
80.20964566929135
 21
46.06299212598425
 31
0.0
  0
LINE
  5
BB
330
1F
100
AcDbEntity
  8
TITLE
  6
SLD-Solid
370
    18
100
AcDbLine
 10
0.5
 20
48.03149606299213
 30
0.0
 11
0.1653543307086614
 21
48.03149606299213
 31
0.0
  0
LINE
  5
BC
330
1F
100
AcDbEntity
  8
TITLE
  6
SLD-Solid
370
    18
100
AcDbLine
 10
79.875
 20
48.03149606299213
 30
0.0
 11
80.20964566929135
 21
48.03149606299213
 31
0.0
  0
LINE
  5
BD
330
1F
100
AcDbEntity
  8
TITLE
  6
SLD-Solid
370
    18
100
AcDbLine
 10
0.5
 20
50.0
 30
0.0
 11
0.1653543307086614
 21
50.0
 31
0.0
  0
LINE
  5
BE
330
1F
100
AcDbEntity
  8
TITLE
  6
SLD-Solid
370
    18
100
AcDbLine
 10
79.875
 20
50.0
 30
0.0
 11
80.20964566929135
 21
50.0
 31
0.0
  0
LINE
  5
BF
330
1F
100
AcDbEntity
  8
TITLE
  6
SLD-Solid
370
    18
100
AcDbLine
 10
0.5
 20
51.96850393700788
 30
0.0
 11
0.1653543307086614
 21
51.96850393700788
 31
0.0
  0
LINE
  5
C0
330
1F
100
AcDbEntity
  8
TITLE
  6
SLD-Solid
370
    18
100
AcDbLine
 10
79.875
 20
51.96850393700788
 30
0.0
 11
80.20964566929135
 21
51.96850393700788
 31
0.0
  0
LINE
  5
C1
330
1F
100
AcDbEntity
  8
TITLE
  6
SLD-Solid
370
    18
100
AcDbLine
 10
0.5
 20
53.93700787401576
 30
0.0
 11
0.1653543307086614
 21
53.93700787401576
 31
0.0
  0
LINE
  5
C2
330
1F
100
AcDbEntity
  8
TITLE
  6
SLD-Solid
370
    18
100
AcDbLine
 10
79.875
 20
53.93700787401576
 30
0.0
 11
80.20964566929135
 21
53.93700787401576
 31
0.0
  0
LINE
  5
C3
330
1F
100
AcDbEntity
  8
TITLE
  6
SLD-Solid
370
    18
100
AcDbLine
 10
0.5
 20
55.90551181102362
 30
0.0
 11
0.1653543307086614
 21
55.90551181102362
 31
0.0
  0
LINE
  5
C4
330
1F
100
AcDbEntity
  8
TITLE
  6
SLD-Solid
370
    18
100
AcDbLine
 10
79.875
 20
55.90551181102362
 30
0.0
 11
80.20964566929135
 21
55.90551181102362
 31
0.0
  0
LINE
  5
C5
330
1F
100
AcDbEntity
  8
TITLE
  6
SLD-Solid
370
    18
100
AcDbLine
 10
0.5
 20
57.8740157480315
 30
0.0
 11
0.1653543307086614
 21
57.8740157480315
 31
0.0
  0
LINE
  5
C6
330
1F
100
AcDbEntity
  8
TITLE
  6
SLD-Solid
370
    18
100
AcDbLine
 10
79.875
 20
57.8740157480315
 30
0.0
 11
80.20964566929135
 21
57.8740157480315
 31
0.0
  0
LINE
  5
C7
330
1F
100
AcDbEntity
  8
TITLE
  6
SLD-Solid
370
    18
100
AcDbLine
 10
0.5
 20
59.84251968503937
 30
0.0
 11
0.1653543307086614
 21
59.84251968503937
 31
0.0
  0
LINE
  5
C8
330
1F
100
AcDbEntity
  8
TITLE
  6
SLD-Solid
370
    18
100
AcDbLine
 10
79.875
 20
59.84251968503937
 30
0.0
 11
80.20964566929135
 21
59.84251968503937
 31
0.0
  0
LINE
  5
C9
330
1F
100
AcDbEntity
  8
TITLE
  6
SLD-Solid
370
    18
100
AcDbLine
 10
0.5
 20
61.81102362204725
 30
0.0
 11
0.1653543307086614
 21
61.81102362204725
 31
0.0
  0
LINE
  5
CA
330
1F
100
AcDbEntity
  8
TITLE
  6
SLD-Solid
370
    18
100
AcDbLine
 10
79.875
 20
61.81102362204725
 30
0.0
 11
80.20964566929135
 21
61.81102362204725
 31
0.0
  0
LINE
  5
CB
330
1F
100
AcDbEntity
  8
TITLE
  6
SLD-Solid
370
    18
100
AcDbLine
 10
0.5
 20
63.77952755905513
 30
0.0
 11
0.1653543307086614
 21
63.77952755905513
 31
0.0
  0
LINE
  5
CC
330
1F
100
AcDbEntity
  8
TITLE
  6
SLD-Solid
370
    18
100
AcDbLine
 10
79.875
 20
63.77952755905513
 30
0.0
 11
80.20964566929135
 21
63.77952755905513
 31
0.0
  0
LINE
  5
CD
330
1F
100
AcDbEntity
  8
TITLE
  6
SLD-Solid
370
    18
100
AcDbLine
 10
0.5
 20
65.74803149606299
 30
0.0
 11
0.1653543307086614
 21
65.74803149606299
 31
0.0
  0
LINE
  5
CE
330
1F
100
AcDbEntity
  8
TITLE
  6
SLD-Solid
370
    18
100
AcDbLine
 10
79.875
 20
65.74803149606299
 30
0.0
 11
80.20964566929135
 21
65.74803149606299
 31
0.0
  0
LINE
  5
CF
330
1F
100
AcDbEntity
  8
TITLE
  6
SLD-Solid
370
    18
100
AcDbLine
 10
0.5
 20
67.71653543307087
 30
0.0
 11
0.1653543307086614
 21
67.71653543307087
 31
0.0
  0
LINE
  5
D0
330
1F
100
AcDbEntity
  8
TITLE
  6
SLD-Solid
370
    18
100
AcDbLine
 10
79.875
 20
67.71653543307087
 30
0.0
 11
80.20964566929135
 21
67.71653543307087
 31
0.0
  0
LINE
  5
D1
330
1F
100
AcDbEntity
  8
TITLE
  6
SLD-Solid
370
    18
100
AcDbLine
 10
0.5
 20
69.68503937007874
 30
0.0
 11
0.1653543307086614
 21
69.68503937007874
 31
0.0
  0
LINE
  5
D2
330
1F
100
AcDbEntity
  8
TITLE
  6
SLD-Solid
370
    18
100
AcDbLine
 10
79.875
 20
69.68503937007874
 30
0.0
 11
80.20964566929135
 21
69.68503937007874
 31
0.0
  0
LINE
  5
D3
330
1F
100
AcDbEntity
  8
TITLE
  6
SLD-Solid
370
    18
100
AcDbLine
 10
0.5
 20
71.65354330708662
 30
0.0
 11
0.1653543307086614
 21
71.65354330708662
 31
0.0
  0
LINE
  5
D4
330
1F
100
AcDbEntity
  8
TITLE
  6
SLD-Solid
370
    18
100
AcDbLine
 10
79.875
 20
71.65354330708662
 30
0.0
 11
80.20964566929135
 21
71.65354330708662
 31
0.0
  0
LINE
  5
D5
330
1F
100
AcDbEntity
  8
TITLE
  6
SLD-Solid
370
    18
100
AcDbLine
 10
0.5
 20
73.62204724409449
 30
0.0
 11
0.1653543307086614
 21
73.62204724409449
 31
0.0
  0
LINE
  5
D6
330
1F
100
AcDbEntity
  8
TITLE
  6
SLD-Solid
370
    18
100
AcDbLine
 10
79.875
 20
73.62204724409449
 30
0.0
 11
80.20964566929135
 21
73.62204724409449
 31
0.0
  0
LINE
  5
D7
330
1F
100
AcDbEntity
  8
TITLE
  6
SLD-Solid
370
    18
100
AcDbLine
 10
0.5
 20
75.59055118110236
 30
0.0
 11
0.1653543307086614
 21
75.59055118110236
 31
0.0
  0
LINE
  5
D8
330
1F
100
AcDbEntity
  8
TITLE
  6
SLD-Solid
370
    18
100
AcDbLine
 10
79.875
 20
75.59055118110236
 30
0.0
 11
80.20964566929135
 21
75.59055118110236
 31
0.0
  0
LINE
  5
D9
330
1F
100
AcDbEntity
  8
TITLE
  6
SLD-Solid
370
    18
100
AcDbLine
 10
0.5
 20
77.55905511811025
 30
0.0
 11
0.1653543307086614
 21
77.55905511811025
 31
0.0
  0
LINE
  5
DA
330
1F
100
AcDbEntity
  8
TITLE
  6
SLD-Solid
370
    18
100
AcDbLine
 10
79.875
 20
77.55905511811025
 30
0.0
 11
80.20964566929135
 21
77.55905511811025
 31
0.0
  0
LINE
  5
DB
330
1F
100
AcDbEntity
  8
TITLE
  6
SLD-Solid
370
    18
100
AcDbLine
 10
0.5
 20
79.52755905511812
 30
0.0
 11
0.1653543307086614
 21
79.52755905511812
 31
0.0
  0
LINE
  5
DC
330
1F
100
AcDbEntity
  8
TITLE
  6
SLD-Solid
370
    18
100
AcDbLine
 10
79.875
 20
79.52755905511812
 30
0.0
 11
80.20964566929135
 21
79.52755905511812
 31
0.0
  0
LINE
  5
DD
330
1F
100
AcDbEntity
  8
TITLE
  6
SLD-Solid
370
    18
100
AcDbLine
 10
0.5
 20
81.496062992126
 30
0.0
 11
0.1653543307086614
 21
81.496062992126
 31
0.0
  0
LINE
  5
DE
330
1F
100
AcDbEntity
  8
TITLE
  6
SLD-Solid
370
    18
100
AcDbLine
 10
79.875
 20
81.496062992126
 30
0.0
 11
80.20964566929135
 21
81.496062992126
 31
0.0
  0
LINE
  5
DF
330
1F
100
AcDbEntity
  8
TITLE
  6
SLD-Solid
370
    18
100
AcDbLine
 10
0.5
 20
83.46456692913387
 30
0.0
 11
0.1653543307086614
 21
83.46456692913387
 31
0.0
  0
LINE
  5
E0
330
1F
100
AcDbEntity
  8
TITLE
  6
SLD-Solid
370
    18
100
AcDbLine
 10
79.875
 20
83.46456692913387
 30
0.0
 11
80.20964566929135
 21
83.46456692913387
 31
0.0
  0
LINE
  5
E1
330
1F
100
AcDbEntity
  8
TITLE
  6
SLD-Solid
370
    18
100
AcDbLine
 10
0.5
 20
85.43307086614173
 30
0.0
 11
0.1653543307086614
 21
85.43307086614173
 31
0.0
  0
LINE
  5
E2
330
1F
100
AcDbEntity
  8
TITLE
  6
SLD-Solid
370
    18
100
AcDbLine
 10
79.875
 20
85.43307086614173
 30
0.0
 11
80.20964566929135
 21
85.43307086614173
 31
0.0
  0
LINE
  5
E3
330
1F
100
AcDbEntity
  8
TITLE
  6
SLD-Solid
370
    18
100
AcDbLine
 10
0.5
 20
87.40157480314961
 30
0.0
 11
0.1653543307086614
 21
87.40157480314961
 31
0.0
  0
LINE
  5
E4
330
1F
100
AcDbEntity
  8
TITLE
  6
SLD-Solid
370
    18
100
AcDbLine
 10
79.875
 20
87.40157480314961
 30
0.0
 11
80.20964566929135
 21
87.40157480314961
 31
0.0
  0
LINE
  5
E5
330
1F
100
AcDbEntity
  8
TITLE
  6
SLD-Solid
370
    18
100
AcDbLine
 10
0.5
 20
89.37007874015748
 30
0.0
 11
0.1653543307086614
 21
89.37007874015748
 31
0.0
  0
LINE
  5
E6
330
1F
100
AcDbEntity
  8
TITLE
  6
SLD-Solid
370
    18
100
AcDbLine
 10
79.875
 20
89.37007874015748
 30
0.0
 11
80.20964566929135
 21
89.37007874015748
 31
0.0
  0
LINE
  5
E7
330
1F
100
AcDbEntity
  8
TITLE
  6
SLD-Solid
370
    18
100
AcDbLine
 10
0.5
 20
91.33858267716536
 30
0.0
 11
0.1653543307086614
 21
91.33858267716536
 31
0.0
  0
LINE
  5
E8
330
1F
100
AcDbEntity
  8
TITLE
  6
SLD-Solid
370
    18
100
AcDbLine
 10
79.875
 20
91.33858267716536
 30
0.0
 11
80.20964566929135
 21
91.33858267716536
 31
0.0
  0
LINE
  5
E9
330
1F
100
AcDbEntity
  8
TITLE
  6
SLD-Solid
370
    18
100
AcDbLine
 10
0.5
 20
93.30708661417323
 30
0.0
 11
0.1653543307086614
 21
93.30708661417323
 31
0.0
  0
LINE
  5
EA
330
1F
100
AcDbEntity
  8
TITLE
  6
SLD-Solid
370
    18
100
AcDbLine
 10
79.875
 20
93.30708661417323
 30
0.0
 11
80.20964566929135
 21
93.30708661417323
 31
0.0
  0
LINE
  5
EB
330
1F
100
AcDbEntity
  8
TITLE
  6
SLD-Solid
370
    18
100
AcDbLine
 10
0.5
 20
95.2755905511811
 30
0.0
 11
0.1653543307086614
 21
95.2755905511811
 31
0.0
  0
LINE
  5
EC
330
1F
100
AcDbEntity
  8
TITLE
  6
SLD-Solid
370
    18
100
AcDbLine
 10
79.875
 20
95.2755905511811
 30
0.0
 11
80.20964566929135
 21
95.2755905511811
 31
0.0
  0
LINE
  5
ED
330
1F
100
AcDbEntity
  8
TITLE
  6
SLD-Solid
370
    18
100
AcDbLine
 10
0.5
 20
97.24409448818899
 30
0.0
 11
0.1653543307086614
 21
97.24409448818899
 31
0.0
  0
LINE
  5
EE
330
1F
100
AcDbEntity
  8
TITLE
  6
SLD-Solid
370
    18
100
AcDbLine
 10
79.875
 20
97.24409448818899
 30
0.0
 11
80.20964566929135
 21
97.24409448818899
 31
0.0
  0
LINE
  5
EF
330
1F
100
AcDbEntity
  8
TITLE
  6
SLD-Solid
370
    18
100
AcDbLine
 10
2.785925196850392
 20
99.5
 30
0.0
 11
2.785925196850392
 21
99.83464566929135
 31
0.0
  0
LINE
  5
F0
330
1F
100
AcDbEntity
  8
TITLE
  6
SLD-Solid
370
    18
100
AcDbLine
 10
2.785925196850392
 20
0.5
 30
0.0
 11
2.785925196850392
 21
0.1653543307086614
 31
0.0
  0
LINE
  5
F1
330
1F
100
AcDbEntity
  8
TITLE
  6
SLD-Solid
370
    18
100
AcDbLine
 10
4.754429133858268
 20
99.5
 30
0.0
 11
4.754429133858268
 21
99.83464566929135
 31
0.0
  0
LINE
  5
F2
330
1F
100
AcDbEntity
  8
TITLE
  6
SLD-Solid
370
    18
100
AcDbLine
 10
4.754429133858268
 20
0.5
 30
0.0
 11
4.754429133858268
 21
0.1653543307086614
 31
0.0
  0
LINE
  5
F3
330
1F
100
AcDbEntity
  8
TITLE
  6
SLD-Solid
370
    18
100
AcDbLine
 10
6.722933070866139
 20
99.5
 30
0.0
 11
6.722933070866139
 21
99.83464566929135
 31
0.0
  0
LINE
  5
F4
330
1F
100
AcDbEntity
  8
TITLE
  6
SLD-Solid
370
    18
100
AcDbLine
 10
6.722933070866139
 20
0.5
 30
0.0
 11
6.722933070866139
 21
0.1653543307086614
 31
0.0
  0
LINE
  5
F5
330
1F
100
AcDbEntity
  8
TITLE
  6
SLD-Solid
370
    18
100
AcDbLine
 10
8.691437007874015
 20
99.5
 30
0.0
 11
8.691437007874015
 21
99.83464566929135
 31
0.0
  0
LINE
  5
F6
330
1F
100
AcDbEntity
  8
TITLE
  6
SLD-Solid
370
    18
100
AcDbLine
 10
8.691437007874015
 20
0.5
 30
0.0
 11
8.691437007874015
 21
0.1653543307086614
 31
0.0
  0
LINE
  5
F7
330
1F
100
AcDbEntity
  8
TITLE
  6
SLD-Solid
370
    18
100
AcDbLine
 10
10.65994094488189
 20
99.5
 30
0.0
 11
10.65994094488189
 21
99.83464566929135
 31
0.0
  0
LINE
  5
F8
330
1F
100
AcDbEntity
  8
TITLE
  6
SLD-Solid
370
    18
100
AcDbLine
 10
10.65994094488189
 20
0.5
 30
0.0
 11
10.65994094488189
 21
0.1653543307086614
 31
0.0
  0
LINE
  5
F9
330
1F
100
AcDbEntity
  8
TITLE
  6
SLD-Solid
370
    18
100
AcDbLine
 10
12.62844488188976
 20
99.5
 30
0.0
 11
12.62844488188976
 21
99.83464566929135
 31
0.0
  0
LINE
  5
FA
330
1F
100
AcDbEntity
  8
TITLE
  6
SLD-Solid
370
    18
100
AcDbLine
 10
12.62844488188976
 20
0.5
 30
0.0
 11
12.62844488188976
 21
0.1653543307086614
 31
0.0
  0
LINE
  5
FB
330
1F
100
AcDbEntity
  8
TITLE
  6
SLD-Solid
370
    18
100
AcDbLine
 10
14.59694881889764
 20
99.5
 30
0.0
 11
14.59694881889764
 21
99.83464566929135
 31
0.0
  0
LINE
  5
FC
330
1F
100
AcDbEntity
  8
TITLE
  6
SLD-Solid
370
    18
100
AcDbLine
 10
14.59694881889764
 20
0.5
 30
0.0
 11
14.59694881889764
 21
0.1653543307086614
 31
0.0
  0
LINE
  5
FD
330
1F
100
AcDbEntity
  8
TITLE
  6
SLD-Solid
370
    18
100
AcDbLine
 10
16.56545275590551
 20
99.5
 30
0.0
 11
16.56545275590551
 21
99.83464566929135
 31
0.0
  0
LINE
  5
FE
330
1F
100
AcDbEntity
  8
TITLE
  6
SLD-Solid
370
    18
100
AcDbLine
 10
16.56545275590551
 20
0.5
 30
0.0
 11
16.56545275590551
 21
0.1653543307086614
 31
0.0
  0
LINE
  5
FF
330
1F
100
AcDbEntity
  8
TITLE
  6
SLD-Solid
370
    18
100
AcDbLine
 10
18.53395669291339
 20
99.5
 30
0.0
 11
18.53395669291339
 21
99.83464566929135
 31
0.0
  0
LINE
  5
100
330
1F
100
AcDbEntity
  8
TITLE
  6
SLD-Solid
370
    18
100
AcDbLine
 10
18.53395669291339
 20
0.5
 30
0.0
 11
18.53395669291339
 21
0.1653543307086614
 31
0.0
  0
LINE
  5
101
330
1F
100
AcDbEntity
  8
TITLE
  6
SLD-Solid
370
    18
100
AcDbLine
 10
20.50246062992126
 20
99.5
 30
0.0
 11
20.50246062992126
 21
99.83464566929135
 31
0.0
  0
LINE
  5
102
330
1F
100
AcDbEntity
  8
TITLE
  6
SLD-Solid
370
    18
100
AcDbLine
 10
20.50246062992126
 20
0.5
 30
0.0
 11
20.50246062992126
 21
0.1653543307086614
 31
0.0
  0
LINE
  5
103
330
1F
100
AcDbEntity
  8
TITLE
  6
SLD-Solid
370
    18
100
AcDbLine
 10
22.47096456692914
 20
99.5
 30
0.0
 11
22.47096456692914
 21
99.83464566929135
 31
0.0
  0
LINE
  5
104
330
1F
100
AcDbEntity
  8
TITLE
  6
SLD-Solid
370
    18
100
AcDbLine
 10
22.47096456692914
 20
0.5
 30
0.0
 11
22.47096456692914
 21
0.1653543307086614
 31
0.0
  0
LINE
  5
105
330
1F
100
AcDbEntity
  8
TITLE
  6
SLD-Solid
370
    18
100
AcDbLine
 10
24.43946850393701
 20
99.5
 30
0.0
 11
24.43946850393701
 21
99.83464566929135
 31
0.0
  0
LINE
  5
106
330
1F
100
AcDbEntity
  8
TITLE
  6
SLD-Solid
370
    18
100
AcDbLine
 10
24.43946850393701
 20
0.5
 30
0.0
 11
24.43946850393701
 21
0.1653543307086614
 31
0.0
  0
LINE
  5
107
330
1F
100
AcDbEntity
  8
TITLE
  6
SLD-Solid
370
    18
100
AcDbLine
 10
26.40797244094488
 20
99.5
 30
0.0
 11
26.40797244094488
 21
99.83464566929135
 31
0.0
  0
LINE
  5
108
330
1F
100
AcDbEntity
  8
TITLE
  6
SLD-Solid
370
    18
100
AcDbLine
 10
26.40797244094488
 20
0.5
 30
0.0
 11
26.40797244094488
 21
0.1653543307086614
 31
0.0
  0
LINE
  5
109
330
1F
100
AcDbEntity
  8
TITLE
  6
SLD-Solid
370
    18
100
AcDbLine
 10
28.37647637795276
 20
99.5
 30
0.0
 11
28.37647637795276
 21
99.83464566929135
 31
0.0
  0
LINE
  5
10A
330
1F
100
AcDbEntity
  8
TITLE
  6
SLD-Solid
370
    18
100
AcDbLine
 10
28.37647637795276
 20
0.5
 30
0.0
 11
28.37647637795276
 21
0.1653543307086614
 31
0.0
  0
LINE
  5
10B
330
1F
100
AcDbEntity
  8
TITLE
  6
SLD-Solid
370
    18
100
AcDbLine
 10
30.34498031496063
 20
99.5
 30
0.0
 11
30.34498031496063
 21
99.83464566929135
 31
0.0
  0
LINE
  5
10C
330
1F
100
AcDbEntity
  8
TITLE
  6
SLD-Solid
370
    18
100
AcDbLine
 10
30.34498031496063
 20
0.5
 30
0.0
 11
30.34498031496063
 21
0.1653543307086614
 31
0.0
  0
LINE
  5
10D
330
1F
100
AcDbEntity
  8
TITLE
  6
SLD-Solid
370
    18
100
AcDbLine
 10
32.31348425196851
 20
99.5
 30
0.0
 11
32.31348425196851
 21
99.83464566929135
 31
0.0
  0
LINE
  5
10E
330
1F
100
AcDbEntity
  8
TITLE
  6
SLD-Solid
370
    18
100
AcDbLine
 10
32.31348425196851
 20
0.5
 30
0.0
 11
32.31348425196851
 21
0.1653543307086614
 31
0.0
  0
LINE
  5
10F
330
1F
100
AcDbEntity
  8
TITLE
  6
SLD-Solid
370
    18
100
AcDbLine
 10
34.28198818897638
 20
99.5
 30
0.0
 11
34.28198818897638
 21
99.83464566929135
 31
0.0
  0
LINE
  5
110
330
1F
100
AcDbEntity
  8
TITLE
  6
SLD-Solid
370
    18
100
AcDbLine
 10
34.28198818897638
 20
0.5
 30
0.0
 11
34.28198818897638
 21
0.1653543307086614
 31
0.0
  0
LINE
  5
111
330
1F
100
AcDbEntity
  8
TITLE
  6
SLD-Solid
370
    18
100
AcDbLine
 10
36.25049212598425
 20
99.5
 30
0.0
 11
36.25049212598425
 21
99.83464566929135
 31
0.0
  0
LINE
  5
112
330
1F
100
AcDbEntity
  8
TITLE
  6
SLD-Solid
370
    18
100
AcDbLine
 10
36.25049212598425
 20
0.5
 30
0.0
 11
36.25049212598425
 21
0.1653543307086614
 31
0.0
  0
LINE
  5
113
330
1F
100
AcDbEntity
  8
TITLE
  6
SLD-Solid
370
    18
100
AcDbLine
 10
38.21899606299213
 20
99.5
 30
0.0
 11
38.21899606299213
 21
99.83464566929135
 31
0.0
  0
LINE
  5
114
330
1F
100
AcDbEntity
  8
TITLE
  6
SLD-Solid
370
    18
100
AcDbLine
 10
38.21899606299213
 20
0.5
 30
0.0
 11
38.21899606299213
 21
0.1653543307086614
 31
0.0
  0
LINE
  5
115
330
1F
100
AcDbEntity
  8
TITLE
  6
SLD-Solid
370
    18
100
AcDbLine
 10
40.1875
 20
99.5
 30
0.0
 11
40.1875
 21
99.83464566929135
 31
0.0
  0
LINE
  5
116
330
1F
100
AcDbEntity
  8
TITLE
  6
SLD-Solid
370
    18
100
AcDbLine
 10
40.1875
 20
0.5
 30
0.0
 11
40.1875
 21
0.1653543307086614
 31
0.0
  0
LINE
  5
117
330
1F
100
AcDbEntity
  8
TITLE
  6
SLD-Solid
370
    18
100
AcDbLine
 10
42.15600393700788
 20
99.5
 30
0.0
 11
42.15600393700788
 21
99.83464566929135
 31
0.0
  0
LINE
  5
118
330
1F
100
AcDbEntity
  8
TITLE
  6
SLD-Solid
370
    18
100
AcDbLine
 10
42.15600393700788
 20
0.5
 30
0.0
 11
42.15600393700788
 21
0.1653543307086614
 31
0.0
  0
LINE
  5
119
330
1F
100
AcDbEntity
  8
TITLE
  6
SLD-Solid
370
    18
100
AcDbLine
 10
44.12450787401576
 20
99.5
 30
0.0
 11
44.12450787401576
 21
99.83464566929135
 31
0.0
  0
LINE
  5
11A
330
1F
100
AcDbEntity
  8
TITLE
  6
SLD-Solid
370
    18
100
AcDbLine
 10
44.12450787401576
 20
0.5
 30
0.0
 11
44.12450787401576
 21
0.1653543307086614
 31
0.0
  0
LINE
  5
11B
330
1F
100
AcDbEntity
  8
TITLE
  6
SLD-Solid
370
    18
100
AcDbLine
 10
46.09301181102362
 20
99.5
 30
0.0
 11
46.09301181102362
 21
99.83464566929135
 31
0.0
  0
LINE
  5
11C
330
1F
100
AcDbEntity
  8
TITLE
  6
SLD-Solid
370
    18
100
AcDbLine
 10
46.09301181102362
 20
0.5
 30
0.0
 11
46.09301181102362
 21
0.1653543307086614
 31
0.0
  0
LINE
  5
11D
330
1F
100
AcDbEntity
  8
TITLE
  6
SLD-Solid
370
    18
100
AcDbLine
 10
48.0615157480315
 20
99.5
 30
0.0
 11
48.0615157480315
 21
99.83464566929135
 31
0.0
  0
LINE
  5
11E
330
1F
100
AcDbEntity
  8
TITLE
  6
SLD-Solid
370
    18
100
AcDbLine
 10
48.0615157480315
 20
0.5
 30
0.0
 11
48.0615157480315
 21
0.1653543307086614
 31
0.0
  0
LINE
  5
11F
330
1F
100
AcDbEntity
  8
TITLE
  6
SLD-Solid
370
    18
100
AcDbLine
 10
50.03001968503937
 20
99.5
 30
0.0
 11
50.03001968503937
 21
99.83464566929135
 31
0.0
  0
LINE
  5
120
330
1F
100
AcDbEntity
  8
TITLE
  6
SLD-Solid
370
    18
100
AcDbLine
 10
50.03001968503937
 20
0.5
 30
0.0
 11
50.03001968503937
 21
0.1653543307086614
 31
0.0
  0
LINE
  5
121
330
1F
100
AcDbEntity
  8
TITLE
  6
SLD-Solid
370
    18
100
AcDbLine
 10
51.99852362204725
 20
99.5
 30
0.0
 11
51.99852362204725
 21
99.83464566929135
 31
0.0
  0
LINE
  5
122
330
1F
100
AcDbEntity
  8
TITLE
  6
SLD-Solid
370
    18
100
AcDbLine
 10
51.99852362204725
 20
0.5
 30
0.0
 11
51.99852362204725
 21
0.1653543307086614
 31
0.0
  0
LINE
  5
123
330
1F
100
AcDbEntity
  8
TITLE
  6
SLD-Solid
370
    18
100
AcDbLine
 10
53.96702755905513
 20
99.5
 30
0.0
 11
53.96702755905513
 21
99.83464566929135
 31
0.0
  0
LINE
  5
124
330
1F
100
AcDbEntity
  8
TITLE
  6
SLD-Solid
370
    18
100
AcDbLine
 10
53.96702755905513
 20
0.5
 30
0.0
 11
53.96702755905513
 21
0.1653543307086614
 31
0.0
  0
LINE
  5
125
330
1F
100
AcDbEntity
  8
TITLE
  6
SLD-Solid
370
    18
100
AcDbLine
 10
55.93553149606299
 20
99.5
 30
0.0
 11
55.93553149606299
 21
99.83464566929135
 31
0.0
  0
LINE
  5
126
330
1F
100
AcDbEntity
  8
TITLE
  6
SLD-Solid
370
    18
100
AcDbLine
 10
55.93553149606299
 20
0.5
 30
0.0
 11
55.93553149606299
 21
0.1653543307086614
 31
0.0
  0
LINE
  5
127
330
1F
100
AcDbEntity
  8
TITLE
  6
SLD-Solid
370
    18
100
AcDbLine
 10
57.90403543307087
 20
99.5
 30
0.0
 11
57.90403543307087
 21
99.83464566929135
 31
0.0
  0
LINE
  5
128
330
1F
100
AcDbEntity
  8
TITLE
  6
SLD-Solid
370
    18
100
AcDbLine
 10
57.90403543307087
 20
0.5
 30
0.0
 11
57.90403543307087
 21
0.1653543307086614
 31
0.0
  0
LINE
  5
129
330
1F
100
AcDbEntity
  8
TITLE
  6
SLD-Solid
370
    18
100
AcDbLine
 10
59.87253937007874
 20
99.5
 30
0.0
 11
59.87253937007874
 21
99.83464566929135
 31
0.0
  0
LINE
  5
12A
330
1F
100
AcDbEntity
  8
TITLE
  6
SLD-Solid
370
    18
100
AcDbLine
 10
59.87253937007874
 20
0.5
 30
0.0
 11
59.87253937007874
 21
0.1653543307086614
 31
0.0
  0
LINE
  5
12B
330
1F
100
AcDbEntity
  8
TITLE
  6
SLD-Solid
370
    18
100
AcDbLine
 10
61.84104330708662
 20
99.5
 30
0.0
 11
61.84104330708662
 21
99.83464566929135
 31
0.0
  0
LINE
  5
12C
330
1F
100
AcDbEntity
  8
TITLE
  6
SLD-Solid
370
    18
100
AcDbLine
 10
61.84104330708662
 20
0.5
 30
0.0
 11
61.84104330708662
 21
0.1653543307086614
 31
0.0
  0
LINE
  5
12D
330
1F
100
AcDbEntity
  8
TITLE
  6
SLD-Solid
370
    18
100
AcDbLine
 10
63.8095472440945
 20
99.5
 30
0.0
 11
63.8095472440945
 21
99.83464566929135
 31
0.0
  0
LINE
  5
12E
330
1F
100
AcDbEntity
  8
TITLE
  6
SLD-Solid
370
    18
100
AcDbLine
 10
63.8095472440945
 20
0.5
 30
0.0
 11
63.8095472440945
 21
0.1653543307086614
 31
0.0
  0
LINE
  5
12F
330
1F
100
AcDbEntity
  8
TITLE
  6
SLD-Solid
370
    18
100
AcDbLine
 10
65.77805118110236
 20
99.5
 30
0.0
 11
65.77805118110236
 21
99.83464566929135
 31
0.0
  0
LINE
  5
130
330
1F
100
AcDbEntity
  8
TITLE
  6
SLD-Solid
370
    18
100
AcDbLine
 10
65.77805118110236
 20
0.5
 30
0.0
 11
65.77805118110236
 21
0.1653543307086614
 31
0.0
  0
LINE
  5
131
330
1F
100
AcDbEntity
  8
TITLE
  6
SLD-Solid
370
    18
100
AcDbLine
 10
67.74655511811025
 20
99.5
 30
0.0
 11
67.74655511811025
 21
99.83464566929135
 31
0.0
  0
LINE
  5
132
330
1F
100
AcDbEntity
  8
TITLE
  6
SLD-Solid
370
    18
100
AcDbLine
 10
67.74655511811025
 20
0.5
 30
0.0
 11
67.74655511811025
 21
0.1653543307086614
 31
0.0
  0
LINE
  5
133
330
1F
100
AcDbEntity
  8
TITLE
  6
SLD-Solid
370
    18
100
AcDbLine
 10
69.71505905511812
 20
99.5
 30
0.0
 11
69.71505905511812
 21
99.83464566929135
 31
0.0
  0
LINE
  5
134
330
1F
100
AcDbEntity
  8
TITLE
  6
SLD-Solid
370
    18
100
AcDbLine
 10
69.71505905511812
 20
0.5
 30
0.0
 11
69.71505905511812
 21
0.1653543307086614
 31
0.0
  0
LINE
  5
135
330
1F
100
AcDbEntity
  8
TITLE
  6
SLD-Solid
370
    18
100
AcDbLine
 10
71.68356299212599
 20
99.5
 30
0.0
 11
71.68356299212599
 21
99.83464566929135
 31
0.0
  0
LINE
  5
136
330
1F
100
AcDbEntity
  8
TITLE
  6
SLD-Solid
370
    18
100
AcDbLine
 10
71.68356299212599
 20
0.5
 30
0.0
 11
71.68356299212599
 21
0.1653543307086614
 31
0.0
  0
LINE
  5
137
330
1F
100
AcDbEntity
  8
TITLE
  6
SLD-Solid
370
    18
100
AcDbLine
 10
73.65206692913387
 20
99.5
 30
0.0
 11
73.65206692913387
 21
99.83464566929135
 31
0.0
  0
LINE
  5
138
330
1F
100
AcDbEntity
  8
TITLE
  6
SLD-Solid
370
    18
100
AcDbLine
 10
73.65206692913387
 20
0.5
 30
0.0
 11
73.65206692913387
 21
0.1653543307086614
 31
0.0
  0
LINE
  5
139
330
1F
100
AcDbEntity
  8
TITLE
  6
SLD-Solid
370
    18
100
AcDbLine
 10
75.62057086614173
 20
99.5
 30
0.0
 11
75.62057086614173
 21
99.83464566929135
 31
0.0
  0
LINE
  5
13A
330
1F
100
AcDbEntity
  8
TITLE
  6
SLD-Solid
370
    18
100
AcDbLine
 10
75.62057086614173
 20
0.5
 30
0.0
 11
75.62057086614173
 21
0.1653543307086614
 31
0.0
  0
LINE
  5
13B
330
1F
100
AcDbEntity
  8
TITLE
  6
SLD-Solid
370
    18
100
AcDbLine
 10
77.58907480314961
 20
99.5
 30
0.0
 11
77.58907480314961
 21
99.83464566929135
 31
0.0
  0
LINE
  5
13C
330
1F
100
AcDbEntity
  8
TITLE
  6
SLD-Solid
370
    18
100
AcDbLine
 10
77.58907480314961
 20
0.5
 30
0.0
 11
77.58907480314961
 21
0.1653543307086614
 31
0.0
  0
MTEXT
  5
13E
330
1F
100
AcDbEntity
  8
NOTES
100
AcDbMText
 10
56.78329780303407
 20
1.07029033469434
 30
0.0
 40
0.25
 41
0.0
 71
     1
 72
     1
  1
UNLESS OTHERWISE SPECIFIED DIMENSIONS ARE IN INCHES.
  7
SLDTEXTSTYLE0
 73
     1
 44
1.0
  0
MTEXT
  5
13F
330
1F
100
AcDbEntity
  8
NOTES
100
AcDbMText
 10
56.8050699278903
 20
3.083062777580423
 30
0.0
 40
0.25
 41
0.0
 71
     1
 72
     1
  1
DATE:
  7
SLDTEXTSTYLE0
 73
     1
 44
1.0
  0
MTEXT
  5
140
330
1F
100
AcDbEntity
  8
NOTES
100
AcDbMText
 10
58.91370118800531
 20
2.193032963662711
 30
0.0
 40
0.25
 41
0.0
 71
     2
 72
     1
  1
DO NOT SCALE DRAWING
  7
SLDTEXTSTYLE0
 73
     1
 44
1.0
  0
MTEXT
  5
142
330
1F
100
AcDbEntity
  8
NOTES
100
AcDbMText
 10
63.20573730750537
 20
3.268275555297605
 30
0.0
 40
0.25
 41
0.0
 71
     1
 72
     1
  1
TITLE:
  7
SLDTEXTSTYLE1
 73
     1
 44
1.0
  0
MTEXT
  5
143
330
1F
100
AcDbEntity
  8
NOTES
100
AcDbMText
 10
70.53118310516095
 20
3.268275555297605
 30
0.0
 40
0.25
 41
0.0
 71
     1
 72
     1
  1
DWG NO.
  7
SLDTEXTSTYLE1
 73
     1
 44
1.0
  0
MTEXT
  5
144
330
1F
100
AcDbEntity
  8
NOTES
100
AcDbMText
 10
70.55817532028493
 20
1.064581557673831
 30
0.0
 40
0.25
 41
0.0
 71
     1
 72
     1
  1
SCALE:     1:1
  7
SLDTEXTSTYLE1
 73
     1
 44
1.0
  0
MTEXT
  5
145
330
1F
100
AcDbEntity
  8
NOTES
100
AcDbMText
 10
74.55840399577743
 20
2.651034429460866
 30
0.0
 40
0.25
 41
0.0
 71
     2
 72
     1
  1
158 - S CAD
  7
SLDTEXTSTYLE1
 73
     1
 44
1.0
  0
MTEXT
  5
146
330
1F
100
AcDbEntity
  8
NOTES
100
AcDbMText
 10
66.85008601645835
 20
2.651034429460864
 30
0.0
 40
0.25
 41
0.0
 71
     2
 72
     1
  1
158 S Double Roll with Hood
  7
SLDTEXTSTYLE1
 73
     1
 44
1.0
  0
INSERT
  5
156
330
1F
100
AcDbEntity
  8
NOTES
100
AcDbBlockReference
  2
SW_NOTE_0_1
 10
56.99097262459081
 20
5.148152684778704
 30
0.0
  0
MTEXT
  5
157
330
1F
100
AcDbEntity
  8
NOTES
100
AcDbMText
 10
59.88146987787913
 20
3.086473326765869
 30
0.0
 40
0.25
 41
0.0
 71
     2
 72
     1
  1
July 6, 2021
  7
SLDTEXTSTYLE1
 73
     1
 44
1.0
  0
MTEXT
  5
158
330
1F
100
AcDbEntity
  8
TITLE
100
AcDbMText
 10
0.3276279775836454
 20
1.707830700422988
 30
0.0
 40
0.125
 41
0.0
 71
     2
 72
     1
  1
A
  7
SLDTEXTSTYLE1
 73
     1
 44
1.0
  0
MTEXT
  5
159
330
1F
100
AcDbEntity
  8
TITLE
100
AcDbMText
 10
80.03727364687498
 20
1.707830700422989
 30
0.0
 40
0.125
 41
0.0
 71
     2
 72
     1
  1
A
  7
SLDTEXTSTYLE1
 73
     1
 44
1.0
  0
MTEXT
  5
15A
330
1F
100
AcDbEntity
  8
TITLE
100
AcDbMText
 10
0.3317512413046844
 20
3.820035424832436
 30
0.0
 40
0.125
 41
0.0
 71
     2
 72
     1
  1
B
  7
SLDTEXTSTYLE1
 73
     1
 44
1.0
  0
MTEXT
  5
15B
330
1F
100
AcDbEntity
  8
TITLE
100
AcDbMText
 10
80.04139691059602
 20
3.820035424832436
 30
0.0
 40
0.125
 41
0.0
 71
     2
 72
     1
  1
B
  7
SLDTEXTSTYLE1
 73
     1
 44
1.0
  0
MTEXT
  5
15C
330
1F
100
AcDbEntity
  8
TITLE
100
AcDbMText
 10
0.3313750816934456
 20
5.788539361840311
 30
0.0
 40
0.125
 41
0.0
 71
     2
 72
     1
  1
C
  7
SLDTEXTSTYLE1
 73
     1
 44
1.0
  0
MTEXT
  5
15D
330
1F
100
AcDbEntity
  8
TITLE
100
AcDbMText
 10
80.04102075098477
 20
5.788539361840311
 30
0.0
 40
0.125
 41
0.0
 71
     2
 72
     1
  1
C
  7
SLDTEXTSTYLE1
 73
     1
 44
1.0
  0
MTEXT
  5
15E
330
1F
100
AcDbEntity
  8
TITLE
100
AcDbMText
 10
0.3311870028448151
 20
7.757043298848185
 30
0.0
 40
0.125
 41
0.0
 71
     2
 72
     1
  1
D
  7
SLDTEXTSTYLE1
 73
     1
 44
1.0
  0
MTEXT
  5
15F
330
1F
100
AcDbEntity
  8
TITLE
100
AcDbMText
 10
80.04083267213615
 20
7.757043298848187
 30
0.0
 40
0.125
 41
0.0
 71
     2
 72
     1
  1
D
  7
SLDTEXTSTYLE1
 73
     1
 44
1.0
  0
MTEXT
  5
160
330
1F
100
AcDbEntity
  8
TITLE
100
AcDbMText
 10
0.3329231160377541
 20
9.725547235856062
 30
0.0
 40
0.125
 41
0.0
 71
     2
 72
     1
  1
E
  7
SLDTEXTSTYLE1
 73
     1
 44
1.0
  0
MTEXT
  5
161
330
1F
100
AcDbEntity
  8
TITLE
100
AcDbMText
 10
80.04256878532908
 20
9.725547235856062
 30
0.0
 40
0.125
 41
0.0
 71
     2
 72
     1
  1
E
  7
SLDTEXTSTYLE1
 73
     1
 44
1.0
  0
MTEXT
  5
162
330
1F
100
AcDbEntity
  8
TITLE
100
AcDbMText
 10
0.3313461474003637
 20
11.69405117286393
 30
0.0
 40
0.125
 41
0.0
 71
     2
 72
     1
  1
F
  7
SLDTEXTSTYLE1
 73
     1
 44
1.0
  0
MTEXT
  5
163
330
1F
100
AcDbEntity
  8
TITLE
100
AcDbMText
 10
80.0409918166917
 20
11.69405117286393
 30
0.0
 40
0.125
 41
0.0
 71
     2
 72
     1
  1
F
  7
SLDTEXTSTYLE1
 73
     1
 44
1.0
  0
MTEXT
  5
164
330
1F
100
AcDbEntity
  8
TITLE
100
AcDbMText
 10
0.332257605436456
 20
13.66255510987181
 30
0.0
 40
0.125
 41
0.0
 71
     2
 72
     1
  1
G
  7
SLDTEXTSTYLE1
 73
     1
 44
1.0
  0
MTEXT
  5
165
330
1F
100
AcDbEntity
  8
TITLE
100
AcDbMText
 10
80.0419032747278
 20
13.66255510987181
 30
0.0
 40
0.125
 41
0.0
 71
     2
 72
     1
  1
G
  7
SLDTEXTSTYLE1
 73
     1
 44
1.0
  0
MTEXT
  5
166
330
1F
100
AcDbEntity
  8
TITLE
100
AcDbMText
 10
0.3323733456814148
 20
15.63105904687968
 30
0.0
 40
0.125
 41
0.0
 71
     2
 72
     1
  1
H
  7
SLDTEXTSTYLE1
 73
     1
 44
1.0
  0
MTEXT
  5
167
330
1F
100
AcDbEntity
  8
TITLE
100
AcDbMText
 10
80.04201901497274
 20
15.63105904687968
 30
0.0
 40
0.125
 41
0.0
 71
     2
 72
     1
  1
H
  7
SLDTEXTSTYLE1
 73
     1
 44
1.0
  0
MTEXT
  5
168
330
1F
100
AcDbEntity
  8
TITLE
100
AcDbMText
 10
0.3315776305595838
 20
17.59956298388755
 30
0.0
 40
0.125
 41
0.0
 71
     2
 72
     1
  1
J
  7
SLDTEXTSTYLE1
 73
     1
 44
1.0
  0
MTEXT
  5
169
330
1F
100
AcDbEntity
  8
TITLE
100
AcDbMText
 10
80.04122329985091
 20
17.59956298388756
 30
0.0
 40
0.125
 41
0.0
 71
     2
 72
     1
  1
J
  7
SLDTEXTSTYLE1
 73
     1
 44
1.0
  0
MTEXT
  5
16A
330
1F
100
AcDbEntity
  8
TITLE
100
AcDbMText
 10
0.3323154765159243
 20
19.56806692089543
 30
0.0
 40
0.125
 41
0.0
 71
     2
 72
     1
  1
K
  7
SLDTEXTSTYLE1
 73
     1
 44
1.0
  0
MTEXT
  5
16B
330
1F
100
AcDbEntity
  8
TITLE
100
AcDbMText
 10
80.04196114580725
 20
19.56806692089543
 30
0.0
 40
0.125
 41
0.0
 71
     2
 72
     1
  1
K
  7
SLDTEXTSTYLE1
 73
     1
 44
1.0
  0
MTEXT
  5
16C
330
1F
100
AcDbEntity
  8
TITLE
100
AcDbMText
 10
0.3312448739242835
 20
21.53657085790331
 30
0.0
 40
0.125
 41
0.0
 71
     2
 72
     1
  1
L
  7
SLDTEXTSTYLE1
 73
     1
 44
1.0
  0
MTEXT
  5
16D
330
1F
100
AcDbEntity
  8
TITLE
100
AcDbMText
 10
80.04089054321562
 20
21.53657085790331
 30
0.0
 40
0.125
 41
0.0
 71
     2
 72
     1
  1
L
  7
SLDTEXTSTYLE1
 73
     1
 44
1.0
  0
MTEXT
  5
16E
330
1F
100
AcDbEntity
  8
TITLE
100
AcDbMText
 10
0.3283224192293962
 20
23.50507479491118
 30
0.0
 40
0.125
 41
0.0
 71
     2
 72
     1
  1
M
  7
SLDTEXTSTYLE1
 73
     1
 44
1.0
  0
MTEXT
  5
16F
330
1F
100
AcDbEntity
  8
TITLE
100
AcDbMText
 10
80.03796808852074
 20
23.50507479491118
 30
0.0
 40
0.125
 41
0.0
 71
     2
 72
     1
  1
M
  7
SLDTEXTSTYLE1
 73
     1
 44
1.0
  0
MTEXT
  5
170
330
1F
100
AcDbEntity
  8
TITLE
100
AcDbMText
 10
0.3315342275836453
 20
25.47357873191906
 30
0.0
 40
0.125
 41
0.0
 71
     2
 72
     1
  1
N
  7
SLDTEXTSTYLE1
 73
     1
 44
1.0
  0
MTEXT
  5
171
330
1F
100
AcDbEntity
  8
TITLE
100
AcDbMText
 10
80.04117989687497
 20
25.47357873191906
 30
0.0
 40
0.125
 41
0.0
 71
     2
 72
     1
  1
N
  7
SLDTEXTSTYLE1
 73
     1
 44
1.0
  0
MTEXT
  5
172
330
1F
100
AcDbEntity
  8
TITLE
100
AcDbMText
 10
0.3321997349363143
 20
27.44208266892693
 30
0.0
 40
0.125
 41
0.0
 71
     2
 72
     1
  1
P
  7
SLDTEXTSTYLE1
 73
     1
 44
1.0
  0
MTEXT
  5
173
330
1F
100
AcDbEntity
  8
TITLE
100
AcDbMText
 10
80.04184540422764
 20
27.44208266892693
 30
0.0
 40
0.125
 41
0.0
 71
     2
 72
     1
  1
P
  7
SLDTEXTSTYLE1
 73
     1
 44
1.0
  0
MTEXT
  5
174
330
1F
100
AcDbEntity
  8
TITLE
100
AcDbMText
 10
0.3309265867271644
 20
29.41058660593481
 30
0.0
 40
0.125
 41
0.0
 71
     2
 72
     1
  1
R
  7
SLDTEXTSTYLE1
 73
     1
 44
1.0
  0
MTEXT
  5
175
330
1F
100
AcDbEntity
  8
TITLE
100
AcDbMText
 10
80.04057225601849
 20
29.41058660593481
 30
0.0
 40
0.125
 41
0.0
 71
     2
 72
     1
  1
R
  7
SLDTEXTSTYLE1
 73
     1
 44
1.0
  0
MTEXT
  5
176
330
1F
100
AcDbEntity
  8
TITLE
100
AcDbMText
 10
0.3323010070777431
 20
31.37909054294268
 30
0.0
 40
0.125
 41
0.0
 71
     2
 72
     1
  1
T
  7
SLDTEXTSTYLE1
 73
     1
 44
1.0
  0
MTEXT
  5
177
330
1F
100
AcDbEntity
  8
TITLE
100
AcDbMText
 10
80.04194667636908
 20
31.37909054294268
 30
0.0
 40
0.125
 41
0.0
 71
     2
 72
     1
  1
T
  7
SLDTEXTSTYLE1
 73
     1
 44
1.0
  0
MTEXT
  5
178
330
1F
100
AcDbEntity
  8
TITLE
100
AcDbMText
 10
0.3328507755201046
 20
33.34759447995055
 30
0.0
 40
0.125
 41
0.0
 71
     2
 72
     1
  1
U
  7
SLDTEXTSTYLE1
 73
     1
 44
1.0
  0
MTEXT
  5
179
330
1F
100
AcDbEntity
  8
TITLE
100
AcDbMText
 10
80.04249644481143
 20
33.34759447995056
 30
0.0
 40
0.125
 41
0.0
 71
     2
 72
     1
  1
U
  7
SLDTEXTSTYLE1
 73
     1
 44
1.0
  0
MTEXT
  5
17A
330
1F
100
AcDbEntity
  8
TITLE
100
AcDbMText
 10
0.3307529773167151
 20
35.31609841695843
 30
0.0
 40
0.125
 41
0.0
 71
     2
 72
     1
  1
V
  7
SLDTEXTSTYLE1
 73
     1
 44
1.0
  0
MTEXT
  5
17B
330
1F
100
AcDbEntity
  8
TITLE
100
AcDbMText
 10
80.04039864660804
 20
35.31609841695843
 30
0.0
 40
0.125
 41
0.0
 71
     2
 72
     1
  1
V
  7
SLDTEXTSTYLE1
 73
     1
 44
1.0
  0
MTEXT
  5
17C
330
1F
100
AcDbEntity
  8
TITLE
100
AcDbMText
 10
0.3327784409203867
 20
37.2846023539663
 30
0.0
 40
0.125
 41
0.0
 71
     2
 72
     1
  1
W
  7
SLDTEXTSTYLE1
 73
     1
 44
1.0
  0
MTEXT
  5
17D
330
1F
100
AcDbEntity
  8
TITLE
100
AcDbMText
 10
80.04242411021173
 20
37.2846023539663
 30
0.0
 40
0.125
 41
0.0
 71
     2
 72
     1
  1
W
  7
SLDTEXTSTYLE1
 73
     1
 44
1.0
  0
MTEXT
  5
17E
330
1F
100
AcDbEntity
  8
TITLE
100
AcDbMText
 10
0.3321997349363143
 20
39.25310629097418
 30
0.0
 40
0.125
 41
0.0
 71
     2
 72
     1
  1
Y
  7
SLDTEXTSTYLE1
 73
     1
 44
1.0
  0
MTEXT
  5
17F
330
1F
100
AcDbEntity
  8
TITLE
100
AcDbMText
 10
80.04184540422764
 20
39.25310629097417
 30
0.0
 40
0.125
 41
0.0
 71
     2
 72
     1
  1
Y
  7
SLDTEXTSTYLE1
 73
     1
 44
1.0
  0
MTEXT
  5
180
330
1F
100
AcDbEntity
  8
TITLE
100
AcDbMText
 10
0.32257878981296
 20
41.22161022798205
 30
0.0
 40
0.125
 41
0.0
 71
     2
 72
     1
  1
AA
  7
SLDTEXTSTYLE1
 73
     1
 44
1.0
  0
MTEXT
  5
181
330
1F
100
AcDbEntity
  8
TITLE
100
AcDbMText
 10
80.03222445910428
 20
41.22161022798205
 30
0.0
 40
0.125
 41
0.0
 71
     2
 72
     1
  1
AA
  7
SLDTEXTSTYLE1
 73
     1
 44
1.0
  0
MTEXT
  5
182
330
1F
100
AcDbEntity
  8
TITLE
100
AcDbMText
 10
0.3267020535339989
 20
43.19011416498994
 30
0.0
 40
0.125
 41
0.0
 71
     2
 72
     1
  1
AB
  7
SLDTEXTSTYLE1
 73
     1
 44
1.0
  0
MTEXT
  5
183
330
1F
100
AcDbEntity
  8
TITLE
100
AcDbMText
 10
80.03634772282533
 20
43.19011416498994
 30
0.0
 40
0.125
 41
0.0
 71
     2
 72
     1
  1
AB
  7
SLDTEXTSTYLE1
 73
     1
 44
1.0
  0
MTEXT
  5
184
330
1F
100
AcDbEntity
  8
TITLE
100
AcDbMText
 10
0.3263258985060407
 20
45.1586181019978
 30
0.0
 40
0.125
 41
0.0
 71
     2
 72
     1
  1
AC
  7
SLDTEXTSTYLE1
 73
     1
 44
1.0
  0
MTEXT
  5
185
330
1F
100
AcDbEntity
  8
TITLE
100
AcDbMText
 10
80.03597156779738
 20
45.1586181019978
 30
0.0
 40
0.125
 41
0.0
 71
     2
 72
     1
  1
AC
  7
SLDTEXTSTYLE1
 73
     1
 44
1.0
  0
MTEXT
  5
186
330
1F
100
AcDbEntity
  8
TITLE
100
AcDbMText
 10
0.3261378196574102
 20
47.12712203900567
 30
0.0
 40
0.125
 41
0.0
 71
     2
 72
     1
  1
AD
  7
SLDTEXTSTYLE1
 73
     1
 44
1.0
  0
MTEXT
  5
187
330
1F
100
AcDbEntity
  8
TITLE
100
AcDbMText
 10
80.03578348894874
 20
47.12712203900567
 30
0.0
 40
0.125
 41
0.0
 71
     2
 72
     1
  1
AD
  7
SLDTEXTSTYLE1
 73
     1
 44
1.0
  0
MTEXT
  5
188
330
1F
100
AcDbEntity
  8
TITLE
100
AcDbMText
 10
0.3278739282670687
 20
49.09562597601355
 30
0.0
 40
0.125
 41
0.0
 71
     2
 72
     1
  1
AE
  7
SLDTEXTSTYLE1
 73
     1
 44
1.0
  0
MTEXT
  5
189
330
1F
100
AcDbEntity
  8
TITLE
100
AcDbMText
 10
80.0375195975584
 20
49.09562597601355
 30
0.0
 40
0.125
 41
0.0
 71
     2
 72
     1
  1
AE
  7
SLDTEXTSTYLE1
 73
     1
 44
1.0
  0
MTEXT
  5
18A
330
1F
100
AcDbEntity
  8
TITLE
100
AcDbMText
 10
0.3262969596296783
 20
51.06412991302141
 30
0.0
 40
0.125
 41
0.0
 71
     2
 72
     1
  1
AF
  7
SLDTEXTSTYLE1
 73
     1
 44
1.0
  0
MTEXT
  5
18B
330
1F
100
AcDbEntity
  8
TITLE
100
AcDbMText
 10
80.035942628921
 20
51.06412991302141
 30
0.0
 40
0.125
 41
0.0
 71
     2
 72
     1
  1
AF
  7
SLDTEXTSTYLE1
 73
     1
 44
1.0
  0
MTEXT
  5
18C
330
1F
100
AcDbEntity
  8
TITLE
100
AcDbMText
 10
0.3272084176657706
 20
53.03263385002931
 30
0.0
 40
0.125
 41
0.0
 71
     2
 72
     1
  1
AG
  7
SLDTEXTSTYLE1
 73
     1
 44
1.0
  0
MTEXT
  5
18D
330
1F
100
AcDbEntity
  8
TITLE
100
AcDbMText
 10
80.0368540869571
 20
53.03263385002931
 30
0.0
 40
0.125
 41
0.0
 71
     2
 72
     1
  1
AG
  7
SLDTEXTSTYLE1
 73
     1
 44
1.0
  0
MTEXT
  5
18E
330
1F
100
AcDbEntity
  8
TITLE
100
AcDbMText
 10
0.3273241624940099
 20
55.00113778703717
 30
0.0
 40
0.125
 41
0.0
 71
     2
 72
     1
  1
AH
  7
SLDTEXTSTYLE1
 73
     1
 44
1.0
  0
MTEXT
  5
18F
330
1F
100
AcDbEntity
  8
TITLE
100
AcDbMText
 10
80.03696983178533
 20
55.00113778703717
 30
0.0
 40
0.125
 41
0.0
 71
     2
 72
     1
  1
AH
  7
SLDTEXTSTYLE1
 73
     1
 44
1.0
  0
MTEXT
  5
190
330
1F
100
AcDbEntity
  8
TITLE
100
AcDbMText
 10
0.3265284427888985
 20
56.96964172404503
 30
0.0
 40
0.125
 41
0.0
 71
     2
 72
     1
  1
AJ
  7
SLDTEXTSTYLE1
 73
     1
 44
1.0
  0
MTEXT
  5
191
330
1F
100
AcDbEntity
  8
TITLE
100
AcDbMText
 10
80.03617411208023
 20
56.96964172404504
 30
0.0
 40
0.125
 41
0.0
 71
     2
 72
     1
  1
AJ
  7
SLDTEXTSTYLE1
 73
     1
 44
1.0
  0
MTEXT
  5
192
330
1F
100
AcDbEntity
  8
TITLE
100
AcDbMText
 10
0.327266288745239
 20
58.93814566105291
 30
0.0
 40
0.125
 41
0.0
 71
     2
 72
     1
  1
AK
  7
SLDTEXTSTYLE1
 73
     1
 44
1.0
  0
MTEXT
  5
193
330
1F
100
AcDbEntity
  8
TITLE
100
AcDbMText
 10
80.03691195803657
 20
58.93814566105292
 30
0.0
 40
0.125
 41
0.0
 71
     2
 72
     1
  1
AK
  7
SLDTEXTSTYLE1
 73
     1
 44
1.0
  0
MTEXT
  5
194
330
1F
100
AcDbEntity
  8
TITLE
100
AcDbMText
 10
0.3261956815703178
 20
60.90664959806079
 30
0.0
 40
0.125
 41
0.0
 71
     2
 72
     1
  1
AL
  7
SLDTEXTSTYLE1
 73
     1
 44
1.0
  0
MTEXT
  5
195
330
1F
100
AcDbEntity
  8
TITLE
100
AcDbMText
 10
80.03584135086165
 20
60.90664959806079
 30
0.0
 40
0.125
 41
0.0
 71
     2
 72
     1
  1
AL
  7
SLDTEXTSTYLE1
 73
     1
 44
1.0
  0
MTEXT
  5
196
330
1F
100
AcDbEntity
  8
TITLE
100
AcDbMText
 10
0.3232732314587108
 20
62.87515353506868
 30
0.0
 40
0.125
 41
0.0
 71
     2
 72
     1
  1
AM
  7
SLDTEXTSTYLE1
 73
     1
 44
1.0
  0
MTEXT
  5
197
330
1F
100
AcDbEntity
  8
TITLE
100
AcDbMText
 10
80.03291890075005
 20
62.87515353506868
 30
0.0
 40
0.125
 41
0.0
 71
     2
 72
     1
  1
AM
  7
SLDTEXTSTYLE1
 73
     1
 44
1.0
  0
MTEXT
  5
198
330
1F
100
AcDbEntity
  8
TITLE
100
AcDbMText
 10
0.32648503981296
 20
64.84365747207654
 30
0.0
 40
0.125
 41
0.0
 71
     2
 72
     1
  1
AN
  7
SLDTEXTSTYLE1
 73
     1
 44
1.0
  0
MTEXT
  5
199
330
1F
100
AcDbEntity
  8
TITLE
100
AcDbMText
 10
80.03613070910428
 20
64.84365747207654
 30
0.0
 40
0.125
 41
0.0
 71
     2
 72
     1
  1
AN
  7
SLDTEXTSTYLE1
 73
     1
 44
1.0
  0
MTEXT
  5
19A
330
1F
100
AcDbEntity
  8
TITLE
100
AcDbMText
 10
0.3271505425823485
 20
66.81216140908441
 30
0.0
 40
0.125
 41
0.0
 71
     2
 72
     1
  1
AP
  7
SLDTEXTSTYLE1
 73
     1
 44
1.0
  0
MTEXT
  5
19B
330
1F
100
AcDbEntity
  8
TITLE
100
AcDbMText
 10
80.03679621187368
 20
66.81216140908441
 30
0.0
 40
0.125
 41
0.0
 71
     2
 72
     1
  1
AP
  7
SLDTEXTSTYLE1
 73
     1
 44
1.0
  0
MTEXT
  5
19C
330
1F
100
AcDbEntity
  8
TITLE
100
AcDbMText
 10
0.325877398956479
 20
68.78066534609229
 30
0.0
 40
0.125
 41
0.0
 71
     2
 72
     1
  1
AR
  7
SLDTEXTSTYLE1
 73
     1
 44
1.0
  0
MTEXT
  5
19D
330
1F
100
AcDbEntity
  8
TITLE
100
AcDbMText
 10
80.03552306824781
 20
68.7806653460923
 30
0.0
 40
0.125
 41
0.0
 71
     2
 72
     1
  1
AR
  7
SLDTEXTSTYLE1
 73
     1
 44
1.0
  0
MTEXT
  5
19E
330
1F
100
AcDbEntity
  8
TITLE
100
AcDbMText
 10
0.3272518193070578
 20
70.74916928310017
 30
0.0
 40
0.125
 41
0.0
 71
     2
 72
     1
  1
AT
  7
SLDTEXTSTYLE1
 73
     1
 44
1.0
  0
MTEXT
  5
19F
330
1F
100
AcDbEntity
  8
TITLE
100
AcDbMText
 10
80.03689748859838
 20
70.74916928310016
 30
0.0
 40
0.125
 41
0.0
 71
     2
 72
     1
  1
AT
  7
SLDTEXTSTYLE1
 73
     1
 44
1.0
  0
MTEXT
  5
1A0
330
1F
100
AcDbEntity
  8
TITLE
100
AcDbMText
 10
0.3278015877494193
 20
72.71767322010805
 30
0.0
 40
0.125
 41
0.0
 71
     2
 72
     1
  1
AU
  7
SLDTEXTSTYLE1
 73
     1
 44
1.0
  0
MTEXT
  5
1A1
330
1F
100
AcDbEntity
  8
TITLE
100
AcDbMText
 10
80.03744725704074
 20
72.71767322010804
 30
0.0
 40
0.125
 41
0.0
 71
     2
 72
     1
  1
AU
  7
SLDTEXTSTYLE1
 73
     1
 44
1.0
  0
MTEXT
  5
1A2
330
1F
100
AcDbEntity
  8
TITLE
100
AcDbMText
 10
0.3257037895460298
 20
74.6861771571159
 30
0.0
 40
0.125
 41
0.0
 71
     2
 72
     1
  1
AV
  7
SLDTEXTSTYLE1
 73
     1
 44
1.0
  0
MTEXT
  5
1A3
330
1F
100
AcDbEntity
  8
TITLE
100
AcDbMText
 10
80.03534945883736
 20
74.6861771571159
 30
0.0
 40
0.125
 41
0.0
 71
     2
 72
     1
  1
AV
  7
SLDTEXTSTYLE1
 73
     1
 44
1.0
  0
MTEXT
  5
1A4
330
1F
100
AcDbEntity
  8
TITLE
100
AcDbMText
 10
0.327729248566421
 20
76.65468109412379
 30
0.0
 40
0.125
 41
0.0
 71
     2
 72
     1
  1
AW
  7
SLDTEXTSTYLE1
 73
     1
 44
1.0
  0
MTEXT
  5
1A5
330
1F
100
AcDbEntity
  8
TITLE
100
AcDbMText
 10
80.03737491785775
 20
76.65468109412379
 30
0.0
 40
0.125
 41
0.0
 71
     2
 72
     1
  1
AW
  7
SLDTEXTSTYLE1
 73
     1
 44
1.0
  0
MTEXT
  5
1A6
330
1F
100
AcDbEntity
  8
TITLE
100
AcDbMText
 10
0.3271505425823485
 20
78.62318503113167
 30
0.0
 40
0.125
 41
0.0
 71
     2
 72
     1
  1
AY
  7
SLDTEXTSTYLE1
 73
     1
 44
1.0
  0
MTEXT
  5
1A7
330
1F
100
AcDbEntity
  8
TITLE
100
AcDbMText
 10
80.03679621187368
 20
78.62318503113167
 30
0.0
 40
0.125
 41
0.0
 71
     2
 72
     1
  1
AY
  7
SLDTEXTSTYLE1
 73
     1
 44
1.0
  0
MTEXT
  5
1A8
330
1F
100
AcDbEntity
  8
TITLE
100
AcDbMText
 10
0.3267020535339989
 20
80.59168896813954
 30
0.0
 40
0.125
 41
0.0
 71
     2
 72
     1
  1
BA
  7
SLDTEXTSTYLE1
 73
     1
 44
1.0
  0
MTEXT
  5
1A9
330
1F
100
AcDbEntity
  8
TITLE
100
AcDbMText
 10
80.03634772282533
 20
80.59168896813954
 30
0.0
 40
0.125
 41
0.0
 71
     2
 72
     1
  1
BA
  7
SLDTEXTSTYLE1
 73
     1
 44
1.0
  0
MTEXT
  5
1AA
330
1F
100
AcDbEntity
  8
TITLE
100
AcDbMText
 10
0.3308253172550379
 20
82.56019290514742
 30
0.0
 40
0.125
 41
0.0
 71
     2
 72
     1
  1
BB
  7
SLDTEXTSTYLE1
 73
     1
 44
1.0
  0
MTEXT
  5
1AB
330
1F
100
AcDbEntity
  8
TITLE
100
AcDbMText
 10
80.04047098654637
 20
82.56019290514742
 30
0.0
 40
0.125
 41
0.0
 71
     2
 72
     1
  1
BB
  7
SLDTEXTSTYLE1
 73
     1
 44
1.0
  0
MTEXT
  5
1AC
330
1F
100
AcDbEntity
  8
TITLE
100
AcDbMText
 10
0.3304491530605189
 20
84.52869684215528
 30
0.0
 40
0.125
 41
0.0
 71
     2
 72
     1
  1
BC
  7
SLDTEXTSTYLE1
 73
     1
 44
1.0
  0
MTEXT
  5
1AD
330
1F
100
AcDbEntity
  8
TITLE
100
AcDbMText
 10
80.04009482235185
 20
84.52869684215528
 30
0.0
 40
0.125
 41
0.0
 71
     2
 72
     1
  1
BC
  7
SLDTEXTSTYLE1
 73
     1
 44
1.0
  0
MTEXT
  5
1AE
330
1F
100
AcDbEntity
  8
TITLE
100
AcDbMText
 10
0.3302610742118884
 20
86.49720077916318
 30
0.0
 40
0.125
 41
0.0
 71
     2
 72
     1
  1
BD
  7
SLDTEXTSTYLE1
 73
     1
 44
1.0
  0
MTEXT
  5
1AF
330
1F
100
AcDbEntity
  8
TITLE
100
AcDbMText
 10
80.03990674350321
 20
86.4972007791632
 30
0.0
 40
0.125
 41
0.0
 71
     2
 72
     1
  1
BD
  7
SLDTEXTSTYLE1
 73
     1
 44
1.0
  0
MTEXT
  5
1B0
330
1F
100
AcDbEntity
  8
TITLE
100
AcDbMText
 10
0.3319971919881077
 20
88.46570471617105
 30
0.0
 40
0.125
 41
0.0
 71
     2
 72
     1
  1
BE
  7
SLDTEXTSTYLE1
 73
     1
 44
1.0
  0
MTEXT
  5
1B1
330
1F
100
AcDbEntity
  8
TITLE
100
AcDbMText
 10
80.04164286127944
 20
88.46570471617105
 30
0.0
 40
0.125
 41
0.0
 71
     2
 72
     1
  1
BE
  7
SLDTEXTSTYLE1
 73
     1
 44
1.0
  0
MTEXT
  5
1B2
330
1F
100
AcDbEntity
  8
TITLE
100
AcDbMText
 10
0.3304202233507172
 20
90.43420865317891
 30
0.0
 40
0.125
 41
0.0
 71
     2
 72
     1
  1
BF
  7
SLDTEXTSTYLE1
 73
     1
 44
1.0
  0
MTEXT
  5
1B3
330
1F
100
AcDbEntity
  8
TITLE
100
AcDbMText
 10
80.04006589264205
 20
90.43420865317889
 30
0.0
 40
0.125
 41
0.0
 71
     2
 72
     1
  1
BF
  7
SLDTEXTSTYLE1
 73
     1
 44
1.0
  0
MTEXT
  5
1B4
330
1F
100
AcDbEntity
  8
TITLE
100
AcDbMText
 10
0.3313316813868096
 20
92.4027125901868
 30
0.0
 40
0.125
 41
0.0
 71
     2
 72
     1
  1
BG
  7
SLDTEXTSTYLE1
 73
     1
 44
1.0
  0
MTEXT
  5
1B5
330
1F
100
AcDbEntity
  8
TITLE
100
AcDbMText
 10
80.04097735067815
 20
92.4027125901868
 30
0.0
 40
0.125
 41
0.0
 71
     2
 72
     1
  1
BG
  7
SLDTEXTSTYLE1
 73
     1
 44
1.0
  0
MTEXT
  5
1B6
330
1F
100
AcDbEntity
  8
TITLE
100
AcDbMText
 10
0.331447417048488
 20
94.37121652719466
 30
0.0
 40
0.125
 41
0.0
 71
     2
 72
     1
  1
BH
  7
SLDTEXTSTYLE1
 73
     1
 44
1.0
  0
MTEXT
  5
1B7
330
1F
100
AcDbEntity
  8
TITLE
100
AcDbMText
 10
80.04109308633981
 20
94.37121652719466
 30
0.0
 40
0.125
 41
0.0
 71
     2
 72
     1
  1
BH
  7
SLDTEXTSTYLE1
 73
     1
 44
1.0
  0
MTEXT
  5
1B8
330
1F
100
AcDbEntity
  8
TITLE
100
AcDbMText
 10
0.3306517065099374
 20
96.33972046420254
 30
0.0
 40
0.125
 41
0.0
 71
     2
 72
     1
  1
BJ
  7
SLDTEXTSTYLE1
 73
     1
 44
1.0
  0
MTEXT
  5
1B9
330
1F
100
AcDbEntity
  8
TITLE
100
AcDbMText
 10
80.04029737580127
 20
96.33972046420254
 30
0.0
 40
0.125
 41
0.0
 71
     2
 72
     1
  1
BJ
  7
SLDTEXTSTYLE1
 73
     1
 44
1.0
  0
MTEXT
  5
1BA
330
1F
100
AcDbEntity
  8
TITLE
100
AcDbMText
 10
0.331389552466278
 20
98.45192518861198
 30
0.0
 40
0.125
 41
0.0
 71
     2
 72
     1
  1
BK
  7
SLDTEXTSTYLE1
 73
     1
 44
1.0
  0
MTEXT
  5
1BB
330
1F
100
AcDbEntity
  8
TITLE
100
AcDbMText
 10
80.04103522175761
 20
98.45192518861197
 30
0.0
 40
0.125
 41
0.0
 71
     2
 72
     1
  1
BK
  7
SLDTEXTSTYLE1
 73
     1
 44
1.0
  0
MTEXT
  5
1BC
330
1F
100
AcDbEntity
  8
TITLE
100
AcDbMText
 10
1.640445237055303
 20
0.4125551098718104
 30
0.0
 40
0.125
 41
0.0
 71
     2
 72
     1
  1
40
  7
SLDTEXTSTYLE1
 73
     1
 44
1.0
  0
MTEXT
  5
1BD
330
1F
100
AcDbEntity
  8
TITLE
100
AcDbMText
 10
1.640445237055303
 20
99.74720077916314
 30
0.0
 40
0.125
 41
0.0
 71
     2
 72
     1
  1
40
  7
SLDTEXTSTYLE1
 73
     1
 44
1.0
  0
MTEXT
  5
1BE
330
1F
100
AcDbEntity
  8
TITLE
100
AcDbMText
 10
3.767659803984436
 20
0.4125551098718104
 30
0.0
 40
0.125
 41
0.0
 71
     2
 72
     1
  1
39
  7
SLDTEXTSTYLE1
 73
     1
 44
1.0
  0
MTEXT
  5
1BF
330
1F
100
AcDbEntity
  8
TITLE
100
AcDbMText
 10
3.767659803984436
 20
99.74720077916314
 30
0.0
 40
0.125
 41
0.0
 71
     2
 72
     1
  1
39
  7
SLDTEXTSTYLE1
 73
     1
 44
1.0
  0
MTEXT
  5
1C0
330
1F
100
AcDbEntity
  8
TITLE
100
AcDbMText
 10
5.736163740992311
 20
0.4125551098718105
 30
0.0
 40
0.125
 41
0.0
 71
     2
 72
     1
  1
38
  7
SLDTEXTSTYLE1
 73
     1
 44
1.0
  0
MTEXT
  5
1C1
330
1F
100
AcDbEntity
  8
TITLE
100
AcDbMText
 10
5.736163740992311
 20
99.74720077916314
 30
0.0
 40
0.125
 41
0.0
 71
     2
 72
     1
  1
38
  7
SLDTEXTSTYLE1
 73
     1
 44
1.0
  0
MTEXT
  5
1C2
330
1F
100
AcDbEntity
  8
TITLE
100
AcDbMText
 10
7.704667678000185
 20
0.4125551098718104
 30
0.0
 40
0.125
 41
0.0
 71
     2
 72
     1
  1
37
  7
SLDTEXTSTYLE1
 73
     1
 44
1.0
  0
MTEXT
  5
1C3
330
1F
100
AcDbEntity
  8
TITLE
100
AcDbMText
 10
7.704667678000184
 20
99.74720077916314
 30
0.0
 40
0.125
 41
0.0
 71
     2
 72
     1
  1
37
  7
SLDTEXTSTYLE1
 73
     1
 44
1.0
  0
MTEXT
  5
1C4
330
1F
100
AcDbEntity
  8
TITLE
100
AcDbMText
 10
9.673171615008059
 20
0.4125551098718104
 30
0.0
 40
0.125
 41
0.0
 71
     2
 72
     1
  1
36
  7
SLDTEXTSTYLE1
 73
     1
 44
1.0
  0
MTEXT
  5
1C5
330
1F
100
AcDbEntity
  8
TITLE
100
AcDbMText
 10
9.67317161500806
 20
99.74720077916314
 30
0.0
 40
0.125
 41
0.0
 71
     2
 72
     1
  1
36
  7
SLDTEXTSTYLE1
 73
     1
 44
1.0
  0
MTEXT
  5
1C6
330
1F
100
AcDbEntity
  8
TITLE
100
AcDbMText
 10
11.64167555201593
 20
0.4125551098718104
 30
0.0
 40
0.125
 41
0.0
 71
     2
 72
     1
  1
35
  7
SLDTEXTSTYLE1
 73
     1
 44
1.0
  0
MTEXT
  5
1C7
330
1F
100
AcDbEntity
  8
TITLE
100
AcDbMText
 10
11.64167555201593
 20
99.74720077916314
 30
0.0
 40
0.125
 41
0.0
 71
     2
 72
     1
  1
35
  7
SLDTEXTSTYLE1
 73
     1
 44
1.0
  0
MTEXT
  5
1C8
330
1F
100
AcDbEntity
  8
TITLE
100
AcDbMText
 10
13.61017948902381
 20
0.4125551098718104
 30
0.0
 40
0.125
 41
0.0
 71
     2
 72
     1
  1
34
  7
SLDTEXTSTYLE1
 73
     1
 44
1.0
  0
MTEXT
  5
1C9
330
1F
100
AcDbEntity
  8
TITLE
100
AcDbMText
 10
13.61017948902381
 20
99.74720077916314
 30
0.0
 40
0.125
 41
0.0
 71
     2
 72
     1
  1
34
  7
SLDTEXTSTYLE1
 73
     1
 44
1.0
  0
MTEXT
  5
1CA
330
1F
100
AcDbEntity
  8
TITLE
100
AcDbMText
 10
15.57868342603168
 20
0.4125551098718104
 30
0.0
 40
0.125
 41
0.0
 71
     2
 72
     1
  1
33
  7
SLDTEXTSTYLE1
 73
     1
 44
1.0
  0
MTEXT
  5
1CB
330
1F
100
AcDbEntity
  8
TITLE
100
AcDbMText
 10
15.57868342603168
 20
99.74720077916314
 30
0.0
 40
0.125
 41
0.0
 71
     2
 72
     1
  1
33
  7
SLDTEXTSTYLE1
 73
     1
 44
1.0
  0
MTEXT
  5
1CC
330
1F
100
AcDbEntity
  8
TITLE
100
AcDbMText
 10
17.54718736303955
 20
0.4125551098718104
 30
0.0
 40
0.125
 41
0.0
 71
     2
 72
     1
  1
32
  7
SLDTEXTSTYLE1
 73
     1
 44
1.0
  0
MTEXT
  5
1CD
330
1F
100
AcDbEntity
  8
TITLE
100
AcDbMText
 10
17.54718736303955
 20
99.74720077916314
 30
0.0
 40
0.125
 41
0.0
 71
     2
 72
     1
  1
32
  7
SLDTEXTSTYLE1
 73
     1
 44
1.0
  0
MTEXT
  5
1CE
330
1F
100
AcDbEntity
  8
TITLE
100
AcDbMText
 10
19.51569130004743
 20
0.4125551098718104
 30
0.0
 40
0.125
 41
0.0
 71
     2
 72
     1
  1
31
  7
SLDTEXTSTYLE1
 73
     1
 44
1.0
  0
MTEXT
  5
1CF
330
1F
100
AcDbEntity
  8
TITLE
100
AcDbMText
 10
19.51569130004743
 20
99.74720077916314
 30
0.0
 40
0.125
 41
0.0
 71
     2
 72
     1
  1
31
  7
SLDTEXTSTYLE1
 73
     1
 44
1.0
  0
MTEXT
  5
1D0
330
1F
100
AcDbEntity
  8
TITLE
100
AcDbMText
 10
21.48419523705531
 20
0.4125551098718104
 30
0.0
 40
0.125
 41
0.0
 71
     2
 72
     1
  1
30
  7
SLDTEXTSTYLE1
 73
     1
 44
1.0
  0
MTEXT
  5
1D1
330
1F
100
AcDbEntity
  8
TITLE
100
AcDbMText
 10
21.48419523705531
 20
99.74720077916314
 30
0.0
 40
0.125
 41
0.0
 71
     2
 72
     1
  1
30
  7
SLDTEXTSTYLE1
 73
     1
 44
1.0
  0
MTEXT
  5
1D2
330
1F
100
AcDbEntity
  8
TITLE
100
AcDbMText
 10
23.45269917406318
 20
0.4125551098718104
 30
0.0
 40
0.125
 41
0.0
 71
     2
 72
     1
  1
29
  7
SLDTEXTSTYLE1
 73
     1
 44
1.0
  0
MTEXT
  5
1D3
330
1F
100
AcDbEntity
  8
TITLE
100
AcDbMText
 10
23.45269917406318
 20
99.74720077916314
 30
0.0
 40
0.125
 41
0.0
 71
     2
 72
     1
  1
29
  7
SLDTEXTSTYLE1
 73
     1
 44
1.0
  0
MTEXT
  5
1D4
330
1F
100
AcDbEntity
  8
TITLE
100
AcDbMText
 10
25.42120311107105
 20
0.4125551098718104
 30
0.0
 40
0.125
 41
0.0
 71
     2
 72
     1
  1
28
  7
SLDTEXTSTYLE1
 73
     1
 44
1.0
  0
MTEXT
  5
1D5
330
1F
100
AcDbEntity
  8
TITLE
100
AcDbMText
 10
25.42120311107105
 20
99.74720077916314
 30
0.0
 40
0.125
 41
0.0
 71
     2
 72
     1
  1
28
  7
SLDTEXTSTYLE1
 73
     1
 44
1.0
  0
MTEXT
  5
1D6
330
1F
100
AcDbEntity
  8
TITLE
100
AcDbMText
 10
27.38970704807892
 20
0.4125551098718104
 30
0.0
 40
0.125
 41
0.0
 71
     2
 72
     1
  1
27
  7
SLDTEXTSTYLE1
 73
     1
 44
1.0
  0
MTEXT
  5
1D7
330
1F
100
AcDbEntity
  8
TITLE
100
AcDbMText
 10
27.38970704807893
 20
99.74720077916314
 30
0.0
 40
0.125
 41
0.0
 71
     2
 72
     1
  1
27
  7
SLDTEXTSTYLE1
 73
     1
 44
1.0
  0
MTEXT
  5
1D8
330
1F
100
AcDbEntity
  8
TITLE
100
AcDbMText
 10
29.3582109850868
 20
0.4125551098718104
 30
0.0
 40
0.125
 41
0.0
 71
     2
 72
     1
  1
26
  7
SLDTEXTSTYLE1
 73
     1
 44
1.0
  0
MTEXT
  5
1D9
330
1F
100
AcDbEntity
  8
TITLE
100
AcDbMText
 10
29.3582109850868
 20
99.74720077916314
 30
0.0
 40
0.125
 41
0.0
 71
     2
 72
     1
  1
26
  7
SLDTEXTSTYLE1
 73
     1
 44
1.0
  0
MTEXT
  5
1DA
330
1F
100
AcDbEntity
  8
TITLE
100
AcDbMText
 10
31.32671492209467
 20
0.4125551098718104
 30
0.0
 40
0.125
 41
0.0
 71
     2
 72
     1
  1
25
  7
SLDTEXTSTYLE1
 73
     1
 44
1.0
  0
MTEXT
  5
1DB
330
1F
100
AcDbEntity
  8
TITLE
100
AcDbMText
 10
31.32671492209467
 20
99.74720077916312
 30
0.0
 40
0.125
 41
0.0
 71
     2
 72
     1
  1
25
  7
SLDTEXTSTYLE1
 73
     1
 44
1.0
  0
MTEXT
  5
1DC
330
1F
100
AcDbEntity
  8
TITLE
100
AcDbMText
 10
33.29521885910255
 20
0.4125551098718104
 30
0.0
 40
0.125
 41
0.0
 71
     2
 72
     1
  1
24
  7
SLDTEXTSTYLE1
 73
     1
 44
1.0
  0
MTEXT
  5
1DD
330
1F
100
AcDbEntity
  8
TITLE
100
AcDbMText
 10
33.29521885910255
 20
99.74720077916314
 30
0.0
 40
0.125
 41
0.0
 71
     2
 72
     1
  1
24
  7
SLDTEXTSTYLE1
 73
     1
 44
1.0
  0
MTEXT
  5
1DE
330
1F
100
AcDbEntity
  8
TITLE
100
AcDbMText
 10
35.26372279611042
 20
0.4125551098718104
 30
0.0
 40
0.125
 41
0.0
 71
     2
 72
     1
  1
23
  7
SLDTEXTSTYLE1
 73
     1
 44
1.0
  0
MTEXT
  5
1DF
330
1F
100
AcDbEntity
  8
TITLE
100
AcDbMText
 10
35.26372279611042
 20
99.74720077916314
 30
0.0
 40
0.125
 41
0.0
 71
     2
 72
     1
  1
23
  7
SLDTEXTSTYLE1
 73
     1
 44
1.0
  0
MTEXT
  5
1E0
330
1F
100
AcDbEntity
  8
TITLE
100
AcDbMText
 10
37.2322267331183
 20
0.4125551098718104
 30
0.0
 40
0.125
 41
0.0
 71
     2
 72
     1
  1
22
  7
SLDTEXTSTYLE1
 73
     1
 44
1.0
  0
MTEXT
  5
1E1
330
1F
100
AcDbEntity
  8
TITLE
100
AcDbMText
 10
37.2322267331183
 20
99.74720077916314
 30
0.0
 40
0.125
 41
0.0
 71
     2
 72
     1
  1
22
  7
SLDTEXTSTYLE1
 73
     1
 44
1.0
  0
MTEXT
  5
1E2
330
1F
100
AcDbEntity
  8
TITLE
100
AcDbMText
 10
39.20073067012617
 20
0.4125551098718104
 30
0.0
 40
0.125
 41
0.0
 71
     2
 72
     1
  1
21
  7
SLDTEXTSTYLE1
 73
     1
 44
1.0
  0
MTEXT
  5
1E3
330
1F
100
AcDbEntity
  8
TITLE
100
AcDbMText
 10
39.20073067012617
 20
99.74720077916314
 30
0.0
 40
0.125
 41
0.0
 71
     2
 72
     1
  1
21
  7
SLDTEXTSTYLE1
 73
     1
 44
1.0
  0
MTEXT
  5
1E4
330
1F
100
AcDbEntity
  8
TITLE
100
AcDbMText
 10
41.16923460713404
 20
0.4125551098718104
 30
0.0
 40
0.125
 41
0.0
 71
     2
 72
     1
  1
20
  7
SLDTEXTSTYLE1
 73
     1
 44
1.0
  0
MTEXT
  5
1E5
330
1F
100
AcDbEntity
  8
TITLE
100
AcDbMText
 10
41.16923460713404
 20
99.74720077916314
 30
0.0
 40
0.125
 41
0.0
 71
     2
 72
     1
  1
20
  7
SLDTEXTSTYLE1
 73
     1
 44
1.0
  0
MTEXT
  5
1E6
330
1F
100
AcDbEntity
  8
TITLE
100
AcDbMText
 10
43.13773854414192
 20
0.4125551098718104
 30
0.0
 40
0.125
 41
0.0
 71
     2
 72
     1
  1
19
  7
SLDTEXTSTYLE1
 73
     1
 44
1.0
  0
MTEXT
  5
1E7
330
1F
100
AcDbEntity
  8
TITLE
100
AcDbMText
 10
43.13773854414192
 20
99.74720077916314
 30
0.0
 40
0.125
 41
0.0
 71
     2
 72
     1
  1
19
  7
SLDTEXTSTYLE1
 73
     1
 44
1.0
  0
MTEXT
  5
1E8
330
1F
100
AcDbEntity
  8
TITLE
100
AcDbMText
 10
45.10624248114979
 20
0.4125551098718104
 30
0.0
 40
0.125
 41
0.0
 71
     2
 72
     1
  1
18
  7
SLDTEXTSTYLE1
 73
     1
 44
1.0
  0
MTEXT
  5
1E9
330
1F
100
AcDbEntity
  8
TITLE
100
AcDbMText
 10
45.10624248114979
 20
99.74720077916314
 30
0.0
 40
0.125
 41
0.0
 71
     2
 72
     1
  1
18
  7
SLDTEXTSTYLE1
 73
     1
 44
1.0
  0
MTEXT
  5
1EA
330
1F
100
AcDbEntity
  8
TITLE
100
AcDbMText
 10
47.07474641815766
 20
0.4125551098718104
 30
0.0
 40
0.125
 41
0.0
 71
     2
 72
     1
  1
17
  7
SLDTEXTSTYLE1
 73
     1
 44
1.0
  0
MTEXT
  5
1EB
330
1F
100
AcDbEntity
  8
TITLE
100
AcDbMText
 10
47.07474641815766
 20
99.74720077916314
 30
0.0
 40
0.125
 41
0.0
 71
     2
 72
     1
  1
17
  7
SLDTEXTSTYLE1
 73
     1
 44
1.0
  0
MTEXT
  5
1EC
330
1F
100
AcDbEntity
  8
TITLE
100
AcDbMText
 10
49.04325035516555
 20
0.4125551098718104
 30
0.0
 40
0.125
 41
0.0
 71
     2
 72
     1
  1
16
  7
SLDTEXTSTYLE1
 73
     1
 44
1.0
  0
MTEXT
  5
1ED
330
1F
100
AcDbEntity
  8
TITLE
100
AcDbMText
 10
49.04325035516555
 20
99.74720077916315
 30
0.0
 40
0.125
 41
0.0
 71
     2
 72
     1
  1
16
  7
SLDTEXTSTYLE1
 73
     1
 44
1.0
  0
MTEXT
  5
1EE
330
1F
100
AcDbEntity
  8
TITLE
100
AcDbMText
 10
51.01175429217341
 20
0.4125551098718104
 30
0.0
 40
0.125
 41
0.0
 71
     2
 72
     1
  1
15
  7
SLDTEXTSTYLE1
 73
     1
 44
1.0
  0
MTEXT
  5
1EF
330
1F
100
AcDbEntity
  8
TITLE
100
AcDbMText
 10
51.01175429217341
 20
99.74720077916314
 30
0.0
 40
0.125
 41
0.0
 71
     2
 72
     1
  1
15
  7
SLDTEXTSTYLE1
 73
     1
 44
1.0
  0
MTEXT
  5
1F0
330
1F
100
AcDbEntity
  8
TITLE
100
AcDbMText
 10
52.9802582291813
 20
0.4125551098718104
 30
0.0
 40
0.125
 41
0.0
 71
     2
 72
     1
  1
14
  7
SLDTEXTSTYLE1
 73
     1
 44
1.0
  0
MTEXT
  5
1F1
330
1F
100
AcDbEntity
  8
TITLE
100
AcDbMText
 10
52.98025822918129
 20
99.74720077916312
 30
0.0
 40
0.125
 41
0.0
 71
     2
 72
     1
  1
14
  7
SLDTEXTSTYLE1
 73
     1
 44
1.0
  0
MTEXT
  5
1F2
330
1F
100
AcDbEntity
  8
TITLE
100
AcDbMText
 10
54.94876216618916
 20
0.4125551098718104
 30
0.0
 40
0.125
 41
0.0
 71
     2
 72
     1
  1
13
  7
SLDTEXTSTYLE1
 73
     1
 44
1.0
  0
MTEXT
  5
1F3
330
1F
100
AcDbEntity
  8
TITLE
100
AcDbMText
 10
54.94876216618916
 20
99.74720077916314
 30
0.0
 40
0.125
 41
0.0
 71
     2
 72
     1
  1
13
  7
SLDTEXTSTYLE1
 73
     1
 44
1.0
  0
MTEXT
  5
1F4
330
1F
100
AcDbEntity
  8
TITLE
100
AcDbMText
 10
56.91726610319703
 20
0.4125551098718104
 30
0.0
 40
0.125
 41
0.0
 71
     2
 72
     1
  1
12
  7
SLDTEXTSTYLE1
 73
     1
 44
1.0
  0
MTEXT
  5
1F5
330
1F
100
AcDbEntity
  8
TITLE
100
AcDbMText
 10
56.91726610319703
 20
99.74720077916314
 30
0.0
 40
0.125
 41
0.0
 71
     2
 72
     1
  1
12
  7
SLDTEXTSTYLE1
 73
     1
 44
1.0
  0
MTEXT
  5
1F6
330
1F
100
AcDbEntity
  8
TITLE
100
AcDbMText
 10
58.88577004020492
 20
0.4125551098718104
 30
0.0
 40
0.125
 41
0.0
 71
     2
 72
     1
  1
11
  7
SLDTEXTSTYLE1
 73
     1
 44
1.0
  0
MTEXT
  5
1F7
330
1F
100
AcDbEntity
  8
TITLE
100
AcDbMText
 10
58.88577004020492
 20
99.74720077916314
 30
0.0
 40
0.125
 41
0.0
 71
     2
 72
     1
  1
11
  7
SLDTEXTSTYLE1
 73
     1
 44
1.0
  0
MTEXT
  5
1F8
330
1F
100
AcDbEntity
  8
TITLE
100
AcDbMText
 10
60.85427397721278
 20
0.4125551098718104
 30
0.0
 40
0.125
 41
0.0
 71
     2
 72
     1
  1
10
  7
SLDTEXTSTYLE1
 73
     1
 44
1.0
  0
MTEXT
  5
1F9
330
1F
100
AcDbEntity
  8
TITLE
100
AcDbMText
 10
60.85427397721278
 20
99.74720077916312
 30
0.0
 40
0.125
 41
0.0
 71
     2
 72
     1
  1
10
  7
SLDTEXTSTYLE1
 73
     1
 44
1.0
  0
MTEXT
  5
1FA
330
1F
100
AcDbEntity
  8
TITLE
100
AcDbMText
 10
62.82403659490561
 20
0.4125551098718105
 30
0.0
 40
0.125
 41
0.0
 71
     2
 72
     1
  1
9
  7
SLDTEXTSTYLE1
 73
     1
 44
1.0
  0
MTEXT
  5
1FB
330
1F
100
AcDbEntity
  8
TITLE
100
AcDbMText
 10
62.82403659490561
 20
99.74720077916314
 30
0.0
 40
0.125
 41
0.0
 71
     2
 72
     1
  1
9
  7
SLDTEXTSTYLE1
 73
     1
 44
1.0
  0
MTEXT
  5
1FC
330
1F
100
AcDbEntity
  8
TITLE
100
AcDbMText
 10
64.79254053191349
 20
0.4125551098718104
 30
0.0
 40
0.125
 41
0.0
 71
     2
 72
     1
  1
8
  7
SLDTEXTSTYLE1
 73
     1
 44
1.0
  0
MTEXT
  5
1FD
330
1F
100
AcDbEntity
  8
TITLE
100
AcDbMText
 10
64.79254053191349
 20
99.74720077916314
 30
0.0
 40
0.125
 41
0.0
 71
     2
 72
     1
  1
8
  7
SLDTEXTSTYLE1
 73
     1
 44
1.0
  0
MTEXT
  5
1FE
330
1F
100
AcDbEntity
  8
TITLE
100
AcDbMText
 10
66.76104446892136
 20
0.4125551098718104
 30
0.0
 40
0.125
 41
0.0
 71
     2
 72
     1
  1
7
  7
SLDTEXTSTYLE1
 73
     1
 44
1.0
  0
MTEXT
  5
1FF
330
1F
100
AcDbEntity
  8
TITLE
100
AcDbMText
 10
66.76104446892137
 20
99.74720077916314
 30
0.0
 40
0.125
 41
0.0
 71
     2
 72
     1
  1
7
  7
SLDTEXTSTYLE1
 73
     1
 44
1.0
  0
MTEXT
  5
200
330
1F
100
AcDbEntity
  8
TITLE
100
AcDbMText
 10
68.72954840592924
 20
0.4125551098718104
 30
0.0
 40
0.125
 41
0.0
 71
     2
 72
     1
  1
6
  7
SLDTEXTSTYLE1
 73
     1
 44
1.0
  0
MTEXT
  5
201
330
1F
100
AcDbEntity
  8
TITLE
100
AcDbMText
 10
68.72954840592924
 20
99.74720077916314
 30
0.0
 40
0.125
 41
0.0
 71
     2
 72
     1
  1
6
  7
SLDTEXTSTYLE1
 73
     1
 44
1.0
  0
MTEXT
  5
202
330
1F
100
AcDbEntity
  8
TITLE
100
AcDbMText
 10
70.69805234293709
 20
0.4125551098718104
 30
0.0
 40
0.125
 41
0.0
 71
     2
 72
     1
  1
5
  7
SLDTEXTSTYLE1
 73
     1
 44
1.0
  0
MTEXT
  5
203
330
1F
100
AcDbEntity
  8
TITLE
100
AcDbMText
 10
70.6980523429371
 20
99.74720077916314
 30
0.0
 40
0.125
 41
0.0
 71
     2
 72
     1
  1
5
  7
SLDTEXTSTYLE1
 73
     1
 44
1.0
  0
MTEXT
  5
204
330
1F
100
AcDbEntity
  8
TITLE
100
AcDbMText
 10
72.66655627994497
 20
0.4125551098718104
 30
0.0
 40
0.125
 41
0.0
 71
     2
 72
     1
  1
4
  7
SLDTEXTSTYLE1
 73
     1
 44
1.0
  0
MTEXT
  5
205
330
1F
100
AcDbEntity
  8
TITLE
100
AcDbMText
 10
72.66655627994498
 20
99.74720077916315
 30
0.0
 40
0.125
 41
0.0
 71
     2
 72
     1
  1
4
  7
SLDTEXTSTYLE1
 73
     1
 44
1.0
  0
MTEXT
  5
206
330
1F
100
AcDbEntity
  8
TITLE
100
AcDbMText
 10
74.63506021695285
 20
0.4125551098718104
 30
0.0
 40
0.125
 41
0.0
 71
     2
 72
     1
  1
3
  7
SLDTEXTSTYLE1
 73
     1
 44
1.0
  0
MTEXT
  5
207
330
1F
100
AcDbEntity
  8
TITLE
100
AcDbMText
 10
74.63506021695284
 20
99.74720077916314
 30
0.0
 40
0.125
 41
0.0
 71
     2
 72
     1
  1
3
  7
SLDTEXTSTYLE1
 73
     1
 44
1.0
  0
MTEXT
  5
208
330
1F
100
AcDbEntity
  8
TITLE
100
AcDbMText
 10
76.60356415396072
 20
0.4125551098718104
 30
0.0
 40
0.125
 41
0.0
 71
     2
 72
     1
  1
2
  7
SLDTEXTSTYLE1
 73
     1
 44
1.0
  0
MTEXT
  5
209
330
1F
100
AcDbEntity
  8
TITLE
100
AcDbMText
 10
76.60356415396073
 20
99.74720077916314
 30
0.0
 40
0.125
 41
0.0
 71
     2
 72
     1
  1
2
  7
SLDTEXTSTYLE1
 73
     1
 44
1.0
  0
MTEXT
  5
20A
330
1F
100
AcDbEntity
  8
TITLE
100
AcDbMText
 10
78.73077872088987
 20
0.4125551098718104
 30
0.0
 40
0.125
 41
0.0
 71
     2
 72
     1
  1
1
  7
SLDTEXTSTYLE1
 73
     1
 44
1.0
  0
MTEXT
  5
20B
330
1F
100
AcDbEntity
  8
TITLE
100
AcDbMText
 10
78.73077872088987
 20
99.74720077916314
 30
0.0
 40
0.125
 41
0.0
 71
     2
 72
     1
  1
1
  7
SLDTEXTSTYLE1
 73
     1
 44
1.0
  0
SPLINE
  5
20C
330
1F
100
AcDbEntity
  8
0
  6
SLD-Solid
 62
     7
370
    25
100
AcDbSpline
210
0.0
220
0.0
230
1.0
 70
    12
 71
     3
 72
    27
 73
    23
 74
     0
 42
0.00000001
 43
0.00000001
 40
0.0
 40
0.0
 40
0.0
 40
0.0
 40
0.044662722224909
 40
0.0922944070121751
 40
0.1407482023913864
 40
0.190906805111249
 40
0.2427002822321811
 40
0.2954119949894007
 40
0.3483025099127461
 40
0.4010467626068697
 40
0.4536266141721961
 40
0.506107591801972
 40
0.5585823733909591
 40
0.6111339679722718
 40
0.6638553547959708
 40
0.7168554654656605
 40
0.7702232378675946
 40
0.823955392592265
 40
0.8776315236003602
 40
0.9302785284153439
 40
0.9809047143801566
 40
1.0
 40
1.0
 40
1.0
 40
1.0
 10
18.85714960055802
 20
36.40004131816212
 30
0.0
 41
1.0
 10
18.85626709585737
 20
36.41405719346004
 30
0.0
 41
1.0
 10
18.85444342179602
 20
36.44302065190897
 30
0.0
 41
1.0
 10
18.83772445783465
 20
36.48514852865893
 30
0.0
 41
1.0
 10
18.8113316761475
 20
36.52536552139568
 30
0.0
 41
1.0
 10
18.77470469519819
 20
36.56233758763349
 30
0.0
 41
1.0
 10
18.72853185732469
 20
36.59541949739744
 30
0.0
 41
1.0
 10
18.67371462050648
 20
36.62365907883169
 30
0.0
 41
1.0
 10
18.61191176672854
 20
36.64619286495437
 30
0.0
 41
1.0
 10
18.54497235046571
 20
36.66245465049709
 30
0.0
 41
1.0
 10
18.47469626360689
 20
36.67213567140404
 30
0.0
 41
1.0
 10
18.40281930667759
 20
36.67508222023197
 30
0.0
 41
1.0
 10
18.33107605562917
 20
36.67125305261168
 30
0.0
 41
1.0
 10
18.2611832704666
 20
36.66071266313033
 30
0.0
 41
1.0
 10
18.1947984745496
 20
36.64361846336441
 30
0.0
 41
1.0
 10
18.13349644181443
 20
36.62019042195382
 30
0.0
 41
1.0
 10
18.07875099159416
 20
36.59067941640351
 30
0.0
 41
1.0
 10
18.03218411128661
 20
36.55540760395945
 30
0.0
 41
1.0
 10
17.99518397104299
 20
36.51495669109195
 30
0.0
 41
1.0
 10
17.97046777204606
 20
36.47045183833084
 30
0.0
 41
1.0
 10
17.95830194782399
 20
36.43291849797951
 30
0.0
 41
1.0
 10
17.95887626269819
 20
36.41104869353341
 30
0.0
 41
1.0
 10
17.95903355580043
 20
36.40505900122118
 30
0.0
 41
1.0
  0
LINE
  5
20D
330
1F
100
AcDbEntity
  8
0
  6
SLD-Solid
 62
     7
370
    25
100
AcDbLine
 10
18.85752514089481
 20
36.23381187765429
 30
0.0
 11
18.85752514089481
 21
36.39927602478315
 31
0.0
  0
LINE
  5
20E
330
1F
100
AcDbEntity
  8
0
  6
SLD-Solid
 62
     7
370
    25
100
AcDbLine
 10
17.95752514089481
 20
36.39927602478314
 30
0.0
 11
17.95752514089481
 21
36.23381187765428
 31
0.0
  0
LINE
  5
20F
330
1F
100
AcDbEntity
  8
0
  6
SLD-Solid
 62
     7
370
    25
100
AcDbLine
 10
18.72252514089481
 20
36.43030055236981
 30
0.0
 11
18.72252514089481
 21
36.44064206156536
 31
0.0
  0
LINE
  5
210
330
1F
100
AcDbEntity
  8
0
  6
SLD-Solid
 62
     7
370
    25
100
AcDbLine
 10
11.84601445615403
 20
30.18373677357478
 30
0.0
 11
11.81139591569893
 21
30.18373677357478
 31
0.0
  0
LINE
  5
211
330
1F
100
AcDbEntity
  8
0
  6
SLD-Solid
 62
     7
370
    25
100
AcDbLine
 10
11.81139591569893
 20
30.05873677357478
 30
0.0
 11
11.84601445615403
 21
30.05873677357478
 31
0.0
  0
LINE
  5
212
330
1F
100
AcDbEntity
  8
0
  6
SLD-Solid
 62
     7
370
    25
100
AcDbLine
 10
24.96903368908152
 20
30.05873677357474
 30
0.0
 11
25.00365222953666
 21
30.05873677357474
 31
0.0
  0
LINE
  5
213
330
1F
100
AcDbEntity
  8
0
  6
SLD-Solid
 62
     7
370
    25
100
AcDbLine
 10
25.00365222953666
 20
30.18373677357474
 30
0.0
 11
24.96903368908152
 21
30.18373677357474
 31
0.0
  0
ARC
  5
214
330
1F
100
AcDbEntity
  8
0
  6
SLD-Solid
 62
     7
370
    25
100
AcDbCircle
 10
25.07615222953665
 20
30.2461768920513
 30
0.0
 40
0.0025000000000017
100
AcDbArc
 50
32.98629416237022
 51
180.0
  0
ARC
  5
215
330
1F
100
AcDbEntity
  8
0
  6
SLD-Solid
 62
     7
370
    25
100
AcDbCircle
 10
25.07615222953665
 20
29.99629665509818
 30
0.0
 40
0.0025000000000017
100
AcDbArc
 50
180.0
 51
327.0137058376306
  0
ARC
  5
216
330
1F
100
AcDbEntity
  8
0
  6
SLD-Solid
 62
     7
370
    25
100
AcDbCircle
 10
24.88366052622242
 20
30.12123677357474
 30
0.0
 40
0.2319843982708854
100
AcDbArc
 50
327.0137058375627
 51
32.98629416243963
  0
ARC
  5
217
330
1F
100
AcDbEntity
  8
0
  6
SLD-Solid
 62
     7
370
    25
100
AcDbCircle
 10
11.7388959156989
 20
29.99629665509822
 30
0.0
 40
0.0025000000000002
100
AcDbArc
 50
212.9862941623932
 51
0.0
  0
ARC
  5
218
330
1F
100
AcDbEntity
  8
0
  6
SLD-Solid
 62
     7
370
    25
100
AcDbCircle
 10
11.7388959156989
 20
30.24617689205133
 30
0.0
 40
0.0024999999999995
100
AcDbArc
 50
0.0
 51
147.0137058376759
  0
ARC
  5
219
330
1F
100
AcDbEntity
  8
0
  6
SLD-Solid
 62
     7
370
    25
100
AcDbCircle
 10
11.93138761901313
 20
30.12123677357478
 30
0.0
 40
0.231984398270882
100
AcDbArc
 50
147.0137058375609
 51
212.9862941624392
  0
LINE
  5
21A
330
1F
100
AcDbEntity
  8
0
  6
SLD-Solid
 62
     7
370
    25
100
AcDbLine
 10
13.58239907261774
 20
29.93373677357472
 30
0.0
 11
18.08239907261774
 21
29.93373677357472
 31
0.0
  0
LINE
  5
21B
330
1F
100
AcDbEntity
  8
0
  6
SLD-Solid
 62
     7
370
    25
100
AcDbLine
 10
18.73264907261771
 20
29.93373677357475
 30
0.0
 11
23.2326490726177
 21
29.93373677357475
 31
0.0
  0
ARC
  5
21C
330
1F
100
AcDbEntity
  8
0
  6
SLD-Solid
 62
     7
370
    25
100
AcDbCircle
 10
23.30002407261771
 20
31.21084420746487
 30
0.0
 40
0.3146074338901334
100
AcDbArc
 50
257.6339965781266
 51
299.7732353832892
  0
LINE
  5
21D
330
1F
100
AcDbEntity
  8
0
  6
SLD-Solid
 62
     7
370
    25
100
AcDbLine
 10
23.456248228924
 20
30.93776573807315
 30
0.0
 11
23.456248228924
 21
30.95623677357474
 31
0.0
  0
LINE
  5
21E
330
1F
100
AcDbEntity
  8
0
  6
SLD-Solid
 62
     7
370
    25
100
AcDbLine
 10
23.39377407261771
 20
30.95623677357474
 30
0.0
 11
23.39377407261771
 21
31.00623677357474
 31
0.0
  0
LINE
  5
21F
330
1F
100
AcDbEntity
  8
0
  6
SLD-Solid
 62
     7
370
    25
100
AcDbLine
 10
23.39377407261771
 20
31.05623677357474
 30
0.0
 11
23.39377407261771
 21
31.10573677357474
 31
0.0
  0
ARC
  5
220
330
1F
100
AcDbEntity
  8
0
  6
SLD-Solid
 62
     7
370
    25
100
AcDbCircle
 10
13.51502407261772
 20
31.21084420746486
 30
0.0
 40
0.3146074338901325
100
AcDbArc
 50
240.2267646167127
 51
282.3660034218735
  0
LINE
  5
221
330
1F
100
AcDbEntity
  8
0
  6
SLD-Solid
 62
     7
370
    25
100
AcDbLine
 10
13.35879991631144
 20
30.95623677357473
 30
0.0
 11
13.35879991631144
 21
30.93776573807314
 31
0.0
  0
LINE
  5
222
330
1F
100
AcDbEntity
  8
0
  6
SLD-Solid
 62
     7
370
    25
100
AcDbLine
 10
13.42127407261772
 20
31.10573677357474
 30
0.0
 11
13.42127407261772
 21
31.05623677357474
 31
0.0
  0
LINE
  5
223
330
1F
100
AcDbEntity
  8
0
  6
SLD-Solid
 62
     7
370
    25
100
AcDbLine
 10
13.42127407261772
 20
31.00623677357474
 30
0.0
 11
13.42127407261772
 21
30.95623677357473
 31
0.0
  0
ARC
  5
224
330
1F
100
AcDbEntity
  8
0
  6
SLD-Solid
 62
     7
370
    25
100
AcDbCircle
 10
18.2797740726177
 20
32.96873677357475
 30
0.0
 40
0.0500000000000043
100
AcDbArc
 50
90.0
 51
168.9173680776967
  0
ARC
  5
225
330
1F
100
AcDbEntity
  8
0
  6
SLD-Solid
 62
     7
370
    25
100
AcDbCircle
 10
18.2797740726177
 20
31.39873677357475
 30
0.0
 40
0.050000000000001
100
AcDbArc
 50
191.0826319223002
 51
270.0000000000008
  0
LINE
  5
226
330
1F
100
AcDbEntity
  8
0
  6
SLD-Solid
 62
     7
370
    25
100
AcDbLine
 10
18.3197740726177
 20
33.01873677357475
 30
0.0
 11
18.2797740726177
 21
33.01873677357475
 31
0.0
  0
LINE
  5
227
330
1F
100
AcDbEntity
  8
0
  6
SLD-Solid
 62
     7
370
    25
100
AcDbLine
 10
18.2797740726177
 20
31.34873677357475
 30
0.0
 11
18.3197740726177
 21
31.34873677357475
 31
0.0
  0
ARC
  5
228
330
1F
100
AcDbEntity
  8
0
  6
SLD-Solid
 62
     7
370
    25
100
AcDbCircle
 10
18.3197740726177
 20
32.96873677357475
 30
0.0
 40
0.0500000000000043
100
AcDbArc
 50
0.0
 51
90.0
  0
ARC
  5
229
330
1F
100
AcDbEntity
  8
0
  6
SLD-Solid
 62
     7
370
    25
100
AcDbCircle
 10
18.3197740726177
 20
31.39873677357475
 30
0.0
 40
0.0500000000000007
100
AcDbArc
 50
270.0000000000008
 51
0.0
  0
ARC
  5
22A
330
1F
100
AcDbEntity
  8
0
  6
SLD-Solid
 62
     7
370
    25
100
AcDbCircle
 10
18.24297341093829
 20
32.97594519226107
 30
0.0
 40
0.0125000000000002
100
AcDbArc
 50
168.9173680776799
 51
180.0
  0
ARC
  5
22B
330
1F
100
AcDbEntity
  8
0
  6
SLD-Solid
 62
     7
370
    25
100
AcDbCircle
 10
18.24297341093829
 20
31.39152835488843
 30
0.0
 40
0.0124999999999995
100
AcDbArc
 50
180.0
 51
191.082631922305
  0
LINE
  5
22C
330
1F
100
AcDbEntity
  8
0
  6
SLD-Solid
 62
     7
370
    25
100
AcDbLine
 10
18.23047341093829
 20
32.97594519226107
 30
0.0
 11
18.23047341093829
 21
31.39152835488843
 31
0.0
  0
LWPOLYLINE
  5
22D
330
1F
100
AcDbEntity
  8
0
  6
SLD-Solid
 62
     7
370
    25
100
AcDbPolyline
 90
        3
 70
   128
 43
0.0
 10
18.2272740726177
 20
31.51773677357475
 10
18.2297127016429
 20
31.51749658957979
 10
18.23047341093829
 20
31.51732040855395
  0
LWPOLYLINE
  5
22E
330
1F
100
AcDbEntity
  8
0
  6
SLD-Solid
 62
     7
370
    25
100
AcDbPolyline
 90
        3
 70
   128
 43
0.0
 10
18.23047341093829
 20
32.85015313859556
 10
18.2297127016429
 20
32.84997695756971
 10
18.2272740726177
 20
32.84973677357475
  0
LINE
  5
22F
330
1F
100
AcDbEntity
  8
0
  6
SLD-Solid
 62
     7
370
    25
100
AcDbLine
 10
18.2272740726177
 20
32.84973677357475
 30
0.0
 11
18.08239907261774
 21
32.84973677357475
 31
0.0
  0
ARC
  5
230
330
1F
100
AcDbEntity
  8
0
  6
SLD-Solid
 62
     7
370
    25
100
AcDbCircle
 10
17.68504621019269
 20
32.18373677357475
 30
0.0
 40
0.7000000000000021
100
AcDbArc
 50
357.3912504070952
 51
2.608749592905588
  0
LINE
  5
231
330
1F
100
AcDbEntity
  8
0
  6
SLD-Solid
 62
     7
370
    25
100
AcDbLine
 10
18.37033644214557
 20
31.84495178115225
 30
0.0
 11
18.3843207517505
 21
32.15187589585428
 31
0.0
  0
LINE
  5
232
330
1F
100
AcDbEntity
  8
0
  6
SLD-Solid
 62
     7
370
    25
100
AcDbLine
 10
18.3843207517505
 20
32.21559765129522
 30
0.0
 11
18.37033644214557
 21
32.52252176599725
 31
0.0
  0
LINE
  5
233
330
1F
100
AcDbEntity
  8
0
  6
SLD-Solid
 62
     7
370
    25
100
AcDbLine
 10
18.49527407261773
 20
31.34873677357475
 30
0.0
 11
18.53527407261774
 21
31.34873677357475
 31
0.0
  0
LINE
  5
234
330
1F
100
AcDbEntity
  8
0
  6
SLD-Solid
 62
     7
370
    25
100
AcDbLine
 10
18.53527407261774
 20
33.01873677357475
 30
0.0
 11
18.49527407261773
 21
33.01873677357475
 31
0.0
  0
ARC
  5
235
330
1F
100
AcDbEntity
  8
0
  6
SLD-Solid
 62
     7
370
    25
100
AcDbCircle
 10
18.49527407261773
 20
31.39873677357475
 30
0.0
 40
0.0500000000000007
100
AcDbArc
 50
180.0
 51
270.0000000000008
  0
ARC
  5
236
330
1F
100
AcDbEntity
  8
0
  6
SLD-Solid
 62
     7
370
    25
100
AcDbCircle
 10
18.49527407261773
 20
32.96873677357475
 30
0.0
 40
0.0500000000000043
100
AcDbArc
 50
90.0
 51
180.0
  0
ARC
  5
237
330
1F
100
AcDbEntity
  8
0
  6
SLD-Solid
 62
     7
370
    25
100
AcDbCircle
 10
18.53527407261774
 20
31.39873677357475
 30
0.0
 40
0.0500000000000007
100
AcDbArc
 50
270.0000000000008
 51
348.9173680777007
  0
ARC
  5
238
330
1F
100
AcDbEntity
  8
0
  6
SLD-Solid
 62
     7
370
    25
100
AcDbCircle
 10
18.53527407261774
 20
32.96873677357475
 30
0.0
 40
0.0500000000000043
100
AcDbArc
 50
11.08263192230413
 51
90.0
  0
ARC
  5
239
330
1F
100
AcDbEntity
  8
0
  6
SLD-Solid
 62
     7
370
    25
100
AcDbCircle
 10
18.57207473429715
 20
31.39152835488843
 30
0.0
 40
0.0124999999999995
100
AcDbArc
 50
348.9173680776967
 51
0.0
  0
ARC
  5
23A
330
1F
100
AcDbEntity
  8
0
  6
SLD-Solid
 62
     7
370
    25
100
AcDbCircle
 10
18.57207473429715
 20
32.97594519226107
 30
0.0
 40
0.0125000000000002
100
AcDbArc
 50
0.0
 51
11.08263192232011
  0
LINE
  5
23B
330
1F
100
AcDbEntity
  8
0
  6
SLD-Solid
 62
     7
370
    25
100
AcDbLine
 10
18.58457473429715
 20
31.39152835488843
 30
0.0
 11
18.58457473429715
 21
32.97594519226107
 31
0.0
  0
LWPOLYLINE
  5
23C
330
1F
100
AcDbEntity
  8
0
  6
SLD-Solid
 62
     7
370
    25
100
AcDbPolyline
 90
        3
 70
   128
 43
0.0
 10
18.58777407261773
 20
32.84973677357475
 10
18.58533544359253
 20
32.84997695756971
 10
18.58457473429715
 20
32.85015313859556
  0
LWPOLYLINE
  5
23D
330
1F
100
AcDbEntity
  8
0
  6
SLD-Solid
 62
     7
370
    25
100
AcDbPolyline
 90
        3
 70
   128
 43
0.0
 10
18.58457473429715
 20
31.51732040855395
 10
18.58533544359253
 20
31.51749658957979
 10
18.58777407261773
 20
31.51773677357475
  0
LINE
  5
23E
330
1F
100
AcDbEntity
  8
0
  6
SLD-Solid
 62
     7
370
    25
100
AcDbLine
 10
18.58777407261773
 20
31.51773677357475
 30
0.0
 11
18.73264907261771
 21
31.51773677357475
 31
0.0
  0
LINE
  5
23F
330
1F
100
AcDbEntity
  8
0
  6
SLD-Solid
 62
     7
370
    25
100
AcDbLine
 10
18.73264907261771
 20
32.84973677357475
 30
0.0
 11
18.58777407261773
 21
32.84973677357475
 31
0.0
  0
ARC
  5
240
330
1F
100
AcDbEntity
  8
0
  6
SLD-Solid
 62
     7
370
    25
100
AcDbCircle
 10
19.13000193504275
 20
32.18373677357475
 30
0.0
 40
0.6999999999999985
100
AcDbArc
 50
177.3912504070944
 51
182.6087495929064
  0
LINE
  5
241
330
1F
100
AcDbEntity
  8
0
  6
SLD-Solid
 62
     7
370
    25
100
AcDbLine
 10
18.44471170308986
 20
32.52252176599725
 30
0.0
 11
18.43072739348494
 21
32.21559765129522
 31
0.0
  0
LINE
  5
242
330
1F
100
AcDbEntity
  8
0
  6
SLD-Solid
 62
     7
370
    25
100
AcDbLine
 10
18.43072739348494
 20
32.15187589585428
 30
0.0
 11
18.44471170308986
 21
31.84495178115225
 31
0.0
  0
ARC
  5
243
330
1F
100
AcDbEntity
  8
0
  6
SLD-Solid
 62
     7
370
    25
100
AcDbCircle
 10
23.47002407261768
 20
32.96873677357474
 30
0.0
 40
0.0500000000000007
100
AcDbArc
 50
0.0
 51
90.0
  0
ARC
  5
244
330
1F
100
AcDbEntity
  8
0
  6
SLD-Solid
 62
     7
370
    25
100
AcDbCircle
 10
23.47002407261768
 20
31.39873677357474
 30
0.0
 40
0.0500000000000007
100
AcDbArc
 50
270.0000000000008
 51
0.0
  0
LINE
  5
245
330
1F
100
AcDbEntity
  8
0
  6
SLD-Solid
 62
     7
370
    25
100
AcDbLine
 10
23.47002407261768
 20
33.01873677357474
 30
0.0
 11
23.43002407261768
 21
33.01873677357474
 31
0.0
  0
LINE
  5
246
330
1F
100
AcDbEntity
  8
0
  6
SLD-Solid
 62
     7
370
    25
100
AcDbLine
 10
23.43002407261768
 20
31.34873677357474
 30
0.0
 11
23.47002407261768
 21
31.34873677357474
 31
0.0
  0
ARC
  5
247
330
1F
100
AcDbEntity
  8
0
  6
SLD-Solid
 62
     7
370
    25
100
AcDbCircle
 10
23.43002407261768
 20
32.96873677357474
 30
0.0
 40
0.0500000000000003
100
AcDbArc
 50
90.0
 51
168.9173680777047
  0
ARC
  5
248
330
1F
100
AcDbEntity
  8
0
  6
SLD-Solid
 62
     7
370
    25
100
AcDbCircle
 10
23.43002407261768
 20
31.39873677357474
 30
0.0
 40
0.050000000000001
100
AcDbArc
 50
191.0826319223002
 51
270.0000000000008
  0
ARC
  5
249
330
1F
100
AcDbEntity
  8
0
  6
SLD-Solid
 62
     7
370
    25
100
AcDbCircle
 10
23.39322341093826
 20
32.97594519226107
 30
0.0
 40
0.0124999999999993
100
AcDbArc
 50
168.9173680777118
 51
180.0
  0
ARC
  5
24A
330
1F
100
AcDbEntity
  8
0
  6
SLD-Solid
 62
     7
370
    25
100
AcDbCircle
 10
23.39322341093827
 20
31.39152835488841
 30
0.0
 40
0.0125000000000028
100
AcDbArc
 50
180.0
 51
191.0826319222858
  0
LINE
  5
24B
330
1F
100
AcDbEntity
  8
0
  6
SLD-Solid
 62
     7
370
    25
100
AcDbLine
 10
23.38072341093826
 20
32.97594519226107
 30
0.0
 11
23.38072341093826
 21
31.39152835488841
 31
0.0
  0
LWPOLYLINE
  5
24C
330
1F
100
AcDbEntity
  8
0
  6
SLD-Solid
 62
     7
370
    25
100
AcDbPolyline
 90
        3
 70
   128
 43
0.0
 10
23.37752407261768
 20
31.52373677357474
 10
23.37996270164288
 20
31.52349658957978
 10
23.38072341093826
 20
31.52332040855394
  0
LWPOLYLINE
  5
24D
330
1F
100
AcDbEntity
  8
0
  6
SLD-Solid
 62
     7
370
    25
100
AcDbPolyline
 90
        3
 70
   128
 43
0.0
 10
23.38072341093826
 20
32.84415313859554
 10
23.37996270164288
 20
32.8439769575697
 10
23.37752407261768
 20
32.84373677357474
  0
LINE
  5
24E
330
1F
100
AcDbEntity
  8
0
  6
SLD-Solid
 62
     7
370
    25
100
AcDbLine
 10
23.37752407261768
 20
32.84373677357474
 30
0.0
 11
23.23264907261771
 21
32.84373677357474
 31
0.0
  0
LINE
  5
24F
330
1F
100
AcDbEntity
  8
0
  6
SLD-Solid
 62
     7
370
    25
100
AcDbLine
 10
23.23264907261771
 20
31.52373677357474
 30
0.0
 11
23.37752407261768
 21
31.52373677357474
 31
0.0
  0
SPLINE
  5
250
330
1F
100
AcDbEntity
  8
0
  6
SLD-Solid
 62
     7
370
    25
100
AcDbSpline
210
0.0
220
0.0
230
1.0
 70
    12
 71
     3
 72
     9
 73
     5
 74
     0
 42
0.00000001
 43
0.00000001
 40
0.0
 40
0.0
 40
0.0
 40
0.0
 40
0.8932875011765775
 40
0.9999999999999999
 40
0.9999999999999999
 40
0.9999999999999999
 40
0.9999999999999999
 10
23.36508869188686
 20
31.4196975492732
 30
0.0
 41
1.0
 10
23.36960359200744
 20
31.42050632851487
 30
0.0
 41
1.0
 10
23.37465784398638
 20
31.42141172486331
 30
0.0
 41
1.0
 10
23.38034918634685
 20
31.41942500385748
 30
0.0
 41
1.0
 10
23.3809565237118
 20
31.41921299589449
 30
0.0
 41
1.0
  0
ARC
  5
251
330
1F
100
AcDbEntity
  8
0
  6
SLD-Solid
 62
     7
370
    25
100
AcDbCircle
 10
13.34502407261775
 20
31.39873677357474
 30
0.0
 40
0.0499999999999989
100
AcDbArc
 50
180.0
 51
270.0000000000008
  0
ARC
  5
252
330
1F
100
AcDbEntity
  8
0
  6
SLD-Solid
 62
     7
370
    25
100
AcDbCircle
 10
13.34502407261775
 20
32.96873677357474
 30
0.0
 40
0.0499999999999989
100
AcDbArc
 50
90.0
 51
180.0
  0
LINE
  5
253
330
1F
100
AcDbEntity
  8
0
  6
SLD-Solid
 62
     7
370
    25
100
AcDbLine
 10
13.34502407261775
 20
31.34873677357474
 30
0.0
 11
13.38502407261775
 21
31.34873677357474
 31
0.0
  0
LINE
  5
254
330
1F
100
AcDbEntity
  8
0
  6
SLD-Solid
 62
     7
370
    25
100
AcDbLine
 10
13.38502407261775
 20
33.01873677357474
 30
0.0
 11
13.34502407261775
 21
33.01873677357474
 31
0.0
  0
ARC
  5
255
330
1F
100
AcDbEntity
  8
0
  6
SLD-Solid
 62
     7
370
    25
100
AcDbCircle
 10
13.38502407261775
 20
31.39873677357474
 30
0.0
 40
0.0499999999999978
100
AcDbArc
 50
270.0000000000008
 51
348.9173680777091
  0
ARC
  5
256
330
1F
100
AcDbEntity
  8
0
  6
SLD-Solid
 62
     7
370
    25
100
AcDbCircle
 10
13.38502407261775
 20
32.96873677357474
 30
0.0
 40
0.0499999999999985
100
AcDbArc
 50
11.08263192229575
 51
90.0
  0
ARC
  5
257
330
1F
100
AcDbEntity
  8
0
  6
SLD-Solid
 62
     7
370
    25
100
AcDbCircle
 10
13.42182473429717
 20
31.39152835488841
 30
0.0
 40
0.012500000000002
100
AcDbArc
 50
348.9173680776823
 51
0.0000000000010178
  0
ARC
  5
258
330
1F
100
AcDbEntity
  8
0
  6
SLD-Solid
 62
     7
370
    25
100
AcDbCircle
 10
13.42182473429717
 20
32.97594519226106
 30
0.0
 40
0.012500000000002
100
AcDbArc
 50
0.0000000000010178
 51
11.08263192231855
  0
LINE
  5
259
330
1F
100
AcDbEntity
  8
0
  6
SLD-Solid
 62
     7
370
    25
100
AcDbLine
 10
13.43432473429717
 20
31.39152835488841
 30
0.0
 11
13.43432473429717
 21
32.97594519226106
 31
0.0
  0
LWPOLYLINE
  5
25A
330
1F
100
AcDbEntity
  8
0
  6
SLD-Solid
 62
     7
370
    25
100
AcDbPolyline
 90
        3
 70
   128
 43
0.0
 10
13.43752407261775
 20
32.84373677357474
 10
13.43508544359255
 20
32.84397695756969
 10
13.43432473429717
 20
32.84415313859554
  0
LWPOLYLINE
  5
25B
330
1F
100
AcDbEntity
  8
0
  6
SLD-Solid
 62
     7
370
    25
100
AcDbPolyline
 90
        3
 70
   128
 43
0.0
 10
13.43432473429717
 20
31.52332040855394
 10
13.43508544359255
 20
31.52349658957978
 10
13.43752407261775
 20
31.52373677357474
  0
LINE
  5
25C
330
1F
100
AcDbEntity
  8
0
  6
SLD-Solid
 62
     7
370
    25
100
AcDbLine
 10
13.43752407261775
 20
31.52373677357474
 30
0.0
 11
13.58239907261774
 21
31.52373677357474
 31
0.0
  0
LINE
  5
25D
330
1F
100
AcDbEntity
  8
0
  6
SLD-Solid
 62
     7
370
    25
100
AcDbLine
 10
13.58239907261774
 20
32.84373677357474
 30
0.0
 11
13.43752407261775
 21
32.84373677357474
 31
0.0
  0
LINE
  5
25E
330
1F
100
AcDbEntity
  8
0
  6
SLD-Solid
 62
     7
370
    25
100
AcDbLine
 10
12.02139591569891
 20
33.40280960306042
 30
0.0
 11
24.79365222953667
 21
33.40280960306045
 31
0.0
  0
LINE
  5
25F
330
1F
100
AcDbEntity
  8
0
  6
SLD-Solid
 62
     7
370
    25
100
AcDbLine
 10
17.95752514089481
 20
36.39927602478314
 30
0.0
 11
17.95760267133586
 21
36.40396811291787
 31
0.0
  0
LWPOLYLINE
  5
260
330
1F
100
AcDbEntity
  8
0
  6
SLD-Solid
 62
     7
370
    25
100
AcDbPolyline
 90
       11
 70
   128
 43
0.0
 10
18.40752530580817
 20
35.98103345477069
 10
18.48357567258087
 20
35.9846694579233
 10
18.55743820402181
 20
35.99547283487911
 10
18.62698800958262
 20
36.01313279215276
 10
18.69022426798632
 20
36.03714128492688
 10
18.7453277872126
 20
36.06680763257653
 10
18.79071333934005
 20
36.1012783882932
 10
18.82507526466723
 20
36.13956189119568
 10
18.84742503316507
 20
36.18055679460804
 10
18.85711968268601
 20
36.22308374979836
 10
18.85752514089481
 20
36.23381187765429
  0
LWPOLYLINE
  5
261
330
1F
100
AcDbEntity
  8
0
  6
SLD-Solid
 62
     7
370
    25
100
AcDbPolyline
 90
       11
 70
   128
 43
0.0
 10
17.95752514089481
 20
36.23381187765428
 10
17.95793061310186
 20
36.22308356469179
 10
17.96762531811221
 20
36.18055661349295
 10
17.98997514010043
 20
36.13956171928242
 10
18.02433711538012
 20
36.10127823052741
 10
18.0697227124852
 20
36.06680749349685
 10
18.12482627042028
 20
36.03714116853436
 10
18.18806256015039
 20
36.0131327017958
 10
18.25761238875399
 20
35.99547277315713
 10
18.33147493429122
 20
35.98466942661193
 10
18.40752530580817
 20
35.98103345477069
  0
LWPOLYLINE
  5
262
330
1F
100
AcDbEntity
  8
0
  6
SLD-Solid
 62
     7
370
    25
100
AcDbPolyline
 90
       32
 70
   128
 43
0.0
 10
18.40752525633416
 20
36.26369716554684
 10
18.47093428779903
 20
36.26731925101677
 10
18.53174734133939
 20
36.27803719271511
 10
18.58747472339806
 20
36.29541219684945
 10
18.63583494840586
 20
36.31873292870903
 10
18.6748481430689
 20
36.34704463479147
 10
18.70291710261381
 20
36.37918823052327
 10
18.71889268053887
 20
36.41384775331845
 10
18.72212083480677
 20
36.44960423824145
 10
18.71246940440248
 20
36.48499381059833
 10
18.69033352002076
 20
36.51856761713868
 10
18.65661942736905
 20
36.54895114227799
 10
18.61270738536175
 20
36.57490048092716
 10
18.56039515815809
 20
36.59535326411296
 10
18.50182441448619
 20
36.60947215248867
 10
18.43939304747378
 20
36.61667911710529
 10
18.3756570046217
 20
36.61667910398461
 10
18.313225647013
 20
36.60947211366383
 10
18.25465492176352
 20
36.59535320117345
 10
18.20234272124678
 20
36.57490039644971
 10
18.15843071309833
 20
36.54895103972114
 10
18.12471666009123
 20
36.5185675007011
 10
18.10258081951681
 20
36.48499368504699
 10
18.09292943528904
 20
36.44960410871645
 10
18.0961576362122
 20
36.41384762512255
 10
18.11213325936119
 20
36.37918810890483
 10
18.14020226084725
 20
36.34704452472957
 10
18.17921549245155
 20
36.3187328347096
 10
18.22757574788837
 20
36.29541212276084
 10
18.28330315261802
 20
36.27803714157053
 10
18.34411622014319
 20
36.26731922491007
 10
18.40752525633416
 20
36.26369716554684
  0
LINE
  5
263
330
1F
100
AcDbEntity
  8
0
  6
SLD-Solid
 62
     7
370
    25
100
AcDbLine
 10
18.36252511100913
 20
36.48645068587044
 30
0.0
 11
18.36252524843693
 21
36.27580200013411
 31
0.0
  0
LINE
  5
264
330
1F
100
AcDbEntity
  8
0
  6
SLD-Solid
 62
     7
370
    25
100
AcDbLine
 10
18.36252524843693
 20
36.27580200013411
 30
0.0
 11
18.45252524843692
 21
36.27580201866146
 31
0.0
  0
LINE
  5
265
330
1F
100
AcDbEntity
  8
0
  6
SLD-Solid
 62
     7
370
    25
100
AcDbLine
 10
18.45252524843692
 20
36.27580201866146
 30
0.0
 11
18.45252511100913
 21
36.48645070439778
 31
0.0
  0
LINE
  5
266
330
1F
100
AcDbEntity
  8
0
  6
SLD-Solid
 62
     7
370
    25
100
AcDbLine
 10
18.45252511100913
 20
36.48645070439778
 30
0.0
 11
18.36252511100913
 21
36.48645068587044
 31
0.0
  0
LINE
  5
267
330
1F
100
AcDbEntity
  8
0
  6
SLD-Solid
 62
     7
370
    25
100
AcDbLine
 10
18.45252518096862
 20
36.27580201866144
 30
0.0
 11
18.45252511100913
 21
36.38303561244225
 31
0.0
  0
LINE
  5
268
330
1F
100
AcDbEntity
  8
0
  6
SLD-Solid
 62
     7
370
    25
100
AcDbLine
 10
18.45252511100913
 20
36.38303561244225
 30
0.0
 11
18.45252511100913
 21
36.48645070439778
 31
0.0
  0
LINE
  5
269
330
1F
100
AcDbEntity
  8
0
  6
SLD-Solid
 62
     7
370
    25
100
AcDbLine
 10
11.84601445615403
 20
30.05873677357478
 30
0.0
 11
11.84601445615403
 21
30.18373677357478
 31
0.0
  0
LINE
  5
26A
330
1F
100
AcDbEntity
  8
0
  6
SLD-Solid
 62
     7
370
    25
100
AcDbLine
 10
24.96903368908152
 20
30.18373677357474
 30
0.0
 11
24.96903368908152
 21
30.05873677357474
 31
0.0
  0
LINE
  5
26B
330
1F
100
AcDbEntity
  8
0
  6
SLD-Solid
 62
     7
370
    25
100
AcDbLine
 10
13.58239907261774
 20
33.0102248568804
 30
0.0
 11
13.58239907261774
 21
33.40280960306042
 31
0.0
  0
LINE
  5
26C
330
1F
100
AcDbEntity
  8
0
  6
SLD-Solid
 62
     7
370
    25
100
AcDbLine
 10
13.58239907261774
 20
29.93373677357472
 30
0.0
 11
13.58239907261774
 21
33.0102248568804
 31
0.0
  0
LINE
  5
26D
330
1F
100
AcDbEntity
  8
0
  6
SLD-Solid
 62
     7
370
    25
100
AcDbLine
 10
18.08239907261774
 20
33.0102248568804
 30
0.0
 11
18.08239907261774
 21
33.40280960306043
 31
0.0
  0
LINE
  5
26E
330
1F
100
AcDbEntity
  8
0
  6
SLD-Solid
 62
     7
370
    25
100
AcDbLine
 10
18.08239907261774
 20
29.93373677357472
 30
0.0
 11
18.08239907261774
 21
33.0102248568804
 31
0.0
  0
LINE
  5
26F
330
1F
100
AcDbEntity
  8
0
  6
SLD-Solid
 62
     7
370
    25
100
AcDbLine
 10
23.23264907261771
 20
33.40280960306044
 30
0.0
 11
23.2326490726177
 21
29.93373677357475
 31
0.0
  0
LINE
  5
270
330
1F
100
AcDbEntity
  8
0
  6
SLD-Solid
 62
     7
370
    25
100
AcDbLine
 10
18.73264907261771
 20
33.40280960306043
 30
0.0
 11
18.73264907261771
 21
29.93373677357475
 31
0.0
  0
LINE
  5
271
330
1F
100
AcDbEntity
  8
0
  6
SLD-Solid
 62
     7
370
    25
100
AcDbLine
 10
23.2326490726177
 20
30.95623677357474
 30
0.0
 11
23.456248228924
 21
30.95623677357474
 31
0.0
  0
LINE
  5
272
330
1F
100
AcDbEntity
  8
0
  6
SLD-Solid
 62
     7
370
    25
100
AcDbLine
 10
13.57743377792936
 20
33.11123677357474
 30
0.0
 11
13.58239907261774
 21
33.11123677357474
 31
0.0
  0
LINE
  5
273
330
1F
100
AcDbEntity
  8
0
  6
SLD-Solid
 62
     7
370
    25
100
AcDbLine
 10
13.35879991631144
 20
30.95623677357473
 30
0.0
 11
13.58239907261774
 21
30.95623677357473
 31
0.0
  0
LINE
  5
274
330
1F
100
AcDbEntity
  8
0
  6
SLD-Solid
 62
     7
370
    25
100
AcDbLine
 10
13.58239907261774
 20
31.25623677357473
 30
0.0
 11
13.57743377792937
 21
31.25623677357473
 31
0.0
  0
LINE
  5
275
330
1F
100
AcDbEntity
  8
0
  6
SLD-Solid
 62
     7
370
    25
100
AcDbLine
 10
18.3697740726177
 20
32.96873677357475
 30
0.0
 11
18.3697740726177
 21
31.39873677357475
 31
0.0
  0
ELLIPSE
  5
276
330
1F
100
AcDbEntity
  8
0
  6
SLD-Solid
 62
     7
370
    25
100
AcDbEllipse
 10
18.6697740726177
 20
32.54722718520937
 30
0.0
 11
0.0
 21
0.487112340929265
 31
0.0
210
0.0
220
0.0
230
1.0
 40
0.6158743574997304
 41
1.570796326794897
 42
1.621552695495679
  0
LINE
  5
277
330
1F
100
AcDbEntity
  8
0
  6
SLD-Solid
 62
     7
370
    25
100
AcDbLine
 10
18.37016042100872
 20
32.52251374598854
 30
0.0
 11
18.37016042100872
 21
32.2155896312865
 31
0.0
  0
ELLIPSE
  5
278
330
1F
100
AcDbEntity
  8
0
  6
SLD-Solid
 62
     7
370
    25
100
AcDbEllipse
 10
18.6697740726177
 20
32.18373677357475
 30
0.0
 11
0.0
 21
0.6278332993887688
 31
0.0
210
0.0
220
0.0
230
1.0
 40
0.4778338458505907
 41
1.520039958094124
 42
1.570796326794897
  0
ELLIPSE
  5
279
330
1F
100
AcDbEntity
  8
0
  6
SLD-Solid
 62
     7
370
    25
100
AcDbEllipse
 10
18.6697740726177
 20
32.18373677357475
 30
0.0
 11
0.0
 21
0.6278332993887688
 31
0.0
210
0.0
220
0.0
230
1.0
 40
0.4778338458505907
 41
1.570796326794897
 42
1.621552695495681
  0
LINE
  5
27A
330
1F
100
AcDbEntity
  8
0
  6
SLD-Solid
 62
     7
370
    25
100
AcDbLine
 10
18.37016042100872
 20
32.151883915863
 30
0.0
 11
18.37016042100872
 21
31.84495980116096
 31
0.0
  0
ELLIPSE
  5
27B
330
1F
100
AcDbEntity
  8
0
  6
SLD-Solid
 62
     7
370
    25
100
AcDbEllipse
 10
18.6697740726177
 20
31.82024636194014
 30
0.0
 11
0.0
 21
0.4871123409292579
 31
0.0
210
0.0
220
0.0
230
1.0
 40
0.6158743574997394
 41
1.520039958094128
 42
1.570796326794897
  0
LINE
  5
27C
330
1F
100
AcDbEntity
  8
0
  6
SLD-Solid
 62
     7
370
    25
100
AcDbLine
 10
18.38414473061365
 20
32.21558963128651
 30
0.0
 11
18.37016042100872
 21
32.52251374598854
 31
0.0
  0
LINE
  5
27D
330
1F
100
AcDbEntity
  8
0
  6
SLD-Solid
 62
     7
370
    25
100
AcDbLine
 10
18.3697740726177
 20
33.21173677357475
 30
0.0
 11
18.3697740726177
 21
32.96873677357475
 31
0.0
  0
ARC
  5
27E
330
1F
100
AcDbEntity
  8
0
  6
SLD-Solid
 62
     7
370
    25
100
AcDbCircle
 10
18.32049294835479
 20
31.15647725720829
 30
0.0
 40
0.0492866870932517
100
AcDbArc
 50
269.1642772378349
 51
359.1391553021949
  0
LINE
  5
27F
330
1F
100
AcDbEntity
  8
0
  6
SLD-Solid
 62
     7
370
    25
100
AcDbLine
 10
18.3697740726177
 20
31.39873677357475
 30
0.0
 11
18.3697740726177
 21
31.15573677357475
 31
0.0
  0
LINE
  5
280
330
1F
100
AcDbEntity
  8
0
  6
SLD-Solid
 62
     7
370
    25
100
AcDbLine
 10
18.08239907261774
 20
33.26173677357475
 30
0.0
 11
18.3197740726177
 21
33.26173677357475
 31
0.0
  0
LINE
  5
281
330
1F
100
AcDbEntity
  8
0
  6
SLD-Solid
 62
     7
370
    25
100
AcDbLine
 10
18.3197740726177
 20
33.26173677357475
 30
0.0
 11
18.3197740726177
 21
33.26027773413984
 31
0.0
  0
ARC
  5
282
330
1F
100
AcDbEntity
  8
0
  6
SLD-Solid
 62
     7
370
    25
100
AcDbCircle
 10
18.3197740726177
 20
33.21173677357475
 30
0.0
 40
0.0500000000000043
100
AcDbArc
 50
0.0
 51
90.0
  0
ARC
  5
283
330
1F
100
AcDbEntity
  8
0
  6
SLD-Solid
 62
     7
370
    25
100
AcDbCircle
 10
18.3197740726177
 20
31.15573677357475
 30
0.0
 40
0.0500000000000007
100
AcDbArc
 50
270.0000000000008
 51
0.0
  0
LINE
  5
284
330
1F
100
AcDbEntity
  8
0
  6
SLD-Solid
 62
     7
370
    25
100
AcDbLine
 10
18.3197740726177
 20
31.10719581300966
 30
0.0
 11
18.3197740726177
 21
31.10573677357475
 31
0.0
  0
LINE
  5
285
330
1F
100
AcDbEntity
  8
0
  6
SLD-Solid
 62
     7
370
    25
100
AcDbLine
 10
18.3197740726177
 20
31.10573677357475
 30
0.0
 11
18.08239907261774
 21
31.10573677357475
 31
0.0
  0
LINE
  5
286
330
1F
100
AcDbEntity
  8
0
  6
SLD-Solid
 62
     7
370
    25
100
AcDbLine
 10
18.44527407261774
 20
31.39873677357475
 30
0.0
 11
18.44527407261774
 21
32.96873677357475
 31
0.0
  0
ELLIPSE
  5
287
330
1F
100
AcDbEntity
  8
0
  6
SLD-Solid
 62
     7
370
    25
100
AcDbEllipse
 10
18.14527407261773
 20
32.18373677357475
 30
0.0
 11
0.0
 21
0.6278332993887688
 31
0.0
210
0.0
220
0.0
230
1.0
 40
0.4778338458505907
 41
4.712388980384696
 42
4.76314534908547
  0
LINE
  5
288
330
1F
100
AcDbEntity
  8
0
  6
SLD-Solid
 62
     7
370
    25
100
AcDbLine
 10
18.44488772422671
 20
32.2155896312865
 30
0.0
 11
18.44488772422671
 21
32.52251374598854
 31
0.0
  0
ELLIPSE
  5
289
330
1F
100
AcDbEntity
  8
0
  6
SLD-Solid
 62
     7
370
    25
100
AcDbEllipse
 10
18.14527407261773
 20
32.54722718520937
 30
0.0
 11
0.0
 21
0.487112340929265
 31
0.0
210
0.0
220
0.0
230
1.0
 40
0.6158743574997304
 41
4.661632611683916
 42
4.712388980384699
  0
ELLIPSE
  5
28A
330
1F
100
AcDbEntity
  8
0
  6
SLD-Solid
 62
     7
370
    25
100
AcDbEllipse
 10
18.14527407261773
 20
31.82024636194014
 30
0.0
 11
0.0
 21
0.4871123409292579
 31
0.0
210
0.0
220
0.0
230
1.0
 40
0.6158743574997394
 41
4.712388980384699
 42
4.763145349085467
  0
LINE
  5
28B
330
1F
100
AcDbEntity
  8
0
  6
SLD-Solid
 62
     7
370
    25
100
AcDbLine
 10
18.44488772422671
 20
31.84495980116096
 30
0.0
 11
18.44488772422671
 21
32.151883915863
 31
0.0
  0
ELLIPSE
  5
28C
330
1F
100
AcDbEntity
  8
0
  6
SLD-Solid
 62
     7
370
    25
100
AcDbEllipse
 10
18.14527407261773
 20
32.18373677357475
 30
0.0
 11
0.0
 21
0.6278332993887688
 31
0.0
210
0.0
220
0.0
230
1.0
 40
0.4778338458505907
 41
4.661632611683912
 42
4.712388980384696
  0
LINE
  5
28D
330
1F
100
AcDbEntity
  8
0
  6
SLD-Solid
 62
     7
370
    25
100
AcDbLine
 10
18.44488772422671
 20
32.52251374598854
 30
0.0
 11
18.43090341462179
 21
32.21558963128651
 31
0.0
  0
LINE
  5
28E
330
1F
100
AcDbEntity
  8
0
  6
SLD-Solid
 62
     7
370
    25
100
AcDbLine
 10
18.44527407261774
 20
32.96873677357475
 30
0.0
 11
18.44527407261774
 21
33.21173677357475
 31
0.0
  0
ARC
  5
28F
330
1F
100
AcDbEntity
  8
0
  6
SLD-Solid
 62
     7
370
    25
100
AcDbCircle
 10
18.49455519688064
 20
31.15647725720828
 30
0.0
 40
0.0492866870932478
100
AcDbArc
 50
180.8608446977984
 51
270.8357227621627
  0
LINE
  5
290
330
1F
100
AcDbEntity
  8
0
  6
SLD-Solid
 62
     7
370
    25
100
AcDbLine
 10
18.44527407261774
 20
31.15573677357475
 30
0.0
 11
18.44527407261774
 21
31.39873677357475
 31
0.0
  0
LINE
  5
291
330
1F
100
AcDbEntity
  8
0
  6
SLD-Solid
 62
     7
370
    25
100
AcDbLine
 10
18.49527407261773
 20
33.26173677357475
 30
0.0
 11
18.73264907261771
 21
33.26173677357475
 31
0.0
  0
ARC
  5
292
330
1F
100
AcDbEntity
  8
0
  6
SLD-Solid
 62
     7
370
    25
100
AcDbCircle
 10
18.49527407261773
 20
33.21173677357475
 30
0.0
 40
0.0500000000000043
100
AcDbArc
 50
90.0
 51
180.0
  0
LINE
  5
293
330
1F
100
AcDbEntity
  8
0
  6
SLD-Solid
 62
     7
370
    25
100
AcDbLine
 10
18.73264907261771
 20
31.10573677357475
 30
0.0
 11
18.49527407261773
 21
31.10573677357475
 31
0.0
  0
LINE
  5
294
330
1F
100
AcDbEntity
  8
0
  6
SLD-Solid
 62
     7
370
    25
100
AcDbLine
 10
18.49527407261773
 20
31.10573677357475
 30
0.0
 11
18.49527407261773
 21
31.10719581300966
 31
0.0
  0
ARC
  5
295
330
1F
100
AcDbEntity
  8
0
  6
SLD-Solid
 62
     7
370
    25
100
AcDbCircle
 10
18.49527407261773
 20
31.15573677357475
 30
0.0
 40
0.0500000000000007
100
AcDbArc
 50
180.0
 51
270.0000000000008
  0
LINE
  5
296
330
1F
100
AcDbEntity
  8
0
  6
SLD-Solid
 62
     7
370
    25
100
AcDbLine
 10
23.52002407261768
 20
32.96873677357474
 30
0.0
 11
23.52002407261768
 21
31.39873677357474
 31
0.0
  0
ELLIPSE
  5
297
330
1F
100
AcDbEntity
  8
0
  6
SLD-Solid
 62
     7
370
    25
100
AcDbEllipse
 10
23.82002407261768
 20
31.82024636199609
 30
0.0
 11
-1.065814103640150E-14
 21
0.4871123409292686
 31
0.0
210
0.0
220
0.0
230
1.0
 40
0.6158743574997185
 41
1.520039958428659
 42
1.570796326794883
  0
ELLIPSE
  5
298
330
1F
100
AcDbEntity
  8
0
  6
SLD-Solid
 62
     7
370
    25
100
AcDbEllipse
 10
23.82002407261767
 20
32.18373677357474
 30
0.0
 11
-3.197442310920451E-14
 21
0.6278332993887759
 31
0.0
210
0.0
220
0.0
230
1.0
 40
0.4778338458505853
 41
1.570796326794872
 42
1.621552695161227
  0
LINE
  5
299
330
1F
100
AcDbEntity
  8
0
  6
SLD-Solid
 62
     7
370
    25
100
AcDbLine
 10
23.5204104210036
 20
32.15188391607268
 30
0.0
 11
23.52041042100361
 21
31.84495980105416
 31
0.0
  0
ELLIPSE
  5
29A
330
1F
100
AcDbEntity
  8
0
  6
SLD-Solid
 62
     7
370
    25
100
AcDbEllipse
 10
23.82002407261767
 20
32.18373677357474
 30
0.0
 11
3.197442310920451E-14
 21
0.6278332993887759
 31
0.0
210
0.0
220
0.0
230
1.0
 40
0.4778338458505853
 41
1.520039958428555
 42
1.570796326794921
  0
ELLIPSE
  5
29B
330
1F
100
AcDbEntity
  8
0
  6
SLD-Solid
 62
     7
370
    25
100
AcDbEllipse
 10
23.82002407261768
 20
32.54722718515339
 30
0.0
 11
7.105427357601002E-15
 21
0.487112340929265
 31
0.0
210
0.0
220
0.0
230
1.0
 40
0.6158743574997231
 41
1.570796326794906
 42
1.621552695161261
  0
LINE
  5
29C
330
1F
100
AcDbEntity
  8
0
  6
SLD-Solid
 62
     7
370
    25
100
AcDbLine
 10
23.52041042100361
 20
32.52251374609525
 30
0.0
 11
23.5204104210036
 21
32.2155896310768
 31
0.0
  0
LINE
  5
29D
330
1F
100
AcDbEntity
  8
0
  6
SLD-Solid
 62
     7
370
    25
100
AcDbLine
 10
23.52002407261769
 20
31.39873677357474
 30
0.0
 11
23.52002407261771
 21
31.15573677357474
 31
0.0
  0
ARC
  5
29E
330
1F
100
AcDbEntity
  8
0
  6
SLD-Solid
 62
     7
370
    25
100
AcDbCircle
 10
23.4707429483548
 20
33.2109962899412
 30
0.0
 40
0.0492866870932482
100
AcDbArc
 50
0.860844697810065
 51
90.83572276216597
  0
LINE
  5
29F
330
1F
100
AcDbEntity
  8
0
  6
SLD-Solid
 62
     7
370
    25
100
AcDbLine
 10
23.52002407261771
 20
33.21173677357474
 30
0.0
 11
23.52002407261769
 21
32.96873677357474
 31
0.0
  0
LINE
  5
2A0
330
1F
100
AcDbEntity
  8
0
  6
SLD-Solid
 62
     7
370
    25
100
AcDbLine
 10
23.47002407261771
 20
33.26173677357474
 30
0.0
 11
23.47002407261771
 21
33.26027773413983
 31
0.0
  0
ARC
  5
2A1
330
1F
100
AcDbEntity
  8
0
  6
SLD-Solid
 62
     7
370
    25
100
AcDbCircle
 10
23.47002407261771
 20
33.21173677357474
 30
0.0
 40
0.0499999999999972
100
AcDbArc
 50
0.0000000000005725
 51
90.0
  0
ARC
  5
2A2
330
1F
100
AcDbEntity
  8
0
  6
SLD-Solid
 62
     7
370
    25
100
AcDbCircle
 10
23.47002407261771
 20
31.15573677357474
 30
0.0
 40
0.0499999999999972
100
AcDbArc
 50
270.0000000000008
 51
0.0000000000005725
  0
LINE
  5
2A3
330
1F
100
AcDbEntity
  8
0
  6
SLD-Solid
 62
     7
370
    25
100
AcDbLine
 10
23.47002407261771
 20
31.10573677357474
 30
0.0
 11
23.23264907261771
 21
31.10573677357474
 31
0.0
  0
LINE
  5
2A4
330
1F
100
AcDbEntity
  8
0
  6
SLD-Solid
 62
     7
370
    25
100
AcDbLine
 10
23.23264907261771
 20
33.26173677357474
 30
0.0
 11
23.47002407261771
 21
33.26173677357474
 31
0.0
  0
LINE
  5
2A5
330
1F
100
AcDbEntity
  8
0
  6
SLD-Solid
 62
     7
370
    25
100
AcDbLine
 10
13.29502407261776
 20
31.39873677357474
 30
0.0
 11
13.29502407261776
 21
32.96873677357474
 31
0.0
  0
ELLIPSE
  5
2A6
330
1F
100
AcDbEntity
  8
0
  6
SLD-Solid
 62
     7
370
    25
100
AcDbEllipse
 10
12.99502407261775
 20
32.54722718515339
 30
0.0
 11
-7.105427357601002E-15
 21
0.487112340929265
 31
0.0
210
0.0
220
0.0
230
1.0
 40
0.6158743574997304
 41
4.661632612018463
 42
4.71238898038469
  0
ELLIPSE
  5
2A7
330
1F
100
AcDbEntity
  8
0
  6
SLD-Solid
 62
     7
370
    25
100
AcDbEllipse
 10
12.99502407261775
 20
31.82024636199609
 30
0.0
 11
7.105427357601002E-15
 21
0.4871123409292686
 31
0.0
210
0.0
220
0.0
230
1.0
 40
0.6158743574997259
 41
4.712388980384707
 42
4.763145348751063
  0
LINE
  5
2A8
330
1F
100
AcDbEntity
  8
0
  6
SLD-Solid
 62
     7
370
    25
100
AcDbLine
 10
13.29463772423182
 20
31.84495980105423
 30
0.0
 11
13.29463772423183
 21
32.15188391607267
 31
0.0
  0
ARC
  5
2A9
330
1F
100
AcDbEntity
  8
0
  6
SLD-Solid
 62
     7
370
    25
100
AcDbCircle
 10
13.98010490507618
 20
32.18373677357474
 30
0.0
 40
0.7001764005690494
100
AcDbArc
 50
177.3925650816448
 51
182.607434918356
  0
LINE
  5
2AA
330
1F
100
AcDbEntity
  8
0
  6
SLD-Solid
 62
     7
370
    25
100
AcDbLine
 10
13.29463772423182
 20
32.52251374609531
 30
0.0
 11
13.28065341470478
 21
32.2155896310768
 31
0.0
  0
LINE
  5
2AB
330
1F
100
AcDbEntity
  8
0
  6
SLD-Solid
 62
     7
370
    25
100
AcDbLine
 10
13.28065341470478
 20
32.15188391607267
 30
0.0
 11
13.29463772423182
 21
31.84495980105423
 31
0.0
  0
ARC
  5
2AC
330
1F
100
AcDbEntity
  8
0
  6
SLD-Solid
 62
     7
370
    25
100
AcDbCircle
 10
13.34430519688063
 20
33.2109962899412
 30
0.0
 40
0.0492866870932482
100
AcDbArc
 50
89.16427723783403
 51
179.13915530219
  0
LINE
  5
2AD
330
1F
100
AcDbEntity
  8
0
  6
SLD-Solid
 62
     7
370
    25
100
AcDbLine
 10
13.29502407261774
 20
32.96873677357473
 30
0.0
 11
13.29502407261773
 21
33.21173677357474
 31
0.0
  0
ARC
  5
2AE
330
1F
100
AcDbEntity
  8
0
  6
SLD-Solid
 62
     7
370
    25
100
AcDbCircle
 10
13.34430519688065
 20
31.15647725720828
 30
0.0
 40
0.0492866870932585
100
AcDbArc
 50
180.8608446978065
 51
270.8357227621523
  0
LINE
  5
2AF
330
1F
100
AcDbEntity
  8
0
  6
SLD-Solid
 62
     7
370
    25
100
AcDbLine
 10
13.29502407261773
 20
31.15573677357474
 30
0.0
 11
13.29502407261775
 21
31.39873677357474
 31
0.0
  0
LINE
  5
2B0
330
1F
100
AcDbEntity
  8
0
  6
SLD-Solid
 62
     7
370
    25
100
AcDbLine
 10
13.34502407261773
 20
31.10573677357474
 30
0.0
 11
13.34502407261773
 21
31.10719581300965
 31
0.0
  0
ARC
  5
2B1
330
1F
100
AcDbEntity
  8
0
  6
SLD-Solid
 62
     7
370
    25
100
AcDbCircle
 10
13.34502407261773
 20
31.15573677357474
 30
0.0
 40
0.0499999999999989
100
AcDbArc
 50
179.9999999999994
 51
270.0000000000008
  0
ARC
  5
2B2
330
1F
100
AcDbEntity
  8
0
  6
SLD-Solid
 62
     7
370
    25
100
AcDbCircle
 10
13.34502407261773
 20
33.21173677357474
 30
0.0
 40
0.0499999999999989
100
AcDbArc
 50
90.0
 51
179.9999999999988
  0
LINE
  5
2B3
330
1F
100
AcDbEntity
  8
0
  6
SLD-Solid
 62
     7
370
    25
100
AcDbLine
 10
13.34502407261773
 20
33.26027773413983
 30
0.0
 11
13.34502407261773
 21
33.26173677357474
 31
0.0
  0
LINE
  5
2B4
330
1F
100
AcDbEntity
  8
0
  6
SLD-Solid
 62
     7
370
    25
100
AcDbLine
 10
13.34502407261773
 20
33.26173677357474
 30
0.0
 11
13.58239907261774
 21
33.26173677357474
 31
0.0
  0
LINE
  5
2B5
330
1F
100
AcDbEntity
  8
0
  6
SLD-Solid
 62
     7
370
    25
100
AcDbLine
 10
13.58239907261774
 20
31.10573677357474
 30
0.0
 11
13.34502407261773
 21
31.10573677357474
 31
0.0
  0
LINE
  5
2B6
330
1F
100
AcDbEntity
  8
0
  6
SLD-Solid
 62
     7
370
    25
100
AcDbLine
 10
13.58239907261774
 20
31.00623677357474
 30
0.0
 11
13.31952407261771
 21
31.00623677357474
 31
0.0
  0
LINE
  5
2B7
330
1F
100
AcDbEntity
  8
0
  6
SLD-Solid
 62
     7
370
    25
100
AcDbLine
 10
13.31952407261771
 20
31.00623677357474
 30
0.0
 11
13.31952407261771
 21
31.05623677357474
 31
0.0
  0
LINE
  5
2B8
330
1F
100
AcDbEntity
  8
0
  6
SLD-Solid
 62
     7
370
    25
100
AcDbLine
 10
13.58239907261774
 20
31.05623677357474
 30
0.0
 11
13.31952407261771
 21
31.05623677357474
 31
0.0
  0
LINE
  5
2B9
330
1F
100
AcDbEntity
  8
0
  6
SLD-Solid
 62
     7
370
    25
100
AcDbLine
 10
23.49552407261772
 20
31.00623677357474
 30
0.0
 11
23.49552407261772
 21
31.05623677357474
 31
0.0
  0
LINE
  5
2BA
330
1F
100
AcDbEntity
  8
0
  6
SLD-Solid
 62
     7
370
    25
100
AcDbLine
 10
23.23264907261771
 20
31.05623677357474
 30
0.0
 11
23.49552407261772
 21
31.05623677357474
 31
0.0
  0
LINE
  5
2BB
330
1F
100
AcDbEntity
  8
0
  6
SLD-Solid
 62
     7
370
    25
100
AcDbLine
 10
23.23264907261771
 20
31.00623677357474
 30
0.0
 11
23.49552407261772
 21
31.00623677357474
 31
0.0
  0
LINE
  5
2BC
330
1F
100
AcDbEntity
  8
0
  6
SLD-Solid
 62
     7
370
    25
100
AcDbLine
 10
13.31952407261772
 20
30.99123677357474
 30
0.0
 11
13.31952407261772
 21
31.00623677357474
 31
0.0
  0
LINE
  5
2BD
330
1F
100
AcDbEntity
  8
0
  6
SLD-Solid
 62
     7
370
    25
100
AcDbLine
 10
23.49552407261772
 20
30.99123677357474
 30
0.0
 11
23.49552407261772
 21
31.00623677357474
 31
0.0
  0
LINE
  5
2BE
330
1F
100
AcDbEntity
  8
0
  6
SLD-Solid
 62
     7
370
    25
100
AcDbLine
 10
23.49552407261772
 20
31.11272805352869
 30
0.0
 11
23.49552407261772
 21
31.05623677357474
 31
0.0
  0
LINE
  5
2BF
330
1F
100
AcDbEntity
  8
0
  6
SLD-Solid
 62
     7
370
    25
100
AcDbLine
 10
18.54752407261772
 20
33.30923677357474
 30
0.0
 11
18.73264907261771
 21
33.30923677357474
 31
0.0
  0
LINE
  5
2C0
330
1F
100
AcDbEntity
  8
0
  6
SLD-Solid
 62
     7
370
    25
100
AcDbLine
 10
18.54752407261772
 20
33.26173677357475
 30
0.0
 11
18.54752407261772
 21
33.30923677357474
 31
0.0
  0
LINE
  5
2C1
330
1F
100
AcDbEntity
  8
0
  6
SLD-Solid
 62
     7
370
    25
100
AcDbLine
 10
18.54752407261772
 20
31.05823677357474
 30
0.0
 11
18.54752407261772
 21
31.10573677357475
 31
0.0
  0
LINE
  5
2C2
330
1F
100
AcDbEntity
  8
0
  6
SLD-Solid
 62
     7
370
    25
100
AcDbLine
 10
18.73264907261771
 20
31.05823677357474
 30
0.0
 11
18.54752407261772
 21
31.05823677357474
 31
0.0
  0
LINE
  5
2C3
330
1F
100
AcDbEntity
  8
0
  6
SLD-Solid
 62
     7
370
    25
100
AcDbLine
 10
13.31952407261772
 20
31.11272805352869
 30
0.0
 11
13.31952407261772
 21
31.05623677357474
 31
0.0
  0
LINE
  5
2C4
330
1F
100
AcDbEntity
  8
0
  6
SLD-Solid
 62
     7
370
    25
100
AcDbLine
 10
18.26752407261771
 20
33.26173677357475
 30
0.0
 11
18.26752407261771
 21
33.30923677357474
 31
0.0
  0
LINE
  5
2C5
330
1F
100
AcDbEntity
  8
0
  6
SLD-Solid
 62
     7
370
    25
100
AcDbLine
 10
18.26752407261771
 20
31.05823677357474
 30
0.0
 11
18.26752407261771
 21
31.10573677357475
 31
0.0
  0
LINE
  5
2C6
330
1F
100
AcDbEntity
  8
0
  6
SLD-Solid
 62
     7
370
    25
100
AcDbLine
 10
18.08239907261774
 20
31.05823677357474
 30
0.0
 11
18.26752407261771
 21
31.05823677357474
 31
0.0
  0
LINE
  5
2C7
330
1F
100
AcDbEntity
  8
0
  6
SLD-Solid
 62
     7
370
    25
100
AcDbLine
 10
18.26752407261771
 20
33.30923677357474
 30
0.0
 11
18.08239907261774
 21
33.30923677357474
 31
0.0
  0
ELLIPSE
  5
2C8
330
1F
100
AcDbEntity
  8
0
  6
SLD-Solid
 62
     7
370
    25
100
AcDbEllipse
 10
13.08869740418948
 20
33.35006344200298
 30
0.0
 11
-0.1323301782391759
 21
0.1323301782391724
 31
0.0
210
0.0
220
0.0
230
1.0
 40
0.935113126531039
 41
0.5235023780429737
 42
0.7518794142949744
  0
ELLIPSE
  5
2C9
330
1F
100
AcDbEntity
  8
0
  6
SLD-Solid
 62
     7
370
    25
100
AcDbEllipse
 10
13.08869740418948
 20
31.0174101051465
 30
0.0
 11
-0.1323301782391777
 21
-0.1323301782391759
 31
0.0
210
0.0
220
0.0
230
1.0
 40
0.9351131265310403
 41
5.531305892884619
 42
7.035064721474582
  0
ELLIPSE
  5
2CA
330
1F
100
AcDbEntity
  8
0
  6
SLD-Solid
 62
     7
370
    25
100
AcDbEllipse
 10
23.72635074104595
 20
33.35006344200298
 30
0.0
 11
0.1323301782391759
 21
0.1323301782391724
 31
0.0
210
0.0
220
0.0
230
1.0
 40
0.9351131265310592
 41
5.531305892884635
 42
5.759682929136792
  0
ELLIPSE
  5
2CB
330
1F
100
AcDbEntity
  8
0
  6
SLD-Solid
 62
     7
370
    25
100
AcDbEllipse
 10
23.72635074104595
 20
31.0174101051465
 30
0.0
 11
0.1323301782391795
 21
-0.1323301782391759
 31
0.0
210
0.0
220
0.0
230
1.0
 40
0.9351131265310338
 41
5.531305892884596
 42
7.035064721474564
  0
LINE
  5
2CC
330
1F
100
AcDbEntity
  8
0
  6
SLD-Solid
 62
     7
370
    25
100
AcDbLine
 10
12.90752407261772
 20
33.36219975397415
 30
0.0
 11
12.90752407261771
 21
31.00527379317533
 31
0.0
  0
LINE
  5
2CD
330
1F
100
AcDbEntity
  8
0
  6
SLD-Solid
 62
     7
370
    25
100
AcDbLine
 10
23.90752407261771
 20
33.36219975397415
 30
0.0
 11
23.90752407261771
 21
31.00527379317533
 31
0.0
  0
LINE
  5
2CE
330
1F
100
AcDbEntity
  8
0
  6
SLD-Solid
 62
     7
370
    25
100
AcDbLine
 10
13.0765610922183
 20
30.83623677357474
 30
0.0
 11
13.58239907261774
 21
30.83623677357474
 31
0.0
  0
LINE
  5
2CF
330
1F
100
AcDbEntity
  8
0
  6
SLD-Solid
 62
     7
370
    25
100
AcDbLine
 10
18.08239907261774
 20
30.83623677357474
 30
0.0
 11
18.73264907261771
 21
30.83623677357474
 31
0.0
  0
LINE
  5
2D0
330
1F
100
AcDbEntity
  8
0
  6
SLD-Solid
 62
     7
370
    25
100
AcDbLine
 10
23.23264907261771
 20
30.83623677357474
 30
0.0
 11
23.73848705301713
 21
30.83623677357474
 31
0.0
  0
LINE
  5
2D1
330
1F
100
AcDbEntity
  8
0
  6
SLD-Solid
 62
     7
370
    25
100
AcDbLine
 10
24.79365222953667
 20
33.46676582880801
 30
0.0
 11
24.79365222953667
 21
33.40280960306045
 31
0.0
  0
LINE
  5
2D2
330
1F
100
AcDbEntity
  8
0
  6
SLD-Solid
 62
     7
370
    25
100
AcDbLine
 10
12.02139591569891
 20
33.40280960306042
 30
0.0
 11
12.02139591569891
 21
33.46676582880797
 31
0.0
  0
SPLINE
  5
2D3
330
1F
100
AcDbEntity
  8
0
  6
SLD-Solid
 62
     7
370
    25
100
AcDbSpline
210
0.0
220
0.0
230
1.0
 70
    12
 71
     3
 72
     9
 73
     5
 74
     0
 42
0.00000001
 43
0.00000001
 40
0.0
 40
0.0
 40
0.0
 40
0.0
 40
0.470133436400808
 40
1.0
 40
1.0
 40
1.0
 40
1.0
 10
11.82340601696666
 20
37.12090377720695
 30
0.0
 41
1.0
 10
11.81671626961023
 20
37.1143748390016
 30
0.0
 41
1.0
 10
11.80248680444468
 20
37.1004874238555
 30
0.0
 41
1.0
 10
11.79182945195435
 20
37.08256959680221
 30
0.0
 41
1.0
 10
11.78618247721323
 20
37.07307553935432
 30
0.0
 41
1.0
  0
ARC
  5
2D4
330
1F
100
AcDbEntity
  8
0
  6
SLD-Solid
 62
     7
370
    25
100
AcDbCircle
 10
12.01757818257074
 20
36.87709044455311
 30
0.0
 40
0.3116853719300092
100
AcDbArc
 50
89.29818501214459
 51
128.533704893331
  0
LWPOLYLINE
  5
2D5
330
1F
100
AcDbEntity
  8
0
  6
SLD-Solid
 62
     7
370
    25
100
AcDbPolyline
 90
        9
 70
   128
 43
0.0
 10
11.7413959156989
 20
33.23511602282756
 10
11.746776037186
 20
33.28030865807126
 10
11.76270964659574
 20
33.32376456568685
 10
11.78858442425419
 20
33.36381375951505
 10
11.82340601696667
 20
33.39891717149686
 10
11.86583625045341
 20
33.42772579719605
 10
11.91424455463668
 20
33.44913253728308
 10
11.96677062553439
 20
33.46231474274142
 10
12.02139591569891
 20
33.46676582880797
  0
LINE
  5
2D6
330
1F
100
AcDbEntity
  8
0
  6
SLD-Solid
 62
     7
370
    25
100
AcDbLine
 10
11.7413959156989
 20
33.23511602282756
 30
0.0
 11
11.74139591569888
 21
36.88944606714908
 31
0.0
  0
SPLINE
  5
2D7
330
1F
100
AcDbEntity
  8
0
  6
SLD-Solid
 62
     7
370
    25
100
AcDbSpline
210
0.0
220
0.0
230
1.0
 70
    12
 71
     3
 72
     9
 73
     5
 74
     0
 42
0.00000001
 43
0.00000001
 40
0.0
 40
0.0
 40
0.0
 40
0.0
 40
0.4999999999999844
 40
1.0
 40
1.0
 40
1.0
 40
1.0
 10
11.78618247721323
 20
37.07307553935432
 30
0.0
 41
1.0
 10
11.77323637595052
 20
37.04380773816115
 30
0.0
 41
1.0
 10
11.74734417342512
 20
36.98527213577479
 30
0.0
 41
1.0
 10
11.7433786682743
 20
36.92138809002432
 30
0.0
 41
1.0
 10
11.74139591569889
 20
36.88944606714908
 30
0.0
 41
1.0
  0
SPLINE
  5
2D8
330
1F
100
AcDbEntity
  8
0
  6
SLD-Solid
 62
     7
370
    25
100
AcDbSpline
210
0.0
220
0.0
230
1.0
 70
    12
 71
     3
 72
     9
 73
     5
 74
     0
 42
0.00000001
 43
0.00000001
 40
0.0
 40
0.0
 40
0.0
 40
0.0
 40
0.4700694222465936
 40
1.0
 40
1.0
 40
1.0
 40
1.0
 10
25.02886566802231
 20
37.07307553935436
 30
0.0
 41
1.0
 10
25.02390166913494
 20
37.0815174913506
 30
0.0
 41
1.0
 10
25.01334152918021
 20
37.09947643868204
 30
0.0
 41
1.0
 10
24.99915827065406
 20
37.11348187058628
 30
0.0
 41
1.0
 10
24.99164212826889
 20
37.12090377720698
 30
0.0
 41
1.0
  0
SPLINE
  5
2D9
330
1F
100
AcDbEntity
  8
0
  6
SLD-Solid
 62
     7
370
    25
100
AcDbSpline
210
0.0
220
0.0
230
1.0
 70
    12
 71
     3
 72
     9
 73
     5
 74
     0
 42
0.00000001
 43
0.00000001
 40
0.0
 40
0.0
 40
0.0
 40
0.0
 40
0.5000000000000073
 40
1.0
 40
1.0
 40
1.0
 40
1.0
 10
25.07365222953665
 20
36.88944606714912
 30
0.0
 41
1.0
 10
25.07166947696124
 20
36.92138809002435
 30
0.0
 41
1.0
 10
25.06770397181042
 20
36.98527213577482
 30
0.0
 41
1.0
 10
25.04181176928502
 20
37.04380773816118
 30
0.0
 41
1.0
 10
25.02886566802231
 20
37.07307553935436
 30
0.0
 41
1.0
  0
LINE
  5
2DA
330
1F
100
AcDbEntity
  8
0
  6
SLD-Solid
 62
     7
370
    25
100
AcDbLine
 10
25.07365222953666
 20
33.2351160228276
 30
0.0
 11
25.07365222953665
 21
36.88944606714912
 31
0.0
  0
LWPOLYLINE
  5
2DB
330
1F
100
AcDbEntity
  8
0
  6
SLD-Solid
 62
     7
370
    25
100
AcDbPolyline
 90
        9
 70
   128
 43
0.0
 10
24.79365222953667
 20
33.46676582880801
 10
24.84827751970118
 20
33.46231474274145
 10
24.90080359059889
 20
33.44913253728311
 10
24.94921189478216
 20
33.42772579719609
 10
24.9916421282689
 20
33.39891717149689
 10
25.02646372098138
 20
33.36381375951508
 10
25.05233849863983
 20
33.32376456568689
 10
25.06827210804957
 20
33.28030865807129
 10
25.07365222953666
 20
33.2351160228276
  0
ARC
  5
2DC
330
1F
100
AcDbEntity
  8
0
  6
SLD-Solid
 62
     7
370
    25
100
AcDbCircle
 10
24.7974699626648
 20
36.87709044455313
 30
0.0
 40
0.3116853719300305
100
AcDbArc
 50
51.46629510667039
 51
90.70181498785473
  0
ARC
  5
2DD
330
1F
100
AcDbEntity
  8
0
  6
SLD-Solid
 62
     7
370
    25
100
AcDbCircle
 10
12.00167464067558
 20
33.21127850229456
 30
0.0
 40
0.2315092191729027
100
AcDbArc
 50
85.11329654057194
 51
174.0900226358198
  0
LINE
  5
2DE
330
1F
100
AcDbEntity
  8
0
  6
SLD-Solid
 62
     7
370
    25
100
AcDbLine
 10
12.02139591569889
 20
37.18875243451806
 30
0.0
 11
24.79365222953665
 21
37.18875243451809
 31
0.0
  0
ARC
  5
2DF
330
1F
100
AcDbEntity
  8
0
  6
SLD-Solid
 62
     7
370
    25
100
AcDbCircle
 10
24.81337350455998
 20
33.21127850229459
 30
0.0
 40
0.2315092191729086
100
AcDbArc
 50
5.909977364181802
 51
94.88670345942442
  0
LWPOLYLINE
  5
2E0
330
1F
100
AcDbEntity
  8
0
  6
SLD-Solid
 62
     7
370
    25
100
AcDbPolyline
 90
        9
 70
   128
 43
0.0
 10
11.7413959156989
 20
33.23511602282756
 10
11.74406013206101
 20
33.22759225836669
 10
11.75164717835737
 20
33.22121391884189
 10
11.76300199556613
 20
33.21695204862602
 10
11.77639591569891
 20
33.2154554788255
 10
11.78978983583169
 20
33.21695204862603
 10
11.80114465304044
 20
33.2212139188419
 10
11.80873169933681
 20
33.2275922583667
 10
11.81139591569891
 20
33.23511602282756
  0
LINE
  5
2E1
330
1F
100
AcDbEntity
  8
0
  6
SLD-Solid
 62
     7
370
    25
100
AcDbLine
 10
11.81139591569893
 20
29.91973065414921
 30
0.0
 11
11.81139591569891
 21
33.23511602282756
 31
0.0
  0
LWPOLYLINE
  5
2E2
330
1F
100
AcDbEntity
  8
0
  6
SLD-Solid
 62
     7
370
    25
100
AcDbPolyline
 90
        9
 70
   128
 43
0.0
 10
11.81139591569893
 20
29.91973065414921
 10
11.80873169933682
 20
29.91220688968833
 10
11.80114465304046
 20
29.90582855016353
 10
11.78978983583171
 20
29.90156667994766
 10
11.77639591569893
 20
29.90007011014715
 10
11.76300199556615
 20
29.90156667994766
 10
11.7516471783574
 20
29.90582855016353
 10
11.74406013206103
 20
29.91220688968833
 10
11.74139591569892
 20
29.91973065414921
  0
LINE
  5
2E3
330
1F
100
AcDbEntity
  8
0
  6
SLD-Solid
 62
     7
370
    25
100
AcDbLine
 10
11.7413959156989
 20
33.23511602282756
 30
0.0
 11
11.74139591569892
 21
29.91973065414921
 31
0.0
  0
LWPOLYLINE
  5
2E4
330
1F
100
AcDbEntity
  8
0
  6
SLD-Solid
 62
     7
370
    25
100
AcDbPolyline
 90
        9
 70
   128
 43
0.0
 10
11.7713959156989
 20
33.23511602282756
 10
11.77177651803635
 20
33.23404119933316
 10
11.77286038179297
 20
33.23313000797247
 10
11.77448249853708
 20
33.2325211693702
 10
11.77639591569891
 20
33.23230737368441
 10
11.77830933286073
 20
33.2325211693702
 10
11.77993144960484
 20
33.23313000797247
 10
11.78101531336147
 20
33.23404119933316
 10
11.7813959156989
 20
33.23511602282756
  0
LWPOLYLINE
  5
2E5
330
1F
100
AcDbEntity
  8
0
  6
SLD-Solid
 62
     7
370
    25
100
AcDbPolyline
 90
        9
 70
   128
 43
0.0
 10
25.00365222953666
 20
33.2351160228276
 10
25.00631644589877
 20
33.22759225836673
 10
25.01390349219513
 20
33.22121391884193
 10
25.02525830940388
 20
33.21695204862606
 10
25.03865222953666
 20
33.21545547882554
 10
25.05204614966944
 20
33.21695204862606
 10
25.06340096687819
 20
33.22121391884193
 10
25.07098801317456
 20
33.22759225836673
 10
25.07365222953666
 20
33.2351160228276
  0
LWPOLYLINE
  5
2E6
330
1F
100
AcDbEntity
  8
0
  6
SLD-Solid
 62
     7
370
    25
100
AcDbPolyline
 90
        9
 70
   128
 43
0.0
 10
25.03365222953666
 20
33.2351160228276
 10
25.0340328318741
 20
33.23404119933319
 10
25.03511669563073
 20
33.2331300079725
 10
25.03673881237484
 20
33.23252116937024
 10
25.03865222953666
 20
33.23230737368445
 10
25.04056564669849
 20
33.23252116937024
 10
25.04218776344259
 20
33.23313000797251
 10
25.04327162719922
 20
33.23404119933319
 10
25.04365222953666
 20
33.2351160228276
  0
LWPOLYLINE
  5
2E7
330
1F
100
AcDbEntity
  8
0
  6
SLD-Solid
 62
     7
370
    25
100
AcDbPolyline
 90
        9
 70
   128
 43
0.0
 10
25.07365222953666
 20
29.91973065414924
 10
25.07098801317455
 20
29.91220688968837
 10
25.06340096687818
 20
29.90582855016358
 10
25.05204614966943
 20
29.90156667994771
 10
25.03865222953665
 20
29.90007011014719
 10
25.02525830940388
 20
29.90156667994771
 10
25.01390349219513
 20
29.90582855016357
 10
25.00631644589876
 20
29.91220688968837
 10
25.00365222953666
 20
29.91973065414924
  0
LINE
  5
2E8
330
1F
100
AcDbEntity
  8
0
  6
SLD-Solid
 62
     7
370
    25
100
AcDbLine
 10
25.00365222953666
 20
33.2351160228276
 30
0.0
 11
25.00365222953666
 21
29.91973065414924
 31
0.0
  0
LINE
  5
2E9
330
1F
100
AcDbEntity
  8
0
  6
SLD-Solid
 62
     7
370
    25
100
AcDbLine
 10
25.07365222953666
 20
29.91973065414924
 30
0.0
 11
25.07365222953666
 21
33.2351160228276
 31
0.0
  0
LINE
  5
2EA
330
1F
100
AcDbEntity
  8
0
  6
SLD-Solid
 62
     7
370
    25
100
AcDbLine
 10
11.7813959156989
 20
33.23511602282756
 30
0.0
 11
11.7813959156989
 21
33.29302847432265
 31
0.0
  0
LINE
  5
2EB
330
1F
100
AcDbEntity
  8
0
  6
SLD-Solid
 62
     7
370
    25
100
AcDbLine
 10
11.81139591569891
 20
33.23511602282756
 30
0.0
 11
11.8113959156989
 21
33.34733926744799
 31
0.0
  0
LINE
  5
2EC
330
1F
100
AcDbEntity
  8
0
  6
SLD-Solid
 62
     7
370
    25
100
AcDbLine
 10
25.00365222953666
 20
33.34733926744804
 30
0.0
 11
25.00365222953666
 21
33.2351160228276
 31
0.0
  0
LINE
  5
2ED
330
1F
100
AcDbEntity
  8
0
  6
SLD-Solid
 62
     7
370
    25
100
AcDbLine
 10
25.03365222953666
 20
33.29302847432272
 30
0.0
 11
25.03365222953666
 21
33.2351160228276
 31
0.0
  0
LINE
  5
2EE
330
1F
100
AcDbEntity
  8
0
  6
SLD-Solid
 62
     7
370
    25
100
AcDbLine
 10
11.74139591569892
 20
29.88946922112332
 30
0.0
 11
11.77139591569892
 21
29.88946922112332
 31
0.0
  0
LINE
  5
2EF
330
1F
100
AcDbEntity
  8
0
  6
SLD-Solid
 62
     7
370
    25
100
AcDbLine
 10
11.74139591569892
 20
29.91973065414921
 30
0.0
 11
11.74139591569892
 21
29.88946922112332
 31
0.0
  0
LINE
  5
2F0
330
1F
100
AcDbEntity
  8
0
  6
SLD-Solid
 62
     7
370
    25
100
AcDbLine
 10
11.77139591569892
 20
29.90027176208291
 30
0.0
 11
11.77139591569892
 21
29.88946922112332
 31
0.0
  0
LINE
  5
2F1
330
1F
100
AcDbEntity
  8
0
  6
SLD-Solid
 62
     7
370
    25
100
AcDbLine
 10
25.07365222953665
 20
29.88946922112336
 30
0.0
 11
25.04365222953665
 21
29.88946922112336
 31
0.0
  0
LINE
  5
2F2
330
1F
100
AcDbEntity
  8
0
  6
SLD-Solid
 62
     7
370
    25
100
AcDbLine
 10
25.07365222953665
 20
29.88946922112336
 30
0.0
 11
25.07365222953666
 21
29.91973065414924
 31
0.0
  0
LINE
  5
2F3
330
1F
100
AcDbEntity
  8
0
  6
SLD-Solid
 62
     7
370
    25
100
AcDbLine
 10
25.04365222953665
 20
29.88946922112336
 30
0.0
 11
25.04365222953665
 21
29.90027176208295
 31
0.0
  0
LINE
  5
2F4
330
1F
100
AcDbEntity
  8
0
  6
SLD-Solid
 62
     7
370
    25
100
AcDbLine
 10
11.88252407261766
 20
30.05623677357474
 30
0.0
 11
11.88252407261766
 21
33.40710048572888
 31
0.0
  0
LINE
  5
2F5
330
1F
100
AcDbEntity
  8
0
  6
SLD-Solid
 62
     7
370
    25
100
AcDbLine
 10
11.85262407261766
 20
30.05623677357474
 30
0.0
 11
11.85262407261766
 21
33.38770246462081
 31
0.0
  0
LINE
  5
2F6
330
1F
100
AcDbEntity
  8
0
  6
SLD-Solid
 62
     7
370
    25
100
AcDbLine
 10
24.93252407261775
 20
29.80623677357474
 30
0.0
 11
24.96242407261775
 21
29.80623677357474
 31
0.0
  0
LINE
  5
2F7
330
1F
100
AcDbEntity
  8
0
  6
SLD-Solid
 62
     7
370
    25
100
AcDbLine
 10
24.93252407261775
 20
30.05623677357474
 30
0.0
 11
24.93252407261775
 21
29.80623677357474
 31
0.0
  0
LINE
  5
2F8
330
1F
100
AcDbEntity
  8
0
  6
SLD-Solid
 62
     7
370
    25
100
AcDbLine
 10
24.96242407261775
 20
29.80623677357474
 30
0.0
 11
24.96242407261775
 21
30.05623677357474
 31
0.0
  0
LINE
  5
2F9
330
1F
100
AcDbEntity
  8
0
  6
SLD-Solid
 62
     7
370
    25
100
AcDbLine
 10
11.88252407261766
 20
29.80623677357474
 30
0.0
 11
11.85262407261766
 21
29.80623677357474
 31
0.0
  0
LINE
  5
2FA
330
1F
100
AcDbEntity
  8
0
  6
SLD-Solid
 62
     7
370
    25
100
AcDbLine
 10
11.88252407261766
 20
30.05623677357474
 30
0.0
 11
11.88252407261766
 21
29.80623677357474
 31
0.0
  0
LINE
  5
2FB
330
1F
100
AcDbEntity
  8
0
  6
SLD-Solid
 62
     7
370
    25
100
AcDbLine
 10
11.85262407261766
 20
29.80623677357474
 30
0.0
 11
11.85262407261766
 21
30.05623677357474
 31
0.0
  0
LINE
  5
2FC
330
1F
100
AcDbEntity
  8
0
  6
SLD-Solid
 62
     7
370
    25
100
AcDbLine
 10
24.93252407261775
 20
30.05623677357474
 30
0.0
 11
24.93252407261775
 21
33.40710048572901
 31
0.0
  0
LINE
  5
2FD
330
1F
100
AcDbEntity
  8
0
  6
SLD-Solid
 62
     7
370
    25
100
AcDbLine
 10
24.96242407261775
 20
30.05623677357474
 30
0.0
 11
24.96242407261775
 21
33.38770246462096
 31
0.0
  0
LINE
  5
2FE
330
1F
100
AcDbEntity
  8
0
  6
SLD-Solid
 62
     7
370
    25
100
AcDbLine
 10
24.9035240726177
 20
29.80623677357474
 30
0.0
 11
24.93252407261775
 21
29.80623677357474
 31
0.0
  0
LINE
  5
2FF
330
1F
100
AcDbEntity
  8
0
  6
SLD-Solid
 62
     7
370
    25
100
AcDbLine
 10
11.91152407261771
 20
29.80623677357474
 30
0.0
 11
11.88252407261766
 21
29.80623677357474
 31
0.0
  0
LINE
  5
300
330
1F
100
AcDbEntity
  8
0
  6
SLD-Solid
 62
     7
370
    25
100
AcDbLine
 10
24.9035240726177
 20
29.80623677357474
 30
0.0
 11
11.91152407261771
 21
29.80623677357474
 31
0.0
  0
LWPOLYLINE
  5
301
330
1F
100
AcDbEntity
  8
0
  6
SLD-Solid
 62
     8
370
    25
100
AcDbPolyline
 90
       11
 70
   128
 43
0.0
 10
18.40752530580817
 20
36.14649760189955
 10
18.33147493429121
 20
36.15013357374079
 10
18.25761238875398
 20
36.160936920286
 10
18.18806256015038
 20
36.17859684892467
 10
18.12482627042028
 20
36.20260531566323
 10
18.06972271248519
 20
36.2322716406257
 10
18.02433711538012
 20
36.26674237765627
 10
17.98997514010042
 20
36.30502586641128
 10
17.96762531811221
 20
36.34602076062182
 10
17.95793061310185
 20
36.38854771182066
 10
17.95752514089481
 20
36.39927602478314
  0
LWPOLYLINE
  5
302
330
1F
100
AcDbEntity
  8
0
  6
SLD-Solid
 62
     8
370
    25
100
AcDbPolyline
 90
       11
 70
   128
 43
0.0
 10
18.85752361464793
 20
36.39993438073612
 10
18.85711968268601
 20
36.38854789692722
 10
18.84742503316506
 20
36.3460209417369
 10
18.82507526466722
 20
36.30502603832453
 10
18.79071333934005
 20
36.26674253542206
 10
18.7453277872126
 20
36.23227177970539
 10
18.69022426798631
 20
36.20260543205574
 10
18.62698800958261
 20
36.17859693928162
 10
18.5574382040218
 20
36.16093698200797
 10
18.48357567258086
 20
36.15013360505217
 10
18.40752530580817
 20
36.14649760189955
  0
LINE
  5
303
330
1F
100
AcDbEntity
  8
0
  6
SLD-Solid
 62
     8
370
    25
100
AcDbLine
 10
11.73679891362855
 20
30.15286238403583
 30
0.0
 11
11.73679891362855
 21
30.24753798804977
 31
0.0
  0
LINE
  5
304
330
1F
100
AcDbEntity
  8
0
  6
SLD-Solid
 62
     8
370
    25
100
AcDbLine
 10
11.73679891362855
 20
29.99493555909978
 30
0.0
 11
11.73679891362855
 21
30.15286238403583
 31
0.0
  0
LINE
  5
305
330
1F
100
AcDbEntity
  8
0
  6
SLD-Solid
 62
     8
370
    25
100
AcDbLine
 10
18.23070652371181
 20
32.97834799848985
 30
0.0
 11
18.23070652371181
 21
31.38912554865965
 31
0.0
  0
LINE
  5
306
330
1F
100
AcDbEntity
  8
0
  6
SLD-Solid
 62
     8
370
    25
100
AcDbLine
 10
18.3843207517505
 20
32.15187589585428
 30
0.0
 11
18.38414473061365
 21
32.151883915863
 31
0.0
  0
LINE
  5
307
330
1F
100
AcDbEntity
  8
0
  6
SLD-Solid
 62
     8
370
    25
100
AcDbLine
 10
18.3843207517505
 20
32.21559765129522
 30
0.0
 11
18.38414473061365
 21
32.21558963128651
 31
0.0
  0
LINE
  5
308
330
1F
100
AcDbEntity
  8
0
  6
SLD-Solid
 62
     8
370
    25
100
AcDbLine
 10
18.37033644214557
 20
31.84495178115225
 30
0.0
 11
18.37016042100872
 21
31.84495980116096
 31
0.0
  0
LINE
  5
309
330
1F
100
AcDbEntity
  8
0
  6
SLD-Solid
 62
     8
370
    25
100
AcDbLine
 10
18.37033644214557
 20
32.52252176599726
 30
0.0
 11
18.37016042100872
 21
32.52251374598854
 31
0.0
  0
LINE
  5
30A
330
1F
100
AcDbEntity
  8
0
  6
SLD-Solid
 62
     8
370
    25
100
AcDbLine
 10
18.08239907261774
 20
31.10719581300966
 30
0.0
 11
18.3197740726177
 21
31.10719581300966
 31
0.0
  0
LINE
  5
30B
330
1F
100
AcDbEntity
  8
0
  6
SLD-Solid
 62
     8
370
    25
100
AcDbLine
 10
18.58434162152363
 20
31.38912554865965
 30
0.0
 11
18.58434162152363
 21
32.97834799848985
 31
0.0
  0
LINE
  5
30C
330
1F
100
AcDbEntity
  8
0
  6
SLD-Solid
 62
     8
370
    25
100
AcDbLine
 10
18.58777407261773
 20
32.84973677357475
 30
0.0
 11
18.58777407261773
 21
31.51773677357475
 31
0.0
  0
LINE
  5
30D
330
1F
100
AcDbEntity
  8
0
  6
SLD-Solid
 62
     8
370
    25
100
AcDbLine
 10
18.43072739348494
 20
32.21559765129522
 30
0.0
 11
18.43090341462179
 21
32.21558963128651
 31
0.0
  0
LINE
  5
30E
330
1F
100
AcDbEntity
  8
0
  6
SLD-Solid
 62
     8
370
    25
100
AcDbLine
 10
18.43072739348494
 20
32.15187589585428
 30
0.0
 11
18.43090341462179
 21
32.151883915863
 31
0.0
  0
LINE
  5
30F
330
1F
100
AcDbEntity
  8
0
  6
SLD-Solid
 62
     8
370
    25
100
AcDbLine
 10
18.44471170308986
 20
32.52252176599725
 30
0.0
 11
18.44488772422671
 21
32.52251374598854
 31
0.0
  0
LINE
  5
310
330
1F
100
AcDbEntity
  8
0
  6
SLD-Solid
 62
     8
370
    25
100
AcDbLine
 10
18.44471170308986
 20
31.84495178115224
 30
0.0
 11
18.44488772422671
 21
31.84495980116096
 31
0.0
  0
LINE
  5
311
330
1F
100
AcDbEntity
  8
0
  6
SLD-Solid
 62
     8
370
    25
100
AcDbLine
 10
18.49527407261773
 20
31.10719581300966
 30
0.0
 11
18.73264907261771
 21
31.10719581300966
 31
0.0
  0
LINE
  5
312
330
1F
100
AcDbEntity
  8
0
  6
SLD-Solid
 62
     8
370
    25
100
AcDbLine
 10
23.38095652371178
 20
32.97834799848984
 30
0.0
 11
23.38095652371178
 21
31.38912554865964
 31
0.0
  0
LINE
  5
313
330
1F
100
AcDbEntity
  8
0
  6
SLD-Solid
 62
     8
370
    25
100
AcDbLine
 10
23.53439473053066
 20
32.2155896310768
 30
0.0
 11
23.53457075166519
 21
32.21559765108536
 31
0.0
  0
LINE
  5
314
330
1F
100
AcDbEntity
  8
0
  6
SLD-Solid
 62
     8
370
    25
100
AcDbLine
 10
23.53439473053066
 20
32.15188391607267
 30
0.0
 11
23.53457075166519
 21
32.15187589606412
 31
0.0
  0
LINE
  5
315
330
1F
100
AcDbEntity
  8
0
  6
SLD-Solid
 62
     8
370
    25
100
AcDbLine
 10
23.52041042100361
 20
32.52251374609525
 30
0.0
 11
23.52058644213814
 21
32.52252176610398
 31
0.0
  0
LINE
  5
316
330
1F
100
AcDbEntity
  8
0
  6
SLD-Solid
 62
     8
370
    25
100
AcDbLine
 10
23.52041042100361
 20
31.84495980105416
 30
0.0
 11
23.5205864421381
 21
31.84495178104468
 31
0.0
  0
LINE
  5
317
330
1F
100
AcDbEntity
  8
0
  6
SLD-Solid
 62
     8
370
    25
100
AcDbLine
 10
23.47002407261771
 20
33.26027773413983
 30
0.0
 11
23.23264907261771
 21
33.26027773413983
 31
0.0
  0
LINE
  5
318
330
1F
100
AcDbEntity
  8
0
  6
SLD-Solid
 62
     8
370
    25
100
AcDbLine
 10
13.43409162152365
 20
31.38912554865964
 30
0.0
 11
13.43409162152365
 21
32.97834799848984
 31
0.0
  0
LINE
  5
319
330
1F
100
AcDbEntity
  8
0
  6
SLD-Solid
 62
     8
370
    25
100
AcDbLine
 10
13.28065341470478
 20
32.15188391607267
 30
0.0
 11
13.28047739357024
 21
32.15187589606412
 31
0.0
  0
LINE
  5
31A
330
1F
100
AcDbEntity
  8
0
  6
SLD-Solid
 62
     8
370
    25
100
AcDbLine
 10
13.28065341470478
 20
32.2155896310768
 30
0.0
 11
13.28047739357024
 21
32.21559765108536
 31
0.0
  0
LINE
  5
31B
330
1F
100
AcDbEntity
  8
0
  6
SLD-Solid
 62
     8
370
    25
100
AcDbLine
 10
13.29463772423182
 20
31.84495980105423
 30
0.0
 11
13.29446170309729
 21
31.8449517810455
 31
0.0
  0
LINE
  5
31C
330
1F
100
AcDbEntity
  8
0
  6
SLD-Solid
 62
     8
370
    25
100
AcDbLine
 10
13.29463772423182
 20
32.52251374609531
 30
0.0
 11
13.29446170309733
 21
32.52252176610479
 31
0.0
  0
LINE
  5
31D
330
1F
100
AcDbEntity
  8
0
  6
SLD-Solid
 62
     8
370
    25
100
AcDbLine
 10
13.58239907261774
 20
33.26027773413983
 30
0.0
 11
13.34502407261773
 21
33.26027773413983
 31
0.0
  0
LINE
  5
31E
330
1F
100
AcDbEntity
  8
0
  6
SLD-Solid
 62
     8
370
    25
100
AcDbLine
 10
13.34502407261773
 20
31.10719581300965
 30
0.0
 11
13.58239907261774
 21
31.10719581300965
 31
0.0
  0
LINE
  5
31F
330
1F
100
AcDbEntity
  8
0
  6
SLD-Solid
 62
     8
370
    25
100
AcDbLine
 10
13.42127407261772
 20
30.99123677357474
 30
0.0
 11
13.31952407261772
 21
30.99123677357474
 31
0.0
  0
LINE
  5
320
330
1F
100
AcDbEntity
  8
0
  6
SLD-Solid
 62
     8
370
    25
100
AcDbLine
 10
24.9035240726177
 20
29.80623677357474
 30
0.0
 11
24.9035240726177
 21
33.4209009807517
 31
0.0
  0
LINE
  5
321
330
1F
100
AcDbEntity
  8
0
  6
SLD-Solid
 62
     8
370
    25
100
AcDbLine
 10
11.91152407261771
 20
29.80623677357474
 30
0.0
 11
11.91152407261771
 21
33.4209009807516
 31
0.0
  0
LINE
  5
322
330
1F
100
AcDbEntity
  8
DIMS
100
AcDbLine
 10
8.166262479851172
 20
23.60232311726968
 30
0.0
 11
73.95238172638285
 21
23.60232311726968
 31
0.0
  0
LINE
  5
323
330
1F
100
AcDbEntity
  8
DIMS
100
AcDbLine
 10
9.212763758562849
 20
25.69587364648594
 30
0.0
 11
9.212763758562849
 21
25.11810829721915
 31
0.0
  0
LINE
  5
324
330
1F
100
AcDbEntity
  8
DIMS
100
AcDbLine
 10
9.212763758562849
 20
25.11810829721915
 30
0.0
 11
8.728186368855214
 21
24.87581960236533
 31
0.0
  0
LINE
  5
325
330
1F
100
AcDbEntity
  8
DIMS
100
AcDbLine
 10
8.728186368855214
 20
24.87581960236533
 30
0.0
 11
9.697341148270485
 21
24.50306776412868
 31
0.0
  0
LINE
  5
326
330
1F
100
AcDbEntity
  8
DIMS
100
AcDbLine
 10
9.697341148270485
 20
24.50306776412868
 30
0.0
 11
9.212763758562849
 21
24.26077906927486
 31
0.0
  0
LINE
  5
327
330
1F
100
AcDbEntity
  8
DIMS
100
AcDbLine
 10
9.212763758562849
 20
24.26077906927486
 30
0.0
 11
9.212763758562849
 21
23.60232311726968
 31
0.0
  0
DIMENSION
  5
328
330
1F
100
AcDbEntity
  8
DIMS
100
AcDbDimension
  2
_D
 10
9.212481067903074
 20
30.83623677357474
 30
0.0
 11
9.212481067903072
 21
25.154260390142
 31
0.0
 70
    32
  1
                                                                                                                             44"(1117mm)Max. height to bottom of dispenser for barrier free installation\P  \P 
 71
     2
 42
-1.0
  3
SLDDIMSTYLE0
100
AcDbAlignedDimension
 13
9.212763758562849
 23
23.60232311726968
 33
0.0
 14
13.0765610922183
 24
30.83623677357474
 34
0.0
 50
90.0000000000002
100
AcDbRotatedDimension
  0
DIMENSION
  5
33B
330
1F
100
AcDbEntity
  8
DIMS
100
AcDbDimension
  2
_D_1
 10
27.16288901898149
 20
29.80623677357474
 30
0.0
 11
27.16288901898149
 21
33.40939017531929
 31
0.0
 70
    32
  1
<>
 71
     2
 42
-1.0
  3
SLDDIMSTYLE1
100
AcDbAlignedDimension
 13
24.79365222953665
 23
37.1887524345181
 33
0.0
 14
24.93252407261775
 24
29.80623677357474
 34
0.0
 50
90.0000000000002
100
AcDbRotatedDimension
  0
DIMENSION
  5
34B
330
1F
100
AcDbEntity
  8
DIMS
100
AcDbDimension
  2
_D_2
 10
11.06948196089973
 20
29.80623677357474
 30
0.0
 11
11.06948196089973
 21
28.61855868676345
 31
0.0
 70
    32
  1
<>
 71
     2
 42
-1.0
  3
SLDDIMSTYLE2
100
AcDbAlignedDimension
 13
13.0765610922183
 23
30.83623677357474
 33
0.0
 14
11.88252407261766
 24
29.80623677357474
 34
0.0
 50
90.0000000000002
100
AcDbRotatedDimension
  0
MTEXT
  5
358
330
1F
100
AcDbEntity
  8
NOTES
100
AcDbMText
 10
12.169364202648
 20
28.93548749872486
 30
0.0
 40
0.7500000000000001
 41
0.0
 71
     1
 72
     1
  1
Front view
  7
SLDTEXTSTYLE1
 73
     1
 44
1.0
  0
MTEXT
  5
359
330
1F
100
AcDbEntity
  8
NOTES
100
AcDbMText
 10
20.84076810581173
 20
39.08826235185071
 30
0.0
 40
0.7500000000000001
 41
0.0
 71
     1
 72
     1
  1
lock
  7
SLDTEXTSTYLE1
 73
     1
 44
1.0
  0
LEADER
  5
35B
330
1F
100
AcDbEntity
  8
NOTES
100
AcDbLeader
  3
SLDDIMSTYLE3
 76
     3
 10
18.72340326532921
 20
36.5968171653192
 30
0.0
 10
20.32093467308183
 20
38.7209533373321
 30
0.0
 10
20.82093467308184
 20
38.7209533373321
 30
0.0
1001
ACAD
1000
DSTYLE
1002
{
1070
   176
1070
     0
1070
    77
1070
     0
1070
    40
1040
1.0
1070
   147
1040
0.0
1002
}
  0
MTEXT
  5
35C
330
1F
100
AcDbEntity
  8
NOTES
100
AcDbMText
 10
10.14546392304526
 20
24.44632676847522
 30
0.0
 40
0.7500000000000001
 41
0.0
 71
     1
 72
     1
  1
Floor
  7
SLDTEXTSTYLE1
 73
     1
 44
1.0
  0
LINE
  5
35D
330
1F
100
AcDbEntity
  8
0
  6
SLD-Solid
 62
     7
370
    25
100
AcDbLine
 10
42.2550988592844
 20
36.48659030053789
 30
0.0
 11
42.14275289355834
 21
36.65205444766676
 31
0.0
  0
LINE
  5
35E
330
1F
100
AcDbEntity
  8
0
  6
SLD-Solid
 62
     7
370
    25
100
AcDbLine
 10
41.39816423147846
 20
36.14649760189954
 30
0.0
 11
41.51051019720451
 21
35.98103345477067
 31
0.0
  0
ARC
  5
35F
330
1F
100
AcDbEntity
  8
0
  6
SLD-Solid
 62
     7
370
    25
100
AcDbCircle
 10
41.43953026826068
 20
36.17458409333105
 30
0.0
 40
0.0500000000000034
100
AcDbArc
 50
124.1755115305574
 51
214.1755115305673
  0
ARC
  5
360
330
1F
100
AcDbEntity
  8
0
  6
SLD-Solid
 62
     7
370
    25
100
AcDbCircle
 10
42.10138685677613
 20
36.62396795623524
 30
0.0
 40
0.0500000000000074
100
AcDbArc
 50
34.17551153057327
 51
124.1755115305641
  0
CIRCLE
  5
361
330
1F
100
AcDbEntity
  8
0
  6
SLD-Solid
 62
     7
370
    25
100
AcDbCircle
 10
43.13215703120919
 20
30.12123677357474
 30
0.0
 40
0.1274401184765548
  0
LINE
  5
362
330
1F
100
AcDbEntity
  8
0
  6
SLD-Solid
 62
     7
370
    25
100
AcDbLine
 10
37.93580238715795
 20
33.21545547882554
 30
0.0
 11
40.18686509446519
 21
29.90007011014719
 31
0.0
  0
LINE
  5
363
330
1F
100
AcDbEntity
  8
0
  6
SLD-Solid
 62
     7
370
    25
100
AcDbLine
 10
41.41144377682919
 20
36.21595013011328
 30
0.0
 11
42.0733003433257
 21
36.66533397806717
 31
0.0
  0
CIRCLE
  5
364
330
1F
100
AcDbEntity
  8
0
  6
SLD-Solid
 62
     7
370
    25
100
AcDbCircle
 10
43.1321570312092
 20
30.12123677357474
 30
0.0
 40
0.1263012144749979
  0
LWPOLYLINE
  5
365
330
1F
100
AcDbEntity
  8
0
  6
SLD-Solid
 62
     7
370
    25
100
AcDbPolyline
 90
        3
 70
   128
 43
0.0
 10
40.16063143106059
 20
29.93870728517393
 10
40.05906897469794
 20
29.93424695459993
 10
40.00805703425857
 20
29.93373890912709
  0
ARC
  5
366
330
1F
100
AcDbEntity
  8
0
  6
SLD-Solid
 62
     7
370
    25
100
AcDbCircle
 10
40.00495703120925
 20
32.18373677357475
 30
0.0
 40
2.249999999999998
100
AcDbArc
 50
154.3906126001215
 51
273.960410461008
  0
LINE
  5
367
330
1F
100
AcDbEntity
  8
0
  6
SLD-Solid
 62
     7
370
    25
100
AcDbLine
 10
43.3468887161393
 20
36.88944606714912
 30
0.0
 11
43.3468887161393
 21
30.1394568485181
 31
0.0
  0
ARC
  5
368
330
1F
100
AcDbEntity
  8
0
  6
SLD-Solid
 62
     7
370
    25
100
AcDbCircle
 10
43.09688771617659
 20
30.13945643569215
 30
0.0
 40
0.2500009999630556
100
AcDbArc
 50
269.3983023036375
 51
0.0000946123602739
  0
LINE
  5
369
330
1F
100
AcDbEntity
  8
0
  6
SLD-Solid
 62
     7
370
    25
100
AcDbLine
 10
43.09426235245601
 20
29.88946922112336
 30
0.0
 11
40.21582132021275
 21
29.91973065414925
 31
0.0
  0
LINE
  5
36A
330
1F
100
AcDbEntity
  8
0
  6
SLD-Solid
 62
     7
370
    25
100
AcDbLine
 10
37.80747426088904
 20
33.46676582880801
 30
0.0
 11
37.96475861290551
 21
33.2351160228276
 31
0.0
  0
LINE
  5
36B
330
1F
100
AcDbEntity
  8
0
  6
SLD-Solid
 62
     7
370
    25
100
AcDbLine
 10
37.80747426088904
 20
33.46676582880801
 30
0.0
 11
43.28924955525617
 21
37.1887524345181
 31
0.0
  0
LINE
  5
36C
330
1F
100
AcDbEntity
  8
0
  6
SLD-Solid
 62
     7
370
    25
100
AcDbLine
 10
43.33531707538727
 20
37.12090377720698
 30
0.0
 11
43.28924955525617
 21
37.1887524345181
 31
0.0
  0
SPLINE
  5
36D
330
1F
100
AcDbEntity
  8
0
  6
SLD-Solid
 62
     7
370
    25
100
AcDbSpline
210
0.0
220
0.0
230
1.0
 70
    12
 71
     3
 72
     9
 73
     5
 74
     0
 42
0.00000001
 43
0.00000001
 40
0.0
 40
0.0
 40
0.0
 40
0.0
 40
0.4999999999999963
 40
1.0
 40
1.0
 40
1.0
 40
1.0
 10
43.3468887161393
 20
36.88944606714912
 30
0.0
 41
1.0
 10
43.34760691822907
 20
36.91900067064542
 30
0.0
 41
1.0
 10
43.34904332240863
 20
36.97810987763802
 30
0.0
 41
1.0
 10
43.35372209944668
 20
37.03244368876981
 30
0.0
 41
1.0
 10
43.35606148796571
 20
37.05961059433571
 30
0.0
 41
1.0
  0
LINE
  5
36E
330
1F
100
AcDbEntity
  8
0
  6
SLD-Solid
 62
     7
370
    25
100
AcDbLine
 10
40.21582132021275
 20
29.91973065414925
 30
0.0
 11
40.1868650944652
 21
29.90007011014719
 31
0.0
  0
LINE
  5
36F
330
1F
100
AcDbEntity
  8
0
  6
SLD-Solid
 62
     7
370
    25
100
AcDbLine
 10
37.93580238715796
 20
33.21545547882554
 30
0.0
 11
37.96475861290551
 21
33.2351160228276
 31
0.0
  0
SPLINE
  5
370
330
1F
100
AcDbEntity
  8
0
  6
SLD-Solid
 62
     7
370
    25
100
AcDbSpline
210
0.0
220
0.0
230
1.0
 70
    12
 71
     3
 72
     9
 73
     5
 74
     0
 42
0.00000001
 43
0.00000001
 40
0.0
 40
0.0
 40
0.0
 40
0.0
 40
0.4736464482334711
 40
1.0
 40
1.0
 40
1.0
 40
1.0
 10
43.35606148796571
 20
37.05961059433571
 30
0.0
 41
1.0
 10
43.35588155601427
 20
37.06738270017827
 30
0.0
 41
1.0
 10
43.35550166938763
 20
37.08379178731816
 30
0.0
 41
1.0
 10
43.35008450711863
 20
37.09660786573883
 30
0.0
 41
1.0
 10
43.34723316451785
 20
37.10335365413528
 30
0.0
 41
1.0
  0
LINE
  5
371
330
1F
100
AcDbEntity
  8
0
  6
SLD-Solid
 62
     7
370
    25
100
AcDbLine
 10
43.34723316451785
 20
37.10335365413528
 30
0.0
 11
43.33531707538727
 21
37.12090377720698
 31
0.0
  0
ARC
  5
372
330
1F
100
AcDbEntity
  8
0
  6
SLD-Solid
 62
     7
370
    25
100
AcDbCircle
 10
37.8271348048911
 20
33.43780960306046
 30
0.0
 40
0.0350000000000004
100
AcDbArc
 50
124.1755115305646
 51
304.1755115305492
  0
LINE
  5
373
330
1F
100
AcDbEntity
  8
0
  6
SLD-Solid
 62
     7
370
    25
100
AcDbLine
 10
43.54705703120924
 20
29.80623677357474
 30
0.0
 11
43.54705703120924
 21
36.73544752885153
 31
0.0
  0
LINE
  5
374
330
1F
100
AcDbEntity
  8
0
  6
SLD-Solid
 62
     7
370
    25
100
AcDbLine
 10
43.54705703120924
 20
29.80623677357474
 30
0.0
 11
43.4881570312092
 21
29.80623677357474
 31
0.0
  0
ARC
  5
375
330
1F
100
AcDbEntity
  8
0
  6
SLD-Solid
 62
     7
370
    25
100
AcDbCircle
 10
43.06715703120919
 20
30.05623677357474
 30
0.0
 40
0.2500000000000036
100
AcDbArc
 50
221.1485778119942
 51
270.0000000000008
  0
LINE
  5
376
330
1F
100
AcDbEntity
  8
0
  6
SLD-Solid
 62
     7
370
    25
100
AcDbLine
 10
43.4881570312092
 20
29.80623677357474
 30
0.0
 11
43.06715703120919
 21
29.80623677357474
 31
0.0
  0
LINE
  5
377
330
1F
100
AcDbEntity
  8
0
  6
SLD-Solid
 62
     7
370
    25
100
AcDbLine
 10
43.5470570312092
 20
36.91384876203113
 30
0.0
 11
43.5470570312092
 21
36.73544752885153
 31
0.0
  0
ARC
  5
378
330
1F
100
AcDbEntity
  8
0
  6
SLD-Solid
 62
     7
370
    25
100
AcDbCircle
 10
43.48815703120924
 20
37.00600730015524
 30
0.0
 40
0.0589000000000067
100
AcDbArc
 50
0.0
 51
120.000000000001
  0
LINE
  5
379
330
1F
100
AcDbEntity
  8
0
  6
SLD-Solid
 62
     7
370
    25
100
AcDbLine
 10
43.45870703120924
 20
37.05701619643815
 30
0.0
 11
43.3512077687506
 21
36.99495146831997
 31
0.0
  0
LINE
  5
37A
330
1F
100
AcDbEntity
  8
0
  6
SLD-Solid
 62
     7
370
    25
100
AcDbLine
 10
43.5470570312092
 20
36.91384876203113
 30
0.0
 11
43.54705703120924
 21
37.00600730015524
 31
0.0
  0
LINE
  5
37B
330
1F
100
AcDbEntity
  8
0
  6
SLD-Solid
 62
     7
370
    18
100
AcDbLine
 10
42.81715703120917
 20
30.05623677357474
 30
0.0
 11
42.81715703120917
 21
36.2215847168178
 31
0.0
  0
LINE
  5
37C
330
1F
100
AcDbEntity
  8
NOTES
  6
SLD-Center
100
AcDbLine
 10
43.05415703120921
 20
31.10573677357474
 30
0.0
 11
42.19424111411926
 21
31.10573677357474
 31
0.0
  0
LINE
  5
37D
330
1F
100
AcDbEntity
  8
NOTES
  6
SLD-Center
100
AcDbLine
 10
42.182250486637
 20
31.10719581300965
 30
0.0
 11
41.16024960163858
 21
31.35965130123861
 31
0.0
  0
LINE
  5
37E
330
1F
100
AcDbEntity
  8
NOTES
  6
SLD-Center
100
AcDbLine
 10
41.16024960163858
 20
33.00782224591087
 30
0.0
 11
42.182250486637
 21
33.26027773413983
 31
0.0
  0
LINE
  5
37F
330
1F
100
AcDbEntity
  8
NOTES
  6
SLD-Center
100
AcDbLine
 10
42.19424111411926
 20
33.26173677357475
 30
0.0
 11
43.05415703120921
 21
33.26173677357475
 31
0.0
  0
CIRCLE
  5
380
330
1F
100
AcDbEntity
  8
NOTES
  6
SLD-Center
100
AcDbCircle
 10
40.00495703120924
 20
32.18373677357475
 30
0.0
 40
2.250000000000015
  0
ARC
  5
381
330
1F
100
AcDbEntity
  8
NOTES
  6
SLD-Center
100
AcDbCircle
 10
40.65738285342024
 20
29.32392506165165
 30
0.0
 40
2.096915899364234
100
AcDbArc
 50
76.12452284077251
 51
102.7331602547316
  0
ARC
  5
382
330
1F
100
AcDbEntity
  8
NOTES
  6
SLD-Center
100
AcDbCircle
 10
40.01115703120922
 20
32.18373677357474
 30
0.0
 40
0.8350000000000044
100
AcDbArc
 50
77.26683974526797
 51
282.7331602547322
  0
ARC
  5
383
330
1F
100
AcDbEntity
  8
NOTES
  6
SLD-Center
100
AcDbCircle
 10
40.65738285342024
 20
35.04354848549783
 30
0.0
 40
2.096915899364238
100
AcDbArc
 50
257.2668397452695
 51
283.8754771592283
  0
DIMENSION
  5
384
330
1F
100
AcDbEntity
  8
DIMS
100
AcDbDimension
  2
_D_3
 10
43.54705703120916
 20
38.05495082234629
 30
0.0
 11
40.72940345369615
 21
38.05495082234627
 31
0.0
 70
    32
  1
<>
 71
     2
 42
-1.0
  3
SLDDIMSTYLE1
100
AcDbAlignedDimension
 13
37.79213480489107
 23
33.43780960306046
 33
0.0
 14
43.54705703120917
 24
36.91384876203113
 34
0.0
 50
0.0000000000003537
100
AcDbRotatedDimension
  0
MTEXT
  5
393
330
1F
100
AcDbEntity
  8
NOTES
100
AcDbMText
 10
39.0441811404159
 20
28.85282674341678
 30
0.0
 40
0.7500000000000001
 41
0.0
 71
     1
 72
     1
  1
Side view
  7
SLDTEXTSTYLE1
 73
     1
 44
1.0
  0
SPLINE
  5
394
330
1F
100
AcDbEntity
  8
0
  6
SLD-Solid
 62
     7
370
    25
100
AcDbSpline
210
0.0
220
0.0
230
1.0
 70
    12
 71
     3
 72
    26
 73
    22
 74
     0
 42
0.00000001
 43
0.00000001
 40
0.0
 40
0.0
 40
0.0
 40
0.0
 40
0.0389931078293697
 40
0.0913798532634701
 40
0.143741500646947
 40
0.1963132255725859
 40
0.2492408339480706
 40
0.3025451251463512
 40
0.3561574756863132
 40
0.4099797419605844
 40
0.4639296001084199
 40
0.5179576681694581
 40
0.5720437993685721
 40
0.626185780729677
 40
0.680381173182
 40
0.7346072311083546
 40
0.7888050102866799
 40
0.84286807422112
 40
0.8966523335751589
 40
0.9500228226648081
 40
1.0
 40
1.0
 40
1.0
 40
1.0
 10
65.09009610343041
 20
50.80862869697069
 30
0.0
 41
1.0
 10
65.08057007341935
 20
50.82068525685318
 30
0.0
 41
1.0
 10
65.05824594300117
 20
50.8489396519054
 30
0.0
 41
1.0
 10
65.01248316565034
 20
50.88335450500537
 30
0.0
 41
1.0
 10
64.95637652460196
 20
50.9120539615007
 30
0.0
 41
1.0
 10
64.89419577965782
 20
50.92987507847911
 30
0.0
 41
1.0
 10
64.8279061505718
 20
50.9367251869707
 30
0.0
 41
1.0
 10
64.75909348264433
 20
50.93229309279907
 30
0.0
 41
1.0
 10
64.68963987669197
 20
50.91666406893946
 30
0.0
 41
1.0
 10
64.62147258109464
 20
50.89021999177577
 30
0.0
 41
1.0
 10
64.55651521646926
 20
50.8536775081503
 30
0.0
 41
1.0
 10
64.49659276220241
 20
50.80803914421153
 30
0.0
 41
1.0
 10
64.44338210911411
 20
50.75454772374651
 30
0.0
 41
1.0
 10
64.39837929346626
 20
50.69464261056558
 30
0.0
 41
1.0
 10
64.36288026712252
 20
50.62993095541042
 30
0.0
 41
1.0
 10
64.33794715174957
 20
50.56216017466438
 30
0.0
 41
1.0
 10
64.32440542097538
 20
50.49322711930255
 30
0.0
 41
1.0
 10
64.32266339204742
 20
50.42505737582148
 30
0.0
 41
1.0
 10
64.33311044768267
 20
50.35990774114735
 30
0.0
 41
1.0
 10
64.35394464989075
 20
50.30006648311058
 30
0.0
 41
1.0
 10
64.3765755979035
 20
50.26610018094317
 30
0.0
 41
1.0
 10
64.38751954024127
 20
50.24967465373422
 30
0.0
 41
1.0
  0
LINE
  5
395
330
1F
100
AcDbEntity
  8
0
  6
SLD-Solid
 62
     7
370
    25
100
AcDbLine
 10
65.15659025385789
 20
50.73688829639015
 30
0.0
 11
65.07714965965404
 21
50.82613644655008
 31
0.0
  0
LINE
  5
396
330
1F
100
AcDbEntity
  8
0
  6
SLD-Solid
 62
     7
370
    25
100
AcDbLine
 10
64.40488876383674
 20
50.22775087857998
 30
0.0
 11
64.48432935804057
 21
50.13850272842004
 31
0.0
  0
LINE
  5
397
330
1F
100
AcDbEntity
  8
0
  6
SLD-Solid
 62
     7
370
    25
100
AcDbLine
 10
58.96021723163064
 20
46.38765589019344
 30
0.0
 11
62.14219774697011
 21
44.55073763859235
 31
0.0
  0
LINE
  5
398
330
1F
100
AcDbEntity
  8
0
  6
SLD-Solid
 62
     7
370
    25
100
AcDbLine
 10
62.59760986939317
 20
44.28277208608931
 30
0.0
 11
65.77959038473263
 21
42.44585383448822
 31
0.0
  0
SPLINE
  5
399
330
1F
100
AcDbEntity
  8
0
  6
SLD-Solid
 62
     7
370
    25
100
AcDbSpline
210
0.0
220
0.0
230
1.0
 70
    12
 71
     3
 72
    10
 73
     6
 74
     0
 42
0.00000001
 43
0.00000001
 40
0.0
 40
0.0
 40
0.0
 40
0.0
 40
0.2933769525600377
 40
0.6527356533825872
 40
1.0
 40
1.0
 40
1.0
 40
1.0
 10
66.65676825895434
 20
43.5795070801033
 30
0.0
 41
1.0
 10
66.67157105057119
 20
43.57126721014156
 30
0.0
 41
1.0
 10
66.70450584580165
 20
43.55293428774827
 30
0.0
 41
1.0
 10
66.76125676931224
 20
43.53725376854623
 30
0.0
 41
1.0
 10
66.80390275688247
 20
43.53487464194871
 30
0.0
 41
1.0
 10
66.82486079251841
 20
43.53370543886879
 30
0.0
 41
1.0
  0
LINE
  5
39A
330
1F
100
AcDbEntity
  8
0
  6
SLD-Solid
 62
     7
370
    25
100
AcDbLine
 10
66.63098215105266
 20
43.59327456436802
 30
0.0
 11
66.65926642230012
 21
43.57694640213158
 31
0.0
  0
SPLINE
  5
39B
330
1F
100
AcDbEntity
  8
0
  6
SLD-Solid
 62
     7
370
    25
100
AcDbSpline
210
0.0
220
0.0
230
1.0
 70
    12
 71
     3
 72
    13
 73
     9
 74
     0
 42
0.00000001
 43
0.00000001
 40
0.0
 40
0.0
 40
0.0
 40
0.0
 40
0.1203929747775564
 40
0.3311486474571962
 40
0.5399569539200123
 40
0.7455210142115747
 40
0.9473609757238093
 40
1.0
 40
1.0
 40
1.0
 40
1.0
 10
66.4569173434844
 20
43.86424660092404
 30
0.0
 41
1.0
 10
66.45966232274614
 20
43.84954497200833
 30
0.0
 41
1.0
 10
66.46721256537036
 20
43.80910719281192
 30
0.0
 41
1.0
 10
66.49000489666932
 20
43.75072585715619
 30
0.0
 41
1.0
 10
66.52391430474623
 20
43.68978377777267
 30
0.0
 41
1.0
 10
66.56708941297192
 20
43.63990961185724
 30
0.0
 41
1.0
 10
66.60389916950498
 20
43.60771718950552
 30
0.0
 41
1.0
 10
66.62784605296832
 20
43.59604713378988
 30
0.0
 41
1.0
 10
66.63279947014759
 20
43.59363318065257
 30
0.0
 41
1.0
  0
LINE
  5
39C
330
1F
100
AcDbEntity
  8
0
  6
SLD-Solid
 62
     7
370
    25
100
AcDbLine
 10
57.41949438382234
 20
49.07563685567978
 30
0.0
 11
66.45084343438971
 21
43.86195002523183
 31
0.0
  0
LINE
  5
39D
330
1F
100
AcDbEntity
  8
0
  6
SLD-Solid
 62
     7
370
    25
100
AcDbLine
 10
66.71275442221948
 20
43.65965220790545
 30
0.0
 11
68.30449612743256
 21
41.8713976744843
 31
0.0
  0
LINE
  5
39E
330
1F
100
AcDbEntity
  8
0
  6
SLD-Solid
 62
     7
370
    25
100
AcDbLine
 10
61.17807875854841
 20
54.43000454286454
 30
0.0
 11
57.30864733065199
 21
49.16238267318028
 31
0.0
  0
LINE
  5
39F
330
1F
100
AcDbEntity
  8
0
  6
SLD-Solid
 62
     7
370
    25
100
AcDbLine
 10
57.33492304887069
 20
49.07335902574996
 30
0.0
 11
58.51747439311974
 21
47.74481256910389
 31
0.0
  0
LINE
  5
3A0
330
1F
100
AcDbEntity
  8
0
  6
SLD-Solid
 62
     7
370
    25
100
AcDbLine
 10
70.6078803467394
 20
43.1929364102159
 30
0.0
 11
70.6078803467394
 21
48.834646845812
 31
0.0
  0
LINE
  5
3A1
330
1F
100
AcDbEntity
  8
0
  6
SLD-Solid
 62
     7
370
    25
100
AcDbLine
 10
70.35993195348175
 20
49.24898821265187
 30
0.0
 11
61.61019264307942
 21
54.30010520049898
 31
0.0
  0
LINE
  5
3A2
330
1F
100
AcDbEntity
  8
0
  6
SLD-Solid
 62
     7
370
    25
100
AcDbLine
 10
64.40488876383674
 20
50.22775087857998
 30
0.0
 11
64.38827526359728
 21
50.24822013997087
 31
0.0
  0
LWPOLYLINE
  5
3A3
330
1F
100
AcDbEntity
  8
0
  6
SLD-Solid
 62
     7
370
    25
100
AcDbPolyline
 90
        3
 70
   128
 43
0.0
 10
65.07714965965404
 20
50.82613644655008
 10
65.07943653352436
 20
50.82353607904918
 10
65.09021590201222
 20
50.81036776195143
  0
LWPOLYLINE
  5
3A4
330
1F
100
AcDbEntity
  8
0
  6
SLD-Solid
 62
     7
370
    25
100
AcDbPolyline
 90
       31
 70
   128
 43
0.0
 10
64.53103281413689
 20
50.29042857318434
 10
64.58296766743
 20
50.26850170809833
 10
64.64094214783391
 20
50.25884513967014
 10
64.70242249236253
 20
50.26188090627743
 10
64.76472171494456
 20
50.27747633035224
 10
64.8251170406083
 20
50.30494981702736
 10
64.88096890381334
 20
50.34310064310266
 10
64.92983631013063
 20
50.39026143441069
 10
64.96958351941228
 20
50.4443710380687
 10
64.99847338788442
 20
50.50306460475013
 10
65.01524328966583
 20
50.56377694394804
 10
65.01916029957776
 20
50.62385463510935
 10
65.01005322549115
 20
50.68067199484557
 10
64.98832009024417
 20
50.73174583189627
 10
64.9549107361343
 20
50.77484397450289
 10
64.91128531225196
 20
50.80808282702569
 10
64.85935045895886
 20
50.83000969211169
 10
64.80137597855494
 20
50.83966626053989
 10
64.73989563402633
 20
50.8366304939326
 10
64.6775964114443
 20
50.82103506985778
 10
64.61720108578055
 20
50.79356158318267
 10
64.56134922257552
 20
50.75541075710736
 10
64.51248181625823
 20
50.70824996579933
 10
64.47273460697657
 20
50.65414036214133
 10
64.44384473850444
 20
50.59544679545989
 10
64.42707483672302
 20
50.53473445626198
 10
64.42315782681109
 20
50.47465676510067
 10
64.4322649008977
 20
50.41783940536446
 10
64.45399803614468
 20
50.36676556831375
 10
64.48740739025456
 20
50.32366742570713
 10
64.53103281413689
 20
50.29042857318434
  0
LWPOLYLINE
  5
3A5
330
1F
100
AcDbEntity
  8
0
  6
SLD-Solid
 62
     7
370
    25
100
AcDbPolyline
 90
       18
 70
   128
 43
0.0
 10
64.55720807648494
 20
50.07931949051493
 10
64.61825511331871
 20
50.05227932217347
 10
64.68580117534819
 20
50.03762674730756
 10
64.75767527656268
 20
50.03583271172955
 10
64.83156732421094
 20
50.04695487721908
 10
64.90510236708296
 20
50.07063576822593
 10
64.97591692839602
 20
50.10611426142848
 10
65.0417349698831
 20
50.15225004886339
 10
65.10044104553553
 20
50.20756028836182
 10
65.15014829377832
 20
50.2702672633169
 10
65.1892590827537
 20
50.3383555199581
 10
65.21651635952351
 20
50.40963664569377
 10
65.23104405278504
 20
50.48181960649244
 10
65.23237523052342
 20
50.55258438260172
 10
65.22046710759085
 20
50.61965653589201
 10
65.1957024208564
 20
50.6808803121694
 10
65.15887712772819
 20
50.73428792888925
 10
65.15659025385789
 20
50.73688829639015
  0
LWPOLYLINE
  5
3A6
330
1F
100
AcDbEntity
  8
0
  6
SLD-Solid
 62
     7
370
    25
100
AcDbPolyline
 90
        3
 70
   128
 43
0.0
 10
64.48432935804057
 20
50.13850272842004
 10
64.50462216684042
 20
50.11787815907271
 10
64.55720807648494
 20
50.07931949051493
  0
LINE
  5
3A7
330
1F
100
AcDbEntity
  8
0
  6
SLD-Solid
 62
     7
370
    25
100
AcDbLine
 10
64.73704585987487
 20
50.63256995332539
 30
0.0
 11
64.51766941865462
 21
50.33392326841692
 31
0.0
  0
LINE
  5
3A8
330
1F
100
AcDbEntity
  8
0
  6
SLD-Solid
 62
     7
370
    25
100
AcDbLine
 10
64.51766941865462
 20
50.33392326841692
 30
0.0
 11
64.5813090482564
 21
50.297184929652
 31
0.0
  0
LINE
  5
3A9
330
1F
100
AcDbEntity
  8
0
  6
SLD-Solid
 62
     7
370
    25
100
AcDbLine
 10
64.5813090482564
 20
50.297184929652
 30
0.0
 11
64.80068548947663
 21
50.59583161456047
 31
0.0
  0
LINE
  5
3AA
330
1F
100
AcDbEntity
  8
0
  6
SLD-Solid
 62
     7
370
    25
100
AcDbLine
 10
64.80068548947663
 20
50.59583161456047
 30
0.0
 11
64.73704585987487
 21
50.63256995332539
 31
0.0
  0
LINE
  5
3AB
330
1F
100
AcDbEntity
  8
0
  6
SLD-Solid
 62
     7
370
    25
100
AcDbLine
 10
64.78669623125226
 20
50.57678985947543
 30
0.0
 11
64.58130779469285
 21
50.2971856533181
 31
0.0
  0
LINE
  5
3AC
330
1F
100
AcDbEntity
  8
0
  6
SLD-Solid
 62
     7
370
    25
100
AcDbLine
 10
64.78669748481582
 20
50.57678913580933
 30
0.0
 11
64.78669623125226
 21
50.57678985947543
 31
0.0
  0
LWPOLYLINE
  5
3AD
330
1F
100
AcDbEntity
  8
0
  6
SLD-Solid
 62
     7
370
    25
100
AcDbPolyline
 90
       19
 70
   128
 43
0.0
 10
70.40845184841132
 20
43.12423473100804
 10
70.43944844079454
 20
43.14341165511986
 10
70.46819571653775
 20
43.17345487720546
 10
70.4912263299217
 20
43.21074074129058
 10
70.50576244907667
 20
43.25077202188582
 10
70.51005080350227
 20
43.2887203557526
 10
70.50357415436542
 20
43.32000861376882
 10
70.48711368113717
 20
43.34086297025224
 10
70.46265475981957
 20
43.34876808203341
 10
70.43314749729873
 20
43.34277047596451
 10
70.40215090491553
 20
43.32359355185268
 10
70.37340362917232
 20
43.29355032976709
 10
70.35037301578835
 20
43.25626446568196
 10
70.33583689663338
 20
43.21623318508672
 10
70.33154854220778
 20
43.17828485121995
 10
70.33802519134464
 20
43.14699659320372
 10
70.35448566457289
 20
43.12614223672031
 10
70.3789445858905
 20
43.11823712493914
 10
70.40845184841132
 20
43.12423473100804
  0
LWPOLYLINE
  5
3AE
330
1F
100
AcDbEntity
  8
0
  6
SLD-Solid
 62
     7
370
    25
100
AcDbPolyline
 90
        8
 70
   128
 43
0.0
 10
70.34462953049466
 20
43.13568699172622
 10
70.33566664639089
 20
43.14980534762083
 10
70.3292597934255
 20
43.18075642500929
 10
70.3335019340275
 20
43.21829580536293
 10
70.34788140343292
 20
43.25789568538885
 10
70.37066382541312
 20
43.29477973512392
 10
70.39910130364453
 20
43.32449919381951
 10
70.42976385855998
 20
43.34346945614443
  0
LWPOLYLINE
  5
3AF
330
1F
100
AcDbEntity
  8
0
  6
SLD-Solid
 62
     7
370
    25
100
AcDbPolyline
 90
        3
 70
   128
 43
0.0
 10
61.78733987877766
 20
46.3199578455465
 10
61.83775420305849
 20
46.4810503511696
 10
61.85044887814426
 20
46.51770127329754
  0
LWPOLYLINE
  5
3B0
330
1F
100
AcDbEntity
  8
0
  6
SLD-Solid
 62
     7
370
    25
100
AcDbPolyline
 90
       19
 70
   128
 43
0.0
 10
62.38814695626812
 20
44.46054318694299
 10
62.35339381938171
 20
44.46784985766948
 10
62.25402133659681
 20
44.49790362114813
 10
62.16089485962686
 20
44.54029695217426
 10
62.07458854417004
 20
44.59476848176489
 10
61.99563449736093
 20
44.66098237482649
 10
61.92451949715299
 20
44.73853040068997
 10
61.86168199117063
 20
44.82693444998853
 10
61.80750939353383
 20
44.92564948236095
 10
61.76233569632123
 20
45.03406688680654
 10
61.72643941039794
 20
45.15151823397447
 10
61.70004184830338
 20
45.2772793972529
 10
61.68330575978596
 20
45.4105750172504
 10
61.6763343283967
 20
45.55058328214438
 10
61.67917053532835
 20
45.69644099442431
 10
61.69179689442205
 20
45.84724889279136
 10
61.71413555997528
 20
46.0020771964034
 10
61.74604880668655
 20
46.159971337283
 10
61.78733987877766
 20
46.3199578455465
  0
LWPOLYLINE
  5
3B1
330
1F
100
AcDbEntity
  8
0
  6
SLD-Solid
 62
     7
370
    25
100
AcDbPolyline
 90
        3
 70
   128
 43
0.0
 10
58.6053593634382
 20
48.1568760971476
 10
58.65577368771903
 20
48.31796860277069
 10
58.66846836280479
 20
48.35461952489862
  0
LWPOLYLINE
  5
3B2
330
1F
100
AcDbEntity
  8
0
  6
SLD-Solid
 62
     7
370
    25
100
AcDbPolyline
 90
       16
 70
   128
 43
0.0
 10
58.96021723163065
 20
46.38765589019344
 10
58.89260802883058
 20
46.43168673336599
 10
58.81365398202147
 20
46.49790062642758
 10
58.74253898181352
 20
46.57544865229107
 10
58.67970147583116
 20
46.66385270158963
 10
58.62552887819436
 20
46.76256773396204
 10
58.58035518098177
 20
46.87098513840763
 10
58.54445889505847
 20
46.98843648557556
 10
58.51806133296391
 20
47.114197648854
 10
58.50132524444649
 20
47.24749326885149
 10
58.49435381305724
 20
47.38750153374547
 10
58.49719001998889
 20
47.5333592460254
 10
58.50981637908258
 20
47.68416714439245
 10
58.53215504463581
 20
47.83899544800449
 10
58.56406829134709
 20
47.9968895888841
 10
58.6053593634382
 20
48.1568760971476
  0
LWPOLYLINE
  5
3B3
330
1F
100
AcDbEntity
  8
0
  6
SLD-Solid
 62
     7
370
    25
100
AcDbPolyline
 90
        3
 70
   128
 43
0.0
 10
67.15033704394604
 20
42.72123153886402
 10
67.27290766280983
 20
42.8198588979459
 10
67.37723922894001
 20
42.91313161092932
  0
LWPOLYLINE
  5
3B4
330
1F
100
AcDbEntity
  8
0
  6
SLD-Solid
 62
     7
370
    25
100
AcDbPolyline
 90
       30
 70
   128
 43
0.0
 10
65.48932673003303
 20
44.41702180362193
 10
65.48831954896521
 20
44.414172525608
 10
65.43579901902123
 20
44.25296388487497
 10
65.3923335125992
 20
44.09262763801709
 10
65.35819100899992
 20
43.93415231131345
 10
65.33358200811168
 20
43.77851495785159
 10
65.31865823260821
 20
43.62667513367025
 10
65.31351169252821
 20
43.47956898177738
 10
65.31817411800263
 20
43.33810346051716
 10
65.33261676362801
 20
43.20315075187023
 10
65.35675058569143
 20
43.07554288416171
 10
65.39042679115452
 20
42.95606660232995
 10
65.43343775501215
 20
42.84545851738235
 10
65.48551830036953
 20
42.74440056494351
 10
65.54634733334602
 20
42.65351580089542
 10
65.61554982272557
 20
42.57336456003067
 10
65.69269911214903
 20
42.50444100140219
 10
65.77731955059234
 20
42.44717006166834
 10
65.86888942491335
 20
42.40190483521708
 10
65.9668441763868
 20
42.36892439722172
 10
66.0705798813966
 20
42.34843208304959
 10
66.17945697482574
 20
42.34055423463197
 10
66.29280419318792
 20
42.34533942152397
 10
66.40992271319017
 20
42.3627581414572
 10
66.53009046021079
 20
42.39270300223095
 10
66.6525665601296
 20
42.43498938382085
 10
66.77659590706314
 20
42.48935657662279
 10
66.90141381884365
 20
42.55546938881418
 10
67.0262507515388
 20
42.63292021292315
 10
67.15033704394604
 20
42.72123153886402
  0
LWPOLYLINE
  5
3B5
330
1F
100
AcDbEntity
  8
0
  6
SLD-Solid
 62
     7
370
    25
100
AcDbPolyline
 90
       19
 70
   128
 43
0.0
 10
62.30734621469355
 20
46.25394005522302
 10
62.30633903362575
 20
46.25109077720909
 10
62.25381850368176
 20
46.08988213647606
 10
62.21035299725973
 20
45.92954588961818
 10
62.17621049366046
 20
45.77107056291455
 10
62.15160149277221
 20
45.61543320945268
 10
62.13667771726875
 20
45.46359338527134
 10
62.13153117718874
 20
45.31648723337847
 10
62.13619360266316
 20
45.17502171211825
 10
62.15063624828855
 20
45.04006900347132
 10
62.17477007035195
 20
44.9124611357628
 10
62.20844627581506
 20
44.79298485393104
 10
62.25145723967268
 20
44.68237676898343
 10
62.30353778503007
 20
44.5813188165446
 10
62.36436681800654
 20
44.49043405249651
 10
62.43356930738611
 20
44.41028281163177
 10
62.51071859680956
 20
44.34135925300328
 10
62.59533903525286
 20
44.28408831326943
 10
62.59760986939317
 20
44.28277208608931
  0
SPLINE
  5
3B6
330
1F
100
AcDbEntity
  8
0
  6
SLD-Solid
 62
     7
370
    25
100
AcDbSpline
210
0.0
220
0.0
230
1.0
 70
    12
 71
     3
 72
     9
 73
     5
 74
     0
 42
0.00000001
 43
0.00000001
 40
0.0
 40
0.0
 40
0.0
 40
0.0
 40
0.4700694222465936
 40
1.0
 40
1.0
 40
1.0
 40
1.0
 10
70.53773995746785
 20
49.01778800465081
 30
0.0
 41
1.0
 10
70.53378322143392
 20
49.02644967685409
 30
0.0
 41
1.0
 10
70.52536587742755
 20
49.04487604494648
 30
0.0
 41
1.0
 10
70.51088755399284
 20
49.05953322078674
 30
0.0
 41
1.0
 10
70.5032150476902
 20
49.067300506448
 30
0.0
 41
1.0
  0
SPLINE
  5
3B7
330
1F
100
AcDbEntity
  8
0
  6
SLD-Solid
 62
     7
370
    25
100
AcDbSpline
210
0.0
220
0.0
230
1.0
 70
    12
 71
     3
 72
     9
 73
     5
 74
     0
 42
0.00000001
 43
0.00000001
 40
0.0
 40
0.0
 40
0.0
 40
0.0
 40
0.5000000000000073
 40
1.0
 40
1.0
 40
1.0
 40
1.0
 10
70.56938733206765
 20
48.84955257468546
 30
0.0
 41
1.0
 10
70.56734694166109
 20
48.87607538295401
 30
0.0
 41
1.0
 10
70.56326616084797
 20
48.92912099949113
 30
0.0
 41
1.0
 10
70.54624869192789
 20
48.98823233626425
 30
0.0
 41
1.0
 10
70.53773995746785
 20
49.01778800465081
 30
0.0
 41
1.0
  0
ARC
  5
3B8
330
1F
100
AcDbEntity
  8
0
  6
SLD-Solid
 62
     7
370
    25
100
AcDbCircle
 10
65.72525120566561
 20
42.6460188678087
 30
0.0
 40
1.457398397468658
100
AcDbArc
 50
44.56136387112875
 51
59.97777619360625
  0
ARC
  5
3B9
330
1F
100
AcDbEntity
  8
0
  6
SLD-Solid
 62
     7
370
    25
100
AcDbCircle
 10
69.51273122292163
 20
47.79705278139424
 30
0.0
 40
1.61077232721836
100
AcDbArc
 50
52.05444698881359
 51
59.48429401558927
  0
LINE
  5
3BA
330
1F
100
AcDbEntity
  8
0
  6
SLD-Solid
 62
     7
370
    25
100
AcDbLine
 10
66.74243343540718
 20
43.6808817374914
 30
0.0
 11
66.76364663884277
 21
43.66863561581405
 31
0.0
  0
ARC
  5
3BB
330
1F
100
AcDbEntity
  8
0
  6
SLD-Solid
 62
     7
370
    25
100
AcDbCircle
 10
65.81529465578454
 20
42.76783106962913
 30
0.0
 40
1.301248569168814
100
AcDbArc
 50
44.56136387113423
 51
59.97777619360733
  0
LINE
  5
3BC
330
1F
100
AcDbEntity
  8
0
  6
SLD-Solid
 62
     7
370
    25
100
AcDbLine
 10
66.46635599735575
 20
43.89449293916914
 30
0.0
 11
66.45443990822518
 21
43.90788016169314
 31
0.0
  0
LWPOLYLINE
  5
3BD
330
1F
100
AcDbEntity
  8
0
  6
SLD-Solid
 62
     7
370
    25
100
AcDbPolyline
 90
        9
 70
   128
 43
0.0
 10
66.45443990822518
 20
43.90788016169314
 10
66.44766264465487
 20
43.89602448219888
 10
66.44403362733604
 20
43.88359595861617
 10
66.44410534125834
 20
43.87248672099566
 10
66.44786686862719
 20
43.86438805005955
 10
66.45474555099901
 20
43.86053289504326
 10
66.4636941713381
 20
43.86150816835092
 10
66.47335038331728
 20
43.86716539346234
 10
66.48224411619651
 20
43.87664330913716
  0
LWPOLYLINE
  5
3BE
330
1F
100
AcDbEntity
  8
0
  6
SLD-Solid
 62
     7
370
    25
100
AcDbPolyline
 90
        6
 70
   128
 43
0.0
 10
57.41949438382234
 20
49.07563685567978
 10
57.41651781805981
 20
49.07807488050751
 10
57.41275629069096
 20
49.08617355144361
 10
57.41268457676867
 20
49.09728278906413
 10
57.4163135940875
 20
49.10971131264683
 10
57.4230908576578
 20
49.12156699214109
  0
LWPOLYLINE
  5
3BF
330
1F
100
AcDbEntity
  8
0
  6
SLD-Solid
 62
     7
370
    25
100
AcDbPolyline
 90
        9
 70
   128
 43
0.0
 10
66.46635599735575
 20
43.89449293916914
 10
66.4653878168457
 20
43.89279927066996
 10
66.46486938580016
 20
43.891023767301
 10
66.4648796306462
 20
43.88943673335522
 10
66.46541699169889
 20
43.88827978036435
 10
66.46639966060916
 20
43.88772904393344
 10
66.46767803494332
 20
43.88786836869168
 10
66.46905749379748
 20
43.8886765437076
 10
66.47032802706593
 20
43.89003053166115
  0
LINE
  5
3C0
330
1F
100
AcDbEntity
  8
0
  6
SLD-Solid
 62
     7
370
    25
100
AcDbLine
 10
61.29929134124568
 20
54.39840386575082
 30
0.0
 11
70.33064039181305
 21
49.18471703530287
 31
0.0
  0
LINE
  5
3C1
330
1F
100
AcDbEntity
  8
0
  6
SLD-Solid
 62
     7
370
    25
100
AcDbLine
 10
66.48224411619651
 20
43.87664330913716
 30
0.0
 11
66.48654811986712
 21
43.88250253271689
 31
0.0
  0
LINE
  5
3C2
330
1F
100
AcDbEntity
  8
0
  6
SLD-Solid
 62
     7
370
    25
100
AcDbLine
 10
66.47032802706593
 20
43.89003053166115
 30
0.0
 11
66.47143569688691
 21
43.89153844978351
 31
0.0
  0
LWPOLYLINE
  5
3C3
330
1F
100
AcDbEntity
  8
0
  6
SLD-Solid
 62
     7
370
    25
100
AcDbPolyline
 90
        6
 70
   128
 43
0.0
 10
68.35538834405588
 20
41.88038108239291
 10
68.34566896037492
 20
41.87080182873319
 10
68.33366149384058
 20
41.8648560174567
 10
68.32119397238473
 20
41.86344884443136
 10
68.31016446313069
 20
41.86679453899421
 10
68.30449612743256
 20
41.8713976744843
  0
LWPOLYLINE
  5
3C4
330
1F
100
AcDbEntity
  8
0
  6
SLD-Solid
 62
     7
370
    25
100
AcDbPolyline
 90
        9
 70
   128
 43
0.0
 10
66.71414916415972
 20
43.69720989972785
 10
66.70819755139115
 20
43.68545555821846
 10
66.70691978862747
 20
43.67331562080085
 10
66.71051040366652
 20
43.66263828289802
 10
66.7184227579176
 20
43.65504907241536
 10
66.72945226717164
 20
43.65170337785251
 10
66.74191978862747
 20
43.65311055087786
 10
66.75392725516183
 20
43.65905636215435
 10
66.76364663884277
 20
43.66863561581405
  0
LWPOLYLINE
  5
3C5
330
1F
100
AcDbEntity
  8
0
  6
SLD-Solid
 62
     7
370
    25
100
AcDbPolyline
 90
        9
 70
   128
 43
0.0
 10
66.73536236759531
 20
43.68496377805051
 10
66.7345121371998
 20
43.68328458640631
 10
66.73432959966215
 20
43.68155030963236
 10
66.73484254466771
 20
43.68002497564624
 10
66.7359728809893
 20
43.67894080272015
 10
66.73754852516845
 20
43.67846284635403
 10
66.73932959966214
 20
43.67866387107193
 10
66.7410449520242
 20
43.67951327268286
 10
66.74243343540718
 20
43.6808817374914
  0
LINE
  5
3C6
330
1F
100
AcDbEntity
  8
0
  6
SLD-Solid
 62
     7
370
    25
100
AcDbLine
 10
70.56938733206765
 20
48.84955257468546
 30
0.0
 11
70.56938733206763
 21
43.33791089788443
 31
0.0
  0
ARC
  5
3C7
330
1F
100
AcDbEntity
  8
0
  6
SLD-Solid
 62
     7
370
    25
100
AcDbCircle
 10
70.18619443118985
 20
43.35514601753535
 30
0.0
 40
0.3835803027170657
100
AcDbArc
 50
302.2279374828113
 51
357.4247056255858
  0
LINE
  5
3C8
330
1F
100
AcDbEntity
  8
0
  6
SLD-Solid
 62
     7
370
    25
100
AcDbLine
 10
70.3907535172007
 20
43.03066269136448
 30
0.0
 11
68.35538834405588
 21
41.88038108239291
 31
0.0
  0
LINE
  5
3C9
330
1F
100
AcDbEntity
  8
0
  6
SLD-Solid
 62
     7
370
    25
100
AcDbLine
 10
66.73686084040764
 20
43.68700371293616
 30
0.0
 11
66.73536236759531
 21
43.68496377805051
 31
0.0
  0
LINE
  5
3CA
330
1F
100
AcDbEntity
  8
0
  6
SLD-Solid
 62
     7
370
    25
100
AcDbLine
 10
66.7196168395553
 20
43.70465327920795
 30
0.0
 11
66.71414916415972
 21
43.69720989972785
 31
0.0
  0
SPLINE
  5
3CB
330
1F
100
AcDbEntity
  8
0
  6
SLD-Solid
 62
     7
370
    25
100
AcDbSpline
210
0.0
220
0.0
230
1.0
 70
    12
 71
     3
 72
     9
 73
     5
 74
     0
 42
0.00000001
 43
0.00000001
 40
0.0
 40
0.0
 40
0.0
 40
0.0
 40
0.6232017683385045
 40
1.0
 40
1.0
 40
1.0
 40
1.0
 10
61.19186599712283
 20
54.44262789627991
 30
0.0
 41
1.0
 10
61.18927117271421
 20
54.44140925317389
 30
0.0
 41
1.0
 10
61.18510747398862
 20
54.43945379802607
 30
0.0
 41
1.0
 10
61.1802448932968
 20
54.43241220099669
 30
0.0
 41
1.0
 10
61.17841268149082
 20
54.42975893968794
 30
0.0
 41
1.0
  0
ARC
  5
3CC
330
1F
100
AcDbEntity
  8
0
  6
SLD-Solid
 62
     7
370
    25
100
AcDbCircle
 10
61.14850992972694
 20
54.18472455636633
 30
0.0
 40
0.2615222386693285
100
AcDbArc
 50
54.79154286296106
 51
80.45724844403286
  0
LWPOLYLINE
  5
3CD
330
1F
100
AcDbEntity
  8
0
  6
SLD-Solid
 62
     7
370
    25
100
AcDbPolyline
 90
        9
 70
   128
 43
0.0
 10
57.33631779081094
 20
49.11091671757237
 10
57.31842478365193
 20
49.1330965606557
 10
57.30882803549782
 20
49.15003166998329
 10
57.30789634399819
 20
49.16107123880098
 10
57.31566551353494
 20
49.16579102267018
 10
57.33183697927973
 20
49.16400964294369
 10
57.35578928087306
 20
49.15579555704537
 10
57.38660194479731
 20
49.14146442768979
 10
57.4230908576578
 20
49.12156699214109
  0
LWPOLYLINE
  5
3CE
330
1F
100
AcDbEntity
  8
0
  6
SLD-Solid
 62
     7
370
    25
100
AcDbPolyline
 90
        9
 70
   128
 43
0.0
 10
57.35753099424653
 20
49.09867059589502
 10
57.34155509499743
 20
49.11847402721943
 10
57.33298656985981
 20
49.13359466054763
 10
57.33215470244945
 20
49.14345141842058
 10
57.33909146096439
 20
49.14766551116094
 10
57.35353026966509
 20
49.14607499354798
 10
57.37491625323057
 20
49.13874098828163
 10
57.40242756030579
 20
49.12594533707129
 10
57.41987468548501
 20
49.11670613807837
  0
LINE
  5
3CF
330
1F
100
AcDbEntity
  8
0
  6
SLD-Solid
 62
     7
370
    25
100
AcDbLine
 10
57.35753099424653
 20
49.09867059589502
 30
0.0
 11
57.33631779081094
 21
49.11091671757237
 31
0.0
  0
LWPOLYLINE
  5
3D0
330
1F
100
AcDbEntity
  8
0
  6
SLD-Solid
 62
     7
370
    25
100
AcDbPolyline
 90
        9
 70
   128
 43
0.0
 10
57.33631779081094
 20
49.11091671757237
 10
57.33036617804236
 20
49.09916237606298
 10
57.32908841527869
 20
49.08702243864536
 10
57.33267903031773
 20
49.07634510074252
 10
57.34059138456881
 20
49.06875589025987
 10
57.35162089382285
 20
49.06541019569702
 10
57.3640884152787
 20
49.06681736872236
 10
57.37609588181305
 20
49.07276317999886
 10
57.385815265494
 20
49.08234243365857
  0
LWPOLYLINE
  5
3D1
330
1F
100
AcDbEntity
  8
0
  6
SLD-Solid
 62
     7
370
    25
100
AcDbPolyline
 90
        9
 70
   128
 43
0.0
 10
57.35753099424653
 20
49.09867059589502
 10
57.35668076385102
 20
49.09699140425082
 10
57.35649822631336
 20
49.09525712747688
 10
57.35701117131894
 20
49.09373179349076
 10
57.35814150764052
 20
49.09264762056466
 10
57.35971715181967
 20
49.09216966419854
 10
57.36149822631337
 20
49.09237068891645
 10
57.36321357867541
 20
49.09322009052738
 10
57.3646020620584
 20
49.09458855533591
  0
LINE
  5
3D2
330
1F
100
AcDbEntity
  8
0
  6
SLD-Solid
 62
     7
370
    25
100
AcDbLine
 10
57.385815265494
 20
49.08234243365857
 30
0.0
 11
57.41356925464451
 21
49.1201251216179
 31
0.0
  0
LINE
  5
3D3
330
1F
100
AcDbEntity
  8
0
  6
SLD-Solid
 62
     7
370
    25
100
AcDbLine
 10
57.3646020620584
 20
49.09458855533591
 30
0.0
 11
57.39157060773352
 21
49.13130198562639
 31
0.0
  0
LINE
  5
3D4
330
1F
100
AcDbEntity
  8
0
  6
SLD-Solid
 62
     7
370
    25
100
AcDbLine
 10
70.30966005209966
 20
49.2276071707953
 30
0.0
 11
70.29276068818504
 21
49.20658452274476
 31
0.0
  0
LINE
  5
3D5
330
1F
100
AcDbEntity
  8
0
  6
SLD-Solid
 62
     7
370
    25
100
AcDbLine
 10
70.3202312984784
 20
49.21256618335021
 30
0.0
 11
70.30823966188593
 21
49.19764870143154
 31
0.0
  0
LINE
  5
3D6
330
1F
100
AcDbEntity
  8
0
  6
SLD-Solid
 62
     7
370
    25
100
AcDbLine
 10
61.55992074169734
 20
54.2787241586424
 30
0.0
 11
61.54302137778269
 21
54.25770151059184
 31
0.0
  0
LINE
  5
3D7
330
1F
100
AcDbEntity
  8
0
  6
SLD-Solid
 62
     7
370
    25
100
AcDbLine
 10
70.5906289316041
 20
48.79433068667369
 30
0.0
 11
70.56938733206765
 21
48.76790633879044
 31
0.0
  0
LINE
  5
3D8
330
1F
100
AcDbEntity
  8
0
  6
SLD-Solid
 62
     7
370
    25
100
AcDbLine
 10
70.5906289364271
 20
43.16889318853846
 30
0.0
 11
70.4738879886436
 21
43.10150007945429
 31
0.0
  0
LINE
  5
3D9
330
1F
100
AcDbEntity
  8
0
  6
SLD-Solid
 62
     7
370
    25
100
AcDbLine
 10
70.56948643884662
 20
48.80653598794544
 30
0.0
 11
70.56938733206765
 21
48.80641270005458
 31
0.0
  0
LINE
  5
3DA
330
1F
100
AcDbEntity
  8
0
  6
SLD-Solid
 62
     7
370
    25
100
AcDbLine
 10
70.35099044346002
 20
49.17266490827594
 30
0.0
 11
70.35099044346002
 21
49.20981585227909
 31
0.0
  0
LINE
  5
3DB
330
1F
100
AcDbEntity
  8
0
  6
SLD-Solid
 62
     7
370
    25
100
AcDbLine
 10
70.56240455581728
 20
48.91007386010495
 30
0.0
 11
70.5906289316041
 21
48.87496300495025
 31
0.0
  0
SPLINE
  5
3DC
330
1F
100
AcDbEntity
  8
0
  6
SLD-Solid
 62
     7
370
    25
100
AcDbSpline
210
0.0
220
0.0
230
1.0
 70
    12
 71
     3
 72
    11
 73
     7
 74
     0
 42
0.00000001
 43
0.00000001
 40
0.0
 40
0.0
 40
0.0
 40
0.0
 40
0.2499999999999679
 40
0.4999999999999796
 40
0.7499999999999896
 40
1.0
 40
1.0
 40
1.0
 40
1.0
 10
70.56948644206197
 20
48.80653598608929
 30
0.0
 41
1.0
 10
70.57186526183612
 20
48.81097729131824
 30
0.0
 41
1.0
 10
70.57662290138443
 20
48.81985990177615
 30
0.0
 41
1.0
 10
70.5786590694169
 20
48.83464684581197
 30
0.0
 41
1.0
 10
70.57662290138444
 20
48.84943378984781
 30
0.0
 41
1.0
 10
70.57186526183614
 20
48.85831640030572
 30
0.0
 41
1.0
 10
70.56948644206199
 20
48.86275770553468
 30
0.0
 41
1.0
  0
SPLINE
  5
3DD
330
1F
100
AcDbEntity
  8
0
  6
SLD-Solid
 62
     7
370
    25
100
AcDbSpline
210
0.0
220
0.0
230
1.0
 70
    12
 71
     3
 72
    11
 73
     7
 74
     0
 42
0.00000001
 43
0.00000001
 40
0.0
 40
0.0
 40
0.0
 40
0.0
 40
0.2499999999999865
 40
0.4999999999999943
 40
0.7499999999999953
 40
1.0
 40
1.0
 40
1.0
 40
1.0
 10
70.59062893481943
 20
48.79433068481752
 30
0.0
 41
1.0
 10
70.59546039942443
 20
48.80055480151836
 30
0.0
 41
1.0
 10
70.60512332863443
 20
48.81300303492001
 30
0.0
 41
1.0
 10
70.60925885579188
 20
48.83464684581197
 30
0.0
 41
1.0
 10
70.60512332863445
 20
48.85629065670395
 30
0.0
 41
1.0
 10
70.59546039942445
 20
48.8687388901056
 30
0.0
 41
1.0
 10
70.59062893481946
 20
48.87496300680642
 30
0.0
 41
1.0
  0
ARC
  5
3DE
330
1F
100
AcDbEntity
  8
0
  6
SLD-Solid
 62
     7
370
    25
100
AcDbCircle
 10
70.57840341629786
 20
43.19587589546316
 30
0.0
 40
0.0296231297369894
100
AcDbArc
 50
294.3746735057951
 51
354.3052015787902
  0
LWPOLYLINE
  5
3DF
330
1F
100
AcDbEntity
  8
0
  6
SLD-Solid
 62
     7
370
    25
100
AcDbPolyline
 90
        9
 70
   128
 43
0.0
 10
70.30966005209966
 20
49.2276071707953
 10
70.31970489866416
 20
49.23821057356343
 10
70.3304843468056
 20
49.24607218847773
 10
70.34126379494705
 20
49.25065625947368
 10
70.35130864151155
 20
49.25165038968847
 10
70.35993434680562
 20
49.24898683079085
 10
70.36655308326809
 20
49.24284709991792
 10
70.37071379494705
 20
49.23364960958232
 10
70.3721329362175
 20
49.22202115355083
  0
LWPOLYLINE
  5
3E0
330
1F
100
AcDbEntity
  8
0
  6
SLD-Solid
 62
     7
370
    25
100
AcDbPolyline
 90
        9
 70
   128
 43
0.0
 10
70.3202312984784
 20
49.21256618335021
 10
70.32517697845073
 20
49.21778687401704
 10
70.3304843468056
 20
49.22165761820234
 10
70.33579171516048
 20
49.2239146310866
 10
70.3407373951328
 20
49.22440410097164
 10
70.3449843468056
 20
49.22309267129369
 10
70.34824314744078
 20
49.22006971381806
 10
70.35029171516048
 20
49.21554123810103
 10
70.35099044346002
 20
49.20981585227909
  0
LWPOLYLINE
  5
3E1
330
1F
100
AcDbEntity
  8
0
  6
SLD-Solid
 62
     7
370
    25
100
AcDbPolyline
 90
        6
 70
   128
 43
0.0
 10
61.55992074169734
 20
54.2787241586424
 10
61.56996558826183
 20
54.28932756141054
 10
61.58074503640329
 20
54.29718917632484
 10
61.59152448454473
 20
54.3017732473208
 10
61.60156933110922
 20
54.30276737753559
 10
61.61019264307942
 20
54.30010520049898
  0
LINE
  5
3E2
330
1F
100
AcDbEntity
  8
0
  6
SLD-Solid
 62
     7
370
    25
100
AcDbLine
 10
70.3721329362175
 20
49.15955636444334
 30
0.0
 11
70.3721329362175
 21
49.22202115355083
 31
0.0
  0
LWPOLYLINE
  5
3E3
330
1F
100
AcDbEntity
  8
0
  6
SLD-Solid
 62
     8
370
    25
100
AcDbPolyline
 90
        3
 70
   128
 43
0.0
 10
64.47776748228111
 20
50.16856764067487
 10
64.42518157263657
 20
50.20712630923264
 10
64.40488876383674
 20
50.22775087857998
  0
LWPOLYLINE
  5
3E4
330
1F
100
AcDbEntity
  8
0
  6
SLD-Solid
 62
     8
370
    25
100
AcDbPolyline
 90
       17
 70
   128
 43
0.0
 10
65.09021590201222
 20
50.81036776195143
 10
65.11626182665256
 20
50.77012846232933
 10
65.141026513387
 20
50.70890468605194
 10
65.15293463631957
 20
50.64183253276165
 10
65.15160345858119
 20
50.57106775665237
 10
65.13707576531966
 20
50.49888479585369
 10
65.10981848854985
 20
50.42760367011802
 10
65.07070769957447
 20
50.35951541347683
 10
65.02100045133169
 20
50.29680843852175
 10
64.96229437567925
 20
50.24149819902331
 10
64.89647633419217
 20
50.19536241158841
 10
64.82566177287912
 20
50.15988391838587
 10
64.75212673000709
 20
50.13620302737901
 10
64.67823468235883
 20
50.12508086188949
 10
64.60636058114434
 20
50.12687489746749
 10
64.53881451911487
 20
50.14152747233341
 10
64.47776748228111
 20
50.16856764067487
  0
LINE
  5
3E5
330
1F
100
AcDbEntity
  8
0
  6
SLD-Solid
 62
     8
370
    25
100
AcDbLine
 10
57.36268406999926
 20
49.09288133307323
 30
0.0
 11
57.35753099424653
 21
49.09867059589502
 31
0.0
  0
MTEXT
  5
3E6
330
1F
100
AcDbEntity
  8
NOTES
100
AcDbMText
 10
61.83064493952219
 20
41.44064375782418
 30
0.0
 40
0.7500000000000001
 41
0.0
 71
     1
 72
     1
  1
3D view Code 158-S
  7
SLDTEXTSTYLE1
 73
     1
 44
1.0
  0
LINE
  5
3E7
330
1F
100
AcDbEntity
  8
0
  6
SLD-Solid
 62
     7
370
    25
100
AcDbLine
 10
70.8749665277157
 20
30.05873677357478
 30
0.0
 11
70.9495850681708
 21
30.05873677357478
 31
0.0
  0
LINE
  5
3E8
330
1F
100
AcDbEntity
  8
0
  6
SLD-Solid
 62
     7
370
    25
100
AcDbLine
 10
70.9495850681708
 20
30.18373677357478
 30
0.0
 11
70.8749665277157
 21
30.18373677357478
 31
0.0
  0
LINE
  5
3E9
330
1F
100
AcDbEntity
  8
0
  6
SLD-Solid
 62
     7
370
    25
100
AcDbLine
 10
57.7519472947882
 20
30.18373677357474
 30
0.0
 11
57.67732875433308
 21
30.18373677357474
 31
0.0
  0
LINE
  5
3EA
330
1F
100
AcDbEntity
  8
0
  6
SLD-Solid
 62
     7
370
    25
100
AcDbLine
 10
57.67732875433308
 20
30.05873677357474
 30
0.0
 11
57.7519472947882
 21
30.05873677357474
 31
0.0
  0
ARC
  5
3EB
330
1F
100
AcDbEntity
  8
0
  6
SLD-Solid
 62
     7
370
    25
100
AcDbCircle
 10
57.64482875433307
 20
29.99629665509818
 30
0.0
 40
0.0025000000000048
100
AcDbArc
 50
212.9862941624154
 51
0.0
  0
ARC
  5
3EC
330
1F
100
AcDbEntity
  8
0
  6
SLD-Solid
 62
     7
370
    25
100
AcDbCircle
 10
57.64482875433307
 20
30.2461768920513
 30
0.0
 40
0.0025000000000048
100
AcDbArc
 50
0.0
 51
147.0137058375854
  0
ARC
  5
3ED
330
1F
100
AcDbEntity
  8
0
  6
SLD-Solid
 62
     7
370
    25
100
AcDbCircle
 10
57.8373204576473
 20
30.12123677357474
 30
0.0
 40
0.2319843982708854
100
AcDbArc
 50
147.0137058375604
 51
212.986294162439
  0
ARC
  5
3EE
330
1F
100
AcDbEntity
  8
0
  6
SLD-Solid
 62
     7
370
    25
100
AcDbCircle
 10
70.98208506817082
 20
30.24617689205133
 30
0.0
 40
0.0025000000000106
100
AcDbArc
 50
32.98629416223723
 51
180.0
  0
ARC
  5
3EF
330
1F
100
AcDbEntity
  8
0
  6
SLD-Solid
 62
     7
370
    25
100
AcDbCircle
 10
70.98208506817082
 20
29.99629665509822
 30
0.0
 40
0.0025000000000106
100
AcDbArc
 50
180.0
 51
327.0137058377636
  0
ARC
  5
3F0
330
1F
100
AcDbEntity
  8
0
  6
SLD-Solid
 62
     7
370
    25
100
AcDbCircle
 10
70.7895933648566
 20
30.12123677357478
 30
0.0
 40
0.2319843982708835
100
AcDbArc
 50
327.0137058375627
 51
32.9862941624389
  0
LINE
  5
3F1
330
1F
100
AcDbEntity
  8
0
  6
SLD-Solid
 62
     7
370
    25
100
AcDbLine
 10
70.50045691125202
 20
37.06490730015524
 30
0.0
 11
58.12645691125202
 21
37.06490730015524
 31
0.0
  0
LINE
  5
3F2
330
1F
100
AcDbEntity
  8
0
  6
SLD-Solid
 62
     7
370
    25
100
AcDbLine
 10
70.8749665277157
 20
30.10558687929599
 30
0.0
 11
70.8749665277157
 21
30.05873677357478
 31
0.0
  0
LINE
  5
3F3
330
1F
100
AcDbEntity
  8
0
  6
SLD-Solid
 62
     7
370
    25
100
AcDbLine
 10
70.8749665277157
 20
30.18373677357478
 30
0.0
 11
70.8749665277157
 21
30.10558687929599
 31
0.0
  0
LINE
  5
3F4
330
1F
100
AcDbEntity
  8
0
  6
SLD-Solid
 62
     7
370
    25
100
AcDbLine
 10
57.7519472947882
 20
30.18313651775098
 30
0.0
 11
57.7519472947882
 21
30.18373677357474
 31
0.0
  0
LINE
  5
3F5
330
1F
100
AcDbEntity
  8
0
  6
SLD-Solid
 62
     7
370
    25
100
AcDbLine
 10
57.7519472947882
 20
30.05873677357474
 30
0.0
 11
57.7519472947882
 21
30.18313651775098
 31
0.0
  0
LINE
  5
3F6
330
1F
100
AcDbEntity
  8
0
  6
SLD-Solid
 62
     7
370
    25
100
AcDbLine
 10
70.9495850681708
 20
30.13945684851807
 30
0.0
 11
70.94958506817085
 21
36.88944606714908
 31
0.0
  0
LINE
  5
3F7
330
1F
100
AcDbEntity
  8
0
  6
SLD-Solid
 62
     7
370
    25
100
AcDbLine
 10
70.9795850681708
 20
30.13945684851807
 30
0.0
 11
70.97958506817083
 21
36.88944606714908
 31
0.0
  0
LINE
  5
3F8
330
1F
100
AcDbEntity
  8
0
  6
SLD-Solid
 62
     7
370
    25
100
AcDbLine
 10
57.64732875433307
 20
36.88944606714912
 30
0.0
 11
57.64732875433308
 21
30.1394568485181
 31
0.0
  0
LINE
  5
3F9
330
1F
100
AcDbEntity
  8
0
  6
SLD-Solid
 62
     7
370
    25
100
AcDbLine
 10
57.67732875433308
 20
36.88944606714912
 30
0.0
 11
57.67732875433308
 21
30.1394568485181
 31
0.0
  0
SPLINE
  5
3FA
330
1F
100
AcDbEntity
  8
0
  6
SLD-Solid
 62
     7
370
    25
100
AcDbSpline
210
0.0
220
0.0
230
1.0
 70
    12
 71
     3
 72
     9
 73
     5
 74
     0
 42
0.00000001
 43
0.00000001
 40
0.0
 40
0.0
 40
0.0
 40
0.0
 40
0.4701334364008111
 40
1.0
 40
1.0
 40
1.0
 40
1.0
 10
70.89757496690306
 20
37.12090377720695
 30
0.0
 41
1.0
 10
70.90426471425948
 20
37.1143748390016
 30
0.0
 41
1.0
 10
70.91849417942504
 20
37.1004874238555
 30
0.0
 41
1.0
 10
70.92915153191538
 20
37.08256959680222
 30
0.0
 41
1.0
 10
70.93479850665649
 20
37.07307553935432
 30
0.0
 41
1.0
  0
ARC
  5
3FB
330
1F
100
AcDbEntity
  8
0
  6
SLD-Solid
 62
     7
370
    25
100
AcDbCircle
 10
70.70340280129902
 20
36.87709044455323
 30
0.0
 40
0.311685371929903
100
AcDbArc
 50
51.46629510666055
 51
90.70181498786155
  0
SPLINE
  5
3FC
330
1F
100
AcDbEntity
  8
0
  6
SLD-Solid
 62
     7
370
    25
100
AcDbSpline
210
0.0
220
0.0
230
1.0
 70
    12
 71
     3
 72
     9
 73
     5
 74
     0
 42
0.00000001
 43
0.00000001
 40
0.0
 40
0.0
 40
0.0
 40
0.0
 40
0.5000000000000012
 40
1.0
 40
1.0
 40
1.0
 40
1.0
 10
70.93479850665649
 20
37.07307553935432
 30
0.0
 41
1.0
 10
70.9477446079192
 20
37.04380773816115
 30
0.0
 41
1.0
 10
70.9736368104446
 20
36.98527213577479
 30
0.0
 41
1.0
 10
70.97760231559543
 20
36.92138809002432
 30
0.0
 41
1.0
 10
70.97958506817083
 20
36.88944606714909
 30
0.0
 41
1.0
  0
ARC
  5
3FD
330
1F
100
AcDbEntity
  8
0
  6
SLD-Solid
 62
     7
370
    25
100
AcDbCircle
 10
70.70299375846383
 20
36.88566317855143
 30
0.0
 40
0.2782905106518229
100
AcDbArc
 50
51.46629510667335
 51
90.70181498785622
  0
SPLINE
  5
3FE
330
1F
100
AcDbEntity
  8
0
  6
SLD-Solid
 62
     7
370
    25
100
AcDbSpline
210
0.0
220
0.0
230
1.0
 70
    12
 71
     3
 72
     9
 73
     5
 74
     0
 42
0.00000001
 43
0.00000001
 40
0.0
 40
0.0
 40
0.0
 40
0.0
 40
0.4667123111697259
 40
1.0
 40
1.0
 40
1.0
 40
1.0
 10
70.87636176346747
 20
37.10335365413525
 30
0.0
 41
1.0
 10
70.88234813040528
 20
37.09742650244447
 30
0.0
 41
1.0
 10
70.89517480498517
 20
37.0847267052698
 30
0.0
 41
1.0
 10
70.90458090792242
 20
37.06834614530242
 30
0.0
 41
1.0
 10
70.90959706681875
 20
37.05961059433567
 30
0.0
 41
1.0
  0
SPLINE
  5
3FF
330
1F
100
AcDbEntity
  8
0
  6
SLD-Solid
 62
     7
370
    25
100
AcDbSpline
210
0.0
220
0.0
230
1.0
 70
    12
 71
     3
 72
     9
 73
     5
 74
     0
 42
0.00000001
 43
0.00000001
 40
0.0
 40
0.0
 40
0.0
 40
0.0
 40
0.4999999999999887
 40
1.0
 40
1.0
 40
1.0
 40
1.0
 10
70.90959706681875
 20
37.05961059433567
 30
0.0
 41
1.0
 10
70.9211560858033
 20
37.03244368876977
 30
0.0
 41
1.0
 10
70.94427412377242
 20
36.97810987763798
 30
0.0
 41
1.0
 10
70.94781475337136
 20
36.91900067064539
 30
0.0
 41
1.0
 10
70.94958506817083
 20
36.88944606714909
 30
0.0
 41
1.0
  0
SPLINE
  5
400
330
1F
100
AcDbEntity
  8
0
  6
SLD-Solid
 62
     7
370
    25
100
AcDbSpline
210
0.0
220
0.0
230
1.0
 70
    12
 71
     3
 72
     9
 73
     5
 74
     0
 42
0.00000001
 43
0.00000001
 40
0.0
 40
0.0
 40
0.0
 40
0.0
 40
0.4999999999999963
 40
1.0
 40
1.0
 40
1.0
 40
1.0
 10
57.67732875433307
 20
36.88944606714912
 30
0.0
 41
1.0
 10
57.67909906913255
 20
36.91900067064542
 30
0.0
 41
1.0
 10
57.68263969873149
 20
36.97810987763802
 30
0.0
 41
1.0
 10
57.7057577367006
 20
37.03244368876981
 30
0.0
 41
1.0
 10
57.71731675568516
 20
37.05961059433571
 30
0.0
 41
1.0
  0
SPLINE
  5
401
330
1F
100
AcDbEntity
  8
0
  6
SLD-Solid
 62
     7
370
    25
100
AcDbSpline
210
0.0
220
0.0
230
1.0
 70
    12
 71
     3
 72
     9
 73
     5
 74
     0
 42
0.00000001
 43
0.00000001
 40
0.0
 40
0.0
 40
0.0
 40
0.0
 40
0.4736464482334711
 40
1.0
 40
1.0
 40
1.0
 40
1.0
 10
57.71731675568516
 20
37.05961059433571
 30
0.0
 41
1.0
 10
57.72172762303086
 20
37.06738270017827
 30
0.0
 41
1.0
 10
57.73104019649604
 20
37.08379178731816
 30
0.0
 41
1.0
 10
57.74382351430456
 20
37.09660786573883
 30
0.0
 41
1.0
 10
57.75055205903644
 20
37.10335365413528
 30
0.0
 41
1.0
  0
ARC
  5
402
330
1F
100
AcDbEntity
  8
0
  6
SLD-Solid
 62
     7
370
    25
100
AcDbCircle
 10
57.92392006404007
 20
36.88566317855154
 30
0.0
 40
0.278290510651752
100
AcDbArc
 50
89.29818501214069
 51
128.5337048933355
  0
SPLINE
  5
403
330
1F
100
AcDbEntity
  8
0
  6
SLD-Solid
 62
     7
370
    25
100
AcDbSpline
210
0.0
220
0.0
230
1.0
 70
    12
 71
     3
 72
     9
 73
     5
 74
     0
 42
0.00000001
 43
0.00000001
 40
0.0
 40
0.0
 40
0.0
 40
0.0
 40
0.4700694222465862
 40
1.0
 40
1.0
 40
1.0
 40
1.0
 10
57.69211531584742
 20
37.07307553935436
 30
0.0
 41
1.0
 10
57.69707931473478
 20
37.0815174913506
 30
0.0
 41
1.0
 10
57.70763945468951
 20
37.09947643868205
 30
0.0
 41
1.0
 10
57.72182271321566
 20
37.11348187058628
 30
0.0
 41
1.0
 10
57.72933885560084
 20
37.12090377720698
 30
0.0
 41
1.0
  0
SPLINE
  5
404
330
1F
100
AcDbEntity
  8
0
  6
SLD-Solid
 62
     7
370
    25
100
AcDbSpline
210
0.0
220
0.0
230
1.0
 70
    12
 71
     3
 72
     9
 73
     5
 74
     0
 42
0.00000001
 43
0.00000001
 40
0.0
 40
0.0
 40
0.0
 40
0.0
 40
0.500000000000001
 40
1.0
 40
1.0
 40
1.0
 40
1.0
 10
57.64732875433307
 20
36.88944606714912
 30
0.0
 41
1.0
 10
57.64931150690849
 20
36.92138809002435
 30
0.0
 41
1.0
 10
57.65327701205931
 20
36.98527213577483
 30
0.0
 41
1.0
 10
57.6791692145847
 20
37.04380773816118
 30
0.0
 41
1.0
 10
57.69211531584742
 20
37.07307553935436
 30
0.0
 41
1.0
  0
ARC
  5
405
330
1F
100
AcDbEntity
  8
0
  6
SLD-Solid
 62
     7
370
    25
100
AcDbCircle
 10
57.92351102120492
 20
36.87709044455318
 30
0.0
 40
0.3116853719299819
100
AcDbArc
 50
89.29818501214386
 51
128.5337048933356
  0
LINE
  5
406
330
1F
100
AcDbEntity
  8
0
  6
SLD-Solid
 62
     7
370
    25
100
AcDbLine
 10
70.9495850681708
 20
29.88946922112332
 30
0.0
 11
70.9495850681708
 21
30.13945684851807
 31
0.0
  0
LINE
  5
407
330
1F
100
AcDbEntity
  8
0
  6
SLD-Solid
 62
     7
370
    25
100
AcDbLine
 10
70.9795850681708
 20
29.88946922112332
 30
0.0
 11
70.9795850681708
 21
30.13945684851807
 31
0.0
  0
LINE
  5
408
330
1F
100
AcDbEntity
  8
0
  6
SLD-Solid
 62
     7
370
    25
100
AcDbLine
 10
57.64732875433307
 20
29.88946922112336
 30
0.0
 11
57.67732875433308
 21
29.88946922112336
 31
0.0
  0
LINE
  5
409
330
1F
100
AcDbEntity
  8
0
  6
SLD-Solid
 62
     7
370
    25
100
AcDbLine
 10
57.64732875433308
 20
30.1394568485181
 30
0.0
 11
57.64732875433307
 21
29.88946922112336
 31
0.0
  0
LINE
  5
40A
330
1F
100
AcDbEntity
  8
0
  6
SLD-Solid
 62
     7
370
    25
100
AcDbLine
 10
57.67732875433308
 20
30.1394568485181
 30
0.0
 11
57.67732875433308
 21
29.88946922112336
 31
0.0
  0
LINE
  5
40B
330
1F
100
AcDbEntity
  8
0
  6
SLD-Solid
 62
     7
370
    25
100
AcDbLine
 10
70.69958506817083
 20
37.16393281244873
 30
0.0
 11
57.92732875433308
 21
37.16393281244877
 31
0.0
  0
LINE
  5
40C
330
1F
100
AcDbEntity
  8
0
  6
SLD-Solid
 62
     7
370
    25
100
AcDbLine
 10
70.69958506817083
 20
37.18875243451806
 30
0.0
 11
57.92732875433308
 21
37.1887524345181
 31
0.0
  0
LINE
  5
40D
330
1F
100
AcDbEntity
  8
0
  6
SLD-Solid
 62
     7
370
    25
100
AcDbLine
 10
70.9095850681708
 20
30.05873677357478
 30
0.0
 11
70.90958506817078
 21
29.91973065414921
 31
0.0
  0
LINE
  5
40E
330
1F
100
AcDbEntity
  8
0
  6
SLD-Solid
 62
     7
370
    25
100
AcDbLine
 10
70.9395850681708
 20
30.05873677357478
 30
0.0
 11
70.93958506817079
 21
29.91973065414921
 31
0.0
  0
LINE
  5
40F
330
1F
100
AcDbEntity
  8
0
  6
SLD-Solid
 62
     7
370
    25
100
AcDbLine
 10
70.90958506817083
 20
33.38397442741458
 30
0.0
 11
70.9095850681708
 21
30.18373677357478
 31
0.0
  0
LINE
  5
410
330
1F
100
AcDbEntity
  8
0
  6
SLD-Solid
 62
     7
370
    25
100
AcDbLine
 10
70.93958506817083
 20
33.38397442741458
 30
0.0
 11
70.90958506817083
 21
33.38397442741458
 31
0.0
  0
LINE
  5
411
330
1F
100
AcDbEntity
  8
0
  6
SLD-Solid
 62
     7
370
    25
100
AcDbLine
 10
70.93958506817083
 20
33.38397442741458
 30
0.0
 11
70.9395850681708
 21
30.18373677357478
 31
0.0
  0
LINE
  5
412
330
1F
100
AcDbEntity
  8
0
  6
SLD-Solid
 62
     7
370
    25
100
AcDbLine
 10
57.68732875433307
 20
30.18373677357474
 30
0.0
 11
57.68732875433307
 21
33.38397442741461
 31
0.0
  0
LINE
  5
413
330
1F
100
AcDbEntity
  8
0
  6
SLD-Solid
 62
     7
370
    25
100
AcDbLine
 10
57.68732875433307
 20
33.38397442741461
 30
0.0
 11
57.71732875433307
 21
33.38397442741461
 31
0.0
  0
LINE
  5
414
330
1F
100
AcDbEntity
  8
0
  6
SLD-Solid
 62
     7
370
    25
100
AcDbLine
 10
57.71732875433307
 20
30.18373677357474
 30
0.0
 11
57.71732875433307
 21
33.38397442741461
 31
0.0
  0
LINE
  5
415
330
1F
100
AcDbEntity
  8
0
  6
SLD-Solid
 62
     7
370
    25
100
AcDbLine
 10
57.68732875433307
 20
29.91973065414925
 30
0.0
 11
57.68732875433307
 21
30.05873677357474
 31
0.0
  0
LINE
  5
416
330
1F
100
AcDbEntity
  8
0
  6
SLD-Solid
 62
     7
370
    25
100
AcDbLine
 10
57.71732875433307
 20
29.91973065414925
 30
0.0
 11
57.71732875433307
 21
30.05873677357474
 31
0.0
  0
LWPOLYLINE
  5
417
330
1F
100
AcDbEntity
  8
0
  6
SLD-Solid
 62
     7
370
    25
100
AcDbPolyline
 90
        6
 70
   128
 43
0.0
 10
70.90958506817078
 20
29.91973065414921
 10
70.91224928453289
 20
29.91220688968833
 10
70.91983633082926
 20
29.90582855016354
 10
70.93119114803801
 20
29.90156667994766
 10
70.9445850681708
 20
29.90007011014715
 10
70.9495850681708
 20
29.90027176208292
  0
LWPOLYLINE
  5
418
330
1F
100
AcDbEntity
  8
0
  6
SLD-Solid
 62
     7
370
    25
100
AcDbPolyline
 90
        9
 70
   128
 43
0.0
 10
70.93958506817079
 20
29.91973065414921
 10
70.93996567050823
 20
29.9186558306548
 10
70.94104953426485
 20
29.91774463929411
 10
70.94267165100896
 20
29.91713580069184
 10
70.9445850681708
 20
29.91692200500606
 10
70.94649848533261
 20
29.91713580069184
 10
70.94812060207673
 20
29.91774463929411
 10
70.94920446583335
 20
29.9186558306548
 10
70.94958506817079
 20
29.91973065414921
  0
LWPOLYLINE
  5
419
330
1F
100
AcDbEntity
  8
0
  6
SLD-Solid
 62
     7
370
    25
100
AcDbPolyline
 90
        6
 70
   128
 43
0.0
 10
57.67732875433307
 20
29.90027176208296
 10
57.68232875433307
 20
29.90007011014719
 10
57.69572267446585
 20
29.90156667994771
 10
57.7070774916746
 20
29.90582855016358
 10
57.71466453797097
 20
29.91220688968837
 10
57.71732875433307
 20
29.91973065414925
  0
LWPOLYLINE
  5
41A
330
1F
100
AcDbEntity
  8
0
  6
SLD-Solid
 62
     7
370
    25
100
AcDbPolyline
 90
        9
 70
   128
 43
0.0
 10
57.67732875433307
 20
29.91973065414925
 10
57.67770935667051
 20
29.91865583065484
 10
57.67879322042714
 20
29.91774463929415
 10
57.68041533717124
 20
29.91713580069189
 10
57.68232875433307
 20
29.9169220050061
 10
57.68424217149489
 20
29.91713580069189
 10
57.685864288239
 20
29.91774463929415
 10
57.68694815199563
 20
29.91865583065484
 10
57.68732875433307
 20
29.91973065414925
  0
LINE
  5
41B
330
1F
100
AcDbEntity
  8
0
  6
SLD-Solid
 62
     7
370
    25
100
AcDbLine
 10
70.86835691125206
 20
29.80623677357474
 30
0.0
 11
70.86835691125206
 21
36.69558928782249
 31
0.0
  0
LINE
  5
41C
330
1F
100
AcDbEntity
  8
0
  6
SLD-Solid
 62
     7
370
    25
100
AcDbLine
 10
70.80945691125201
 20
29.80623677357474
 30
0.0
 11
70.86835691807276
 21
29.80623677357474
 31
0.0
  0
SPLINE
  5
41D
330
1F
100
AcDbEntity
  8
0
  6
SLD-Solid
 62
     7
370
    25
100
AcDbSpline
210
0.0
220
0.0
230
1.0
 70
    12
 71
     3
 72
    11
 73
     7
 74
     0
 42
0.00000001
 43
0.00000001
 40
0.0
 40
0.0
 40
0.0
 40
0.0
 40
0.249999999999987
 40
0.4999999999999952
 40
0.7499999999999939
 40
1.0
 40
1.0
 40
1.0
 40
1.0
 10
70.86835691579918
 20
36.69558928782249
 30
0.0
 41
1.0
 10
70.86747155609365
 20
36.69891080790823
 30
0.0
 41
1.0
 10
70.86570083668262
 20
36.70555384807975
 30
0.0
 41
1.0
 10
70.85208025697818
 20
36.715518408337
 30
0.0
 41
1.0
 10
70.83261115868014
 20
36.72548296859427
 30
0.0
 41
1.0
 10
70.81717499372806
 20
36.73212600876577
 30
0.0
 41
1.0
 10
70.80945691125201
 20
36.73544752885153
 30
0.0
 41
1.0
  0
CIRCLE
  5
41E
330
1F
100
AcDbEntity
  8
0
  6
SLD-Solid
 62
     7
370
    25
100
AcDbCircle
 10
60.31345691125202
 20
32.18123677357474
 30
0.0
 40
0.1000000000000014
  0
CIRCLE
  5
41F
330
1F
100
AcDbEntity
  8
0
  6
SLD-Solid
 62
     7
370
    25
100
AcDbCircle
 10
64.31345691125202
 20
35.62623677357474
 30
0.0
 40
0.0999999999999943
  0
CIRCLE
  5
420
330
1F
100
AcDbEntity
  8
0
  6
SLD-Solid
 62
     7
370
    25
100
AcDbCircle
 10
68.31345691125202
 20
32.18123677357474
 30
0.0
 40
0.0999999999999943
  0
LINE
  5
421
330
1F
100
AcDbEntity
  8
0
  6
SLD-Solid
 62
     7
370
    25
100
AcDbLine
 10
58.12645691125202
 20
36.91384876203113
 30
0.0
 11
57.81745691125202
 21
36.73544752885153
 31
0.0
  0
LINE
  5
422
330
1F
100
AcDbEntity
  8
0
  6
SLD-Solid
 62
     7
370
    25
100
AcDbLine
 10
58.12645691125202
 20
36.91384876203113
 30
0.0
 11
58.12645691125202
 21
37.00600730015524
 31
0.0
  0
LINE
  5
423
330
1F
100
AcDbEntity
  8
0
  6
SLD-Solid
 62
     7
370
    25
100
AcDbLine
 10
70.50045691125202
 20
36.97158378895009
 30
0.0
 11
70.50045691125202
 21
37.00600730015524
 31
0.0
  0
ARC
  5
424
330
1F
100
AcDbEntity
  8
0
  6
SLD-Solid
 62
     7
370
    25
100
AcDbCircle
 10
70.60045691125202
 20
36.97158378895009
 30
0.0
 40
0.1000000000000085
100
AcDbArc
 50
180.0
 51
240.0000000000021
  0
LINE
  5
425
330
1F
100
AcDbEntity
  8
0
  6
SLD-Solid
 62
     7
370
    25
100
AcDbLine
 10
57.81745691125202
 20
29.80623677357474
 30
0.0
 11
70.80945691125201
 21
29.80623677357474
 31
0.0
  0
LINE
  5
426
330
1F
100
AcDbEntity
  8
0
  6
SLD-Solid
 62
     7
370
    25
100
AcDbLine
 10
70.55045691125203
 20
36.88498124857165
 30
0.0
 11
70.80945691125203
 21
36.73544752885153
 31
0.0
  0
LINE
  5
427
330
1F
100
AcDbEntity
  8
0
  6
SLD-Solid
 62
     7
370
    25
100
AcDbLine
 10
57.75855691125197
 20
29.80623677357474
 30
0.0
 11
57.75855691125197
 21
36.69558928782249
 31
0.0
  0
LINE
  5
428
330
1F
100
AcDbEntity
  8
0
  6
SLD-Solid
 62
     7
370
    25
100
AcDbLine
 10
57.81745691125202
 20
29.80623677357474
 30
0.0
 11
57.75855690443129
 21
29.80623677357474
 31
0.0
  0
SPLINE
  5
429
330
1F
100
AcDbEntity
  8
0
  6
SLD-Solid
 62
     7
370
    25
100
AcDbSpline
210
0.0
220
0.0
230
1.0
 70
    12
 71
     3
 72
    11
 73
     7
 74
     0
 42
0.00000001
 43
0.00000001
 40
0.0
 40
0.0
 40
0.0
 40
0.0
 40
0.249999999999987
 40
0.4999999999999952
 40
0.7499999999999939
 40
1.0
 40
1.0
 40
1.0
 40
1.0
 10
57.75855690670487
 20
36.69558928782249
 30
0.0
 41
1.0
 10
57.75944226641038
 20
36.69891080790823
 30
0.0
 41
1.0
 10
57.76121298582142
 20
36.70555384807975
 30
0.0
 41
1.0
 10
57.77483356552586
 20
36.715518408337
 30
0.0
 41
1.0
 10
57.79430266382391
 20
36.72548296859427
 30
0.0
 41
1.0
 10
57.80973882877598
 20
36.73212600876577
 30
0.0
 41
1.0
 10
57.81745691125202
 20
36.73544752885153
 30
0.0
 41
1.0
  0
LINE
  5
42A
330
1F
100
AcDbEntity
  8
0
  6
SLD-Solid
 62
     7
370
    25
100
AcDbLine
 10
58.12645691125202
 20
37.06490730015524
 30
0.0
 11
58.12645691125202
 21
37.00600730015524
 31
0.0
  0
LINE
  5
42B
330
1F
100
AcDbEntity
  8
0
  6
SLD-Solid
 62
     7
370
    25
100
AcDbLine
 10
70.50045691125202
 20
37.06490730015524
 30
0.0
 11
70.50045691125202
 21
37.00600730015524
 31
0.0
  0
DIMENSION
  5
42C
330
1F
100
AcDbEntity
  8
DIMS
100
AcDbDimension
  2
_D_4
 10
60.31345691125199
 20
28.82185827801408
 30
0.0
 11
64.4444222621564
 21
28.82185827801408
 31
0.0
 70
    32
  1
<>
 71
     2
 42
-1.0
  3
SLDDIMSTYLE0
100
AcDbAlignedDimension
 13
68.31345691125199
 23
32.18123677357474
 33
0.0
 14
60.31345691125199
 24
32.18123677357474
 34
0.0
100
AcDbRotatedDimension
  0
DIMENSION
  5
437
330
1F
100
AcDbEntity
  8
DIMS
100
AcDbDimension
  2
_D_5
 10
55.55809196488817
 20
32.18123677357475
 30
0.0
 11
55.55809196488818
 21
34.56977066631209
 31
0.0
 70
    32
  1
<>
 71
     2
 42
-1.0
  3
SLDDIMSTYLE0
100
AcDbAlignedDimension
 13
57.92732875433305
 23
37.1887524345181
 33
0.0
 14
60.31345691125199
 24
32.18123677357474
 34
0.0
 50
90.0000000000002
100
AcDbRotatedDimension
  0
DIMENSION
  5
442
330
1F
100
AcDbEntity
  8
DIMS
100
AcDbDimension
  2
_D_6
 10
55.55809196488816
 20
29.80623677357474
 30
0.0
 11
55.55809196488816
 21
30.93816164104361
 31
0.0
 70
    32
  1
<>
 71
     2
 42
-1.0
  3
SLDDIMSTYLE1
100
AcDbAlignedDimension
 13
59.31345691125199
 23
32.18123677357474
 33
0.0
 14
57.75855690443125
 24
29.80623677357474
 34
0.0
 50
90.0000000000002
100
AcDbRotatedDimension
  0
DIMENSION
  5
451
330
1F
100
AcDbEntity
  8
DIMS
100
AcDbDimension
  2
_D_7
 10
68.26345691125199
 20
32.26783931395318
 30
0.0
 11
72.11915228792344
 21
28.61060960368018
 31
0.0
 70
    35
  1
<>
 71
     1
 42
-1.0
  3
SLDDIMSTYLE4
100
AcDbDiametricDimension
 15
68.36345691125199
 25
32.0946342331963
 35
0.0
 40
0.0
  0
DIMENSION
  5
45E
330
1F
100
AcDbEntity
  8
DIMS
100
AcDbDimension
  2
_D_8
 10
72.59638091273379
 20
32.18123677357474
 30
0.0
 11
72.59638091273379
 21
33.92093518277508
 31
0.0
 70
    32
  1
<>
 71
     2
 42
-1.0
  3
SLDDIMSTYLE1
100
AcDbAlignedDimension
 13
64.31345691125199
 23
35.62623677357474
 33
0.0
 14
68.31345691125199
 24
32.18123677357474
 34
0.0
 50
90.0000000000002
100
AcDbRotatedDimension
  0
MTEXT
  5
46D
330
1F
100
AcDbEntity
  8
NOTES
100
AcDbMText
 10
54.78218420576042
 20
29.34882574689899
 30
0.0
 40
0.7500000000000001
 41
0.0
 71
     1
 72
     1
  1
Back view
  7
SLDTEXTSTYLE1
 73
     1
 44
1.0
  0
MTEXT
  5
46E
330
1F
100
AcDbEntity
  8
NOTES
100
AcDbMText
 10
50.76885699440162
 20
39.827063313107
 30
0.0
 40
0.7500000000000001
 41
0.0
 71
     1
 72
     1
  1
mounting hole (3)
  7
SLDTEXTSTYLE1
 73
     1
 44
1.0
  0
LEADER
  5
46F
330
1F
100
AcDbEntity
  8
NOTES
100
AcDbLeader
  3
SLDDIMSTYLE3
 76
     3
 10
64.24899304299812
 20
35.70268551254242
 30
0.0
 10
59.87890191598154
 20
39.46298243243471
 30
0.0
 10
59.37890191598154
 20
39.46298243243471
 30
0.0
1001
ACAD
1000
DSTYLE
1002
{
1070
   176
1070
     0
1070
    77
1070
     0
1070
    40
1040
1.0
1070
   147
1040
0.0
1002
}
  0
SPLINE
  5
470
330
1F
100
AcDbEntity
  8
0
  6
SLD-Solid
 62
     7
370
    25
100
AcDbSpline
210
0.0
220
0.0
230
1.0
 70
    12
 71
     3
 72
    18
 73
    14
 74
     0
 42
0.00000001
 43
0.00000001
 40
0.0
 40
0.0
 40
0.0
 40
0.0
 40
0.0621385117043667
 40
0.1584711453856568
 40
0.2547199483747288
 40
0.3511876430103664
 40
0.4481108964503652
 40
0.5455777335011573
 40
0.643545642906
 40
0.7419021911085238
 40
0.8405267164332931
 40
0.9393269932301884
 40
1.0
 40
1.0
 40
1.0
 40
1.0
 10
17.9598660842798
 20
51.1392522352543
 30
0.0
 41
1.0
 10
17.95876541332789
 20
51.12616644263493
 30
0.0
 41
1.0
 10
17.95595838461642
 20
51.09279389334475
 30
0.0
 41
1.0
 10
17.96451774826994
 20
51.03917855457508
 30
0.0
 41
1.0
 10
17.98371334025396
 20
50.98049628612686
 30
0.0
 41
1.0
 10
18.01405178793728
 20
50.92529034854147
 30
0.0
 41
1.0
 10
18.05420523859253
 20
50.87488481775472
 30
0.0
 41
1.0
 10
18.10339186292658
 20
50.83048460892266
 30
0.0
 41
1.0
 10
18.16038594201099
 20
50.79322874241754
 30
0.0
 41
1.0
 10
18.22378257271559
 20
50.76404416649975
 30
0.0
 41
1.0
 10
18.29195566809492
 20
50.74389035634521
 30
0.0
 41
1.0
 10
18.35399614301105
 20
50.7340796047173
 30
0.0
 41
1.0
 10
18.39277249867978
 20
50.73311881710558
 30
0.0
 41
1.0
 10
18.40752530264404
 20
50.73275327704793
 30
0.0
 41
1.0
  0
SPLINE
  5
471
330
1F
100
AcDbEntity
  8
0
  6
SLD-Solid
 62
     7
370
    25
100
AcDbSpline
210
0.0
220
0.0
230
1.0
 70
    12
 71
     3
 72
    18
 73
    14
 74
     0
 42
0.00000001
 43
0.00000001
 40
0.0
 40
0.0
 40
0.0
 40
0.0
 40
0.0562374464951855
 40
0.1598546999659581
 40
0.2636283262238248
 40
0.3674488687005552
 40
0.4712446444556302
 40
0.5748890211264538
 40
0.6782022751326777
 40
0.7809879133211822
 40
0.8831075059861551
 40
0.9845650838420916
 40
0.9999999999999999
 40
0.9999999999999999
 40
0.9999999999999999
 40
0.9999999999999999
 10
18.40752530264404
 20
50.73275327704793
 30
0.0
 41
1.0
 10
18.42058323658914
 20
50.73304194196528
 30
0.0
 41
1.0
 10
18.45770035770785
 20
50.73386247075221
 30
0.0
 41
1.0
 10
18.51833946968032
 20
50.74283571637675
 30
0.0
 41
1.0
 10
18.58709220291425
 20
50.7624758695095
 30
0.0
 41
1.0
 10
18.65134273328725
 20
50.79137483203914
 30
0.0
 41
1.0
 10
18.70936298748387
 20
50.82867331765416
 30
0.0
 41
1.0
 10
18.75961661444645
 20
50.87349217779721
 30
0.0
 41
1.0
 10
18.80061699868109
 20
50.92464529397402
 30
0.0
 41
1.0
 10
18.83161756150144
 20
50.98074689035118
 30
0.0
 41
1.0
 10
18.85040871270296
 20
51.04018806080983
 30
0.0
 41
1.0
 10
18.85857664143158
 20
51.08424151951864
 30
0.0
 41
1.0
 10
18.8569793672614
 20
51.10774411115706
 30
0.0
 41
1.0
 10
18.85676845728718
 20
51.11084748006446
 30
0.0
 41
1.0
  0
LINE
  5
472
330
1F
100
AcDbEntity
  8
0
  6
SLD-Solid
 62
     7
370
    25
100
AcDbLine
 10
17.95752514089481
 20
51.22602753703168
 30
0.0
 11
17.95752514089481
 21
51.11368157130563
 31
0.0
  0
LINE
  5
473
330
1F
100
AcDbEntity
  8
0
  6
SLD-Solid
 62
     7
370
    25
100
AcDbLine
 10
18.85752514089481
 20
51.11368157130563
 30
0.0
 11
18.85752514089481
 21
51.22602753703168
 31
0.0
  0
LINE
  5
474
330
1F
100
AcDbEntity
  8
0
  6
SLD-Solid
 62
     7
370
    25
100
AcDbLine
 10
18.72252514089481
 20
51.08559507987412
 30
0.0
 11
18.72252514089481
 21
51.092616702732
 31
0.0
  0
LINE
  5
475
330
1F
100
AcDbEntity
  8
0
  6
SLD-Solid
 62
     7
370
    25
100
AcDbLine
 10
18.09252514089481
 20
51.092616702732
 30
0.0
 11
18.09252514089481
 21
51.08559507987412
 31
0.0
  0
ARC
  5
476
330
1F
100
AcDbEntity
  8
0
  6
SLD-Solid
 62
     7
370
    25
100
AcDbCircle
 10
25.07615222953665
 20
52.60032015847298
 30
0.0
 40
0.0025000000000017
100
AcDbArc
 50
32.98629416237022
 51
180.0
  0
ARC
  5
477
330
1F
100
AcDbEntity
  8
0
  6
SLD-Solid
 62
     7
370
    25
100
AcDbCircle
 10
25.07615222953665
 20
52.35043992151987
 30
0.0
 40
0.0025000000000056
100
AcDbArc
 50
180.0
 51
327.013705837494
  0
ARC
  5
478
330
1F
100
AcDbEntity
  8
0
  6
SLD-Solid
 62
     7
370
    25
100
AcDbCircle
 10
24.88366052622242
 20
52.47538003999642
 30
0.0
 40
0.2319843982708854
100
AcDbArc
 50
327.0137058375627
 51
32.98629416243963
  0
ARC
  5
479
330
1F
100
AcDbEntity
  8
0
  6
SLD-Solid
 62
     7
370
    25
100
AcDbCircle
 10
11.7388959156989
 20
52.3504399215198
 30
0.0
 40
0.0025000000000041
100
AcDbArc
 50
212.9862941625298
 51
0.0
  0
ARC
  5
47A
330
1F
100
AcDbEntity
  8
0
  6
SLD-Solid
 62
     7
370
    25
100
AcDbCircle
 10
11.7388959156989
 20
52.6003201584729
 30
0.0
 40
0.0025000000000013
100
AcDbArc
 50
0.0
 51
147.0137058375854
  0
ARC
  5
47B
330
1F
100
AcDbEntity
  8
0
  6
SLD-Solid
 62
     7
370
    25
100
AcDbCircle
 10
11.93138761901313
 20
52.47538003999635
 30
0.0
 40
0.2319843982708839
100
AcDbArc
 50
147.0137058375616
 51
212.9862941624407
  0
LINE
  5
47C
330
1F
100
AcDbEntity
  8
0
  6
SLD-Solid
 62
     7
370
    25
100
AcDbLine
 10
13.58239907261774
 20
47.10438003999662
 30
0.0
 11
18.08239907261774
 21
47.10438003999663
 31
0.0
  0
LINE
  5
47D
330
1F
100
AcDbEntity
  8
0
  6
SLD-Solid
 62
     7
370
    25
100
AcDbLine
 10
18.73264907261771
 20
47.09818003999646
 30
0.0
 11
23.23264907261771
 21
47.09818003999649
 31
0.0
  0
LINE
  5
47E
330
1F
100
AcDbEntity
  8
0
  6
SLD-Solid
 62
     7
370
    25
100
AcDbLine
 10
25.05865222009912
 20
52.69011172492652
 30
0.0
 11
25.02976804971648
 21
52.69380687124747
 31
0.0
  0
LINE
  5
47F
330
1F
100
AcDbEntity
  8
0
  6
SLD-Solid
 62
     7
370
    25
100
AcDbLine
 10
11.78528009551908
 20
52.69380687124746
 30
0.0
 11
11.75639592513644
 21
52.6901117249265
 31
0.0
  0
LINE
  5
480
330
1F
100
AcDbEntity
  8
0
  6
SLD-Solid
 62
     7
370
    25
100
AcDbLine
 10
12.02139591569891
 20
47.1353578136783
 30
0.0
 11
24.79365222953667
 21
47.13535781367832
 31
0.0
  0
LWPOLYLINE
  5
481
330
1F
100
AcDbEntity
  8
0
  6
SLD-Solid
 62
     7
370
    25
100
AcDbPolyline
 90
       36
 70
   128
 43
0.0
 10
18.40752528748446
 20
50.75466678561642
 10
18.47894804304816
 20
50.75998496110427
 10
18.54807520776968
 20
50.77576851372229
 10
18.61268497769687
 20
50.80151014710258
 10
18.67070074166316
 20
50.836382503968
 10
18.72025782527915
 20
50.87926475807584
 10
18.75976342310172
 20
50.92877863849544
 10
18.78794779271154
 20
50.98333272836993
 10
18.80390506527916
 20
51.04117361436352
 10
18.80712236093459
 20
51.10044224280871
 10
18.79749627314825
 20
51.15923367122091
 10
18.77533619230196
 20
51.21565829471718
 10
18.74135436162751
 20
51.26790257947203
 10
18.69664298512312
 20
51.31428735118669
 10
18.64263912321826
 20
51.35332176513274
 10
18.58107850446911
 20
51.38375122312833
 10
18.51393973781449
 20
51.40459769735603
 10
18.44338071845666
 20
51.41519116498164
 10
18.37166927133391
 20
51.41519114323932
 10
18.30111026136117
 20
51.40459763282791
 10
18.23397151317509
 20
51.38375111788839
 10
18.17241092138432
 20
51.35332162256348
 10
18.11840709406124
 20
51.3142871758704
 10
18.07369575865052
 20
51.26790237704352
 10
18.03971397426085
 20
51.21565807168267
 10
18.01755394340284
 20
51.15923343474891
 10
18.00792790770159
 20
51.10044200049963
 10
18.01114525586487
 20
51.04117337400536
 10
18.02710257967547
 20
50.98333249768802
 10
18.05528699761638
 20
50.92877842490406
 10
18.09479263930477
 20
50.87926456844003
 10
18.14434976091143
 20
50.83638234438279
 10
18.20236555577218
 20
50.80151002269716
 10
18.26697534850463
 20
50.77576842849516
 10
18.33610252720926
 20
50.75998491779471
 10
18.40752528748446
 20
50.75466678561642
  0
LINE
  5
482
330
1F
100
AcDbEntity
  8
0
  6
SLD-Solid
 62
     7
370
    25
100
AcDbLine
 10
17.95752514089481
 20
51.11368157130563
 30
0.0
 11
17.95848993746838
 21
51.13804734097601
 31
0.0
  0
LWPOLYLINE
  5
483
330
1F
100
AcDbEntity
  8
0
  6
SLD-Solid
 62
     7
370
    25
100
AcDbPolyline
 90
       32
 70
   128
 43
0.0
 10
18.4075252599989
 20
50.81671584078973
 10
18.47294727658964
 20
50.82221983444519
 10
18.53569090325826
 20
50.83850644159378
 10
18.59318740855689
 20
50.86490888662524
 10
18.64308287880304
 20
50.90034625033785
 10
18.68333458758237
 20
50.94336772289748
 10
18.71229462520807
 20
50.99221200016274
 10
18.72877736433709
 20
51.04487939168343
 10
18.73210799969286
 20
51.09921368826254
 10
18.72215017467256
 20
51.15299043741411
 10
18.69931156380254
 20
51.20400801270937
 10
18.66452718249522
 20
51.25017774862143
 10
18.61922110740832
 20
51.28960945073733
 10
18.56524817457914
 20
51.32068878053941
 10
18.50481804221926
 20
51.34214334661393
 10
18.44040472704772
 20
51.35309479650498
 10
18.37464531775589
 20
51.35309477656727
 10
18.31023201228659
 20
51.34214328761707
 10
18.24980189893396
 20
51.32068868489874
 10
18.19582899363891
 20
51.28960932236838
 10
18.15052295348575
 20
51.25017759277964
 10
18.11573861308159
 20
51.20400783577492
 10
18.09290004740958
 20
51.15299024663073
 10
18.08294227003172
 20
51.09921349144091
 10
18.08627295352386
 20
51.04487919688146
 10
18.10275573931251
 20
50.99221181535565
 10
18.13171582021081
 20
50.94336755565128
 10
18.17196756710414
 20
50.90034610749962
 10
18.2218630687453
 20
50.86490877404281
 10
18.27935959743463
 20
50.83850636387627
 10
18.34210323853203
 20
50.82221979477437
 10
18.4075252599989
 20
50.81671584078973
  0
LWPOLYLINE
  5
484
330
1F
100
AcDbEntity
  8
0
  6
SLD-Solid
 62
     7
370
    25
100
AcDbPolyline
 90
       20
 70
   128
 43
0.0
 10
18.85752514089481
 20
51.22602753703168
 10
18.85388031581434
 20
51.27331568659566
 10
18.83780012323706
 20
51.33504392523313
 10
18.80934170281748
 20
51.39363596086768
 10
18.76932375149696
 20
51.44740620731237
 10
18.71889751287448
 20
51.4948077924762
 10
18.65951365802441
 20
51.53447705905788
 10
18.59288055233084
 20
51.5652727944835
 10
18.52091510892602
 20
51.58630906151451
 10
18.44568764258953
 20
51.59698068504907
 10
18.36936231056158
 20
51.59698066190786
 10
18.29413485367942
 20
51.58630899275663
 10
18.22216942891128
 20
51.56527268208698
 10
18.1555363505006
 20
51.53447690625617
 10
18.09615253079473
 20
51.49480760366513
 10
18.04572633416676
 20
51.44740598792368
 10
18.00570843048292
 20
51.39363571721279
 10
17.97725006197179
 20
51.33504366432154
 10
17.96116992408141
 20
51.27331541593332
 10
17.95752514089481
 20
51.22602753703168
  0
LWPOLYLINE
  5
485
330
1F
100
AcDbEntity
  8
0
  6
SLD-Solid
 62
     7
370
    25
100
AcDbPolyline
 90
        9
 70
   128
 43
0.0
 10
18.4075252599989
 20
50.82373746364761
 10
18.47294727658964
 20
50.82924145730306
 10
18.53569090325826
 20
50.84552806445165
 10
18.59318740855689
 20
50.87193050948312
 10
18.64308287880304
 20
50.90736787319572
 10
18.68333458758237
 20
50.95038934575535
 10
18.71229462520807
 20
50.99923362302062
 10
18.72877736433709
 20
51.05190101454131
 10
18.73252514089481
 20
51.092616702732
  0
LWPOLYLINE
  5
486
330
1F
100
AcDbEntity
  8
0
  6
SLD-Solid
 62
     7
370
    25
100
AcDbPolyline
 90
        9
 70
   128
 43
0.0
 10
18.08252514089481
 20
51.092616702732
 10
18.08627295352386
 20
51.05190081973934
 10
18.10275573931251
 20
50.99923343821352
 10
18.13171582021081
 20
50.95038917850916
 10
18.17196756710414
 20
50.9073677303575
 10
18.2218630687453
 20
50.87193039690069
 10
18.27935959743463
 20
50.84552798673414
 10
18.34210323853203
 20
50.82924141763224
 10
18.4075252599989
 20
50.82373746364761
  0
LWPOLYLINE
  5
487
330
1F
100
AcDbEntity
  8
0
  6
SLD-Solid
 62
     7
370
    25
100
AcDbPolyline
 90
       32
 70
   128
 43
0.0
 10
18.40752525633416
 20
50.82498904814618
 10
18.47093428779903
 20
50.8303236881507
 10
18.53174734133939
 20
50.84610916892547
 10
18.58747472339806
 20
50.8716992310329
 10
18.63583494840586
 20
50.90604621432358
 10
18.6748481430689
 20
50.947743949266
 10
18.70291710261381
 20
50.99508532569232
 10
18.71889268053887
 20
51.04613218208929
 10
18.72212083480677
 20
51.09879465415828
 10
18.71246940440248
 20
51.15091673410518
 10
18.69033352002076
 20
51.2003645378529
 10
18.65661942736905
 20
51.24511366650612
 10
18.61270738536175
 20
51.28333208548
 10
18.56039515815809
 20
51.31345512821125
 10
18.50182441448619
 20
51.33424955379117
 10
18.43939304747378
 20
51.34486403599326
 10
18.3756570046217
 20
51.34486401666903
 10
18.313225647013
 20
51.33424949660959
 10
18.25465492176352
 20
51.31345503551337
 10
18.20234272124678
 20
51.28333196106086
 10
18.15843071309833
 20
51.24511351545947
 10
18.12471666009123
 20
51.20036436636259
 10
18.10258081951681
 20
51.15091654919206
 10
18.09292943528904
 20
51.0987944633927
 10
18.0961576362122
 20
51.04613199328124
 10
18.11213325936119
 20
50.99508514657159
 10
18.14020226084725
 20
50.94774378716583
 10
18.17921549245155
 20
50.90604607588038
 10
18.22757574788837
 20
50.87169912191454
 10
18.28330315261802
 20
50.84610909359927
 10
18.34411622014319
 20
50.83032364970052
 10
18.40752525633416
 20
50.82498904814618
  0
LWPOLYLINE
  5
488
330
1F
100
AcDbEntity
  8
0
  6
SLD-Solid
 62
     7
370
    25
100
AcDbPolyline
 90
       18
 70
   128
 43
0.0
 10
18.72252514089481
 20
51.092616702732
 10
18.72212083480677
 20
51.10581627701616
 10
18.71246940440248
 20
51.15793835696307
 10
18.69033352002076
 20
51.20738616071078
 10
18.65661942736905
 20
51.25213528936401
 10
18.61270738536176
 20
51.29035370833788
 10
18.56039515815809
 20
51.32047675106913
 10
18.5018244144862
 20
51.34127117664904
 10
18.43939304747378
 20
51.35188565885114
 10
18.3756570046217
 20
51.3518856395269
 10
18.31322564701299
 20
51.34127111946748
 10
18.25465492176352
 20
51.32047665837124
 10
18.20234272124678
 20
51.29035358391874
 10
18.15843071309833
 20
51.25213513831735
 10
18.12471666009123
 20
51.20738598922047
 10
18.10258081951681
 20
51.15793817204994
 10
18.09292943528904
 20
51.10581608625058
 10
18.09252514089481
 20
51.092616702732
  0
LINE
  5
489
330
1F
100
AcDbEntity
  8
0
  6
SLD-Solid
 62
     7
370
    25
100
AcDbLine
 10
18.36252511100913
 20
51.15306243308792
 30
0.0
 11
18.36252524843693
 21
50.84281715722133
 31
0.0
  0
LINE
  5
48A
330
1F
100
AcDbEntity
  8
0
  6
SLD-Solid
 62
     7
370
    25
100
AcDbLine
 10
18.36252524843693
 20
50.84281715722133
 30
0.0
 11
18.45252524843692
 21
50.84281718450858
 31
0.0
  0
LINE
  5
48B
330
1F
100
AcDbEntity
  8
0
  6
SLD-Solid
 62
     7
370
    25
100
AcDbLine
 10
18.45252524843692
 20
50.84281718450858
 30
0.0
 11
18.45252511100913
 21
51.15306246037517
 31
0.0
  0
LINE
  5
48C
330
1F
100
AcDbEntity
  8
0
  6
SLD-Solid
 62
     7
370
    25
100
AcDbLine
 10
18.45252511100913
 20
51.15306246037517
 30
0.0
 11
18.36252511100913
 21
51.15306243308792
 31
0.0
  0
LINE
  5
48D
330
1F
100
AcDbEntity
  8
0
  6
SLD-Solid
 62
     7
370
    25
100
AcDbLine
 10
18.36252514211246
 20
51.15306243308793
 30
0.0
 11
18.36252524843693
 21
50.91303338580011
 31
0.0
  0
LINE
  5
48E
330
1F
100
AcDbEntity
  8
0
  6
SLD-Solid
 62
     7
370
    25
100
AcDbLine
 10
18.36252524843693
 20
50.91303338580011
 30
0.0
 11
18.36252524843693
 21
50.84281715722133
 31
0.0
  0
LINE
  5
48F
330
1F
100
AcDbEntity
  8
0
  6
SLD-Solid
 62
     7
370
    25
100
AcDbLine
 10
18.36252524843693
 20
50.91303338580011
 30
0.0
 11
18.45252524843692
 21
50.91303341308735
 31
0.0
  0
LINE
  5
490
330
1F
100
AcDbEntity
  8
0
  6
SLD-Solid
 62
     7
370
    25
100
AcDbLine
 10
13.58239907261774
 20
47.10438003999662
 30
0.0
 11
13.58239907261774
 21
47.13535781367832
 31
0.0
  0
LINE
  5
491
330
1F
100
AcDbEntity
  8
0
  6
SLD-Solid
 62
     7
370
    25
100
AcDbLine
 10
18.08239907261774
 20
47.10438003999663
 30
0.0
 11
18.08239907261774
 21
47.13535781367832
 31
0.0
  0
LINE
  5
492
330
1F
100
AcDbEntity
  8
0
  6
SLD-Solid
 62
     7
370
    25
100
AcDbLine
 10
23.23264907261771
 20
47.13535781367833
 30
0.0
 11
23.23264907261771
 21
47.09818003999649
 31
0.0
  0
LINE
  5
493
330
1F
100
AcDbEntity
  8
0
  6
SLD-Solid
 62
     7
370
    25
100
AcDbLine
 10
18.73264907261771
 20
47.13535781367832
 30
0.0
 11
18.73264907261771
 21
47.09818003999646
 31
0.0
  0
SPLINE
  5
494
330
1F
100
AcDbEntity
  8
0
  6
SLD-Solid
 62
     7
370
    25
100
AcDbSpline
210
0.0
220
0.0
230
1.0
 70
    12
 71
     3
 72
     9
 73
     5
 74
     0
 42
0.00000001
 43
0.00000001
 40
0.0
 40
0.0
 40
0.0
 40
0.0
 40
0.4700694222465936
 40
1.0
 40
1.0
 40
1.0
 40
1.0
 10
25.02886566802231
 20
52.69014214006832
 30
0.0
 41
1.0
 10
25.02390166913494
 20
52.68951046919378
 30
0.0
 41
1.0
 10
25.01334152918021
 20
52.68816668709554
 30
0.0
 41
1.0
 10
24.99915827065406
 20
52.6818745042599
 30
0.0
 41
1.0
 10
24.99164212826889
 20
52.67854008417449
 30
0.0
 41
1.0
  0
SPLINE
  5
495
330
1F
100
AcDbEntity
  8
0
  6
SLD-Solid
 62
     7
370
    25
100
AcDbSpline
210
0.0
220
0.0
230
1.0
 70
    12
 71
     3
 72
     9
 73
     5
 74
     0
 42
0.00000001
 43
0.00000001
 40
0.0
 40
0.0
 40
0.0
 40
0.0
 40
0.5000000000000073
 40
1.0
 40
1.0
 40
1.0
 40
1.0
 10
25.07365222953665
 20
52.69011172492652
 30
0.0
 41
1.0
 10
25.07166947696124
 20
52.68920892971644
 30
0.0
 41
1.0
 10
25.06770397181042
 20
52.68740333929627
 30
0.0
 41
1.0
 10
25.04181176928502
 20
52.68922920647764
 30
0.0
 41
1.0
 10
25.02886566802231
 20
52.69014214006832
 30
0.0
 41
1.0
  0
LINE
  5
496
330
1F
100
AcDbEntity
  8
0
  6
SLD-Solid
 62
     7
370
    25
100
AcDbLine
 10
25.07365222953666
 20
47.30798162169273
 30
0.0
 11
25.07365222953665
 21
52.69011172492652
 31
0.0
  0
LWPOLYLINE
  5
497
330
1F
100
AcDbEntity
  8
0
  6
SLD-Solid
 62
     7
370
    25
100
AcDbPolyline
 90
        9
 70
   128
 43
0.0
 10
24.79365222953667
 20
47.15069726967625
 10
24.84827751970118
 20
47.15371944439721
 10
24.90080359059889
 20
47.16266982808041
 10
24.94921189478216
 20
47.17720446250033
 10
24.9916421282689
 20
47.19676478980735
 10
25.02646372098138
 20
47.22059911759261
 10
25.05233849863983
 20
47.24779150600574
 10
25.06827210804957
 20
47.27729696680973
 10
25.07365222953666
 20
47.30798162169273
  0
ARC
  5
498
330
1F
100
AcDbEntity
  8
0
  6
SLD-Solid
 62
     7
370
    25
100
AcDbCircle
 10
24.80193352754249
 20
53.04537724825125
 30
0.0
 40
0.4129877215335204
100
AcDbArc
 50
268.851018557959
 51
297.3455924189211
  0
ARC
  5
499
330
1F
100
AcDbEntity
  8
0
  6
SLD-Solid
 62
     7
370
    25
100
AcDbCircle
 10
24.80104624561332
 20
53.01798935551637
 30
0.0
 40
0.3687390370834099
100
AcDbArc
 50
268.8510185579551
 51
297.3455924189243
  0
SPLINE
  5
49A
330
1F
100
AcDbEntity
  8
0
  6
SLD-Solid
 62
     7
370
    25
100
AcDbSpline
210
0.0
220
0.0
230
1.0
 70
    12
 71
     3
 72
     9
 73
     5
 74
     0
 42
0.00000001
 43
0.00000001
 40
0.0
 40
0.0
 40
0.0
 40
0.0
 40
0.470133436400808
 40
1.0
 40
1.0
 40
1.0
 40
1.0
 10
11.82340601696666
 20
52.67854008417447
 30
0.0
 41
1.0
 10
11.81671626961023
 20
52.68152876803227
 30
0.0
 41
1.0
 10
11.80248680444468
 20
52.68788586503152
 30
0.0
 41
1.0
 10
11.79182945195435
 20
52.68936068322186
 30
0.0
 41
1.0
 10
11.78618247721323
 20
52.6901421400683
 30
0.0
 41
1.0
  0
ARC
  5
49B
330
1F
100
AcDbEntity
  8
0
  6
SLD-Solid
 62
     7
370
    25
100
AcDbCircle
 10
12.01311461769307
 20
53.0453772482513
 30
0.0
 40
0.412987721533583
100
AcDbArc
 50
242.6544075810831
 51
271.1489814420403
  0
LWPOLYLINE
  5
49C
330
1F
100
AcDbEntity
  8
0
  6
SLD-Solid
 62
     7
370
    25
100
AcDbPolyline
 90
        9
 70
   128
 43
0.0
 10
11.7413959156989
 20
47.30798162169271
 10
11.746776037186
 20
47.27729696680971
 10
11.76270964659574
 20
47.24779150600573
 10
11.78858442425419
 20
47.22059911759258
 10
11.82340601696667
 20
47.19676478980733
 10
11.86583625045341
 20
47.17720446250031
 10
11.91424455463668
 20
47.1626698280804
 10
11.96677062553439
 20
47.1537194443972
 10
12.02139591569891
 20
47.15069726967624
  0
LINE
  5
49D
330
1F
100
AcDbEntity
  8
0
  6
SLD-Solid
 62
     7
370
    25
100
AcDbLine
 10
11.7413959156989
 20
47.30798162169271
 30
0.0
 11
11.74139591569888
 21
52.6901117249265
 31
0.0
  0
SPLINE
  5
49E
330
1F
100
AcDbEntity
  8
0
  6
SLD-Solid
 62
     7
370
    25
100
AcDbSpline
210
0.0
220
0.0
230
1.0
 70
    12
 71
     3
 72
     9
 73
     5
 74
     0
 42
0.00000001
 43
0.00000001
 40
0.0
 40
0.0
 40
0.0
 40
0.0
 40
0.4999999999999844
 40
1.0
 40
1.0
 40
1.0
 40
1.0
 10
11.78618247721323
 20
52.6901421400683
 30
0.0
 41
1.0
 10
11.77323637595052
 20
52.68922920647762
 30
0.0
 41
1.0
 10
11.74734417342512
 20
52.68740333929626
 30
0.0
 41
1.0
 10
11.7433786682743
 20
52.68920892971642
 30
0.0
 41
1.0
 10
11.74139591569889
 20
52.6901117249265
 30
0.0
 41
1.0
  0
ARC
  5
49F
330
1F
100
AcDbEntity
  8
0
  6
SLD-Solid
 62
     7
370
    25
100
AcDbCircle
 10
12.01400189962225
 20
53.01798935551639
 30
0.0
 40
0.3687390370834521
100
AcDbArc
 50
242.6544075810769
 51
271.1489814420431
  0
LINE
  5
4A0
330
1F
100
AcDbEntity
  8
0
  6
SLD-Solid
 62
     7
370
    25
100
AcDbLine
 10
12.02139591569889
 20
52.63247256404338
 30
0.0
 11
24.79365222953665
 21
52.6324725640434
 31
0.0
  0
LINE
  5
4A1
330
1F
100
AcDbEntity
  8
0
  6
SLD-Solid
 62
     7
370
    25
100
AcDbLine
 10
12.02139591569889
 20
52.64932445890229
 30
0.0
 11
24.79365222953665
 21
52.64932445890231
 31
0.0
  0
LINE
  5
4A2
330
1F
100
AcDbEntity
  8
0
  6
SLD-Solid
 62
     7
370
    25
100
AcDbLine
 10
25.03095433848471
 20
52.69359645281228
 30
0.0
 11
25.00366422818456
 21
52.69928449675295
 31
0.0
  0
SPLINE
  5
4A3
330
1F
100
AcDbEntity
  8
0
  6
SLD-Solid
 62
     7
370
    25
100
AcDbSpline
210
0.0
220
0.0
230
1.0
 70
    12
 71
     3
 72
     9
 73
     5
 74
     0
 42
0.00000001
 43
0.00000001
 40
0.0
 40
0.0
 40
0.0
 40
0.0
 40
0.4736464482335282
 40
1.0
 40
1.0
 40
1.0
 40
1.0
 10
25.00366422818456
 20
52.69928449675295
 30
0.0
 41
1.0
 10
24.99925336083887
 20
52.69910456480149
 30
0.0
 41
1.0
 10
24.98994078737369
 20
52.69872467817486
 30
0.0
 41
1.0
 10
24.97715746956516
 20
52.69330751590586
 30
0.0
 41
1.0
 10
24.97042892483329
 20
52.69045617330506
 30
0.0
 41
1.0
  0
SPLINE
  5
4A4
330
1F
100
AcDbEntity
  8
0
  6
SLD-Solid
 62
     7
370
    25
100
AcDbSpline
210
0.0
220
0.0
230
1.0
 70
    12
 71
     3
 72
     9
 73
     5
 74
     0
 42
0.00000001
 43
0.00000001
 40
0.0
 40
0.0
 40
0.0
 40
0.0
 40
0.4667123111697206
 40
1.0
 40
1.0
 40
1.0
 40
1.0
 10
11.84461922040225
 20
52.69045617330505
 30
0.0
 41
1.0
 10
11.83863285346445
 20
52.69301818464984
 30
0.0
 41
1.0
 10
11.82580617888455
 20
52.69850767203528
 30
0.0
 41
1.0
 10
11.81640007594729
 20
52.69901431193287
 30
0.0
 41
1.0
 10
11.81138391705098
 20
52.69928449675292
 30
0.0
 41
1.0
  0
LINE
  5
4A5
330
1F
100
AcDbEntity
  8
0
  6
SLD-Solid
 62
     7
370
    25
100
AcDbLine
 10
11.81138391705098
 20
52.69928449675292
 30
0.0
 11
11.78409380675084
 21
52.69359645281227
 31
0.0
  0
LINE
  5
4A6
330
1F
100
AcDbEntity
  8
0
  6
SLD-Solid
 62
     7
370
    25
100
AcDbLine
 10
25.05865222009912
 20
52.69011172492652
 30
0.0
 11
25.07365222953665
 21
52.69011172492652
 31
0.0
  0
LINE
  5
4A7
330
1F
100
AcDbEntity
  8
0
  6
SLD-Solid
 62
     7
370
    25
100
AcDbLine
 10
11.75639592513644
 20
52.6901117249265
 30
0.0
 11
11.74139591569889
 21
52.6901117249265
 31
0.0
  0
LINE
  5
4A8
330
1F
100
AcDbEntity
  8
0
  6
SLD-Solid
 62
     7
370
    25
100
AcDbLine
 10
12.02139591569891
 20
47.1353578136783
 30
0.0
 11
12.02139591569891
 21
47.15069726967624
 31
0.0
  0
LINE
  5
4A9
330
1F
100
AcDbEntity
  8
0
  6
SLD-Solid
 62
     7
370
    25
100
AcDbLine
 10
24.79365222953667
 20
47.15069726967625
 30
0.0
 11
24.79365222953667
 21
47.13535781367832
 31
0.0
  0
LINE
  5
4AA
330
1F
100
AcDbEntity
  8
0
  6
SLD-Solid
 62
     7
370
    25
100
AcDbLine
 10
12.2205240726177
 20
52.89028003999646
 30
0.0
 11
24.59452407261771
 21
52.89028003999646
 31
0.0
  0
LINE
  5
4AB
330
1F
100
AcDbEntity
  8
0
  6
SLD-Solid
 62
     7
370
    25
100
AcDbLine
 10
24.59452407261771
 20
52.80193003999646
 30
0.0
 11
24.59452407261771
 21
52.89028003999646
 31
0.0
  0
LINE
  5
4AC
330
1F
100
AcDbEntity
  8
0
  6
SLD-Solid
 62
     7
370
    25
100
AcDbLine
 10
12.2205240726177
 20
52.80193003999646
 30
0.0
 11
12.2205240726177
 21
52.89028003999646
 31
0.0
  0
LINE
  5
4AD
330
1F
100
AcDbEntity
  8
0
  6
SLD-Solid
 62
     7
370
    25
100
AcDbLine
 10
12.2205240726177
 20
52.80193003999646
 30
0.0
 11
12.2205240726177
 21
52.64932445890229
 31
0.0
  0
LINE
  5
4AE
330
1F
100
AcDbEntity
  8
0
  6
SLD-Solid
 62
     7
370
    25
100
AcDbLine
 10
24.59452407261771
 20
52.80193003999646
 30
0.0
 11
24.59452407261771
 21
52.64932445890231
 31
0.0
  0
LINE
  5
4AF
330
1F
100
AcDbEntity
  8
0
  6
SLD-Solid
 62
     7
370
    25
100
AcDbLine
 10
12.1705240726177
 20
52.89028003999642
 30
0.0
 11
12.2205240726177
 21
52.89028003999646
 31
0.0
  0
LINE
  5
4B0
330
1F
100
AcDbEntity
  8
0
  6
SLD-Solid
 62
     7
370
    25
100
AcDbLine
 10
12.2205240726177
 20
52.86038003999646
 30
0.0
 11
12.1705240726177
 21
52.86038003999642
 31
0.0
  0
LINE
  5
4B1
330
1F
100
AcDbEntity
  8
0
  6
SLD-Solid
 62
     7
370
    25
100
AcDbLine
 10
24.59452407261771
 20
52.89028003999642
 30
0.0
 11
24.9035240726177
 21
52.89028003999642
 31
0.0
  0
LINE
  5
4B2
330
1F
100
AcDbEntity
  8
0
  6
SLD-Solid
 62
     7
370
    25
100
AcDbLine
 10
24.59452407261771
 20
52.86038003999642
 30
0.0
 11
24.9035240726177
 21
52.86038003999642
 31
0.0
  0
LINE
  5
4B3
330
1F
100
AcDbEntity
  8
0
  6
SLD-Solid
 62
     7
370
    25
100
AcDbLine
 10
12.1705240726177
 20
52.89028003999642
 30
0.0
 11
11.9115240726177
 21
52.89028003999642
 31
0.0
  0
LINE
  5
4B4
330
1F
100
AcDbEntity
  8
0
  6
SLD-Solid
 62
     7
370
    25
100
AcDbLine
 10
12.1705240726177
 20
52.86038003999642
 30
0.0
 11
11.91152407261771
 21
52.86038003999642
 31
0.0
  0
SPLINE
  5
4B5
330
1F
100
AcDbEntity
  8
0
  6
SLD-Solid
 62
     7
370
    25
100
AcDbSpline
210
0.0
220
0.0
230
1.0
 70
    12
 71
     3
 72
    11
 73
     7
 74
     0
 42
0.00000001
 43
0.00000001
 40
0.0
 40
0.0
 40
0.0
 40
0.0
 40
0.2499999999999679
 40
0.4999999999999796
 40
0.7499999999999896
 40
1.0
 40
1.0
 40
1.0
 40
1.0
 10
24.93252407716486
 20
52.83138003999645
 30
0.0
 41
1.0
 10
24.93208816148568
 20
52.83518011486267
 30
0.0
 41
1.0
 10
24.93121633012732
 20
52.84278026459513
 30
0.0
 41
1.0
 10
24.92451010189525
 20
52.85236606927399
 30
0.0
 41
1.0
 10
24.91492429721639
 20
52.85907229750607
 30
0.0
 41
1.0
 10
24.90732414748393
 20
52.85994412886444
 30
0.0
 41
1.0
 10
24.9035240726177
 20
52.86038004454362
 30
0.0
 41
1.0
  0
SPLINE
  5
4B6
330
1F
100
AcDbEntity
  8
0
  6
SLD-Solid
 62
     7
370
    25
100
AcDbSpline
210
0.0
220
0.0
230
1.0
 70
    12
 71
     3
 72
    11
 73
     7
 74
     0
 42
0.00000001
 43
0.00000001
 40
0.0
 40
0.0
 40
0.0
 40
0.0
 40
0.2499999999999865
 40
0.4999999999999943
 40
0.7499999999999953
 40
1.0
 40
1.0
 40
1.0
 40
1.0
 10
24.96242407716486
 20
52.83138003999642
 30
0.0
 41
1.0
 10
24.96153871745934
 20
52.83909812247246
 30
0.0
 41
1.0
 10
24.9597679980483
 20
52.85453428742453
 30
0.0
 41
1.0
 10
24.94614741834387
 20
52.8740033857226
 30
0.0
 41
1.0
 10
24.92667832004582
 20
52.88762396542705
 30
0.0
 41
1.0
 10
24.91124215509375
 20
52.8893946848381
 30
0.0
 41
1.0
 10
24.9035240726177
 20
52.89028004454362
 30
0.0
 41
1.0
  0
SPLINE
  5
4B7
330
1F
100
AcDbEntity
  8
0
  6
SLD-Solid
 62
     7
370
    25
100
AcDbSpline
210
0.0
220
0.0
230
1.0
 70
    12
 71
     3
 72
    11
 73
     7
 74
     0
 42
0.00000001
 43
0.00000001
 40
0.0
 40
0.0
 40
0.0
 40
0.0
 40
0.2499999999999865
 40
0.4999999999999943
 40
0.7499999999999953
 40
1.0
 40
1.0
 40
1.0
 40
1.0
 10
11.85262406807055
 20
52.83138003999642
 30
0.0
 41
1.0
 10
11.85350942777607
 20
52.83909812247246
 30
0.0
 41
1.0
 10
11.85528014718711
 20
52.85453428742453
 30
0.0
 41
1.0
 10
11.86890072689154
 20
52.8740033857226
 30
0.0
 41
1.0
 10
11.88836982518959
 20
52.88762396542705
 30
0.0
 41
1.0
 10
11.90380599014167
 20
52.8893946848381
 30
0.0
 41
1.0
 10
11.91152407261771
 20
52.89028004454362
 30
0.0
 41
1.0
  0
SPLINE
  5
4B8
330
1F
100
AcDbEntity
  8
0
  6
SLD-Solid
 62
     7
370
    25
100
AcDbSpline
210
0.0
220
0.0
230
1.0
 70
    12
 71
     3
 72
    11
 73
     7
 74
     0
 42
0.00000001
 43
0.00000001
 40
0.0
 40
0.0
 40
0.0
 40
0.0
 40
0.2499999999999679
 40
0.4999999999999796
 40
0.7499999999999896
 40
1.0
 40
1.0
 40
1.0
 40
1.0
 10
11.88252406807055
 20
52.83138003999645
 30
0.0
 41
1.0
 10
11.88295998374973
 20
52.83518011486267
 30
0.0
 41
1.0
 10
11.88383181510809
 20
52.84278026459513
 30
0.0
 41
1.0
 10
11.89053804334017
 20
52.85236606927399
 30
0.0
 41
1.0
 10
11.90012384801902
 20
52.85907229750607
 30
0.0
 41
1.0
 10
11.90772399775148
 20
52.85994412886444
 30
0.0
 41
1.0
 10
11.91152407261771
 20
52.86038004454362
 30
0.0
 41
1.0
  0
LINE
  5
4B9
330
1F
100
AcDbEntity
  8
0
  6
SLD-Solid
 62
     7
370
    25
100
AcDbLine
 10
11.8825240726177
 20
52.83138003999642
 30
0.0
 11
11.88252407261771
 21
52.6729838210432
 31
0.0
  0
LINE
  5
4BA
330
1F
100
AcDbEntity
  8
0
  6
SLD-Solid
 62
     7
370
    25
100
AcDbLine
 10
11.8526240726177
 20
52.83138003999642
 30
0.0
 11
11.8526240726177
 21
52.68615458614473
 31
0.0
  0
LINE
  5
4BB
330
1F
100
AcDbEntity
  8
0
  6
SLD-Solid
 62
     7
370
    25
100
AcDbLine
 10
24.9325240726177
 20
52.83138003999642
 30
0.0
 11
24.9325240726177
 21
52.67298382104316
 31
0.0
  0
LINE
  5
4BC
330
1F
100
AcDbEntity
  8
0
  6
SLD-Solid
 62
     7
370
    25
100
AcDbLine
 10
24.9624240726177
 20
52.83138003999642
 30
0.0
 11
24.9624240726177
 21
52.68615458614467
 31
0.0
  0
LWPOLYLINE
  5
4BD
330
1F
100
AcDbEntity
  8
0
  6
SLD-Solid
 62
     8
370
    25
100
AcDbPolyline
 90
       20
 70
   128
 43
0.0
 10
17.95848993746838
 20
51.13804734097601
 10
17.96116992408141
 20
51.16096945020728
 10
17.97725006197179
 20
51.2226976985955
 10
18.00570843048293
 20
51.28128975148675
 10
18.04572633416676
 20
51.33506002219763
 10
18.09615253079474
 20
51.38246163793909
 10
18.15553635050061
 20
51.42213094053013
 10
18.22216942891128
 20
51.45292671636093
 10
18.29413485367943
 20
51.47396302703058
 10
18.36936231056158
 20
51.48463469618182
 10
18.44568764258954
 20
51.48463471932302
 10
18.52091510892603
 20
51.47396309578846
 10
18.59288055233085
 20
51.45292682875745
 10
18.65951365802441
 20
51.42213109333183
 10
18.71889751287449
 20
51.38246182675015
 10
18.76932375149696
 20
51.33506024158631
 10
18.80934170281748
 20
51.28128999514163
 10
18.83780012323706
 20
51.22269795950707
 10
18.85388031581434
 20
51.1609697208696
 10
18.85751269360606
 20
51.11091252930539
  0
DIMENSION
  5
4BE
330
1F
100
AcDbEntity
  8
DIMS
100
AcDbDimension
  2
_D_9
 10
25.07365222953667
 20
44.86038303508657
 30
0.0
 11
18.21775504063924
 21
44.86038303508655
 31
0.0
 70
    32
  1
<>
 71
     2
 42
-1.0
  3
SLDDIMSTYLE1
100
AcDbAlignedDimension
 13
11.7713959156989
 23
47.30798162169268
 33
0.0
 14
25.07365222953666
 24
47.3079816216927
 34
0.0
 50
0.0000000000001836
100
AcDbRotatedDimension
  0
MTEXT
  5
4CD
330
1F
100
AcDbEntity
  8
NOTES
100
AcDbMText
 10
12.11144749605834
 20
46.57060772605094
 30
0.0
 40
0.7500000000000001
 41
0.0
 71
     1
 72
     1
  1
Top view
  7
SLDTEXTSTYLE1
 73
     1
 44
1.0
  0
MTEXT
  5
4D1
330
1F
100
AcDbEntity
  8
NOTES
100
AcDbMText
 10
70.64113155701669
 20
4.986500874567161
 30
0.0
 40
0.2916666666666666
 41
0.0
 71
     1
 72
     1
  1
FROST PRODUCTS LTD.
  7
SLDTEXTSTYLE0
 73
     1
 44
1.0
  0
MTEXT
  5
4D2
330
1F
100
AcDbEntity
  8
NOTES
100
AcDbMText
 10
70.64113155701669
 20
4.561008512941702
 30
0.0
 40
0.2291666666666666
 41
0.0
 71
     1
 72
     1
  1
5280 JOHN LUCAS DRIVE, BURLINGTON, ON, L7L 5Z9
  7
SLDTEXTSTYLE0
 73
     1
 44
1.0
  0
ENDSEC
  0
SECTION
  2
OBJECTS
  0
DICTIONARY
  5
C
330
0
100
AcDbDictionary
281
     1
  3
ACAD_COLOR
350
6C
  3
ACAD_GROUP
350
D
  3
ACAD_LAYOUT
350
1A
  3
ACAD_MATERIAL
350
6B
  3
ACAD_MLINESTYLE
350
17
  3
ACAD_PLOTSETTINGS
350
19
  3
ACAD_PLOTSTYLENAME
350
E
  3
ACAD_SCALELIST
350
47
  3
ACAD_TABLESTYLE
350
92
  3
AcDbVariableDictionary
350
59
  0
DICTIONARY
  5
6C
102
{ACAD_REACTORS
330
C
102
}
330
C
100
AcDbDictionary
281
     1
  0
DICTIONARY
  5
D
102
{ACAD_REACTORS
330
C
102
}
330
C
100
AcDbDictionary
281
     1
  0
DICTIONARY
  5
1A
102
{ACAD_REACTORS
330
C
102
}
330
C
100
AcDbDictionary
281
     1
  3
Layout1
350
74
  3
Layout2
350
26
  3
Model
350
22
  0
DICTIONARY
  5
6B
102
{ACAD_REACTORS
330
C
102
}
330
C
100
AcDbDictionary
281
     1
  0
DICTIONARY
  5
17
102
{ACAD_REACTORS
330
C
102
}
330
C
100
AcDbDictionary
281
     1
  3
Standard
350
18
  0
DICTIONARY
  5
19
102
{ACAD_REACTORS
330
C
102
}
330
C
100
AcDbDictionary
281
     1
  0
ACDBDICTIONARYWDFLT
  5
E
102
{ACAD_REACTORS
330
C
102
}
330
C
100
AcDbDictionary
281
     1
  3
Normal
350
F
100
AcDbDictionaryWithDefault
340
F
  0
DICTIONARY
  5
47
102
{ACAD_REACTORS
330
C
102
}
330
C
100
AcDbDictionary
281
     1
  3
A0
350
48
  3
A1
350
49
  3
A2
350
4A
  3
A3
350
4B
  3
A4
350
4C
  3
A5
350
4D
  3
A6
350
4E
  3
A7
350
4F
  3
A8
350
50
  3
A9
350
51
  3
B0
350
52
  3
B1
350
53
  3
B2
350
54
  3
B3
350
55
  3
B4
350
56
  3
B5
350
57
  3
B6
350
58
  3
B7
350
4E3
  3
B8
350
4E4
  3
B9
350
5B
  3
C0
350
5C
  3
C1
350
5D
  3
C2
350
4E5
  3
C3
350
5F
  3
C4
350
60
  3
C5
350
61
  3
C6
350
62
  3
C7
350
63
  3
C8
350
64
  3
C9
350
65
  3
D0
350
66
  3
D1
350
67
  3
D2
350
68
  0
DICTIONARY
  5
92
102
{ACAD_REACTORS
330
C
102
}
330
C
100
AcDbDictionary
281
     1
  3
Standard
350
93
  0
DICTIONARY
  5
59
102
{ACAD_REACTORS
330
C
102
}
330
C
100
AcDbDictionary
281
     1
  3
CTABLESTYLE
350
98
  3
HIDETEXT
350
4D0
  0
LAYOUT
  5
74
102
{ACAD_REACTORS
330
1A
102
}
330
1A
100
AcDbPlotSettings
  1

  2
none_device
  4

  6

 40
0.0
 41
0.0
 42
0.0
 43
0.0
 44
0.0
 45
0.0
 46
0.0
 47
0.0
 48
0.0
 49
0.0
140
0.0
141
0.0
142
1.0
143
1.0
 70
   688
 72
     0
 73
     0
 74
     5
  7

 75
    16
 76
     0
 77
     2
 78
   300
147
1.0
148
0.0
149
0.0
100
AcDbLayout
  1
Layout1
 70
     1
 71
     1
 10
0.0
 20
0.0
 11
12.0
 21
9.0
 12
0.0
 22
0.0
 32
0.0
 14
1.000000000000000E+20
 24
1.000000000000000E+20
 34
1.000000000000000E+20
 15
-1.000000000000000E+20
 25
-1.000000000000000E+20
 35
-1.000000000000000E+20
146
0.0
 13
0.0
 23
0.0
 33
0.0
 16
1.0
 26
0.0
 36
0.0
 17
0.0
 27
1.0
 37
0.0
 76
     0
330
73
  0
LAYOUT
  5
26
102
{ACAD_REACTORS
330
1A
102
}
330
1A
100
AcDbPlotSettings
  1

  2
none_device
  4

  6

 40
0.0
 41
0.0
 42
0.0
 43
0.0
 44
0.0
 45
0.0
 46
0.0
 47
0.0
 48
0.0
 49
0.0
140
0.0
141
0.0
142
1.0
143
1.0
 70
   688
 72
     0
 73
     0
 74
     5
  7

 75
    16
 76
     0
 77
     2
 78
   300
147
1.0
148
0.0
149
0.0
100
AcDbLayout
  1
Layout2
 70
     1
 71
     2
 10
0.0
 20
0.0
 11
0.0
 21
0.0
 12
0.0
 22
0.0
 32
0.0
 14
0.0
 24
0.0
 34
0.0
 15
0.0
 25
0.0
 35
0.0
146
0.0
 13
0.0
 23
0.0
 33
0.0
 16
1.0
 26
0.0
 36
0.0
 17
0.0
 27
1.0
 37
0.0
 76
     0
330
23
  0
LAYOUT
  5
22
102
{ACAD_REACTORS
330
1A
102
}
330
1A
100
AcDbPlotSettings
  1

  2
none_device
  4
Letter_(8.50_x_11.00_Inches)
  6

 40
6.35
 41
6.35
 42
6.35000508
 43
6.35000508
 44
215.9
 45
279.4
 46
0.0
 47
0.0
 48
0.0
 49
0.0
140
0.0
141
0.0
142
1.0
143
1.0
 70
 11952
 72
     0
 73
     0
 74
     0
  7

 75
     0
 76
     0
 77
     2
 78
   300
147
1.0
148
0.0
149
0.0
100
AcDbLayout
  1
Model
 70
     1
 71
     0
 10
0.0
 20
0.0
 11
80.375
 21
100.0
 12
0.0
 22
0.0
 32
0.0
 14
0.1653543307086614
 24
0.1653543307086614
 34
-6.310139009019255
 15
80.20964566929135
 25
99.83464566929135
 35
2.788774964845078
146
0.0
 13
0.0
 23
0.0
 33
0.0
 16
1.0
 26
0.0
 36
0.0
 17
0.0
 27
1.0
 37
0.0
 76
     0
330
1F
  0
MLINESTYLE
  5
18
102
{ACAD_REACTORS
330
17
102
}
330
17
100
AcDbMlineStyle
  2
Standard
 70
     0
  3

 62
   256
 51
90.0
 52
90.0
 71
     2
 49
0.5
 62
   256
  6
BYLAYER
 49
-0.5
 62
   256
  6
BYLAYER
  0
ACDBPLACEHOLDER
  5
F
102
{ACAD_REACTORS
330
E
102
}
330
E
  0
ACAD_PROXY_OBJECT
  5
48
102
{ACAD_REACTORS
330
47
102
}
330
47
100
AcDbProxyObject
 90
      499
 91
      505
 95
   393239
 70
     0
 93
       41
310
903313A31580
  0
ACAD_PROXY_OBJECT
  5
49
102
{ACAD_REACTORS
330
47
102
}
330
47
100
AcDbProxyObject
 90
      499
 91
      505
 95
   393239
 70
     0
 93
      105
310
903313A324000000000000004000
  0
ACAD_PROXY_OBJECT
  5
4A
102
{ACAD_REACTORS
330
47
102
}
330
47
100
AcDbProxyObject
 90
      499
 91
      505
 95
   393239
 70
     0
 93
      105
310
903313A344000000000000104000
  0
ACAD_PROXY_OBJECT
  5
4B
102
{ACAD_REACTORS
330
47
102
}
330
47
100
AcDbProxyObject
 90
      499
 91
      505
 95
   393239
 70
     0
 93
      105
310
903313A354000000000000144000
  0
ACAD_PROXY_OBJECT
  5
4C
102
{ACAD_REACTORS
330
47
102
}
330
47
100
AcDbProxyObject
 90
      499
 91
      505
 95
   393239
 70
     0
 93
      105
310
903313A384000000000000204000
  0
ACAD_PROXY_OBJECT
  5
4D
102
{ACAD_REACTORS
330
47
102
}
330
47
100
AcDbProxyObject
 90
      499
 91
      505
 95
   393239
 70
     0
 93
      113
310
904313A31304000000000000244000
  0
ACAD_PROXY_OBJECT
  5
4E
102
{ACAD_REACTORS
330
47
102
}
330
47
100
AcDbProxyObject
 90
      499
 91
      505
 95
   393239
 70
     0
 93
      113
310
904313A31364000000000000304000
  0
ACAD_PROXY_OBJECT
  5
4F
102
{ACAD_REACTORS
330
47
102
}
330
47
100
AcDbProxyObject
 90
      499
 91
      505
 95
   393239
 70
     0
 93
      113
310
904313A32304000000000000344000
  0
ACAD_PROXY_OBJECT
  5
50
102
{ACAD_REACTORS
330
47
102
}
330
47
100
AcDbProxyObject
 90
      499
 91
      505
 95
   393239
 70
     0
 93
      113
310
904313A333040000000000003E4000
  0
ACAD_PROXY_OBJECT
  5
51
102
{ACAD_REACTORS
330
47
102
}
330
47
100
AcDbProxyObject
 90
      499
 91
      505
 95
   393239
 70
     0
 93
      113
310
904313A34304000000000000444000
  0
ACAD_PROXY_OBJECT
  5
52
102
{ACAD_REACTORS
330
47
102
}
330
47
100
AcDbProxyObject
 90
      499
 91
      505
 95
   393239
 70
     0
 93
      113
310
904313A35304000000000000494000
  0
ACAD_PROXY_OBJECT
  5
53
102
{ACAD_REACTORS
330
47
102
}
330
47
100
AcDbProxyObject
 90
      499
 91
      505
 95
   393239
 70
     0
 93
      121
310
905313A3130304000000000000594000
  0
ACAD_PROXY_OBJECT
  5
54
102
{ACAD_REACTORS
330
47
102
}
330
47
100
AcDbProxyObject
 90
      499
 91
      505
 95
   393239
 70
     0
 93
      105
310
903323A310000000000000010100
  0
ACAD_PROXY_OBJECT
  5
55
102
{ACAD_REACTORS
330
47
102
}
330
47
100
AcDbProxyObject
 90
      499
 91
      505
 95
   393239
 70
     0
 93
      105
310
903343A310000000000000410100
  0
ACAD_PROXY_OBJECT
  5
56
102
{ACAD_REACTORS
330
47
102
}
330
47
100
AcDbProxyObject
 90
      499
 91
      505
 95
   393239
 70
     0
 93
      105
310
903383A310000000000000810100
  0
ACAD_PROXY_OBJECT
  5
57
102
{ACAD_REACTORS
330
47
102
}
330
47
100
AcDbProxyObject
 90
      499
 91
      505
 95
   393239
 70
     0
 93
      113
310
90431303A310000000000000910100
  0
ACAD_PROXY_OBJECT
  5
58
102
{ACAD_REACTORS
330
47
102
}
330
47
100
AcDbProxyObject
 90
      499
 91
      505
 95
   393239
 70
     0
 93
      121
310
9053130303A310000000000001650100
  0
ACAD_PROXY_OBJECT
  5
4E3
102
{ACAD_REACTORS
330
47
102
}
330
47
100
AcDbProxyObject
 90
      499
 91
      505
 95
   393239
 70
     0
 93
      257
310
90E312F31323822203D2031272D3022000000000000200FC000000000000284000
  0
ACAD_PROXY_OBJECT
  5
4E4
102
{ACAD_REACTORS
330
47
102
}
330
47
100
AcDbProxyObject
 90
      499
 91
      505
 95
   393239
 70
     0
 93
      249
310
90D312F363422203D2031272D3022000000000000240FC000000000000284000
  0
ACAD_PROXY_OBJECT
  5
5B
102
{ACAD_REACTORS
330
47
102
}
330
47
100
AcDbProxyObject
 90
      499
 91
      505
 95
   393239
 70
     0
 93
      249
310
90D312F333222203D2031272D3022000000000000280FC000000000000284000
  0
ACAD_PROXY_OBJECT
  5
5C
102
{ACAD_REACTORS
330
47
102
}
330
47
100
AcDbProxyObject
 90
      499
 91
      505
 95
   393239
 70
     0
 93
      249
310
90D312F313622203D2031272D30220000000000002C0FC000000000000284000
  0
ACAD_PROXY_OBJECT
  5
5D
102
{ACAD_REACTORS
330
47
102
}
330
47
100
AcDbProxyObject
 90
      499
 91
      505
 95
   393239
 70
     0
 93
      249
310
90D332F333222203D2031272D30220000000000002E0FC000000000000284000
  0
ACAD_PROXY_OBJECT
  5
4E5
102
{ACAD_REACTORS
330
47
102
}
330
47
100
AcDbProxyObject
 90
      499
 91
      505
 95
   393239
 70
     0
 93
      241
310
90C312F3822203D2031272D3022000000000000300FC000000000000284000
  0
ACAD_PROXY_OBJECT
  5
5F
102
{ACAD_REACTORS
330
47
102
}
330
47
100
AcDbProxyObject
 90
      499
 91
      505
 95
   393239
 70
     0
 93
      249
310
90D332F313622203D2031272D3022000000000000320FC000000000000284000
  0
ACAD_PROXY_OBJECT
  5
60
102
{ACAD_REACTORS
330
47
102
}
330
47
100
AcDbProxyObject
 90
      499
 91
      505
 95
   393239
 70
     0
 93
      241
310
90C312F3422203D2031272D3022000000000000340FC000000000000284000
  0
ACAD_PROXY_OBJECT
  5
61
102
{ACAD_REACTORS
330
47
102
}
330
47
100
AcDbProxyObject
 90
      499
 91
      505
 95
   393239
 70
     0
 93
      241
310
90C332F3822203D2031272D3022000000000000360FC000000000000284000
  0
ACAD_PROXY_OBJECT
  5
62
102
{ACAD_REACTORS
330
47
102
}
330
47
100
AcDbProxyObject
 90
      499
 91
      505
 95
   393239
 70
     0
 93
      241
310
90C312F3222203D2031272D3022000000000000380FC000000000000284000
  0
ACAD_PROXY_OBJECT
  5
63
102
{ACAD_REACTORS
330
47
102
}
330
47
100
AcDbProxyObject
 90
      499
 91
      505
 95
   393239
 70
     0
 93
      241
310
90C332F3422203D2031272D30220000000000003A0FC000000000000284000
  0
ACAD_PROXY_OBJECT
  5
64
102
{ACAD_REACTORS
330
47
102
}
330
47
100
AcDbProxyObject
 90
      499
 91
      505
 95
   393239
 70
     0
 93
      161
310
90A3122203D2031272D30224000000000000284000
  0
ACAD_PROXY_OBJECT
  5
65
102
{ACAD_REACTORS
330
47
102
}
330
47
100
AcDbProxyObject
 90
      499
 91
      505
 95
   393239
 70
     0
 93
      257
310
90E312D312F3222203D2031272D30220000000000003E0FC000000000000284000
  0
ACAD_PROXY_OBJECT
  5
66
102
{ACAD_REACTORS
330
47
102
}
330
47
100
AcDbProxyObject
 90
      499
 91
      505
 95
   393239
 70
     0
 93
      225
310
90A3322203D2031272D302200000000000002100000000000000284000
  0
ACAD_PROXY_OBJECT
  5
67
102
{ACAD_REACTORS
330
47
102
}
330
47
100
AcDbProxyObject
 90
      499
 91
      505
 95
   393239
 70
     0
 93
      225
310
90A3622203D2031272D302200000000000006100000000000000284000
  0
ACAD_PROXY_OBJECT
  5
68
102
{ACAD_REACTORS
330
47
102
}
330
47
100
AcDbProxyObject
 90
      499
 91
      505
 95
   393239
 70
     0
 93
      249
310
90D31272D3022203D2031272D30220000000000000A100000000000000284000
  0
TABLESTYLE
  5
93
102
{ACAD_REACTORS
330
92
102
}
330
92
100
AcDbTableStyle
  3
Standard
 70
     0
 71
     0
 40
0.06
 41
0.06
280
     0
281
     0
  7
Standard
140
0.18
170
     2
 62
     0
 63
     7
283
     0
274
    -2
284
     1
 64
     0
275
    -2
285
     1
 65
     0
276
    -2
286
     1
 66
     0
277
    -2
287
     1
 67
     0
278
    -2
288
     1
 68
     0
279
    -2
289
     1
 69
     0
  7
Standard
140
0.25
170
     5
 62
     0
 63
     7
283
     0
274
    -2
284
     1
 64
     0
275
    -2
285
     1
 65
     0
276
    -2
286
     1
 66
     0
277
    -2
287
     1
 67
     0
278
    -2
288
     1
 68
     0
279
    -2
289
     1
 69
     0
  7
Standard
140
0.18
170
     5
 62
     0
 63
     7
283
     0
274
    -2
284
     1
 64
     0
275
    -2
285
     1
 65
     0
276
    -2
286
     1
 66
     0
277
    -2
287
     1
 67
     0
278
    -2
288
     1
 68
     0
279
    -2
289
     1
 69
     0
  0
DICTIONARYVAR
  5
98
102
{ACAD_REACTORS
330
59
102
}
330
59
100
DictionaryVariables
280
     0
  1
STANDARD
  0
DICTIONARYVAR
  5
4D0
102
{ACAD_REACTORS
330
59
102
}
330
59
100
DictionaryVariables
280
     0
  1
2
  0
ENDSEC
  0
EOF
