  0
SECTION
  2
HEADER
  9
$ACADVER
  1
AC1015
  9
$ACADMAINTVER
 70
     6
  9
$DWGCODEPAGE
  3
ANSI_1252
  9
$INSBASE
 10
0.0
 20
0.0
 30
0.0
  9
$EXTMIN
 10
0.0
 20
0.0
 30
0.0
  9
$EXTMAX
 10
70.0
 20
50.0
 30
0.0
  9
$LIMMIN
 10
0.0
 20
0.0
  9
$LIMMAX
 10
70.0
 20
50.0
  9
$ORTHOMODE
 70
     0
  9
$REGENMODE
 70
     1
  9
$FILLMODE
 70
     1
  9
$QTEXTMODE
 70
     0
  9
$MIRRTEXT
 70
     1
  9
$LTSCALE
 40
1.0
  9
$ATTMODE
 70
     1
  9
$TEXTSIZE
 40
0.5
  9
$TRACEWID
 40
0.05
  9
$TEXTSTYLE
  7
STANDARD
  9
$CLAYER
  8
0
  9
$CELTYPE
  6
ByLayer
  9
$CECOLOR
 62
   256
  9
$CELTSCALE
 40
1.0
  9
$DISPSILH
 70
     0
  9
$DIMSCALE
 40
1.0
  9
$DIMASZ
 40
0.3
  9
$DIMEXO
 40
0.1666666667
  9
$DIMDLI
 40
0.38
  9
$DIMRND
 40
0.0
  9
$DIMDLE
 40
0.0
  9
$DIMEXE
 40
0.375
  9
$DIMTP
 40
0.0
  9
$DIMTM
 40
0.0
  9
$DIMTXT
 40
0.5
  9
$DIMCEN
 40
0.09
  9
$DIMTSZ
 40
0.0
  9
$DIMTOL
 70
     0
  9
$DIMLIM
 70
     0
  9
$DIMTIH
 70
     1
  9
$DIMTOH
 70
     1
  9
$DIMSE1
 70
     0
  9
$DIMSE2
 70
     0
  9
$DIMTAD
 70
     0
  9
$DIMZIN
 70
     1
  9
$DIMBLK
  1

  9
$DIMASO
 70
     1
  9
$DIMSHO
 70
     1
  9
$DIMPOST
  1

  9
$DIMAPOST
  1

  9
$DIMALT
 70
     0
  9
$DIMALTD
 70
     2
  9
$DIMALTF
 40
25.4
  9
$DIMLFAC
 40
1.0
  9
$DIMTOFL
 70
     0
  9
$DIMTVP
 40
0.0
  9
$DIMTIX
 70
     0
  9
$DIMSOXD
 70
     0
  9
$DIMSAH
 70
     0
  9
$DIMBLK1
  1

  9
$DIMBLK2
  1

  9
$DIMSTYLE
  2
Standard
  9
$DIMCLRD
 70
     0
  9
$DIMCLRE
 70
     0
  9
$DIMCLRT
 70
     0
  9
$DIMTFAC
 40
1.0
  9
$DIMGAP
 40
0.125
  9
$DIMJUST
 70
     0
  9
$DIMSD1
 70
     0
  9
$DIMSD2
 70
     0
  9
$DIMTOLJ
 70
     1
  9
$DIMTZIN
 70
     1
  9
$DIMALTZ
 70
     0
  9
$DIMALTTZ
 70
     0
  9
$DIMUPT
 70
     0
  9
$DIMDEC
 70
     2
  9
$DIMTDEC
 70
     2
  9
$DIMALTU
 70
     2
  9
$DIMALTTD
 70
     2
  9
$DIMTXSTY
  7
STANDARD
  9
$DIMAUNIT
 70
     0
  9
$DIMADEC
 70
     2
  9
$DIMALTRND
 40
0.0
  9
$DIMAZIN
 70
     0
  9
$DIMDSEP
 70
    46
  9
$DIMATFIT
 70
     3
  9
$DIMFRAC
 70
     0
  9
$DIMLDRBLK
  1

  9
$DIMLUNIT
 70
     2
  9
$DIMLWD
 70
    -2
  9
$DIMLWE
 70
    -2
  9
$DIMTMOVE
 70
     0
  9
$LUNITS
 70
     2
  9
$LUPREC
 70
     4
  9
$SKETCHINC
 40
0.1
  9
$FILLETRAD
 40
0.5
  9
$AUNITS
 70
     0
  9
$AUPREC
 70
     2
  9
$MENU
  1
.
  9
$ELEVATION
 40
0.0
  9
$PELEVATION
 40
0.0
  9
$THICKNESS
 40
0.0
  9
$LIMCHECK
 70
     0
  9
$CHAMFERA
 40
0.0
  9
$CHAMFERB
 40
0.0
  9
$CHAMFERC
 40
0.0
  9
$CHAMFERD
 40
0.0
  9
$SKPOLY
 70
     0
  9
$TDCREATE
 40
2459444.381402847
  9
$TDUCREATE
 40
2459444.548069514
  9
$TDUPDATE
 40
2459444.38140809
  9
$TDUUPDATE
 40
2459444.548074757
  9
$TDINDWG
 40
0.0000000116
  9
$TDUSRTIMER
 40
0.0000000116
  9
$USRTIMER
 70
     1
  9
$ANGBASE
 50
0.0
  9
$ANGDIR
 70
     0
  9
$PDMODE
 70
     0
  9
$PDSIZE
 40
-1.0
  9
$PLINEWID
 40
0.0
  9
$SPLFRAME
 70
     0
  9
$SPLINETYPE
 70
     6
  9
$SPLINESEGS
 70
     8
  9
$HANDSEED
  5
504
  9
$SURFTAB1
 70
     6
  9
$SURFTAB2
 70
     6
  9
$SURFTYPE
 70
     6
  9
$SURFU
 70
     6
  9
$SURFV
 70
     6
  9
$UCSBASE
  2

  9
$UCSNAME
  2

  9
$UCSORG
 10
0.0
 20
0.0
 30
0.0
  9
$UCSXDIR
 10
1.0
 20
0.0
 30
0.0
  9
$UCSYDIR
 10
0.0
 20
1.0
 30
0.0
  9
$UCSORTHOREF
  2

  9
$UCSORTHOVIEW
 70
     0
  9
$UCSORGTOP
 10
0.0
 20
0.0
 30
0.0
  9
$UCSORGBOTTOM
 10
0.0
 20
0.0
 30
0.0
  9
$UCSORGLEFT
 10
0.0
 20
0.0
 30
0.0
  9
$UCSORGRIGHT
 10
0.0
 20
0.0
 30
0.0
  9
$UCSORGFRONT
 10
0.0
 20
0.0
 30
0.0
  9
$UCSORGBACK
 10
0.0
 20
0.0
 30
0.0
  9
$PUCSBASE
  2

  9
$PUCSNAME
  2

  9
$PUCSORG
 10
0.0
 20
0.0
 30
0.0
  9
$PUCSXDIR
 10
1.0
 20
0.0
 30
0.0
  9
$PUCSYDIR
 10
0.0
 20
1.0
 30
0.0
  9
$PUCSORTHOREF
  2

  9
$PUCSORTHOVIEW
 70
     0
  9
$PUCSORGTOP
 10
0.0
 20
0.0
 30
0.0
  9
$PUCSORGBOTTOM
 10
0.0
 20
0.0
 30
0.0
  9
$PUCSORGLEFT
 10
0.0
 20
0.0
 30
0.0
  9
$PUCSORGRIGHT
 10
0.0
 20
0.0
 30
0.0
  9
$PUCSORGFRONT
 10
0.0
 20
0.0
 30
0.0
  9
$PUCSORGBACK
 10
0.0
 20
0.0
 30
0.0
  9
$USERI1
 70
     0
  9
$USERI2
 70
     0
  9
$USERI3
 70
     0
  9
$USERI4
 70
     0
  9
$USERI5
 70
     0
  9
$USERR1
 40
0.0
  9
$USERR2
 40
0.0
  9
$USERR3
 40
0.0
  9
$USERR4
 40
0.0
  9
$USERR5
 40
0.0
  9
$WORLDVIEW
 70
     1
  9
$SHADEDGE
 70
     3
  9
$SHADEDIF
 70
    70
  9
$TILEMODE
 70
     1
  9
$MAXACTVP
 70
    64
  9
$PINSBASE
 10
0.0
 20
0.0
 30
0.0
  9
$PLIMCHECK
 70
     0
  9
$PEXTMIN
 10
1.0000000000E+20
 20
1.0000000000E+20
 30
1.0000000000E+20
  9
$PEXTMAX
 10
-1.0000000000E+20
 20
-1.0000000000E+20
 30
-1.0000000000E+20
  9
$PLIMMIN
 10
0.0
 20
0.0
  9
$PLIMMAX
 10
12.0
 20
9.0
  9
$UNITMODE
 70
     0
  9
$VISRETAIN
 70
     1
  9
$PLINEGEN
 70
     0
  9
$PSLTSCALE
 70
     1
  9
$TREEDEPTH
 70
  3020
  9
$CMLSTYLE
  2
Standard
  9
$CMLJUST
 70
     0
  9
$CMLSCALE
 40
1.0
  9
$PROXYGRAPHICS
 70
     1
  9
$MEASUREMENT
 70
     0
  9
$CELWEIGHT
370
    -1
  9
$ENDCAPS
280
     0
  9
$JOINSTYLE
280
     0
  9
$LWDISPLAY
290
     1
  9
$INSUNITS
 70
     1
  9
$HYPERLINKBASE
  1

  9
$STYLESHEET
  1

  9
$XEDIT
290
     1
  9
$CEPSNTYPE
380
     0
  9
$PSTYLEMODE
290
     1
  9
$FINGERPRINTGUID
  2
{e50dbd8e-e69e-4efc-b62a-d7852b2a7e16}
  9
$VERSIONGUID
  2
{FAEB1C32-E019-11D5-929B-00C0DF256EC4}
  9
$EXTNAMES
290
     1
  9
$PSVPSCALE
 40
0.0
  9
$OLESTARTUP
290
     0
  0
ENDSEC
  0
SECTION
  2
CLASSES
  0
CLASS
  1
ACDBDICTIONARYWDFLT
  2
AcDbDictionaryWithDefault
  3
ObjectDBX Classes
 90
        0
280
     0
281
     0
  0
CLASS
  1
VISUALSTYLE
  2
AcDbVisualStyle
  3
ObjectDBX Classes
 90
     4095
280
     0
281
     0
  0
CLASS
  1
MATERIAL
  2
AcDbMaterial
  3
ObjectDBX Classes
 90
     1153
280
     0
281
     0
  0
CLASS
  1
SCALE
  2
AcDbScale
  3
ObjectDBX Classes
 90
     1153
280
     0
281
     0
  0
CLASS
  1
TABLESTYLE
  2
AcDbTableStyle
  3
ObjectDBX Classes
 90
     4095
280
     0
281
     0
  0
CLASS
  1
MLEADERSTYLE
  2
AcDbMLeaderStyle
  3
ACDB_MLEADERSTYLE_CLASS
 90
     4095
280
     0
281
     0
  0
CLASS
  1
SUN
  2
AcDbSun
  3
SCENEOE
 90
     1153
280
     0
281
     0
  0
CLASS
  1
ACDBPLACEHOLDER
  2
AcDbPlaceHolder
  3
ObjectDBX Classes
 90
        0
280
     0
281
     0
  0
CLASS
  1
LAYOUT
  2
AcDbLayout
  3
ObjectDBX Classes
 90
        0
280
     0
281
     0
  0
ENDSEC
  0
SECTION
  2
TABLES
  0
TABLE
  2
VPORT
  5
8
330
0
100
AcDbSymbolTable
 70
     1
  0
VPORT
  5
29
330
8
100
AcDbSymbolTableRecord
100
AcDbViewportTableRecord
  2
*Active
 70
     0
 10
0.0
 20
0.0
 11
1.0
 21
1.0
 12
35.0
 22
25.0
 13
0.0
 23
0.0
 14
0.5
 24
0.5
 15
0.5
 25
0.5
 16
0.0
 26
0.0
 36
1.0
 17
0.0
 27
0.0
 37
0.0
 40
50.0
 41
1.4
 42
50.0
 43
0.0
 44
0.0
 50
0.0
 51
0.0
 71
     0
 72
  2000
 73
     1
 74
     3
 75
     0
 76
     0
 77
     0
 78
     0
281
     0
 65
     1
110
0.0
120
0.0
130
0.0
111
1.0
121
0.0
131
0.0
112
0.0
122
1.0
132
0.0
 79
     0
146
0.0
  0
ENDTAB
  0
TABLE
  2
LTYPE
  5
5
330
0
100
AcDbSymbolTable
 70
     8
  0
LTYPE
  5
14
330
5
100
AcDbSymbolTableRecord
100
AcDbLinetypeTableRecord
  2
ByBlock
 70
     0
  3

 72
    65
 73
     0
 40
0.0
  0
LTYPE
  5
15
330
5
100
AcDbSymbolTableRecord
100
AcDbLinetypeTableRecord
  2
ByLayer
 70
     0
  3

 72
    65
 73
     0
 40
0.0
  0
LTYPE
  5
16
330
5
100
AcDbSymbolTableRecord
100
AcDbLinetypeTableRecord
  2
Continuous
 70
     0
  3
Solid line
 72
    65
 73
     0
 40
0.0
  0
LTYPE
  5
6E
330
5
100
AcDbSymbolTableRecord
100
AcDbLinetypeTableRecord
  2
SLD-Solid
 70
     0
  3
SolidWorks Line Style
 72
    65
 73
     0
 40
0.0
  0
LTYPE
  5
6F
330
5
100
AcDbSymbolTableRecord
100
AcDbLinetypeTableRecord
  2
SLD-Dashed
 70
     0
  3
SolidWorks Line Style
 72
    65
 73
     2
 40
0.075
 49
0.05
 74
     0
 49
-0.025
 74
     0
  0
LTYPE
  5
70
330
5
100
AcDbSymbolTableRecord
100
AcDbLinetypeTableRecord
  2
SLD-Phantom
 70
     0
  3
SolidWorks Line Style
 72
    65
 73
     6
 40
0.5
 49
0.25
 74
     0
 49
-0.05
 74
     0
 49
0.05
 74
     0
 49
-0.05
 74
     0
 49
0.05
 74
     0
 49
-0.05
 74
     0
  0
LTYPE
  5
71
330
5
100
AcDbSymbolTableRecord
100
AcDbLinetypeTableRecord
  2
SLD-Chain
 70
     0
  3
SolidWorks Line Style
 72
    65
 73
     4
 40
0.4
 49
0.25
 74
     0
 49
-0.05
 74
     0
 49
0.05
 74
     0
 49
-0.05
 74
     0
  0
LTYPE
  5
72
330
5
100
AcDbSymbolTableRecord
100
AcDbLinetypeTableRecord
  2
SLD-Center
 70
     0
  3
SolidWorks Line Style
 72
    65
 73
     4
 40
0.75
 49
0.6
 74
     0
 49
-0.05
 74
     0
 49
0.05
 74
     0
 49
-0.05
 74
     0
  0
LTYPE
  5
73
330
5
100
AcDbSymbolTableRecord
100
AcDbLinetypeTableRecord
  2
SLD-Stitch
 70
     0
  3
SolidWorks Line Style
 72
    65
 73
     2
 40
0.025
 49
0.0
 74
     0
 49
-0.025
 74
     0
  0
LTYPE
  5
74
330
5
100
AcDbSymbolTableRecord
100
AcDbLinetypeTableRecord
  2
SLD-Thin-Thick-Chain
 70
     0
  3
SolidWorks Line Style
 72
    65
 73
     4
 40
0.4
 49
0.25
 74
     0
 49
-0.05
 74
     0
 49
0.05
 74
     0
 49
-0.05
 74
     0
  0
ENDTAB
  0
TABLE
  2
LAYER
  5
2
330
0
100
AcDbSymbolTable
 70
     6
  0
LAYER
  5
10
330
2
100
AcDbSymbolTableRecord
100
AcDbLayerTableRecord
  2
0
 70
     0
 62
     7
  6
Continuous
370
    -3
390
F
  0
LAYER
  5
75
330
2
100
AcDbSymbolTableRecord
100
AcDbLayerTableRecord
  2
FORMAT
 70
     0
 62
     7
  6
SLD-Solid
370
    -3
390
F
  0
LAYER
  5
76
330
2
100
AcDbSymbolTableRecord
100
AcDbLayerTableRecord
  2
NOTES
 70
     0
 62
     1
  6
SLD-Solid
370
    -3
390
F
  0
LAYER
  5
77
330
2
100
AcDbSymbolTableRecord
100
AcDbLayerTableRecord
  2
OBJECT
 70
     0
 62
     7
  6
SLD-Solid
370
    25
390
F
  0
LAYER
  5
78
330
2
100
AcDbSymbolTableRecord
100
AcDbLayerTableRecord
  2
DIMS
 70
     0
 62
     5
  6
SLD-Solid
370
    -3
390
F
  0
LAYER
  5
79
330
2
100
AcDbSymbolTableRecord
100
AcDbLayerTableRecord
  2
TITLE
 70
     0
 62
     8
  6
SLD-Solid
370
    -3
390
F
  0
ENDTAB
  0
TABLE
  2
STYLE
  5
3
330
0
100
AcDbSymbolTable
 70
     5
  0
STYLE
  5
11
330
3
100
AcDbSymbolTableRecord
100
AcDbTextStyleTableRecord
  2
STANDARD
 70
     0
 40
0.0
 41
1.0
 50
0.0
 71
     0
 42
0.5
  3
GOTHIC.TTF
  4

1001
ACAD
1000
CENTURY GOTHIC
1071
       34
  0
STYLE
  5
101
330
3
100
AcDbSymbolTableRecord
100
AcDbTextStyleTableRecord
  2
SLDTEXTSTYLE0
 70
     0
 40
0.0
 41
0.948
 50
0.0
 71
     0
 42
0.5
  3
ARIAL.TTF
  4

1001
ACAD
1000
Arial
1071
      290
  0
STYLE
  5
105
330
3
100
AcDbSymbolTableRecord
100
AcDbTextStyleTableRecord
  2
SLDTEXTSTYLE1
 70
     0
 40
0.0
 41
0.913
 50
0.0
 71
     0
 42
0.5
  3
GOTHIC.TTF
  4

1001
ACAD
1000
Century Gothic
1071
      290
  0
STYLE
  5
114
330
3
100
AcDbSymbolTableRecord
100
AcDbTextStyleTableRecord
  2
SLDTEXTSTYLE2
 70
     0
 40
0.0
 41
0.87
 50
0.0
 71
     0
 42
0.5
  3
ARIALNB.TTF
  4

1001
ACAD
1000
Arial Narrow
1071
 33554722
  0
STYLE
  5
116
330
3
100
AcDbSymbolTableRecord
100
AcDbTextStyleTableRecord
  2
SLDTEXTSTYLE3
 70
     0
 40
0.0
 41
0.87
 50
0.0
 71
     0
 42
0.5
  3
ARIALN.TTF
  4

1001
ACAD
1000
Arial Narrow
1071
      290
  0
ENDTAB
  0
TABLE
  2
VIEW
  5
6
330
0
100
AcDbSymbolTable
 70
     0
  0
ENDTAB
  0
TABLE
  2
UCS
  5
7
330
0
100
AcDbSymbolTable
 70
     0
  0
ENDTAB
  0
TABLE
  2
APPID
  5
9
330
0
100
AcDbSymbolTable
 70
     1
  0
APPID
  5
12
330
9
100
AcDbSymbolTableRecord
100
AcDbRegAppTableRecord
  2
ACAD
 70
     0
  0
ENDTAB
  0
TABLE
  2
DIMSTYLE
  5
A
330
0
100
AcDbSymbolTable
 70
     5
100
AcDbDimStyleTable
  0
DIMSTYLE
105
27
330
A
100
AcDbSymbolTableRecord
100
AcDbDimStyleTableRecord
  2
Standard
 70
     0
178
     0
340
11
  0
DIMSTYLE
105
309
102
{ACAD_REACTORS
330
308
330
31D
330
328
330
4CB
102
}
330
A
100
AcDbSymbolTableRecord
100
AcDbDimStyleTableRecord
  2
SLDDIMSTYLE0
 70
     0
 41
0.3
 44
0.0
 45
0.000000001
 78
    12
 79
     3
140
0.5
147
0.125
173
     1
178
     0
271
     2
272
     2
276
     2
277
     5
284
    12
340
105
341
30A
343
30A
344
30A
  0
DIMSTYLE
105
334
102
{ACAD_REACTORS
330
333
330
4E5
102
}
330
A
100
AcDbSymbolTableRecord
100
AcDbDimStyleTableRecord
  2
SLDDIMSTYLE1
 70
     0
 41
0.3
 44
0.0
 45
0.000000001
 78
    12
 79
     3
140
0.5
147
0.125
172
     1
173
     1
178
     0
271
     6
272
     2
276
     2
277
     5
284
    12
289
     0
340
105
341
30A
343
30A
344
30A
  0
DIMSTYLE
105
3CD
102
{ACAD_REACTORS
330
3CC
330
4BC
330
4D6
102
}
330
A
100
AcDbSymbolTableRecord
100
AcDbDimStyleTableRecord
  2
SLDDIMSTYLE2
 70
     0
 41
0.3
 44
0.0
 45
0.000000001
 78
    12
 79
     3
140
0.5
147
0.125
173
     1
178
     0
271
     6
272
     2
276
     2
277
     5
284
    12
340
105
341
30A
343
30A
344
30A
  0
DIMSTYLE
105
4F5
102
{ACAD_REACTORS
330
4F4
102
}
330
A
100
AcDbSymbolTableRecord
100
AcDbDimStyleTableRecord
  2
SLDDIMSTYLE3
 70
     0
 41
0.3
 44
0.0
 45
0.000000001
 78
    12
 79
     3
140
0.5
141
0.0
147
0.125
173
     1
178
     0
271
     2
272
     2
276
     2
277
     5
284
    12
340
105
341
30A
343
30A
344
30A
  0
ENDTAB
  0
TABLE
  2
BLOCK_RECORD
  5
1
330
0
100
AcDbSymbolTable
 70
    15
  0
BLOCK_RECORD
  5
1F
330
1
100
AcDbSymbolTableRecord
100
AcDbBlockTableRecord
  2
*Model_Space
340
22
  0
BLOCK_RECORD
  5
1B
330
1
100
AcDbSymbolTableRecord
100
AcDbBlockTableRecord
  2
*Paper_Space
340
1E
  0
BLOCK_RECORD
  5
23
330
1
100
AcDbSymbolTableRecord
100
AcDbBlockTableRecord
  2
*Paper_Space0
340
26
  0
BLOCK_RECORD
  5
10B
330
1
100
AcDbSymbolTableRecord
100
AcDbBlockTableRecord
  2
SW_NOTE_0
340
0
102
{BLKREFS
331
110
102
}
  0
BLOCK_RECORD
  5
111
330
1
100
AcDbSymbolTableRecord
100
AcDbBlockTableRecord
  2
SW_NOTE_0_1
340
0
102
{BLKREFS
331
11A
102
}
  0
BLOCK_RECORD
  5
30A
330
1
100
AcDbSymbolTableRecord
100
AcDbBlockTableRecord
  2
_Open90
340
0
102
{BLKREFS
331
313
331
314
331
321
331
322
331
32C
331
32D
331
338
331
339
331
3D1
331
3D2
331
4C0
331
4C1
331
4CF
331
4D0
331
4DA
331
4DB
331
4E9
331
4EA
331
4F9
102
}
  0
BLOCK_RECORD
  5
310
330
1
100
AcDbSymbolTableRecord
100
AcDbBlockTableRecord
  2
_D
340
0
  0
BLOCK_RECORD
  5
31E
330
1
100
AcDbSymbolTableRecord
100
AcDbBlockTableRecord
  2
_D_1
340
0
  0
BLOCK_RECORD
  5
329
330
1
100
AcDbSymbolTableRecord
100
AcDbBlockTableRecord
  2
_D_2
340
0
  0
BLOCK_RECORD
  5
335
330
1
100
AcDbSymbolTableRecord
100
AcDbBlockTableRecord
  2
_D_3
340
0
  0
BLOCK_RECORD
  5
3CE
330
1
100
AcDbSymbolTableRecord
100
AcDbBlockTableRecord
  2
_D_4
340
0
  0
BLOCK_RECORD
  5
492
330
1
100
AcDbSymbolTableRecord
100
AcDbBlockTableRecord
  2
SW_NOTE_0_2
340
0
102
{BLKREFS
331
497
102
}
  0
BLOCK_RECORD
  5
4BD
330
1
100
AcDbSymbolTableRecord
100
AcDbBlockTableRecord
  2
_D_5
340
0
  0
BLOCK_RECORD
  5
4CC
330
1
100
AcDbSymbolTableRecord
100
AcDbBlockTableRecord
  2
_D_6
340
0
  0
BLOCK_RECORD
  5
4D7
330
1
100
AcDbSymbolTableRecord
100
AcDbBlockTableRecord
  2
_D_7
340
0
  0
BLOCK_RECORD
  5
4E6
330
1
100
AcDbSymbolTableRecord
100
AcDbBlockTableRecord
  2
_D_8
340
0
  0
BLOCK_RECORD
  5
4F6
330
1
100
AcDbSymbolTableRecord
100
AcDbBlockTableRecord
  2
_D_9
340
0
  0
ENDTAB
  0
ENDSEC
  0
SECTION
  2
BLOCKS
  0
BLOCK
  5
20
330
1F
100
AcDbEntity
  8
0
100
AcDbBlockBegin
  2
*Model_Space
 70
     0
 10
0.0
 20
0.0
 30
0.0
  3
*Model_Space
  1

  0
ENDBLK
  5
21
330
1F
100
AcDbEntity
  8
0
100
AcDbBlockEnd
  0
BLOCK
  5
1C
330
1B
100
AcDbEntity
 67
     1
  8
0
100
AcDbBlockBegin
  2
*Paper_Space
 70
     0
 10
0.0
 20
0.0
 30
0.0
  3
*Paper_Space
  1

  0
ENDBLK
  5
1D
330
1B
100
AcDbEntity
 67
     1
  8
0
100
AcDbBlockEnd
  0
BLOCK
  5
24
330
23
100
AcDbEntity
  8
0
100
AcDbBlockBegin
  2
*Paper_Space0
 70
     0
 10
0.0
 20
0.0
 30
0.0
  3
*Paper_Space0
  1

  0
ENDBLK
  5
25
330
23
100
AcDbEntity
  8
0
100
AcDbBlockEnd
  0
BLOCK
  5
10C
330
10B
100
AcDbEntity
  8
0
100
AcDbBlockBegin
  2
SW_NOTE_0
 70
     0
 10
0.0
 20
0.0
 30
0.0
  3
SW_NOTE_0
  1

  0
MTEXT
  5
10E
330
10B
100
AcDbEntity
  8
NOTES
 62
     0
100
AcDbMText
 10
0.0
 20
0.3759780908
 30
0.0
 40
0.2916666667
 41
0.0
 71
     1
 72
     1
  1
FROST PRODUCTS LTD.
  7
SLDTEXTSTYLE0
 73
     1
 44
1.0
  0
MTEXT
  5
10F
330
10B
100
AcDbEntity
  8
NOTES
 62
     0
100
AcDbMText
 10
0.0
 20
-0.0495142709
 30
0.0
 40
0.2291666667
 41
0.0
 71
     1
 72
     1
  1
5280 JOHN LUCUS DRIVE, BURLINGTON, ON, L7L 5Z9
  7
SLDTEXTSTYLE0
 73
     1
 44
1.0
  0
ENDBLK
  5
10D
330
10B
100
AcDbEntity
  8
0
100
AcDbBlockEnd
  0
BLOCK
  5
112
330
111
100
AcDbEntity
  8
0
100
AcDbBlockBegin
  2
SW_NOTE_0_1
 70
     0
 10
0.0
 20
0.0
 30
0.0
  3
SW_NOTE_0_1
  1

  0
MTEXT
  5
115
330
111
100
AcDbEntity
  8
NOTES
 62
     0
100
AcDbMText
 10
0.0
 20
0.2381282771
 30
0.0
 40
0.184729064
 41
0.0
 71
     1
 72
     1
  1
PROPRIETARY AND CONFIDENTIAL
  7
SLDTEXTSTYLE2
 73
     1
 44
1.0
  0
MTEXT
  5
117
330
111
100
AcDbEntity
  8
NOTES
 62
     0
100
AcDbMText
 10
0.0
 20
-0.0504364796
 30
0.0
 40
0.25
 41
0.0
 71
     1
 72
     1
  1
THE INFORMATION CONTAINED IN THIS DRAWING IS THE SOLE PROPERTY OF 
  7
SLDTEXTSTYLE3
 73
     1
 44
1.0
  0
MTEXT
  5
118
330
111
100
AcDbEntity
  8
NOTES
 62
     0
100
AcDbMText
 10
0.0
 20
-0.4231398941
 30
0.0
 40
0.25
 41
0.0
 71
     1
 72
     1
  1
FROST PRODUCTS LTD.  ANY REPRODUCTION IN PART OR AS A WHOLE WITHOUT 
  7
SLDTEXTSTYLE3
 73
     1
 44
1.0
  0
MTEXT
  5
119
330
111
100
AcDbEntity
  8
NOTES
 62
     0
100
AcDbMText
 10
0.0
 20
-0.7958433086
 30
0.0
 40
0.25
 41
0.0
 71
     1
 72
     1
  1
THE WRITTEN PERMISSION OF FROST PRODUCTS LTD. IS PROHIBITED.
  7
SLDTEXTSTYLE3
 73
     1
 44
1.0
  0
ENDBLK
  5
113
330
111
100
AcDbEntity
  8
0
100
AcDbBlockEnd
  0
BLOCK
  5
30B
330
30A
100
AcDbEntity
  8
0
100
AcDbBlockBegin
  2
_Open90
 70
     0
 10
0.0
 20
0.0
 30
0.0
  3
_Open90
  1

  0
LINE
  5
30D
330
30A
100
AcDbEntity
  8
0
  6
ByBlock
 62
     0
370
    -2
100
AcDbLine
 10
-0.5
 20
0.5
 30
0.0
 11
0.0
 21
0.0
 31
0.0
  0
LINE
  5
30E
330
30A
100
AcDbEntity
  8
0
  6
ByBlock
 62
     0
370
    -2
100
AcDbLine
 10
0.0
 20
0.0
 30
0.0
 11
-0.5
 21
-0.5
 31
0.0
  0
LINE
  5
30F
330
30A
100
AcDbEntity
  8
0
  6
ByBlock
 62
     0
370
    -2
100
AcDbLine
 10
0.0
 20
0.0
 30
0.0
 11
-1.0
 21
0.0
 31
0.0
  0
ENDBLK
  5
30C
330
30A
100
AcDbEntity
  8
0
100
AcDbBlockEnd
  0
BLOCK
  5
311
330
310
100
AcDbEntity
  8
0
100
AcDbBlockBegin
  2
_D
 70
     0
 10
0.0
 20
0.0
 30
0.0
  3
_D
  1

  0
INSERT
  5
313
330
310
100
AcDbEntity
  8
DIMS
100
AcDbBlockReference
  2
_Open90
 10
5.2665528523
 20
13.0238798541
 30
0.0
 41
0.3
 42
0.3
 50
270.0
  0
INSERT
  5
314
330
310
100
AcDbEntity
  8
DIMS
100
AcDbBlockReference
  2
_Open90
 10
5.2665528523
 20
21.0238798541
 30
0.0
 41
0.3
 42
0.3
 50
90.0
  0
LINE
  5
315
330
310
100
AcDbEntity
  8
DIMS
100
AcDbLine
 10
5.102326008
 20
13.0238798541
 30
0.0
 11
4.8915528523
 21
13.0238798541
 31
0.0
  0
LINE
  5
316
330
310
100
AcDbEntity
  8
DIMS
100
AcDbLine
 10
6.2293689073
 20
21.0238798541
 30
0.0
 11
4.8915528523
 21
21.0238798541
 31
0.0
  0
LINE
  5
317
330
310
100
AcDbEntity
  8
DIMS
100
AcDbLine
 10
5.2665528523
 20
21.0238798541
 30
0.0
 11
5.2665528523
 21
17.0986762508
 31
0.0
  0
MTEXT
  5
318
330
310
100
AcDbEntity
  8
DIMS
100
AcDbMText
 10
-14.7483935333
 20
16.9435981569
 30
0.0
 40
0.5
 41
0.0
 71
     1
 72
     1
  1
                                                                                                          44" Max. height of bottom of dispenser for unrestricted access   
  7
SLDTEXTSTYLE1
 73
     1
 44
1.0
  0
MTEXT
  5
319
330
310
100
AcDbEntity
  8
DIMS
100
AcDbMText
 10
-14.7483935333
 20
14.5623480853
 30
0.0
 40
0.5
 41
0.0
 71
     1
 72
     1
  1
 
  7
SLDTEXTSTYLE1
 73
     1
 44
1.0
  0
MTEXT
  5
31A
330
310
100
AcDbEntity
  8
DIMS
100
AcDbMText
 10
-14.7483935333
 20
13.7685980615
 30
0.0
 40
0.5
 41
0.0
 71
     1
 72
     1
  1
 
  7
SLDTEXTSTYLE1
 73
     1
 44
1.0
  0
MTEXT
  5
31B
330
310
100
AcDbEntity
  8
DIMS
100
AcDbMText
 10
-14.7483935333
 20
12.9748480376
 30
0.0
 40
0.5
 41
0.0
 71
     1
 72
     1
  1
 
  7
SLDTEXTSTYLE1
 73
     1
 44
1.0
  0
MTEXT
  5
31C
330
310
100
AcDbEntity
  8
DIMS
100
AcDbMText
 10
-14.7483935333
 20
12.1810980137
 30
0.0
 40
0.5
 41
0.0
 71
     1
 72
     1
  1
 
  7
SLDTEXTSTYLE1
 73
     1
 44
1.0
  0
ENDBLK
  5
312
330
310
100
AcDbEntity
  8
0
100
AcDbBlockEnd
  0
BLOCK
  5
31F
330
31E
100
AcDbEntity
  8
0
100
AcDbBlockBegin
  2
_D_1
 70
     0
 10
0.0
 20
0.0
 30
0.0
  3
_D_1
  1

  0
INSERT
  5
321
330
31E
100
AcDbEntity
  8
DIMS
100
AcDbBlockReference
  2
_Open90
 10
2.8490317315
 20
20.8068798541
 30
-3.2384598989
 41
0.3
 42
0.3
 50
270.0
  0
INSERT
  5
322
330
31E
100
AcDbEntity
  8
DIMS
100
AcDbBlockReference
  2
_Open90
 10
2.8490317315
 20
27.8068798541
 30
-3.2384598989
 41
0.3
 42
0.3
 50
90.0
  0
LINE
  5
323
330
31E
100
AcDbEntity
  8
DIMS
100
AcDbLine
 10
3.9353318877
 20
20.8068798541
 30
0.0
 11
2.4740317315
 21
20.8068798541
 31
0.0
  0
LINE
  5
324
330
31E
100
AcDbEntity
  8
DIMS
100
AcDbLine
 10
3.9353318877
 20
27.8068798541
 30
0.0
 11
2.4740317315
 21
27.8068798541
 31
0.0
  0
LINE
  5
325
330
31E
100
AcDbEntity
  8
DIMS
100
AcDbLine
 10
2.8490317315
 20
20.8068798541
 30
0.0
 11
2.8490317315
 21
24.0626822489
 31
0.0
  0
LINE
  5
326
330
31E
100
AcDbEntity
  8
DIMS
100
AcDbLine
 10
2.8490317315
 20
27.8068798541
 30
0.0
 11
2.8490317315
 21
24.8564322728
 31
0.0
  0
MTEXT
  5
327
330
31E
100
AcDbEntity
  8
DIMS
100
AcDbMText
 10
2.5611845084
 20
24.7013541789
 30
0.0
 40
0.5
 41
0.0
 71
     1
 72
     1
  1
7"
  7
SLDTEXTSTYLE1
 73
     1
 44
1.0
  0
ENDBLK
  5
320
330
31E
100
AcDbEntity
  8
0
100
AcDbBlockEnd
  0
BLOCK
  5
32A
330
329
100
AcDbEntity
  8
0
100
AcDbBlockBegin
  2
_D_2
 70
     0
 10
0.0
 20
0.0
 30
0.0
  3
_D_2
  1

  0
INSERT
  5
32C
330
329
100
AcDbEntity
  8
DIMS
100
AcDbBlockReference
  2
_Open90
 10
3.7269985544
 20
28.436801114
 30
-3.2384598989
 41
0.3
 42
0.3
 50
180.0
  0
INSERT
  5
32D
330
329
100
AcDbEntity
  8
DIMS
100
AcDbBlockReference
  2
_Open90
 10
19.7269985544
 20
28.436801114
 30
-3.2384598989
 41
0.3
 42
0.3
 50
0.0
  0
LINE
  5
32E
330
329
100
AcDbEntity
  8
DIMS
100
AcDbLine
 10
3.7269985544
 20
27.5985465208
 30
0.0
 11
3.7269985544
 21
28.811801114
 31
0.0
  0
LINE
  5
32F
330
329
100
AcDbEntity
  8
DIMS
100
AcDbLine
 10
19.7269985544
 20
27.5985465208
 30
0.0
 11
19.7269985544
 21
28.811801114
 31
0.0
  0
LINE
  5
330
330
329
100
AcDbEntity
  8
DIMS
100
AcDbLine
 10
3.7269985544
 20
28.436801114
 30
0.0
 11
11.2544291269
 21
28.436801114
 31
0.0
  0
LINE
  5
331
330
329
100
AcDbEntity
  8
DIMS
100
AcDbLine
 10
19.7269985544
 20
28.436801114
 30
0.0
 11
12.1995679819
 21
28.436801114
 31
0.0
  0
MTEXT
  5
332
330
329
100
AcDbEntity
  8
DIMS
100
AcDbMText
 10
11.2544291269
 20
28.6785980321
 30
0.0
 40
0.5
 41
0.0
 71
     1
 72
     1
  1
16"
  7
SLDTEXTSTYLE1
 73
     1
 44
1.0
  0
ENDBLK
  5
32B
330
329
100
AcDbEntity
  8
0
100
AcDbBlockEnd
  0
BLOCK
  5
336
330
335
100
AcDbEntity
  8
0
100
AcDbBlockBegin
  2
_D_3
 70
     0
 10
0.0
 20
0.0
 30
0.0
  3
_D_3
  1

  0
INSERT
  5
338
330
335
100
AcDbEntity
  8
DIMS
100
AcDbBlockReference
  2
_Open90
 10
4.5179159097
 20
20.8068798541
 30
-3.2384598989
 41
0.3
 42
0.3
 50
90.0
  0
INSERT
  5
339
330
335
100
AcDbEntity
  8
DIMS
100
AcDbBlockReference
  2
_Open90
 10
4.5179159097
 20
21.0238798541
 30
-3.2384598989
 41
0.3
 42
0.3
 50
270.0
  0
LINE
  5
33A
330
335
100
AcDbEntity
  8
DIMS
100
AcDbLine
 10
2.4807827769
 20
19.0393397362
 30
0.0
 11
3.3661994718
 21
19.0393397362
 31
0.0
  0
LINE
  5
33B
330
335
100
AcDbEntity
  8
DIMS
100
AcDbLine
 10
6.2293689073
 20
21.0238798541
 30
0.0
 11
4.1429159097
 21
21.0238798541
 31
0.0
  0
LINE
  5
33C
330
335
100
AcDbEntity
  8
DIMS
100
AcDbLine
 10
3.6457134112
 20
18.9880550378
 30
0.0
 11
4.5179159097
 21
18.9880550378
 31
0.0
  0
LINE
  5
33D
330
335
100
AcDbEntity
  8
DIMS
100
AcDbLine
 10
4.5179159097
 20
18.9880550378
 30
0.0
 11
4.5179159097
 21
20.8068798541
 31
0.0
  0
LINE
  5
33E
330
335
100
AcDbEntity
  8
DIMS
100
AcDbLine
 10
4.5179159097
 20
21.0238798541
 30
0.0
 11
4.5179159097
 21
21.3238798541
 31
0.0
  0
MTEXT
  5
33F
330
335
100
AcDbEntity
  8
DIMS
100
AcDbMText
 10
2.7387689016
 20
19.6340532957
 30
0.0
 40
0.5
 41
0.0
 71
     1
 72
     1
  1
3
  7
SLDTEXTSTYLE1
 73
     1
 44
1.0
  0
MTEXT
  5
340
330
335
100
AcDbEntity
  8
DIMS
100
AcDbMText
 10
2.5540466789
 20
18.9728727172
 30
0.0
 40
0.5
 41
0.0
 71
     1
 72
     1
  1
16
  7
SLDTEXTSTYLE1
 73
     1
 44
1.0
  0
MTEXT
  5
341
330
335
100
AcDbEntity
  8
DIMS
100
AcDbMText
 10
3.4394633738
 20
19.2687407967
 30
0.0
 40
0.5
 41
0.0
 71
     1
 72
     1
  1
"
  7
SLDTEXTSTYLE1
 73
     1
 44
1.0
  0
ENDBLK
  5
337
330
335
100
AcDbEntity
  8
0
100
AcDbBlockEnd
  0
BLOCK
  5
3CF
330
3CE
100
AcDbEntity
  8
0
100
AcDbBlockBegin
  2
_D_4
 70
     0
 10
0.0
 20
0.0
 30
0.0
  3
_D_4
  1

  0
INSERT
  5
3D1
330
3CE
100
AcDbEntity
  8
DIMS
100
AcDbBlockReference
  2
_Open90
 10
21.7654601128
 20
28.6730215864
 30
0.0
 41
0.3
 42
0.3
 50
180.0
  0
INSERT
  5
3D2
330
3CE
100
AcDbEntity
  8
DIMS
100
AcDbBlockReference
  2
_Open90
 10
27.225548612
 20
28.6730215864
 30
0.0
 41
0.3
 42
0.3
 50
0.0
  0
LINE
  5
3D3
330
3CE
100
AcDbEntity
  8
DIMS
100
AcDbLine
 10
24.1359438762
 20
28.7243062848
 30
0.0
 11
25.0213605711
 21
28.7243062848
 31
0.0
  0
LINE
  5
3D4
330
3CE
100
AcDbEntity
  8
DIMS
100
AcDbLine
 10
21.7654601128
 20
26.7493208396
 30
0.0
 11
21.7654601128
 21
29.0480215864
 31
0.0
  0
LINE
  5
3D5
330
3CE
100
AcDbEntity
  8
DIMS
100
AcDbLine
 10
27.225548612
 20
27.9735465208
 30
0.0
 11
27.225548612
 21
29.0480215864
 31
0.0
  0
LINE
  5
3D6
330
3CE
100
AcDbEntity
  8
DIMS
100
AcDbLine
 10
21.7654601128
 20
28.6730215864
 30
0.0
 11
23.6932355288
 21
28.6730215864
 31
0.0
  0
LINE
  5
3D7
330
3CE
100
AcDbEntity
  8
DIMS
100
AcDbLine
 10
27.225548612
 20
28.6730215864
 30
0.0
 11
25.3008744372
 21
28.6730215864
 31
0.0
  0
MTEXT
  5
3D8
330
3CE
100
AcDbEntity
  8
DIMS
100
AcDbMText
 10
23.6932355288
 20
28.9537073452
 30
0.0
 40
0.5
 41
0.0
 71
     1
 72
     1
  1
5
  7
SLDTEXTSTYLE1
 73
     1
 44
1.0
  0
MTEXT
  5
3D9
330
3CE
100
AcDbEntity
  8
DIMS
100
AcDbMText
 10
24.3939300009
 20
29.3190198443
 30
0.0
 40
0.5
 41
0.0
 71
     1
 72
     1
  1
7
  7
SLDTEXTSTYLE1
 73
     1
 44
1.0
  0
MTEXT
  5
3DA
330
3CE
100
AcDbEntity
  8
DIMS
100
AcDbMText
 10
24.2092077782
 20
28.6578392657
 30
0.0
 40
0.5
 41
0.0
 71
     1
 72
     1
  1
16
  7
SLDTEXTSTYLE1
 73
     1
 44
1.0
  0
MTEXT
  5
3DB
330
3CE
100
AcDbEntity
  8
DIMS
100
AcDbMText
 10
25.0946244731
 20
28.9537073452
 30
0.0
 40
0.5
 41
0.0
 71
     1
 72
     1
  1
"
  7
SLDTEXTSTYLE1
 73
     1
 44
1.0
  0
ENDBLK
  5
3D0
330
3CE
100
AcDbEntity
  8
0
100
AcDbBlockEnd
  0
BLOCK
  5
493
330
492
100
AcDbEntity
  8
0
100
AcDbBlockBegin
  2
SW_NOTE_0_2
 70
     0
 10
0.0
 20
0.0
 30
0.0
  3
SW_NOTE_0_2
  1

  0
MTEXT
  5
495
330
492
100
AcDbEntity
  8
NOTES
 62
     0
100
AcDbMText
 10
0.0
 20
0.638671875
 30
0.0
 40
0.5
 41
0.0
 71
     1
 72
     1
  1
3D view
  7
SLDTEXTSTYLE1
 73
     1
 44
1.0
  0
MTEXT
  5
496
330
492
100
AcDbEntity
  8
NOTES
 62
     0
100
AcDbMText
 10
0.0
 20
-0.3613281862
 30
0.0
 40
0.5
 41
0.0
 71
     1
 72
     1
  1
Code158-10
  7
SLDTEXTSTYLE1
 73
     1
 44
1.0
  0
ENDBLK
  5
494
330
492
100
AcDbEntity
  8
0
100
AcDbBlockEnd
  0
BLOCK
  5
4BE
330
4BD
100
AcDbEntity
  8
0
100
AcDbBlockBegin
  2
_D_5
 70
     0
 10
0.0
 20
0.0
 30
0.0
  3
_D_5
  1

  0
INSERT
  5
4C0
330
4BD
100
AcDbEntity
  8
DIMS
100
AcDbBlockReference
  2
_Open90
 10
35.9172435677
 20
29.1454625313
 30
3.2384598989
 41
0.3
 42
0.3
 50
180.0
  0
INSERT
  5
4C1
330
4BD
100
AcDbEntity
  8
DIMS
100
AcDbBlockReference
  2
_Open90
 10
44.1672435677
 20
29.1454625313
 30
3.2384598989
 41
0.3
 42
0.3
 50
0.0
  0
LINE
  5
4C2
330
4BD
100
AcDbEntity
  8
DIMS
100
AcDbLine
 10
40.1589549009
 20
29.1967472297
 30
0.0
 11
40.6749271504
 21
29.1967472297
 31
0.0
  0
LINE
  5
4C3
330
4BD
100
AcDbEntity
  8
DIMS
100
AcDbLine
 10
35.9172435677
 20
22.5355465208
 30
0.0
 11
35.9172435677
 21
29.5204625313
 31
0.0
  0
LINE
  5
4C4
330
4BD
100
AcDbEntity
  8
DIMS
100
AcDbLine
 10
44.1672435677
 20
22.5355465208
 30
0.0
 11
44.1672435677
 21
29.5204625313
 31
0.0
  0
LINE
  5
4C5
330
4BD
100
AcDbEntity
  8
DIMS
100
AcDbLine
 10
35.9172435677
 20
29.1454625313
 30
0.0
 11
39.7162465535
 21
29.1454625313
 31
0.0
  0
LINE
  5
4C6
330
4BD
100
AcDbEntity
  8
DIMS
100
AcDbLine
 10
44.1672435677
 20
29.1454625313
 30
0.0
 11
40.9544410897
 21
29.1454625313
 31
0.0
  0
MTEXT
  5
4C7
330
4BD
100
AcDbEntity
  8
DIMS
100
AcDbMText
 10
39.7162465535
 20
29.4261482901
 30
0.0
 40
0.5
 41
0.0
 71
     1
 72
     1
  1
8
  7
SLDTEXTSTYLE1
 73
     1
 44
1.0
  0
MTEXT
  5
4C8
330
4BD
100
AcDbEntity
  8
DIMS
100
AcDbMText
 10
40.2322188029
 20
29.7914607892
 30
0.0
 40
0.5
 41
0.0
 71
     1
 72
     1
  1
1
  7
SLDTEXTSTYLE1
 73
     1
 44
1.0
  0
MTEXT
  5
4C9
330
4BD
100
AcDbEntity
  8
DIMS
100
AcDbMText
 10
40.2322188029
 20
29.1302802106
 30
0.0
 40
0.5
 41
0.0
 71
     1
 72
     1
  1
4
  7
SLDTEXTSTYLE1
 73
     1
 44
1.0
  0
MTEXT
  5
4CA
330
4BD
100
AcDbEntity
  8
DIMS
100
AcDbMText
 10
40.7481910524
 20
29.4261482901
 30
0.0
 40
0.5
 41
0.0
 71
     1
 72
     1
  1
"
  7
SLDTEXTSTYLE1
 73
     1
 44
1.0
  0
ENDBLK
  5
4BF
330
4BD
100
AcDbEntity
  8
0
100
AcDbBlockEnd
  0
BLOCK
  5
4CD
330
4CC
100
AcDbEntity
  8
0
100
AcDbBlockBegin
  2
_D_6
 70
     0
 10
0.0
 20
0.0
 30
0.0
  3
_D_6
  1

  0
INSERT
  5
4CF
330
4CC
100
AcDbEntity
  8
DIMS
100
AcDbBlockReference
  2
_Open90
 10
33.0422435677
 20
30.3265648935
 30
3.2384598989
 41
0.3
 42
0.3
 50
180.0
  0
INSERT
  5
4D0
330
4CC
100
AcDbEntity
  8
DIMS
100
AcDbBlockReference
  2
_Open90
 10
47.0422435677
 20
30.3265648935
 30
3.2384598989
 41
0.3
 42
0.3
 50
0.0
  0
LINE
  5
4D1
330
4CC
100
AcDbEntity
  8
DIMS
100
AcDbLine
 10
33.0422435677
 20
26.0985465208
 30
0.0
 11
33.0422435677
 21
30.7015648935
 31
0.0
  0
LINE
  5
4D2
330
4CC
100
AcDbEntity
  8
DIMS
100
AcDbLine
 10
47.0422435677
 20
26.0985465208
 30
0.0
 11
47.0422435677
 21
30.7015648935
 31
0.0
  0
LINE
  5
4D3
330
4CC
100
AcDbEntity
  8
DIMS
100
AcDbLine
 10
33.0422435677
 20
30.3265648935
 30
0.0
 11
39.5696741402
 21
30.3265648935
 31
0.0
  0
LINE
  5
4D4
330
4CC
100
AcDbEntity
  8
DIMS
100
AcDbLine
 10
47.0422435677
 20
30.3265648935
 30
0.0
 11
40.5148129952
 21
30.3265648935
 31
0.0
  0
MTEXT
  5
4D5
330
4CC
100
AcDbEntity
  8
DIMS
100
AcDbMText
 10
39.5696741402
 20
30.5683618116
 30
0.0
 40
0.5
 41
0.0
 71
     1
 72
     1
  1
14"
  7
SLDTEXTSTYLE1
 73
     1
 44
1.0
  0
ENDBLK
  5
4CE
330
4CC
100
AcDbEntity
  8
0
100
AcDbBlockEnd
  0
BLOCK
  5
4D8
330
4D7
100
AcDbEntity
  8
0
100
AcDbBlockBegin
  2
_D_7
 70
     0
 10
0.0
 20
0.0
 30
0.0
  3
_D_7
  1

  0
INSERT
  5
4DA
330
4D7
100
AcDbEntity
  8
DIMS
100
AcDbBlockReference
  2
_Open90
 10
29.9831743826
 20
25.9318798541
 30
3.2384598989
 41
0.3
 42
0.3
 50
90.0
  0
INSERT
  5
4DB
330
4D7
100
AcDbEntity
  8
DIMS
100
AcDbBlockReference
  2
_Open90
 10
29.9831743826
 20
20.8068798541
 30
3.2384598989
 41
0.3
 42
0.3
 50
270.0
  0
LINE
  5
4DC
330
4D7
100
AcDbEntity
  8
DIMS
100
AcDbLine
 10
29.8067854619
 20
23.1101258746
 30
0.0
 11
30.3227577114
 21
23.1101258746
 31
0.0
  0
LINE
  5
4DD
330
4D7
100
AcDbEntity
  8
DIMS
100
AcDbLine
 10
32.875576901
 20
25.9318798541
 30
0.0
 11
29.6081743826
 21
25.9318798541
 31
0.0
  0
LINE
  5
4DE
330
4D7
100
AcDbEntity
  8
DIMS
100
AcDbLine
 10
32.250576901
 20
20.8068798541
 30
0.0
 11
29.6081743826
 21
20.8068798541
 31
0.0
  0
LINE
  5
4DF
330
4D7
100
AcDbEntity
  8
DIMS
100
AcDbLine
 10
29.9831743826
 20
25.9318798541
 30
0.0
 11
29.9831743826
 21
23.7126953295
 31
0.0
  0
LINE
  5
4E0
330
4D7
100
AcDbEntity
  8
DIMS
100
AcDbLine
 10
29.9831743826
 20
20.8068798541
 30
0.0
 11
29.9831743826
 21
22.404987023
 31
0.0
  0
MTEXT
  5
4E1
330
4D7
100
AcDbEntity
  8
DIMS
100
AcDbMText
 10
29.3640771145
 20
23.3395269351
 30
0.0
 40
0.5
 41
0.0
 71
     1
 72
     1
  1
5
  7
SLDTEXTSTYLE1
 73
     1
 44
1.0
  0
MTEXT
  5
4E2
330
4D7
100
AcDbEntity
  8
DIMS
100
AcDbMText
 10
29.8800493639
 20
23.7048394341
 30
0.0
 40
0.5
 41
0.0
 71
     1
 72
     1
  1
1
  7
SLDTEXTSTYLE1
 73
     1
 44
1.0
  0
MTEXT
  5
4E3
330
4D7
100
AcDbEntity
  8
DIMS
100
AcDbMText
 10
29.8800493639
 20
23.0436588556
 30
0.0
 40
0.5
 41
0.0
 71
     1
 72
     1
  1
8
  7
SLDTEXTSTYLE1
 73
     1
 44
1.0
  0
MTEXT
  5
4E4
330
4D7
100
AcDbEntity
  8
DIMS
100
AcDbMText
 10
30.3960216133
 20
23.3395269351
 30
0.0
 40
0.5
 41
0.0
 71
     1
 72
     1
  1
"
  7
SLDTEXTSTYLE1
 73
     1
 44
1.0
  0
ENDBLK
  5
4D9
330
4D7
100
AcDbEntity
  8
0
100
AcDbBlockEnd
  0
BLOCK
  5
4E7
330
4E6
100
AcDbEntity
  8
0
100
AcDbBlockBegin
  2
_D_8
 70
     0
 10
0.0
 20
0.0
 30
0.0
  3
_D_8
  1

  0
INSERT
  5
4E9
330
4E6
100
AcDbEntity
  8
DIMS
100
AcDbBlockReference
  2
_Open90
 10
30.9280562724
 20
22.3688798541
 30
3.2384598989
 41
0.3
 42
0.3
 50
270.0
  0
INSERT
  5
4EA
330
4E6
100
AcDbEntity
  8
DIMS
100
AcDbBlockReference
  2
_Open90
 10
30.9280562724
 20
20.8068798541
 30
3.2384598989
 41
0.3
 42
0.3
 50
90.0
  0
LINE
  5
4EB
330
4E6
100
AcDbEntity
  8
DIMS
100
AcDbLine
 10
30.5669451656
 20
21.6707624439
 30
0.0
 11
31.4523618605
 21
21.6707624439
 31
0.0
  0
LINE
  5
4EC
330
4E6
100
AcDbEntity
  8
DIMS
100
AcDbLine
 10
35.750576901
 20
22.3688798541
 30
0.0
 11
30.5530562724
 21
22.3688798541
 31
0.0
  0
LINE
  5
4ED
330
4E6
100
AcDbEntity
  8
DIMS
100
AcDbLine
 10
32.250576901
 20
20.8068798541
 30
0.0
 11
30.5530562724
 21
20.8068798541
 31
0.0
  0
LINE
  5
4EE
330
4E6
100
AcDbEntity
  8
DIMS
100
AcDbLine
 10
30.9280562724
 20
22.3688798541
 30
0.0
 11
30.9280562724
 21
22.6688798541
 31
0.0
  0
LINE
  5
4EF
330
4E6
100
AcDbEntity
  8
DIMS
100
AcDbLine
 10
30.9280562724
 20
20.8068798541
 30
0.0
 11
30.9280562724
 21
20.5068798541
 31
0.0
  0
MTEXT
  5
4F0
330
4E6
100
AcDbEntity
  8
DIMS
100
AcDbMText
 10
30.1242368181
 20
21.9001635043
 30
0.0
 40
0.5
 41
0.0
 71
     1
 72
     1
  1
1
  7
SLDTEXTSTYLE1
 73
     1
 44
1.0
  0
MTEXT
  5
4F1
330
4E6
100
AcDbEntity
  8
DIMS
100
AcDbMText
 10
30.8249312903
 20
22.2654760034
 30
0.0
 40
0.5
 41
0.0
 71
     1
 72
     1
  1
9
  7
SLDTEXTSTYLE1
 73
     1
 44
1.0
  0
MTEXT
  5
4F2
330
4E6
100
AcDbEntity
  8
DIMS
100
AcDbMText
 10
30.6402090676
 20
21.6042954248
 30
0.0
 40
0.5
 41
0.0
 71
     1
 72
     1
  1
16
  7
SLDTEXTSTYLE1
 73
     1
 44
1.0
  0
MTEXT
  5
4F3
330
4E6
100
AcDbEntity
  8
DIMS
100
AcDbMText
 10
31.5256257625
 20
21.9001635043
 30
0.0
 40
0.5
 41
0.0
 71
     1
 72
     1
  1
"
  7
SLDTEXTSTYLE1
 73
     1
 44
1.0
  0
ENDBLK
  5
4E8
330
4E6
100
AcDbEntity
  8
0
100
AcDbBlockEnd
  0
BLOCK
  5
4F7
330
4F6
100
AcDbEntity
  8
0
100
AcDbBlockBegin
  2
_D_9
 70
     0
 10
0.0
 20
0.0
 30
0.0
  3
_D_9
  1

  0
INSERT
  5
4F9
330
4F6
100
AcDbEntity
  8
DIMS
100
AcDbBlockReference
  2
_Open90
 10
44.1413616632
 20
22.2722872715
 30
3.2384598989
 41
0.3
 42
0.3
 50
75.0
  0
LINE
  5
4FA
330
4F6
100
AcDbEntity
  8
DIMS
100
AcDbLine
 10
35.6073086947
 20
18.0069980003
 30
0.0
 11
36.4927253896
 21
18.0069980003
 31
0.0
  0
LINE
  5
4FB
330
4F6
100
AcDbEntity
  8
DIMS
100
AcDbLine
 10
44.1413616632
 20
22.2722872715
 30
0.0
 11
42.984739154
 21
17.9557133019
 31
0.0
  0
LINE
  5
4FC
330
4F6
100
AcDbEntity
  8
DIMS
100
AcDbLine
 10
42.984739154
 20
17.9557133019
 30
0.0
 11
42.684739154
 21
17.9557133019
 31
0.0
  0
MTEXT
  5
4FD
330
4F6
100
AcDbEntity
  8
DIMS
100
AcDbMText
 10
34.7799823104
 20
18.2287601715
 30
0.0
 40
0.5
 41
0.0
 71
     1
 72
     1
  1
%%c
  7
SLDTEXTSTYLE1
 73
     1
 44
1.0
  0
MTEXT
  5
4FE
330
4F6
100
AcDbEntity
  8
DIMS
100
AcDbMText
 10
35.8652948194
 20
18.6017115598
 30
0.0
 40
0.5
 41
0.0
 71
     1
 72
     1
  1
3
  7
SLDTEXTSTYLE1
 73
     1
 44
1.0
  0
MTEXT
  5
4FF
330
4F6
100
AcDbEntity
  8
DIMS
100
AcDbMText
 10
35.6805725967
 20
17.9405309812
 30
0.0
 40
0.5
 41
0.0
 71
     1
 72
     1
  1
16
  7
SLDTEXTSTYLE1
 73
     1
 44
1.0
  0
MTEXT
  5
500
330
4F6
100
AcDbEntity
  8
DIMS
100
AcDbMText
 10
36.5659892916
 20
18.2363990607
 30
0.0
 40
0.5
 41
0.0
 71
     1
 72
     1
  1
"
  7
SLDTEXTSTYLE1
 73
     1
 44
1.0
  0
MTEXT
  5
501
330
4F6
100
AcDbEntity
  8
DIMS
100
AcDbMText
 10
36.7722392557
 20
18.2363990607
 30
0.0
 40
0.5
 41
0.0
 71
     1
 72
     1
  1
 mounting hole (4)
  7
SLDTEXTSTYLE1
 73
     1
 44
1.0
  0
ENDBLK
  5
4F8
330
4F6
100
AcDbEntity
  8
0
100
AcDbBlockEnd
  0
ENDSEC
  0
SECTION
  2
ENTITIES
  0
LINE
  5
7A
330
1F
100
AcDbEntity
  8
TITLE
370
    50
100
AcDbLine
 10
52.518223024
 20
1.4876117645
 30
0.0
 11
69.4999864512
 21
1.4876117645
 31
0.0
  0
LINE
  5
7B
330
1F
100
AcDbEntity
  8
TITLE
370
    50
100
AcDbLine
 10
69.4999317442
 20
5.4753603936
 30
0.0
 11
59.3105350723
 21
5.4753603936
 31
0.0
  0
LINE
  5
7C
330
1F
100
AcDbEntity
  8
TITLE
  6
SLD-Solid
370
    18
100
AcDbLine
 10
0.5
 20
0.5
 30
0.0
 11
0.5
 21
49.5
 31
0.0
  0
LINE
  5
7D
330
1F
100
AcDbEntity
  8
TITLE
  6
SLD-Solid
370
    18
100
AcDbLine
 10
0.5
 20
49.5
 30
0.0
 11
69.5
 21
49.5
 31
0.0
  0
LINE
  5
7E
330
1F
100
AcDbEntity
  8
TITLE
370
    50
100
AcDbLine
 10
52.518223024
 20
2.5427877231
 30
0.0
 11
45.5059791203
 21
2.5427877231
 31
0.0
  0
LINE
  5
7F
330
1F
100
AcDbEntity
  8
TITLE
370
    50
100
AcDbLine
 10
52.518223024
 20
1.4876117645
 30
0.0
 11
45.5059791203
 21
1.4876117645
 31
0.0
  0
LINE
  5
80
330
1F
100
AcDbEntity
  8
TITLE
  6
SLD-Solid
370
    18
100
AcDbLine
 10
69.5
 20
49.5
 30
0.0
 11
69.5
 21
0.5
 31
0.0
  0
LINE
  5
81
330
1F
100
AcDbEntity
  8
TITLE
  6
SLD-Solid
370
    18
100
AcDbLine
 10
69.5
 20
0.5
 30
0.0
 11
0.5
 21
0.5
 31
0.0
  0
LINE
  5
82
330
1F
100
AcDbEntity
  8
TITLE
370
    50
100
AcDbLine
 10
52.518223024
 20
1.4876117645
 30
0.0
 11
52.518223024
 21
3.5979636817
 31
0.0
  0
LINE
  5
83
330
1F
100
AcDbEntity
  8
TITLE
370
    50
100
AcDbLine
 10
45.5059791203
 20
3.5979636817
 30
0.0
 11
45.5059791203
 21
0.5
 31
0.0
  0
LINE
  5
84
330
1F
100
AcDbEntity
  8
TITLE
370
    50
100
AcDbLine
 10
45.5059791203
 20
0.5
 30
0.0
 11
69.5
 21
0.5
 31
0.0
  0
LINE
  5
85
330
1F
100
AcDbEntity
  8
TITLE
370
    50
100
AcDbLine
 10
69.4999317442
 20
5.4753603936
 30
0.0
 11
69.5
 21
0.5
 31
0.0
  0
LINE
  5
86
330
1F
100
AcDbEntity
  8
TITLE
  6
SLD-Solid
370
    18
100
AcDbLine
 10
0.4999606299
 20
25.0
 30
0.0
 11
0.5000393701
 21
25.0
 31
0.0
  0
LINE
  5
87
330
1F
100
AcDbEntity
  8
TITLE
370
    50
100
AcDbLine
 10
52.518223024
 20
3.5979636817
 30
0.0
 11
45.5059791203
 21
3.5979636817
 31
0.0
  0
LINE
  5
88
330
1F
100
AcDbEntity
  8
TITLE
370
    50
100
AcDbLine
 10
52.518223024
 20
3.5979636817
 30
0.0
 11
69.4997615643
 21
3.5979648343
 31
0.0
  0
LINE
  5
89
330
1F
100
AcDbEntity
  8
TITLE
370
    50
100
AcDbLine
 10
59.3105350723
 20
5.4753603936
 30
0.0
 11
59.3105350723
 21
0.4636772425
 31
0.0
  0
LINE
  5
8A
330
1F
100
AcDbEntity
  8
TITLE
  6
SLD-Solid
370
    18
100
AcDbLine
 10
35.0
 20
49.5000393701
 30
0.0
 11
35.0
 21
49.4999606299
 31
0.0
  0
LINE
  5
8B
330
1F
100
AcDbEntity
  8
TITLE
  6
SLD-Solid
370
    18
100
AcDbLine
 10
69.5000393701
 20
25.0
 30
0.0
 11
69.4999606299
 21
25.0
 31
0.0
  0
LINE
  5
8C
330
1F
100
AcDbEntity
  8
TITLE
  6
SLD-Solid
370
    18
100
AcDbLine
 10
35.0
 20
0.4999606299
 30
0.0
 11
35.0
 21
0.5000393701
 31
0.0
  0
LINE
  5
8D
330
1F
100
AcDbEntity
  8
TITLE
  6
SLD-Solid
370
    18
100
AcDbLine
 10
0.5
 20
3.3464566929
 30
0.0
 11
0.1653543307
 21
3.3464566929
 31
0.0
  0
LINE
  5
8E
330
1F
100
AcDbEntity
  8
TITLE
  6
SLD-Solid
370
    18
100
AcDbLine
 10
69.5
 20
3.3464566929
 30
0.0
 11
69.8346456693
 21
3.3464566929
 31
0.0
  0
LINE
  5
8F
330
1F
100
AcDbEntity
  8
TITLE
  6
SLD-Solid
370
    18
100
AcDbLine
 10
0.5
 20
5.3149606299
 30
0.0
 11
0.1653543307
 21
5.3149606299
 31
0.0
  0
LINE
  5
90
330
1F
100
AcDbEntity
  8
TITLE
  6
SLD-Solid
370
    18
100
AcDbLine
 10
69.5
 20
5.3149606299
 30
0.0
 11
69.8346456693
 21
5.3149606299
 31
0.0
  0
LINE
  5
91
330
1F
100
AcDbEntity
  8
TITLE
  6
SLD-Solid
370
    18
100
AcDbLine
 10
0.5
 20
7.2834645669
 30
0.0
 11
0.1653543307
 21
7.2834645669
 31
0.0
  0
LINE
  5
92
330
1F
100
AcDbEntity
  8
TITLE
  6
SLD-Solid
370
    18
100
AcDbLine
 10
69.5
 20
7.2834645669
 30
0.0
 11
69.8346456693
 21
7.2834645669
 31
0.0
  0
LINE
  5
93
330
1F
100
AcDbEntity
  8
TITLE
  6
SLD-Solid
370
    18
100
AcDbLine
 10
0.5
 20
9.2519685039
 30
0.0
 11
0.1653543307
 21
9.2519685039
 31
0.0
  0
LINE
  5
94
330
1F
100
AcDbEntity
  8
TITLE
  6
SLD-Solid
370
    18
100
AcDbLine
 10
69.5
 20
9.2519685039
 30
0.0
 11
69.8346456693
 21
9.2519685039
 31
0.0
  0
LINE
  5
95
330
1F
100
AcDbEntity
  8
TITLE
  6
SLD-Solid
370
    18
100
AcDbLine
 10
0.5
 20
11.2204724409
 30
0.0
 11
0.1653543307
 21
11.2204724409
 31
0.0
  0
LINE
  5
96
330
1F
100
AcDbEntity
  8
TITLE
  6
SLD-Solid
370
    18
100
AcDbLine
 10
69.5
 20
11.2204724409
 30
0.0
 11
69.8346456693
 21
11.2204724409
 31
0.0
  0
LINE
  5
97
330
1F
100
AcDbEntity
  8
TITLE
  6
SLD-Solid
370
    18
100
AcDbLine
 10
0.5
 20
13.188976378
 30
0.0
 11
0.1653543307
 21
13.188976378
 31
0.0
  0
LINE
  5
98
330
1F
100
AcDbEntity
  8
TITLE
  6
SLD-Solid
370
    18
100
AcDbLine
 10
69.5
 20
13.188976378
 30
0.0
 11
69.8346456693
 21
13.188976378
 31
0.0
  0
LINE
  5
99
330
1F
100
AcDbEntity
  8
TITLE
  6
SLD-Solid
370
    18
100
AcDbLine
 10
0.5
 20
15.157480315
 30
0.0
 11
0.1653543307
 21
15.157480315
 31
0.0
  0
LINE
  5
9A
330
1F
100
AcDbEntity
  8
TITLE
  6
SLD-Solid
370
    18
100
AcDbLine
 10
69.5
 20
15.157480315
 30
0.0
 11
69.8346456693
 21
15.157480315
 31
0.0
  0
LINE
  5
9B
330
1F
100
AcDbEntity
  8
TITLE
  6
SLD-Solid
370
    18
100
AcDbLine
 10
0.5
 20
17.125984252
 30
0.0
 11
0.1653543307
 21
17.125984252
 31
0.0
  0
LINE
  5
9C
330
1F
100
AcDbEntity
  8
TITLE
  6
SLD-Solid
370
    18
100
AcDbLine
 10
69.5
 20
17.125984252
 30
0.0
 11
69.8346456693
 21
17.125984252
 31
0.0
  0
LINE
  5
9D
330
1F
100
AcDbEntity
  8
TITLE
  6
SLD-Solid
370
    18
100
AcDbLine
 10
0.5
 20
19.094488189
 30
0.0
 11
0.1653543307
 21
19.094488189
 31
0.0
  0
LINE
  5
9E
330
1F
100
AcDbEntity
  8
TITLE
  6
SLD-Solid
370
    18
100
AcDbLine
 10
69.5
 20
19.094488189
 30
0.0
 11
69.8346456693
 21
19.094488189
 31
0.0
  0
LINE
  5
9F
330
1F
100
AcDbEntity
  8
TITLE
  6
SLD-Solid
370
    18
100
AcDbLine
 10
0.5
 20
21.062992126
 30
0.0
 11
0.1653543307
 21
21.062992126
 31
0.0
  0
LINE
  5
A0
330
1F
100
AcDbEntity
  8
TITLE
  6
SLD-Solid
370
    18
100
AcDbLine
 10
69.5
 20
21.062992126
 30
0.0
 11
69.8346456693
 21
21.062992126
 31
0.0
  0
LINE
  5
A1
330
1F
100
AcDbEntity
  8
TITLE
  6
SLD-Solid
370
    18
100
AcDbLine
 10
0.5
 20
23.031496063
 30
0.0
 11
0.1653543307
 21
23.031496063
 31
0.0
  0
LINE
  5
A2
330
1F
100
AcDbEntity
  8
TITLE
  6
SLD-Solid
370
    18
100
AcDbLine
 10
69.5
 20
23.031496063
 30
0.0
 11
69.8346456693
 21
23.031496063
 31
0.0
  0
LINE
  5
A3
330
1F
100
AcDbEntity
  8
TITLE
  6
SLD-Solid
370
    18
100
AcDbLine
 10
0.5
 20
25.0
 30
0.0
 11
0.1653543307
 21
25.0
 31
0.0
  0
LINE
  5
A4
330
1F
100
AcDbEntity
  8
TITLE
  6
SLD-Solid
370
    18
100
AcDbLine
 10
69.5
 20
25.0
 30
0.0
 11
69.8346456693
 21
25.0
 31
0.0
  0
LINE
  5
A5
330
1F
100
AcDbEntity
  8
TITLE
  6
SLD-Solid
370
    18
100
AcDbLine
 10
0.5
 20
26.968503937
 30
0.0
 11
0.1653543307
 21
26.968503937
 31
0.0
  0
LINE
  5
A6
330
1F
100
AcDbEntity
  8
TITLE
  6
SLD-Solid
370
    18
100
AcDbLine
 10
69.5
 20
26.968503937
 30
0.0
 11
69.8346456693
 21
26.968503937
 31
0.0
  0
LINE
  5
A7
330
1F
100
AcDbEntity
  8
TITLE
  6
SLD-Solid
370
    18
100
AcDbLine
 10
0.5
 20
28.937007874
 30
0.0
 11
0.1653543307
 21
28.937007874
 31
0.0
  0
LINE
  5
A8
330
1F
100
AcDbEntity
  8
TITLE
  6
SLD-Solid
370
    18
100
AcDbLine
 10
69.5
 20
28.937007874
 30
0.0
 11
69.8346456693
 21
28.937007874
 31
0.0
  0
LINE
  5
A9
330
1F
100
AcDbEntity
  8
TITLE
  6
SLD-Solid
370
    18
100
AcDbLine
 10
0.5
 20
30.905511811
 30
0.0
 11
0.1653543307
 21
30.905511811
 31
0.0
  0
LINE
  5
AA
330
1F
100
AcDbEntity
  8
TITLE
  6
SLD-Solid
370
    18
100
AcDbLine
 10
69.5
 20
30.905511811
 30
0.0
 11
69.8346456693
 21
30.905511811
 31
0.0
  0
LINE
  5
AB
330
1F
100
AcDbEntity
  8
TITLE
  6
SLD-Solid
370
    18
100
AcDbLine
 10
0.5
 20
32.874015748
 30
0.0
 11
0.1653543307
 21
32.874015748
 31
0.0
  0
LINE
  5
AC
330
1F
100
AcDbEntity
  8
TITLE
  6
SLD-Solid
370
    18
100
AcDbLine
 10
69.5
 20
32.874015748
 30
0.0
 11
69.8346456693
 21
32.874015748
 31
0.0
  0
LINE
  5
AD
330
1F
100
AcDbEntity
  8
TITLE
  6
SLD-Solid
370
    18
100
AcDbLine
 10
0.5
 20
34.842519685
 30
0.0
 11
0.1653543307
 21
34.842519685
 31
0.0
  0
LINE
  5
AE
330
1F
100
AcDbEntity
  8
TITLE
  6
SLD-Solid
370
    18
100
AcDbLine
 10
69.5
 20
34.842519685
 30
0.0
 11
69.8346456693
 21
34.842519685
 31
0.0
  0
LINE
  5
AF
330
1F
100
AcDbEntity
  8
TITLE
  6
SLD-Solid
370
    18
100
AcDbLine
 10
0.5
 20
36.811023622
 30
0.0
 11
0.1653543307
 21
36.811023622
 31
0.0
  0
LINE
  5
B0
330
1F
100
AcDbEntity
  8
TITLE
  6
SLD-Solid
370
    18
100
AcDbLine
 10
69.5
 20
36.811023622
 30
0.0
 11
69.8346456693
 21
36.811023622
 31
0.0
  0
LINE
  5
B1
330
1F
100
AcDbEntity
  8
TITLE
  6
SLD-Solid
370
    18
100
AcDbLine
 10
0.5
 20
38.7795275591
 30
0.0
 11
0.1653543307
 21
38.7795275591
 31
0.0
  0
LINE
  5
B2
330
1F
100
AcDbEntity
  8
TITLE
  6
SLD-Solid
370
    18
100
AcDbLine
 10
69.5
 20
38.7795275591
 30
0.0
 11
69.8346456693
 21
38.7795275591
 31
0.0
  0
LINE
  5
B3
330
1F
100
AcDbEntity
  8
TITLE
  6
SLD-Solid
370
    18
100
AcDbLine
 10
0.5
 20
40.7480314961
 30
0.0
 11
0.1653543307
 21
40.7480314961
 31
0.0
  0
LINE
  5
B4
330
1F
100
AcDbEntity
  8
TITLE
  6
SLD-Solid
370
    18
100
AcDbLine
 10
69.5
 20
40.7480314961
 30
0.0
 11
69.8346456693
 21
40.7480314961
 31
0.0
  0
LINE
  5
B5
330
1F
100
AcDbEntity
  8
TITLE
  6
SLD-Solid
370
    18
100
AcDbLine
 10
0.5
 20
42.7165354331
 30
0.0
 11
0.1653543307
 21
42.7165354331
 31
0.0
  0
LINE
  5
B6
330
1F
100
AcDbEntity
  8
TITLE
  6
SLD-Solid
370
    18
100
AcDbLine
 10
69.5
 20
42.7165354331
 30
0.0
 11
69.8346456693
 21
42.7165354331
 31
0.0
  0
LINE
  5
B7
330
1F
100
AcDbEntity
  8
TITLE
  6
SLD-Solid
370
    18
100
AcDbLine
 10
0.5
 20
44.6850393701
 30
0.0
 11
0.1653543307
 21
44.6850393701
 31
0.0
  0
LINE
  5
B8
330
1F
100
AcDbEntity
  8
TITLE
  6
SLD-Solid
370
    18
100
AcDbLine
 10
69.5
 20
44.6850393701
 30
0.0
 11
69.8346456693
 21
44.6850393701
 31
0.0
  0
LINE
  5
B9
330
1F
100
AcDbEntity
  8
TITLE
  6
SLD-Solid
370
    18
100
AcDbLine
 10
0.5
 20
46.6535433071
 30
0.0
 11
0.1653543307
 21
46.6535433071
 31
0.0
  0
LINE
  5
BA
330
1F
100
AcDbEntity
  8
TITLE
  6
SLD-Solid
370
    18
100
AcDbLine
 10
69.5
 20
46.6535433071
 30
0.0
 11
69.8346456693
 21
46.6535433071
 31
0.0
  0
LINE
  5
BB
330
1F
100
AcDbEntity
  8
TITLE
  6
SLD-Solid
370
    18
100
AcDbLine
 10
1.5354330709
 20
49.5
 30
0.0
 11
1.5354330709
 21
49.8346456693
 31
0.0
  0
LINE
  5
BC
330
1F
100
AcDbEntity
  8
TITLE
  6
SLD-Solid
370
    18
100
AcDbLine
 10
1.5354330709
 20
0.5
 30
0.0
 11
1.5354330709
 21
0.1653543307
 31
0.0
  0
LINE
  5
BD
330
1F
100
AcDbEntity
  8
TITLE
  6
SLD-Solid
370
    18
100
AcDbLine
 10
3.5039370079
 20
49.5
 30
0.0
 11
3.5039370079
 21
49.8346456693
 31
0.0
  0
LINE
  5
BE
330
1F
100
AcDbEntity
  8
TITLE
  6
SLD-Solid
370
    18
100
AcDbLine
 10
3.5039370079
 20
0.5
 30
0.0
 11
3.5039370079
 21
0.1653543307
 31
0.0
  0
LINE
  5
BF
330
1F
100
AcDbEntity
  8
TITLE
  6
SLD-Solid
370
    18
100
AcDbLine
 10
5.4724409449
 20
49.5
 30
0.0
 11
5.4724409449
 21
49.8346456693
 31
0.0
  0
LINE
  5
C0
330
1F
100
AcDbEntity
  8
TITLE
  6
SLD-Solid
370
    18
100
AcDbLine
 10
5.4724409449
 20
0.5
 30
0.0
 11
5.4724409449
 21
0.1653543307
 31
0.0
  0
LINE
  5
C1
330
1F
100
AcDbEntity
  8
TITLE
  6
SLD-Solid
370
    18
100
AcDbLine
 10
7.4409448819
 20
49.5
 30
0.0
 11
7.4409448819
 21
49.8346456693
 31
0.0
  0
LINE
  5
C2
330
1F
100
AcDbEntity
  8
TITLE
  6
SLD-Solid
370
    18
100
AcDbLine
 10
7.4409448819
 20
0.5
 30
0.0
 11
7.4409448819
 21
0.1653543307
 31
0.0
  0
LINE
  5
C3
330
1F
100
AcDbEntity
  8
TITLE
  6
SLD-Solid
370
    18
100
AcDbLine
 10
9.4094488189
 20
49.5
 30
0.0
 11
9.4094488189
 21
49.8346456693
 31
0.0
  0
LINE
  5
C4
330
1F
100
AcDbEntity
  8
TITLE
  6
SLD-Solid
370
    18
100
AcDbLine
 10
9.4094488189
 20
0.5
 30
0.0
 11
9.4094488189
 21
0.1653543307
 31
0.0
  0
LINE
  5
C5
330
1F
100
AcDbEntity
  8
TITLE
  6
SLD-Solid
370
    18
100
AcDbLine
 10
11.3779527559
 20
49.5
 30
0.0
 11
11.3779527559
 21
49.8346456693
 31
0.0
  0
LINE
  5
C6
330
1F
100
AcDbEntity
  8
TITLE
  6
SLD-Solid
370
    18
100
AcDbLine
 10
11.3779527559
 20
0.5
 30
0.0
 11
11.3779527559
 21
0.1653543307
 31
0.0
  0
LINE
  5
C7
330
1F
100
AcDbEntity
  8
TITLE
  6
SLD-Solid
370
    18
100
AcDbLine
 10
13.3464566929
 20
49.5
 30
0.0
 11
13.3464566929
 21
49.8346456693
 31
0.0
  0
LINE
  5
C8
330
1F
100
AcDbEntity
  8
TITLE
  6
SLD-Solid
370
    18
100
AcDbLine
 10
13.3464566929
 20
0.5
 30
0.0
 11
13.3464566929
 21
0.1653543307
 31
0.0
  0
LINE
  5
C9
330
1F
100
AcDbEntity
  8
TITLE
  6
SLD-Solid
370
    18
100
AcDbLine
 10
15.3149606299
 20
49.5
 30
0.0
 11
15.3149606299
 21
49.8346456693
 31
0.0
  0
LINE
  5
CA
330
1F
100
AcDbEntity
  8
TITLE
  6
SLD-Solid
370
    18
100
AcDbLine
 10
15.3149606299
 20
0.5
 30
0.0
 11
15.3149606299
 21
0.1653543307
 31
0.0
  0
LINE
  5
CB
330
1F
100
AcDbEntity
  8
TITLE
  6
SLD-Solid
370
    18
100
AcDbLine
 10
17.2834645669
 20
49.5
 30
0.0
 11
17.2834645669
 21
49.8346456693
 31
0.0
  0
LINE
  5
CC
330
1F
100
AcDbEntity
  8
TITLE
  6
SLD-Solid
370
    18
100
AcDbLine
 10
17.2834645669
 20
0.5
 30
0.0
 11
17.2834645669
 21
0.1653543307
 31
0.0
  0
LINE
  5
CD
330
1F
100
AcDbEntity
  8
TITLE
  6
SLD-Solid
370
    18
100
AcDbLine
 10
19.2519685039
 20
49.5
 30
0.0
 11
19.2519685039
 21
49.8346456693
 31
0.0
  0
LINE
  5
CE
330
1F
100
AcDbEntity
  8
TITLE
  6
SLD-Solid
370
    18
100
AcDbLine
 10
19.2519685039
 20
0.5
 30
0.0
 11
19.2519685039
 21
0.1653543307
 31
0.0
  0
LINE
  5
CF
330
1F
100
AcDbEntity
  8
TITLE
  6
SLD-Solid
370
    18
100
AcDbLine
 10
21.2204724409
 20
49.5
 30
0.0
 11
21.2204724409
 21
49.8346456693
 31
0.0
  0
LINE
  5
D0
330
1F
100
AcDbEntity
  8
TITLE
  6
SLD-Solid
370
    18
100
AcDbLine
 10
21.2204724409
 20
0.5
 30
0.0
 11
21.2204724409
 21
0.1653543307
 31
0.0
  0
LINE
  5
D1
330
1F
100
AcDbEntity
  8
TITLE
  6
SLD-Solid
370
    18
100
AcDbLine
 10
23.188976378
 20
49.5
 30
0.0
 11
23.188976378
 21
49.8346456693
 31
0.0
  0
LINE
  5
D2
330
1F
100
AcDbEntity
  8
TITLE
  6
SLD-Solid
370
    18
100
AcDbLine
 10
23.188976378
 20
0.5
 30
0.0
 11
23.188976378
 21
0.1653543307
 31
0.0
  0
LINE
  5
D3
330
1F
100
AcDbEntity
  8
TITLE
  6
SLD-Solid
370
    18
100
AcDbLine
 10
25.157480315
 20
49.5
 30
0.0
 11
25.157480315
 21
49.8346456693
 31
0.0
  0
LINE
  5
D4
330
1F
100
AcDbEntity
  8
TITLE
  6
SLD-Solid
370
    18
100
AcDbLine
 10
25.157480315
 20
0.5
 30
0.0
 11
25.157480315
 21
0.1653543307
 31
0.0
  0
LINE
  5
D5
330
1F
100
AcDbEntity
  8
TITLE
  6
SLD-Solid
370
    18
100
AcDbLine
 10
27.125984252
 20
49.5
 30
0.0
 11
27.125984252
 21
49.8346456693
 31
0.0
  0
LINE
  5
D6
330
1F
100
AcDbEntity
  8
TITLE
  6
SLD-Solid
370
    18
100
AcDbLine
 10
27.125984252
 20
0.5
 30
0.0
 11
27.125984252
 21
0.1653543307
 31
0.0
  0
LINE
  5
D7
330
1F
100
AcDbEntity
  8
TITLE
  6
SLD-Solid
370
    18
100
AcDbLine
 10
29.094488189
 20
49.5
 30
0.0
 11
29.094488189
 21
49.8346456693
 31
0.0
  0
LINE
  5
D8
330
1F
100
AcDbEntity
  8
TITLE
  6
SLD-Solid
370
    18
100
AcDbLine
 10
29.094488189
 20
0.5
 30
0.0
 11
29.094488189
 21
0.1653543307
 31
0.0
  0
LINE
  5
D9
330
1F
100
AcDbEntity
  8
TITLE
  6
SLD-Solid
370
    18
100
AcDbLine
 10
31.062992126
 20
49.5
 30
0.0
 11
31.062992126
 21
49.8346456693
 31
0.0
  0
LINE
  5
DA
330
1F
100
AcDbEntity
  8
TITLE
  6
SLD-Solid
370
    18
100
AcDbLine
 10
31.062992126
 20
0.5
 30
0.0
 11
31.062992126
 21
0.1653543307
 31
0.0
  0
LINE
  5
DB
330
1F
100
AcDbEntity
  8
TITLE
  6
SLD-Solid
370
    18
100
AcDbLine
 10
33.031496063
 20
49.5
 30
0.0
 11
33.031496063
 21
49.8346456693
 31
0.0
  0
LINE
  5
DC
330
1F
100
AcDbEntity
  8
TITLE
  6
SLD-Solid
370
    18
100
AcDbLine
 10
33.031496063
 20
0.5
 30
0.0
 11
33.031496063
 21
0.1653543307
 31
0.0
  0
LINE
  5
DD
330
1F
100
AcDbEntity
  8
TITLE
  6
SLD-Solid
370
    18
100
AcDbLine
 10
35.0
 20
49.5
 30
0.0
 11
35.0
 21
49.8346456693
 31
0.0
  0
LINE
  5
DE
330
1F
100
AcDbEntity
  8
TITLE
  6
SLD-Solid
370
    18
100
AcDbLine
 10
35.0
 20
0.5
 30
0.0
 11
35.0
 21
0.1653543307
 31
0.0
  0
LINE
  5
DF
330
1F
100
AcDbEntity
  8
TITLE
  6
SLD-Solid
370
    18
100
AcDbLine
 10
36.968503937
 20
49.5
 30
0.0
 11
36.968503937
 21
49.8346456693
 31
0.0
  0
LINE
  5
E0
330
1F
100
AcDbEntity
  8
TITLE
  6
SLD-Solid
370
    18
100
AcDbLine
 10
36.968503937
 20
0.5
 30
0.0
 11
36.968503937
 21
0.1653543307
 31
0.0
  0
LINE
  5
E1
330
1F
100
AcDbEntity
  8
TITLE
  6
SLD-Solid
370
    18
100
AcDbLine
 10
38.937007874
 20
49.5
 30
0.0
 11
38.937007874
 21
49.8346456693
 31
0.0
  0
LINE
  5
E2
330
1F
100
AcDbEntity
  8
TITLE
  6
SLD-Solid
370
    18
100
AcDbLine
 10
38.937007874
 20
0.5
 30
0.0
 11
38.937007874
 21
0.1653543307
 31
0.0
  0
LINE
  5
E3
330
1F
100
AcDbEntity
  8
TITLE
  6
SLD-Solid
370
    18
100
AcDbLine
 10
40.905511811
 20
49.5
 30
0.0
 11
40.905511811
 21
49.8346456693
 31
0.0
  0
LINE
  5
E4
330
1F
100
AcDbEntity
  8
TITLE
  6
SLD-Solid
370
    18
100
AcDbLine
 10
40.905511811
 20
0.5
 30
0.0
 11
40.905511811
 21
0.1653543307
 31
0.0
  0
LINE
  5
E5
330
1F
100
AcDbEntity
  8
TITLE
  6
SLD-Solid
370
    18
100
AcDbLine
 10
42.874015748
 20
49.5
 30
0.0
 11
42.874015748
 21
49.8346456693
 31
0.0
  0
LINE
  5
E6
330
1F
100
AcDbEntity
  8
TITLE
  6
SLD-Solid
370
    18
100
AcDbLine
 10
42.874015748
 20
0.5
 30
0.0
 11
42.874015748
 21
0.1653543307
 31
0.0
  0
LINE
  5
E7
330
1F
100
AcDbEntity
  8
TITLE
  6
SLD-Solid
370
    18
100
AcDbLine
 10
44.842519685
 20
49.5
 30
0.0
 11
44.842519685
 21
49.8346456693
 31
0.0
  0
LINE
  5
E8
330
1F
100
AcDbEntity
  8
TITLE
  6
SLD-Solid
370
    18
100
AcDbLine
 10
44.842519685
 20
0.5
 30
0.0
 11
44.842519685
 21
0.1653543307
 31
0.0
  0
LINE
  5
E9
330
1F
100
AcDbEntity
  8
TITLE
  6
SLD-Solid
370
    18
100
AcDbLine
 10
46.811023622
 20
49.5
 30
0.0
 11
46.811023622
 21
49.8346456693
 31
0.0
  0
LINE
  5
EA
330
1F
100
AcDbEntity
  8
TITLE
  6
SLD-Solid
370
    18
100
AcDbLine
 10
46.811023622
 20
0.5
 30
0.0
 11
46.811023622
 21
0.1653543307
 31
0.0
  0
LINE
  5
EB
330
1F
100
AcDbEntity
  8
TITLE
  6
SLD-Solid
370
    18
100
AcDbLine
 10
48.7795275591
 20
49.5
 30
0.0
 11
48.7795275591
 21
49.8346456693
 31
0.0
  0
LINE
  5
EC
330
1F
100
AcDbEntity
  8
TITLE
  6
SLD-Solid
370
    18
100
AcDbLine
 10
48.7795275591
 20
0.5
 30
0.0
 11
48.7795275591
 21
0.1653543307
 31
0.0
  0
LINE
  5
ED
330
1F
100
AcDbEntity
  8
TITLE
  6
SLD-Solid
370
    18
100
AcDbLine
 10
50.7480314961
 20
49.5
 30
0.0
 11
50.7480314961
 21
49.8346456693
 31
0.0
  0
LINE
  5
EE
330
1F
100
AcDbEntity
  8
TITLE
  6
SLD-Solid
370
    18
100
AcDbLine
 10
50.7480314961
 20
0.5
 30
0.0
 11
50.7480314961
 21
0.1653543307
 31
0.0
  0
LINE
  5
EF
330
1F
100
AcDbEntity
  8
TITLE
  6
SLD-Solid
370
    18
100
AcDbLine
 10
52.7165354331
 20
49.5
 30
0.0
 11
52.7165354331
 21
49.8346456693
 31
0.0
  0
LINE
  5
F0
330
1F
100
AcDbEntity
  8
TITLE
  6
SLD-Solid
370
    18
100
AcDbLine
 10
52.7165354331
 20
0.5
 30
0.0
 11
52.7165354331
 21
0.1653543307
 31
0.0
  0
LINE
  5
F1
330
1F
100
AcDbEntity
  8
TITLE
  6
SLD-Solid
370
    18
100
AcDbLine
 10
54.6850393701
 20
49.5
 30
0.0
 11
54.6850393701
 21
49.8346456693
 31
0.0
  0
LINE
  5
F2
330
1F
100
AcDbEntity
  8
TITLE
  6
SLD-Solid
370
    18
100
AcDbLine
 10
54.6850393701
 20
0.5
 30
0.0
 11
54.6850393701
 21
0.1653543307
 31
0.0
  0
LINE
  5
F3
330
1F
100
AcDbEntity
  8
TITLE
  6
SLD-Solid
370
    18
100
AcDbLine
 10
56.6535433071
 20
49.5
 30
0.0
 11
56.6535433071
 21
49.8346456693
 31
0.0
  0
LINE
  5
F4
330
1F
100
AcDbEntity
  8
TITLE
  6
SLD-Solid
370
    18
100
AcDbLine
 10
56.6535433071
 20
0.5
 30
0.0
 11
56.6535433071
 21
0.1653543307
 31
0.0
  0
LINE
  5
F5
330
1F
100
AcDbEntity
  8
TITLE
  6
SLD-Solid
370
    18
100
AcDbLine
 10
58.6220472441
 20
49.5
 30
0.0
 11
58.6220472441
 21
49.8346456693
 31
0.0
  0
LINE
  5
F6
330
1F
100
AcDbEntity
  8
TITLE
  6
SLD-Solid
370
    18
100
AcDbLine
 10
58.6220472441
 20
0.5
 30
0.0
 11
58.6220472441
 21
0.1653543307
 31
0.0
  0
LINE
  5
F7
330
1F
100
AcDbEntity
  8
TITLE
  6
SLD-Solid
370
    18
100
AcDbLine
 10
60.5905511811
 20
49.5
 30
0.0
 11
60.5905511811
 21
49.8346456693
 31
0.0
  0
LINE
  5
F8
330
1F
100
AcDbEntity
  8
TITLE
  6
SLD-Solid
370
    18
100
AcDbLine
 10
60.5905511811
 20
0.5
 30
0.0
 11
60.5905511811
 21
0.1653543307
 31
0.0
  0
LINE
  5
F9
330
1F
100
AcDbEntity
  8
TITLE
  6
SLD-Solid
370
    18
100
AcDbLine
 10
62.5590551181
 20
49.5
 30
0.0
 11
62.5590551181
 21
49.8346456693
 31
0.0
  0
LINE
  5
FA
330
1F
100
AcDbEntity
  8
TITLE
  6
SLD-Solid
370
    18
100
AcDbLine
 10
62.5590551181
 20
0.5
 30
0.0
 11
62.5590551181
 21
0.1653543307
 31
0.0
  0
LINE
  5
FB
330
1F
100
AcDbEntity
  8
TITLE
  6
SLD-Solid
370
    18
100
AcDbLine
 10
64.5275590551
 20
49.5
 30
0.0
 11
64.5275590551
 21
49.8346456693
 31
0.0
  0
LINE
  5
FC
330
1F
100
AcDbEntity
  8
TITLE
  6
SLD-Solid
370
    18
100
AcDbLine
 10
64.5275590551
 20
0.5
 30
0.0
 11
64.5275590551
 21
0.1653543307
 31
0.0
  0
LINE
  5
FD
330
1F
100
AcDbEntity
  8
TITLE
  6
SLD-Solid
370
    18
100
AcDbLine
 10
66.4960629921
 20
49.5
 30
0.0
 11
66.4960629921
 21
49.8346456693
 31
0.0
  0
LINE
  5
FE
330
1F
100
AcDbEntity
  8
TITLE
  6
SLD-Solid
370
    18
100
AcDbLine
 10
66.4960629921
 20
0.5
 30
0.0
 11
66.4960629921
 21
0.1653543307
 31
0.0
  0
LINE
  5
FF
330
1F
100
AcDbEntity
  8
TITLE
  6
SLD-Solid
370
    18
100
AcDbLine
 10
68.4645669291
 20
49.5
 30
0.0
 11
68.4645669291
 21
49.8346456693
 31
0.0
  0
LINE
  5
100
330
1F
100
AcDbEntity
  8
TITLE
  6
SLD-Solid
370
    18
100
AcDbLine
 10
68.4645669291
 20
0.5
 30
0.0
 11
68.4645669291
 21
0.1653543307
 31
0.0
  0
MTEXT
  5
102
330
1F
100
AcDbEntity
  8
NOTES
100
AcDbMText
 10
46.408297803
 20
1.0702903347
 30
0.0
 40
0.25
 41
0.0
 71
     1
 72
     1
  1
UNLESS OTHERWISE SPECIFIED DIMENSIONS ARE IN INCHES.
  7
SLDTEXTSTYLE0
 73
     1
 44
1.0
  0
MTEXT
  5
103
330
1F
100
AcDbEntity
  8
NOTES
100
AcDbMText
 10
46.4300699279
 20
3.0830627776
 30
0.0
 40
0.25
 41
0.0
 71
     1
 72
     1
  1
DATE:
  7
SLDTEXTSTYLE0
 73
     1
 44
1.0
  0
MTEXT
  5
104
330
1F
100
AcDbEntity
  8
NOTES
100
AcDbMText
 10
48.538701188
 20
2.1930329637
 30
0.0
 40
0.25
 41
0.0
 71
     2
 72
     1
  1
DO NOT SCALE DRAWING
  7
SLDTEXTSTYLE0
 73
     1
 44
1.0
  0
MTEXT
  5
106
330
1F
100
AcDbEntity
  8
NOTES
100
AcDbMText
 10
52.8307373075
 20
3.2682755553
 30
0.0
 40
0.25
 41
0.0
 71
     1
 72
     1
  1
TITLE:
  7
SLDTEXTSTYLE1
 73
     1
 44
1.0
  0
MTEXT
  5
107
330
1F
100
AcDbEntity
  8
NOTES
100
AcDbMText
 10
60.1561831052
 20
3.2682755553
 30
0.0
 40
0.25
 41
0.0
 71
     1
 72
     1
  1
DWG NO.
  7
SLDTEXTSTYLE1
 73
     1
 44
1.0
  0
MTEXT
  5
108
330
1F
100
AcDbEntity
  8
NOTES
100
AcDbMText
 10
60.1831753203
 20
1.0645815577
 30
0.0
 40
0.25
 41
0.0
 71
     1
 72
     1
  1
SCALE:     1:1
  7
SLDTEXTSTYLE1
 73
     1
 44
1.0
  0
MTEXT
  5
109
330
1F
100
AcDbEntity
  8
NOTES
100
AcDbMText
 10
64.1868183945
 20
2.6510344295
 30
0.0
 40
0.25
 41
0.0
 71
     2
 72
     1
  1
158 - 10 CAD
  7
SLDTEXTSTYLE1
 73
     1
 44
1.0
  0
MTEXT
  5
10A
330
1F
100
AcDbEntity
  8
NOTES
100
AcDbMText
 10
56.4669262962
 20
2.6510344295
 30
0.0
 40
0.25
 41
0.0
 71
     2
 72
     1
  1
158-10 Dispenser With Shelf
  7
SLDTEXTSTYLE1
 73
     1
 44
1.0
  0
INSERT
  5
110
330
1F
100
AcDbEntity
  8
NOTES
100
AcDbBlockReference
  2
SW_NOTE_0
 10
60.266131557
 20
4.6105227838
 30
0.0
  0
INSERT
  5
11A
330
1F
100
AcDbEntity
  8
NOTES
100
AcDbBlockReference
  2
SW_NOTE_0_1
 10
46.6159726246
 20
5.1481526848
 30
0.0
  0
MTEXT
  5
11B
330
1F
100
AcDbEntity
  8
NOTES
100
AcDbMText
 10
49.4980498057
 20
3.0864733268
 30
0.0
 40
0.25
 41
0.0
 71
     2
 72
     1
  1
August 17, 2021
  7
SLDTEXTSTYLE1
 73
     1
 44
1.0
  0
MTEXT
  5
11C
330
1F
100
AcDbEntity
  8
TITLE
100
AcDbMText
 10
0.3276279776
 20
2.003106291
 30
0.0
 40
0.125
 41
0.0
 71
     2
 72
     1
  1
A
  7
SLDTEXTSTYLE1
 73
     1
 44
1.0
  0
MTEXT
  5
11D
330
1F
100
AcDbEntity
  8
TITLE
100
AcDbMText
 10
69.6622736469
 20
2.003106291
 30
0.0
 40
0.125
 41
0.0
 71
     2
 72
     1
  1
A
  7
SLDTEXTSTYLE1
 73
     1
 44
1.0
  0
MTEXT
  5
11E
330
1F
100
AcDbEntity
  8
TITLE
100
AcDbMText
 10
0.3317512413
 20
4.4105866059
 30
0.0
 40
0.125
 41
0.0
 71
     2
 72
     1
  1
B
  7
SLDTEXTSTYLE1
 73
     1
 44
1.0
  0
MTEXT
  5
11F
330
1F
100
AcDbEntity
  8
TITLE
100
AcDbMText
 10
69.6663969106
 20
4.4105866059
 30
0.0
 40
0.125
 41
0.0
 71
     2
 72
     1
  1
B
  7
SLDTEXTSTYLE1
 73
     1
 44
1.0
  0
MTEXT
  5
120
330
1F
100
AcDbEntity
  8
TITLE
100
AcDbMText
 10
0.3313750817
 20
6.3790905429
 30
0.0
 40
0.125
 41
0.0
 71
     2
 72
     1
  1
C
  7
SLDTEXTSTYLE1
 73
     1
 44
1.0
  0
MTEXT
  5
121
330
1F
100
AcDbEntity
  8
TITLE
100
AcDbMText
 10
69.666020751
 20
6.3790905429
 30
0.0
 40
0.125
 41
0.0
 71
     2
 72
     1
  1
C
  7
SLDTEXTSTYLE1
 73
     1
 44
1.0
  0
MTEXT
  5
122
330
1F
100
AcDbEntity
  8
TITLE
100
AcDbMText
 10
0.3311870028
 20
8.34759448
 30
0.0
 40
0.125
 41
0.0
 71
     2
 72
     1
  1
D
  7
SLDTEXTSTYLE1
 73
     1
 44
1.0
  0
MTEXT
  5
123
330
1F
100
AcDbEntity
  8
TITLE
100
AcDbMText
 10
69.6658326721
 20
8.34759448
 30
0.0
 40
0.125
 41
0.0
 71
     2
 72
     1
  1
D
  7
SLDTEXTSTYLE1
 73
     1
 44
1.0
  0
MTEXT
  5
124
330
1F
100
AcDbEntity
  8
TITLE
100
AcDbMText
 10
0.332923116
 20
10.316098417
 30
0.0
 40
0.125
 41
0.0
 71
     2
 72
     1
  1
E
  7
SLDTEXTSTYLE1
 73
     1
 44
1.0
  0
MTEXT
  5
125
330
1F
100
AcDbEntity
  8
TITLE
100
AcDbMText
 10
69.6675687853
 20
10.316098417
 30
0.0
 40
0.125
 41
0.0
 71
     2
 72
     1
  1
E
  7
SLDTEXTSTYLE1
 73
     1
 44
1.0
  0
MTEXT
  5
126
330
1F
100
AcDbEntity
  8
TITLE
100
AcDbMText
 10
0.3313461474
 20
12.284602354
 30
0.0
 40
0.125
 41
0.0
 71
     2
 72
     1
  1
F
  7
SLDTEXTSTYLE1
 73
     1
 44
1.0
  0
MTEXT
  5
127
330
1F
100
AcDbEntity
  8
TITLE
100
AcDbMText
 10
69.6659918167
 20
12.284602354
 30
0.0
 40
0.125
 41
0.0
 71
     2
 72
     1
  1
F
  7
SLDTEXTSTYLE1
 73
     1
 44
1.0
  0
MTEXT
  5
128
330
1F
100
AcDbEntity
  8
TITLE
100
AcDbMText
 10
0.3322576054
 20
14.253106291
 30
0.0
 40
0.125
 41
0.0
 71
     2
 72
     1
  1
G
  7
SLDTEXTSTYLE1
 73
     1
 44
1.0
  0
MTEXT
  5
129
330
1F
100
AcDbEntity
  8
TITLE
100
AcDbMText
 10
69.6669032747
 20
14.253106291
 30
0.0
 40
0.125
 41
0.0
 71
     2
 72
     1
  1
G
  7
SLDTEXTSTYLE1
 73
     1
 44
1.0
  0
MTEXT
  5
12A
330
1F
100
AcDbEntity
  8
TITLE
100
AcDbMText
 10
0.3323733457
 20
16.221610228
 30
0.0
 40
0.125
 41
0.0
 71
     2
 72
     1
  1
H
  7
SLDTEXTSTYLE1
 73
     1
 44
1.0
  0
MTEXT
  5
12B
330
1F
100
AcDbEntity
  8
TITLE
100
AcDbMText
 10
69.667019015
 20
16.221610228
 30
0.0
 40
0.125
 41
0.0
 71
     2
 72
     1
  1
H
  7
SLDTEXTSTYLE1
 73
     1
 44
1.0
  0
MTEXT
  5
12C
330
1F
100
AcDbEntity
  8
TITLE
100
AcDbMText
 10
0.3315776306
 20
18.190114165
 30
0.0
 40
0.125
 41
0.0
 71
     2
 72
     1
  1
J
  7
SLDTEXTSTYLE1
 73
     1
 44
1.0
  0
MTEXT
  5
12D
330
1F
100
AcDbEntity
  8
TITLE
100
AcDbMText
 10
69.6662232999
 20
18.190114165
 30
0.0
 40
0.125
 41
0.0
 71
     2
 72
     1
  1
J
  7
SLDTEXTSTYLE1
 73
     1
 44
1.0
  0
MTEXT
  5
12E
330
1F
100
AcDbEntity
  8
TITLE
100
AcDbMText
 10
0.3323154765
 20
20.158618102
 30
0.0
 40
0.125
 41
0.0
 71
     2
 72
     1
  1
K
  7
SLDTEXTSTYLE1
 73
     1
 44
1.0
  0
MTEXT
  5
12F
330
1F
100
AcDbEntity
  8
TITLE
100
AcDbMText
 10
69.6669611458
 20
20.158618102
 30
0.0
 40
0.125
 41
0.0
 71
     2
 72
     1
  1
K
  7
SLDTEXTSTYLE1
 73
     1
 44
1.0
  0
MTEXT
  5
130
330
1F
100
AcDbEntity
  8
TITLE
100
AcDbMText
 10
0.3312448739
 20
22.127122039
 30
0.0
 40
0.125
 41
0.0
 71
     2
 72
     1
  1
L
  7
SLDTEXTSTYLE1
 73
     1
 44
1.0
  0
MTEXT
  5
131
330
1F
100
AcDbEntity
  8
TITLE
100
AcDbMText
 10
69.6658905432
 20
22.127122039
 30
0.0
 40
0.125
 41
0.0
 71
     2
 72
     1
  1
L
  7
SLDTEXTSTYLE1
 73
     1
 44
1.0
  0
MTEXT
  5
132
330
1F
100
AcDbEntity
  8
TITLE
100
AcDbMText
 10
0.3283224192
 20
24.095625976
 30
0.0
 40
0.125
 41
0.0
 71
     2
 72
     1
  1
M
  7
SLDTEXTSTYLE1
 73
     1
 44
1.0
  0
MTEXT
  5
133
330
1F
100
AcDbEntity
  8
TITLE
100
AcDbMText
 10
69.6629680885
 20
24.095625976
 30
0.0
 40
0.125
 41
0.0
 71
     2
 72
     1
  1
M
  7
SLDTEXTSTYLE1
 73
     1
 44
1.0
  0
MTEXT
  5
134
330
1F
100
AcDbEntity
  8
TITLE
100
AcDbMText
 10
0.3315342276
 20
26.064129913
 30
0.0
 40
0.125
 41
0.0
 71
     2
 72
     1
  1
N
  7
SLDTEXTSTYLE1
 73
     1
 44
1.0
  0
MTEXT
  5
135
330
1F
100
AcDbEntity
  8
TITLE
100
AcDbMText
 10
69.6661798969
 20
26.064129913
 30
0.0
 40
0.125
 41
0.0
 71
     2
 72
     1
  1
N
  7
SLDTEXTSTYLE1
 73
     1
 44
1.0
  0
MTEXT
  5
136
330
1F
100
AcDbEntity
  8
TITLE
100
AcDbMText
 10
0.3321997349
 20
28.03263385
 30
0.0
 40
0.125
 41
0.0
 71
     2
 72
     1
  1
P
  7
SLDTEXTSTYLE1
 73
     1
 44
1.0
  0
MTEXT
  5
137
330
1F
100
AcDbEntity
  8
TITLE
100
AcDbMText
 10
69.6668454042
 20
28.03263385
 30
0.0
 40
0.125
 41
0.0
 71
     2
 72
     1
  1
P
  7
SLDTEXTSTYLE1
 73
     1
 44
1.0
  0
MTEXT
  5
138
330
1F
100
AcDbEntity
  8
TITLE
100
AcDbMText
 10
0.3309265867
 20
30.001137787
 30
0.0
 40
0.125
 41
0.0
 71
     2
 72
     1
  1
R
  7
SLDTEXTSTYLE1
 73
     1
 44
1.0
  0
MTEXT
  5
139
330
1F
100
AcDbEntity
  8
TITLE
100
AcDbMText
 10
69.665572256
 20
30.001137787
 30
0.0
 40
0.125
 41
0.0
 71
     2
 72
     1
  1
R
  7
SLDTEXTSTYLE1
 73
     1
 44
1.0
  0
MTEXT
  5
13A
330
1F
100
AcDbEntity
  8
TITLE
100
AcDbMText
 10
0.3323010071
 20
31.969641724
 30
0.0
 40
0.125
 41
0.0
 71
     2
 72
     1
  1
T
  7
SLDTEXTSTYLE1
 73
     1
 44
1.0
  0
MTEXT
  5
13B
330
1F
100
AcDbEntity
  8
TITLE
100
AcDbMText
 10
69.6669466764
 20
31.969641724
 30
0.0
 40
0.125
 41
0.0
 71
     2
 72
     1
  1
T
  7
SLDTEXTSTYLE1
 73
     1
 44
1.0
  0
MTEXT
  5
13C
330
1F
100
AcDbEntity
  8
TITLE
100
AcDbMText
 10
0.3328507755
 20
33.9381456611
 30
0.0
 40
0.125
 41
0.0
 71
     2
 72
     1
  1
U
  7
SLDTEXTSTYLE1
 73
     1
 44
1.0
  0
MTEXT
  5
13D
330
1F
100
AcDbEntity
  8
TITLE
100
AcDbMText
 10
69.6674964448
 20
33.9381456611
 30
0.0
 40
0.125
 41
0.0
 71
     2
 72
     1
  1
U
  7
SLDTEXTSTYLE1
 73
     1
 44
1.0
  0
MTEXT
  5
13E
330
1F
100
AcDbEntity
  8
TITLE
100
AcDbMText
 10
0.3307529773
 20
35.9066495981
 30
0.0
 40
0.125
 41
0.0
 71
     2
 72
     1
  1
V
  7
SLDTEXTSTYLE1
 73
     1
 44
1.0
  0
MTEXT
  5
13F
330
1F
100
AcDbEntity
  8
TITLE
100
AcDbMText
 10
69.6653986466
 20
35.9066495981
 30
0.0
 40
0.125
 41
0.0
 71
     2
 72
     1
  1
V
  7
SLDTEXTSTYLE1
 73
     1
 44
1.0
  0
MTEXT
  5
140
330
1F
100
AcDbEntity
  8
TITLE
100
AcDbMText
 10
0.3327784409
 20
37.8751535351
 30
0.0
 40
0.125
 41
0.0
 71
     2
 72
     1
  1
W
  7
SLDTEXTSTYLE1
 73
     1
 44
1.0
  0
MTEXT
  5
141
330
1F
100
AcDbEntity
  8
TITLE
100
AcDbMText
 10
69.6674241102
 20
37.8751535351
 30
0.0
 40
0.125
 41
0.0
 71
     2
 72
     1
  1
W
  7
SLDTEXTSTYLE1
 73
     1
 44
1.0
  0
MTEXT
  5
142
330
1F
100
AcDbEntity
  8
TITLE
100
AcDbMText
 10
0.3321997349
 20
39.8436574721
 30
0.0
 40
0.125
 41
0.0
 71
     2
 72
     1
  1
Y
  7
SLDTEXTSTYLE1
 73
     1
 44
1.0
  0
MTEXT
  5
143
330
1F
100
AcDbEntity
  8
TITLE
100
AcDbMText
 10
69.6668454042
 20
39.8436574721
 30
0.0
 40
0.125
 41
0.0
 71
     2
 72
     1
  1
Y
  7
SLDTEXTSTYLE1
 73
     1
 44
1.0
  0
MTEXT
  5
144
330
1F
100
AcDbEntity
  8
TITLE
100
AcDbMText
 10
0.3225787898
 20
41.8121614091
 30
0.0
 40
0.125
 41
0.0
 71
     2
 72
     1
  1
AA
  7
SLDTEXTSTYLE1
 73
     1
 44
1.0
  0
MTEXT
  5
145
330
1F
100
AcDbEntity
  8
TITLE
100
AcDbMText
 10
69.6572244591
 20
41.8121614091
 30
0.0
 40
0.125
 41
0.0
 71
     2
 72
     1
  1
AA
  7
SLDTEXTSTYLE1
 73
     1
 44
1.0
  0
MTEXT
  5
146
330
1F
100
AcDbEntity
  8
TITLE
100
AcDbMText
 10
0.3267020535
 20
43.7806653461
 30
0.0
 40
0.125
 41
0.0
 71
     2
 72
     1
  1
AB
  7
SLDTEXTSTYLE1
 73
     1
 44
1.0
  0
MTEXT
  5
147
330
1F
100
AcDbEntity
  8
TITLE
100
AcDbMText
 10
69.6613477228
 20
43.7806653461
 30
0.0
 40
0.125
 41
0.0
 71
     2
 72
     1
  1
AB
  7
SLDTEXTSTYLE1
 73
     1
 44
1.0
  0
MTEXT
  5
148
330
1F
100
AcDbEntity
  8
TITLE
100
AcDbMText
 10
0.3263258985
 20
45.7491692831
 30
0.0
 40
0.125
 41
0.0
 71
     2
 72
     1
  1
AC
  7
SLDTEXTSTYLE1
 73
     1
 44
1.0
  0
MTEXT
  5
149
330
1F
100
AcDbEntity
  8
TITLE
100
AcDbMText
 10
69.6609715678
 20
45.7491692831
 30
0.0
 40
0.125
 41
0.0
 71
     2
 72
     1
  1
AC
  7
SLDTEXTSTYLE1
 73
     1
 44
1.0
  0
MTEXT
  5
14A
330
1F
100
AcDbEntity
  8
TITLE
100
AcDbMText
 10
0.3261378197
 20
48.1566495981
 30
0.0
 40
0.125
 41
0.0
 71
     2
 72
     1
  1
AD
  7
SLDTEXTSTYLE1
 73
     1
 44
1.0
  0
MTEXT
  5
14B
330
1F
100
AcDbEntity
  8
TITLE
100
AcDbMText
 10
69.6607834889
 20
48.1566495981
 30
0.0
 40
0.125
 41
0.0
 71
     2
 72
     1
  1
AD
  7
SLDTEXTSTYLE1
 73
     1
 44
1.0
  0
MTEXT
  5
14C
330
1F
100
AcDbEntity
  8
TITLE
100
AcDbMText
 10
1.0151991741
 20
0.4125551099
 30
0.0
 40
0.125
 41
0.0
 71
     2
 72
     1
  1
36
  7
SLDTEXTSTYLE1
 73
     1
 44
1.0
  0
MTEXT
  5
14D
330
1F
100
AcDbEntity
  8
TITLE
100
AcDbMText
 10
1.0151991741
 20
49.7472007792
 30
0.0
 40
0.125
 41
0.0
 71
     2
 72
     1
  1
36
  7
SLDTEXTSTYLE1
 73
     1
 44
1.0
  0
MTEXT
  5
14E
330
1F
100
AcDbEntity
  8
TITLE
100
AcDbMText
 10
2.517167678
 20
0.4125551099
 30
0.0
 40
0.125
 41
0.0
 71
     2
 72
     1
  1
35
  7
SLDTEXTSTYLE1
 73
     1
 44
1.0
  0
MTEXT
  5
14F
330
1F
100
AcDbEntity
  8
TITLE
100
AcDbMText
 10
2.517167678
 20
49.7472007792
 30
0.0
 40
0.125
 41
0.0
 71
     2
 72
     1
  1
35
  7
SLDTEXTSTYLE1
 73
     1
 44
1.0
  0
MTEXT
  5
150
330
1F
100
AcDbEntity
  8
TITLE
100
AcDbMText
 10
4.485671615
 20
0.4125551099
 30
0.0
 40
0.125
 41
0.0
 71
     2
 72
     1
  1
34
  7
SLDTEXTSTYLE1
 73
     1
 44
1.0
  0
MTEXT
  5
151
330
1F
100
AcDbEntity
  8
TITLE
100
AcDbMText
 10
4.485671615
 20
49.7472007792
 30
0.0
 40
0.125
 41
0.0
 71
     2
 72
     1
  1
34
  7
SLDTEXTSTYLE1
 73
     1
 44
1.0
  0
MTEXT
  5
152
330
1F
100
AcDbEntity
  8
TITLE
100
AcDbMText
 10
6.454175552
 20
0.4125551099
 30
0.0
 40
0.125
 41
0.0
 71
     2
 72
     1
  1
33
  7
SLDTEXTSTYLE1
 73
     1
 44
1.0
  0
MTEXT
  5
153
330
1F
100
AcDbEntity
  8
TITLE
100
AcDbMText
 10
6.454175552
 20
49.7472007792
 30
0.0
 40
0.125
 41
0.0
 71
     2
 72
     1
  1
33
  7
SLDTEXTSTYLE1
 73
     1
 44
1.0
  0
MTEXT
  5
154
330
1F
100
AcDbEntity
  8
TITLE
100
AcDbMText
 10
8.422679489
 20
0.4125551099
 30
0.0
 40
0.125
 41
0.0
 71
     2
 72
     1
  1
32
  7
SLDTEXTSTYLE1
 73
     1
 44
1.0
  0
MTEXT
  5
155
330
1F
100
AcDbEntity
  8
TITLE
100
AcDbMText
 10
8.422679489
 20
49.7472007792
 30
0.0
 40
0.125
 41
0.0
 71
     2
 72
     1
  1
32
  7
SLDTEXTSTYLE1
 73
     1
 44
1.0
  0
MTEXT
  5
156
330
1F
100
AcDbEntity
  8
TITLE
100
AcDbMText
 10
10.391183426
 20
0.4125551099
 30
0.0
 40
0.125
 41
0.0
 71
     2
 72
     1
  1
31
  7
SLDTEXTSTYLE1
 73
     1
 44
1.0
  0
MTEXT
  5
157
330
1F
100
AcDbEntity
  8
TITLE
100
AcDbMText
 10
10.391183426
 20
49.7472007792
 30
0.0
 40
0.125
 41
0.0
 71
     2
 72
     1
  1
31
  7
SLDTEXTSTYLE1
 73
     1
 44
1.0
  0
MTEXT
  5
158
330
1F
100
AcDbEntity
  8
TITLE
100
AcDbMText
 10
12.359687363
 20
0.4125551099
 30
0.0
 40
0.125
 41
0.0
 71
     2
 72
     1
  1
30
  7
SLDTEXTSTYLE1
 73
     1
 44
1.0
  0
MTEXT
  5
159
330
1F
100
AcDbEntity
  8
TITLE
100
AcDbMText
 10
12.359687363
 20
49.7472007792
 30
0.0
 40
0.125
 41
0.0
 71
     2
 72
     1
  1
30
  7
SLDTEXTSTYLE1
 73
     1
 44
1.0
  0
MTEXT
  5
15A
330
1F
100
AcDbEntity
  8
TITLE
100
AcDbMText
 10
14.3281913
 20
0.4125551099
 30
0.0
 40
0.125
 41
0.0
 71
     2
 72
     1
  1
29
  7
SLDTEXTSTYLE1
 73
     1
 44
1.0
  0
MTEXT
  5
15B
330
1F
100
AcDbEntity
  8
TITLE
100
AcDbMText
 10
14.3281913
 20
49.7472007792
 30
0.0
 40
0.125
 41
0.0
 71
     2
 72
     1
  1
29
  7
SLDTEXTSTYLE1
 73
     1
 44
1.0
  0
MTEXT
  5
15C
330
1F
100
AcDbEntity
  8
TITLE
100
AcDbMText
 10
16.2966952371
 20
0.4125551099
 30
0.0
 40
0.125
 41
0.0
 71
     2
 72
     1
  1
28
  7
SLDTEXTSTYLE1
 73
     1
 44
1.0
  0
MTEXT
  5
15D
330
1F
100
AcDbEntity
  8
TITLE
100
AcDbMText
 10
16.2966952371
 20
49.7472007792
 30
0.0
 40
0.125
 41
0.0
 71
     2
 72
     1
  1
28
  7
SLDTEXTSTYLE1
 73
     1
 44
1.0
  0
MTEXT
  5
15E
330
1F
100
AcDbEntity
  8
TITLE
100
AcDbMText
 10
18.2651991741
 20
0.4125551099
 30
0.0
 40
0.125
 41
0.0
 71
     2
 72
     1
  1
27
  7
SLDTEXTSTYLE1
 73
     1
 44
1.0
  0
MTEXT
  5
15F
330
1F
100
AcDbEntity
  8
TITLE
100
AcDbMText
 10
18.2651991741
 20
49.7472007792
 30
0.0
 40
0.125
 41
0.0
 71
     2
 72
     1
  1
27
  7
SLDTEXTSTYLE1
 73
     1
 44
1.0
  0
MTEXT
  5
160
330
1F
100
AcDbEntity
  8
TITLE
100
AcDbMText
 10
20.2337031111
 20
0.4125551099
 30
0.0
 40
0.125
 41
0.0
 71
     2
 72
     1
  1
26
  7
SLDTEXTSTYLE1
 73
     1
 44
1.0
  0
MTEXT
  5
161
330
1F
100
AcDbEntity
  8
TITLE
100
AcDbMText
 10
20.2337031111
 20
49.7472007792
 30
0.0
 40
0.125
 41
0.0
 71
     2
 72
     1
  1
26
  7
SLDTEXTSTYLE1
 73
     1
 44
1.0
  0
MTEXT
  5
162
330
1F
100
AcDbEntity
  8
TITLE
100
AcDbMText
 10
22.2022070481
 20
0.4125551099
 30
0.0
 40
0.125
 41
0.0
 71
     2
 72
     1
  1
25
  7
SLDTEXTSTYLE1
 73
     1
 44
1.0
  0
MTEXT
  5
163
330
1F
100
AcDbEntity
  8
TITLE
100
AcDbMText
 10
22.2022070481
 20
49.7472007792
 30
0.0
 40
0.125
 41
0.0
 71
     2
 72
     1
  1
25
  7
SLDTEXTSTYLE1
 73
     1
 44
1.0
  0
MTEXT
  5
164
330
1F
100
AcDbEntity
  8
TITLE
100
AcDbMText
 10
24.1707109851
 20
0.4125551099
 30
0.0
 40
0.125
 41
0.0
 71
     2
 72
     1
  1
24
  7
SLDTEXTSTYLE1
 73
     1
 44
1.0
  0
MTEXT
  5
165
330
1F
100
AcDbEntity
  8
TITLE
100
AcDbMText
 10
24.1707109851
 20
49.7472007792
 30
0.0
 40
0.125
 41
0.0
 71
     2
 72
     1
  1
24
  7
SLDTEXTSTYLE1
 73
     1
 44
1.0
  0
MTEXT
  5
166
330
1F
100
AcDbEntity
  8
TITLE
100
AcDbMText
 10
26.1392149221
 20
0.4125551099
 30
0.0
 40
0.125
 41
0.0
 71
     2
 72
     1
  1
23
  7
SLDTEXTSTYLE1
 73
     1
 44
1.0
  0
MTEXT
  5
167
330
1F
100
AcDbEntity
  8
TITLE
100
AcDbMText
 10
26.1392149221
 20
49.7472007792
 30
0.0
 40
0.125
 41
0.0
 71
     2
 72
     1
  1
23
  7
SLDTEXTSTYLE1
 73
     1
 44
1.0
  0
MTEXT
  5
168
330
1F
100
AcDbEntity
  8
TITLE
100
AcDbMText
 10
28.1077188591
 20
0.4125551099
 30
0.0
 40
0.125
 41
0.0
 71
     2
 72
     1
  1
22
  7
SLDTEXTSTYLE1
 73
     1
 44
1.0
  0
MTEXT
  5
169
330
1F
100
AcDbEntity
  8
TITLE
100
AcDbMText
 10
28.1077188591
 20
49.7472007792
 30
0.0
 40
0.125
 41
0.0
 71
     2
 72
     1
  1
22
  7
SLDTEXTSTYLE1
 73
     1
 44
1.0
  0
MTEXT
  5
16A
330
1F
100
AcDbEntity
  8
TITLE
100
AcDbMText
 10
30.0762227961
 20
0.4125551099
 30
0.0
 40
0.125
 41
0.0
 71
     2
 72
     1
  1
21
  7
SLDTEXTSTYLE1
 73
     1
 44
1.0
  0
MTEXT
  5
16B
330
1F
100
AcDbEntity
  8
TITLE
100
AcDbMText
 10
30.0762227961
 20
49.7472007792
 30
0.0
 40
0.125
 41
0.0
 71
     2
 72
     1
  1
21
  7
SLDTEXTSTYLE1
 73
     1
 44
1.0
  0
MTEXT
  5
16C
330
1F
100
AcDbEntity
  8
TITLE
100
AcDbMText
 10
32.0447267331
 20
0.4125551099
 30
0.0
 40
0.125
 41
0.0
 71
     2
 72
     1
  1
20
  7
SLDTEXTSTYLE1
 73
     1
 44
1.0
  0
MTEXT
  5
16D
330
1F
100
AcDbEntity
  8
TITLE
100
AcDbMText
 10
32.0447267331
 20
49.7472007792
 30
0.0
 40
0.125
 41
0.0
 71
     2
 72
     1
  1
20
  7
SLDTEXTSTYLE1
 73
     1
 44
1.0
  0
MTEXT
  5
16E
330
1F
100
AcDbEntity
  8
TITLE
100
AcDbMText
 10
34.0132306701
 20
0.4125551099
 30
0.0
 40
0.125
 41
0.0
 71
     2
 72
     1
  1
19
  7
SLDTEXTSTYLE1
 73
     1
 44
1.0
  0
MTEXT
  5
16F
330
1F
100
AcDbEntity
  8
TITLE
100
AcDbMText
 10
34.0132306701
 20
49.7472007792
 30
0.0
 40
0.125
 41
0.0
 71
     2
 72
     1
  1
19
  7
SLDTEXTSTYLE1
 73
     1
 44
1.0
  0
MTEXT
  5
170
330
1F
100
AcDbEntity
  8
TITLE
100
AcDbMText
 10
35.9817346071
 20
0.4125551099
 30
0.0
 40
0.125
 41
0.0
 71
     2
 72
     1
  1
18
  7
SLDTEXTSTYLE1
 73
     1
 44
1.0
  0
MTEXT
  5
171
330
1F
100
AcDbEntity
  8
TITLE
100
AcDbMText
 10
35.9817346071
 20
49.7472007792
 30
0.0
 40
0.125
 41
0.0
 71
     2
 72
     1
  1
18
  7
SLDTEXTSTYLE1
 73
     1
 44
1.0
  0
MTEXT
  5
172
330
1F
100
AcDbEntity
  8
TITLE
100
AcDbMText
 10
37.9502385441
 20
0.4125551099
 30
0.0
 40
0.125
 41
0.0
 71
     2
 72
     1
  1
17
  7
SLDTEXTSTYLE1
 73
     1
 44
1.0
  0
MTEXT
  5
173
330
1F
100
AcDbEntity
  8
TITLE
100
AcDbMText
 10
37.9502385441
 20
49.7472007792
 30
0.0
 40
0.125
 41
0.0
 71
     2
 72
     1
  1
17
  7
SLDTEXTSTYLE1
 73
     1
 44
1.0
  0
MTEXT
  5
174
330
1F
100
AcDbEntity
  8
TITLE
100
AcDbMText
 10
39.9187424811
 20
0.4125551099
 30
0.0
 40
0.125
 41
0.0
 71
     2
 72
     1
  1
16
  7
SLDTEXTSTYLE1
 73
     1
 44
1.0
  0
MTEXT
  5
175
330
1F
100
AcDbEntity
  8
TITLE
100
AcDbMText
 10
39.9187424811
 20
49.7472007792
 30
0.0
 40
0.125
 41
0.0
 71
     2
 72
     1
  1
16
  7
SLDTEXTSTYLE1
 73
     1
 44
1.0
  0
MTEXT
  5
176
330
1F
100
AcDbEntity
  8
TITLE
100
AcDbMText
 10
41.8872464182
 20
0.4125551099
 30
0.0
 40
0.125
 41
0.0
 71
     2
 72
     1
  1
15
  7
SLDTEXTSTYLE1
 73
     1
 44
1.0
  0
MTEXT
  5
177
330
1F
100
AcDbEntity
  8
TITLE
100
AcDbMText
 10
41.8872464182
 20
49.7472007792
 30
0.0
 40
0.125
 41
0.0
 71
     2
 72
     1
  1
15
  7
SLDTEXTSTYLE1
 73
     1
 44
1.0
  0
MTEXT
  5
178
330
1F
100
AcDbEntity
  8
TITLE
100
AcDbMText
 10
43.8557503552
 20
0.4125551099
 30
0.0
 40
0.125
 41
0.0
 71
     2
 72
     1
  1
14
  7
SLDTEXTSTYLE1
 73
     1
 44
1.0
  0
MTEXT
  5
179
330
1F
100
AcDbEntity
  8
TITLE
100
AcDbMText
 10
43.8557503552
 20
49.7472007792
 30
0.0
 40
0.125
 41
0.0
 71
     2
 72
     1
  1
14
  7
SLDTEXTSTYLE1
 73
     1
 44
1.0
  0
MTEXT
  5
17A
330
1F
100
AcDbEntity
  8
TITLE
100
AcDbMText
 10
45.8242542922
 20
0.4125551099
 30
0.0
 40
0.125
 41
0.0
 71
     2
 72
     1
  1
13
  7
SLDTEXTSTYLE1
 73
     1
 44
1.0
  0
MTEXT
  5
17B
330
1F
100
AcDbEntity
  8
TITLE
100
AcDbMText
 10
45.8242542922
 20
49.7472007792
 30
0.0
 40
0.125
 41
0.0
 71
     2
 72
     1
  1
13
  7
SLDTEXTSTYLE1
 73
     1
 44
1.0
  0
MTEXT
  5
17C
330
1F
100
AcDbEntity
  8
TITLE
100
AcDbMText
 10
47.7927582292
 20
0.4125551099
 30
0.0
 40
0.125
 41
0.0
 71
     2
 72
     1
  1
12
  7
SLDTEXTSTYLE1
 73
     1
 44
1.0
  0
MTEXT
  5
17D
330
1F
100
AcDbEntity
  8
TITLE
100
AcDbMText
 10
47.7927582292
 20
49.7472007792
 30
0.0
 40
0.125
 41
0.0
 71
     2
 72
     1
  1
12
  7
SLDTEXTSTYLE1
 73
     1
 44
1.0
  0
MTEXT
  5
17E
330
1F
100
AcDbEntity
  8
TITLE
100
AcDbMText
 10
49.7612621662
 20
0.4125551099
 30
0.0
 40
0.125
 41
0.0
 71
     2
 72
     1
  1
11
  7
SLDTEXTSTYLE1
 73
     1
 44
1.0
  0
MTEXT
  5
17F
330
1F
100
AcDbEntity
  8
TITLE
100
AcDbMText
 10
49.7612621662
 20
49.7472007792
 30
0.0
 40
0.125
 41
0.0
 71
     2
 72
     1
  1
11
  7
SLDTEXTSTYLE1
 73
     1
 44
1.0
  0
MTEXT
  5
180
330
1F
100
AcDbEntity
  8
TITLE
100
AcDbMText
 10
51.7297661032
 20
0.4125551099
 30
0.0
 40
0.125
 41
0.0
 71
     2
 72
     1
  1
10
  7
SLDTEXTSTYLE1
 73
     1
 44
1.0
  0
MTEXT
  5
181
330
1F
100
AcDbEntity
  8
TITLE
100
AcDbMText
 10
51.7297661032
 20
49.7472007792
 30
0.0
 40
0.125
 41
0.0
 71
     2
 72
     1
  1
10
  7
SLDTEXTSTYLE1
 73
     1
 44
1.0
  0
MTEXT
  5
182
330
1F
100
AcDbEntity
  8
TITLE
100
AcDbMText
 10
53.6995287209
 20
0.4125551099
 30
0.0
 40
0.125
 41
0.0
 71
     2
 72
     1
  1
9
  7
SLDTEXTSTYLE1
 73
     1
 44
1.0
  0
MTEXT
  5
183
330
1F
100
AcDbEntity
  8
TITLE
100
AcDbMText
 10
53.6995287209
 20
49.7472007792
 30
0.0
 40
0.125
 41
0.0
 71
     2
 72
     1
  1
9
  7
SLDTEXTSTYLE1
 73
     1
 44
1.0
  0
MTEXT
  5
184
330
1F
100
AcDbEntity
  8
TITLE
100
AcDbMText
 10
55.6680326579
 20
0.4125551099
 30
0.0
 40
0.125
 41
0.0
 71
     2
 72
     1
  1
8
  7
SLDTEXTSTYLE1
 73
     1
 44
1.0
  0
MTEXT
  5
185
330
1F
100
AcDbEntity
  8
TITLE
100
AcDbMText
 10
55.6680326579
 20
49.7472007792
 30
0.0
 40
0.125
 41
0.0
 71
     2
 72
     1
  1
8
  7
SLDTEXTSTYLE1
 73
     1
 44
1.0
  0
MTEXT
  5
186
330
1F
100
AcDbEntity
  8
TITLE
100
AcDbMText
 10
57.6365365949
 20
0.4125551099
 30
0.0
 40
0.125
 41
0.0
 71
     2
 72
     1
  1
7
  7
SLDTEXTSTYLE1
 73
     1
 44
1.0
  0
MTEXT
  5
187
330
1F
100
AcDbEntity
  8
TITLE
100
AcDbMText
 10
57.6365365949
 20
49.7472007792
 30
0.0
 40
0.125
 41
0.0
 71
     2
 72
     1
  1
7
  7
SLDTEXTSTYLE1
 73
     1
 44
1.0
  0
MTEXT
  5
188
330
1F
100
AcDbEntity
  8
TITLE
100
AcDbMText
 10
59.6050405319
 20
0.4125551099
 30
0.0
 40
0.125
 41
0.0
 71
     2
 72
     1
  1
6
  7
SLDTEXTSTYLE1
 73
     1
 44
1.0
  0
MTEXT
  5
189
330
1F
100
AcDbEntity
  8
TITLE
100
AcDbMText
 10
59.6050405319
 20
49.7472007792
 30
0.0
 40
0.125
 41
0.0
 71
     2
 72
     1
  1
6
  7
SLDTEXTSTYLE1
 73
     1
 44
1.0
  0
MTEXT
  5
18A
330
1F
100
AcDbEntity
  8
TITLE
100
AcDbMText
 10
61.5735444689
 20
0.4125551099
 30
0.0
 40
0.125
 41
0.0
 71
     2
 72
     1
  1
5
  7
SLDTEXTSTYLE1
 73
     1
 44
1.0
  0
MTEXT
  5
18B
330
1F
100
AcDbEntity
  8
TITLE
100
AcDbMText
 10
61.5735444689
 20
49.7472007792
 30
0.0
 40
0.125
 41
0.0
 71
     2
 72
     1
  1
5
  7
SLDTEXTSTYLE1
 73
     1
 44
1.0
  0
MTEXT
  5
18C
330
1F
100
AcDbEntity
  8
TITLE
100
AcDbMText
 10
63.5420484059
 20
0.4125551099
 30
0.0
 40
0.125
 41
0.0
 71
     2
 72
     1
  1
4
  7
SLDTEXTSTYLE1
 73
     1
 44
1.0
  0
MTEXT
  5
18D
330
1F
100
AcDbEntity
  8
TITLE
100
AcDbMText
 10
63.5420484059
 20
49.7472007792
 30
0.0
 40
0.125
 41
0.0
 71
     2
 72
     1
  1
4
  7
SLDTEXTSTYLE1
 73
     1
 44
1.0
  0
MTEXT
  5
18E
330
1F
100
AcDbEntity
  8
TITLE
100
AcDbMText
 10
65.5105523429
 20
0.4125551099
 30
0.0
 40
0.125
 41
0.0
 71
     2
 72
     1
  1
3
  7
SLDTEXTSTYLE1
 73
     1
 44
1.0
  0
MTEXT
  5
18F
330
1F
100
AcDbEntity
  8
TITLE
100
AcDbMText
 10
65.5105523429
 20
49.7472007792
 30
0.0
 40
0.125
 41
0.0
 71
     2
 72
     1
  1
3
  7
SLDTEXTSTYLE1
 73
     1
 44
1.0
  0
MTEXT
  5
190
330
1F
100
AcDbEntity
  8
TITLE
100
AcDbMText
 10
67.4790562799
 20
0.4125551099
 30
0.0
 40
0.125
 41
0.0
 71
     2
 72
     1
  1
2
  7
SLDTEXTSTYLE1
 73
     1
 44
1.0
  0
MTEXT
  5
191
330
1F
100
AcDbEntity
  8
TITLE
100
AcDbMText
 10
67.4790562799
 20
49.7472007792
 30
0.0
 40
0.125
 41
0.0
 71
     2
 72
     1
  1
2
  7
SLDTEXTSTYLE1
 73
     1
 44
1.0
  0
MTEXT
  5
192
330
1F
100
AcDbEntity
  8
TITLE
100
AcDbMText
 10
68.9810247839
 20
0.4125551099
 30
0.0
 40
0.125
 41
0.0
 71
     2
 72
     1
  1
1
  7
SLDTEXTSTYLE1
 73
     1
 44
1.0
  0
MTEXT
  5
193
330
1F
100
AcDbEntity
  8
TITLE
100
AcDbMText
 10
68.9810247839
 20
49.7472007792
 30
0.0
 40
0.125
 41
0.0
 71
     2
 72
     1
  1
1
  7
SLDTEXTSTYLE1
 73
     1
 44
1.0
  0
LINE
  5
194
330
1F
100
AcDbEntity
  8
0
  6
SLD-Solid
 62
     7
370
    25
100
AcDbLine
 10
6.9018735544
 20
20.1213798541
 30
0.0
 11
11.4018735544
 21
20.1213798541
 31
0.0
  0
LINE
  5
195
330
1F
100
AcDbEntity
  8
0
  6
SLD-Solid
 62
     7
370
    25
100
AcDbLine
 10
11.4018735544
 20
24.6213798541
 30
0.0
 11
6.9018735544
 21
24.6213798541
 31
0.0
  0
LINE
  5
196
330
1F
100
AcDbEntity
  8
0
  6
SLD-Solid
 62
     7
370
    25
100
AcDbLine
 10
16.5521235544
 20
24.6213798541
 30
0.0
 11
12.0521235544
 21
24.6213798541
 31
0.0
  0
LINE
  5
197
330
1F
100
AcDbEntity
  8
0
  6
SLD-Solid
 62
     7
370
    25
100
AcDbLine
 10
12.0521235544
 20
20.1213798541
 30
0.0
 11
16.5521235544
 21
20.1213798541
 31
0.0
  0
LINE
  5
198
330
1F
100
AcDbEntity
  8
0
  6
SLD-Solid
 62
     7
370
    25
100
AcDbLine
 10
6.6782743981
 20
21.1438798541
 30
0.0
 11
6.6782743981
 21
21.1254088186
 31
0.0
  0
ARC
  5
199
330
1F
100
AcDbEntity
  8
0
  6
SLD-Solid
 62
     7
370
    25
100
AcDbCircle
 10
6.8344985544
 20
21.398487288
 30
0.0
 40
0.3146074338901335
100
AcDbArc
 50
240.2267646167
 51
282.3660034219
  0
ARC
  5
19A
330
1F
100
AcDbEntity
  8
0
  6
SLD-Solid
 62
     7
370
    25
100
AcDbCircle
 10
6.8344985544
 20
23.3442724203
 30
0.0
 40
0.3146074338901313
100
AcDbArc
 50
77.6339965781
 51
119.7732353833
  0
LINE
  5
19B
330
1F
100
AcDbEntity
  8
0
  6
SLD-Solid
 62
     7
370
    25
100
AcDbLine
 10
6.6782743981
 20
23.6173508896
 30
0.0
 11
6.6782743981
 21
23.5988798541
 31
0.0
  0
LINE
  5
19C
330
1F
100
AcDbEntity
  8
0
  6
SLD-Solid
 62
     7
370
    25
100
AcDbLine
 10
6.7407485544
 20
23.5988798541
 30
0.0
 11
6.7407485544
 21
23.5488798541
 31
0.0
  0
LINE
  5
19D
330
1F
100
AcDbEntity
  8
0
  6
SLD-Solid
 62
     7
370
    25
100
AcDbLine
 10
6.7407485544
 20
23.4988798541
 30
0.0
 11
6.7407485544
 21
23.4493798541
 31
0.0
  0
LINE
  5
19E
330
1F
100
AcDbEntity
  8
0
  6
SLD-Solid
 62
     7
370
    25
100
AcDbLine
 10
16.7757227107
 20
21.1254088186
 30
0.0
 11
16.7757227107
 21
21.1438798541
 31
0.0
  0
ARC
  5
19F
330
1F
100
AcDbEntity
  8
0
  6
SLD-Solid
 62
     7
370
    25
100
AcDbCircle
 10
16.6194985544
 20
21.398487288
 30
0.0
 40
0.3146074338901304
100
AcDbArc
 50
257.6339965781
 51
299.7732353833
  0
LINE
  5
1A0
330
1F
100
AcDbEntity
  8
0
  6
SLD-Solid
 62
     7
370
    25
100
AcDbLine
 10
16.7132485544
 20
21.1438798541
 30
0.0
 11
16.7132485544
 21
21.1938798541
 31
0.0
  0
LINE
  5
1A1
330
1F
100
AcDbEntity
  8
0
  6
SLD-Solid
 62
     7
370
    25
100
AcDbLine
 10
16.7132485544
 20
21.2438798541
 30
0.0
 11
16.7132485544
 21
21.2933798541
 31
0.0
  0
LINE
  5
1A2
330
1F
100
AcDbEntity
  8
0
  6
SLD-Solid
 62
     7
370
    25
100
AcDbLine
 10
16.7757227107
 20
23.5988798541
 30
0.0
 11
16.7757227107
 21
23.6173508896
 31
0.0
  0
ARC
  5
1A3
330
1F
100
AcDbEntity
  8
0
  6
SLD-Solid
 62
     7
370
    25
100
AcDbCircle
 10
16.6194985544
 20
23.3442724203
 30
0.0
 40
0.3146074338901337
100
AcDbArc
 50
60.2267646167
 51
102.3660034219
  0
LINE
  5
1A4
330
1F
100
AcDbEntity
  8
0
  6
SLD-Solid
 62
     7
370
    25
100
AcDbLine
 10
16.7132485544
 20
23.4493798541
 30
0.0
 11
16.7132485544
 21
23.4988798541
 31
0.0
  0
LINE
  5
1A5
330
1F
100
AcDbEntity
  8
0
  6
SLD-Solid
 62
     7
370
    25
100
AcDbLine
 10
16.7132485544
 20
23.5488798541
 30
0.0
 11
16.7132485544
 21
23.5988798541
 31
0.0
  0
ARC
  5
1A6
330
1F
100
AcDbEntity
  8
0
  6
SLD-Solid
 62
     7
370
    25
100
AcDbCircle
 10
11.6392485544
 20
23.1563798541
 30
0.0
 40
0.0500000000000007
100
AcDbArc
 50
0.0
 51
90.0
  0
ARC
  5
1A7
330
1F
100
AcDbEntity
  8
0
  6
SLD-Solid
 62
     7
370
    25
100
AcDbCircle
 10
11.6392485544
 20
21.5863798541
 30
0.0
 40
0.0500000000000007
100
AcDbArc
 50
270.0
 51
0.0
  0
ARC
  5
1A8
330
1F
100
AcDbEntity
  8
0
  6
SLD-Solid
 62
     7
370
    25
100
AcDbCircle
 10
11.5992485544
 20
23.1563798541
 30
0.0
 40
0.050000000000001
100
AcDbArc
 50
90.0
 51
168.9173680777
  0
ARC
  5
1A9
330
1F
100
AcDbEntity
  8
0
  6
SLD-Solid
 62
     7
370
    25
100
AcDbCircle
 10
11.5992485544
 20
21.5863798541
 30
0.0
 40
0.0500000000000007
100
AcDbArc
 50
191.0826319223
 51
270.0
  0
LINE
  5
1AA
330
1F
100
AcDbEntity
  8
0
  6
SLD-Solid
 62
     7
370
    25
100
AcDbLine
 10
11.6392485544
 20
23.2063798541
 30
0.0
 11
11.5992485544
 21
23.2063798541
 31
0.0
  0
LINE
  5
1AB
330
1F
100
AcDbEntity
  8
0
  6
SLD-Solid
 62
     7
370
    25
100
AcDbLine
 10
11.5992485544
 20
21.5363798541
 30
0.0
 11
11.6392485544
 21
21.5363798541
 31
0.0
  0
ARC
  5
1AC
330
1F
100
AcDbEntity
  8
0
  6
SLD-Solid
 62
     7
370
    25
100
AcDbCircle
 10
11.5624478927
 20
23.1635882728
 30
0.0
 40
0.0125000000000013
100
AcDbArc
 50
168.9173680777
 51
180.0
  0
ARC
  5
1AD
330
1F
100
AcDbEntity
  8
0
  6
SLD-Solid
 62
     7
370
    25
100
AcDbCircle
 10
11.5624478927
 20
21.5791714355
 30
0.0
 40
0.0125000000000013
100
AcDbArc
 50
180.0
 51
191.0826319223
  0
LINE
  5
1AE
330
1F
100
AcDbEntity
  8
0
  6
SLD-Solid
 62
     7
370
    25
100
AcDbLine
 10
11.5499478927
 20
23.1635882728
 30
0.0
 11
11.5499478927
 21
21.5791714355
 31
0.0
  0
LWPOLYLINE
  5
1AF
330
1F
100
AcDbEntity
  8
0
  6
SLD-Solid
 62
     7
370
    25
100
AcDbPolyline
 90
        3
 70
   128
 43
0.0
 10
11.5467485544
 20
21.7053798541
 10
11.5491871834
 20
21.7051396701
 10
11.5499478927
 20
21.7049634891
  0
LWPOLYLINE
  5
1B0
330
1F
100
AcDbEntity
  8
0
  6
SLD-Solid
 62
     7
370
    25
100
AcDbPolyline
 90
        3
 70
   128
 43
0.0
 10
11.5499478927
 20
23.0377962192
 10
11.5491871834
 20
23.0376200381
 10
11.5467485544
 20
23.0373798541
  0
LINE
  5
1B1
330
1F
100
AcDbEntity
  8
0
  6
SLD-Solid
 62
     7
370
    25
100
AcDbLine
 10
11.5467485544
 20
23.0373798541
 30
0.0
 11
11.4018735544
 21
23.0373798541
 31
0.0
  0
LINE
  5
1B2
330
1F
100
AcDbEntity
  8
0
  6
SLD-Solid
 62
     7
370
    25
100
AcDbLine
 10
11.4018735544
 20
21.7053798541
 30
0.0
 11
11.5467485544
 21
21.7053798541
 31
0.0
  0
ARC
  5
1B3
330
1F
100
AcDbEntity
  8
0
  6
SLD-Solid
 62
     7
370
    25
100
AcDbCircle
 10
11.004520692
 20
22.3713798541
 30
0.0
 40
0.6999999999999985
100
AcDbArc
 50
357.3912504071
 51
2.6087495929
  0
LINE
  5
1B4
330
1F
100
AcDbEntity
  8
0
  6
SLD-Solid
 62
     7
370
    25
100
AcDbLine
 10
11.6898109239
 20
22.0325948617
 30
0.0
 11
11.7037952335
 21
22.3395189764
 31
0.0
  0
LINE
  5
1B5
330
1F
100
AcDbEntity
  8
0
  6
SLD-Solid
 62
     7
370
    25
100
AcDbLine
 10
11.7037952335
 20
22.4032407319
 30
0.0
 11
11.6898109239
 21
22.7101648466
 31
0.0
  0
ARC
  5
1B6
330
1F
100
AcDbEntity
  8
0
  6
SLD-Solid
 62
     7
370
    25
100
AcDbCircle
 10
11.8147485544
 20
21.5863798541
 30
0.0
 40
0.0500000000000007
100
AcDbArc
 50
180.0
 51
270.0
  0
ARC
  5
1B7
330
1F
100
AcDbEntity
  8
0
  6
SLD-Solid
 62
     7
370
    25
100
AcDbCircle
 10
11.8147485544
 20
23.1563798541
 30
0.0
 40
0.0500000000000007
100
AcDbArc
 50
90.0
 51
180.0
  0
LINE
  5
1B8
330
1F
100
AcDbEntity
  8
0
  6
SLD-Solid
 62
     7
370
    25
100
AcDbLine
 10
11.8147485544
 20
21.5363798541
 30
0.0
 11
11.8547485544
 21
21.5363798541
 31
0.0
  0
LINE
  5
1B9
330
1F
100
AcDbEntity
  8
0
  6
SLD-Solid
 62
     7
370
    25
100
AcDbLine
 10
11.8547485544
 20
23.2063798541
 30
0.0
 11
11.8147485544
 21
23.2063798541
 31
0.0
  0
ARC
  5
1BA
330
1F
100
AcDbEntity
  8
0
  6
SLD-Solid
 62
     7
370
    25
100
AcDbCircle
 10
11.8547485544
 20
21.5863798541
 30
0.0
 40
0.0500000000000007
100
AcDbArc
 50
270.0
 51
348.9173680777
  0
ARC
  5
1BB
330
1F
100
AcDbEntity
  8
0
  6
SLD-Solid
 62
     7
370
    25
100
AcDbCircle
 10
11.8547485544
 20
23.1563798541
 30
0.0
 40
0.0500000000000027
100
AcDbArc
 50
11.0826319223
 51
90.0
  0
ARC
  5
1BC
330
1F
100
AcDbEntity
  8
0
  6
SLD-Solid
 62
     7
370
    25
100
AcDbCircle
 10
11.8915492161
 20
21.5791714355
 30
0.0
 40
0.0125000000000013
100
AcDbArc
 50
348.9173680777
 51
0.0
  0
ARC
  5
1BD
330
1F
100
AcDbEntity
  8
0
  6
SLD-Solid
 62
     7
370
    25
100
AcDbCircle
 10
11.8915492161
 20
23.1635882728
 30
0.0
 40
0.0125000000000013
100
AcDbArc
 50
0.0
 51
11.0826319223
  0
LINE
  5
1BE
330
1F
100
AcDbEntity
  8
0
  6
SLD-Solid
 62
     7
370
    25
100
AcDbLine
 10
11.9040492161
 20
21.5791714355
 30
0.0
 11
11.9040492161
 21
23.1635882728
 31
0.0
  0
LWPOLYLINE
  5
1BF
330
1F
100
AcDbEntity
  8
0
  6
SLD-Solid
 62
     7
370
    25
100
AcDbPolyline
 90
        3
 70
   128
 43
0.0
 10
11.9072485544
 20
23.0373798541
 10
11.9048099254
 20
23.0376200381
 10
11.9040492161
 20
23.0377962192
  0
LWPOLYLINE
  5
1C0
330
1F
100
AcDbEntity
  8
0
  6
SLD-Solid
 62
     7
370
    25
100
AcDbPolyline
 90
        3
 70
   128
 43
0.0
 10
11.9040492161
 20
21.7049634891
 10
11.9048099254
 20
21.7051396701
 10
11.9072485544
 20
21.7053798541
  0
LINE
  5
1C1
330
1F
100
AcDbEntity
  8
0
  6
SLD-Solid
 62
     7
370
    25
100
AcDbLine
 10
11.9072485544
 20
21.7053798541
 30
0.0
 11
12.0521235544
 21
21.7053798541
 31
0.0
  0
LINE
  5
1C2
330
1F
100
AcDbEntity
  8
0
  6
SLD-Solid
 62
     7
370
    25
100
AcDbLine
 10
12.0521235544
 20
23.0373798541
 30
0.0
 11
11.9072485544
 21
23.0373798541
 31
0.0
  0
ARC
  5
1C3
330
1F
100
AcDbEntity
  8
0
  6
SLD-Solid
 62
     7
370
    25
100
AcDbCircle
 10
12.4494764168
 20
22.3713798541
 30
0.0
 40
0.6999999999999985
100
AcDbArc
 50
177.3912504071
 51
182.6087495929
  0
LINE
  5
1C4
330
1F
100
AcDbEntity
  8
0
  6
SLD-Solid
 62
     7
370
    25
100
AcDbLine
 10
11.7641861849
 20
22.7101648466
 30
0.0
 11
11.7502018753
 21
22.4032407319
 31
0.0
  0
LINE
  5
1C5
330
1F
100
AcDbEntity
  8
0
  6
SLD-Solid
 62
     7
370
    25
100
AcDbLine
 10
11.7502018753
 20
22.3395189764
 30
0.0
 11
11.7641861849
 21
22.0325948617
 31
0.0
  0
ARC
  5
1C6
330
1F
100
AcDbEntity
  8
0
  6
SLD-Solid
 62
     7
370
    25
100
AcDbCircle
 10
16.7894985544
 20
23.1563798541
 30
0.0
 40
0.0499999999999972
100
AcDbArc
 50
0.0
 51
90.0
  0
ARC
  5
1C7
330
1F
100
AcDbEntity
  8
0
  6
SLD-Solid
 62
     7
370
    25
100
AcDbCircle
 10
16.7894985544
 20
21.5863798541
 30
0.0
 40
0.0500000000000007
100
AcDbArc
 50
270.0
 51
0.0
  0
LINE
  5
1C8
330
1F
100
AcDbEntity
  8
0
  6
SLD-Solid
 62
     7
370
    25
100
AcDbLine
 10
16.7894985544
 20
23.2063798541
 30
0.0
 11
16.7494985544
 21
23.2063798541
 31
0.0
  0
LINE
  5
1C9
330
1F
100
AcDbEntity
  8
0
  6
SLD-Solid
 62
     7
370
    25
100
AcDbLine
 10
16.7494985544
 20
21.5363798541
 30
0.0
 11
16.7894985544
 21
21.5363798541
 31
0.0
  0
ARC
  5
1CA
330
1F
100
AcDbEntity
  8
0
  6
SLD-Solid
 62
     7
370
    25
100
AcDbCircle
 10
16.7494985544
 20
23.1563798541
 30
0.0
 40
0.0500000000000031
100
AcDbArc
 50
90.0
 51
168.9173680777
  0
ARC
  5
1CB
330
1F
100
AcDbEntity
  8
0
  6
SLD-Solid
 62
     7
370
    25
100
AcDbCircle
 10
16.7494985544
 20
21.5863798541
 30
0.0
 40
0.0500000000000031
100
AcDbArc
 50
191.0826319223
 51
270.0
  0
ARC
  5
1CC
330
1F
100
AcDbEntity
  8
0
  6
SLD-Solid
 62
     7
370
    25
100
AcDbCircle
 10
16.7126978927
 20
23.1635882728
 30
0.0
 40
0.0125000000000017
100
AcDbArc
 50
168.9173680777
 51
180.0
  0
ARC
  5
1CD
330
1F
100
AcDbEntity
  8
0
  6
SLD-Solid
 62
     7
370
    25
100
AcDbCircle
 10
16.7126978927
 20
21.5791714355
 30
0.0
 40
0.0125000000000017
100
AcDbArc
 50
180.0
 51
191.0826319223
  0
LINE
  5
1CE
330
1F
100
AcDbEntity
  8
0
  6
SLD-Solid
 62
     7
370
    25
100
AcDbLine
 10
16.7001978927
 20
23.1635882728
 30
0.0
 11
16.7001978927
 21
21.5791714355
 31
0.0
  0
LWPOLYLINE
  5
1CF
330
1F
100
AcDbEntity
  8
0
  6
SLD-Solid
 62
     7
370
    25
100
AcDbPolyline
 90
        3
 70
   128
 43
0.0
 10
16.6969985544
 20
21.7113798541
 10
16.6994371834
 20
21.7111396701
 10
16.7001978927
 20
21.7109634891
  0
LWPOLYLINE
  5
1D0
330
1F
100
AcDbEntity
  8
0
  6
SLD-Solid
 62
     7
370
    25
100
AcDbPolyline
 90
        3
 70
   128
 43
0.0
 10
16.7001978927
 20
23.0317962192
 10
16.6994371834
 20
23.0316200381
 10
16.6969985544
 20
23.0313798541
  0
LINE
  5
1D1
330
1F
100
AcDbEntity
  8
0
  6
SLD-Solid
 62
     7
370
    25
100
AcDbLine
 10
16.6969985544
 20
23.0313798541
 30
0.0
 11
16.5521235544
 21
23.0313798541
 31
0.0
  0
LINE
  5
1D2
330
1F
100
AcDbEntity
  8
0
  6
SLD-Solid
 62
     7
370
    25
100
AcDbLine
 10
16.5521235544
 20
21.7113798541
 30
0.0
 11
16.6969985544
 21
21.7113798541
 31
0.0
  0
ARC
  5
1D3
330
1F
100
AcDbEntity
  8
0
  6
SLD-Solid
 62
     7
370
    25
100
AcDbCircle
 10
16.1547706919
 20
22.3713798541
 30
0.0
 40
0.6999999999999976
100
AcDbArc
 50
357.3912504243
 51
2.6087495757
  0
LINE
  5
1D4
330
1F
100
AcDbEntity
  8
0
  6
SLD-Solid
 62
     7
370
    25
100
AcDbLine
 10
16.8540452334
 20
22.4032407317
 30
0.0
 11
16.8400609239
 21
22.7101648467
 31
0.0
  0
LINE
  5
1D5
330
1F
100
AcDbEntity
  8
0
  6
SLD-Solid
 62
     7
370
    25
100
AcDbLine
 10
16.8400609239
 20
22.0325948616
 30
0.0
 11
16.8540452334
 21
22.3395189766
 31
0.0
  0
ARC
  5
1D6
330
1F
100
AcDbEntity
  8
0
  6
SLD-Solid
 62
     7
370
    25
100
AcDbCircle
 10
6.6644985544
 20
21.5863798541
 30
0.0
 40
0.0500000000000007
100
AcDbArc
 50
180.0
 51
270.0
  0
ARC
  5
1D7
330
1F
100
AcDbEntity
  8
0
  6
SLD-Solid
 62
     7
370
    25
100
AcDbCircle
 10
6.6644985544
 20
23.1563798541
 30
0.0
 40
0.0500000000000007
100
AcDbArc
 50
90.0
 51
180.0
  0
LINE
  5
1D8
330
1F
100
AcDbEntity
  8
0
  6
SLD-Solid
 62
     7
370
    25
100
AcDbLine
 10
6.6644985544
 20
21.5363798541
 30
0.0
 11
6.7044985544
 21
21.5363798541
 31
0.0
  0
LINE
  5
1D9
330
1F
100
AcDbEntity
  8
0
  6
SLD-Solid
 62
     7
370
    25
100
AcDbLine
 10
6.7044985544
 20
23.2063798541
 30
0.0
 11
6.6644985544
 21
23.2063798541
 31
0.0
  0
ARC
  5
1DA
330
1F
100
AcDbEntity
  8
0
  6
SLD-Solid
 62
     7
370
    25
100
AcDbCircle
 10
6.7044985544
 20
21.5863798541
 30
0.0
 40
0.0500000000000007
100
AcDbArc
 50
270.0
 51
348.9173680777
  0
ARC
  5
1DB
330
1F
100
AcDbEntity
  8
0
  6
SLD-Solid
 62
     7
370
    25
100
AcDbCircle
 10
6.7044985544
 20
23.1563798541
 30
0.0
 40
0.0499999999999996
100
AcDbArc
 50
11.0826319223
 51
90.0
  0
ARC
  5
1DC
330
1F
100
AcDbEntity
  8
0
  6
SLD-Solid
 62
     7
370
    25
100
AcDbCircle
 10
6.7412992161
 20
21.5791714355
 30
0.0
 40
0.0125000000000002
100
AcDbArc
 50
348.9173680777
 51
0.0
  0
ARC
  5
1DD
330
1F
100
AcDbEntity
  8
0
  6
SLD-Solid
 62
     7
370
    25
100
AcDbCircle
 10
6.7412992161
 20
23.1635882728
 30
0.0
 40
0.0125000000000002
100
AcDbArc
 50
0.0
 51
11.0826319223
  0
LINE
  5
1DE
330
1F
100
AcDbEntity
  8
0
  6
SLD-Solid
 62
     7
370
    25
100
AcDbLine
 10
6.7537992161
 20
21.5791714355
 30
0.0
 11
6.7537992161
 21
23.1635882728
 31
0.0
  0
LWPOLYLINE
  5
1DF
330
1F
100
AcDbEntity
  8
0
  6
SLD-Solid
 62
     7
370
    25
100
AcDbPolyline
 90
        3
 70
   128
 43
0.0
 10
6.7569985544
 20
23.0313798541
 10
6.7545599254
 20
23.0316200381
 10
6.7537992161
 20
23.0317962192
  0
LWPOLYLINE
  5
1E0
330
1F
100
AcDbEntity
  8
0
  6
SLD-Solid
 62
     7
370
    25
100
AcDbPolyline
 90
        3
 70
   128
 43
0.0
 10
6.7537992161
 20
21.7109634891
 10
6.7545599254
 20
21.7111396701
 10
6.7569985544
 20
21.7113798541
  0
LINE
  5
1E1
330
1F
100
AcDbEntity
  8
0
  6
SLD-Solid
 62
     7
370
    25
100
AcDbLine
 10
6.7569985544
 20
21.7113798541
 30
0.0
 11
6.9018735544
 21
21.7113798541
 31
0.0
  0
LINE
  5
1E2
330
1F
100
AcDbEntity
  8
0
  6
SLD-Solid
 62
     7
370
    25
100
AcDbLine
 10
6.9018735544
 20
23.0313798541
 30
0.0
 11
6.7569985544
 21
23.0313798541
 31
0.0
  0
ARC
  5
1E3
330
1F
100
AcDbEntity
  8
0
  6
SLD-Solid
 62
     7
370
    25
100
AcDbCircle
 10
7.2992264169
 20
22.3713798541
 30
0.0
 40
0.6999999999999987
100
AcDbArc
 50
177.3912504243
 51
182.6087495757
  0
LINE
  5
1E4
330
1F
100
AcDbEntity
  8
0
  6
SLD-Solid
 62
     7
370
    25
100
AcDbLine
 10
6.5999518753
 20
22.3395189766
 30
0.0
 11
6.6139361849
 21
22.0325948616
 31
0.0
  0
LINE
  5
1E5
330
1F
100
AcDbEntity
  8
0
  6
SLD-Solid
 62
     7
370
    25
100
AcDbLine
 10
6.6139361849
 20
22.7101648467
 30
0.0
 11
6.5999518753
 21
22.4032407317
 31
0.0
  0
ELLIPSE
  5
1E6
330
1F
100
AcDbEntity
  8
0
  6
SLD-Solid
 62
     7
370
    25
100
AcDbEllipse
 10
18.4769985544
 20
27.3468798541
 30
0.0
 11
0.9999999999999964
 21
0.0
 31
0.0
210
0.0
220
0.0
230
1.0
 40
0.298273145
 41
0.0
 42
6.283185307179586
  0
LINE
  5
1E7
330
1F
100
AcDbEntity
  8
0
  6
SLD-Solid
 62
     7
370
    25
100
AcDbLine
 10
19.6487242356
 20
26.582654173
 30
0.0
 11
19.6487242356
 21
25.8182901559
 31
0.0
  0
LINE
  5
1E8
330
1F
100
AcDbEntity
  8
0
  6
SLD-Solid
 62
     7
370
    25
100
AcDbLine
 10
19.7387242356
 20
26.582654173
 30
0.0
 11
19.6487242356
 21
26.582654173
 31
0.0
  0
LINE
  5
1E9
330
1F
100
AcDbEntity
  8
0
  6
SLD-Solid
 62
     7
370
    25
100
AcDbLine
 10
19.7387242356
 20
26.582654173
 30
0.0
 11
19.7387242356
 21
25.832535267
 31
0.0
  0
LINE
  5
1EA
330
1F
100
AcDbEntity
  8
0
  6
SLD-Solid
 62
     7
370
    25
100
AcDbLine
 10
3.8052728732
 20
25.8182901559
 30
0.0
 11
3.8052728732
 21
26.582654173
 31
0.0
  0
LINE
  5
1EB
330
1F
100
AcDbEntity
  8
0
  6
SLD-Solid
 62
     7
370
    25
100
AcDbLine
 10
3.7152728732
 20
25.832535267
 30
0.0
 11
3.7152728732
 21
26.582654173
 31
0.0
  0
LINE
  5
1EC
330
1F
100
AcDbEntity
  8
0
  6
SLD-Solid
 62
     7
370
    25
100
AcDbLine
 10
3.8052728732
 20
26.582654173
 30
0.0
 11
3.7152728732
 21
26.582654173
 31
0.0
  0
LINE
  5
1ED
330
1F
100
AcDbEntity
  8
0
  6
SLD-Solid
 62
     7
370
    25
100
AcDbLine
 10
4.0194985544
 20
26.7968798541
 30
0.0
 11
19.4344985544
 21
26.7968798541
 31
0.0
  0
LINE
  5
1EE
330
1F
100
AcDbEntity
  8
0
  6
SLD-Solid
 62
     7
370
    25
100
AcDbLine
 10
4.0194985544
 20
26.8868798541
 30
0.0
 11
4.0194985544
 21
26.7968798541
 31
0.0
  0
LINE
  5
1EF
330
1F
100
AcDbEntity
  8
0
  6
SLD-Solid
 62
     7
370
    25
100
AcDbLine
 10
4.0194985544
 20
26.8868798541
 30
0.0
 11
19.4344985544
 21
26.8868798541
 31
0.0
  0
LINE
  5
1F0
330
1F
100
AcDbEntity
  8
0
  6
SLD-Solid
 62
     7
370
    25
100
AcDbLine
 10
19.4344985544
 20
26.7968798541
 30
0.0
 11
19.4344985544
 21
26.8868798541
 31
0.0
  0
LINE
  5
1F1
330
1F
100
AcDbEntity
  8
0
  6
SLD-Solid
 62
     7
370
    25
100
AcDbLine
 10
19.6487242356
 20
25.8111929024
 30
0.0
 11
19.6487242356
 21
25.8182901559
 31
0.0
  0
LINE
  5
1F2
330
1F
100
AcDbEntity
  8
0
  6
SLD-Solid
 62
     7
370
    25
100
AcDbLine
 10
3.8052728732
 20
25.8182901559
 30
0.0
 11
3.8052728732
 21
25.8111929024
 31
0.0
  0
LINE
  5
1F3
330
1F
100
AcDbEntity
  8
0
  6
SLD-Solid
 62
     7
370
    25
100
AcDbLine
 10
19.7387242356
 20
25.8327215087
 30
0.0
 11
19.7387242356
 21
25.7604611266
 31
0.0
  0
LINE
  5
1F4
330
1F
100
AcDbEntity
  8
0
  6
SLD-Solid
 62
     7
370
    25
100
AcDbLine
 10
3.7152728732
 20
25.7604611266
 30
0.0
 11
3.7152728732
 21
25.8327215087
 31
0.0
  0
ARC
  5
1F5
330
1F
100
AcDbEntity
  8
0
  6
SLD-Solid
 62
     7
370
    25
100
AcDbCircle
 10
19.4587242356
 20
26.6068798541
 30
0.0
 40
0.2800000000000011
100
AcDbArc
 50
0.0
 51
90.0
  0
ARC
  5
1F6
330
1F
100
AcDbEntity
  8
0
  6
SLD-Solid
 62
     7
370
    25
100
AcDbCircle
 10
19.4587242356
 20
26.6068798541
 30
0.0
 40
0.2500000000000036
100
AcDbArc
 50
0.0
 51
90.0
  0
LINE
  5
1F7
330
1F
100
AcDbEntity
  8
0
  6
SLD-Solid
 62
     7
370
    25
100
AcDbLine
 10
19.7087242356
 20
26.6068798541
 30
0.0
 11
19.7087242356
 21
26.582654173
 31
0.0
  0
LINE
  5
1F8
330
1F
100
AcDbEntity
  8
0
  6
SLD-Solid
 62
     7
370
    25
100
AcDbLine
 10
19.7387242356
 20
26.6068798541
 30
0.0
 11
19.7387242356
 21
26.582654173
 31
0.0
  0
LINE
  5
1F9
330
1F
100
AcDbEntity
  8
0
  6
SLD-Solid
 62
     7
370
    25
100
AcDbLine
 10
19.4344985544
 20
26.8868798541
 30
0.0
 11
19.4587242356
 21
26.8868798541
 31
0.0
  0
LINE
  5
1FA
330
1F
100
AcDbEntity
  8
0
  6
SLD-Solid
 62
     7
370
    25
100
AcDbLine
 10
19.4344985544
 20
26.8568798541
 30
0.0
 11
19.4587242356
 21
26.8568798541
 31
0.0
  0
LINE
  5
1FB
330
1F
100
AcDbEntity
  8
0
  6
SLD-Solid
 62
     7
370
    25
100
AcDbLine
 10
3.7152728732
 20
26.582654173
 30
0.0
 11
3.7152728732
 21
26.6068798541
 31
0.0
  0
LINE
  5
1FC
330
1F
100
AcDbEntity
  8
0
  6
SLD-Solid
 62
     7
370
    25
100
AcDbLine
 10
3.7452728732
 20
26.582654173
 30
0.0
 11
3.7452728732
 21
26.6068798541
 31
0.0
  0
LINE
  5
1FD
330
1F
100
AcDbEntity
  8
0
  6
SLD-Solid
 62
     7
370
    25
100
AcDbLine
 10
3.9952728732
 20
26.8868798541
 30
0.0
 11
4.0194985544
 21
26.8868798541
 31
0.0
  0
LINE
  5
1FE
330
1F
100
AcDbEntity
  8
0
  6
SLD-Solid
 62
     7
370
    25
100
AcDbLine
 10
3.9952728732
 20
26.8568798541
 30
0.0
 11
4.0194985544
 21
26.8568798541
 31
0.0
  0
ARC
  5
1FF
330
1F
100
AcDbEntity
  8
0
  6
SLD-Solid
 62
     7
370
    25
100
AcDbCircle
 10
3.9952728732
 20
26.6068798541
 30
0.0
 40
0.2800000000000011
100
AcDbArc
 50
90.0
 51
180.0
  0
ARC
  5
200
330
1F
100
AcDbEntity
  8
0
  6
SLD-Solid
 62
     7
370
    25
100
AcDbCircle
 10
3.9952728732
 20
26.6068798541
 30
0.0
 40
0.2500000000000009
100
AcDbArc
 50
90.0
 51
180.0
  0
SPLINE
  5
201
330
1F
100
AcDbEntity
  8
0
  6
SLD-Solid
 62
     7
370
    25
100
AcDbSpline
210
0.0
220
0.0
230
1.0
 70
     8
 71
     3
 72
    15
 73
    11
 74
     0
 42
0.00000001
 43
0.00000001
 40
0.0
 40
0.0
 40
0.0
 40
0.0
 40
0.1250000000000135
 40
0.2500000000000097
 40
0.3749999999999976
 40
0.5000000000000103
 40
0.6250000000000062
 40
0.7499999999999916
 40
0.8749999999999897
 40
1.0
 40
1.0
 40
1.0
 40
1.0
 10
19.73872423558199
 20
25.75948272217706
 30
0.0
 10
19.73804781480656
 20
25.75415122538782
 30
0.0
 10
19.7366949732557
 20
25.74348823180932
 30
0.0
 10
19.72628875866519
 20
25.73002147452627
 30
0.0
 10
19.71141423649583
 20
25.7212253589644
 30
0.0
 10
19.69372423558198
 20
25.71853173089764
 30
0.0
 10
19.67603423466814
 20
25.72244338769796
 30
0.0
 10
19.66115971249878
 20
25.7324575319934
 30
0.0
 10
19.65075349790828
 20
25.74714231801002
 30
0.0
 10
19.64940065635742
 20
25.75861733074422
 30
0.0
 10
19.64872423558199
 20
25.76435483711132
 30
0.0
  0
SPLINE
  5
202
330
1F
100
AcDbEntity
  8
0
  6
SLD-Solid
 62
     7
370
    25
100
AcDbSpline
210
0.0
220
0.0
230
1.0
 70
     8
 71
     3
 72
    15
 73
    11
 74
     0
 42
0.00000001
 43
0.00000001
 40
0.0
 40
0.0
 40
0.0
 40
0.0
 40
0.1249999999999528
 40
0.2499999999999345
 40
0.3749999999999111
 40
0.4999999999998731
 40
0.6249999999998465
 40
0.7499999999998385
 40
0.8749999999998218
 40
1.0
 40
1.0
 40
1.0
 40
1.0
 10
19.64872423558202
 20
23.96429910356676
 30
0.0
 10
19.64891211294526
 20
23.96113540988906
 30
0.0
 10
19.64928786767175
 20
23.95480802253368
 30
0.0
 10
19.65228506196329
 20
23.94569584868416
 30
0.0
 10
19.65692821062643
 20
23.93732416542944
 30
0.0
 10
19.66319345485962
 20
23.93002666509048
 30
0.0
 10
19.67076479627611
 20
23.92407574222281
 30
0.0
 10
19.67932438304824
 20
23.91974188049675
 30
0.0
 10
19.68851642238414
 20
23.91701655050656
 30
0.0
 10
19.69476210816707
 20
23.91674102285935
 30
0.0
 10
19.69788495105853
 20
23.91660325903575
 30
0.0
  0
LINE
  5
203
330
1F
100
AcDbEntity
  8
0
  6
SLD-Solid
 62
     7
370
    25
100
AcDbLine
 10
19.6487242356
 20
25.7643548371
 30
0.0
 11
19.6487242356
 21
23.9642991036
 31
0.0
  0
SPLINE
  5
204
330
1F
100
AcDbEntity
  8
0
  6
SLD-Solid
 62
     7
370
    25
100
AcDbSpline
210
0.0
220
0.0
230
1.0
 70
     8
 71
     3
 72
    11
 73
     7
 74
     0
 42
0.00000001
 43
0.00000001
 40
0.0
 40
0.0
 40
0.0
 40
0.0
 40
0.2500000000000006
 40
0.500000000000011
 40
0.7500000000000121
 40
1.0
 40
1.0
 40
1.0
 40
1.0
 10
19.69788495105853
 20
23.91660325903575
 30
0.0
 10
19.70335474995397
 20
23.91451912022619
 30
0.0
 10
19.71429434774485
 20
23.91035084260706
 30
0.0
 10
19.7276673767909
 20
23.91088449228728
 30
0.0
 10
19.73693150104402
 20
23.91493732503875
 30
0.0
 10
19.73812665740269
 20
23.91911493885677
 30
0.0
 10
19.73872423558202
 20
23.92120374576579
 30
0.0
  0
LINE
  5
205
330
1F
100
AcDbEntity
  8
0
  6
SLD-Solid
 62
     7
370
    25
100
AcDbLine
 10
19.7387242356
 20
25.7594827222
 30
0.0
 11
19.7387242356
 21
23.9212037458
 31
0.0
  0
SPLINE
  5
206
330
1F
100
AcDbEntity
  8
0
  6
SLD-Solid
 62
     7
370
    25
100
AcDbSpline
210
0.0
220
0.0
230
1.0
 70
     8
 71
     3
 72
    11
 73
     7
 74
     0
 42
0.00000001
 43
0.00000001
 40
0.0
 40
0.0
 40
0.0
 40
0.0
 40
0.249999999999944
 40
0.4999999999999361
 40
0.7499999999999456
 40
0.9999999999999999
 40
0.9999999999999999
 40
0.9999999999999999
 40
0.9999999999999999
 10
3.715272873202279
 20
23.92120374576574
 30
0.0
 10
3.715870451381607
 20
23.91911493885673
 30
0.0
 10
3.717065607740265
 20
23.9149373250387
 30
0.0
 10
3.726329731993381
 20
23.91088449228723
 30
0.0
 10
3.739702761039431
 20
23.91035084260702
 30
0.0
 10
3.75064235883032
 20
23.91451912022614
 30
0.0
 10
3.756112157725765
 20
23.9166032590357
 30
0.0
  0
SPLINE
  5
207
330
1F
100
AcDbEntity
  8
0
  6
SLD-Solid
 62
     7
370
    25
100
AcDbSpline
210
0.0
220
0.0
230
1.0
 70
     8
 71
     3
 72
    15
 73
    11
 74
     0
 42
0.00000001
 43
0.00000001
 40
0.0
 40
0.0
 40
0.0
 40
0.0
 40
0.1249999999999949
 40
0.2499999999999958
 40
0.3749999999999956
 40
0.4999999999999956
 40
0.6250000000000018
 40
0.7500000000000022
 40
0.8749999999999964
 40
1.0
 40
1.0
 40
1.0
 40
1.0
 10
3.805272873202267
 20
25.76435483711125
 30
0.0
 10
3.80459645242684
 20
25.75861733074415
 30
0.0
 10
3.803243610875979
 20
25.74714231800995
 30
0.0
 10
3.792837396285469
 20
25.73245753199334
 30
0.0
 10
3.777962874116111
 20
25.72244338769791
 30
0.0
 10
3.760272873202271
 20
25.71853173089759
 30
0.0
 10
3.742582872288421
 20
25.72122535896435
 30
0.0
 10
3.727708350119064
 20
25.73002147452622
 30
0.0
 10
3.717302135528556
 20
25.74348823180928
 30
0.0
 10
3.715949293977698
 20
25.75415122538777
 30
0.0
 10
3.715272873202267
 20
25.75948272217702
 30
0.0
  0
LINE
  5
208
330
1F
100
AcDbEntity
  8
0
  6
SLD-Solid
 62
     7
370
    25
100
AcDbLine
 10
3.8052728732
 20
25.7643548371
 30
0.0
 11
3.8052728732
 21
23.9642991036
 31
0.0
  0
SPLINE
  5
209
330
1F
100
AcDbEntity
  8
0
  6
SLD-Solid
 62
     7
370
    25
100
AcDbSpline
210
0.0
220
0.0
230
1.0
 70
     8
 71
     3
 72
    15
 73
    11
 74
     0
 42
0.00000001
 43
0.00000001
 40
0.0
 40
0.0
 40
0.0
 40
0.0
 40
0.1250000000000303
 40
0.2500000000000285
 40
0.3750000000000276
 40
0.5000000000000195
 40
0.6250000000000234
 40
0.7500000000000099
 40
0.8750000000000173
 40
1.0
 40
1.0
 40
1.0
 40
1.0
 10
3.756112157725765
 20
23.9166032590357
 30
0.0
 10
3.759235000617226
 20
23.9167410228593
 30
0.0
 10
3.765480686400144
 20
23.91701655050651
 30
0.0
 10
3.774672725736042
 20
23.9197418804967
 30
0.0
 10
3.783232312508167
 20
23.92407574222275
 30
0.0
 10
3.79080365392466
 20
23.93002666509042
 30
0.0
 10
3.79706889815785
 20
23.93732416542938
 30
0.0
 10
3.801712046820998
 20
23.94569584868409
 30
0.0
 10
3.804709241112531
 20
23.95480802253361
 30
0.0
 10
3.80508499583903
 20
23.96113540988899
 30
0.0
 10
3.805272873202279
 20
23.96429910356668
 30
0.0
  0
LINE
  5
20A
330
1F
100
AcDbEntity
  8
0
  6
SLD-Solid
 62
     7
370
    25
100
AcDbLine
 10
3.7152728732
 20
25.7594827222
 30
0.0
 11
3.7152728732
 21
23.9212037458
 31
0.0
  0
LINE
  5
20B
330
1F
100
AcDbEntity
  8
0
  6
SLD-Solid
 62
     7
370
    25
100
AcDbLine
 10
19.6487242356
 20
25.7643548371
 30
0.0
 11
19.6487242356
 21
25.8064944393
 31
0.0
  0
LINE
  5
20C
330
1F
100
AcDbEntity
  8
0
  6
SLD-Solid
 62
     7
370
    25
100
AcDbLine
 10
3.8052728732
 20
25.8064944393
 30
0.0
 11
3.8052728732
 21
25.7643548371
 31
0.0
  0
LINE
  5
20D
330
1F
100
AcDbEntity
  8
0
  6
SLD-Solid
 62
     7
370
    25
100
AcDbLine
 10
19.6487242356
 20
25.8111929024
 30
0.0
 11
19.6487242356
 21
25.8064944393
 31
0.0
  0
LINE
  5
20E
330
1F
100
AcDbEntity
  8
0
  6
SLD-Solid
 62
     7
370
    25
100
AcDbLine
 10
3.8052728732
 20
25.8064944393
 30
0.0
 11
3.8052728732
 21
25.8111929024
 31
0.0
  0
LINE
  5
20F
330
1F
100
AcDbEntity
  8
0
  6
SLD-Solid
 62
     7
370
    25
100
AcDbLine
 10
19.7387242356
 20
25.7604611266
 30
0.0
 11
19.7387242356
 21
25.7594827222
 31
0.0
  0
LINE
  5
210
330
1F
100
AcDbEntity
  8
0
  6
SLD-Solid
 62
     7
370
    25
100
AcDbLine
 10
3.7152728732
 20
25.7594827222
 30
0.0
 11
3.7152728732
 21
25.7604611266
 31
0.0
  0
LINE
  5
211
330
1F
100
AcDbEntity
  8
0
  6
SLD-Solid
 62
     7
370
    25
100
AcDbLine
 10
19.6772166587
 20
23.9212037458
 30
0.0
 11
19.6687242356
 21
23.9212037458
 31
0.0
  0
LINE
  5
212
330
1F
100
AcDbEntity
  8
0
  6
SLD-Solid
 62
     7
370
    25
100
AcDbLine
 10
3.7852728732
 20
23.9212037458
 30
0.0
 11
3.7767458476
 21
23.9212037458
 31
0.0
  0
ARC
  5
213
330
1F
100
AcDbEntity
  8
0
  6
SLD-Solid
 62
     7
370
    25
100
AcDbCircle
 10
19.3295649401
 20
24.0212037458
 30
0.0
 40
0.1000000000000014
100
AcDbArc
 50
180.0
 51
270.0
  0
LINE
  5
214
330
1F
100
AcDbEntity
  8
0
  6
SLD-Solid
 62
     7
370
    25
100
AcDbLine
 10
19.2295649401
 20
26.0712328167
 30
0.0
 11
19.2295649401
 21
24.0212037458
 31
0.0
  0
ARC
  5
215
330
1F
100
AcDbEntity
  8
0
  6
SLD-Solid
 62
     7
370
    25
100
AcDbCircle
 10
19.3295649401
 20
26.0712328167
 30
0.0
 40
0.1000000000000023
100
AcDbArc
 50
135.0
 51
180.0
  0
LINE
  5
216
330
1F
100
AcDbEntity
  8
0
  6
SLD-Solid
 62
     7
370
    25
100
AcDbLine
 10
19.4002756182
 20
26.2833648511
 30
0.0
 11
19.258854262
 21
26.1419434948
 31
0.0
  0
ARC
  5
217
330
1F
100
AcDbEntity
  8
0
  6
SLD-Solid
 62
     7
370
    25
100
AcDbCircle
 10
19.4709862963
 20
26.212654173
 30
0.0
 40
0.1000000000000014
100
AcDbArc
 50
90.0
 51
135.0
  0
LINE
  5
218
330
1F
100
AcDbEntity
  8
0
  6
SLD-Solid
 62
     7
370
    25
100
AcDbLine
 10
19.6487242356
 20
26.312654173
 30
0.0
 11
19.4709862963
 21
26.312654173
 31
0.0
  0
LINE
  5
219
330
1F
100
AcDbEntity
  8
0
  6
SLD-Solid
 62
     7
370
    25
100
AcDbLine
 10
19.3295649401
 20
23.9212037458
 30
0.0
 11
19.6687242356
 21
23.9212037458
 31
0.0
  0
ARC
  5
21A
330
1F
100
AcDbEntity
  8
0
  6
SLD-Solid
 62
     7
370
    25
100
AcDbCircle
 10
19.0644985544
 20
26.6191419149
 30
0.0
 40
0.1000000000000023
100
AcDbArc
 50
315.0
 51
0.0
  0
LINE
  5
21B
330
1F
100
AcDbEntity
  8
0
  6
SLD-Solid
 62
     7
370
    25
100
AcDbLine
 10
18.9937878763
 20
26.4070098805
 30
0.0
 11
19.1352092325
 21
26.5484312368
 31
0.0
  0
LINE
  5
21C
330
1F
100
AcDbEntity
  8
0
  6
SLD-Solid
 62
     7
370
    25
100
AcDbLine
 10
4.5309199106
 20
26.3777205586
 30
0.0
 11
18.9230771982
 21
26.3777205586
 31
0.0
  0
ARC
  5
21D
330
1F
100
AcDbEntity
  8
0
  6
SLD-Solid
 62
     7
370
    25
100
AcDbCircle
 10
4.5309199106
 20
26.4777205586
 30
0.0
 40
0.1000000000000014
100
AcDbArc
 50
225.0
 51
270.0
  0
LINE
  5
21E
330
1F
100
AcDbEntity
  8
0
  6
SLD-Solid
 62
     7
370
    25
100
AcDbLine
 10
4.3187878763
 20
26.5484312368
 30
0.0
 11
4.4602092325
 21
26.4070098805
 31
0.0
  0
ARC
  5
21F
330
1F
100
AcDbEntity
  8
0
  6
SLD-Solid
 62
     7
370
    25
100
AcDbCircle
 10
4.3894985544
 20
26.6191419149
 30
0.0
 40
0.1000000000000011
100
AcDbArc
 50
180.0
 51
225.0
  0
LINE
  5
220
330
1F
100
AcDbEntity
  8
0
  6
SLD-Solid
 62
     7
370
    25
100
AcDbLine
 10
4.2894985544
 20
26.7968798541
 30
0.0
 11
4.2894985544
 21
26.6191419149
 31
0.0
  0
LINE
  5
221
330
1F
100
AcDbEntity
  8
0
  6
SLD-Solid
 62
     7
370
    25
100
AcDbLine
 10
19.1644985544
 20
26.6191419149
 30
0.0
 11
19.1644985544
 21
26.7968798541
 31
0.0
  0
ARC
  5
222
330
1F
100
AcDbEntity
  8
0
  6
SLD-Solid
 62
     7
370
    25
100
AcDbCircle
 10
18.9230771982
 20
26.4777205586
 30
0.0
 40
0.0999999999999979
100
AcDbArc
 50
270.0
 51
315.0
  0
ARC
  5
223
330
1F
100
AcDbEntity
  8
0
  6
SLD-Solid
 62
     7
370
    25
100
AcDbCircle
 10
3.9830108125
 20
26.212654173
 30
0.0
 40
0.0999999999999979
100
AcDbArc
 50
45.0
 51
90.0
  0
LINE
  5
224
330
1F
100
AcDbEntity
  8
0
  6
SLD-Solid
 62
     7
370
    25
100
AcDbLine
 10
4.1951428468
 20
26.1419434948
 30
0.0
 11
4.0537214906
 21
26.2833648511
 31
0.0
  0
ARC
  5
225
330
1F
100
AcDbEntity
  8
0
  6
SLD-Solid
 62
     7
370
    25
100
AcDbCircle
 10
4.1244321687
 20
26.0712328167
 30
0.0
 40
0.0999999999999996
100
AcDbArc
 50
0.0
 51
45.0
  0
LINE
  5
226
330
1F
100
AcDbEntity
  8
0
  6
SLD-Solid
 62
     7
370
    25
100
AcDbLine
 10
4.2244321687
 20
24.0212037458
 30
0.0
 11
4.2244321687
 21
26.0712328167
 31
0.0
  0
ARC
  5
227
330
1F
100
AcDbEntity
  8
0
  6
SLD-Solid
 62
     7
370
    25
100
AcDbCircle
 10
4.1244321687
 20
24.0212037458
 30
0.0
 40
0.0999999999999996
100
AcDbArc
 50
270.0
 51
0.0
  0
LINE
  5
228
330
1F
100
AcDbEntity
  8
0
  6
SLD-Solid
 62
     7
370
    25
100
AcDbLine
 10
3.9830108125
 20
26.312654173
 30
0.0
 11
3.8052728732
 21
26.312654173
 31
0.0
  0
LINE
  5
229
330
1F
100
AcDbEntity
  8
0
  6
SLD-Solid
 62
     7
370
    25
100
AcDbLine
 10
3.7852728732
 20
23.9212037458
 30
0.0
 11
4.1244321687
 21
23.9212037458
 31
0.0
  0
LINE
  5
22A
330
1F
100
AcDbEntity
  8
0
  6
SLD-Solid
 62
     7
370
    25
100
AcDbLine
 10
3.7269985544
 20
21.1818798541
 30
0.0
 11
3.7269985544
 21
23.9114780709
 31
0.0
  0
LINE
  5
22B
330
1F
100
AcDbEntity
  8
0
  6
SLD-Solid
 62
     7
370
    25
100
AcDbLine
 10
3.7269985544
 20
26.6870602125
 30
0.0
 11
3.7269985544
 21
27.4318798541
 31
0.0
  0
ARC
  5
22C
330
1F
100
AcDbEntity
  8
0
  6
SLD-Solid
 62
     7
370
    25
100
AcDbCircle
 10
4.1019985544
 20
27.4318798541
 30
0.0
 40
0.3750000000000089
100
AcDbArc
 50
90.0
 51
180.0
  0
LINE
  5
22D
330
1F
100
AcDbEntity
  8
0
  6
SLD-Solid
 62
     7
370
    25
100
AcDbLine
 10
4.1019985544
 20
27.8068798541
 30
0.0
 11
19.3519985544
 21
27.8068798541
 31
0.0
  0
ARC
  5
22E
330
1F
100
AcDbEntity
  8
0
  6
SLD-Solid
 62
     7
370
    25
100
AcDbCircle
 10
19.3519985544
 20
27.4318798541
 30
0.0
 40
0.375
100
AcDbArc
 50
0.0
 51
90.0
  0
LINE
  5
22F
330
1F
100
AcDbEntity
  8
0
  6
SLD-Solid
 62
     7
370
    25
100
AcDbLine
 10
19.3519985544
 20
20.8068798541
 30
0.0
 11
16.5521235544
 21
20.8068798541
 31
0.0
  0
LINE
  5
230
330
1F
100
AcDbEntity
  8
0
  6
SLD-Solid
 62
     7
370
    25
100
AcDbLine
 10
12.0521235544
 20
20.8068798541
 30
0.0
 11
11.4018735544
 21
20.8068798541
 31
0.0
  0
LINE
  5
231
330
1F
100
AcDbEntity
  8
0
  6
SLD-Solid
 62
     7
370
    25
100
AcDbLine
 10
6.9018735544
 20
20.8068798541
 30
0.0
 11
4.1019985544
 21
20.8068798541
 31
0.0
  0
ARC
  5
232
330
1F
100
AcDbEntity
  8
0
  6
SLD-Solid
 62
     7
370
    25
100
AcDbCircle
 10
4.1019985544
 20
21.1818798541
 30
0.0
 40
0.3750000000000213
100
AcDbArc
 50
180.0
 51
270.0
  0
CIRCLE
  5
233
330
1F
100
AcDbEntity
  8
0
  6
SLD-Solid
 62
     7
370
    25
100
AcDbCircle
 10
18.7269985544
 20
25.9318798541
 30
0.0
 40
0.1000000000000014
  0
CIRCLE
  5
234
330
1F
100
AcDbEntity
  8
0
  6
SLD-Solid
 62
     7
370
    25
100
AcDbCircle
 10
4.7269985544
 20
25.9318798541
 30
0.0
 40
0.0999999999999996
  0
ARC
  5
235
330
1F
100
AcDbEntity
  8
0
  6
SLD-Solid
 62
     7
370
    25
100
AcDbCircle
 10
19.3519985544
 20
21.1818798541
 30
0.0
 40
0.3750000000000107
100
AcDbArc
 50
270.0
 51
0.0
  0
LINE
  5
236
330
1F
100
AcDbEntity
  8
0
  6
SLD-Solid
 62
     7
370
    25
100
AcDbLine
 10
19.7269985544
 20
27.4318798541
 30
0.0
 11
19.7269985544
 21
26.6870602125
 31
0.0
  0
LINE
  5
237
330
1F
100
AcDbEntity
  8
0
  6
SLD-Solid
 62
     7
370
    25
100
AcDbLine
 10
19.7269985544
 20
23.9114780709
 30
0.0
 11
19.7269985544
 21
21.1818798541
 31
0.0
  0
LINE
  5
238
330
1F
100
AcDbEntity
  8
0
  6
SLD-Solid
 62
     7
370
    25
100
AcDbLine
 10
11.4018735544
 20
20.1213798541
 30
0.0
 11
11.4018735544
 21
24.6213798541
 31
0.0
  0
LINE
  5
239
330
1F
100
AcDbEntity
  8
0
  6
SLD-Solid
 62
     7
370
    25
100
AcDbLine
 10
6.9018735544
 20
20.1213798541
 30
0.0
 11
6.9018735544
 21
24.6213798541
 31
0.0
  0
LINE
  5
23A
330
1F
100
AcDbEntity
  8
0
  6
SLD-Solid
 62
     7
370
    25
100
AcDbLine
 10
12.0521235544
 20
24.6213798541
 30
0.0
 11
12.0521235544
 21
20.1213798541
 31
0.0
  0
LINE
  5
23B
330
1F
100
AcDbEntity
  8
0
  6
SLD-Solid
 62
     7
370
    25
100
AcDbLine
 10
16.5521235544
 20
24.6213798541
 30
0.0
 11
16.5521235544
 21
20.1213798541
 31
0.0
  0
LINE
  5
23C
330
1F
100
AcDbEntity
  8
0
  6
SLD-Solid
 62
     7
370
    25
100
AcDbLine
 10
6.6782743981
 20
21.1254088186
 30
0.0
 11
6.9018735544
 21
21.1254088186
 31
0.0
  0
LINE
  5
23D
330
1F
100
AcDbEntity
  8
0
  6
SLD-Solid
 62
     7
370
    25
100
AcDbLine
 10
6.6782743981
 20
21.1438798541
 30
0.0
 11
6.9018735544
 21
21.1438798541
 31
0.0
  0
LINE
  5
23E
330
1F
100
AcDbEntity
  8
0
  6
SLD-Solid
 62
     7
370
    25
100
AcDbLine
 10
6.6930222791
 20
23.6173508896
 30
0.0
 11
6.6782743981
 21
23.6173508896
 31
0.0
  0
LINE
  5
23F
330
1F
100
AcDbEntity
  8
0
  6
SLD-Solid
 62
     7
370
    25
100
AcDbLine
 10
6.9018735544
 20
23.6173508896
 30
0.0
 11
6.6930222791
 21
23.6173508896
 31
0.0
  0
LINE
  5
240
330
1F
100
AcDbEntity
  8
0
  6
SLD-Solid
 62
     7
370
    25
100
AcDbLine
 10
6.6930222791
 20
23.5988798541
 30
0.0
 11
6.6782743981
 21
23.5988798541
 31
0.0
  0
LINE
  5
241
330
1F
100
AcDbEntity
  8
0
  6
SLD-Solid
 62
     7
370
    25
100
AcDbLine
 10
6.9018735544
 20
23.5988798541
 30
0.0
 11
6.6930222791
 21
23.5988798541
 31
0.0
  0
LINE
  5
242
330
1F
100
AcDbEntity
  8
0
  6
SLD-Solid
 62
     7
370
    25
100
AcDbLine
 10
16.5521235544
 20
21.1254088186
 30
0.0
 11
16.7757227107
 21
21.1254088186
 31
0.0
  0
LINE
  5
243
330
1F
100
AcDbEntity
  8
0
  6
SLD-Solid
 62
     7
370
    25
100
AcDbLine
 10
16.5521235544
 20
21.1438798541
 30
0.0
 11
16.7757227107
 21
21.1438798541
 31
0.0
  0
LINE
  5
244
330
1F
100
AcDbEntity
  8
0
  6
SLD-Solid
 62
     7
370
    25
100
AcDbLine
 10
16.5570888491
 20
21.4438798541
 30
0.0
 11
16.5521235544
 21
21.4438798541
 31
0.0
  0
LINE
  5
245
330
1F
100
AcDbEntity
  8
0
  6
SLD-Solid
 62
     7
370
    25
100
AcDbLine
 10
16.7757227107
 20
23.6173508896
 30
0.0
 11
16.5521235544
 21
23.6173508896
 31
0.0
  0
LINE
  5
246
330
1F
100
AcDbEntity
  8
0
  6
SLD-Solid
 62
     7
370
    25
100
AcDbLine
 10
16.7757227107
 20
23.5988798541
 30
0.0
 11
16.5521235544
 21
23.5988798541
 31
0.0
  0
LINE
  5
247
330
1F
100
AcDbEntity
  8
0
  6
SLD-Solid
 62
     7
370
    25
100
AcDbLine
 10
11.6892485544
 20
23.1563798541
 30
0.0
 11
11.6892485544
 21
21.5863798541
 31
0.0
  0
ELLIPSE
  5
248
330
1F
100
AcDbEntity
  8
0
  6
SLD-Solid
 62
     7
370
    25
100
AcDbEllipse
 10
11.9892485544
 20
22.7348702658
 30
0.0
 11
0.0
 21
0.4871123409292614
 31
0.0
210
0.0
220
0.0
230
1.0
 40
0.6158743575
 41
1.570796326794897
 42
1.621552695495672
  0
LINE
  5
249
330
1F
100
AcDbEntity
  8
0
  6
SLD-Solid
 62
     7
370
    25
100
AcDbLine
 10
11.6896349028
 20
22.7101568266
 30
0.0
 11
11.6896349028
 21
22.4032327119
 31
0.0
  0
ELLIPSE
  5
24A
330
1F
100
AcDbEntity
  8
0
  6
SLD-Solid
 62
     7
370
    25
100
AcDbEllipse
 10
11.9892485544
 20
22.3713798541
 30
0.0
 11
0.0
 21
0.6278332993887688
 31
0.0
210
0.0
220
0.0
230
1.0
 40
0.4778338459
 41
1.520039958094118
 42
1.570796326794897
  0
ARC
  5
24B
330
1F
100
AcDbEntity
  8
0
  6
SLD-Solid
 62
     7
370
    25
100
AcDbCircle
 10
10.9901834124
 20
22.3713798541
 30
0.0
 40
0.7001764005716183
100
AcDbArc
 50
357.3925650645
 51
2.6074349355
  0
ELLIPSE
  5
24C
330
1F
100
AcDbEntity
  8
0
  6
SLD-Solid
 62
     7
370
    25
100
AcDbEllipse
 10
11.9892485544
 20
22.3713798541
 30
0.0
 11
0.0
 21
0.6278332993887688
 31
0.0
210
0.0
220
0.0
230
1.0
 40
0.4778338459
 41
1.570796326794897
 42
1.621552695495681
  0
LINE
  5
24D
330
1F
100
AcDbEntity
  8
0
  6
SLD-Solid
 62
     7
370
    25
100
AcDbLine
 10
11.6896349028
 20
22.3395269964
 30
0.0
 11
11.6896349028
 21
22.0326028817
 31
0.0
  0
ELLIPSE
  5
24E
330
1F
100
AcDbEntity
  8
0
  6
SLD-Solid
 62
     7
370
    25
100
AcDbEllipse
 10
11.9892485544
 20
22.0078894425
 30
0.0
 11
0.0
 21
0.4871123409292686
 31
0.0
210
0.0
220
0.0
230
1.0
 40
0.6158743575
 41
1.520039958094122
 42
1.570796326794897
  0
LINE
  5
24F
330
1F
100
AcDbEntity
  8
0
  6
SLD-Solid
 62
     7
370
    25
100
AcDbLine
 10
11.6896349028
 20
22.4032327119
 30
0.0
 11
11.7036192124
 21
22.4032327119
 31
0.0
  0
ARC
  5
250
330
1F
100
AcDbEntity
  8
0
  6
SLD-Solid
 62
     7
370
    25
100
AcDbCircle
 10
11.004167722
 20
22.3713798541
 30
0.0
 40
0.7001764005706637
100
AcDbArc
 50
357.3925650645
 51
2.6074349355
  0
LINE
  5
251
330
1F
100
AcDbEntity
  8
0
  6
SLD-Solid
 62
     7
370
    25
100
AcDbLine
 10
11.7036192124
 20
22.3395269964
 30
0.0
 11
11.6896349028
 21
22.3395269964
 31
0.0
  0
LINE
  5
252
330
1F
100
AcDbEntity
  8
0
  6
SLD-Solid
 62
     7
370
    25
100
AcDbLine
 10
11.6896349028
 20
22.0326028817
 30
0.0
 11
11.7036192124
 21
22.3395269964
 31
0.0
  0
LINE
  5
253
330
1F
100
AcDbEntity
  8
0
  6
SLD-Solid
 62
     7
370
    25
100
AcDbLine
 10
11.7036192124
 20
22.4032327119
 30
0.0
 11
11.6896349028
 21
22.7101568266
 31
0.0
  0
LINE
  5
254
330
1F
100
AcDbEntity
  8
0
  6
SLD-Solid
 62
     7
370
    25
100
AcDbLine
 10
11.4018735544
 20
23.373721542
 30
0.0
 11
11.4676409234
 21
23.1954653265
 31
0.0
  0
LINE
  5
255
330
1F
100
AcDbEntity
  8
0
  6
SLD-Solid
 62
     7
370
    25
100
AcDbLine
 10
11.4676409234
 20
21.5472943818
 30
0.0
 11
11.4018735544
 21
21.3690381663
 31
0.0
  0
ARC
  5
256
330
1F
100
AcDbEntity
  8
0
  6
SLD-Solid
 62
     7
370
    25
100
AcDbCircle
 10
11.6399674301
 20
23.3986393705
 30
0.0
 40
0.0492866870932412
100
AcDbArc
 50
0.8608446978
 51
90.8357227622
  0
LINE
  5
257
330
1F
100
AcDbEntity
  8
0
  6
SLD-Solid
 62
     7
370
    25
100
AcDbLine
 10
11.6892485544
 20
23.3993798541
 30
0.0
 11
11.6892485544
 21
23.1563798541
 31
0.0
  0
ARC
  5
258
330
1F
100
AcDbEntity
  8
0
  6
SLD-Solid
 62
     7
370
    25
100
AcDbCircle
 10
11.6399674301
 20
21.3441203378
 30
0.0
 40
0.0492866870932517
100
AcDbArc
 50
269.1642772378
 51
359.1391553022
  0
LINE
  5
259
330
1F
100
AcDbEntity
  8
0
  6
SLD-Solid
 62
     7
370
    25
100
AcDbLine
 10
11.6892485544
 20
21.5863798541
 30
0.0
 11
11.6892485544
 21
21.3433798541
 31
0.0
  0
LINE
  5
25A
330
1F
100
AcDbEntity
  8
0
  6
SLD-Solid
 62
     7
370
    25
100
AcDbLine
 10
11.4018735544
 20
23.4493798541
 30
0.0
 11
11.6392485544
 21
23.4493798541
 31
0.0
  0
LINE
  5
25B
330
1F
100
AcDbEntity
  8
0
  6
SLD-Solid
 62
     7
370
    25
100
AcDbLine
 10
11.6392485544
 20
23.4493798541
 30
0.0
 11
11.6392485544
 21
23.4479208147
 31
0.0
  0
ARC
  5
25C
330
1F
100
AcDbEntity
  8
0
  6
SLD-Solid
 62
     7
370
    25
100
AcDbCircle
 10
11.6392485544
 20
23.3993798541
 30
0.0
 40
0.0500000000000007
100
AcDbArc
 50
0.0
 51
90.0
  0
ARC
  5
25D
330
1F
100
AcDbEntity
  8
0
  6
SLD-Solid
 62
     7
370
    25
100
AcDbCircle
 10
11.6392485544
 20
21.3433798541
 30
0.0
 40
0.0499999999999989
100
AcDbArc
 50
270.0
 51
0.0
  0
LINE
  5
25E
330
1F
100
AcDbEntity
  8
0
  6
SLD-Solid
 62
     7
370
    25
100
AcDbLine
 10
11.6392485544
 20
21.2948388936
 30
0.0
 11
11.6392485544
 21
21.2933798541
 31
0.0
  0
LINE
  5
25F
330
1F
100
AcDbEntity
  8
0
  6
SLD-Solid
 62
     7
370
    25
100
AcDbLine
 10
11.6392485544
 20
21.2933798541
 30
0.0
 11
11.4018735544
 21
21.2933798541
 31
0.0
  0
LINE
  5
260
330
1F
100
AcDbEntity
  8
0
  6
SLD-Solid
 62
     7
370
    25
100
AcDbLine
 10
11.7647485544
 20
21.5863798541
 30
0.0
 11
11.7647485544
 21
23.1563798541
 31
0.0
  0
ELLIPSE
  5
261
330
1F
100
AcDbEntity
  8
0
  6
SLD-Solid
 62
     7
370
    25
100
AcDbEllipse
 10
11.4647485544
 20
22.0078894425
 30
0.0
 11
0.0
 21
0.487112340929265
 31
0.0
210
0.0
220
0.0
230
1.0
 40
0.6158743575
 41
4.712388980384699
 42
4.763145349085473
  0
LINE
  5
262
330
1F
100
AcDbEntity
  8
0
  6
SLD-Solid
 62
     7
370
    25
100
AcDbLine
 10
11.764362206
 20
22.0326028817
 30
0.0
 11
11.764362206
 21
22.3395269964
 31
0.0
  0
ELLIPSE
  5
263
330
1F
100
AcDbEntity
  8
0
  6
SLD-Solid
 62
     7
370
    25
100
AcDbEllipse
 10
11.4647485544
 20
22.3713798541
 30
0.0
 11
0.0
 21
0.6278332993887688
 31
0.0
210
0.0
220
0.0
230
1.0
 40
0.4778338459
 41
4.661632611683912
 42
4.712388980384697
  0
ARC
  5
264
330
1F
100
AcDbEntity
  8
0
  6
SLD-Solid
 62
     7
370
    25
100
AcDbCircle
 10
12.4638136964
 20
22.3713798541
 30
0.0
 40
0.7001764005721861
100
AcDbArc
 50
177.3925650645
 51
182.6074349355
  0
ELLIPSE
  5
265
330
1F
100
AcDbEntity
  8
0
  6
SLD-Solid
 62
     7
370
    25
100
AcDbEllipse
 10
11.4647485544
 20
22.3713798541
 30
0.0
 11
0.0
 21
0.6278332993887688
 31
0.0
210
0.0
220
0.0
230
1.0
 40
0.4778338459
 41
4.712388980384697
 42
4.763145349085475
  0
LINE
  5
266
330
1F
100
AcDbEntity
  8
0
  6
SLD-Solid
 62
     7
370
    25
100
AcDbLine
 10
11.764362206
 20
22.4032327119
 30
0.0
 11
11.764362206
 21
22.7101568266
 31
0.0
  0
ELLIPSE
  5
267
330
1F
100
AcDbEntity
  8
0
  6
SLD-Solid
 62
     7
370
    25
100
AcDbEllipse
 10
11.4647485544
 20
22.7348702658
 30
0.0
 11
0.0
 21
0.487112340929265
 31
0.0
210
0.0
220
0.0
230
1.0
 40
0.6158743575
 41
4.661632611683924
 42
4.712388980384699
  0
LINE
  5
268
330
1F
100
AcDbEntity
  8
0
  6
SLD-Solid
 62
     7
370
    25
100
AcDbLine
 10
11.764362206
 20
22.3395269964
 30
0.0
 11
11.7503778964
 21
22.3395269964
 31
0.0
  0
ARC
  5
269
330
1F
100
AcDbEntity
  8
0
  6
SLD-Solid
 62
     7
370
    25
100
AcDbCircle
 10
12.4498293868
 20
22.3713798541
 30
0.0
 40
0.7001764005700922
100
AcDbArc
 50
177.3925650645
 51
182.6074349355
  0
LINE
  5
26A
330
1F
100
AcDbEntity
  8
0
  6
SLD-Solid
 62
     7
370
    25
100
AcDbLine
 10
11.7503778964
 20
22.4032327119
 30
0.0
 11
11.764362206
 21
22.4032327119
 31
0.0
  0
LINE
  5
26B
330
1F
100
AcDbEntity
  8
0
  6
SLD-Solid
 62
     7
370
    25
100
AcDbLine
 10
11.764362206
 20
22.7101568266
 30
0.0
 11
11.7503778964
 21
22.4032327119
 31
0.0
  0
LINE
  5
26C
330
1F
100
AcDbEntity
  8
0
  6
SLD-Solid
 62
     7
370
    25
100
AcDbLine
 10
11.7503778964
 20
22.3395269964
 30
0.0
 11
11.764362206
 21
22.0326028817
 31
0.0
  0
LINE
  5
26D
330
1F
100
AcDbEntity
  8
0
  6
SLD-Solid
 62
     7
370
    25
100
AcDbLine
 10
12.0521235544
 20
21.3690381663
 30
0.0
 11
11.9863561854
 21
21.5472943818
 31
0.0
  0
LINE
  5
26E
330
1F
100
AcDbEntity
  8
0
  6
SLD-Solid
 62
     7
370
    25
100
AcDbLine
 10
11.9863561854
 20
23.1954653265
 30
0.0
 11
12.0521235544
 21
23.373721542
 31
0.0
  0
ARC
  5
26F
330
1F
100
AcDbEntity
  8
0
  6
SLD-Solid
 62
     7
370
    25
100
AcDbCircle
 10
11.8140296787
 20
23.3986393705
 30
0.0
 40
0.0492866870932482
100
AcDbArc
 50
89.1642772378
 51
179.1391553022
  0
LINE
  5
270
330
1F
100
AcDbEntity
  8
0
  6
SLD-Solid
 62
     7
370
    25
100
AcDbLine
 10
11.7647485544
 20
23.1563798541
 30
0.0
 11
11.7647485544
 21
23.3993798541
 31
0.0
  0
ARC
  5
271
330
1F
100
AcDbEntity
  8
0
  6
SLD-Solid
 62
     7
370
    25
100
AcDbCircle
 10
11.8140296787
 20
21.3441203378
 30
0.0
 40
0.0492866870932517
100
AcDbArc
 50
180.8608446978
 51
270.8357227622
  0
LINE
  5
272
330
1F
100
AcDbEntity
  8
0
  6
SLD-Solid
 62
     7
370
    25
100
AcDbLine
 10
11.7647485544
 20
21.3433798541
 30
0.0
 11
11.7647485544
 21
21.5863798541
 31
0.0
  0
ARC
  5
273
330
1F
100
AcDbEntity
  8
0
  6
SLD-Solid
 62
     7
370
    25
100
AcDbCircle
 10
11.8147485544
 20
23.3993798541
 30
0.0
 40
0.0500000000000007
100
AcDbArc
 50
90.0
 51
180.0
  0
LINE
  5
274
330
1F
100
AcDbEntity
  8
0
  6
SLD-Solid
 62
     7
370
    25
100
AcDbLine
 10
11.8147485544
 20
23.4479208147
 30
0.0
 11
11.8147485544
 21
23.4493798541
 31
0.0
  0
LINE
  5
275
330
1F
100
AcDbEntity
  8
0
  6
SLD-Solid
 62
     7
370
    25
100
AcDbLine
 10
11.8147485544
 20
23.4493798541
 30
0.0
 11
12.0521235544
 21
23.4493798541
 31
0.0
  0
LINE
  5
276
330
1F
100
AcDbEntity
  8
0
  6
SLD-Solid
 62
     7
370
    25
100
AcDbLine
 10
12.0521235544
 20
21.2933798541
 30
0.0
 11
11.8147485544
 21
21.2933798541
 31
0.0
  0
LINE
  5
277
330
1F
100
AcDbEntity
  8
0
  6
SLD-Solid
 62
     7
370
    25
100
AcDbLine
 10
11.8147485544
 20
21.2933798541
 30
0.0
 11
11.8147485544
 21
21.2948388936
 31
0.0
  0
ARC
  5
278
330
1F
100
AcDbEntity
  8
0
  6
SLD-Solid
 62
     7
370
    25
100
AcDbCircle
 10
11.8147485544
 20
21.3433798541
 30
0.0
 40
0.0500000000000007
100
AcDbArc
 50
180.0
 51
270.0
  0
LINE
  5
279
330
1F
100
AcDbEntity
  8
0
  6
SLD-Solid
 62
     7
370
    25
100
AcDbLine
 10
16.8394985544
 20
23.1563798541
 30
0.0
 11
16.8394985544
 21
21.5863798541
 31
0.0
  0
ELLIPSE
  5
27A
330
1F
100
AcDbEntity
  8
0
  6
SLD-Solid
 62
     7
370
    25
100
AcDbEllipse
 10
17.1394985544
 20
22.3713798541
 30
0.0
 11
3.197442310920451E-14
 21
0.6278332993887759
 31
0.0
210
0.0
220
0.0
230
1.0
 40
0.4778338459
 41
1.520039958428556
 42
1.570796326794921
  0
ELLIPSE
  5
27B
330
1F
100
AcDbEntity
  8
0
  6
SLD-Solid
 62
     7
370
    25
100
AcDbEllipse
 10
17.1394985544
 20
22.7348702657
 30
0.0
 11
7.105427357601002E-15
 21
0.4871123409292686
 31
0.0
210
0.0
220
0.0
230
1.0
 40
0.6158743575
 41
1.570796326794906
 42
1.621552695161262
  0
LINE
  5
27C
330
1F
100
AcDbEntity
  8
0
  6
SLD-Solid
 62
     7
370
    25
100
AcDbLine
 10
16.8398849028
 20
22.7101568267
 30
0.0
 11
16.8398849028
 21
22.4032327116
 31
0.0
  0
ARC
  5
27D
330
1F
100
AcDbEntity
  8
0
  6
SLD-Solid
 62
     7
370
    25
100
AcDbCircle
 10
16.1404334124
 20
22.3713798541
 30
0.0
 40
0.700176400568863
100
AcDbArc
 50
357.3925650816
 51
2.6074349184
  0
ELLIPSE
  5
27E
330
1F
100
AcDbEntity
  8
0
  6
SLD-Solid
 62
     7
370
    25
100
AcDbEllipse
 10
17.1394985544
 20
22.3713798541
 30
0.0
 11
-3.197442310920451E-14
 21
0.6278332993887759
 31
0.0
210
0.0
220
0.0
230
1.0
 40
0.4778338459
 41
1.570796326794872
 42
1.621552695161226
  0
ELLIPSE
  5
27F
330
1F
100
AcDbEntity
  8
0
  6
SLD-Solid
 62
     7
370
    25
100
AcDbEllipse
 10
17.1394985544
 20
22.0078894426
 30
0.0
 11
-7.105427357601002E-15
 21
0.487112340929265
 31
0.0
210
0.0
220
0.0
230
1.0
 40
0.6158743575
 41
1.520039958428662
 42
1.570796326794888
  0
LINE
  5
280
330
1F
100
AcDbEntity
  8
0
  6
SLD-Solid
 62
     7
370
    25
100
AcDbLine
 10
16.8398849028
 20
22.3395269966
 30
0.0
 11
16.8398849028
 21
22.0326028816
 31
0.0
  0
LINE
  5
281
330
1F
100
AcDbEntity
  8
0
  6
SLD-Solid
 62
     7
370
    25
100
AcDbLine
 10
16.8398849028
 20
22.4032327116
 30
0.0
 11
16.8538692123
 21
22.4032327116
 31
0.0
  0
ARC
  5
282
330
1F
100
AcDbEntity
  8
0
  6
SLD-Solid
 62
     7
370
    25
100
AcDbCircle
 10
16.1544177219
 20
22.3713798541
 30
0.0
 40
0.7001764005689659
100
AcDbArc
 50
357.3925650816
 51
2.6074349184
  0
LINE
  5
283
330
1F
100
AcDbEntity
  8
0
  6
SLD-Solid
 62
     7
370
    25
100
AcDbLine
 10
16.8538692123
 20
22.3395269966
 30
0.0
 11
16.8398849028
 21
22.3395269966
 31
0.0
  0
LINE
  5
284
330
1F
100
AcDbEntity
  8
0
  6
SLD-Solid
 62
     7
370
    25
100
AcDbLine
 10
16.8398849028
 20
22.0326028816
 30
0.0
 11
16.8538692123
 21
22.3395269966
 31
0.0
  0
LINE
  5
285
330
1F
100
AcDbEntity
  8
0
  6
SLD-Solid
 62
     7
370
    25
100
AcDbLine
 10
16.8538692123
 20
22.4032327116
 30
0.0
 11
16.8398849028
 21
22.7101568267
 31
0.0
  0
LINE
  5
286
330
1F
100
AcDbEntity
  8
0
  6
SLD-Solid
 62
     7
370
    25
100
AcDbLine
 10
16.5521235544
 20
23.3638407095
 30
0.0
 11
16.6142454047
 21
23.1954653265
 31
0.0
  0
LINE
  5
287
330
1F
100
AcDbEntity
  8
0
  6
SLD-Solid
 62
     7
370
    25
100
AcDbLine
 10
16.6142454047
 20
21.5472943818
 30
0.0
 11
16.5521235544
 21
21.3789189987
 31
0.0
  0
ARC
  5
288
330
1F
100
AcDbEntity
  8
0
  6
SLD-Solid
 62
     7
370
    25
100
AcDbCircle
 10
16.7902174301
 20
23.3986393705
 30
0.0
 40
0.0492866870932588
100
AcDbArc
 50
0.8608446978
 51
90.8357227622
  0
LINE
  5
289
330
1F
100
AcDbEntity
  8
0
  6
SLD-Solid
 62
     7
370
    25
100
AcDbLine
 10
16.8394985544
 20
23.3993798541
 30
0.0
 11
16.8394985544
 21
23.1563798541
 31
0.0
  0
ARC
  5
28A
330
1F
100
AcDbEntity
  8
0
  6
SLD-Solid
 62
     7
370
    25
100
AcDbCircle
 10
16.7902174301
 20
21.3441203378
 30
0.0
 40
0.0492866870932478
100
AcDbArc
 50
269.1642772378
 51
359.1391553022
  0
LINE
  5
28B
330
1F
100
AcDbEntity
  8
0
  6
SLD-Solid
 62
     7
370
    25
100
AcDbLine
 10
16.8394985544
 20
21.5863798541
 30
0.0
 11
16.8394985544
 21
21.3433798541
 31
0.0
  0
LINE
  5
28C
330
1F
100
AcDbEntity
  8
0
  6
SLD-Solid
 62
     7
370
    25
100
AcDbLine
 10
16.7894985544
 20
21.2948388936
 30
0.0
 11
16.7894985544
 21
21.2933798541
 31
0.0
  0
LINE
  5
28D
330
1F
100
AcDbEntity
  8
0
  6
SLD-Solid
 62
     7
370
    25
100
AcDbLine
 10
16.7894985544
 20
21.2933798541
 30
0.0
 11
16.5521235544
 21
21.2933798541
 31
0.0
  0
LINE
  5
28E
330
1F
100
AcDbEntity
  8
0
  6
SLD-Solid
 62
     7
370
    25
100
AcDbLine
 10
16.5521235544
 20
23.4493798541
 30
0.0
 11
16.7894985544
 21
23.4493798541
 31
0.0
  0
LINE
  5
28F
330
1F
100
AcDbEntity
  8
0
  6
SLD-Solid
 62
     7
370
    25
100
AcDbLine
 10
16.7894985544
 20
23.4493798541
 30
0.0
 11
16.7894985544
 21
23.4479208147
 31
0.0
  0
ARC
  5
290
330
1F
100
AcDbEntity
  8
0
  6
SLD-Solid
 62
     7
370
    25
100
AcDbCircle
 10
16.7894985544
 20
21.3433798541
 30
0.0
 40
0.0500000000000007
100
AcDbArc
 50
270.0
 51
0.0
  0
ARC
  5
291
330
1F
100
AcDbEntity
  8
0
  6
SLD-Solid
 62
     7
370
    25
100
AcDbCircle
 10
16.7894985544
 20
23.3993798541
 30
0.0
 40
0.0500000000000007
100
AcDbArc
 50
0.0
 51
90.0
  0
LINE
  5
292
330
1F
100
AcDbEntity
  8
0
  6
SLD-Solid
 62
     7
370
    25
100
AcDbLine
 10
6.6144985544
 20
21.5863798541
 30
0.0
 11
6.6144985544
 21
23.1563798541
 31
0.0
  0
ARC
  5
293
330
1F
100
AcDbEntity
  8
0
  6
SLD-Solid
 62
     7
370
    25
100
AcDbCircle
 10
7.3135636964
 20
22.3713798541
 30
0.0
 40
0.700176400568972
100
AcDbArc
 50
177.3925650816
 51
182.6074349184
  0
ELLIPSE
  5
294
330
1F
100
AcDbEntity
  8
0
  6
SLD-Solid
 62
     7
370
    25
100
AcDbEllipse
 10
6.3144985544
 20
22.3713798541
 30
0.0
 11
-3.286260152890463E-14
 21
0.6278332993887759
 31
0.0
210
0.0
220
0.0
230
1.0
 40
0.4778338459
 41
4.712388980384671
 42
4.76314534875103
  0
ELLIPSE
  5
295
330
1F
100
AcDbEntity
  8
0
  6
SLD-Solid
 62
     7
370
    25
100
AcDbEllipse
 10
6.3144985544
 20
22.3713798541
 30
0.0
 11
3.286260152890463E-14
 21
0.6278332993887759
 31
0.0
210
0.0
220
0.0
230
1.0
 40
0.4778338459
 41
4.661632612018362
 42
4.712388980384722
  0
ELLIPSE
  5
296
330
1F
100
AcDbEntity
  8
0
  6
SLD-Solid
 62
     7
370
    25
100
AcDbEllipse
 10
6.3144985544
 20
22.7348702657
 30
0.0
 11
-6.217248937900877E-15
 21
0.4871123409292686
 31
0.0
210
0.0
220
0.0
230
1.0
 40
0.6158743575
 41
4.661632612018465
 42
4.712388980384691
  0
LINE
  5
297
330
1F
100
AcDbEntity
  8
0
  6
SLD-Solid
 62
     7
370
    25
100
AcDbLine
 10
6.614112206
 20
22.4032327116
 30
0.0
 11
6.614112206
 21
22.7101568267
 31
0.0
  0
ELLIPSE
  5
298
330
1F
100
AcDbEntity
  8
0
  6
SLD-Solid
 62
     7
370
    25
100
AcDbEllipse
 10
6.3144985544
 20
22.0078894426
 30
0.0
 11
7.105427357601000E-15
 21
0.4871123409292614
 31
0.0
210
0.0
220
0.0
230
1.0
 40
0.6158743575
 41
4.712388980384707
 42
4.763145348751064
  0
LINE
  5
299
330
1F
100
AcDbEntity
  8
0
  6
SLD-Solid
 62
     7
370
    25
100
AcDbLine
 10
6.614112206
 20
22.0326028816
 30
0.0
 11
6.614112206
 21
22.3395269966
 31
0.0
  0
LINE
  5
29A
330
1F
100
AcDbEntity
  8
0
  6
SLD-Solid
 62
     7
370
    25
100
AcDbLine
 10
6.614112206
 20
22.3395269966
 30
0.0
 11
6.6001278965
 21
22.3395269966
 31
0.0
  0
ARC
  5
29B
330
1F
100
AcDbEntity
  8
0
  6
SLD-Solid
 62
     7
370
    25
100
AcDbCircle
 10
7.2995793869
 20
22.3713798541
 30
0.0
 40
0.7001764005690192
100
AcDbArc
 50
177.3925650816
 51
182.6074349184
  0
LINE
  5
29C
330
1F
100
AcDbEntity
  8
0
  6
SLD-Solid
 62
     7
370
    25
100
AcDbLine
 10
6.6001278965
 20
22.4032327116
 30
0.0
 11
6.614112206
 21
22.4032327116
 31
0.0
  0
LINE
  5
29D
330
1F
100
AcDbEntity
  8
0
  6
SLD-Solid
 62
     7
370
    25
100
AcDbLine
 10
6.614112206
 20
22.7101568267
 30
0.0
 11
6.6001278965
 21
22.4032327116
 31
0.0
  0
LINE
  5
29E
330
1F
100
AcDbEntity
  8
0
  6
SLD-Solid
 62
     7
370
    25
100
AcDbLine
 10
6.6001278965
 20
22.3395269966
 30
0.0
 11
6.614112206
 21
22.0326028816
 31
0.0
  0
LINE
  5
29F
330
1F
100
AcDbEntity
  8
0
  6
SLD-Solid
 62
     7
370
    25
100
AcDbLine
 10
6.7547361964
 20
23.1112061226
 30
0.0
 11
6.7550407799
 21
23.1112957866
 31
0.0
  0
LINE
  5
2A0
330
1F
100
AcDbEntity
  8
0
  6
SLD-Solid
 62
     7
370
    25
100
AcDbLine
 10
6.9018735544
 20
21.3789189987
 30
0.0
 11
6.8397517041
 21
21.5472943818
 31
0.0
  0
LINE
  5
2A1
330
1F
100
AcDbEntity
  8
0
  6
SLD-Solid
 62
     7
370
    25
100
AcDbLine
 10
6.8397517041
 20
23.1954653265
 30
0.0
 11
6.9018735544
 21
23.3638407095
 31
0.0
  0
ARC
  5
2A2
330
1F
100
AcDbEntity
  8
0
  6
SLD-Solid
 62
     7
370
    25
100
AcDbCircle
 10
6.6637796787
 20
23.3986393705
 30
0.0
 40
0.0492866870932389
100
AcDbArc
 50
89.1642772378
 51
179.1391553022
  0
LINE
  5
2A3
330
1F
100
AcDbEntity
  8
0
  6
SLD-Solid
 62
     7
370
    25
100
AcDbLine
 10
6.6144985544
 20
23.1563798541
 30
0.0
 11
6.6144985544
 21
23.3993798541
 31
0.0
  0
ARC
  5
2A4
330
1F
100
AcDbEntity
  8
0
  6
SLD-Solid
 62
     7
370
    25
100
AcDbCircle
 10
6.6637796787
 20
21.3441203378
 30
0.0
 40
0.0492866870932518
100
AcDbArc
 50
180.8608446978
 51
270.8357227622
  0
LINE
  5
2A5
330
1F
100
AcDbEntity
  8
0
  6
SLD-Solid
 62
     7
370
    25
100
AcDbLine
 10
6.6144985544
 20
21.3433798541
 30
0.0
 11
6.6144985544
 21
21.5863798541
 31
0.0
  0
LINE
  5
2A6
330
1F
100
AcDbEntity
  8
0
  6
SLD-Solid
 62
     7
370
    25
100
AcDbLine
 10
6.9018735544
 20
21.2933798541
 30
0.0
 11
6.6644985544
 21
21.2933798541
 31
0.0
  0
LINE
  5
2A7
330
1F
100
AcDbEntity
  8
0
  6
SLD-Solid
 62
     7
370
    25
100
AcDbLine
 10
6.6644985544
 20
21.2933798541
 30
0.0
 11
6.6644985544
 21
21.2948388936
 31
0.0
  0
LINE
  5
2A8
330
1F
100
AcDbEntity
  8
0
  6
SLD-Solid
 62
     7
370
    25
100
AcDbLine
 10
6.6644985544
 20
23.4479208147
 30
0.0
 11
6.6644985544
 21
23.4493798541
 31
0.0
  0
LINE
  5
2A9
330
1F
100
AcDbEntity
  8
0
  6
SLD-Solid
 62
     7
370
    25
100
AcDbLine
 10
6.6644985544
 20
23.4493798541
 30
0.0
 11
6.9018735544
 21
23.4493798541
 31
0.0
  0
ARC
  5
2AA
330
1F
100
AcDbEntity
  8
0
  6
SLD-Solid
 62
     7
370
    25
100
AcDbCircle
 10
6.6644985544
 20
23.3993798541
 30
0.0
 40
0.0500000000000007
100
AcDbArc
 50
90.0
 51
180.0
  0
ARC
  5
2AB
330
1F
100
AcDbEntity
  8
0
  6
SLD-Solid
 62
     7
370
    25
100
AcDbCircle
 10
6.6644985544
 20
21.3433798541
 30
0.0
 40
0.0500000000000007
100
AcDbArc
 50
180.0
 51
270.0
  0
LINE
  5
2AC
330
1F
100
AcDbEntity
  8
0
  6
SLD-Solid
 62
     7
370
    25
100
AcDbLine
 10
6.6389985544
 20
21.1938798541
 30
0.0
 11
6.6389985544
 21
21.2438798541
 31
0.0
  0
LINE
  5
2AD
330
1F
100
AcDbEntity
  8
0
  6
SLD-Solid
 62
     7
370
    25
100
AcDbLine
 10
6.9018735544
 20
21.2438798541
 30
0.0
 11
6.6389985544
 21
21.2438798541
 31
0.0
  0
LINE
  5
2AE
330
1F
100
AcDbEntity
  8
0
  6
SLD-Solid
 62
     7
370
    25
100
AcDbLine
 10
6.9018735544
 20
21.1938798541
 30
0.0
 11
6.6389985544
 21
21.1938798541
 31
0.0
  0
LINE
  5
2AF
330
1F
100
AcDbEntity
  8
0
  6
SLD-Solid
 62
     7
370
    25
100
AcDbLine
 10
16.8149985544
 20
21.1938798541
 30
0.0
 11
16.8149985544
 21
21.2438798541
 31
0.0
  0
LINE
  5
2B0
330
1F
100
AcDbEntity
  8
0
  6
SLD-Solid
 62
     7
370
    25
100
AcDbLine
 10
16.5521235544
 20
21.2438798541
 30
0.0
 11
16.8149985544
 21
21.2438798541
 31
0.0
  0
LINE
  5
2B1
330
1F
100
AcDbEntity
  8
0
  6
SLD-Solid
 62
     7
370
    25
100
AcDbLine
 10
16.5521235544
 20
21.1938798541
 30
0.0
 11
16.8149985544
 21
21.1938798541
 31
0.0
  0
LINE
  5
2B2
330
1F
100
AcDbEntity
  8
0
  6
SLD-Solid
 62
     7
370
    25
100
AcDbLine
 10
6.6389985544
 20
23.5488798541
 30
0.0
 11
6.6389985544
 21
23.4988798541
 31
0.0
  0
LINE
  5
2B3
330
1F
100
AcDbEntity
  8
0
  6
SLD-Solid
 62
     7
370
    25
100
AcDbLine
 10
6.9018735544
 20
23.5488798541
 30
0.0
 11
6.6389985544
 21
23.5488798541
 31
0.0
  0
LINE
  5
2B4
330
1F
100
AcDbEntity
  8
0
  6
SLD-Solid
 62
     7
370
    25
100
AcDbLine
 10
6.9018735544
 20
23.4988798541
 30
0.0
 11
6.6389985544
 21
23.4988798541
 31
0.0
  0
LINE
  5
2B5
330
1F
100
AcDbEntity
  8
0
  6
SLD-Solid
 62
     7
370
    25
100
AcDbLine
 10
16.8149985544
 20
23.5488798541
 30
0.0
 11
16.8149985544
 21
23.4988798541
 31
0.0
  0
LINE
  5
2B6
330
1F
100
AcDbEntity
  8
0
  6
SLD-Solid
 62
     7
370
    25
100
AcDbLine
 10
16.5521235544
 20
23.5488798541
 30
0.0
 11
16.8149985544
 21
23.5488798541
 31
0.0
  0
LINE
  5
2B7
330
1F
100
AcDbEntity
  8
0
  6
SLD-Solid
 62
     7
370
    25
100
AcDbLine
 10
16.5521235544
 20
23.4988798541
 30
0.0
 11
16.8149985544
 21
23.4988798541
 31
0.0
  0
LINE
  5
2B8
330
1F
100
AcDbEntity
  8
0
  6
SLD-Solid
 62
     7
370
    25
100
AcDbLine
 10
6.6389985544
 20
23.5488798541
 30
0.0
 11
6.6389985544
 21
23.5638798541
 31
0.0
  0
LINE
  5
2B9
330
1F
100
AcDbEntity
  8
0
  6
SLD-Solid
 62
     7
370
    25
100
AcDbLine
 10
16.8149985544
 20
21.1788798541
 30
0.0
 11
16.8149985544
 21
21.1938798541
 31
0.0
  0
LINE
  5
2BA
330
1F
100
AcDbEntity
  8
0
  6
SLD-Solid
 62
     7
370
    25
100
AcDbLine
 10
6.6389985544
 20
21.1788798541
 30
0.0
 11
6.6389985544
 21
21.1938798541
 31
0.0
  0
LINE
  5
2BB
330
1F
100
AcDbEntity
  8
0
  6
SLD-Solid
 62
     7
370
    25
100
AcDbLine
 10
16.8149985544
 20
23.5488798541
 30
0.0
 11
16.8149985544
 21
23.5638798541
 31
0.0
  0
LINE
  5
2BC
330
1F
100
AcDbEntity
  8
0
  6
SLD-Solid
 62
     7
370
    25
100
AcDbLine
 10
6.6389985544
 20
23.4988798541
 30
0.0
 11
6.6389985544
 21
23.4423885742
 31
0.0
  0
LINE
  5
2BD
330
1F
100
AcDbEntity
  8
0
  6
SLD-Solid
 62
     7
370
    25
100
AcDbLine
 10
11.5869985544
 20
21.2458798541
 30
0.0
 11
11.5869985544
 21
21.2933798541
 31
0.0
  0
LINE
  5
2BE
330
1F
100
AcDbEntity
  8
0
  6
SLD-Solid
 62
     7
370
    25
100
AcDbLine
 10
11.7574526928
 20
22.5623798541
 30
0.0
 11
11.696544416
 21
22.5623798541
 31
0.0
  0
LINE
  5
2BF
330
1F
100
AcDbEntity
  8
0
  6
SLD-Solid
 62
     7
370
    25
100
AcDbLine
 10
16.8149985544
 20
23.4988798541
 30
0.0
 11
16.8149985544
 21
23.4423885742
 31
0.0
  0
LINE
  5
2C0
330
1F
100
AcDbEntity
  8
0
  6
SLD-Solid
 62
     7
370
    25
100
AcDbLine
 10
6.6389985544
 20
21.3003711341
 30
0.0
 11
6.6389985544
 21
21.2438798541
 31
0.0
  0
LINE
  5
2C1
330
1F
100
AcDbEntity
  8
0
  6
SLD-Solid
 62
     7
370
    25
100
AcDbLine
 10
11.8669985544
 20
23.4968798541
 30
0.0
 11
12.0521235544
 21
23.4968798541
 31
0.0
  0
LINE
  5
2C2
330
1F
100
AcDbEntity
  8
0
  6
SLD-Solid
 62
     7
370
    25
100
AcDbLine
 10
11.5869985544
 20
23.4968798541
 30
0.0
 11
11.4018735544
 21
23.4968798541
 31
0.0
  0
LINE
  5
2C3
330
1F
100
AcDbEntity
  8
0
  6
SLD-Solid
 62
     7
370
    25
100
AcDbLine
 10
11.8669985544
 20
23.4493798541
 30
0.0
 11
11.8669985544
 21
23.4968798541
 31
0.0
  0
LINE
  5
2C4
330
1F
100
AcDbEntity
  8
0
  6
SLD-Solid
 62
     7
370
    25
100
AcDbLine
 10
11.4018735544
 20
21.2458798541
 30
0.0
 11
11.5869985544
 21
21.2458798541
 31
0.0
  0
LINE
  5
2C5
330
1F
100
AcDbEntity
  8
0
  6
SLD-Solid
 62
     7
370
    25
100
AcDbLine
 10
11.8669985544
 20
21.2458798541
 30
0.0
 11
11.8669985544
 21
21.2933798541
 31
0.0
  0
LINE
  5
2C6
330
1F
100
AcDbEntity
  8
0
  6
SLD-Solid
 62
     7
370
    25
100
AcDbLine
 10
12.0521235544
 20
21.2458798541
 30
0.0
 11
11.8669985544
 21
21.2458798541
 31
0.0
  0
LINE
  5
2C7
330
1F
100
AcDbEntity
  8
0
  6
SLD-Solid
 62
     7
370
    25
100
AcDbLine
 10
11.5869985544
 20
23.4493798541
 30
0.0
 11
11.5869985544
 21
23.4968798541
 31
0.0
  0
LINE
  5
2C8
330
1F
100
AcDbEntity
  8
0
  6
SLD-Solid
 62
     7
370
    25
100
AcDbLine
 10
16.8149985544
 20
21.3003711341
 30
0.0
 11
16.8149985544
 21
21.2438798541
 31
0.0
  0
LINE
  5
2C9
330
1F
100
AcDbEntity
  8
0
  6
SLD-Solid
 62
     7
370
    25
100
AcDbLine
 10
11.696544416
 20
22.1803798541
 30
0.0
 11
11.7574526928
 21
22.1803798541
 31
0.0
  0
ELLIPSE
  5
2CA
330
1F
100
AcDbEntity
  8
0
  6
SLD-Solid
 62
     7
370
    25
100
AcDbEllipse
 10
6.408171886
 20
21.2050531857
 30
0.0
 11
-0.1323301782391768
 21
-0.1323301782391759
 31
0.0
210
0.0
220
0.0
230
1.0
 40
0.9351131265
 41
5.531305892884619
 42
7.035064721474569
  0
ELLIPSE
  5
2CB
330
1F
100
AcDbEntity
  8
0
  6
SLD-Solid
 62
     7
370
    25
100
AcDbEllipse
 10
17.0458252228
 20
21.2050531857
 30
0.0
 11
0.1323301782391759
 21
-0.1323301782391795
 31
0.0
210
0.0
220
0.0
230
1.0
 40
0.9351131265
 41
5.531305892884633
 42
7.035064721474599
  0
ELLIPSE
  5
2CC
330
1F
100
AcDbEntity
  8
0
  6
SLD-Solid
 62
     7
370
    25
100
AcDbEllipse
 10
17.0458252228
 20
23.5377065226
 30
0.0
 11
0.1323301782391759
 21
0.1323301782391759
 31
0.0
210
0.0
220
0.0
230
1.0
 40
0.9351131265
 41
5.531305892884609
 42
7.035064721474579
  0
ELLIPSE
  5
2CD
330
1F
100
AcDbEntity
  8
0
  6
SLD-Solid
 62
     7
370
    25
100
AcDbEllipse
 10
6.408171886
 20
23.5377065226
 30
0.0
 11
-0.1323301782391777
 21
0.1323301782391759
 31
0.0
210
0.0
220
0.0
230
1.0
 40
0.9351131265
 41
5.53130589288462
 42
7.035064721474574
  0
LINE
  5
2CE
330
1F
100
AcDbEntity
  8
0
  6
SLD-Solid
 62
     7
370
    25
100
AcDbLine
 10
6.2269985544
 20
23.5498428345
 30
0.0
 11
6.2269985544
 21
21.1929168737
 31
0.0
  0
LINE
  5
2CF
330
1F
100
AcDbEntity
  8
0
  6
SLD-Solid
 62
     7
370
    25
100
AcDbLine
 10
17.2269985544
 20
23.5498428345
 30
0.0
 11
17.2269985544
 21
21.1929168737
 31
0.0
  0
LINE
  5
2D0
330
1F
100
AcDbEntity
  8
0
  6
SLD-Solid
 62
     7
370
    25
100
AcDbLine
 10
6.396035574
 20
23.7188798541
 30
0.0
 11
6.9018735544
 21
23.7188798541
 31
0.0
  0
LINE
  5
2D1
330
1F
100
AcDbEntity
  8
0
  6
SLD-Solid
 62
     7
370
    25
100
AcDbLine
 10
11.4018735544
 20
23.7188798541
 30
0.0
 11
12.0521235544
 21
23.7188798541
 31
0.0
  0
LINE
  5
2D2
330
1F
100
AcDbEntity
  8
0
  6
SLD-Solid
 62
     7
370
    25
100
AcDbLine
 10
16.5521235544
 20
23.7188798541
 30
0.0
 11
17.0579615348
 21
23.7188798541
 31
0.0
  0
LINE
  5
2D3
330
1F
100
AcDbEntity
  8
0
  6
SLD-Solid
 62
     7
370
    25
100
AcDbLine
 10
6.396035574
 20
21.0238798541
 30
0.0
 11
6.9018735544
 21
21.0238798541
 31
0.0
  0
LINE
  5
2D4
330
1F
100
AcDbEntity
  8
0
  6
SLD-Solid
 62
     7
370
    25
100
AcDbLine
 10
11.4018735544
 20
21.0238798541
 30
0.0
 11
12.0521235544
 21
21.0238798541
 31
0.0
  0
LINE
  5
2D5
330
1F
100
AcDbEntity
  8
0
  6
SLD-Solid
 62
     7
370
    25
100
AcDbLine
 10
16.5521235544
 20
21.0238798541
 30
0.0
 11
17.0579615348
 21
21.0238798541
 31
0.0
  0
LINE
  5
2D6
330
1F
100
AcDbEntity
  8
0
  6
SLD-Solid
 62
     8
370
    25
100
AcDbLine
 10
11.5467485544
 20
21.7053798541
 30
0.0
 11
11.5467485544
 21
23.0373798541
 31
0.0
  0
LINE
  5
2D7
330
1F
100
AcDbEntity
  8
0
  6
SLD-Solid
 62
     8
370
    25
100
AcDbLine
 10
11.4676409234
 20
21.5472943818
 30
0.0
 11
11.5680664144
 21
21.5472943818
 31
0.0
  0
LINE
  5
2D8
330
1F
100
AcDbEntity
  8
0
  6
SLD-Solid
 62
     8
370
    25
100
AcDbLine
 10
11.4676409234
 20
23.1954653265
 30
0.0
 11
11.5680664144
 21
23.1954653265
 31
0.0
  0
LINE
  5
2D9
330
1F
100
AcDbEntity
  8
0
  6
SLD-Solid
 62
     8
370
    25
100
AcDbLine
 10
11.7037952335
 20
22.3395189764
 30
0.0
 11
11.7036192124
 21
22.3395269964
 31
0.0
  0
LINE
  5
2DA
330
1F
100
AcDbEntity
  8
0
  6
SLD-Solid
 62
     8
370
    25
100
AcDbLine
 10
11.7037952335
 20
22.4032407319
 30
0.0
 11
11.7036192124
 21
22.4032327119
 31
0.0
  0
LINE
  5
2DB
330
1F
100
AcDbEntity
  8
0
  6
SLD-Solid
 62
     8
370
    25
100
AcDbLine
 10
11.6898109239
 20
22.0325948617
 30
0.0
 11
11.6896349028
 21
22.0326028817
 31
0.0
  0
LINE
  5
2DC
330
1F
100
AcDbEntity
  8
0
  6
SLD-Solid
 62
     8
370
    25
100
AcDbLine
 10
11.6898109239
 20
22.7101648466
 30
0.0
 11
11.6896349028
 21
22.7101568266
 31
0.0
  0
LINE
  5
2DD
330
1F
100
AcDbEntity
  8
0
  6
SLD-Solid
 62
     8
370
    25
100
AcDbLine
 10
11.6392485544
 20
23.4479208147
 30
0.0
 11
11.4018735544
 21
23.4479208147
 31
0.0
  0
LINE
  5
2DE
330
1F
100
AcDbEntity
  8
0
  6
SLD-Solid
 62
     8
370
    25
100
AcDbLine
 10
11.4018735544
 20
21.2948388936
 30
0.0
 11
11.6392485544
 21
21.2948388936
 31
0.0
  0
LINE
  5
2DF
330
1F
100
AcDbEntity
  8
0
  6
SLD-Solid
 62
     8
370
    25
100
AcDbLine
 10
11.9038161033
 20
21.5767686292
 30
0.0
 11
11.9038161033
 21
23.1659910791
 31
0.0
  0
LINE
  5
2E0
330
1F
100
AcDbEntity
  8
0
  6
SLD-Solid
 62
     8
370
    25
100
AcDbLine
 10
11.9863561854
 20
23.1954653265
 30
0.0
 11
11.8859306943
 21
23.1954653265
 31
0.0
  0
LINE
  5
2E1
330
1F
100
AcDbEntity
  8
0
  6
SLD-Solid
 62
     8
370
    25
100
AcDbLine
 10
11.9863561854
 20
21.5472943818
 30
0.0
 11
11.8859306943
 21
21.5472943818
 31
0.0
  0
LINE
  5
2E2
330
1F
100
AcDbEntity
  8
0
  6
SLD-Solid
 62
     8
370
    25
100
AcDbLine
 10
11.7502018753
 20
22.4032407319
 30
0.0
 11
11.7503778964
 21
22.4032327119
 31
0.0
  0
LINE
  5
2E3
330
1F
100
AcDbEntity
  8
0
  6
SLD-Solid
 62
     8
370
    25
100
AcDbLine
 10
11.7502018753
 20
22.3395189764
 30
0.0
 11
11.7503778964
 21
22.3395269964
 31
0.0
  0
LINE
  5
2E4
330
1F
100
AcDbEntity
  8
0
  6
SLD-Solid
 62
     8
370
    25
100
AcDbLine
 10
11.7641861849
 20
22.7101648466
 30
0.0
 11
11.764362206
 21
22.7101568266
 31
0.0
  0
LINE
  5
2E5
330
1F
100
AcDbEntity
  8
0
  6
SLD-Solid
 62
     8
370
    25
100
AcDbLine
 10
11.7641861849
 20
22.0325948617
 30
0.0
 11
11.764362206
 21
22.0326028817
 31
0.0
  0
LINE
  5
2E6
330
1F
100
AcDbEntity
  8
0
  6
SLD-Solid
 62
     8
370
    25
100
AcDbLine
 10
11.8147485544
 20
23.4479208147
 30
0.0
 11
11.8147485544
 21
23.2063798541
 31
0.0
  0
LINE
  5
2E7
330
1F
100
AcDbEntity
  8
0
  6
SLD-Solid
 62
     8
370
    25
100
AcDbLine
 10
12.0521235544
 20
23.4479208147
 30
0.0
 11
11.8147485544
 21
23.4479208147
 31
0.0
  0
LINE
  5
2E8
330
1F
100
AcDbEntity
  8
0
  6
SLD-Solid
 62
     8
370
    25
100
AcDbLine
 10
11.8147485544
 20
21.2948388936
 30
0.0
 11
12.0521235544
 21
21.2948388936
 31
0.0
  0
LINE
  5
2E9
330
1F
100
AcDbEntity
  8
0
  6
SLD-Solid
 62
     8
370
    25
100
AcDbLine
 10
11.8147485544
 20
21.5363798541
 30
0.0
 11
11.8147485544
 21
21.2948388936
 31
0.0
  0
LINE
  5
2EA
330
1F
100
AcDbEntity
  8
0
  6
SLD-Solid
 62
     8
370
    25
100
AcDbLine
 10
16.7004310055
 20
23.1659910791
 30
0.0
 11
16.7004310055
 21
21.5767686292
 31
0.0
  0
LINE
  5
2EB
330
1F
100
AcDbEntity
  8
0
  6
SLD-Solid
 62
     8
370
    25
100
AcDbLine
 10
16.6969985544
 20
21.7113798541
 30
0.0
 11
16.6969985544
 21
23.0313798541
 31
0.0
  0
LINE
  5
2EC
330
1F
100
AcDbEntity
  8
0
  6
SLD-Solid
 62
     8
370
    25
100
AcDbLine
 10
16.6142454047
 20
21.5472943818
 30
0.0
 11
16.7183164144
 21
21.5472943818
 31
0.0
  0
LINE
  5
2ED
330
1F
100
AcDbEntity
  8
0
  6
SLD-Solid
 62
     8
370
    25
100
AcDbLine
 10
16.6142454047
 20
23.1954653265
 30
0.0
 11
16.7183164144
 21
23.1954653265
 31
0.0
  0
LINE
  5
2EE
330
1F
100
AcDbEntity
  8
0
  6
SLD-Solid
 62
     8
370
    25
100
AcDbLine
 10
16.8538692123
 20
22.4032327116
 30
0.0
 11
16.8540452334
 21
22.4032407317
 31
0.0
  0
LINE
  5
2EF
330
1F
100
AcDbEntity
  8
0
  6
SLD-Solid
 62
     8
370
    25
100
AcDbLine
 10
16.8538692123
 20
22.3395269966
 30
0.0
 11
16.8540452334
 21
22.3395189766
 31
0.0
  0
LINE
  5
2F0
330
1F
100
AcDbEntity
  8
0
  6
SLD-Solid
 62
     8
370
    25
100
AcDbLine
 10
16.8398849028
 20
22.7101568267
 30
0.0
 11
16.8400609239
 21
22.7101648467
 31
0.0
  0
LINE
  5
2F1
330
1F
100
AcDbEntity
  8
0
  6
SLD-Solid
 62
     8
370
    25
100
AcDbLine
 10
16.8398849028
 20
22.0326028816
 30
0.0
 11
16.8400609239
 21
22.0325948616
 31
0.0
  0
LINE
  5
2F2
330
1F
100
AcDbEntity
  8
0
  6
SLD-Solid
 62
     8
370
    25
100
AcDbLine
 10
16.7894985544
 20
23.2063798541
 30
0.0
 11
16.7894985544
 21
23.4479208147
 31
0.0
  0
LINE
  5
2F3
330
1F
100
AcDbEntity
  8
0
  6
SLD-Solid
 62
     8
370
    25
100
AcDbLine
 10
16.5521235544
 20
21.2948388936
 30
0.0
 11
16.7894985544
 21
21.2948388936
 31
0.0
  0
LINE
  5
2F4
330
1F
100
AcDbEntity
  8
0
  6
SLD-Solid
 62
     8
370
    25
100
AcDbLine
 10
16.7894985544
 20
23.4479208147
 30
0.0
 11
16.5521235544
 21
23.4479208147
 31
0.0
  0
LINE
  5
2F5
330
1F
100
AcDbEntity
  8
0
  6
SLD-Solid
 62
     8
370
    25
100
AcDbLine
 10
6.7535661033
 20
21.5767686292
 30
0.0
 11
6.7535661033
 21
23.1659910791
 31
0.0
  0
LINE
  5
2F6
330
1F
100
AcDbEntity
  8
0
  6
SLD-Solid
 62
     8
370
    25
100
AcDbLine
 10
6.8397517041
 20
23.1954653265
 30
0.0
 11
6.7356806943
 21
23.1954653265
 31
0.0
  0
LINE
  5
2F7
330
1F
100
AcDbEntity
  8
0
  6
SLD-Solid
 62
     8
370
    25
100
AcDbLine
 10
6.8397517041
 20
21.5472943818
 30
0.0
 11
6.7356806943
 21
21.5472943818
 31
0.0
  0
LINE
  5
2F8
330
1F
100
AcDbEntity
  8
0
  6
SLD-Solid
 62
     8
370
    25
100
AcDbLine
 10
6.6001278965
 20
22.3395269966
 30
0.0
 11
6.5999518753
 21
22.3395189766
 31
0.0
  0
LINE
  5
2F9
330
1F
100
AcDbEntity
  8
0
  6
SLD-Solid
 62
     8
370
    25
100
AcDbLine
 10
6.6001278965
 20
22.4032327116
 30
0.0
 11
6.5999518753
 21
22.4032407317
 31
0.0
  0
LINE
  5
2FA
330
1F
100
AcDbEntity
  8
0
  6
SLD-Solid
 62
     8
370
    25
100
AcDbLine
 10
6.614112206
 20
22.0326028816
 30
0.0
 11
6.6139361849
 21
22.0325948616
 31
0.0
  0
LINE
  5
2FB
330
1F
100
AcDbEntity
  8
0
  6
SLD-Solid
 62
     8
370
    25
100
AcDbLine
 10
6.614112206
 20
22.7101568267
 30
0.0
 11
6.6139361849
 21
22.7101648467
 31
0.0
  0
LINE
  5
2FC
330
1F
100
AcDbEntity
  8
0
  6
SLD-Solid
 62
     8
370
    25
100
AcDbLine
 10
6.9018735544
 20
23.4479208147
 30
0.0
 11
6.6644985544
 21
23.4479208147
 31
0.0
  0
LINE
  5
2FD
330
1F
100
AcDbEntity
  8
0
  6
SLD-Solid
 62
     8
370
    25
100
AcDbLine
 10
6.6644985544
 20
21.2948388936
 30
0.0
 11
6.9018735544
 21
21.2948388936
 31
0.0
  0
LINE
  5
2FE
330
1F
100
AcDbEntity
  8
0
  6
SLD-Solid
 62
     8
370
    25
100
AcDbLine
 10
6.6389985544
 20
23.5638798541
 30
0.0
 11
6.7407485544
 21
23.5638798541
 31
0.0
  0
LINE
  5
2FF
330
1F
100
AcDbEntity
  8
0
  6
SLD-Solid
 62
     8
370
    25
100
AcDbLine
 10
16.7132485544
 20
21.1788798541
 30
0.0
 11
16.8149985544
 21
21.1788798541
 31
0.0
  0
LINE
  5
300
330
1F
100
AcDbEntity
  8
0
  6
SLD-Solid
 62
     8
370
    25
100
AcDbLine
 10
6.7407485544
 20
21.1788798541
 30
0.0
 11
6.6389985544
 21
21.1788798541
 31
0.0
  0
LINE
  5
301
330
1F
100
AcDbEntity
  8
0
  6
SLD-Solid
 62
     8
370
    25
100
AcDbLine
 10
16.8149985544
 20
23.5638798541
 30
0.0
 11
16.7132485544
 21
23.5638798541
 31
0.0
  0
LINE
  5
302
330
1F
100
AcDbEntity
  8
NOTES
100
AcDbLine
 10
2.5027499732
 20
13.0238798541
 30
0.0
 11
49.4900476559
 21
13.0238798541
 31
0.0
  0
LINE
  5
303
330
1F
100
AcDbEntity
  8
DIMS
100
AcDbLine
 10
5.2689926747
 20
13.0238798541
 30
0.0
 11
5.2689926747
 21
14.712860975
 31
0.0
  0
LINE
  5
304
330
1F
100
AcDbEntity
  8
DIMS
100
AcDbLine
 10
5.2689926747
 20
14.712860975
 30
0.0
 11
5.5507475546
 21
14.8772179882
 31
0.0
  0
LINE
  5
305
330
1F
100
AcDbEntity
  8
DIMS
100
AcDbLine
 10
5.5507475546
 20
14.8772179882
 30
0.0
 11
5.0055502806
 21
15.1653749555
 31
0.0
  0
LINE
  5
306
330
1F
100
AcDbEntity
  8
DIMS
100
AcDbLine
 10
5.0055502806
 20
15.1653749555
 30
0.0
 11
5.2689926747
 21
15.3190496853
 31
0.0
  0
LINE
  5
307
330
1F
100
AcDbEntity
  8
DIMS
100
AcDbLine
 10
5.2689926747
 20
15.3190496853
 30
0.0
 11
5.2689926747
 21
16.2232818023
 31
0.0
  0
DIMENSION
  5
308
330
1F
100
AcDbEntity
  8
DIMS
100
AcDbDimension
  2
_D
 10
5.2665528523
 20
21.0238798541
 30
0.0
 11
5.2665528523
 21
14.3205512773
 31
0.0
 70
   160
  1
                                                                                                          44" Max. height of bottom of dispenser for unrestricted access   \P\P\P \P \P \P 
 71
     1
 42
-1.0
  3
SLDDIMSTYLE0
100
AcDbAlignedDimension
 13
5.2689926747
 23
13.0238798541
 33
0.0
 14
6.396035574
 24
21.0238798541
 34
0.0
 50
90.0
100
AcDbRotatedDimension
  0
DIMENSION
  5
31D
330
1F
100
AcDbEntity
  8
DIMS
100
AcDbDimension
  2
_D_1
 10
2.8490317315
 20
27.8068798541
 30
0.0
 11
2.8490317315
 21
24.4595572609
 31
0.0
 70
   160
  1
<>
 71
     2
 42
-1.0
  3
SLDDIMSTYLE0
100
AcDbAlignedDimension
 13
4.1019985544
 23
20.8068798541
 33
0.0
 14
4.1019985544
 24
27.8068798541
 34
0.0
 50
90.0
100
AcDbRotatedDimension
  0
DIMENSION
  5
328
330
1F
100
AcDbEntity
  8
DIMS
100
AcDbDimension
  2
_D_2
 10
19.7269985544
 20
28.436801114
 30
0.0
 11
11.7269985544
 21
28.436801114
 31
0.0
 70
   160
  1
<>
 71
     2
 42
-1.0
  3
SLDDIMSTYLE0
100
AcDbAlignedDimension
 13
3.7269985544
 23
27.4318798541
 33
0.0
 14
19.7269985544
 24
27.4318798541
 34
0.0
 50
0.0
100
AcDbRotatedDimension
  0
DIMENSION
  5
333
330
1F
100
AcDbEntity
  8
DIMS
100
AcDbDimension
  2
_D_3
 10
4.5179159097
 20
21.0238798541
 30
0.0
 11
4.5179159097
 21
18.9880550378
 31
0.0
 70
   160
  1
<>
 71
     2
 42
-1.0
  3
SLDDIMSTYLE1
100
AcDbAlignedDimension
 13
4.1019985544
 23
20.8068798541
 33
0.0
 14
6.396035574
 24
21.0238798541
 34
0.0
 50
90.0
100
AcDbRotatedDimension
  0
MTEXT
  5
342
330
1F
100
AcDbEntity
  8
NOTES
100
AcDbMText
 10
10.1130112519
 20
19.8061388017
 30
0.0
 40
0.5
 41
0.0
 71
     1
 72
     1
  1
Front view
  7
SLDTEXTSTYLE1
 73
     1
 44
1.0
  0
MTEXT
  5
343
330
1F
100
AcDbEntity
  8
NOTES
100
AcDbMText
 10
5.6856583226
 20
13.7714971077
 30
0.0
 40
0.5
 41
0.0
 71
     1
 72
     1
  1
Floor
  7
SLDTEXTSTYLE1
 73
     1
 44
1.0
  0
ARC
  5
344
330
1F
100
AcDbEntity
  8
0
  6
SLD-Solid
 62
     7
370
    25
100
AcDbCircle
 10
27.2027976194
 20
27.6212270114
 30
0.0
 40
0.0250000000000026
100
AcDbArc
 50
107.2024469008
 51
163.4861978944
  0
ARC
  5
345
330
1F
100
AcDbEntity
  8
0
  6
SLD-Solid
 62
     7
370
    25
100
AcDbCircle
 10
27.2027976191
 20
27.0725326803
 30
0.0
 40
0.0250000000000015
100
AcDbArc
 50
200.6331375439
 51
252.4085309609
  0
ARC
  5
346
330
1F
100
AcDbEntity
  8
0
  6
SLD-Solid
 62
     7
370
    25
100
AcDbCircle
 10
27.8969391872
 20
27.3468798541
 30
0.0
 40
0.7713905752349275
100
AcDbArc
 50
158.5900362745
 51
201.5360665707
  0
LINE
  5
347
330
1F
100
AcDbEntity
  8
0
  6
SLD-Solid
 62
     7
370
    25
100
AcDbLine
 10
21.839528136
 20
25.7196326117
 30
0.0
 11
26.7929533795
 21
23.9167332654
 31
0.0
  0
LINE
  5
348
330
1F
100
AcDbEntity
  8
0
  6
SLD-Solid
 62
     7
370
    25
100
AcDbLine
 10
21.7654601128
 20
26.582654173
 30
0.0
 11
21.7654601128
 21
25.8254127114
 31
0.0
  0
ARC
  5
349
330
1F
100
AcDbEntity
  8
0
  6
SLD-Solid
 62
     7
370
    25
100
AcDbCircle
 10
26.686548612
 20
21.398487288
 30
0.0
 40
0.3146074338901304
100
AcDbArc
 50
240.2267646167
 51
299.7732353833
  0
LINE
  5
34A
330
1F
100
AcDbEntity
  8
0
  6
SLD-Solid
 62
     7
370
    25
100
AcDbLine
 10
26.5303244557
 20
21.1438798541
 30
0.0
 11
26.5303244557
 21
21.1254088186
 31
0.0
  0
LINE
  5
34B
330
1F
100
AcDbEntity
  8
0
  6
SLD-Solid
 62
     7
370
    25
100
AcDbLine
 10
26.8427727683
 20
21.1254088186
 30
0.0
 11
26.8427727683
 21
21.1438798541
 31
0.0
  0
LINE
  5
34C
330
1F
100
AcDbEntity
  8
0
  6
SLD-Solid
 62
     7
370
    25
100
AcDbLine
 10
26.780298612
 20
21.1438798541
 30
0.0
 11
26.780298612
 21
21.1938798541
 31
0.0
  0
LINE
  5
34D
330
1F
100
AcDbEntity
  8
0
  6
SLD-Solid
 62
     7
370
    25
100
AcDbLine
 10
26.780298612
 20
21.2438798541
 30
0.0
 11
26.780298612
 21
21.2933798541
 31
0.0
  0
LINE
  5
34E
330
1F
100
AcDbEntity
  8
0
  6
SLD-Solid
 62
     7
370
    25
100
AcDbLine
 10
26.780298612
 20
21.3433798541
 30
0.0
 11
26.780298612
 21
21.4438798541
 31
0.0
  0
LINE
  5
34F
330
1F
100
AcDbEntity
  8
0
  6
SLD-Solid
 62
     7
370
    25
100
AcDbLine
 10
26.592798612
 20
21.2933798541
 30
0.0
 11
26.592798612
 21
21.2438798541
 31
0.0
  0
LINE
  5
350
330
1F
100
AcDbEntity
  8
0
  6
SLD-Solid
 62
     7
370
    25
100
AcDbLine
 10
26.592798612
 20
21.1938798541
 30
0.0
 11
26.592798612
 21
21.1438798541
 31
0.0
  0
LINE
  5
351
330
1F
100
AcDbEntity
  8
0
  6
SLD-Solid
 62
     7
370
    25
100
AcDbLine
 10
26.8427727683
 20
23.5988798541
 30
0.0
 11
26.8427727683
 21
23.6173508896
 31
0.0
  0
LINE
  5
352
330
1F
100
AcDbEntity
  8
0
  6
SLD-Solid
 62
     7
370
    25
100
AcDbLine
 10
26.5303244557
 20
23.6173508896
 30
0.0
 11
26.5303244557
 21
23.5988798541
 31
0.0
  0
ARC
  5
353
330
1F
100
AcDbEntity
  8
0
  6
SLD-Solid
 62
     7
370
    25
100
AcDbCircle
 10
26.686548612
 20
23.3442724203
 30
0.0
 40
0.3146074338901304
100
AcDbArc
 50
60.2267646167
 51
119.7732353833
  0
LINE
  5
354
330
1F
100
AcDbEntity
  8
0
  6
SLD-Solid
 62
     7
370
    25
100
AcDbLine
 10
26.592798612
 20
23.5988798541
 30
0.0
 11
26.592798612
 21
23.5488798541
 31
0.0
  0
LINE
  5
355
330
1F
100
AcDbEntity
  8
0
  6
SLD-Solid
 62
     7
370
    25
100
AcDbLine
 10
26.592798612
 20
23.4988798541
 30
0.0
 11
26.592798612
 21
23.4493798541
 31
0.0
  0
LINE
  5
356
330
1F
100
AcDbEntity
  8
0
  6
SLD-Solid
 62
     7
370
    25
100
AcDbLine
 10
26.780298612
 20
23.2988798541
 30
0.0
 11
26.780298612
 21
23.3993798541
 31
0.0
  0
LINE
  5
357
330
1F
100
AcDbEntity
  8
0
  6
SLD-Solid
 62
     7
370
    25
100
AcDbLine
 10
26.780298612
 20
23.4493798541
 30
0.0
 11
26.780298612
 21
23.4988798541
 31
0.0
  0
LINE
  5
358
330
1F
100
AcDbEntity
  8
0
  6
SLD-Solid
 62
     7
370
    25
100
AcDbLine
 10
26.780298612
 20
23.5488798541
 30
0.0
 11
26.780298612
 21
23.5988798541
 31
0.0
  0
LINE
  5
359
330
1F
100
AcDbEntity
  8
0
  6
SLD-Solid
 62
     7
370
    25
100
AcDbLine
 10
26.491048612
 20
23.5488798541
 30
0.0
 11
26.491048612
 21
23.4988798541
 31
0.0
  0
LINE
  5
35A
330
1F
100
AcDbEntity
  8
0
  6
SLD-Solid
 62
     7
370
    25
100
AcDbLine
 10
26.491048612
 20
21.2438798541
 30
0.0
 11
26.491048612
 21
21.1938798541
 31
0.0
  0
SPLINE
  5
35B
330
1F
100
AcDbEntity
  8
0
  6
SLD-Solid
 62
     7
370
    25
100
AcDbSpline
210
0.0
220
0.0
230
1.0
 70
     8
 71
     3
 72
    17
 73
    13
 74
     0
 42
0.00000001
 43
0.00000001
 40
0.0
 40
0.0
 40
0.0
 40
0.0
 40
0.0209083991653255
 40
0.047619929905408
 40
0.0582932650353803
 40
0.1226796216820941
 40
0.1862874731590891
 40
0.3130375182146967
 40
0.4391082007407247
 40
0.5660121134809863
 40
0.8181804308292601
 40
1.0
 40
1.0
 40
1.0
 40
1.0
 10
27.18324696981702
 20
27.34687985414331
 30
0.0
 10
27.1832300532962
 20
27.35433246370333
 30
0.0
 10
27.18319152506986
 20
27.3713061565267
 30
0.0
 10
27.18298338996181
 20
27.39004998360065
 30
0.0
 10
27.18261018281883
 20
27.41939587084851
 30
0.0
 10
27.18208239823663
 20
27.45180011294218
 30
0.0
 10
27.18135214335341
 20
27.49696870568017
 30
0.0
 10
27.18072830877653
 20
27.53736674684691
 30
0.0
 10
27.18024671109195
 20
27.57214031549574
 30
0.0
 10
27.17982742505054
 20
27.60512956499296
 30
0.0
 10
27.17957972377416
 20
27.62744359620211
 30
0.0
 10
27.17957434166007
 20
27.62796470002653
 30
0.0
 10
27.1795720868191
 20
27.62818301688696
 30
0.0
  0
SPLINE
  5
35C
330
1F
100
AcDbEntity
  8
0
  6
SLD-Solid
 62
     7
370
    25
100
AcDbSpline
210
0.0
220
0.0
230
1.0
 70
     8
 71
     3
 72
    15
 73
    11
 74
     0
 42
0.00000001
 43
0.00000001
 40
0.0
 40
0.0
 40
0.0
 40
0.0
 40
0.2645750929300877
 40
0.5387434329340854
 40
0.6758993456507311
 40
0.8137672879128481
 40
0.8829751871790295
 40
0.9430578765931203
 40
0.9754553548151522
 40
0.9999999999999999
 40
0.9999999999999999
 40
0.9999999999999999
 40
0.9999999999999999
 10
27.17955243900647
 20
27.06377287278743
 30
0.0
 10
27.1795753093891
 20
27.06592330451792
 30
0.0
 10
27.17962187941318
 20
27.07030214063566
 30
0.0
 10
27.18001706254384
 20
27.10470066028084
 30
0.0
 10
27.18067056125995
 20
27.15245753885014
 30
0.0
 10
27.18132789102683
 20
27.19552884176921
 30
0.0
 10
27.18210973386447
 20
27.24331383154339
 30
0.0
 10
27.18271136628926
 20
27.28163899199304
 30
0.0
 10
27.18316742736381
 20
27.31782285536569
 30
0.0
 10
27.18322301081944
 20
27.33812758997259
 30
0.0
 10
27.18324696981702
 20
27.34687985414331
 30
0.0
  0
LINE
  5
35D
330
1F
100
AcDbEntity
  8
0
  6
SLD-Solid
 62
     7
370
    25
100
AcDbLine
 10
27.195548612
 20
26.332654173
 30
0.0
 11
27.195548612
 21
26.6068798541
 31
0.0
  0
LINE
  5
35E
330
1F
100
AcDbEntity
  8
0
  6
SLD-Solid
 62
     7
370
    25
100
AcDbLine
 10
27.1247079075
 20
23.9212037458
 30
0.0
 11
26.9122420337
 21
23.9212037458
 31
0.0
  0
LINE
  5
35F
330
1F
100
AcDbEntity
  8
0
  6
SLD-Solid
 62
     7
370
    25
100
AcDbLine
 10
21.8621663597
 20
25.7604611266
 30
0.0
 11
21.8616120553
 21
25.7594827222
 31
0.0
  0
ARC
  5
360
330
1F
100
AcDbEntity
  8
0
  6
SLD-Solid
 62
     7
370
    25
100
AcDbCircle
 10
22.0024670096
 20
25.9125451832
 30
0.0
 40
0.2069150372208525
100
AcDbArc
 50
202.6921695904
 51
227.3078304096
  0
LINE
  5
361
330
1F
100
AcDbEntity
  8
0
  6
SLD-Solid
 62
     7
370
    25
100
AcDbLine
 10
21.8104601128
 20
25.832535267
 30
0.0
 11
21.8115690955
 21
25.8327215087
 31
0.0
  0
LINE
  5
362
330
1F
100
AcDbEntity
  8
0
  6
SLD-Solid
 62
     7
370
    25
100
AcDbLine
 10
21.815548612
 20
26.582654173
 30
0.0
 11
21.8104601128
 21
26.582654173
 31
0.0
  0
LINE
  5
363
330
1F
100
AcDbEntity
  8
0
  6
SLD-Solid
 62
     7
370
    25
100
AcDbLine
 10
21.815548612
 20
26.6068798541
 30
0.0
 11
21.815548612
 21
26.582654173
 31
0.0
  0
SPLINE
  5
364
330
1F
100
AcDbEntity
  8
0
  6
SLD-Solid
 62
     7
370
    25
100
AcDbSpline
210
0.0
220
0.0
230
1.0
 70
     8
 71
     3
 72
    15
 73
    11
 74
     0
 42
0.00000001
 43
0.00000001
 40
0.0
 40
0.0
 40
0.0
 40
0.0
 40
0.1250000000000028
 40
0.2500000000000075
 40
0.374999999999992
 40
0.500000000000008
 40
0.6250000000000068
 40
0.7499999999999933
 40
0.8749999999999942
 40
1.0
 40
1.0
 40
1.0
 40
1.0
 10
21.8616120553495
 20
25.75948272217709
 30
0.0
 10
21.85903991043993
 20
25.75415122538784
 30
0.0
 10
21.85389562062079
 20
25.74348823180934
 30
0.0
 10
21.84709920549507
 20
25.73002147452629
 30
0.0
 10
21.84200276493079
 20
25.72122535896442
 30
0.0
 10
21.83912744816971
 20
25.71853173089766
 30
0.0
 10
21.83865625848909
 20
25.72244338769799
 30
0.0
 10
21.84040619261168
 20
25.73245753199342
 30
0.0
 10
21.8438561012957
 20
25.74714231801004
 30
0.0
 10
21.84676938682038
 20
25.75861733074424
 30
0.0
 10
21.84822602958272
 20
25.76435483711134
 30
0.0
  0
SPLINE
  5
365
330
1F
100
AcDbEntity
  8
0
  6
SLD-Solid
 62
     7
370
    25
100
AcDbSpline
210
0.0
220
0.0
230
1.0
 70
     8
 71
     3
 72
    11
 73
     7
 74
     0
 42
0.00000001
 43
0.00000001
 40
0.0
 40
0.0
 40
0.0
 40
0.0
 40
0.2500000000000104
 40
0.500000000000022
 40
0.7500000000000081
 40
0.9999999999999999
 40
0.9999999999999999
 40
0.9999999999999999
 40
0.9999999999999999
 10
26.79387417174001
 20
23.91660325903576
 30
0.0
 10
26.80284005905965
 20
23.91451912022621
 30
0.0
 10
26.82077183369893
 20
23.91035084260708
 30
0.0
 10
26.85013942172926
 20
23.91088449228729
 30
0.0
 10
26.88078788764646
 20
23.91493732503876
 30
0.0
 10
26.90175731834728
 20
23.91911493885679
 30
0.0
 10
26.91224203369769
 20
23.9212037457658
 30
0.0
  0
SPLINE
  5
366
330
1F
100
AcDbEntity
  8
0
  6
SLD-Solid
 62
     7
370
    25
100
AcDbSpline
210
0.0
220
0.0
230
1.0
 70
     8
 71
     3
 72
    15
 73
    11
 74
     0
 42
0.00000001
 43
0.00000001
 40
0.0
 40
0.0
 40
0.0
 40
0.0
 40
0.1249999999999865
 40
0.2499999999999813
 40
0.3750000000000205
 40
0.4999999999999958
 40
0.6249999999999972
 40
0.7499999999999888
 40
0.8749999999999802
 40
1.0
 40
1.0
 40
1.0
 40
1.0
 10
21.8616120553495
 20
25.75948272217709
 30
0.0
 10
21.8603828396639
 20
25.75784089310662
 30
0.0
 10
21.8579244082927
 20
25.7545572349657
 30
0.0
 10
21.85454343443689
 20
25.75047432544919
 30
0.0
 10
21.85172911876823
 20
25.74794829650643
 30
0.0
 10
21.84965517770064
 20
25.74745643006203
 30
0.0
 10
21.84838261232653
 20
25.74916632523999
 30
0.0
 10
21.8478504215535
 20
25.75291038291632
 30
0.0
 10
21.84788488896761
 20
25.75821132116638
 30
0.0
 10
21.84811231604434
 20
25.76230699846302
 30
0.0
 10
21.84822602958271
 20
25.76435483711133
 30
0.0
  0
SPLINE
  5
367
330
1F
100
AcDbEntity
  8
0
  6
SLD-Solid
 62
     7
370
    25
100
AcDbSpline
210
0.0
220
0.0
230
1.0
 70
     8
 71
     3
 72
    15
 73
    11
 74
     0
 42
0.00000001
 43
0.00000001
 40
0.0
 40
0.0
 40
0.0
 40
0.0
 40
0.1249999999999999
 40
0.25
 40
0.3750000000000001
 40
0.5
 40
0.6249999999999999
 40
0.75
 40
0.8750000000000002
 40
1.0
 40
1.0
 40
1.0
 40
1.0
 10
21.81046011279634
 20
25.81829015589254
 30
0.0
 10
21.80457041923512
 20
25.81888370218766
 30
0.0
 10
21.79279103211267
 20
25.82007079477789
 30
0.0
 10
21.77781190879247
 20
25.82185143366325
 30
0.0
 10
21.76780317857515
 20
25.8236320725486
 30
0.0
 10
21.76428857990694
 20
25.82541271143395
 30
0.0
 10
21.76780317857515
 20
25.8271933503193
 30
0.0
 10
21.77781190879246
 20
25.82897398920466
 30
0.0
 10
21.79279103211267
 20
25.83075462809001
 30
0.0
 10
21.80457041923512
 20
25.83194172068024
 30
0.0
 10
21.81046011279634
 20
25.83253526697536
 30
0.0
  0
SPLINE
  5
368
330
1F
100
AcDbEntity
  8
0
  6
SLD-Solid
 62
     7
370
    25
100
AcDbSpline
210
0.0
220
0.0
230
1.0
 70
     8
 71
     3
 72
    15
 73
    11
 74
     0
 42
0.00000001
 43
0.00000001
 40
0.0
 40
0.0
 40
0.0
 40
0.0
 40
0.124999999999996
 40
0.2500000000000255
 40
0.3749999999999957
 40
0.5
 40
0.6250000000000043
 40
0.7499999999999745
 40
0.8750000000000039
 40
1.0
 40
1.0
 40
1.0
 40
1.0
 10
21.81046011279634
 20
25.81829015589254
 30
0.0
 10
21.80849688160927
 20
25.81888370218766
 30
0.0
 10
21.80457041923512
 20
25.82007079477789
 30
0.0
 10
21.79957737812838
 20
25.82185143366325
 30
0.0
 10
21.79624113472261
 20
25.8236320725486
 30
0.0
 10
21.79506960183321
 20
25.82541271143395
 30
0.0
 10
21.79624113472261
 20
25.8271933503193
 30
0.0
 10
21.79957737812839
 20
25.82897398920466
 30
0.0
 10
21.80457041923512
 20
25.83075462809001
 30
0.0
 10
21.80849688160927
 20
25.83194172068024
 30
0.0
 10
21.81046011279634
 20
25.83253526697536
 30
0.0
  0
LINE
  5
369
330
1F
100
AcDbEntity
  8
0
  6
SLD-Solid
 62
     7
370
    25
100
AcDbLine
 10
21.8104601128
 20
26.582654173
 30
0.0
 11
21.7654601128
 21
26.582654173
 31
0.0
  0
LINE
  5
36A
330
1F
100
AcDbEntity
  8
0
  6
SLD-Solid
 62
     7
370
    25
100
AcDbLine
 10
27.1947079075
 20
23.9212037458
 30
0.0
 11
27.1947079075
 21
26.312654173
 31
0.0
  0
LINE
  5
36B
330
1F
100
AcDbEntity
  8
0
  6
SLD-Solid
 62
     7
370
    25
100
AcDbLine
 10
27.1247079075
 20
23.9212037458
 30
0.0
 11
27.1947079075
 21
23.9212037458
 31
0.0
  0
LINE
  5
36C
330
1F
100
AcDbEntity
  8
0
  6
SLD-Solid
 62
     7
370
    25
100
AcDbLine
 10
21.815548612
 20
26.8868798541
 30
0.0
 11
21.815548612
 21
26.6068798541
 31
0.0
  0
LINE
  5
36D
330
1F
100
AcDbEntity
  8
0
  6
SLD-Solid
 62
     7
370
    25
100
AcDbLine
 10
21.815548612
 20
26.8868798541
 30
0.0
 11
27.195548612
 21
26.8868798541
 31
0.0
  0
LINE
  5
36E
330
1F
100
AcDbEntity
  8
0
  6
SLD-Solid
 62
     7
370
    25
100
AcDbLine
 10
27.195548612
 20
26.6068798541
 30
0.0
 11
27.195548612
 21
26.6870602125
 31
0.0
  0
LINE
  5
36F
330
1F
100
AcDbEntity
  8
0
  6
SLD-Solid
 62
     7
370
    25
100
AcDbLine
 10
21.8482260296
 20
25.7643548371
 30
0.0
 11
21.8498006579
 21
25.7728783737
 31
0.0
  0
LINE
  5
370
330
1F
100
AcDbEntity
  8
0
  6
SLD-Solid
 62
     7
370
    25
100
AcDbLine
 10
21.8190081718
 20
25.8168546013
 30
0.0
 11
21.8104601128
 21
25.8182901559
 31
0.0
  0
LINE
  5
371
330
1F
100
AcDbEntity
  8
0
  6
SLD-Solid
 62
     7
370
    25
100
AcDbLine
 10
21.815548612
 20
26.8268798541
 30
0.0
 11
21.8104601128
 21
26.8268798541
 31
0.0
  0
LINE
  5
372
330
1F
100
AcDbEntity
  8
0
  6
SLD-Solid
 62
     7
370
    25
100
AcDbLine
 10
21.815548612
 20
26.7968798541
 30
0.0
 11
21.8104601128
 21
26.7968798541
 31
0.0
  0
LINE
  5
373
330
1F
100
AcDbEntity
  8
0
  6
SLD-Solid
 62
     7
370
    25
100
AcDbLine
 10
21.8104601128
 20
26.7968798541
 30
0.0
 11
21.8104601128
 21
26.8268798541
 31
0.0
  0
LINE
  5
374
330
1F
100
AcDbEntity
  8
0
  6
SLD-Solid
 62
     7
370
    25
100
AcDbLine
 10
21.8104601128
 20
26.8868798541
 30
0.0
 11
21.8104601128
 21
26.8568798541
 31
0.0
  0
LINE
  5
375
330
1F
100
AcDbEntity
  8
0
  6
SLD-Solid
 62
     7
370
    25
100
AcDbLine
 10
21.8104601128
 20
26.8868798541
 30
0.0
 11
21.815548612
 21
26.8868798541
 31
0.0
  0
LINE
  5
376
330
1F
100
AcDbEntity
  8
0
  6
SLD-Solid
 62
     7
370
    25
100
AcDbLine
 10
21.8104601128
 20
26.8568798541
 30
0.0
 11
21.815548612
 21
26.8568798541
 31
0.0
  0
ARC
  5
377
330
1F
100
AcDbEntity
  8
0
  6
SLD-Solid
 62
     7
370
    25
100
AcDbCircle
 10
21.8104601128
 20
26.8418798541
 30
0.0
 40
0.0150000000000041
100
AcDbArc
 50
90.0
 51
270.0
  0
ARC
  5
378
330
1F
100
AcDbEntity
  8
0
  6
SLD-Solid
 62
     7
370
    25
100
AcDbCircle
 10
21.8104601128
 20
26.8418798541
 30
0.0
 40
0.0450000000000053
100
AcDbArc
 50
90.0
 51
270.0
  0
LINE
  5
379
330
1F
100
AcDbEntity
  8
0
  6
SLD-Solid
 62
     7
370
    25
100
AcDbLine
 10
27.195548612
 20
20.8068798541
 30
0.0
 11
27.225548612
 21
20.8068798541
 31
0.0
  0
LINE
  5
37A
330
1F
100
AcDbEntity
  8
0
  6
SLD-Solid
 62
     7
370
    25
100
AcDbLine
 10
27.195548612
 20
21.1818798541
 30
0.0
 11
27.195548612
 21
20.8068798541
 31
0.0
  0
LINE
  5
37B
330
1F
100
AcDbEntity
  8
0
  6
SLD-Solid
 62
     7
370
    25
100
AcDbLine
 10
27.195548612
 20
21.1818798541
 30
0.0
 11
27.225548612
 21
21.1818798541
 31
0.0
  0
LINE
  5
37C
330
1F
100
AcDbEntity
  8
0
  6
SLD-Solid
 62
     7
370
    25
100
AcDbLine
 10
27.225548612
 20
21.1818798541
 30
0.0
 11
27.225548612
 21
20.8068798541
 31
0.0
  0
LINE
  5
37D
330
1F
100
AcDbEntity
  8
0
  6
SLD-Solid
 62
     7
370
    25
100
AcDbLine
 10
27.195548612
 20
27.4318798541
 30
0.0
 11
27.225548612
 21
27.4318798541
 31
0.0
  0
LINE
  5
37E
330
1F
100
AcDbEntity
  8
0
  6
SLD-Solid
 62
     7
370
    25
100
AcDbLine
 10
27.225548612
 20
27.4318798541
 30
0.0
 11
27.225548612
 21
21.1818798541
 31
0.0
  0
LINE
  5
37F
330
1F
100
AcDbEntity
  8
0
  6
SLD-Solid
 62
     7
370
    25
100
AcDbLine
 10
27.195548612
 20
27.4318798541
 30
0.0
 11
27.195548612
 21
26.6870602125
 31
0.0
  0
LINE
  5
380
330
1F
100
AcDbEntity
  8
0
  6
SLD-Solid
 62
     7
370
    25
100
AcDbLine
 10
27.195548612
 20
26.332654173
 30
0.0
 11
27.195548612
 21
21.1818798541
 31
0.0
  0
LINE
  5
381
330
1F
100
AcDbEntity
  8
0
  6
SLD-Solid
 62
     7
370
    25
100
AcDbLine
 10
27.195548612
 20
27.8068798541
 30
0.0
 11
27.225548612
 21
27.8068798541
 31
0.0
  0
LINE
  5
382
330
1F
100
AcDbEntity
  8
0
  6
SLD-Solid
 62
     7
370
    25
100
AcDbLine
 10
27.225548612
 20
27.8068798541
 30
0.0
 11
27.225548612
 21
27.4318798541
 31
0.0
  0
LINE
  5
383
330
1F
100
AcDbEntity
  8
0
  6
SLD-Solid
 62
     7
370
    25
100
AcDbLine
 10
27.195548612
 20
27.8068798541
 30
0.0
 11
27.195548612
 21
27.4318798541
 31
0.0
  0
ARC
  5
384
330
1F
100
AcDbEntity
  8
0
  6
SLD-Solid
 62
     7
370
    25
100
AcDbCircle
 10
23.689548612
 20
22.3713798541
 30
0.0
 40
2.25
100
AcDbArc
 50
269.92105906
 51
332.6060342206
  0
ARC
  5
385
330
1F
100
AcDbEntity
  8
0
  6
SLD-Solid
 62
     7
370
    25
100
AcDbCircle
 10
23.689548612
 20
22.3713798541
 30
0.0
 40
2.25
100
AcDbArc
 50
27.3939657794
 51
90.0789428286
  0
ARC
  5
386
330
1F
100
AcDbEntity
  8
0
  6
SLD-Solid
 62
     7
370
    25
100
AcDbCircle
 10
23.683348612
 20
22.3713798541
 30
0.0
 40
2.250000000000016
100
AcDbArc
 50
290.8459867087
 51
332.6449719317
  0
ARC
  5
387
330
1F
100
AcDbEntity
  8
0
  6
SLD-Solid
 62
     7
370
    25
100
AcDbCircle
 10
23.683348612
 20
22.3713798541
 30
0.0
 40
2.250000000000016
100
AcDbArc
 50
27.3550280683
 51
290.8459867087
  0
LINE
  5
388
330
1F
100
AcDbEntity
  8
0
  6
SLD-Solid
 62
     7
370
    25
100
AcDbLine
 10
26.5303244557
 20
21.1254088186
 30
0.0
 11
26.8427727683
 21
21.1254088186
 31
0.0
  0
LINE
  5
389
330
1F
100
AcDbEntity
  8
0
  6
SLD-Solid
 62
     7
370
    25
100
AcDbLine
 10
26.5303244557
 20
21.1438798541
 30
0.0
 11
26.8427727683
 21
21.1438798541
 31
0.0
  0
LINE
  5
38A
330
1F
100
AcDbEntity
  8
0
  6
SLD-Solid
 62
     7
370
    25
100
AcDbLine
 10
26.780298612
 20
21.4438798541
 30
0.0
 11
26.674548612
 21
21.4438798541
 31
0.0
  0
LINE
  5
38B
330
1F
100
AcDbEntity
  8
0
  6
SLD-Solid
 62
     7
370
    25
100
AcDbLine
 10
26.8427727683
 20
23.6173508896
 30
0.0
 11
26.5303244557
 21
23.6173508896
 31
0.0
  0
LINE
  5
38C
330
1F
100
AcDbEntity
  8
0
  6
SLD-Solid
 62
     7
370
    25
100
AcDbLine
 10
26.8427727683
 20
23.5988798541
 30
0.0
 11
26.5303244557
 21
23.5988798541
 31
0.0
  0
LINE
  5
38D
330
1F
100
AcDbEntity
  8
0
  6
SLD-Solid
 62
     7
370
    25
100
AcDbLine
 10
26.674548612
 20
23.2988798541
 30
0.0
 11
26.780298612
 21
23.2988798541
 31
0.0
  0
LINE
  5
38E
330
1F
100
AcDbEntity
  8
0
  6
SLD-Solid
 62
     7
370
    25
100
AcDbLine
 10
26.816548612
 20
21.2933798541
 30
0.0
 11
26.905548612
 21
21.2933798541
 31
0.0
  0
LINE
  5
38F
330
1F
100
AcDbEntity
  8
0
  6
SLD-Solid
 62
     7
370
    25
100
AcDbLine
 10
26.816548612
 20
21.3433798541
 30
0.0
 11
26.905548612
 21
21.3433798541
 31
0.0
  0
LINE
  5
390
330
1F
100
AcDbEntity
  8
0
  6
SLD-Solid
 62
     7
370
    25
100
AcDbLine
 10
26.905548612
 20
23.4493798541
 30
0.0
 11
26.816548612
 21
23.4493798541
 31
0.0
  0
LINE
  5
391
330
1F
100
AcDbEntity
  8
0
  6
SLD-Solid
 62
     7
370
    25
100
AcDbLine
 10
26.905548612
 20
23.3993798541
 30
0.0
 11
26.816548612
 21
23.3993798541
 31
0.0
  0
ARC
  5
392
330
1F
100
AcDbEntity
  8
0
  6
SLD-Solid
 62
     7
370
    25
100
AcDbCircle
 10
25.8664326949
 20
21.3433798541
 30
0.0
 40
0.0500000000000016
100
AcDbArc
 50
256.1245228408
 51
270.0
  0
LINE
  5
393
330
1F
100
AcDbEntity
  8
0
  6
SLD-Solid
 62
     7
370
    25
100
AcDbLine
 10
25.8544420674
 20
21.2948388936
 30
0.0
 11
25.681745346
 21
21.3374985779
 31
0.0
  0
LINE
  5
394
330
1F
100
AcDbEntity
  8
0
  6
SLD-Solid
 62
     7
370
    25
100
AcDbLine
 10
25.8726326949
 20
21.2933798541
 30
0.0
 11
25.8664326949
 21
21.2933798541
 31
0.0
  0
LINE
  5
395
330
1F
100
AcDbEntity
  8
0
  6
SLD-Solid
 62
     7
370
    25
100
AcDbLine
 10
25.681745346
 20
23.4052611304
 30
0.0
 11
25.8544420674
 21
23.4479208147
 31
0.0
  0
ARC
  5
396
330
1F
100
AcDbEntity
  8
0
  6
SLD-Solid
 62
     7
370
    25
100
AcDbCircle
 10
25.8664326949
 20
23.3993798541
 30
0.0
 40
0.0500000000000007
100
AcDbArc
 50
90.0
 51
103.8754771592
  0
LINE
  5
397
330
1F
100
AcDbEntity
  8
0
  6
SLD-Solid
 62
     7
370
    25
100
AcDbLine
 10
25.8726326949
 20
23.4493798541
 30
0.0
 11
25.8664326949
 21
23.4493798541
 31
0.0
  0
SPLINE
  5
398
330
1F
100
AcDbEntity
  8
0
  6
SLD-Solid
 62
     7
370
    25
100
AcDbSpline
210
0.0
220
0.0
230
1.0
 70
     8
 71
     3
 72
    15
 73
    11
 74
     0
 42
0.00000001
 43
0.00000001
 40
0.0
 40
0.0
 40
0.0
 40
0.0
 40
0.0081261984755641
 40
0.0243666968911449
 40
0.0276121858285172
 40
0.0743296679044353
 40
0.1659267584868618
 40
0.3336796626426758
 40
0.599863938364041
 40
0.9999999999999999
 40
0.9999999999999999
 40
0.9999999999999999
 40
0.9999999999999999
 10
26.24459006706976
 20
22.75837985414329
 30
0.0
 10
26.24464085637781
 20
22.75837532131616
 30
0.0
 10
26.24479314993529
 20
22.75836172947182
 30
0.0
 10
26.24496179260961
 20
22.75831877684841
 30
0.0
 10
26.24536004393492
 20
22.75820209201468
 30
0.0
 10
26.24617916810751
 20
22.75784502786729
 30
0.0
 10
26.24775615073197
 20
22.75672243601617
 30
0.0
 10
26.24988773887184
 20
22.75416010129931
 30
0.0
 10
26.25206485593982
 20
22.74929620101791
 30
0.0
 10
26.25234120489253
 20
22.74509396074949
 30
0.0
 10
26.25250715687595
 20
22.74257044799326
 30
0.0
  0
ELLIPSE
  5
399
330
1F
100
AcDbEntity
  8
0
  6
SLD-Solid
 62
     7
370
    25
100
AcDbEllipse
 10
23.7223678448
 20
22.7583798541
 30
0.0
 11
2.522222222222222
 21
0.0
 31
0.0
210
0.0
220
0.0
230
1.0
 40
0.0396475771
 41
5.700095931274959
 42
6.283185307179586
  0
SPLINE
  5
39A
330
1F
100
AcDbEntity
  8
0
  6
SLD-Solid
 62
     7
370
    25
100
AcDbSpline
210
0.0
220
0.0
230
1.0
 70
     8
 71
     3
 72
    14
 73
    10
 74
     0
 42
0.00000001
 43
0.00000001
 40
0.0
 40
0.0
 40
0.0
 40
0.0
 40
0.4276109923162598
 40
0.5165597619920975
 40
0.7020597223478743
 40
0.8888344080431322
 40
0.9283871563393552
 40
0.9685757219167799
 40
1.0
 40
1.0
 40
1.0
 40
1.0
 10
26.25250715687595
 20
22.00018926029338
 30
0.0
 10
26.25232768511551
 20
21.99748457990169
 30
0.0
 10
26.25211088084359
 20
21.99421729004127
 30
0.0
 10
26.25053787577589
 20
21.9900927140818
 30
0.0
 10
26.2491384408923
 20
21.98754796314105
 30
0.0
 10
26.24730884916496
 20
21.98563008572972
 30
0.0
 10
26.24586801784024
 20
21.98478377906469
 30
0.0
 10
26.2452285134228
 20
21.98449107251748
 30
0.0
 10
26.24478478054195
 20
21.98441377354107
 30
0.0
 10
26.24459006706976
 20
21.98437985414329
 30
0.0
  0
ELLIPSE
  5
39B
330
1F
100
AcDbEntity
  8
0
  6
SLD-Solid
 62
     7
370
    25
100
AcDbEllipse
 10
23.7223678448
 20
21.9843798541
 30
0.0
 11
2.522222222222222
 21
0.0
 31
0.0
210
0.0
220
0.0
230
1.0
 40
0.0396475771
 41
0.0
 42
0.5830893759048847
  0
LINE
  5
39C
330
1F
100
AcDbEntity
  8
0
  6
SLD-Solid
 62
     7
370
    25
100
AcDbLine
 10
24.9367686017
 20
22.3713798541
 30
0.0
 11
24.199548612
 21
22.0078894426
 31
0.0
  0
LINE
  5
39D
330
1F
100
AcDbEntity
  8
0
  6
SLD-Solid
 62
     7
370
    25
100
AcDbLine
 10
24.199548612
 20
22.7348702657
 30
0.0
 11
24.9367686017
 21
22.3713798541
 31
0.0
  0
LINE
  5
39E
330
1F
100
AcDbEntity
  8
0
  6
SLD-Solid
 62
     7
370
    25
100
AcDbLine
 10
24.199548612
 20
22.0078894426
 30
0.0
 11
23.4623286223
 21
22.3713798541
 31
0.0
  0
LINE
  5
39F
330
1F
100
AcDbEntity
  8
0
  6
SLD-Solid
 62
     7
370
    25
100
AcDbLine
 10
23.4623286223
 20
22.3713798541
 30
0.0
 11
24.199548612
 21
22.7348702657
 31
0.0
  0
LINE
  5
3A0
330
1F
100
AcDbEntity
  8
0
  6
SLD-Solid
 62
     7
370
    25
100
AcDbLine
 10
26.732548612
 20
21.2933798541
 30
0.0
 11
25.8726326949
 21
21.2933798541
 31
0.0
  0
LINE
  5
3A1
330
1F
100
AcDbEntity
  8
0
  6
SLD-Solid
 62
     7
370
    25
100
AcDbLine
 10
26.721548612
 20
21.3433798541
 30
0.0
 11
26.732548612
 21
21.3433798541
 31
0.0
  0
LINE
  5
3A2
330
1F
100
AcDbEntity
  8
0
  6
SLD-Solid
 62
     7
370
    25
100
AcDbLine
 10
26.721548612
 20
23.3993798541
 30
0.0
 11
25.8726326949
 21
23.3993798541
 31
0.0
  0
LINE
  5
3A3
330
1F
100
AcDbEntity
  8
0
  6
SLD-Solid
 62
     7
370
    25
100
AcDbLine
 10
25.8726326949
 20
23.3993798541
 30
0.0
 11
25.8726326949
 21
23.4493798541
 31
0.0
  0
LINE
  5
3A4
330
1F
100
AcDbEntity
  8
0
  6
SLD-Solid
 62
     7
370
    25
100
AcDbLine
 10
25.8726326949
 20
23.4493798541
 30
0.0
 11
26.732548612
 21
23.4493798541
 31
0.0
  0
LINE
  5
3A5
330
1F
100
AcDbEntity
  8
0
  6
SLD-Solid
 62
     7
370
    25
100
AcDbLine
 10
26.732548612
 20
23.3993798541
 30
0.0
 11
26.721548612
 21
23.3993798541
 31
0.0
  0
LINE
  5
3A6
330
1F
100
AcDbEntity
  8
0
  6
SLD-Solid
 62
     7
370
    25
100
AcDbLine
 10
26.2525071569
 20
22.742570448
 30
0.0
 11
26.2525071569
 21
22.0001892603
 31
0.0
  0
LINE
  5
3A7
330
1F
100
AcDbEntity
  8
0
  6
SLD-Solid
 62
     7
370
    25
100
AcDbLine
 10
26.674548612
 20
21.4263798541
 30
0.0
 11
26.721548612
 21
21.3433798541
 31
0.0
  0
LINE
  5
3A8
330
1F
100
AcDbEntity
  8
0
  6
SLD-Solid
 62
     7
370
    25
100
AcDbLine
 10
26.674548612
 20
23.3163798541
 30
0.0
 11
26.674548612
 21
21.4263798541
 31
0.0
  0
LINE
  5
3A9
330
1F
100
AcDbEntity
  8
0
  6
SLD-Solid
 62
     7
370
    25
100
AcDbLine
 10
26.721548612
 20
23.3993798541
 30
0.0
 11
26.674548612
 21
23.3163798541
 31
0.0
  0
ARC
  5
3AA
330
1F
100
AcDbEntity
  8
0
  6
SLD-Solid
 62
     7
370
    25
100
AcDbCircle
 10
25.8726326949
 20
21.3433798541
 30
0.0
 40
0.0500000000000024
100
AcDbArc
 50
256.1245228408
 51
270.0
  0
ARC
  5
3AB
330
1F
100
AcDbEntity
  8
0
  6
SLD-Solid
 62
     7
370
    25
100
AcDbCircle
 10
25.9588980818
 20
22.2255668148
 30
0.0
 40
0.2276429303458332
100
AcDbArc
 50
215.1523107815
 51
234.8476892185
  0
LINE
  5
3AC
330
1F
100
AcDbEntity
  8
0
  6
SLD-Solid
 62
     7
370
    25
100
AcDbLine
 10
24.8386411824
 20
23.1954653265
 30
0.0
 11
25.8606420674
 21
23.4479208147
 31
0.0
  0
LINE
  5
3AD
330
1F
100
AcDbEntity
  8
0
  6
SLD-Solid
 62
     7
370
    25
100
AcDbLine
 10
25.8726326949
 20
23.3993798541
 30
0.0
 11
25.8606420674
 21
23.4479208147
 31
0.0
  0
LINE
  5
3AE
330
1F
100
AcDbEntity
  8
0
  6
SLD-Solid
 62
     7
370
    25
100
AcDbLine
 10
25.8606420674
 20
21.2948388936
 30
0.0
 11
24.8386411824
 21
21.5472943818
 31
0.0
  0
ARC
  5
3AF
330
1F
100
AcDbEntity
  8
0
  6
SLD-Solid
 62
     7
370
    25
100
AcDbCircle
 10
25.9588980818
 20
22.5171928934
 30
0.0
 40
0.2276429303457677
100
AcDbArc
 50
125.1523107815
 51
144.8476892185
  0
ARC
  5
3B0
330
1F
100
AcDbEntity
  8
0
  6
SLD-Solid
 62
     7
370
    25
100
AcDbCircle
 10
25.8726326949
 20
23.3993798541
 30
0.0
 40
0.0500000000000024
100
AcDbArc
 50
90.0
 51
103.8754771592
  0
LINE
  5
3B1
330
1F
100
AcDbEntity
  8
0
  6
SLD-Solid
 62
     7
370
    25
100
AcDbLine
 10
25.7727716676
 20
22.0945009471
 30
0.0
 11
25.7727716676
 21
22.6482587611
 31
0.0
  0
ARC
  5
3B2
330
1F
100
AcDbEntity
  8
0
  6
SLD-Solid
 62
     7
370
    25
100
AcDbCircle
 10
24.3357744342
 20
25.2311915661
 30
0.0
 40
2.096915899364234
100
AcDbArc
 50
257.2668397453
 51
283.8754771592
  0
ARC
  5
3B3
330
1F
100
AcDbEntity
  8
0
  6
SLD-Solid
 62
     7
370
    25
100
AcDbCircle
 10
24.3357744342
 20
19.5115681422
 30
0.0
 40
2.096915899364234
100
AcDbArc
 50
76.1245228408
 51
102.7331602547
  0
ARC
  5
3B4
330
1F
100
AcDbEntity
  8
0
  6
SLD-Solid
 62
     7
370
    25
100
AcDbCircle
 10
23.689548612
 20
22.3713798541
 30
0.0
 40
0.835000000000001
100
AcDbArc
 50
77.2668397453
 51
282.7331602547
  0
LINE
  5
3B5
330
1F
100
AcDbEntity
  8
0
  6
SLD-Solid
 62
     7
370
    25
100
AcDbLine
 10
26.732548612
 20
21.2933798541
 30
0.0
 11
26.816548612
 21
21.2933798541
 31
0.0
  0
LINE
  5
3B6
330
1F
100
AcDbEntity
  8
0
  6
SLD-Solid
 62
     7
370
    25
100
AcDbLine
 10
26.816548612
 20
21.3433798541
 30
0.0
 11
26.732548612
 21
21.3433798541
 31
0.0
  0
LINE
  5
3B7
330
1F
100
AcDbEntity
  8
0
  6
SLD-Solid
 62
     7
370
    25
100
AcDbLine
 10
26.732548612
 20
23.4493798541
 30
0.0
 11
26.816548612
 21
23.4493798541
 31
0.0
  0
LINE
  5
3B8
330
1F
100
AcDbEntity
  8
0
  6
SLD-Solid
 62
     7
370
    25
100
AcDbLine
 10
26.732548612
 20
23.3993798541
 30
0.0
 11
26.816548612
 21
23.3993798541
 31
0.0
  0
LINE
  5
3B9
330
1F
100
AcDbEntity
  8
0
  6
SLD-Solid
 62
     7
370
    25
100
AcDbLine
 10
26.9796667075
 20
21.0817252361
 30
0.0
 11
27.195548612
 21
21.0238798541
 31
0.0
  0
LINE
  5
3BA
330
1F
100
AcDbEntity
  8
0
  6
SLD-Solid
 62
     7
370
    25
100
AcDbLine
 10
27.195548612
 20
23.7188798541
 30
0.0
 11
26.9796667075
 21
23.6610344722
 31
0.0
  0
LINE
  5
3BB
330
1F
100
AcDbEntity
  8
0
  6
SLD-Solid
 62
     7
370
    25
100
AcDbLine
 10
26.905548612
 20
21.2507622557
 30
0.0
 11
26.905548612
 21
21.1783178187
 31
0.0
  0
ARC
  5
3BC
330
1F
100
AcDbEntity
  8
0
  6
SLD-Solid
 62
     7
370
    25
100
AcDbCircle
 10
27.005548612
 20
21.1783178187
 30
0.0
 40
0.1000000000000006
100
AcDbArc
 50
180.0
 51
255.0
  0
LINE
  5
3BD
330
1F
100
AcDbEntity
  8
0
  6
SLD-Solid
 62
     7
370
    25
100
AcDbLine
 10
26.905548612
 20
23.4919974526
 30
0.0
 11
26.905548612
 21
21.2507622557
 31
0.0
  0
LINE
  5
3BE
330
1F
100
AcDbEntity
  8
0
  6
SLD-Solid
 62
     7
370
    25
100
AcDbLine
 10
26.905548612
 20
23.5644418895
 30
0.0
 11
26.905548612
 21
23.4919974526
 31
0.0
  0
ARC
  5
3BF
330
1F
100
AcDbEntity
  8
0
  6
SLD-Solid
 62
     7
370
    25
100
AcDbCircle
 10
27.005548612
 20
23.5644418895
 30
0.0
 40
0.0999999999999979
100
AcDbArc
 50
105.0
 51
180.0
  0
ARC
  5
3C0
330
1F
100
AcDbEntity
  8
0
  6
SLD-Solid
 62
     7
370
    25
100
AcDbCircle
 10
26.890548612
 20
23.5638798541
 30
0.0
 40
0.014999999999997
100
AcDbArc
 50
270.0
 51
0.0
  0
LINE
  5
3C1
330
1F
100
AcDbEntity
  8
0
  6
SLD-Solid
 62
     7
370
    25
100
AcDbLine
 10
26.686548612
 20
23.4988798541
 30
0.0
 11
26.905548612
 21
23.4988798541
 31
0.0
  0
LINE
  5
3C2
330
1F
100
AcDbEntity
  8
0
  6
SLD-Solid
 62
     7
370
    25
100
AcDbLine
 10
26.686548612
 20
23.5488798541
 30
0.0
 11
26.890548612
 21
23.5488798541
 31
0.0
  0
LINE
  5
3C3
330
1F
100
AcDbEntity
  8
0
  6
SLD-Solid
 62
     7
370
    25
100
AcDbLine
 10
26.686548612
 20
21.2438798541
 30
0.0
 11
26.905548612
 21
21.2438798541
 31
0.0
  0
ARC
  5
3C4
330
1F
100
AcDbEntity
  8
0
  6
SLD-Solid
 62
     7
370
    25
100
AcDbCircle
 10
26.890548612
 20
21.1788798541
 30
0.0
 40
0.0150000000000006
100
AcDbArc
 50
0.0
 51
90.0
  0
LINE
  5
3C5
330
1F
100
AcDbEntity
  8
0
  6
SLD-Solid
 62
     7
370
    25
100
AcDbLine
 10
26.686548612
 20
21.1938798541
 30
0.0
 11
26.890548612
 21
21.1938798541
 31
0.0
  0
LINE
  5
3C6
330
1F
100
AcDbEntity
  8
0
  6
SLD-Solid
 62
     7
370
    25
100
AcDbLine
 10
26.491048612
 20
23.4988798541
 30
0.0
 11
26.686548612
 21
23.4988798541
 31
0.0
  0
LINE
  5
3C7
330
1F
100
AcDbEntity
  8
0
  6
SLD-Solid
 62
     7
370
    25
100
AcDbLine
 10
26.491048612
 20
23.5488798541
 30
0.0
 11
26.686548612
 21
23.5488798541
 31
0.0
  0
LINE
  5
3C8
330
1F
100
AcDbEntity
  8
0
  6
SLD-Solid
 62
     7
370
    25
100
AcDbLine
 10
26.491048612
 20
21.2438798541
 30
0.0
 11
26.686548612
 21
21.2438798541
 31
0.0
  0
LINE
  5
3C9
330
1F
100
AcDbEntity
  8
0
  6
SLD-Solid
 62
     7
370
    25
100
AcDbLine
 10
26.491048612
 20
21.1938798541
 30
0.0
 11
26.686548612
 21
21.1938798541
 31
0.0
  0
LINE
  5
3CA
330
1F
100
AcDbEntity
  8
0
  6
SLD-Solid
 62
     8
370
    25
100
AcDbLine
 10
21.8482260296
 20
25.7643548371
 30
0.0
 11
21.8616120553
 21
25.7594827222
 31
0.0
  0
LINE
  5
3CB
330
1F
100
AcDbEntity
  8
0
  6
SLD-Solid
 62
     8
370
    25
100
AcDbLine
 10
21.8104601128
 20
25.832535267
 30
0.0
 11
21.8104601128
 21
25.8182901559
 31
0.0
  0
DIMENSION
  5
3CC
330
1F
100
AcDbEntity
  8
DIMS
100
AcDbDimension
  2
_D_4
 10
27.225548612
 20
28.6730215864
 30
0.0
 11
24.497054983
 21
28.6730215864
 31
0.0
 70
   160
  1
<>
 71
     2
 42
-1.0
  3
SLDDIMSTYLE2
100
AcDbAlignedDimension
 13
21.7654601128
 23
26.582654173
 33
0.0
 14
27.225548612
 24
27.8068798541
 34
0.0
100
AcDbRotatedDimension
  0
MTEXT
  5
3DC
330
1F
100
AcDbEntity
  8
NOTES
100
AcDbMText
 10
22.5548537748
 20
19.8371832592
 30
0.0
 40
0.5
 41
0.0
 71
     1
 72
     1
  1
Side view
  7
SLDTEXTSTYLE1
 73
     1
 44
1.0
  0
LINE
  5
3DD
330
1F
100
AcDbEntity
  8
0
  6
SLD-Solid
 62
     7
370
    25
100
AcDbLine
 10
62.541748044
 20
21.6752518608
 30
0.0
 11
62.541748044
 21
21.0510362738
 31
0.0
  0
LINE
  5
3DE
330
1F
100
AcDbEntity
  8
0
  6
SLD-Solid
 62
     7
370
    25
100
AcDbLine
 10
51.4808986035
 20
28.2462305065
 30
0.0
 11
62.3809496355
 21
21.9537649846
 31
0.0
  0
LINE
  5
3DF
330
1F
100
AcDbEntity
  8
0
  6
SLD-Solid
 62
     7
370
    25
100
AcDbLine
 10
62.6296749136
 20
21.0211369228
 30
0.0
 11
62.650888117
 21
21.0088908012
 31
0.0
  0
LINE
  5
3E0
330
1F
100
AcDbEntity
  8
0
  6
SLD-Solid
 62
     7
370
    25
100
AcDbLine
 10
62.6267860733
 20
20.979035315
 30
0.0
 11
66.1503332038
 21
21.5321910579
 31
0.0
  0
LINE
  5
3E1
330
1F
100
AcDbEntity
  8
0
  6
SLD-Solid
 62
     7
370
    25
100
AcDbLine
 10
66.396811027
 20
21.6815715735
 30
0.0
 11
66.396811027
 21
23.6338808351
 31
0.0
  0
LINE
  5
3E2
330
1F
100
AcDbEntity
  8
0
  6
SLD-Solid
 62
     7
370
    25
100
AcDbLine
 10
66.0049119333
 20
24.3126645336
 30
0.0
 11
55.4870534141
 21
30.3844950142
 31
0.0
  0
LINE
  5
3E3
330
1F
100
AcDbEntity
  8
0
  6
SLD-Solid
 62
     7
370
    25
100
AcDbLine
 10
55.154110604
 20
30.5439132841
 30
0.0
 11
51.3498761213
 21
28.3477754633
 31
0.0
  0
LINE
  5
3E4
330
1F
100
AcDbEntity
  8
0
  6
SLD-Solid
 62
     7
370
    25
100
AcDbLine
 10
51.275096538
 20
28.1793513316
 30
0.0
 11
51.275096538
 21
27.5639407024
 31
0.0
  0
LINE
  5
3E5
330
1F
100
AcDbEntity
  8
0
  6
SLD-Solid
 62
     7
370
    25
100
AcDbLine
 10
51.3568909259
 20
27.482625572
 30
0.0
 11
52.4943283568
 21
27.6611899628
 31
0.0
  0
LINE
  5
3E6
330
1F
100
AcDbEntity
  8
0
  6
SLD-Solid
 62
     7
370
    25
100
AcDbLine
 10
66.340428855
 20
19.2782396662
 30
0.0
 11
66.3616420584
 21
19.2904857878
 31
0.0
  0
LINE
  5
3E7
330
1F
100
AcDbEntity
  8
0
  6
SLD-Solid
 62
     7
370
    25
100
AcDbLine
 10
55.2032941206
 20
31.2685143616
 30
0.0
 11
55.1820809171
 21
31.2562682399
 31
0.0
  0
LINE
  5
3E8
330
1F
100
AcDbEntity
  8
0
  6
SLD-Solid
 62
     7
370
    25
100
AcDbLine
 10
53.7453513294
 20
22.2767014465
 30
0.0
 11
56.9273318448
 21
20.4397831949
 31
0.0
  0
LINE
  5
3E9
330
1F
100
AcDbEntity
  8
0
  6
SLD-Solid
 62
     7
370
    25
100
AcDbLine
 10
57.3827439672
 20
20.1718176424
 30
0.0
 11
60.5647244825
 21
18.3348993908
 31
0.0
  0
SPLINE
  5
3EA
330
1F
100
AcDbEntity
  8
0
  6
SLD-Solid
 62
     7
370
    25
100
AcDbSpline
210
0.0
220
0.0
230
1.0
 70
     8
 71
     3
 72
    16
 73
    12
 74
     0
 42
0.00000001
 43
0.00000001
 40
0.0
 40
0.0
 40
0.0
 40
0.0
 40
0.093965350168541
 40
0.2090639148793901
 40
0.3247650349407239
 40
0.4420909163005297
 40
0.5613208804549243
 40
0.6820785151291993
 40
0.8037235007628172
 40
0.9257055975309091
 40
1.0
 40
1.0
 40
1.0
 40
1.0
 10
61.44190235675468
 20
19.46855263642718
 30
0.0
 10
61.45669662301287
 20
19.46027867649278
 30
0.0
 10
61.48961245013592
 20
19.44186990717157
 30
0.0
 10
61.54732371262772
 20
19.42663885144294
 30
0.0
 10
61.61233195330099
 20
19.42057991610487
 30
0.0
 10
61.68100576407024
 20
19.42620420736939
 30
0.0
 10
61.75240406358873
 20
19.443144151329
 30
0.0
 10
61.8256446756553
 20
19.47136733293955
 30
0.0
 10
61.89949859146979
 20
19.51062891564131
 30
0.0
 10
61.96335709581307
 20
19.55328372001981
 30
0.0
 10
62.00178572594428
 20
19.58443884074398
 30
0.0
 10
62.0163316961669
 20
19.5962316487829
 30
0.0
  0
LINE
  5
3EB
330
1F
100
AcDbEntity
  8
0
  6
SLD-Solid
 62
     7
370
    25
100
AcDbLine
 10
61.4161162489
 20
19.4823201207
 30
0.0
 11
61.4444005201
 21
19.4659919585
 31
0.0
  0
SPLINE
  5
3EC
330
1F
100
AcDbEntity
  8
0
  6
SLD-Solid
 62
     7
370
    25
100
AcDbSpline
210
0.0
220
0.0
230
1.0
 70
     8
 71
     3
 72
    29
 73
    25
 74
     0
 42
0.00000001
 43
0.00000001
 40
0.0
 40
0.0
 40
0.0
 40
0.0
 40
0.0257426749401931
 40
0.0739112928942789
 40
0.1221885953049242
 40
0.1704980352636665
 40
0.2187556088307709
 40
0.2669452545546776
 40
0.315075119730842
 40
0.363164375287187
 40
0.4112368146550727
 40
0.4593181537216996
 40
0.5074265644515075
 40
0.5555888585956812
 40
0.6038316911415532
 40
0.6521786273080865
 40
0.7006436840226238
 40
0.7492174554347996
 40
0.7978232006303035
 40
0.8462651822534054
 40
0.8942595636895734
 40
0.9415082583719254
 40
0.9879009726560422
 40
1.0
 40
1.0
 40
1.0
 40
1.0
 10
61.94084687834747
 20
20.94899176086892
 30
0.0
 10
61.92774583089946
 20
20.94453147066253
 30
0.0
 10
61.8901306507598
 20
20.93172527174945
 30
0.0
 10
61.82747498197999
 20
20.90199708241666
 30
0.0
 10
61.75373246849444
 20
20.85694606628743
 30
0.0
 10
61.68128015794114
 20
20.8019874050212
 30
0.0
 10
61.61119401162156
 20
20.73822004155261
 30
0.0
 10
61.54447612613936
 20
20.66660979142275
 30
0.0
 10
61.48206208478818
 20
20.58826144886748
 30
0.0
 10
61.42482505115171
 20
20.50433321072325
 30
0.0
 10
61.37357415161221
 20
20.41605007661885
 30
0.0
 10
61.32904845292317
 20
20.3246896357915
 30
0.0
 10
61.2919044933611
 20
20.23156234892843
 30
0.0
 10
61.26270946305699
 20
20.13799138406893
 30
0.0
 10
61.2419377789706
 20
20.04528835781213
 30
0.0
 10
61.22997564519661
 20
19.95474464539929
 30
0.0
 10
61.22712431495093
 20
19.86762278235894
 30
0.0
 10
61.2336071606325
 20
19.78518523844512
 30
0.0
 10
61.2495259190588
 20
19.70869935409618
 30
0.0
 10
61.27486770726841
 20
19.63958607339851
 30
0.0
 10
61.30911978499507
 20
19.57887810170803
 30
0.0
 10
61.35220422170102
 20
19.52894199012474
 30
0.0
 10
61.38903427053357
 20
19.49676343122262
 30
0.0
 10
61.41298032271872
 20
19.48509280758792
 30
0.0
 10
61.41793356794793
 20
19.48267873697646
 30
0.0
  0
SPLINE
  5
3ED
330
1F
100
AcDbEntity
  8
0
  6
SLD-Solid
 62
     7
370
    25
100
AcDbSpline
210
0.0
220
0.0
230
1.0
 70
     8
 71
     3
 72
     9
 73
     5
 74
     0
 42
0.00000001
 43
0.00000001
 40
0.0
 40
0.0
 40
0.0
 40
0.0
 40
0.4271721475549072
 40
1.0
 40
1.0
 40
1.0
 40
1.0
 10
62.07630197553959
 20
20.99947883263211
 30
0.0
 10
62.0568571538769
 20
20.99138445531103
 30
0.0
 10
62.01133728144609
 20
20.9724357074411
 30
0.0
 10
61.96651966012215
 20
20.95753010506654
 30
0.0
 10
61.94084687834747
 20
20.94899176086892
 30
0.0
  0
SPLINE
  5
3EE
330
1F
100
AcDbEntity
  8
0
  6
SLD-Solid
 62
     7
370
    25
100
AcDbSpline
210
0.0
220
0.0
230
1.0
 70
     8
 71
     3
 72
     9
 73
     5
 74
     0
 42
0.00000001
 43
0.00000001
 40
0.0
 40
0.0
 40
0.0
 40
0.0
 40
0.2832774752982235
 40
1.0
 40
1.0
 40
1.0
 40
1.0
 10
62.07975682182416
 20
21.00117965542066
 30
0.0
 10
62.07987243760784
 20
21.00127167148467
 30
0.0
 10
62.08028057377734
 20
21.00159649810182
 30
0.0
 10
62.07765764291659
 20
21.00031353600063
 30
0.0
 10
62.07577772928795
 20
20.99939400816437
 30
0.0
  0
SPLINE
  5
3EF
330
1F
100
AcDbEntity
  8
0
  6
SLD-Solid
 62
     7
370
    25
100
AcDbSpline
210
0.0
220
0.0
230
1.0
 70
     8
 71
     3
 72
     9
 73
     5
 74
     0
 42
0.00000001
 43
0.00000001
 40
0.0
 40
0.0
 40
0.0
 40
0.0
 40
0.8467701851252106
 40
1.0
 40
1.0
 40
1.0
 40
1.0
 10
62.1680124680307
 20
21.07411506589455
 30
0.0
 10
62.14313723733783
 20
21.05264778446522
 30
0.0
 10
62.11376063536265
 20
21.02729582733868
 30
0.0
 10
62.08466966473323
 20
21.00498954829101
 30
0.0
 10
62.08021206068914
 20
21.00157156128199
 30
0.0
  0
SPLINE
  5
3F0
330
1F
100
AcDbEntity
  8
0
  6
SLD-Solid
 62
     7
370
    25
100
AcDbSpline
210
0.0
220
0.0
230
1.0
 70
     8
 71
     3
 72
    14
 73
    10
 74
     0
 42
0.00000001
 43
0.00000001
 40
0.0
 40
0.0
 40
0.0
 40
0.0
 40
0.0863338110805963
 40
0.2506881778528628
 40
0.4149767495208246
 40
0.5791814841217329
 40
0.7433246153168493
 40
0.9074460825638375
 40
1.0
 40
1.0
 40
1.0
 40
1.0
 10
62.0163316961669
 20
19.5962316487829
 30
0.0
 10
62.03576954458428
 20
19.61224069585397
 30
0.0
 10
62.09221138052482
 20
19.65872629389693
 30
0.0
 10
62.18679700485804
 20
19.72883974505438
 30
0.0
 10
62.29975334460604
 20
19.80300680772883
 30
0.0
 10
62.41271885201292
 20
19.86712106897411
 30
0.0
 10
62.52490866841548
 20
19.92078687123055
 30
0.0
 10
62.61969772403932
 20
19.95807967776956
 30
0.0
 10
62.67643428984798
 20
19.9755449200794
 30
0.0
 10
62.69689278232848
 20
19.98184266692702
 30
0.0
  0
LINE
  5
3F1
330
1F
100
AcDbEntity
  8
0
  6
SLD-Solid
 62
     7
370
    25
100
AcDbLine
 10
62.6968927823
 20
19.9818426669
 30
0.0
 11
63.4195565385
 21
20.192887364
 31
0.0
  0
ARC
  5
3F2
330
1F
100
AcDbEntity
  8
0
  6
SLD-Solid
 62
     7
370
    25
100
AcDbCircle
 10
63.4055401499
 20
20.240882581
 30
0.0
 40
0.0500000000000009
100
AcDbArc
 50
286.279768118
 51
299.9973117336
  0
LINE
  5
3F3
330
1F
100
AcDbEntity
  8
0
  6
SLD-Solid
 62
     7
370
    25
100
AcDbLine
 10
63.4305381182
 20
20.1975801378
 30
0.0
 11
64.0385904944
 21
20.5486013029
 31
0.0
  0
SPLINE
  5
3F4
330
1F
100
AcDbEntity
  8
0
  6
SLD-Solid
 62
     7
370
    25
100
AcDbSpline
210
0.0
220
0.0
230
1.0
 70
     8
 71
     3
 72
    10
 73
     6
 74
     0
 42
0.00000001
 43
0.00000001
 40
0.0
 40
0.0
 40
0.0
 40
0.0
 40
0.3698321431123142
 40
0.799354886834343
 40
1.0
 40
1.0
 40
1.0
 40
1.0
 10
64.30556587284266
 20
20.39598372077054
 30
0.0
 10
64.31525197667794
 20
20.39116838832519
 30
0.0
 10
64.33618751345944
 20
20.38076053277883
 30
0.0
 10
64.36552356594198
 20
20.37397839225502
 30
0.0
 10
64.38400618028065
 20
20.37638593368835
 30
0.0
 10
64.38989103493492
 20
20.37715249361055
 30
0.0
  0
LINE
  5
3F5
330
1F
100
AcDbEntity
  8
0
  6
SLD-Solid
 62
     7
370
    25
100
AcDbLine
 10
64.3905563625
 20
20.3758689859
 30
0.0
 11
64.5917224321
 21
20.3938264898
 31
0.0
  0
LINE
  5
3F6
330
1F
100
AcDbEntity
  8
0
  6
SLD-Solid
 62
     7
370
    25
100
AcDbLine
 10
64.1136499635
 20
20.506774417
 30
0.0
 11
64.3055658728
 21
20.3959837208
 31
0.0
  0
SPLINE
  5
3F7
330
1F
100
AcDbEntity
  8
0
  6
SLD-Solid
 62
     7
370
    25
100
AcDbSpline
210
0.0
220
0.0
230
1.0
 70
     8
 71
     3
 72
    17
 73
    13
 74
     0
 42
0.00000001
 43
0.00000001
 40
0.0
 40
0.0
 40
0.0
 40
0.0
 40
0.0139242822449554
 40
0.0323321121949598
 40
0.0598988193071536
 40
0.1091848762190955
 40
0.1993457441099445
 40
0.288416670663158
 40
0.4664047189542143
 40
0.6441730606901755
 40
0.8219504068609037
 40
1.0
 40
1.0
 40
1.0
 40
1.0
 10
64.83157751900971
 20
25.38974762048654
 30
0.0
 10
64.83210191859368
 20
25.38318934532052
 30
0.0
 10
64.83331957174703
 20
25.36796106390946
 30
0.0
 10
64.84457382692156
 20
25.33718440038744
 30
0.0
 10
64.86966731261435
 20
25.2911640612887
 30
0.0
 10
64.92402082135992
 20
25.21845693781778
 30
0.0
 10
65.0061184537626
 20
25.13275362373186
 30
0.0
 10
65.1393971105171
 20
25.01428413969227
 30
0.0
 10
65.30999201330344
 20
24.88668934894625
 30
0.0
 10
65.51628986938074
 20
24.7568207353224
 30
0.0
 10
65.72327847481219
 20
24.64529642173066
 30
0.0
 10
65.85946257281098
 20
24.59369092033393
 30
0.0
 10
65.92760671975986
 20
24.56786842767711
 30
0.0
  0
ELLIPSE
  5
3F8
330
1F
100
AcDbEntity
  8
0
  6
SLD-Solid
 62
     7
370
    25
100
AcDbEllipse
 10
65.5342256591
 20
24.9941606438
 30
0.0
 11
0.6982763835041367
 21
-0.4414766190748159
 31
0.0
210
0.0
220
0.0
230
1.0
 40
0.2523363384
 41
0.1582033314707025
 42
3.40288861020882
  0
ELLIPSE
  5
3F9
330
1F
100
AcDbEntity
  8
0
  6
SLD-Solid
 62
     7
370
    25
100
AcDbEllipse
 10
65.5342256591
 20
24.9941606438
 30
0.0
 11
0.6982763835041367
 21
-0.4414766190748159
 31
0.0
210
0.0
220
0.0
230
1.0
 40
0.2523363384
 41
4.885466541060905
 42
6.441388638650302
  0
ARC
  5
3FA
330
1F
100
AcDbEntity
  8
0
  6
SLD-Solid
 62
     7
370
    25
100
AcDbCircle
 10
62.1923054531
 20
21.659180043
 30
0.0
 40
0.4303053461201641
100
AcDbArc
 50
2.6054784857
 51
57.39452166
  0
ARC
  5
3FB
330
1F
100
AcDbEntity
  8
0
  6
SLD-Solid
 62
     7
370
    25
100
AcDbCircle
 10
62.2171487327
 20
21.6735219903
 30
0.0
 40
0.3842012018930286
100
AcDbArc
 50
2.6054784857
 51
57.39452166
  0
LINE
  5
3FC
330
1F
100
AcDbEntity
  8
0
  6
SLD-Solid
 62
     7
370
    25
100
AcDbLine
 10
62.4241760627
 20
21.9971734203
 30
0.0
 11
62.4241760627
 21
22.0216696446
 31
0.0
  0
LINE
  5
3FD
330
1F
100
AcDbEntity
  8
0
  6
SLD-Solid
 62
     7
370
    25
100
AcDbLine
 10
62.4241760627
 20
22.0216696446
 30
0.0
 11
66.2284105455
 21
24.2178074654
 31
0.0
  0
ARC
  5
3FE
330
1F
100
AcDbEntity
  8
0
  6
SLD-Solid
 62
     7
370
    25
100
AcDbCircle
 10
65.9965399359
 20
23.8553178638
 30
0.0
 40
0.4303053461202219
100
AcDbArc
 50
2.6054784857
 51
57.39452166
  0
LWPOLYLINE
  5
3FF
330
1F
100
AcDbEntity
  8
0
  6
SLD-Solid
 62
     7
370
    25
100
AcDbPolyline
 90
        9
 70
   128
 43
0.0
 10
62.6185678492
 20
21.6568826783
 10
62.6039687985
 20
21.6512513672
 10
62.586748044
 20
21.6492739137
 10
62.5695272896
 20
21.6512513672
 10
62.5549282389
 20
21.6568826783
 10
62.5451734651
 20
21.6653105308
 10
62.541748044
 20
21.6752518608
 10
62.5451734651
 20
21.6851931907
 10
62.5549282389
 20
21.6936210433
  0
SPLINE
  5
400
330
1F
100
AcDbEntity
  8
0
  6
SLD-Solid
 62
     7
370
    25
100
AcDbSpline
210
0.0
220
0.0
230
1.0
 70
     8
 71
     3
 72
    13
 73
     9
 74
     0
 42
0.00000001
 43
0.00000001
 40
0.0
 40
0.0
 40
0.0
 40
0.0
 40
0.1666666666666668
 40
0.3333333333333333
 40
0.4999999999999997
 40
0.6666666666666665
 40
0.8333333333333334
 40
0.9999999999999999
 40
0.9999999999999999
 40
0.9999999999999999
 40
0.9999999999999999
 10
62.54174804402415
 20
21.05402537434939
 30
0.0
 10
62.54242478305511
 20
21.05110977703281
 30
0.0
 10
62.54377826111702
 20
21.04527858239967
 30
0.0
 10
62.55417970187465
 20
21.03808834843174
 30
0.0
 10
62.56907236460896
 20
21.03375274672706
 30
0.0
 10
62.58669457709586
 20
21.03322130711368
 30
0.0
 10
62.60463759115252
 20
21.03654173235832
 30
0.0
 10
62.61392442983588
 20
21.04176722929284
 30
0.0
 10
62.61856784917754
 20
21.04437997776009
 30
0.0
  0
LWPOLYLINE
  5
401
330
1F
100
AcDbEntity
  8
0
  6
SLD-Solid
 62
     7
370
    25
100
AcDbPolyline
 90
        9
 70
   128
 43
0.0
 10
62.5973546457
 20
21.6691287999
 10
62.5924882955
 20
21.6672516963
 10
62.586748044
 20
21.6665925451
 10
62.5810077925
 20
21.6672516963
 10
62.5761414423
 20
21.6691287999
 10
62.572889851
 20
21.6719380841
 10
62.571748044
 20
21.6752518608
 10
62.572889851
 20
21.6785656374
 10
62.5761414423
 20
21.6813749216
  0
LWPOLYLINE
  5
402
330
1F
100
AcDbEntity
  8
0
  6
SLD-Solid
 62
     7
370
    25
100
AcDbPolyline
 90
        9
 70
   128
 43
0.0
 10
62.403447807
 20
21.9559928469
 10
62.3912708947
 20
21.9517602611
 10
62.380947807
 20
21.9537660404
 10
62.3740501403
 20
21.9617048228
 10
62.3716280018
 20
21.9743680009
 10
62.3740501403
 20
21.9898277205
 10
62.380947807
 20
22.0057303794
 10
62.3912708947
 20
22.0196549421
 10
62.403447807
 20
22.0294815199
  0
LINE
  5
403
330
1F
100
AcDbEntity
  8
0
  6
SLD-Solid
 62
     7
370
    25
100
AcDbLine
 10
62.403447807
 20
22.0294815199
 30
0.0
 11
62.403447807
 21
22.0049852956
 31
0.0
  0
LWPOLYLINE
  5
404
330
1F
100
AcDbEntity
  8
0
  6
SLD-Solid
 62
     7
370
    25
100
AcDbPolyline
 90
        9
 70
   128
 43
0.0
 10
62.403447807
 20
21.9804890712
 10
62.3993888362
 20
21.9790782093
 10
62.395947807
 20
21.9797468024
 10
62.3936485848
 20
21.9823930632
 10
62.3928412053
 20
21.9866141226
 10
62.3936485848
 20
21.9917673624
 10
62.395947807
 20
21.9970682488
 10
62.3993888362
 20
22.0017097696
 10
62.403447807
 20
22.0049852956
  0
LINE
  5
405
330
1F
100
AcDbEntity
  8
0
  6
SLD-Solid
 62
     7
370
    25
100
AcDbLine
 10
62.403447807
 20
21.9559928469
 30
0.0
 11
62.403447807
 21
21.9804890712
 31
0.0
  0
LWPOLYLINE
  5
406
330
1F
100
AcDbEntity
  8
0
  6
SLD-Solid
 62
     7
370
    25
100
AcDbPolyline
 90
        8
 70
   128
 43
0.0
 10
51.503396775
 20
28.3219470418
 10
51.4912198628
 20
28.3121204639
 10
51.480896775
 20
28.2981959013
 10
51.4739991083
 20
28.2822932424
 10
51.4715769699
 20
28.2668335228
 10
51.4739991083
 20
28.2541703447
 10
51.480896775
 20
28.2462315622
 10
51.4808986035
 20
28.2462305065
  0
LINE
  5
407
330
1F
100
AcDbEntity
  8
0
  6
SLD-Solid
 62
     7
370
    25
100
AcDbLine
 10
66.4264004442
 20
23.6509624421
 30
0.0
 11
66.4264004442
 21
23.8748789025
 31
0.0
  0
LINE
  5
408
330
1F
100
AcDbEntity
  8
0
  6
SLD-Solid
 62
     7
370
    25
100
AcDbLine
 10
66.3698319017
 20
23.6183061176
 30
0.0
 11
66.4264004442
 21
23.6509624421
 31
0.0
  0
LINE
  5
409
330
1F
100
AcDbEntity
  8
0
  6
SLD-Solid
 62
     7
370
    25
100
AcDbLine
 10
66.3698319017
 20
23.6019753014
 30
0.0
 11
66.3698319017
 21
23.6183061176
 31
0.0
  0
LINE
  5
40A
330
1F
100
AcDbEntity
  8
0
  6
SLD-Solid
 62
     7
370
    25
100
AcDbLine
 10
66.3698319017
 20
23.6019753014
 30
0.0
 11
66.3763085017
 21
23.605714163
 31
0.0
  0
LINE
  5
40B
330
1F
100
AcDbEntity
  8
0
  6
SLD-Solid
 62
     7
370
    25
100
AcDbLine
 10
66.3763085017
 20
21.6529972896
 30
0.0
 11
66.2260724416
 21
21.5662678581
 31
0.0
  0
LINE
  5
40C
330
1F
100
AcDbEntity
  8
0
  6
SLD-Solid
 62
     7
370
    25
100
AcDbLine
 10
62.655129687
 20
21.0066352004
 30
0.0
 11
62.6547377346
 21
21.0056100239
 31
0.0
  0
ARC
  5
40D
330
1F
100
AcDbEntity
  8
0
  6
SLD-Solid
 62
     7
370
    25
100
AcDbCircle
 10
62.690112976
 20
21.0751362786
 30
0.0
 40
0.0769170217301232
100
AcDbArc
 50
203.0790537629
 51
242.9467393994
  0
LINE
  5
40E
330
1F
100
AcDbEntity
  8
0
  6
SLD-Solid
 62
     7
370
    25
100
AcDbLine
 10
62.6185678492
 20
21.0443799778
 30
0.0
 11
62.6193520183
 21
21.0449847429
 31
0.0
  0
LINE
  5
40F
330
1F
100
AcDbEntity
  8
0
  6
SLD-Solid
 62
     7
370
    25
100
AcDbLine
 10
62.6221659615
 20
21.6589598243
 30
0.0
 11
62.6185678492
 21
21.6568826783
 31
0.0
  0
LINE
  5
410
330
1F
100
AcDbEntity
  8
0
  6
SLD-Solid
 62
     7
370
    25
100
AcDbLine
 10
62.6221659615
 20
21.6787410816
 30
0.0
 11
62.6221659615
 21
21.6589598243
 31
0.0
  0
LINE
  5
411
330
1F
100
AcDbEntity
  8
0
  6
SLD-Solid
 62
     7
370
    25
100
AcDbLine
 10
55.4880060654
 20
30.4181109946
 30
0.0
 11
55.2940992266
 21
30.5300510299
 31
0.0
  0
LINE
  5
412
330
1F
100
AcDbEntity
  8
0
  6
SLD-Solid
 62
     7
370
    25
100
AcDbLine
 10
55.4314375229
 20
30.3854546702
 30
0.0
 11
55.4880060654
 21
30.4181109946
 31
0.0
  0
LINE
  5
413
330
1F
100
AcDbEntity
  8
0
  6
SLD-Solid
 62
     7
370
    25
100
AcDbLine
 10
55.4455796585
 20
30.3772905891
 30
0.0
 11
55.4314375229
 21
30.3854546702
 31
0.0
  0
LINE
  5
414
330
1F
100
AcDbEntity
  8
0
  6
SLD-Solid
 62
     7
370
    25
100
AcDbLine
 10
55.4455796585
 20
30.3772905891
 30
0.0
 11
55.4520562585
 21
30.3810294506
 31
0.0
  0
LINE
  5
415
330
1F
100
AcDbEntity
  8
0
  6
SLD-Solid
 62
     7
370
    25
100
AcDbLine
 10
65.9702696286
 20
24.308994119
 30
0.0
 11
65.9637930286
 21
24.3052552574
 31
0.0
  0
LINE
  5
416
330
1F
100
AcDbEntity
  8
0
  6
SLD-Solid
 62
     7
370
    25
100
AcDbLine
 10
65.9779351643
 20
24.2970911763
 30
0.0
 11
65.9637930286
 21
24.3052552574
 31
0.0
  0
LINE
  5
417
330
1F
100
AcDbEntity
  8
0
  6
SLD-Solid
 62
     7
370
    25
100
AcDbLine
 10
66.0345037068
 20
24.3297475007
 30
0.0
 11
65.9779351643
 21
24.2970911763
 31
0.0
  0
LINE
  5
418
330
1F
100
AcDbEntity
  8
0
  6
SLD-Solid
 62
     7
370
    25
100
AcDbLine
 10
66.2284105455
 20
24.2178074654
 30
0.0
 11
66.0345037068
 21
24.3297475007
 31
0.0
  0
LINE
  5
419
330
1F
100
AcDbEntity
  8
0
  6
SLD-Solid
 62
     7
370
    25
100
AcDbLine
 10
62.4070459193
 20
22.031558666
 30
0.0
 11
62.4241760627
 21
22.0216696446
 31
0.0
  0
LINE
  5
41A
330
1F
100
AcDbEntity
  8
0
  6
SLD-Solid
 62
     7
370
    25
100
AcDbLine
 10
62.403447807
 20
22.0294815199
 30
0.0
 11
62.4070459193
 21
22.031558666
 31
0.0
  0
LINE
  5
41B
330
1F
100
AcDbEntity
  8
0
  6
SLD-Solid
 62
     7
370
    25
100
AcDbLine
 10
51.5069948873
 20
28.3240241878
 30
0.0
 11
51.503396775
 21
28.3219470418
 31
0.0
  0
LINE
  5
41C
330
1F
100
AcDbEntity
  8
0
  6
SLD-Solid
 62
     7
370
    25
100
AcDbLine
 10
51.4898647438
 20
28.3339132091
 30
0.0
 11
51.5069948873
 21
28.3240241878
 31
0.0
  0
LINE
  5
41D
330
1F
100
AcDbEntity
  8
0
  6
SLD-Solid
 62
     7
370
    25
100
AcDbLine
 10
62.6221659615
 20
21.6589598243
 30
0.0
 11
62.600952758
 21
21.6712059459
 31
0.0
  0
LINE
  5
41E
330
1F
100
AcDbEntity
  8
0
  6
SLD-Solid
 62
     7
370
    25
100
AcDbLine
 10
62.600952758
 20
21.6909872033
 30
0.0
 11
62.600952758
 21
21.6712059459
 31
0.0
  0
LINE
  5
41F
330
1F
100
AcDbEntity
  8
0
  6
SLD-Solid
 62
     7
370
    25
100
AcDbLine
 10
62.4070459193
 20
22.031558666
 30
0.0
 11
62.4070459193
 21
22.0070624416
 31
0.0
  0
LINE
  5
420
330
1F
100
AcDbEntity
  8
0
  6
SLD-Solid
 62
     7
370
    25
100
AcDbLine
 10
62.4070459193
 20
22.0070624416
 30
0.0
 11
62.4241760627
 21
21.9971734203
 31
0.0
  0
LINE
  5
421
330
1F
100
AcDbEntity
  8
0
  6
SLD-Solid
 62
     7
370
    25
100
AcDbLine
 10
62.600952758
 20
21.6712059459
 30
0.0
 11
62.5973546457
 21
21.6691287999
 31
0.0
  0
LINE
  5
422
330
1F
100
AcDbEntity
  8
0
  6
SLD-Solid
 62
     7
370
    25
100
AcDbLine
 10
62.403447807
 20
22.0049852956
 30
0.0
 11
62.4070459193
 21
22.0070624416
 31
0.0
  0
LINE
  5
423
330
1F
100
AcDbEntity
  8
0
  6
SLD-Solid
 62
     7
370
    25
100
AcDbLine
 10
62.5761414423
 20
21.6813749216
 30
0.0
 11
62.6009067338
 21
21.6956716201
 31
0.0
  0
LINE
  5
424
330
1F
100
AcDbEntity
  8
0
  6
SLD-Solid
 62
     7
370
    25
100
AcDbLine
 10
62.5549282389
 20
21.6936210433
 30
0.0
 11
62.5993576028
 21
21.7192695691
 31
0.0
  0
LINE
  5
425
330
1F
100
AcDbEntity
  8
0
  6
SLD-Solid
 62
     7
370
    25
100
AcDbLine
 10
62.4282163854
 20
21.9947876672
 30
0.0
 11
62.403447807
 21
21.9804890712
 31
0.0
  0
LINE
  5
426
330
1F
100
AcDbEntity
  8
0
  6
SLD-Solid
 62
     7
370
    25
100
AcDbLine
 10
62.4478822258
 20
21.9816442908
 30
0.0
 11
62.403447807
 21
21.9559928469
 31
0.0
  0
LINE
  5
427
330
1F
100
AcDbEntity
  8
0
  6
SLD-Solid
 62
     7
370
    25
100
AcDbLine
 10
62.6028459782
 20
21.028616318
 30
0.0
 11
62.6041283009
 21
21.0373721128
 31
0.0
  0
ARC
  5
428
330
1F
100
AcDbEntity
  8
0
  6
SLD-Solid
 62
     7
370
    25
100
AcDbCircle
 10
62.6656441506
 20
21.0830585373
 30
0.0
 40
0.0716105602926501
100
AcDbArc
 50
218.8704283064
 51
239.8484077792
  0
SPLINE
  5
429
330
1F
100
AcDbEntity
  8
0
  6
SLD-Solid
 62
     7
370
    25
100
AcDbSpline
210
0.0
220
0.0
230
1.0
 70
     8
 71
     3
 72
    15
 73
    11
 74
     0
 42
0.00000001
 43
0.00000001
 40
0.0
 40
0.0
 40
0.0
 40
0.0
 40
0.1250000000000028
 40
0.2500000000000075
 40
0.374999999999992
 40
0.500000000000008
 40
0.6250000000000068
 40
0.7499999999999933
 40
0.8749999999999942
 40
1.0
 40
1.0
 40
1.0
 40
1.0
 10
62.65473773462776
 20
21.00561002393814
 30
0.0
 10
62.65244065180276
 20
21.00048279694083
 30
0.0
 10
62.64784648615277
 20
20.99022834294623
 30
0.0
 10
62.63568239002618
 20
20.98070572080341
 30
0.0
 10
62.6215607868504
 20
20.97751478603131
 30
0.0
 10
62.6070189112652
 20
20.98136274294097
 30
0.0
 10
62.59417701024145
 20
20.9915855589439
 30
0.0
 10
62.58489652503329
 20
21.00654868694292
 30
0.0
 10
62.57997767395481
 20
21.02419553975917
 30
0.0
 10
62.58108107447035
 20
21.03530680634882
 30
0.0
 10
62.58163277472813
 20
21.04086243964364
 30
0.0
  0
SPLINE
  5
42A
330
1F
100
AcDbEntity
  8
0
  6
SLD-Solid
 62
     7
370
    25
100
AcDbSpline
210
0.0
220
0.0
230
1.0
 70
     8
 71
     3
 72
    15
 73
    11
 74
     0
 42
0.00000001
 43
0.00000001
 40
0.0
 40
0.0
 40
0.0
 40
0.0
 40
0.1249999999999865
 40
0.2499999999999813
 40
0.3750000000000205
 40
0.4999999999999958
 40
0.6249999999999972
 40
0.7499999999999888
 40
0.8749999999999802
 40
1.0
 40
1.0
 40
1.0
 40
1.0
 10
62.63352453119215
 20
21.01785614561549
 30
0.0
 10
62.63249591053958
 20
21.01610579357953
 30
0.0
 10
62.63043866923443
 20
21.01260508950763
 30
0.0
 10
62.62559519139283
 20
21.00930705301615
 30
0.0
 10
62.6200992112015
 20
21.00811957898157
 30
0.0
 10
62.61446314020703
 20
21.00927840217425
 30
0.0
 10
62.60939372739971
 20
21.01256217839801
 30
0.0
 10
62.60551145319759
 20
21.01742605862048
 30
0.0
 10
62.60308305703868
 20
21.02318451378201
 30
0.0
 10
62.60292500445538
 20
21.02680571657153
 30
0.0
 10
62.60284597816373
 20
21.02861631796629
 30
0.0
  0
SPLINE
  5
42B
330
1F
100
AcDbEntity
  8
0
  6
SLD-Solid
 62
     7
370
    25
100
AcDbSpline
210
0.0
220
0.0
230
1.0
 70
     8
 71
     3
 72
    10
 73
     6
 74
     0
 42
0.00000001
 43
0.00000001
 40
0.0
 40
0.0
 40
0.0
 40
0.0
 40
0.2842380258315914
 40
0.6421190129157918
 40
1.0
 40
1.0
 40
1.0
 40
1.0
 10
66.15021607168214
 20
21.53267808740247
 30
0.0
 10
66.15822950193568
 20
21.53412067623736
 30
0.0
 10
66.17633255450728
 20
21.53737961288385
 30
0.0
 10
66.20254807632641
 20
21.5491664330072
 30
0.0
 10
66.21823098649669
 20
21.56056738309305
 30
0.0
 10
66.22607244158183
 20
21.56626785813597
 30
0.0
  0
LINE
  5
42C
330
1F
100
AcDbEntity
  8
0
  6
SLD-Solid
 62
     7
370
    25
100
AcDbLine
 10
62.6338560343
 20
21.0187232132
 30
0.0
 11
62.6335245312
 21
21.0178561456
 31
0.0
  0
ARC
  5
42D
330
1F
100
AcDbEntity
  8
0
  6
SLD-Solid
 62
     7
370
    25
100
AcDbCircle
 10
66.3617790326
 20
23.6377818933
 30
0.0
 40
0.0352057494945188
100
AcDbArc
 50
294.3746582935
 51
354.3052007488
  0
ARC
  5
42E
330
1F
100
AcDbEntity
  8
0
  6
SLD-Solid
 62
     7
370
    25
100
AcDbCircle
 10
66.3617790326
 20
21.6850650199
 30
0.0
 40
0.035205749494537
100
AcDbArc
 50
294.3746582936
 51
354.3052007488
  0
ARC
  5
42F
330
1F
100
AcDbEntity
  8
0
  6
SLD-Solid
 62
     7
370
    25
100
AcDbCircle
 10
65.9907740324
 20
24.2803724259
 30
0.0
 40
0.0352084065131175
100
AcDbArc
 50
65.6928809539
 51
125.6175774752
  0
ARC
  5
430
330
1F
100
AcDbEntity
  8
0
  6
SLD-Solid
 62
     7
370
    25
100
AcDbCircle
 10
55.4725606623
 20
30.3524077576
 30
0.0
 40
0.0352084065131204
100
AcDbArc
 50
65.6928809539
 51
125.6175774752
  0
ARC
  5
431
330
1F
100
AcDbEntity
  8
0
  6
SLD-Solid
 62
     7
370
    25
100
AcDbCircle
 10
51.412575668
 20
28.2391585326
 30
0.0
 40
0.122278575279981
100
AcDbArc
 50
50.7967147643
 51
189.2140369905
  0
ARC
  5
432
330
1F
100
AcDbEntity
  8
0
  6
SLD-Solid
 62
     7
370
    25
100
AcDbCircle
 10
55.2120816113
 20
30.4155642578
 30
0.0
 40
0.1408336260524899
100
AcDbArc
 50
54.3824225248
 51
114.3071190461
  0
ARC
  5
433
330
1F
100
AcDbEntity
  8
0
  6
SLD-Solid
 62
     7
370
    25
100
AcDbCircle
 10
51.4208566404
 20
28.224814595
 30
0.0
 40
0.1091772993571187
100
AcDbArc
 50
50.7967147643
 51
189.2140369905
  0
SPLINE
  5
434
330
1F
100
AcDbEntity
  8
0
  6
SLD-Solid
 62
     7
370
    25
100
AcDbSpline
210
0.0
220
0.0
230
1.0
 70
     8
 71
     3
 72
    13
 73
     9
 74
     0
 42
0.00000001
 43
0.00000001
 40
0.0
 40
0.0
 40
0.0
 40
0.0
 40
0.1666666666666532
 40
0.3333333333333232
 40
0.4999999999999932
 40
0.666666666666671
 40
0.8333333333333299
 40
0.9999999999999999
 40
0.9999999999999999
 40
0.9999999999999999
 40
0.9999999999999999
 10
51.27509653797944
 20
27.56394070242354
 30
0.0
 10
51.27577327701039
 20
27.56005579555956
 30
0.0
 10
51.2771267550723
 20
27.55228598183158
 30
0.0
 10
51.28752819582993
 20
27.54218781922141
 30
0.0
 10
51.30242085856425
 20
27.53494428887448
 30
0.0
 10
51.32004307105115
 20
27.53150492061887
 30
0.0
 10
51.33798608510781
 20
27.53191741722127
 30
0.0
 10
51.34727292379116
 20
27.53520429506096
 30
0.0
 10
51.35191634313284
 20
27.5368477339808
 30
0.0
  0
LWPOLYLINE
  5
435
330
1F
100
AcDbEntity
  8
0
  6
SLD-Solid
 62
     7
370
    25
100
AcDbPolyline
 90
        9
 70
   128
 43
0.0
 10
51.3519163431
 20
28.160982149
 10
51.3373172924
 20
28.155350838
 10
51.320096538
 20
28.1533733845
 10
51.3028757835
 20
28.155350838
 10
51.2882767328
 20
28.160982149
 10
51.278521959
 20
28.1694100016
 10
51.275096538
 20
28.1793513316
 10
51.278521959
 20
28.1892926615
 10
51.2882767328
 20
28.1977205141
  0
LWPOLYLINE
  5
436
330
1F
100
AcDbEntity
  8
0
  6
SLD-Solid
 62
     7
370
    25
100
AcDbPolyline
 90
        9
 70
   128
 43
0.0
 10
51.3307031397
 20
28.1732282707
 10
51.3258367895
 20
28.171351167
 10
51.320096538
 20
28.1706920159
 10
51.3143562865
 20
28.171351167
 10
51.3094899363
 20
28.1732282707
 10
51.306238345
 20
28.1760375549
 10
51.305096538
 20
28.1793513316
 10
51.306238345
 20
28.1826651082
 10
51.3094899363
 20
28.1854743924
  0
LINE
  5
437
330
1F
100
AcDbEntity
  8
0
  6
SLD-Solid
 62
     7
370
    25
100
AcDbLine
 10
51.4902427167
 20
28.2408362648
 30
0.0
 11
51.3519163431
 21
28.160982149
 31
0.0
  0
LINE
  5
438
330
1F
100
AcDbEntity
  8
0
  6
SLD-Solid
 62
     7
370
    25
100
AcDbLine
 10
51.5853241593
 20
28.1859469163
 30
0.0
 11
51.5853241593
 21
27.8728673234
 31
0.0
  0
ARC
  5
439
330
1F
100
AcDbEntity
  8
0
  6
SLD-Solid
 62
     7
370
    25
100
AcDbCircle
 10
51.434417978
 20
27.8793079575
 30
0.0
 40
0.1510435609668178
100
AcDbArc
 50
323.0786912316
 51
357.5561151658
  0
LINE
  5
43A
330
1F
100
AcDbEntity
  8
0
  6
SLD-Solid
 62
     7
370
    25
100
AcDbLine
 10
51.5551714599
 20
27.7885734331
 30
0.0
 11
51.3817992689
 21
27.5483035827
 31
0.0
  0
LINE
  5
43B
330
1F
100
AcDbEntity
  8
0
  6
SLD-Solid
 62
     7
370
    25
100
AcDbLine
 10
51.3519163431
 20
27.536847734
 30
0.0
 11
51.3817992689
 21
27.5483035827
 31
0.0
  0
LINE
  5
43C
330
1F
100
AcDbEntity
  8
0
  6
SLD-Solid
 62
     7
370
    25
100
AcDbLine
 10
51.4734067124
 20
28.2556092897
 30
0.0
 11
51.3307031397
 21
28.1732282707
 31
0.0
  0
LINE
  5
43D
330
1F
100
AcDbEntity
  8
0
  6
SLD-Solid
 62
     7
370
    25
100
AcDbLine
 10
51.3094899363
 20
28.1854743924
 30
0.0
 11
51.3130880485
 21
28.1875515384
 31
0.0
  0
LINE
  5
43E
330
1F
100
AcDbEntity
  8
0
  6
SLD-Solid
 62
     7
370
    25
100
AcDbLine
 10
51.3130880485
 20
28.1875515384
 30
0.0
 11
51.3130880485
 21
28.2073327958
 31
0.0
  0
LINE
  5
43F
330
1F
100
AcDbEntity
  8
0
  6
SLD-Solid
 62
     7
370
    25
100
AcDbLine
 10
51.2918748451
 20
28.1997976601
 30
0.0
 11
51.3130880485
 21
28.1875515384
 31
0.0
  0
LINE
  5
440
330
1F
100
AcDbEntity
  8
0
  6
SLD-Solid
 62
     7
370
    25
100
AcDbLine
 10
51.2918748451
 20
28.1997976601
 30
0.0
 11
51.2918748451
 21
28.2195789175
 31
0.0
  0
LINE
  5
441
330
1F
100
AcDbEntity
  8
0
  6
SLD-Solid
 62
     7
370
    25
100
AcDbLine
 10
51.2882767328
 20
28.1977205141
 30
0.0
 11
51.2918748451
 21
28.1997976601
 31
0.0
  0
LINE
  5
442
330
1F
100
AcDbEntity
  8
0
  6
SLD-Solid
 62
     7
370
    25
100
AcDbLine
 10
51.384125579
 20
27.5458100461
 30
0.0
 11
51.55749777
 21
27.7860798964
 31
0.0
  0
ARC
  5
443
330
1F
100
AcDbEntity
  8
0
  6
SLD-Solid
 62
     7
370
    25
100
AcDbCircle
 10
51.6497245824
 20
27.7276177773
 30
0.0
 40
0.1091952576402005
100
AcDbArc
 50
104.5780840005
 51
147.6295923232
  0
LINE
  5
444
330
1F
100
AcDbEntity
  8
0
  6
SLD-Solid
 62
     7
370
    25
100
AcDbLine
 10
51.6222402251
 20
27.8332975502
 30
0.0
 11
52.0734849351
 21
27.9041376989
 31
0.0
  0
LINE
  5
445
330
1F
100
AcDbEntity
  8
0
  6
SLD-Solid
 62
     7
370
    25
100
AcDbLine
 10
51.384125579
 20
27.5458100461
 30
0.0
 11
51.378620879
 21
27.5082235454
 31
0.0
  0
LINE
  5
446
330
1F
100
AcDbEntity
  8
0
  6
SLD-Solid
 62
     7
370
    25
100
AcDbLine
 10
51.384125579
 20
27.5458100461
 30
0.0
 11
51.3806015466
 21
27.5478444267
 31
0.0
  0
LINE
  5
447
330
1F
100
AcDbEntity
  8
0
  6
SLD-Solid
 62
     7
370
    25
100
AcDbLine
 10
51.360275639
 20
27.5400523341
 30
0.0
 11
51.3574076756
 21
27.5204696671
 31
0.0
  0
SPLINE
  5
448
330
1F
100
AcDbEntity
  8
0
  6
SLD-Solid
 62
     7
370
    25
100
AcDbSpline
210
0.0
220
0.0
230
1.0
 70
     8
 71
     3
 72
    15
 73
    11
 74
     0
 42
0.00000001
 43
0.00000001
 40
0.0
 40
0.0
 40
0.0
 40
0.0
 40
0.1394303813724942
 40
0.2788607627450022
 40
0.4182911441174993
 40
0.5577215254899994
 40
0.6971519068625068
 40
0.8365822882350079
 40
0.9760126696075014
 40
1.0
 40
1.0
 40
1.0
 40
1.0
 10
51.3786208789902
 20
27.50822354540128
 30
0.0
 10
51.37711247522924
 20
27.50322016243137
 30
0.0
 10
51.37409566770732
 20
27.49321339649154
 30
0.0
 10
51.36429941000952
 20
27.48406203792768
 30
0.0
 10
51.35253844031573
 20
27.48124344074738
 30
0.0
 10
51.34038421676303
 20
27.48545970770065
 30
0.0
 10
51.32982909851654
 20
27.49606586992707
 30
0.0
 10
51.32321185455606
 20
27.51135622697834
 30
0.0
 10
51.32056155222541
 20
27.52452132198936
 30
0.0
 10
51.32183697127486
 20
27.53122194293068
 30
0.0
 10
51.32202418414057
 20
27.53220549610015
 30
0.0
  0
SPLINE
  5
449
330
1F
100
AcDbEntity
  8
0
  6
SLD-Solid
 62
     7
370
    25
100
AcDbSpline
210
0.0
220
0.0
230
1.0
 70
     8
 71
     3
 72
    15
 73
    11
 74
     0
 42
0.00000001
 43
0.00000001
 40
0.0
 40
0.0
 40
0.0
 40
0.0
 40
0.124999999999994
 40
0.249999999999993
 40
0.3749999999999986
 40
0.4999999999999972
 40
0.6249999999999972
 40
0.7499999999999927
 40
0.8749999999999998
 40
1.0
 40
1.0
 40
1.0
 40
1.0
 10
51.3574076755546
 20
27.52046966707862
 30
0.0
 10
51.35716783403477
 20
27.51884314415322
 30
0.0
 10
51.35668815099509
 20
27.5155900983024
 30
0.0
 10
51.35421101055169
 20
27.51266354914255
 30
0.0
 10
51.35108136775857
 20
27.51184756243961
 30
0.0
 10
51.34781163416232
 20
27.51337787296391
 30
0.0
 10
51.3451085587532
 20
27.51703313651932
 30
0.0
 10
51.3435926219493
 20
27.52226850407342
 30
0.0
 10
51.3435305631886
 20
27.52839844656659
 30
0.0
 10
51.34495006887077
 20
27.5322673075772
 30
0.0
 10
51.34565982171186
 20
27.5342017380825
 30
0.0
  0
ARC
  5
44A
330
1F
100
AcDbEntity
  8
0
  6
SLD-Solid
 62
     7
370
    25
100
AcDbCircle
 10
51.6130345226
 20
27.7769692587
 30
0.0
 40
0.069617743604445
100
AcDbArc
 50
99.9319029749
 51
118.4801051887
  0
LINE
  5
44B
330
1F
100
AcDbEntity
  8
0
  6
SLD-Solid
 62
     7
370
    25
100
AcDbLine
 10
51.6010270216
 20
27.8455436719
 30
0.0
 11
52.0522717316
 21
27.9163838206
 31
0.0
  0
LINE
  5
44C
330
1F
100
AcDbEntity
  8
0
  6
SLD-Solid
 62
     7
370
    25
100
AcDbLine
 10
55.4880060654
 20
30.3936147703
 30
0.0
 11
55.4880060654
 21
30.4181109946
 31
0.0
  0
LINE
  5
44D
330
1F
100
AcDbEntity
  8
0
  6
SLD-Solid
 62
     7
370
    25
100
AcDbLine
 10
55.4775551802
 20
30.3875816027
 30
0.0
 11
55.4880060654
 21
30.3936147703
 31
0.0
  0
LINE
  5
44E
330
1F
100
AcDbEntity
  8
0
  6
SLD-Solid
 62
     7
370
    25
100
AcDbLine
 10
55.1044006366
 20
30.5152163307
 30
0.0
 11
55.1044006366
 21
31.0845764375
 31
0.0
  0
LWPOLYLINE
  5
44F
330
1F
100
AcDbEntity
  8
0
  6
SLD-Solid
 62
     7
370
    25
100
AcDbPolyline
 90
        9
 70
   128
 43
0.0
 10
55.1044006366
 20
31.0845764375
 10
55.1094957085
 20
31.1413723188
 10
55.1245851236
 20
31.1901029213
 10
55.1490890041
 20
31.2288955555
 10
55.1820656795
 20
31.256259442
 10
55.2222478748
 20
31.271143002
 10
55.2680914107
 20
31.2729742688
 10
55.3178345459
 20
31.2616828677
 10
55.3695656795
 20
31.2377027209
  0
LINE
  5
450
330
1F
100
AcDbEntity
  8
0
  6
SLD-Solid
 62
     7
370
    25
100
AcDbLine
 10
55.3695656795
 20
31.2377027209
 30
0.0
 11
66.1529440926
 21
25.0125908683
 31
0.0
  0
ARC
  5
451
330
1F
100
AcDbEntity
  8
0
  6
SLD-Solid
 62
     7
370
    25
100
AcDbCircle
 10
65.8424030975
 20
24.5271137233
 30
0.0
 40
0.5763018028395355
100
AcDbArc
 50
2.6054784857
 51
57.39452166
  0
LINE
  5
452
330
1F
100
AcDbEntity
  8
0
  6
SLD-Solid
 62
     7
370
    25
100
AcDbLine
 10
66.4181091356
 20
24.5533115429
 30
0.0
 11
66.4181091356
 21
23.945135908
 31
0.0
  0
LINE
  5
453
330
1F
100
AcDbEntity
  8
0
  6
SLD-Solid
 62
     7
370
    25
100
AcDbLine
 10
66.4181091356
 20
23.6461759715
 30
0.0
 11
66.4181091356
 21
19.4499314686
 31
0.0
  0
LWPOLYLINE
  5
454
330
1F
100
AcDbEntity
  8
0
  6
SLD-Solid
 62
     7
370
    25
100
AcDbPolyline
 90
        9
 70
   128
 43
0.0
 10
66.4181091356
 20
19.4499314686
 10
66.4130140636
 20
19.3931355873
 10
66.3979246485
 20
19.3444049847
 10
66.3734207681
 20
19.3056123506
 10
66.3404440926
 20
19.2782484641
 10
66.3002618973
 20
19.263364904
 10
66.2544183614
 20
19.2615336373
 10
66.2046752262
 20
19.2728250384
 10
66.1529440926
 20
19.2968051851
  0
LINE
  5
455
330
1F
100
AcDbEntity
  8
0
  6
SLD-Solid
 62
     7
370
    25
100
AcDbLine
 10
66.1529440926
 20
19.2968051851
 30
0.0
 11
64.0853193849
 21
20.490419522
 31
0.0
  0
ARC
  5
456
330
1F
100
AcDbEntity
  8
0
  6
SLD-Solid
 62
     7
370
    25
100
AcDbCircle
 10
65.863616301
 20
24.539359845
 30
0.0
 40
0.5763018028394934
100
AcDbArc
 50
2.6054784857
 51
57.39452166
  0
LINE
  5
457
330
1F
100
AcDbEntity
  8
0
  6
SLD-Solid
 62
     7
370
    25
100
AcDbLine
 10
66.4181091356
 20
19.4499314686
 30
0.0
 11
66.439322339
 21
19.4621775903
 31
0.0
  0
LINE
  5
458
330
1F
100
AcDbEntity
  8
0
  6
SLD-Solid
 62
     7
370
    25
100
AcDbLine
 10
66.439322339
 20
24.5655576646
 30
0.0
 11
66.439322339
 21
19.4621775903
 31
0.0
  0
LINE
  5
459
330
1F
100
AcDbEntity
  8
0
  6
SLD-Solid
 62
     7
370
    25
100
AcDbLine
 10
55.3907788829
 20
31.2499488426
 30
0.0
 11
66.174157296
 21
25.02483699
 31
0.0
  0
ARC
  5
45A
330
1F
100
AcDbEntity
  8
0
  6
SLD-Solid
 62
     7
370
    25
100
AcDbCircle
 10
66.2609402555
 20
19.4394660796
 30
0.0
 40
0.1798220799327955
100
AcDbArc
 50
304.0563508369
 51
7.2558295565
  0
ARC
  5
45B
330
1F
100
AcDbEntity
  8
0
  6
SLD-Solid
 62
     7
370
    25
100
AcDbCircle
 10
55.2809338624
 20
31.0966183442
 30
0.0
 40
0.1886164634631607
100
AcDbArc
 50
54.3824225248
 51
114.3071190461
  0
LWPOLYLINE
  5
45C
330
1F
100
AcDbEntity
  8
0
  6
SLD-Solid
 62
     7
370
    25
100
AcDbPolyline
 90
       34
 70
   128
 43
0.0
 10
53.7453513294
 20
22.2767014465
 10
53.7062254496
 20
22.3009169347
 10
53.6247200597
 20
22.3631891048
 10
53.550893837
 20
22.436941878
 10
53.4852019449
 20
22.5217205438
 10
53.4280493957
 20
22.6170024138
 10
53.3797885539
 20
22.7222000433
 10
53.3407169635
 20
22.8366648541
 10
53.311075514
 20
22.9596911326
 10
53.2910469548
 20
23.0905203808
 10
53.2807547685
 20
23.2283459929
 10
53.2802624099
 20
23.3723182282
 10
53.2895729147
 20
23.52154945
 10
53.3086288803
 20
23.6751195981
 10
53.3373128205
 20
23.8320818615
 10
53.3754478892
 20
23.9914685158
 10
53.4227989711
 20
24.1522968891
 10
53.4790741309
 20
24.3135754211
 10
53.5439264136
 20
24.4743097759
 10
53.6169559834
 20
24.6335089729
 10
53.6977125886
 20
24.790191496
 10
53.7856983379
 20
24.9433913454
 10
53.8803707699
 20
25.0921639931
 10
53.9811461976
 20
25.2355922062
 10
54.0874033069
 20
25.3727917021
 10
54.1984869875
 20
25.5029166002
 10
54.3137123715
 20
25.6251646374
 10
54.4323690562
 20
25.7387821138
 10
54.5537254835
 20
25.8430685399
 10
54.6770334507
 20
25.9373809552
 10
54.8015327233
 20
26.0211378923
 10
54.9264557218
 20
26.0938229618
 10
55.0510322545
 20
26.1549880361
 10
55.0809388705
 20
26.1679714973
  0
LWPOLYLINE
  5
45D
330
1F
100
AcDbEntity
  8
0
  6
SLD-Solid
 62
     7
370
    25
100
AcDbPolyline
 90
       36
 70
   128
 43
0.0
 10
57.1732810541
 20
20.3495887433
 10
57.0721999691
 20
20.375358718
 10
56.9768880144
 20
20.4135910448
 10
56.888205965
 20
20.4639986831
 10
56.806700575
 20
20.5262708532
 10
56.7328743524
 20
20.6000236264
 10
56.6671824603
 20
20.6848022922
 10
56.6100299111
 20
20.7800841622
 10
56.5617690692
 20
20.8852817917
 10
56.5226974789
 20
20.9997466025
 10
56.4930560294
 20
21.122772881
 10
56.4730274701
 20
21.2536021292
 10
56.4627352838
 20
21.3914277413
 10
56.4622429253
 20
21.5353999766
 10
56.47155343
 20
21.6846311984
 10
56.4906093956
 20
21.8382013465
 10
56.5192933358
 20
21.9951636099
 10
56.5574284045
 20
22.1545502642
 10
56.6047794864
 20
22.3153786375
 10
56.6610546462
 20
22.4766571695
 10
56.725906929
 20
22.6373915243
 10
56.7989364987
 20
22.7965907213
 10
56.8796931039
 20
22.9532732444
 10
56.9676788532
 20
23.1064730938
 10
57.0623512852
 20
23.2552457415
 10
57.1631267129
 20
23.3986739546
 10
57.2693838223
 20
23.5358734505
 10
57.3804675029
 20
23.6659983486
 10
57.4956928869
 20
23.7882463858
 10
57.6143495715
 20
23.9018638622
 10
57.7357059988
 20
24.0061502883
 10
57.8590139661
 20
24.1004627036
 10
57.9835132387
 20
24.1842196407
 10
58.1084362372
 20
24.2569047102
 10
58.2330127698
 20
24.3180697844
 10
58.2629193858
 20
24.3310532457
  0
ARC
  5
45E
330
1F
100
AcDbEntity
  8
0
  6
SLD-Solid
 62
     7
370
    25
100
AcDbCircle
 10
59.5372003687
 20
21.528381784
 30
0.0
 40
3.786016812235982
100
AcDbArc
 50
315.8947750833
 51
337.5196312078
  0
LWPOLYLINE
  5
45F
330
1F
100
AcDbEntity
  8
0
  6
SLD-Solid
 62
     7
370
    25
100
AcDbPolyline
 90
       49
 70
   128
 43
0.0
 10
61.9053817999
 20
22.2283044524
 10
61.8601894335
 20
22.208598977
 10
61.7355553493
 20
22.1464710546
 10
61.6106381388
 20
22.0728573537
 10
61.4862079583
 20
21.9882117272
 10
61.3630319612
 20
21.8930560435
 10
61.2418695684
 20
21.7879769691
 10
61.1234677864
 20
21.6736223515
 10
61.0085566016
 20
21.5506972248
 10
60.8978444797
 20
21.4199594634
 10
60.7920139976
 20
21.282215109
 10
60.6917176354
 20
21.1383134013
 10
60.5975737537
 20
20.9891415424
 10
60.5101627808
 20
20.8356192262
 10
60.4300236343
 20
20.6786929689
 10
60.3576503987
 20
20.519330273
 10
60.2934892792
 20
20.3585136627
 10
60.2379358503
 20
20.1972346257
 10
60.1913326175
 20
20.0364875009
 10
60.1539669051
 20
19.8772633479
 10
60.1260690852
 20
19.7205438365
 10
60.1078111571
 20
19.5672951945
 10
60.099305687
 20
19.4184622508
 10
60.100605114
 20
19.2749626101
 10
60.1117014266
 20
19.1376809953
 10
60.1325262125
 20
19.0074637931
 10
60.1629510799
 20
18.8851138361
 10
60.2027884493
 20
18.7713854523
 10
60.2517927102
 20
18.666979815
 10
60.3096617349
 20
18.5725406198
 10
60.3760387417
 20
18.4886501156
 10
60.4505144943
 20
18.4158255154
 10
60.5326298248
 20
18.3545158069
 10
60.6218784651
 20
18.3050989849
 10
60.7177101674
 20
18.2678797207
 10
60.8195340976
 20
18.2430874832
 10
60.9267224772
 20
18.230875125
 10
61.0386144542
 20
18.2313179392
 10
61.1545201773
 20
18.2444131957
 10
61.2737250493
 20
18.270080158
 10
61.3954941325
 20
18.3081605807
 10
61.51907668
 20
18.3584196853
 10
61.6437107642
 20
18.4205476077
 10
61.7686279747
 20
18.4941613087
 10
61.8930581552
 20
18.5788069352
 10
62.0162341523
 20
18.6739626189
 10
62.1373965451
 20
18.7790416932
 10
62.255798327
 20
18.8933963109
 10
62.255798327
 20
18.8933963109
  0
LWPOLYLINE
  5
460
330
1F
100
AcDbEntity
  8
0
  6
SLD-Solid
 62
     7
370
    25
100
AcDbPolyline
 90
       34
 70
   128
 43
0.0
 10
58.7234012845
 20
24.065222704
 10
58.6782089182
 20
24.0455172286
 10
58.5535748339
 20
23.9833893062
 10
58.4286576235
 20
23.9097756053
 10
58.304227443
 20
23.8251299788
 10
58.1810514458
 20
23.7299742951
 10
58.0598890531
 20
23.6248952207
 10
57.9414872711
 20
23.5105406031
 10
57.8265760863
 20
23.3876154764
 10
57.7158639643
 20
23.256877715
 10
57.6100334822
 20
23.1191333606
 10
57.5097371201
 20
22.9752316529
 10
57.4155932384
 20
22.826059794
 10
57.3281822654
 20
22.6725374778
 10
57.2480431189
 20
22.5156112205
 10
57.1756698834
 20
22.3562485246
 10
57.1115087639
 20
22.1954319143
 10
57.055955335
 20
22.0341528773
 10
57.0093521022
 20
21.8734057525
 10
56.9719863897
 20
21.7141815995
 10
56.9440885698
 20
21.5574620881
 10
56.9258306417
 20
21.4042134461
 10
56.9173251716
 20
21.2553805024
 10
56.9186245986
 20
21.1118808617
 10
56.9297209113
 20
20.9745992469
 10
56.9505456972
 20
20.8443820447
 10
56.9809705645
 20
20.7220320877
 10
57.020807934
 20
20.6083037039
 10
57.0698121948
 20
20.5038980666
 10
57.1276812195
 20
20.4094588714
 10
57.1940582263
 20
20.3255683672
 10
57.2685339789
 20
20.252743767
 10
57.3506493095
 20
20.1914340585
 10
57.3827439672
 20
20.1718176424
  0
LWPOLYLINE
  5
461
330
1F
100
AcDbEntity
  8
0
  6
SLD-Solid
 62
     7
370
    25
100
AcDbPolyline
 90
        9
 70
   128
 43
0.0
 10
63.7676220848
 20
20.3921745697
 10
63.8011318493
 20
20.3812034908
 10
63.846335156
 20
20.3747430219
 10
63.8928288332
 20
20.3762613022
 10
63.9364817138
 20
20.3856234258
 10
63.9734150477
 20
20.401997527
 10
64.0003471461
 20
20.423928695
 10
64.0148849738
 20
20.4494682492
 10
64.0149861495
 20
20.4498170095
  0
LINE
  5
462
330
1F
100
AcDbEntity
  8
0
  6
SLD-Solid
 62
     7
370
    25
100
AcDbLine
 10
64.0079356719
 20
21.1958596695
 30
0.0
 11
64.0079356719
 21
20.6155905954
 31
0.0
  0
LINE
  5
463
330
1F
100
AcDbEntity
  8
0
  6
SLD-Solid
 62
     7
370
    25
100
AcDbLine
 10
64.0079356719
 20
20.6155905954
 30
0.0
 11
64.0411696906
 21
20.5670032987
 31
0.0
  0
LWPOLYLINE
  5
464
330
1F
100
AcDbEntity
  8
0
  6
SLD-Solid
 62
     7
370
    25
100
AcDbPolyline
 90
       28
 70
   128
 43
0.0
 10
62.0195672773
 20
20.8645819179
 10
61.9467900698
 20
20.8357713344
 10
61.8731397451
 20
20.7952112057
 10
61.7999136156
 20
20.7436159777
 10
61.728401522
 20
20.6818944738
 10
61.6598631132
 20
20.6111338865
 10
61.5955056579
 20
20.5325806271
 10
61.5364627796
 20
20.447618371
 10
61.4837744883
 20
20.3577436847
 10
61.4383688612
 20
20.2645396645
 10
61.4010456949
 20
20.1696480513
 10
61.372462418
 20
20.0747403122
 10
61.3531225101
 20
19.9814881981
 10
61.3433666338
 20
19.891534297
 10
61.3433666338
 20
19.8064631009
 10
61.3531225101
 20
19.7277730949
 10
61.372462418
 20
19.6568503631
 10
61.4010456949
 20
19.5949441731
 10
61.4383688612
 20
19.5431449704
 10
61.4837744883
 20
19.5023651714
 10
61.5364627796
 20
19.4733230913
 10
61.5955056579
 20
19.4565302915
 10
61.6598631132
 20
19.4522825684
 10
61.728401522
 20
19.4606547435
 10
61.7999136156
 20
19.4814993453
 10
61.8731397451
 20
19.5144492068
 10
61.9467900698
 20
19.5589239332
 10
62.0195672773
 20
19.6141401249
  0
LINE
  5
465
330
1F
100
AcDbEntity
  8
0
  6
SLD-Solid
 62
     7
370
    25
100
AcDbLine
 10
63.7039090691
 20
20.8957095465
 30
0.0
 11
63.3313493936
 21
20.6806354238
 31
0.0
  0
SPLINE
  5
466
330
1F
100
AcDbEntity
  8
0
  6
SLD-Solid
 62
     7
370
    25
100
AcDbSpline
210
0.0
220
0.0
230
1.0
 70
     8
 71
     3
 72
    14
 73
    10
 74
     0
 42
0.00000001
 43
0.00000001
 40
0.0
 40
0.0
 40
0.0
 40
0.0
 40
0.4276109923162598
 40
0.5165597619920975
 40
0.7020597223478743
 40
0.8888344080431322
 40
0.9283871563393552
 40
0.9685757219167799
 40
1.0
 40
1.0
 40
1.0
 40
1.0
 10
63.70950729703637
 20
20.91185036004329
 30
0.0
 10
63.70938039133752
 20
20.90956861701983
 30
0.0
 10
63.70922708756665
 20
20.9068122411214
 30
0.0
 10
63.70811480501645
 20
20.90280224947016
 30
0.0
 10
63.70712525512043
 20
20.9001531014755
 30
0.0
 10
63.70583153840322
 20
20.89784022953319
 30
0.0
 10
63.70481271680298
 20
20.89656103241119
 30
0.0
 10
63.7043605188928
 20
20.89606097727251
 30
0.0
 10
63.70404675236372
 20
20.89581672594185
 30
0.0
 10
63.70390906914714
 20
20.89570954654015
 30
0.0
  0
LINE
  5
467
330
1F
100
AcDbEntity
  8
0
  6
SLD-Solid
 62
     7
370
    25
100
AcDbLine
 10
61.7365531345
 20
20.0759804344
 30
0.0
 11
62.2578463884
 21
20.67372138
 31
0.0
  0
LINE
  5
468
330
1F
100
AcDbEntity
  8
0
  6
SLD-Solid
 62
     7
370
    25
100
AcDbLine
 10
62.2578463884
 20
20.0801118685
 30
0.0
 11
61.7365531345
 21
20.0759804344
 31
0.0
  0
LINE
  5
469
330
1F
100
AcDbEntity
  8
0
  6
SLD-Solid
 62
     7
370
    25
100
AcDbLine
 10
62.7791396424
 20
20.6778528141
 30
0.0
 11
62.2578463884
 21
20.0801118685
 31
0.0
  0
LINE
  5
46A
330
1F
100
AcDbEntity
  8
0
  6
SLD-Solid
 62
     7
370
    25
100
AcDbLine
 10
62.2578463884
 20
20.67372138
 30
0.0
 11
62.7791396424
 21
20.6778528141
 31
0.0
  0
ELLIPSE
  5
46B
330
1F
100
AcDbEntity
  8
0
  6
SLD-Solid
 62
     7
370
    25
100
AcDbEllipse
 10
62.2273014438
 20
22.8409186889
 30
0.0
 11
0.9160489137486891
 21
1.890683322219868
 31
0.0
210
0.0
220
0.0
230
1.0
 40
0.5227660535
 41
3.9700291398401
 42
4.124533681814074
  0
SPLINE
  5
46C
330
1F
100
AcDbEntity
  8
0
  6
SLD-Solid
 62
     7
370
    25
100
AcDbSpline
210
0.0
220
0.0
230
1.0
 70
     8
 71
     3
 72
     9
 73
     5
 74
     0
 42
0.00000001
 43
0.00000001
 40
0.0
 40
0.0
 40
0.0
 40
0.0
 40
0.0804495585399586
 40
0.9999999999999999
 40
0.9999999999999999
 40
0.9999999999999999
 40
0.9999999999999999
 10
62.16868171143518
 20
21.07347214302327
 30
0.0
 10
62.17312374941559
 20
21.07760617971539
 30
0.0
 10
62.22833894339573
 20
21.12899287178862
 30
0.0
 10
62.28460403034178
 20
21.17113571933438
 30
0.0
 10
62.3363426158818
 20
21.20988819339948
 30
0.0
  0
ELLIPSE
  5
46D
330
1F
100
AcDbEntity
  8
0
  6
SLD-Solid
 62
     7
370
    25
100
AcDbEllipse
 10
63.2606387155
 20
20.7214558294
 30
0.0
 11
0.06463916540493386
 21
0.2067994008101337
 31
0.0
210
0.0
220
0.0
230
1.0
 40
0.3689593795
 41
4.629836604503305
 42
5.212925980408144
  0
ELLIPSE
  5
46E
330
1F
100
AcDbEntity
  8
0
  6
SLD-Solid
 62
     7
370
    25
100
AcDbEllipse
 10
61.7848180067
 20
19.9508680169
 30
0.0
 11
1.923804306406516
 21
0.9529139273054026
 31
0.0
210
0.0
220
0.0
230
1.0
 40
0.068202981
 41
0.0453595875510522
 42
0.5493193803604891
  0
ARC
  5
46F
330
1F
100
AcDbEntity
  8
0
  6
SLD-Solid
 62
     7
370
    25
100
AcDbCircle
 10
63.4156779414
 20
20.7744569042
 30
0.0
 40
0.0624417063715951
100
AcDbArc
 50
112.6219287528
 51
156.0798977943
  0
ARC
  5
470
330
1F
100
AcDbEntity
  8
0
  6
SLD-Solid
 62
     7
370
    25
100
AcDbCircle
 10
63.659612876
 20
20.9984069368
 30
0.0
 40
0.0999074283112452
100
AcDbArc
 50
296.1833676836
 51
299.9607433704
  0
LINE
  5
471
330
1F
100
AcDbEntity
  8
0
  6
SLD-Solid
 62
     7
370
    25
100
AcDbLine
 10
64.0157138465
 20
20.6592574153
 30
0.0
 11
64.0079356719
 21
20.6637476599
 31
0.0
  0
LINE
  5
472
330
1F
100
AcDbEntity
  8
0
  6
SLD-Solid
 62
     7
370
    25
100
AcDbLine
 10
64.0157138465
 20
20.6592574153
 30
0.0
 11
64.0079356719
 21
20.6547671707
 31
0.0
  0
LINE
  5
473
330
1F
100
AcDbEntity
  8
0
  6
SLD-Solid
 62
     7
370
    25
100
AcDbLine
 10
64.0310186556
 20
20.5818438556
 30
0.0
 11
64.0489478652
 21
20.5714935433
 31
0.0
  0
LINE
  5
474
330
1F
100
AcDbEntity
  8
0
  6
SLD-Solid
 62
     7
370
    25
100
AcDbLine
 10
64.0411696906
 20
20.5670032987
 30
0.0
 11
64.0489478652
 21
20.5714935433
 31
0.0
  0
ARC
  5
475
330
1F
100
AcDbEntity
  8
0
  6
SLD-Solid
 62
     7
370
    25
100
AcDbCircle
 10
64.0251635874
 20
20.5684653418
 30
0.0
 40
0.0239762773458715
100
AcDbArc
 50
304.0563508685
 51
7.2558295249
  0
LINE
  5
476
330
1F
100
AcDbEntity
  8
0
  6
SLD-Solid
 62
     7
370
    25
100
AcDbLine
 10
64.0157138465
 20
20.6592574153
 30
0.0
 11
64.0157138465
 21
20.6184303747
 31
0.0
  0
LINE
  5
477
330
1F
100
AcDbEntity
  8
0
  6
SLD-Solid
 62
     7
370
    25
100
AcDbLine
 10
64.0087450161
 20
20.6144073546
 30
0.0
 11
64.0157138465
 21
20.6184303747
 31
0.0
  0
LINE
  5
478
330
1F
100
AcDbEntity
  8
0
  6
SLD-Solid
 62
     7
370
    25
100
AcDbLine
 10
64.6503421826
 20
21.2967099881
 30
0.0
 11
64.6503421826
 21
20.4794537853
 31
0.0
  0
LINE
  5
479
330
1F
100
AcDbEntity
  8
0
  6
SLD-Solid
 62
     7
370
    25
100
AcDbLine
 10
64.1539532222
 20
20.5177928808
 30
0.0
 11
64.1539532222
 21
20.5708680335
 31
0.0
  0
LINE
  5
47A
330
1F
100
AcDbEntity
  8
0
  6
SLD-Solid
 62
     7
370
    25
100
AcDbLine
 10
64.1539532222
 20
20.7419333336
 30
0.0
 11
64.1539532222
 21
20.5708680335
 31
0.0
  0
ARC
  5
47B
330
1F
100
AcDbEntity
  8
0
  6
SLD-Solid
 62
     7
370
    25
100
AcDbCircle
 10
63.8618563747
 20
20.7324865021
 30
0.0
 40
0.2922495696347389
100
AcDbArc
 50
1.8523821283
 51
60.0102969552
  0
LINE
  5
47C
330
1F
100
AcDbEntity
  8
0
  6
SLD-Solid
 62
     7
370
    25
100
AcDbLine
 10
63.9990968371
 20
20.4814713453
 30
0.0
 11
64.1539532222
 21
20.5708680335
 31
0.0
  0
ARC
  5
47D
330
1F
100
AcDbEntity
  8
0
  6
SLD-Solid
 62
     7
370
    25
100
AcDbCircle
 10
63.8662538881
 20
20.7320807674
 30
0.0
 40
0.2836412021707819
100
AcDbArc
 50
269.7650157975
 51
297.9271513846
  0
ARC
  5
47E
330
1F
100
AcDbEntity
  8
0
  6
SLD-Solid
 62
     7
370
    25
100
AcDbCircle
 10
63.8605923779
 20
20.7099833551
 30
0.0
 40
0.302864671609889
100
AcDbArc
 50
259.0497336011
 51
297.2139637569
  0
ELLIPSE
  5
47F
330
1F
100
AcDbEntity
  8
0
  6
SLD-Solid
 62
     7
370
    25
100
AcDbEllipse
 10
64.5222332913
 20
20.5633192681
 30
0.0
 11
-0.09356530977845523
 21
0.1620743191389771
 31
0.0
210
0.0
220
0.0
230
1.0
 40
0.5399170624
 41
2.896065202313746
 42
3.893543569266549
  0
ARC
  5
480
330
1F
100
AcDbEntity
  8
0
  6
SLD-Solid
 62
     7
370
    25
100
AcDbCircle
 10
64.1474871067
 20
20.5188417887
 30
0.0
 40
0.00655063796143
100
AcDbArc
 50
350.7859630096
 51
129.2032852356
  0
LINE
  5
481
330
1F
100
AcDbEntity
  8
0
  6
SLD-Solid
 62
     7
370
    25
100
AcDbLine
 10
63.9990968371
 20
20.4406443047
 30
0.0
 11
64.1433466205
 21
20.5239179321
 31
0.0
  0
LINE
  5
482
330
1F
100
AcDbEntity
  8
0
  6
SLD-Solid
 62
     7
370
    25
100
AcDbLine
 10
64.0079356719
 20
20.7545488075
 30
0.0
 11
64.1539532222
 21
20.67025467
 31
0.0
  0
SPLINE
  5
483
330
1F
100
AcDbEntity
  8
0
  6
SLD-Solid
 62
     8
370
    25
100
AcDbSpline
210
0.0
220
0.0
230
1.0
 70
     8
 71
     3
 72
    25
 73
    21
 74
     0
 42
0.00000001
 43
0.00000001
 40
0.0
 40
0.0
 40
0.0
 40
0.0
 40
0.0104495417352781
 40
0.0237993564711931
 40
0.029133646294788
 40
0.0613124810129485
 40
0.093102236576948
 40
0.1564490224922211
 40
0.2196450884863311
 40
0.2828835806386368
 40
0.4089115627720367
 40
0.5348684746472591
 40
0.6608619235290403
 40
0.7870727186151437
 40
0.8502223506632507
 40
0.9137198425037978
 40
0.9456006828513982
 40
0.9735169460502909
 40
0.9889841767795752
 40
0.9999999999999999
 40
0.9999999999999999
 40
0.9999999999999999
 40
0.9999999999999999
 10
66.21947664995082
 20
24.58853050658004
 30
0.0
 10
66.21895895627641
 20
24.59490091431568
 30
0.0
 10
66.21777988291491
 20
24.60940983809516
 30
0.0
 10
66.21054955212622
 20
24.62871898827405
 30
0.0
 10
66.19537687371619
 20
24.66113544428471
 30
0.0
 10
66.16782101146194
 20
24.70307090135487
 30
0.0
 10
66.11179583385234
 20
24.77170343661168
 30
0.0
 10
66.03654564488505
 20
24.8476300564805
 30
0.0
 10
65.94394384481288
 20
24.92919880023029
 30
0.0
 10
65.81871466739845
 20
25.02808701187234
 30
0.0
 10
65.6605692319164
 20
25.13805293207368
 30
0.0
 10
65.47023043780186
 20
25.25183122572872
 30
0.0
 10
65.28035356251968
 20
25.34760630945125
 30
0.0
 10
65.12354485790867
 20
25.40968027283371
 30
0.0
 10
65.00129853490542
 20
25.44177450923044
 30
0.0
 10
64.92735548626209
 20
25.45064647437412
 30
0.0
 10
64.87482483459772
 20
25.44393467962903
 30
0.0
 10
64.84735874302186
 20
25.43013253973713
 30
0.0
 10
64.83347773105429
 20
25.41044477842639
 30
0.0
 10
64.8321357330562
 20
25.39582770208461
 30
0.0
 10
64.83157751900971
 20
25.38974762048654
 30
0.0
  0
SPLINE
  5
484
330
1F
100
AcDbEntity
  8
0
  6
SLD-Solid
 62
     8
370
    25
100
AcDbSpline
210
0.0
220
0.0
230
1.0
 70
     8
 71
     3
 72
    13
 73
     9
 74
     0
 42
0.00000001
 43
0.00000001
 40
0.0
 40
0.0
 40
0.0
 40
0.0
 40
0.2973527587674341
 40
0.5962491910482899
 40
0.7462912808691841
 40
0.8765499995607815
 40
0.9467874347221159
 40
1.0
 40
1.0
 40
1.0
 40
1.0
 10
65.92760671975986
 20
24.56786842767711
 30
0.0
 10
65.96127078228642
 20
24.55772534478739
 30
0.0
 10
66.02877367054633
 20
24.53738652233019
 30
0.0
 10
66.1105767136478
 20
24.52629364989122
 30
0.0
 10
66.16949659731124
 20
24.53188124083852
 30
0.0
 10
66.20060817782664
 20
24.54571493811513
 30
0.0
 10
66.21705513717278
 20
24.56613712043472
 30
0.0
 10
66.21874726562285
 20
24.5817853904474
 30
0.0
 10
66.21947664995082
 20
24.58853050658004
 30
0.0
  0
LINE
  5
485
330
1F
100
AcDbEntity
  8
0
  6
SLD-Solid
 62
     8
370
    25
100
AcDbLine
 10
62.5761414423
 20
21.6813749216
 30
0.0
 11
62.5761414423
 21
21.6691287999
 31
0.0
  0
LINE
  5
486
330
1F
100
AcDbEntity
  8
0
  6
SLD-Solid
 62
     8
370
    25
100
AcDbLine
 10
62.3928412054
 20
21.986612132
 30
0.0
 11
62.403447807
 21
21.9804890712
 31
0.0
  0
LINE
  5
487
330
1F
100
AcDbEntity
  8
0
  6
SLD-Solid
 62
     8
370
    25
100
AcDbLine
 10
62.6028459782
 20
21.028616318
 30
0.0
 11
62.6167058279
 21
21.0307921525
 31
0.0
  0
LINE
  5
488
330
1F
100
AcDbEntity
  8
0
  6
SLD-Solid
 62
     8
370
    25
100
AcDbLine
 10
66.3698319017
 20
23.6094530245
 30
0.0
 11
66.3763085017
 21
23.605714163
 31
0.0
  0
LINE
  5
489
330
1F
100
AcDbEntity
  8
0
  6
SLD-Solid
 62
     8
370
    25
100
AcDbLine
 10
51.3094899363
 20
28.1732282707
 30
0.0
 11
51.3094899363
 21
28.1854743924
 31
0.0
  0
LINE
  5
48A
330
1F
100
AcDbEntity
  8
0
  6
SLD-Solid
 62
     8
370
    25
100
AcDbLine
 10
51.3456598217
 20
27.5342017381
 30
0.0
 11
51.3597425798
 21
27.5364125666
 31
0.0
  0
LINE
  5
48B
330
1F
100
AcDbEntity
  8
0
  6
SLD-Solid
 62
     8
370
    25
100
AcDbLine
 10
51.55749777
 20
27.7860798964
 30
0.0
 11
51.5545853678
 21
27.7877611905
 31
0.0
  0
ARC
  5
48C
330
1F
100
AcDbEntity
  8
0
  6
SLD-Solid
 62
     8
370
    25
100
AcDbCircle
 10
61.4271855274
 20
22.6403372606
 30
0.0
 40
1.871957044137456
100
AcDbArc
 50
288.4484016167
 51
306.5411254951
  0
LINE
  5
48D
330
1F
100
AcDbEntity
  8
0
  6
SLD-Solid
 62
     8
370
    25
100
AcDbLine
 10
63.3313493936
 20
20.6806354238
 30
0.0
 11
63.3313493936
 21
21.0896435267
 31
0.0
  0
LINE
  5
48E
330
1F
100
AcDbEntity
  8
0
  6
SLD-Solid
 62
     8
370
    25
100
AcDbLine
 10
63.709507297
 20
21.1490099004
 30
0.0
 11
63.709507297
 21
20.91185036
 31
0.0
  0
LINE
  5
48F
330
1F
100
AcDbEntity
  8
0
  6
SLD-Solid
 62
     8
370
    25
100
AcDbLine
 10
63.3585992436
 20
20.7997746638
 30
0.0
 11
63.3585992436
 21
21.0939214348
 31
0.0
  0
LINE
  5
490
330
1F
100
AcDbEntity
  8
0
  6
SLD-Solid
 62
     8
370
    25
100
AcDbLine
 10
64.336077084
 20
21.2473740384
 30
0.0
 11
64.336077084
 21
20.4713499278
 31
0.0
  0
LINE
  5
491
330
1F
100
AcDbEntity
  8
0
  6
SLD-Solid
 62
     8
370
    25
100
AcDbLine
 10
64.1433448965
 20
20.5239169368
 30
0.0
 11
64.1539532222
 21
20.5177928808
 31
0.0
  0
INSERT
  5
497
330
1F
100
AcDbEntity
  8
NOTES
100
AcDbBlockReference
  2
SW_NOTE_0_2
 10
55.8639897688
 20
18.2592618681
 30
0.0
  0
LINE
  5
498
330
1F
100
AcDbEntity
  8
0
  6
SLD-Solid
 62
     7
370
    25
100
AcDbLine
 10
40.3673685677
 20
20.1213798541
 30
0.0
 11
44.8673685677
 21
20.1213798541
 31
0.0
  0
LINE
  5
499
330
1F
100
AcDbEntity
  8
0
  6
SLD-Solid
 62
     7
370
    25
100
AcDbLine
 10
35.2171185677
 20
20.1213798541
 30
0.0
 11
39.7171185677
 21
20.1213798541
 31
0.0
  0
LINE
  5
49A
330
1F
100
AcDbEntity
  8
0
  6
SLD-Solid
 62
     7
370
    25
100
AcDbLine
 10
48.0539692489
 20
26.6068798541
 30
0.0
 11
48.0539692489
 21
26.332654173
 31
0.0
  0
LINE
  5
49B
330
1F
100
AcDbEntity
  8
0
  6
SLD-Solid
 62
     7
370
    25
100
AcDbLine
 10
48.0422435677
 20
26.332654173
 30
0.0
 11
48.0539692489
 21
26.332654173
 31
0.0
  0
LWPOLYLINE
  5
49C
330
1F
100
AcDbEntity
  8
0
  6
SLD-Solid
 62
     7
370
    25
100
AcDbPolyline
 90
        3
 70
   128
 43
0.0
 10
48.0422435677
 20
26.6870602125
 10
48.0485891274
 20
26.6615051443
 10
48.0539692489
 20
26.6068798541
  0
LWPOLYLINE
  5
49D
330
1F
100
AcDbEntity
  8
0
  6
SLD-Solid
 62
     7
370
    25
100
AcDbPolyline
 90
        3
 70
   128
 43
0.0
 10
32.0305178865
 20
26.6068798541
 10
32.035898008
 20
26.6615051443
 10
32.0422435677
 20
26.6870602125
  0
LINE
  5
49E
330
1F
100
AcDbEntity
  8
0
  6
SLD-Solid
 62
     7
370
    25
100
AcDbLine
 10
32.0305178865
 20
26.332654173
 30
0.0
 11
32.0305178865
 21
26.6068798541
 31
0.0
  0
LINE
  5
49F
330
1F
100
AcDbEntity
  8
0
  6
SLD-Solid
 62
     7
370
    25
100
AcDbLine
 10
32.0422435677
 20
26.332654173
 30
0.0
 11
32.0305178865
 21
26.332654173
 31
0.0
  0
LINE
  5
4A0
330
1F
100
AcDbEntity
  8
0
  6
SLD-Solid
 62
     7
370
    25
100
AcDbLine
 10
48.0539692489
 20
26.312654173
 30
0.0
 11
48.0422435677
 21
26.312654173
 31
0.0
  0
LINE
  5
4A1
330
1F
100
AcDbEntity
  8
0
  6
SLD-Solid
 62
     7
370
    25
100
AcDbLine
 10
48.0422435677
 20
23.9212037458
 30
0.0
 11
48.0539692489
 21
23.9212037458
 31
0.0
  0
LINE
  5
4A2
330
1F
100
AcDbEntity
  8
0
  6
SLD-Solid
 62
     7
370
    25
100
AcDbLine
 10
48.0539692489
 20
26.312654173
 30
0.0
 11
48.0539692489
 21
23.9212037458
 31
0.0
  0
LINE
  5
4A3
330
1F
100
AcDbEntity
  8
0
  6
SLD-Solid
 62
     7
370
    25
100
AcDbLine
 10
32.0305178865
 20
23.9212037458
 30
0.0
 11
32.0422435677
 21
23.9212037458
 31
0.0
  0
LINE
  5
4A4
330
1F
100
AcDbEntity
  8
0
  6
SLD-Solid
 62
     7
370
    25
100
AcDbLine
 10
32.0422435677
 20
26.312654173
 30
0.0
 11
32.0305178865
 21
26.312654173
 31
0.0
  0
LINE
  5
4A5
330
1F
100
AcDbEntity
  8
0
  6
SLD-Solid
 62
     7
370
    25
100
AcDbLine
 10
32.0305178865
 20
23.9212037458
 30
0.0
 11
32.0305178865
 21
26.312654173
 31
0.0
  0
LINE
  5
4A6
330
1F
100
AcDbEntity
  8
0
  6
SLD-Solid
 62
     7
370
    25
100
AcDbLine
 10
48.0539692489
 20
26.332654173
 30
0.0
 11
48.0539692489
 21
26.312654173
 31
0.0
  0
LINE
  5
4A7
330
1F
100
AcDbEntity
  8
0
  6
SLD-Solid
 62
     7
370
    25
100
AcDbLine
 10
32.0305178865
 20
26.312654173
 30
0.0
 11
32.0305178865
 21
26.332654173
 31
0.0
  0
LINE
  5
4A8
330
1F
100
AcDbEntity
  8
0
  6
SLD-Solid
 62
     7
370
    25
100
AcDbLine
 10
32.4172435677
 20
20.8068798541
 30
0.0
 11
47.6672435677
 21
20.8068798541
 31
0.0
  0
ARC
  5
4A9
330
1F
100
AcDbEntity
  8
0
  6
SLD-Solid
 62
     7
370
    25
100
AcDbCircle
 10
32.4172435677
 20
21.1818798541
 30
0.0
 40
0.3750000000000142
100
AcDbArc
 50
180.0
 51
270.0
  0
LINE
  5
4AA
330
1F
100
AcDbEntity
  8
0
  6
SLD-Solid
 62
     7
370
    25
100
AcDbLine
 10
32.0422435677
 20
27.4318798541
 30
0.0
 11
32.0422435677
 21
21.1818798541
 31
0.0
  0
ARC
  5
4AB
330
1F
100
AcDbEntity
  8
0
  6
SLD-Solid
 62
     7
370
    25
100
AcDbCircle
 10
32.4172435677
 20
27.4318798541
 30
0.0
 40
0.3750000000000036
100
AcDbArc
 50
90.0
 51
180.0
  0
LINE
  5
4AC
330
1F
100
AcDbEntity
  8
0
  6
SLD-Solid
 62
     7
370
    25
100
AcDbLine
 10
47.6672435677
 20
27.8068798541
 30
0.0
 11
32.4172435677
 21
27.8068798541
 31
0.0
  0
ARC
  5
4AD
330
1F
100
AcDbEntity
  8
0
  6
SLD-Solid
 62
     7
370
    25
100
AcDbCircle
 10
47.6672435677
 20
27.4318798541
 30
0.0
 40
0.3750000000000071
100
AcDbArc
 50
0.0
 51
90.0
  0
CIRCLE
  5
4AE
330
1F
100
AcDbEntity
  8
0
  6
SLD-Solid
 62
     7
370
    25
100
AcDbCircle
 10
33.0422435677
 20
25.9318798541
 30
0.0
 40
0.0999999999999943
  0
CIRCLE
  5
4AF
330
1F
100
AcDbEntity
  8
0
  6
SLD-Solid
 62
     7
370
    25
100
AcDbCircle
 10
35.9172435677
 20
22.3688798541
 30
0.0
 40
0.1000000000000014
  0
CIRCLE
  5
4B0
330
1F
100
AcDbEntity
  8
0
  6
SLD-Solid
 62
     7
370
    25
100
AcDbCircle
 10
44.1672435677
 20
22.3688798541
 30
0.0
 40
0.1000000000000014
  0
CIRCLE
  5
4B1
330
1F
100
AcDbEntity
  8
0
  6
SLD-Solid
 62
     7
370
    25
100
AcDbCircle
 10
47.0422435677
 20
25.9318798541
 30
0.0
 40
0.1000000000000014
  0
ARC
  5
4B2
330
1F
100
AcDbEntity
  8
0
  6
SLD-Solid
 62
     7
370
    25
100
AcDbCircle
 10
47.6672435677
 20
21.1818798541
 30
0.0
 40
0.3750000000000213
100
AcDbArc
 50
270.0
 51
360.0
  0
LINE
  5
4B3
330
1F
100
AcDbEntity
  8
0
  6
SLD-Solid
 62
     7
370
    25
100
AcDbLine
 10
48.0422435677
 20
21.1818798541
 30
0.0
 11
48.0422435677
 21
27.4318798541
 31
0.0
  0
LINE
  5
4B4
330
1F
100
AcDbEntity
  8
0
  6
SLD-Solid
 62
     7
370
    25
100
AcDbLine
 10
44.8673685677
 20
20.8068798541
 30
0.0
 11
44.8673685677
 21
20.1213798541
 31
0.0
  0
LINE
  5
4B5
330
1F
100
AcDbEntity
  8
0
  6
SLD-Solid
 62
     7
370
    25
100
AcDbLine
 10
40.3673685677
 20
20.8068798541
 30
0.0
 11
40.3673685677
 21
20.1213798541
 31
0.0
  0
LINE
  5
4B6
330
1F
100
AcDbEntity
  8
0
  6
SLD-Solid
 62
     7
370
    25
100
AcDbLine
 10
35.2171185677
 20
20.2686640451
 30
0.0
 11
35.2171185677
 21
20.8068798541
 31
0.0
  0
LINE
  5
4B7
330
1F
100
AcDbEntity
  8
0
  6
SLD-Solid
 62
     7
370
    25
100
AcDbLine
 10
35.2171185677
 20
20.1213798541
 30
0.0
 11
35.2171185677
 21
20.2686640451
 31
0.0
  0
LINE
  5
4B8
330
1F
100
AcDbEntity
  8
0
  6
SLD-Solid
 62
     7
370
    25
100
AcDbLine
 10
39.7171185677
 20
20.2686640451
 30
0.0
 11
39.7171185677
 21
20.8068798541
 31
0.0
  0
LINE
  5
4B9
330
1F
100
AcDbEntity
  8
0
  6
SLD-Solid
 62
     7
370
    25
100
AcDbLine
 10
39.7171185677
 20
20.1213798541
 30
0.0
 11
39.7171185677
 21
20.2686640451
 31
0.0
  0
LINE
  5
4BA
330
1F
100
AcDbEntity
  8
0
  6
SLD-Solid
 62
     8
370
    25
100
AcDbLine
 10
48.0422435677
 20
26.6068798541
 30
0.0
 11
48.0539692489
 21
26.6068798541
 31
0.0
  0
LINE
  5
4BB
330
1F
100
AcDbEntity
  8
0
  6
SLD-Solid
 62
     8
370
    25
100
AcDbLine
 10
32.0422435677
 20
26.6068798541
 30
0.0
 11
32.0305178865
 21
26.6068798541
 31
0.0
  0
DIMENSION
  5
4BC
330
1F
100
AcDbEntity
  8
DIMS
100
AcDbDimension
  2
_D_5
 10
44.1672435677
 20
29.1454625313
 30
0.0
 11
40.3353438216
 21
29.1454625313
 31
0.0
 70
   160
  1
<>
 71
     2
 42
-1.0
  3
SLDDIMSTYLE2
100
AcDbAlignedDimension
 13
35.9172435677
 23
22.3688798541
 33
0.0
 14
44.1672435677
 24
22.3688798541
 34
0.0
100
AcDbRotatedDimension
  0
DIMENSION
  5
4CB
330
1F
100
AcDbEntity
  8
DIMS
100
AcDbDimension
  2
_D_6
 10
47.0422435677
 20
30.3265648935
 30
0.0
 11
40.0422435677
 21
30.3265648935
 31
0.0
 70
   160
  1
<>
 71
     2
 42
-1.0
  3
SLDDIMSTYLE0
100
AcDbAlignedDimension
 13
33.0422435677
 23
25.9318798541
 33
0.0
 14
47.0422435677
 24
25.9318798541
 34
0.0
100
AcDbRotatedDimension
  0
DIMENSION
  5
4D6
330
1F
100
AcDbEntity
  8
DIMS
100
AcDbDimension
  2
_D_7
 10
29.9831743826
 20
20.8068798541
 30
0.0
 11
29.9831743826
 21
23.0588411763
 31
0.0
 70
   160
  1
<>
 71
     2
 42
-1.0
  3
SLDDIMSTYLE2
100
AcDbAlignedDimension
 13
33.0422435677
 23
25.9318798541
 33
0.0
 14
32.4172435677
 24
20.8068798541
 34
0.0
 50
90.0
100
AcDbRotatedDimension
  0
DIMENSION
  5
4E5
330
1F
100
AcDbEntity
  8
DIMS
100
AcDbDimension
  2
_D_8
 10
30.9280562724
 20
20.8068798541
 30
0.0
 11
30.9280562724
 21
21.6194777455
 31
0.0
 70
   160
  1
<>
 71
     2
 42
-1.0
  3
SLDDIMSTYLE1
100
AcDbAlignedDimension
 13
35.9172435677
 23
22.3688798541
 33
0.0
 14
32.4172435677
 24
20.8068798541
 34
0.0
 50
90.0
100
AcDbRotatedDimension
  0
DIMENSION
  5
4F4
330
1F
100
AcDbEntity
  8
DIMS
100
AcDbDimension
  2
_D_9
 10
44.1931254722
 20
22.4654724368
 30
0.0
 11
38.7323607322
 21
17.9557133019
 31
0.0
 70
   163
  1
<> mounting hole (4)
 71
     1
 42
-1.0
  3
SLDDIMSTYLE3
100
AcDbDiametricDimension
 15
44.1413616632
 25
22.2722872715
 35
0.0
 40
0.0
  0
MTEXT
  5
502
330
1F
100
AcDbEntity
  8
NOTES
100
AcDbMText
 10
38.6957606955
 20
19.6568686536
 30
0.0
 40
0.5
 41
0.0
 71
     1
 72
     1
  1
Back view
  7
SLDTEXTSTYLE1
 73
     1
 44
1.0
  0
ENDSEC
  0
SECTION
  2
OBJECTS
  0
DICTIONARY
  5
C
330
0
100
AcDbDictionary
281
     1
  3
ACAD_GROUP
350
D
  3
ACAD_LAYOUT
350
1A
  3
ACAD_MLINESTYLE
350
17
  3
ACAD_PLOTSETTINGS
350
19
  3
ACAD_PLOTSTYLENAME
350
E
  3
ACAD_SCALELIST
350
47
  3
DWGPROPS
350
503
  0
DICTIONARY
  5
D
102
{ACAD_REACTORS
330
C
102
}
330
C
100
AcDbDictionary
281
     1
  0
DICTIONARY
  5
1A
102
{ACAD_REACTORS
330
C
102
}
330
C
100
AcDbDictionary
281
     1
  3
Layout1
350
1E
  3
Layout2
350
26
  3
Model
350
22
  0
DICTIONARY
  5
17
102
{ACAD_REACTORS
330
C
102
}
330
C
100
AcDbDictionary
281
     1
  3
Standard
350
18
  0
DICTIONARY
  5
19
102
{ACAD_REACTORS
330
C
102
}
330
C
100
AcDbDictionary
281
     1
  0
ACDBDICTIONARYWDFLT
  5
E
102
{ACAD_REACTORS
330
C
102
}
330
C
100
AcDbDictionary
281
     1
  3
Normal
350
F
100
AcDbDictionaryWithDefault
340
F
  0
DICTIONARY
  5
47
102
{ACAD_REACTORS
330
C
102
}
330
C
100
AcDbDictionary
281
     1
  3
A0
350
48
  3
A1
350
49
  3
A2
350
4A
  3
A3
350
4B
  3
A4
350
4C
  3
A5
350
4D
  3
A6
350
4E
  3
A7
350
4F
  3
A8
350
50
  3
A9
350
51
  3
B0
350
52
  3
B1
350
53
  3
B2
350
54
  3
B3
350
55
  3
B4
350
56
  3
B5
350
57
  3
B6
350
58
  3
B7
350
59
  3
B8
350
5A
  3
B9
350
5B
  3
C0
350
5C
  3
C1
350
5D
  3
C2
350
5E
  3
C3
350
5F
  3
C4
350
60
  3
C5
350
61
  3
C6
350
62
  3
C7
350
63
  3
C8
350
64
  3
C9
350
65
  3
D0
350
66
  3
D1
350
67
  3
D2
350
68
  0
XRECORD
  5
503
102
{ACAD_REACTORS
330
C
102
}
330
C
100
AcDbXrecord
280
     1
  1
DWGPROPS COOKIE
  2

  3

  4

  6

  7

  8
carl
  9

300
=
301
=
302
=
303
=
304
=
305
=
306
=
307
=
308
=
309
=
 40
0.0
 41
2459444.548069514
 42
2459444.548074757
  1

 90
        0
  0
LAYOUT
  5
1E
102
{ACAD_REACTORS
330
1A
102
}
330
1A
100
AcDbPlotSettings
  1

  2
none_device
  4

  6

 40
0.0
 41
0.0
 42
0.0
 43
0.0
 44
0.0
 45
0.0
 46
0.0
 47
0.0
 48
0.0
 49
0.0
140
0.0
141
0.0
142
1.0
143
1.0
 70
   688
 72
     0
 73
     0
 74
     5
  7

 75
    16
147
1.0
148
0.0
149
0.0
100
AcDbLayout
  1
Layout1
 70
     1
 71
     1
 10
0.0
 20
0.0
 11
12.0
 21
9.0
 12
0.0
 22
0.0
 32
0.0
 14
1.0000000000E+20
 24
1.0000000000E+20
 34
1.0000000000E+20
 15
-1.0000000000E+20
 25
-1.0000000000E+20
 35
-1.0000000000E+20
146
0.0
 13
0.0
 23
0.0
 33
0.0
 16
1.0
 26
0.0
 36
0.0
 17
0.0
 27
1.0
 37
0.0
 76
     0
330
1B
  0
LAYOUT
  5
26
102
{ACAD_REACTORS
330
1A
102
}
330
1A
100
AcDbPlotSettings
  1

  2
none_device
  4

  6

 40
0.0
 41
0.0
 42
0.0
 43
0.0
 44
0.0
 45
0.0
 46
0.0
 47
0.0
 48
0.0
 49
0.0
140
0.0
141
0.0
142
1.0
143
1.0
 70
   688
 72
     0
 73
     0
 74
     5
  7

 75
    16
147
1.0
148
0.0
149
0.0
100
AcDbLayout
  1
Layout2
 70
     1
 71
     2
 10
0.0
 20
0.0
 11
0.0
 21
0.0
 12
0.0
 22
0.0
 32
0.0
 14
0.0
 24
0.0
 34
0.0
 15
0.0
 25
0.0
 35
0.0
146
0.0
 13
0.0
 23
0.0
 33
0.0
 16
1.0
 26
0.0
 36
0.0
 17
0.0
 27
1.0
 37
0.0
 76
     0
330
23
  0
LAYOUT
  5
22
102
{ACAD_REACTORS
330
1A
102
}
330
1A
100
AcDbPlotSettings
  1

  2
none_device
  4
Letter_(8.50_x_11.00_Inches)
  6

 40
6.35
 41
6.35
 42
6.35000508
 43
6.35000508
 44
215.9
 45
279.4
 46
0.0
 47
0.0
 48
0.0
 49
0.0
140
0.0
141
0.0
142
1.0
143
1.0
 70
  1712
 72
     0
 73
     0
 74
     0
  7

 75
     0
147
1.0
148
0.0
149
0.0
100
AcDbLayout
  1
Model
 70
     1
 71
     0
 10
0.0
 20
0.0
 11
70.0
 21
50.0
 12
0.0
 22
0.0
 32
0.0
 14
0.0
 24
0.0
 34
0.0
 15
70.0
 25
50.0
 35
0.0
146
0.0
 13
0.0
 23
0.0
 33
0.0
 16
1.0
 26
0.0
 36
0.0
 17
0.0
 27
1.0
 37
0.0
 76
     0
330
1F
331
29
  0
MLINESTYLE
  5
18
102
{ACAD_REACTORS
330
17
102
}
330
17
100
AcDbMlineStyle
  2
Standard
 70
     0
  3

 62
   256
 51
90.0
 52
90.0
 71
     2
 49
0.5
 62
   256
  6
BYLAYER
 49
-0.5
 62
   256
  6
BYLAYER
  0
ACDBPLACEHOLDER
  5
F
102
{ACAD_REACTORS
330
E
102
}
330
E
  0
SCALE
  5
48
102
{ACAD_REACTORS
330
47
102
}
330
47
100
AcDbScale
 70
     0
300
1:1
140
1.0
141
1.0
290
     1
  0
SCALE
  5
49
102
{ACAD_REACTORS
330
47
102
}
330
47
100
AcDbScale
 70
     0
300
1:2
140
1.0
141
2.0
290
     0
  0
SCALE
  5
4A
102
{ACAD_REACTORS
330
47
102
}
330
47
100
AcDbScale
 70
     0
300
1:4
140
1.0
141
4.0
290
     0
  0
SCALE
  5
4B
102
{ACAD_REACTORS
330
47
102
}
330
47
100
AcDbScale
 70
     0
300
1:5
140
1.0
141
5.0
290
     0
  0
SCALE
  5
4C
102
{ACAD_REACTORS
330
47
102
}
330
47
100
AcDbScale
 70
     0
300
1:8
140
1.0
141
8.0
290
     0
  0
SCALE
  5
4D
102
{ACAD_REACTORS
330
47
102
}
330
47
100
AcDbScale
 70
     0
300
1:10
140
1.0
141
10.0
290
     0
  0
SCALE
  5
4E
102
{ACAD_REACTORS
330
47
102
}
330
47
100
AcDbScale
 70
     0
300
1:16
140
1.0
141
16.0
290
     0
  0
SCALE
  5
4F
102
{ACAD_REACTORS
330
47
102
}
330
47
100
AcDbScale
 70
     0
300
1:20
140
1.0
141
20.0
290
     0
  0
SCALE
  5
50
102
{ACAD_REACTORS
330
47
102
}
330
47
100
AcDbScale
 70
     0
300
1:30
140
1.0
141
30.0
290
     0
  0
SCALE
  5
51
102
{ACAD_REACTORS
330
47
102
}
330
47
100
AcDbScale
 70
     0
300
1:40
140
1.0
141
40.0
290
     0
  0
SCALE
  5
52
102
{ACAD_REACTORS
330
47
102
}
330
47
100
AcDbScale
 70
     0
300
1:50
140
1.0
141
50.0
290
     0
  0
SCALE
  5
53
102
{ACAD_REACTORS
330
47
102
}
330
47
100
AcDbScale
 70
     0
300
1:100
140
1.0
141
100.0
290
     0
  0
SCALE
  5
54
102
{ACAD_REACTORS
330
47
102
}
330
47
100
AcDbScale
 70
     0
300
2:1
140
2.0
141
1.0
290
     0
  0
SCALE
  5
55
102
{ACAD_REACTORS
330
47
102
}
330
47
100
AcDbScale
 70
     0
300
4:1
140
4.0
141
1.0
290
     0
  0
SCALE
  5
56
102
{ACAD_REACTORS
330
47
102
}
330
47
100
AcDbScale
 70
     0
300
8:1
140
8.0
141
1.0
290
     0
  0
SCALE
  5
57
102
{ACAD_REACTORS
330
47
102
}
330
47
100
AcDbScale
 70
     0
300
10:1
140
10.0
141
1.0
290
     0
  0
SCALE
  5
58
102
{ACAD_REACTORS
330
47
102
}
330
47
100
AcDbScale
 70
     0
300
100:1
140
100.0
141
1.0
290
     0
  0
SCALE
  5
59
102
{ACAD_REACTORS
330
47
102
}
330
47
100
AcDbScale
 70
     0
300
1/128" = 1'-0"
140
0.0078125
141
12.0
290
     0
  0
SCALE
  5
5A
102
{ACAD_REACTORS
330
47
102
}
330
47
100
AcDbScale
 70
     0
300
1/64" = 1'-0"
140
0.015625
141
12.0
290
     0
  0
SCALE
  5
5B
102
{ACAD_REACTORS
330
47
102
}
330
47
100
AcDbScale
 70
     0
300
1/32" = 1'-0"
140
0.03125
141
12.0
290
     0
  0
SCALE
  5
5C
102
{ACAD_REACTORS
330
47
102
}
330
47
100
AcDbScale
 70
     0
300
1/16" = 1'-0"
140
0.0625
141
12.0
290
     0
  0
SCALE
  5
5D
102
{ACAD_REACTORS
330
47
102
}
330
47
100
AcDbScale
 70
     0
300
3/32" = 1'-0"
140
0.09375
141
12.0
290
     0
  0
SCALE
  5
5E
102
{ACAD_REACTORS
330
47
102
}
330
47
100
AcDbScale
 70
     0
300
1/8" = 1'-0"
140
0.125
141
12.0
290
     0
  0
SCALE
  5
5F
102
{ACAD_REACTORS
330
47
102
}
330
47
100
AcDbScale
 70
     0
300
3/16" = 1'-0"
140
0.1875
141
12.0
290
     0
  0
SCALE
  5
60
102
{ACAD_REACTORS
330
47
102
}
330
47
100
AcDbScale
 70
     0
300
1/4" = 1'-0"
140
0.25
141
12.0
290
     0
  0
SCALE
  5
61
102
{ACAD_REACTORS
330
47
102
}
330
47
100
AcDbScale
 70
     0
300
3/8" = 1'-0"
140
0.375
141
12.0
290
     0
  0
SCALE
  5
62
102
{ACAD_REACTORS
330
47
102
}
330
47
100
AcDbScale
 70
     0
300
1/2" = 1'-0"
140
0.5
141
12.0
290
     0
  0
SCALE
  5
63
102
{ACAD_REACTORS
330
47
102
}
330
47
100
AcDbScale
 70
     0
300
3/4" = 1'-0"
140
0.75
141
12.0
290
     0
  0
SCALE
  5
64
102
{ACAD_REACTORS
330
47
102
}
330
47
100
AcDbScale
 70
     0
300
1" = 1'-0"
140
1.0
141
12.0
290
     0
  0
SCALE
  5
65
102
{ACAD_REACTORS
330
47
102
}
330
47
100
AcDbScale
 70
     0
300
1-1/2" = 1'-0"
140
1.5
141
12.0
290
     0
  0
SCALE
  5
66
102
{ACAD_REACTORS
330
47
102
}
330
47
100
AcDbScale
 70
     0
300
3" = 1'-0"
140
3.0
141
12.0
290
     0
  0
SCALE
  5
67
102
{ACAD_REACTORS
330
47
102
}
330
47
100
AcDbScale
 70
     0
300
6" = 1'-0"
140
6.0
141
12.0
290
     0
  0
SCALE
  5
68
102
{ACAD_REACTORS
330
47
102
}
330
47
100
AcDbScale
 70
     0
300
1'-0" = 1'-0"
140
12.0
141
12.0
290
     0
  0
ENDSEC
  0
EOF
