  0
SECTION
  2
HEADER
  9
$ACADVER
  1
AC1018
  9
$ACADMAINTVER
 70
    39
  9
$DWGCODEPAGE
  3
ANSI_1252
  9
$LASTSAVEDBY
  1
fottrem
  9
$INSBASE
 10
0.0
 20
0.0
 30
0.0
  9
$EXTMIN
 10
0.1653543307086614
 20
0.1653543307086614
 30
-2.981934347123715
  9
$EXTMAX
 10
48.83464566929134
 20
41.83464566929134
 30
1.304509271505606
  9
$LIMMIN
 10
0.0
 20
0.0
  9
$LIMMAX
 10
49.0
 20
42.0
  9
$ORTHOMODE
 70
     0
  9
$REGENMODE
 70
     1
  9
$FILLMODE
 70
     1
  9
$QTEXTMODE
 70
     0
  9
$MIRRTEXT
 70
     1
  9
$LTSCALE
 40
1.0
  9
$ATTMODE
 70
     1
  9
$TEXTSIZE
 40
0.3888888888888889
  9
$TRACEWID
 40
0.05
  9
$TEXTSTYLE
  7
Standard
  9
$CLAYER
  8
0
  9
$CELTYPE
  6
ByLayer
  9
$CECOLOR
 62
   256
  9
$CELTSCALE
 40
1.0
  9
$DISPSILH
 70
     0
  9
$DIMSCALE
 40
1.0
  9
$DIMASZ
 40
0.2
  9
$DIMEXO
 40
0.1666666666666667
  9
$DIMDLI
 40
0.38
  9
$DIMRND
 40
0.0
  9
$DIMDLE
 40
0.0
  9
$DIMEXE
 40
0.3750000000000001
  9
$DIMTP
 40
0.0
  9
$DIMTM
 40
0.0
  9
$DIMTXT
 40
0.3888888888888889
  9
$DIMCEN
 40
0.09
  9
$DIMTSZ
 40
0.0
  9
$DIMTOL
 70
     0
  9
$DIMLIM
 70
     0
  9
$DIMTIH
 70
     1
  9
$DIMTOH
 70
     1
  9
$DIMSE1
 70
     0
  9
$DIMSE2
 70
     0
  9
$DIMTAD
 70
     0
  9
$DIMZIN
 70
     1
  9
$DIMBLK
  1

  9
$DIMASO
 70
     1
  9
$DIMSHO
 70
     1
  9
$DIMPOST
  1

  9
$DIMAPOST
  1

  9
$DIMALT
 70
     0
  9
$DIMALTD
 70
     2
  9
$DIMALTF
 40
25.4
  9
$DIMLFAC
 40
1.0
  9
$DIMTOFL
 70
     0
  9
$DIMTVP
 40
0.0
  9
$DIMTIX
 70
     0
  9
$DIMSOXD
 70
     0
  9
$DIMSAH
 70
     0
  9
$DIMBLK1
  1

  9
$DIMBLK2
  1

  9
$DIMSTYLE
  2
Standard
  9
$DIMCLRD
 70
     0
  9
$DIMCLRE
 70
     0
  9
$DIMCLRT
 70
     0
  9
$DIMTFAC
 40
1.0
  9
$DIMGAP
 40
0.125
  9
$DIMJUST
 70
     0
  9
$DIMSD1
 70
     0
  9
$DIMSD2
 70
     0
  9
$DIMTOLJ
 70
     1
  9
$DIMTZIN
 70
     1
  9
$DIMALTZ
 70
     0
  9
$DIMALTTZ
 70
     0
  9
$DIMUPT
 70
     0
  9
$DIMDEC
 70
     2
  9
$DIMTDEC
 70
     2
  9
$DIMALTU
 70
     2
  9
$DIMALTTD
 70
     2
  9
$DIMTXSTY
  7
Standard
  9
$DIMAUNIT
 70
     0
  9
$DIMADEC
 70
     2
  9
$DIMALTRND
 40
0.0
  9
$DIMAZIN
 70
     0
  9
$DIMDSEP
 70
    46
  9
$DIMATFIT
 70
     3
  9
$DIMFRAC
 70
     0
  9
$DIMLDRBLK
  1

  9
$DIMLUNIT
 70
     2
  9
$DIMLWD
 70
    -2
  9
$DIMLWE
 70
    -2
  9
$DIMTMOVE
 70
     0
  9
$LUNITS
 70
     2
  9
$LUPREC
 70
     4
  9
$SKETCHINC
 40
0.1
  9
$FILLETRAD
 40
0.5
  9
$AUNITS
 70
     0
  9
$AUPREC
 70
     2
  9
$MENU
  1
.
  9
$ELEVATION
 40
0.0
  9
$PELEVATION
 40
0.0
  9
$THICKNESS
 40
0.0
  9
$LIMCHECK
 70
     0
  9
$CHAMFERA
 40
0.0
  9
$CHAMFERB
 40
0.0
  9
$CHAMFERC
 40
0.0
  9
$CHAMFERD
 40
0.0
  9
$SKPOLY
 70
     0
  9
$TDCREATE
 40
2453353.550459155
  9
$TDUCREATE
 40
2453353.717125822
  9
$TDUPDATE
 40
2459488.574904317
  9
$TDUUPDATE
 40
2459488.741570984
  9
$TDINDWG
 40
0.0427546412
  9
$TDUSRTIMER
 40
0.0427546412
  9
$USRTIMER
 70
     1
  9
$ANGBASE
 50
0.0
  9
$ANGDIR
 70
     0
  9
$PDMODE
 70
     0
  9
$PDSIZE
 40
-1.0
  9
$PLINEWID
 40
0.0
  9
$SPLFRAME
 70
     0
  9
$SPLINETYPE
 70
     6
  9
$SPLINESEGS
 70
     8
  9
$HANDSEED
  5
3DA
  9
$SURFTAB1
 70
     6
  9
$SURFTAB2
 70
     6
  9
$SURFTYPE
 70
     6
  9
$SURFU
 70
     6
  9
$SURFV
 70
     6
  9
$UCSBASE
  2

  9
$UCSNAME
  2

  9
$UCSORG
 10
0.0
 20
0.0
 30
0.0
  9
$UCSXDIR
 10
1.0
 20
0.0
 30
0.0
  9
$UCSYDIR
 10
0.0
 20
1.0
 30
0.0
  9
$UCSORTHOREF
  2

  9
$UCSORTHOVIEW
 70
     0
  9
$UCSORGTOP
 10
0.0
 20
0.0
 30
0.0
  9
$UCSORGBOTTOM
 10
0.0
 20
0.0
 30
0.0
  9
$UCSORGLEFT
 10
0.0
 20
0.0
 30
0.0
  9
$UCSORGRIGHT
 10
0.0
 20
0.0
 30
0.0
  9
$UCSORGFRONT
 10
0.0
 20
0.0
 30
0.0
  9
$UCSORGBACK
 10
0.0
 20
0.0
 30
0.0
  9
$PUCSBASE
  2

  9
$PUCSNAME
  2

  9
$PUCSORG
 10
0.0
 20
0.0
 30
0.0
  9
$PUCSXDIR
 10
1.0
 20
0.0
 30
0.0
  9
$PUCSYDIR
 10
0.0
 20
1.0
 30
0.0
  9
$PUCSORTHOREF
  2

  9
$PUCSORTHOVIEW
 70
     0
  9
$PUCSORGTOP
 10
0.0
 20
0.0
 30
0.0
  9
$PUCSORGBOTTOM
 10
0.0
 20
0.0
 30
0.0
  9
$PUCSORGLEFT
 10
0.0
 20
0.0
 30
0.0
  9
$PUCSORGRIGHT
 10
0.0
 20
0.0
 30
0.0
  9
$PUCSORGFRONT
 10
0.0
 20
0.0
 30
0.0
  9
$PUCSORGBACK
 10
0.0
 20
0.0
 30
0.0
  9
$USERI1
 70
     0
  9
$USERI2
 70
     0
  9
$USERI3
 70
     0
  9
$USERI4
 70
     0
  9
$USERI5
 70
     0
  9
$USERR1
 40
0.0
  9
$USERR2
 40
0.0
  9
$USERR3
 40
0.0
  9
$USERR4
 40
0.0
  9
$USERR5
 40
0.0
  9
$WORLDVIEW
 70
     1
  9
$SHADEDGE
 70
     3
  9
$SHADEDIF
 70
    70
  9
$TILEMODE
 70
     1
  9
$MAXACTVP
 70
    64
  9
$PINSBASE
 10
0.0
 20
0.0
 30
0.0
  9
$PLIMCHECK
 70
     0
  9
$PEXTMIN
 10
1.000000000000000E+20
 20
1.000000000000000E+20
 30
1.000000000000000E+20
  9
$PEXTMAX
 10
-1.000000000000000E+20
 20
-1.000000000000000E+20
 30
-1.000000000000000E+20
  9
$PLIMMIN
 10
0.0
 20
0.0
  9
$PLIMMAX
 10
12.0
 20
9.0
  9
$UNITMODE
 70
     0
  9
$VISRETAIN
 70
     1
  9
$PLINEGEN
 70
     0
  9
$PSLTSCALE
 70
     1
  9
$TREEDEPTH
 70
  3020
  9
$CMLSTYLE
  2
Standard
  9
$CMLJUST
 70
     0
  9
$CMLSCALE
 40
1.0
  9
$PROXYGRAPHICS
 70
     1
  9
$MEASUREMENT
 70
     0
  9
$CELWEIGHT
370
    -1
  9
$ENDCAPS
280
     0
  9
$JOINSTYLE
280
     0
  9
$LWDISPLAY
290
     1
  9
$INSUNITS
 70
     1
  9
$HYPERLINKBASE
  1

  9
$STYLESHEET
  1

  9
$XEDIT
290
     0
  9
$CEPSNTYPE
380
     0
  9
$PSTYLEMODE
290
     1
  9
$FINGERPRINTGUID
  2
{b44357e8-00fe-4e45-9071-1484514cc70d}
  9
$VERSIONGUID
  2
{FAEB1C32-E019-11D5-929B-00C0DF256EC4}
  9
$EXTNAMES
290
     1
  9
$PSVPSCALE
 40
0.0
  9
$OLESTARTUP
290
     0
  9
$SORTENTS
280
   127
  9
$INDEXCTL
280
     0
  9
$HIDETEXT
280
     1
  9
$XCLIPFRAME
290
     0
  9
$HALOGAP
280
     0
  9
$OBSCOLOR
 70
   257
  9
$OBSLTYPE
280
     0
  9
$INTERSECTIONDISPLAY
280
     0
  9
$INTERSECTIONCOLOR
 70
   257
  9
$DIMASSOC
280
     2
  9
$PROJECTNAME
  1

  0
ENDSEC
  0
SECTION
  2
CLASSES
  0
CLASS
  1
ACDBDICTIONARYWDFLT
  2
AcDbDictionaryWithDefault
  3
ObjectDBX Classes
 90
        0
 91
        3
280
     0
281
     0
  0
CLASS
  1
ACDBPLACEHOLDER
  2
AcDbPlaceHolder
  3
ObjectDBX Classes
 90
        0
 91
        1
280
     0
281
     0
  0
CLASS
  1
LAYOUT
  2
AcDbLayout
  3
ObjectDBX Classes
 90
        0
 91
        1
280
     0
281
     0
  0
CLASS
  1
DICTIONARYVAR
  2
AcDbDictionaryVar
  3
ObjectDBX Classes
 90
        0
 91
        3
280
     0
281
     0
  0
CLASS
  1
TABLESTYLE
  2
AcDbTableStyle
  3
ObjectDBX Classes
 90
     2047
 91
        3
280
     0
281
     0
  0
CLASS
  1
SCALE
  2
AcDbScale
  3
ObjectDBX Classes
 90
     1153
 91
       67
280
     1
281
     0
  0
ENDSEC
  0
SECTION
  2
TABLES
  0
TABLE
  2
VPORT
  5
8
330
0
100
AcDbSymbolTable
 70
     2
  0
VPORT
  5
97
330
8
100
AcDbSymbolTableRecord
100
AcDbViewportTableRecord
  2
*Active
 70
     0
 10
0.0
 20
0.0
 11
1.0
 21
1.0
 12
24.5
 22
21.0
 13
0.0
 23
0.0
 14
0.5
 24
0.5
 15
0.5
 25
0.5
 16
0.0
 26
0.0
 36
1.0
 17
0.0
 27
0.0
 37
0.0
 40
42.50267716535433
 41
1.166666666666667
 42
50.0
 43
0.0
 44
0.0
 50
0.0
 51
0.0
 71
    16
 72
  2000
 73
     1
 74
     1
 75
     0
 76
     0
 77
     0
 78
     0
281
     0
 65
     0
110
0.0
120
0.0
130
0.0
111
1.0
121
0.0
131
0.0
112
0.0
122
1.0
132
0.0
 79
     0
146
0.0
  0
ENDTAB
  0
TABLE
  2
LTYPE
  5
5
330
0
100
AcDbSymbolTable
 70
     8
  0
LTYPE
  5
14
330
5
100
AcDbSymbolTableRecord
100
AcDbLinetypeTableRecord
  2
ByBlock
 70
     0
  3

 72
    65
 73
     0
 40
0.0
  0
LTYPE
  5
15
330
5
100
AcDbSymbolTableRecord
100
AcDbLinetypeTableRecord
  2
ByLayer
 70
     0
  3

 72
    65
 73
     0
 40
0.0
  0
LTYPE
  5
16
330
5
100
AcDbSymbolTableRecord
100
AcDbLinetypeTableRecord
  2
Continuous
 70
     0
  3
Solid line
 72
    65
 73
     0
 40
0.0
  0
LTYPE
  5
3AE
330
5
100
AcDbSymbolTableRecord
100
AcDbLinetypeTableRecord
  2
SLD-Solid
 70
     0
  3
SolidWorks Line Style
 72
    65
 73
     0
 40
0.0
  0
LTYPE
  5
3AF
330
5
100
AcDbSymbolTableRecord
100
AcDbLinetypeTableRecord
  2
SLD-Dashed
 70
     0
  3
SolidWorks Line Style
 72
    65
 73
     2
 40
0.075
 49
0.05
 74
     4
 75
     0
340
0
 46
1.0
 50
0.0
 44
0.0
 45
0.0
 49
-0.025
 74
     4
 75
     0
340
0
 46
1.0
 50
0.0
 44
0.0
 45
0.0
  0
LTYPE
  5
3B0
330
5
100
AcDbSymbolTableRecord
100
AcDbLinetypeTableRecord
  2
SLD-Phantom
 70
     0
  3
SolidWorks Line Style
 72
    65
 73
     6
 40
0.4999999999999999
 49
0.25
 74
     4
 75
     0
340
0
 46
1.0
 50
0.0
 44
0.0
 45
0.0
 49
-0.05
 74
     4
 75
     0
340
0
 46
1.0
 50
0.0
 44
0.0
 45
0.0
 49
0.05
 74
     4
 75
     0
340
0
 46
1.0
 50
0.0
 44
0.0
 45
0.0
 49
-0.05
 74
     4
 75
     0
340
0
 46
1.0
 50
0.0
 44
0.0
 45
0.0
 49
0.05
 74
     4
 75
     0
340
0
 46
1.0
 50
0.0
 44
0.0
 45
0.0
 49
-0.05
 74
     4
 75
     0
340
0
 46
1.0
 50
0.0
 44
0.0
 45
0.0
  0
LTYPE
  5
3B1
330
5
100
AcDbSymbolTableRecord
100
AcDbLinetypeTableRecord
  2
SLD-Chain
 70
     0
  3
SolidWorks Line Style
 72
    65
 73
     4
 40
0.4
 49
0.25
 74
     4
 75
     0
340
0
 46
1.0
 50
0.0
 44
0.0
 45
0.0
 49
-0.05
 74
     4
 75
     0
340
0
 46
1.0
 50
0.0
 44
0.0
 45
0.0
 49
0.05
 74
     4
 75
     0
340
0
 46
1.0
 50
0.0
 44
0.0
 45
0.0
 49
-0.05
 74
     4
 75
     0
340
0
 46
1.0
 50
0.0
 44
0.0
 45
0.0
  0
LTYPE
  5
3B2
330
5
100
AcDbSymbolTableRecord
100
AcDbLinetypeTableRecord
  2
SLD-Center
 70
     0
  3
SolidWorks Line Style
 72
    65
 73
     4
 40
0.7500000000000002
 49
0.6000000000000001
 74
     4
 75
     0
340
0
 46
1.0
 50
0.0
 44
0.0
 45
0.0
 49
-0.05
 74
     4
 75
     0
340
0
 46
1.0
 50
0.0
 44
0.0
 45
0.0
 49
0.05
 74
     4
 75
     0
340
0
 46
1.0
 50
0.0
 44
0.0
 45
0.0
 49
-0.05
 74
     4
 75
     0
340
0
 46
1.0
 50
0.0
 44
0.0
 45
0.0
  0
LTYPE
  5
3B3
330
5
100
AcDbSymbolTableRecord
100
AcDbLinetypeTableRecord
  2
SLD-Stitch
 70
     0
  3
SolidWorks Line Style
 72
    65
 73
     2
 40
0.025
 49
0.0
 74
     4
 75
     0
340
0
 46
1.0
 50
0.0
 44
0.0
 45
0.0
 49
-0.025
 74
     4
 75
     0
340
0
 46
1.0
 50
0.0
 44
0.0
 45
0.0
  0
LTYPE
  5
3B4
330
5
100
AcDbSymbolTableRecord
100
AcDbLinetypeTableRecord
  2
SLD-Thin-Thick-Chain
 70
     0
  3
SolidWorks Line Style
 72
    65
 73
     4
 40
0.4
 49
0.25
 74
     4
 75
     0
340
0
 46
1.0
 50
0.0
 44
0.0
 45
0.0
 49
-0.05
 74
     4
 75
     0
340
0
 46
1.0
 50
0.0
 44
0.0
 45
0.0
 49
0.05
 74
     4
 75
     0
340
0
 46
1.0
 50
0.0
 44
0.0
 45
0.0
 49
-0.05
 74
     4
 75
     0
340
0
 46
1.0
 50
0.0
 44
0.0
 45
0.0
  0
ENDTAB
  0
TABLE
  2
LAYER
  5
2
330
0
100
AcDbSymbolTable
 70
     6
  0
LAYER
  5
10
330
2
100
AcDbSymbolTableRecord
100
AcDbLayerTableRecord
  2
0
 70
     0
 62
     7
  6
Continuous
370
    -3
390
F
  0
LAYER
  5
3B5
330
2
100
AcDbSymbolTableRecord
100
AcDbLayerTableRecord
  2
FORMAT
 70
     0
 62
     7
  6
SLD-Solid
370
    -3
390
F
  0
LAYER
  5
3B6
330
2
100
AcDbSymbolTableRecord
100
AcDbLayerTableRecord
  2
NOTES
 70
     0
 62
     1
  6
SLD-Solid
370
    -3
390
F
  0
LAYER
  5
77
330
2
100
AcDbSymbolTableRecord
100
AcDbLayerTableRecord
  2
OBJECT
 70
     0
 62
     7
  6
SLD-Solid
370
    -3
390
F
  0
LAYER
  5
78
330
2
100
AcDbSymbolTableRecord
100
AcDbLayerTableRecord
  2
DIMS
 70
     0
 62
     5
  6
SLD-Solid
370
    -3
390
F
  0
LAYER
  5
79
330
2
100
AcDbSymbolTableRecord
100
AcDbLayerTableRecord
  2
TITLE
 70
     0
 62
     8
  6
SLD-Solid
370
    -3
390
F
  0
ENDTAB
  0
TABLE
  2
STYLE
  5
3
330
0
100
AcDbSymbolTable
 70
     5
  0
STYLE
  5
11
330
3
100
AcDbSymbolTableRecord
100
AcDbTextStyleTableRecord
  2
Standard
 70
     0
 40
0.0
 41
1.0
 50
0.0
 71
     0
 42
0.3888888888888889
  3
GOTHIC.TTF
  4

1001
ACAD
1000
CENTURY GOTHIC
1071
       34
  0
STYLE
  5
E1
330
3
100
AcDbSymbolTableRecord
100
AcDbTextStyleTableRecord
  2
SLDTEXTSTYLE0
 70
     0
 40
0.0
 41
0.948
 50
0.0
 71
     0
 42
0.3888888888888889
  3
ARIAL.TTF
  4

1001
ACAD
1000
Arial
1071
      290
  0
STYLE
  5
E5
330
3
100
AcDbSymbolTableRecord
100
AcDbTextStyleTableRecord
  2
SLDTEXTSTYLE1
 70
     0
 40
0.0
 41
0.913
 50
0.0
 71
     0
 42
0.3888888888888889
  3
GOTHIC.TTF
  4

1001
ACAD
1000
Century Gothic
1071
      290
  0
STYLE
  5
F4
330
3
100
AcDbSymbolTableRecord
100
AcDbTextStyleTableRecord
  2
SLDTEXTSTYLE2
 70
     0
 40
0.0
 41
0.87
 50
0.0
 71
     0
 42
0.3888888888888889
  3
ARIALNB.TTF
  4

1001
ACAD
1000
Arial Narrow
1071
 33554722
  0
STYLE
  5
F6
330
3
100
AcDbSymbolTableRecord
100
AcDbTextStyleTableRecord
  2
SLDTEXTSTYLE3
 70
     0
 40
0.0
 41
0.87
 50
0.0
 71
     0
 42
0.3888888888888889
  3
ARIALN.TTF
  4

1001
ACAD
1000
Arial Narrow
1071
      290
  0
ENDTAB
  0
TABLE
  2
VIEW
  5
6
330
0
100
AcDbSymbolTable
 70
     0
  0
ENDTAB
  0
TABLE
  2
UCS
  5
7
330
0
100
AcDbSymbolTable
 70
     0
  0
ENDTAB
  0
TABLE
  2
APPID
  5
9
330
0
100
AcDbSymbolTable
 70
     1
  0
APPID
  5
12
330
9
100
AcDbSymbolTableRecord
100
AcDbRegAppTableRecord
  2
ACAD
 70
     0
  0
ENDTAB
  0
TABLE
  2
DIMSTYLE
  5
A
330
0
100
AcDbSymbolTable
 70
     5
100
AcDbDimStyleTable
  0
DIMSTYLE
105
27
330
A
100
AcDbSymbolTableRecord
100
AcDbDimStyleTableRecord
  2
Standard
 70
     0
340
11
  0
DIMSTYLE
105
23E
102
{ACAD_REACTORS
330
23D
330
261
102
}
330
A
100
AcDbSymbolTableRecord
100
AcDbDimStyleTableRecord
  2
SLDDIMSTYLE0
 70
     0
 41
0.2
 44
0.0
 45
0.000000001
 78
    12
 79
     3
140
0.2916666666666666
147
0.0729166666666667
173
     1
271
     2
272
     2
276
     2
277
     5
284
    12
340
E5
341
3B7
343
3B7
344
3B7
  0
DIMSTYLE
105
252
102
{ACAD_REACTORS
330
251
330
295
330
332
330
37A
330
389
102
}
330
A
100
AcDbSymbolTableRecord
100
AcDbDimStyleTableRecord
  2
SLDDIMSTYLE1
 70
     0
 41
0.2
 44
0.0
 45
0.000000001
 78
    12
 79
     3
140
0.2916666666666666
147
0.0729166666666667
173
     1
271
     6
272
     2
276
     2
277
     5
284
    12
340
E5
341
3B7
343
3B7
344
3B7
  0
DIMSTYLE
105
26D
330
A
100
AcDbSymbolTableRecord
100
AcDbDimStyleTableRecord
  2
SLDDIMSTYLE2
 70
     0
 41
0.2
 44
0.0
 45
0.000000001
146
0.2
147
0.0
173
     1
271
     0
272
     0
276
     2
277
     5
340
11
341
3B7
343
3B7
344
3B7
  0
DIMSTYLE
105
399
102
{ACAD_REACTORS
330
398
102
}
330
A
100
AcDbSymbolTableRecord
100
AcDbDimStyleTableRecord
  2
SLDDIMSTYLE3
 70
     0
 41
0.2
 44
0.0
 45
0.000000001
 78
    12
 79
     3
140
0.2916666666666666
141
0.0
147
0.0729166666666667
173
     1
271
     2
272
     2
276
     2
277
     5
284
    12
340
E5
341
3B7
343
3B7
344
3B7
  0
ENDTAB
  0
TABLE
  2
BLOCK_RECORD
  5
1
330
0
100
AcDbSymbolTable
 70
    12
  0
BLOCK_RECORD
  5
1F
330
1
100
AcDbSymbolTableRecord
100
AcDbBlockTableRecord
  2
*Model_Space
340
22
  0
BLOCK_RECORD
  5
73
330
1
100
AcDbSymbolTableRecord
100
AcDbBlockTableRecord
  2
*Paper_Space
340
74
  0
BLOCK_RECORD
  5
3B7
330
1
100
AcDbSymbolTableRecord
100
AcDbBlockTableRecord
  2
_Open90
340
0
102
{BLKREFS
331
248
331
249
331
256
331
257
331
265
331
266
331
299
331
29A
331
336
331
337
331
37E
331
37F
331
38D
331
38E
331
39D
102
}
  0
BLOCK_RECORD
  5
23
330
1
100
AcDbSymbolTableRecord
100
AcDbBlockTableRecord
  2
*Paper_Space1
340
26
  0
BLOCK_RECORD
  5
EB
330
1
100
AcDbSymbolTableRecord
100
AcDbBlockTableRecord
  2
SW_NOTE_0
340
0
  0
BLOCK_RECORD
  5
F1
330
1
100
AcDbSymbolTableRecord
100
AcDbBlockTableRecord
  2
SW_NOTE_0_1
340
0
102
{BLKREFS
331
FA
102
}
  0
BLOCK_RECORD
  5
245
330
1
100
AcDbSymbolTableRecord
100
AcDbBlockTableRecord
  2
_D
340
0
  0
BLOCK_RECORD
  5
253
330
1
100
AcDbSymbolTableRecord
100
AcDbBlockTableRecord
  2
_D_1
340
0
  0
BLOCK_RECORD
  5
262
330
1
100
AcDbSymbolTableRecord
100
AcDbBlockTableRecord
  2
_D_2
340
0
  0
BLOCK_RECORD
  5
296
330
1
100
AcDbSymbolTableRecord
100
AcDbBlockTableRecord
  2
_D_3
340
0
  0
BLOCK_RECORD
  5
333
330
1
100
AcDbSymbolTableRecord
100
AcDbBlockTableRecord
  2
_D_4
340
0
  0
BLOCK_RECORD
  5
37B
330
1
100
AcDbSymbolTableRecord
100
AcDbBlockTableRecord
  2
_D_5
340
0
  0
BLOCK_RECORD
  5
38A
330
1
100
AcDbSymbolTableRecord
100
AcDbBlockTableRecord
  2
_D_6
340
0
  0
BLOCK_RECORD
  5
39A
330
1
100
AcDbSymbolTableRecord
100
AcDbBlockTableRecord
  2
_D_7
340
0
  0
ENDTAB
  0
ENDSEC
  0
SECTION
  2
BLOCKS
  0
BLOCK
  5
20
330
1F
100
AcDbEntity
  8
0
100
AcDbBlockBegin
  2
*Model_Space
 70
     0
 71
     0
 10
0.0
 20
0.0
 30
0.0
  3
*Model_Space
  1

  0
ENDBLK
  5
21
330
1F
100
AcDbEntity
  8
0
100
AcDbBlockEnd
  0
BLOCK
  5
75
330
73
100
AcDbEntity
 67
     1
  8
0
100
AcDbBlockBegin
  2
*Paper_Space
 70
     0
 71
     0
 10
0.0
 20
0.0
 30
0.0
  3
*Paper_Space
  1

  0
ENDBLK
  5
76
330
73
100
AcDbEntity
 67
     1
  8
0
100
AcDbBlockEnd
  0
BLOCK
  5
3B8
330
3B7
100
AcDbEntity
  8
0
100
AcDbBlockBegin
  2
_Open90
 70
     0
 71
     0
 10
0.0
 20
0.0
 30
0.0
  3
_Open90
  1

  0
LINE
  5
242
330
3B7
100
AcDbEntity
  8
0
  6
ByBlock
 62
     0
370
    -2
100
AcDbLine
 10
-0.5
 20
0.5
 30
0.0
 11
0.0
 21
0.0
 31
0.0
  0
LINE
  5
243
330
3B7
100
AcDbEntity
  8
0
  6
ByBlock
 62
     0
370
    -2
100
AcDbLine
 10
0.0
 20
0.0
 30
0.0
 11
-0.5
 21
-0.5
 31
0.0
  0
LINE
  5
244
330
3B7
100
AcDbEntity
  8
0
  6
ByBlock
 62
     0
370
    -2
100
AcDbLine
 10
0.0
 20
0.0
 30
0.0
 11
-1.0
 21
0.0
 31
0.0
  0
ENDBLK
  5
3B9
330
3B7
100
AcDbEntity
  8
0
100
AcDbBlockEnd
  0
BLOCK
  5
3C0
330
23
100
AcDbEntity
  8
0
100
AcDbBlockBegin
  2
*Paper_Space1
 70
     0
 71
     0
 10
0.0
 20
0.0
 30
0.0
  3
*Paper_Space1
  1

  0
ENDBLK
  5
3C1
330
23
100
AcDbEntity
  8
0
100
AcDbBlockEnd
  0
BLOCK
  5
3C2
330
EB
100
AcDbEntity
  8
0
100
AcDbBlockBegin
  2
SW_NOTE_0
 70
     0
 71
     0
 10
0.0
 20
0.0
 30
0.0
  3
SW_NOTE_0
  1

  0
MTEXT
  5
EE
330
EB
100
AcDbEntity
  8
NOTES
 62
     0
100
AcDbMText
 10
0.0
 20
0.3759780907668229
 30
0.0
 40
0.2916666666666666
 41
0.0
 71
     1
 72
     1
  1
FROST PRODUCTS LTD.
  7
SLDTEXTSTYLE0
 73
     1
 44
1.0
  0
MTEXT
  5
EF
330
EB
100
AcDbEntity
  8
NOTES
 62
     0
100
AcDbMText
 10
0.0
 20
-0.0495142708586375
 30
0.0
 40
0.2291666666666666
 41
0.0
 71
     1
 72
     1
  1
5280 JOHN LUCUS DRIVE, BURLINGTON, ON, L7L 5Z9
  7
SLDTEXTSTYLE0
 73
     1
 44
1.0
  0
ENDBLK
  5
3C3
330
EB
100
AcDbEntity
  8
0
100
AcDbBlockEnd
  0
BLOCK
  5
3C4
330
F1
100
AcDbEntity
  8
0
100
AcDbBlockBegin
  2
SW_NOTE_0_1
 70
     0
 71
     0
 10
0.0
 20
0.0
 30
0.0
  3
SW_NOTE_0_1
  1

  0
MTEXT
  5
F5
330
F1
100
AcDbEntity
  8
NOTES
 62
     0
100
AcDbMText
 10
0.0
 20
0.2381282770514712
 30
0.0
 40
0.1847290640394089
 41
0.0
 71
     1
 72
     1
  1
PROPRIETARY AND CONFIDENTIAL
  7
SLDTEXTSTYLE2
 73
     1
 44
1.0
  0
MTEXT
  5
F7
330
F1
100
AcDbEntity
  8
NOTES
 62
     0
100
AcDbMText
 10
0.0
 20
-0.0504364795553608
 30
0.0
 40
0.25
 41
0.0
 71
     1
 72
     1
  1
THE INFORMATION CONTAINED IN THIS DRAWING IS THE SOLE PROPERTY OF 
  7
SLDTEXTSTYLE3
 73
     1
 44
1.0
  0
MTEXT
  5
F8
330
F1
100
AcDbEntity
  8
NOTES
 62
     0
100
AcDbMText
 10
0.0
 20
-0.4231398940537119
 30
0.0
 40
0.25
 41
0.0
 71
     1
 72
     1
  1
FROST PRODUCTS LTD.  ANY REPRODUCTION IN PART OR AS A WHOLE WITHOUT 
  7
SLDTEXTSTYLE3
 73
     1
 44
1.0
  0
MTEXT
  5
F9
330
F1
100
AcDbEntity
  8
NOTES
 62
     0
100
AcDbMText
 10
0.0
 20
-0.7958433085520636
 30
0.0
 40
0.25
 41
0.0
 71
     1
 72
     1
  1
THE WRITTEN PERMISSION OF FROST PRODUCTS LTD. IS PROHIBITED.
  7
SLDTEXTSTYLE3
 73
     1
 44
1.0
  0
ENDBLK
  5
3C5
330
F1
100
AcDbEntity
  8
0
100
AcDbBlockEnd
  0
BLOCK
  5
3C6
330
245
100
AcDbEntity
  8
0
100
AcDbBlockBegin
  2
_D
 70
     0
 71
     0
 10
0.0
 20
0.0
 30
0.0
  3
_D
  1

  0
INSERT
  5
248
330
245
100
AcDbEntity
  8
DIMS
100
AcDbBlockReference
  2
_Open90
 10
5.887165677418772
 20
7.388045325920054
 30
0.0
 41
0.2
 42
0.2
 50
270.0000000000004
  0
INSERT
  5
249
330
245
100
AcDbEntity
  8
DIMS
100
AcDbBlockReference
  2
_Open90
 10
5.887165677418772
 20
12.33804532592006
 30
0.0
 41
0.2
 42
0.2
 50
90.00000000000041
  0
LINE
  5
24A
330
245
100
AcDbEntity
  8
DIMS
100
AcDbLine
 10
5.721042996521898
 20
7.388045325920054
 30
0.0
 11
5.512165677418772
 21
7.388045325920054
 31
0.0
  0
LINE
  5
24B
330
245
100
AcDbEntity
  8
DIMS
100
AcDbLine
 10
7.843642017747626
 20
12.33804532592006
 30
0.0
 11
5.512165677418772
 21
12.33804532592006
 31
0.0
  0
LINE
  5
24C
330
245
100
AcDbEntity
  8
DIMS
100
AcDbLine
 10
5.887165677418772
 20
7.388045325920054
 30
0.0
 11
5.887165677418772
 21
7.479305400201275
 31
0.0
  0
LINE
  5
24D
330
245
100
AcDbEntity
  8
DIMS
100
AcDbLine
 10
5.887165677418772
 20
12.33804532592006
 30
0.0
 11
5.887165677418772
 21
8.869583152927376
 31
0.0
  0
MTEXT
  5
24E
330
245
100
AcDbEntity
  8
DIMS
100
AcDbMText
 10
-9.277065544088144
 20
8.77871582604649
 30
0.0
 40
0.2916666666666666
 41
0.0
 71
     1
 72
     1
  1
                                                                                                                                           44" (1117mm) Max height from bottom of dispenser to floor for unrestricted access
  7
SLDTEXTSTYLE1
 73
     1
 44
1.0
  0
MTEXT
  5
24F
330
245
100
AcDbEntity
  8
DIMS
100
AcDbMText
 10
5.83342339200424
 20
8.315289896249043
 30
0.0
 40
0.2916666666666666
 41
0.0
 71
     1
 72
     1
  1
 
  7
SLDTEXTSTYLE1
 73
     1
 44
1.0
  0
MTEXT
  5
250
330
245
100
AcDbEntity
  8
DIMS
100
AcDbMText
 10
5.83342339200424
 20
7.851863966451596
 30
0.0
 40
0.2916666666666666
 41
0.0
 71
     1
 72
     1
  1
 
  7
SLDTEXTSTYLE1
 73
     1
 44
1.0
  0
ENDBLK
  5
3C7
330
245
100
AcDbEntity
  8
0
100
AcDbBlockEnd
  0
BLOCK
  5
3C8
330
253
100
AcDbEntity
  8
0
100
AcDbBlockBegin
  2
_D_1
 70
     0
 71
     0
 10
0.0
 20
0.0
 30
0.0
  3
_D_1
  1

  0
INSERT
  5
256
330
253
100
AcDbEntity
  8
DIMS
100
AcDbBlockReference
  2
_Open90
 10
15.91308251417284
 20
18.70298686576168
 30
-2.981934347123715
 41
0.2
 42
0.2
 50
90.00000000000041
  0
INSERT
  5
257
330
253
100
AcDbEntity
  8
DIMS
100
AcDbBlockReference
  2
_Open90
 10
15.91308251417284
 20
11.38804532592005
 30
-2.981934347123715
 41
0.2
 42
0.2
 50
270.0000000000004
  0
LINE
  5
258
330
253
100
AcDbEntity
  8
DIMS
100
AcDbLine
 10
15.70216432321778
 20
15.08996929512494
 30
0.0
 11
16.21906245029984
 21
15.08996929512494
 31
0.0
  0
LINE
  5
259
330
253
100
AcDbEntity
  8
DIMS
100
AcDbLine
 10
14.41927380871749
 20
18.70298686576168
 30
0.0
 11
16.28808251417284
 21
18.70298686576168
 31
0.0
  0
LINE
  5
25A
330
253
100
AcDbEntity
  8
DIMS
100
AcDbLine
 10
14.6402738087175
 20
11.38804532592005
 30
0.0
 11
16.28808251417284
 21
11.38804532592005
 31
0.0
  0
LINE
  5
25B
330
253
100
AcDbEntity
  8
DIMS
100
AcDbLine
 10
15.91308251417284
 20
18.70298686576168
 30
0.0
 11
15.91308251417284
 21
15.45309429527394
 31
0.0
  0
LINE
  5
25C
330
253
100
AcDbEntity
  8
DIMS
100
AcDbLine
 10
15.91308251417284
 20
11.38804532592005
 30
0.0
 11
15.91308251417284
 21
14.66672855943802
 31
0.0
  0
MTEXT
  5
25D
330
253
100
AcDbEntity
  8
DIMS
100
AcDbMText
 10
15.44371525967675
 20
15.2165556878668
 30
0.0
 40
0.2916666666666666
 41
0.0
 71
     1
 72
     1
  1
7
  7
SLDTEXTSTYLE1
 73
     1
 44
1.0
  0
MTEXT
  5
25E
330
253
100
AcDbEntity
  8
DIMS
100
AcDbMText
 10
15.85285875988279
 20
15.4367639956683
 30
0.0
 40
0.2916666666666666
 41
0.0
 71
     1
 72
     1
  1
5
  7
SLDTEXTSTYLE1
 73
     1
 44
1.0
  0
MTEXT
  5
25F
330
253
100
AcDbEntity
  8
DIMS
100
AcDbMText
 10
15.74510413300677
 20
15.03928714917767
 30
0.0
 40
0.2916666666666666
 41
0.0
 71
     1
 72
     1
  1
16
  7
SLDTEXTSTYLE1
 73
     1
 44
1.0
  0
MTEXT
  5
260
330
253
100
AcDbEntity
  8
DIMS
100
AcDbMText
 10
16.26200226008883
 20
15.2165556878668
 30
0.0
 40
0.2916666666666666
 41
0.0
 71
     1
 72
     1
  1
"
  7
SLDTEXTSTYLE1
 73
     1
 44
1.0
  0
ENDBLK
  5
3C9
330
253
100
AcDbEntity
  8
0
100
AcDbBlockEnd
  0
BLOCK
  5
3CA
330
262
100
AcDbEntity
  8
0
100
AcDbBlockBegin
  2
_D_2
 70
     0
 71
     0
 10
0.0
 20
0.0
 30
0.0
  3
_D_2
  1

  0
INSERT
  5
265
330
262
100
AcDbEntity
  8
DIMS
100
AcDbBlockReference
  2
_Open90
 10
6.595827094741607
 20
12.33804532592006
 30
-2.981934347123715
 41
0.2
 42
0.2
 50
90.00000000000041
  0
INSERT
  5
266
330
262
100
AcDbEntity
  8
DIMS
100
AcDbBlockReference
  2
_Open90
 10
6.595827094741607
 20
11.38804532592005
 30
-2.981934347123715
 41
0.2
 42
0.2
 50
270.0000000000004
  0
LINE
  5
267
330
262
100
AcDbEntity
  8
DIMS
100
AcDbLine
 10
7.843642017747626
 20
12.33804532592006
 30
0.0
 11
6.220827094741607
 21
12.33804532592006
 31
0.0
  0
LINE
  5
268
330
262
100
AcDbEntity
  8
DIMS
100
AcDbLine
 10
6.937269520909913
 20
11.38804532592005
 30
0.0
 11
6.220827094741607
 21
11.38804532592005
 31
0.0
  0
LINE
  5
269
330
262
100
AcDbEntity
  8
DIMS
100
AcDbLine
 10
6.595827094741607
 20
12.33804532592006
 30
0.0
 11
6.595827094741607
 21
12.09898684803048
 31
0.0
  0
LINE
  5
26A
330
262
100
AcDbEntity
  8
DIMS
100
AcDbLine
 10
6.595827094741607
 20
11.38804532592005
 30
0.0
 11
6.595827094741607
 21
11.63556091823303
 31
0.0
  0
MTEXT
  5
26B
330
262
100
AcDbEntity
  8
DIMS
100
AcDbMText
 10
6.427848695242413
 20
12.00811952114961
 30
0.0
 40
0.2916666666666666
 41
0.0
 71
     1
 72
     1
  1
1"
  7
SLDTEXTSTYLE1
 73
     1
 44
1.0
  0
ENDBLK
  5
3CB
330
262
100
AcDbEntity
  8
0
100
AcDbBlockEnd
  0
BLOCK
  5
3CC
330
296
100
AcDbEntity
  8
0
100
AcDbBlockBegin
  2
_D_3
 70
     0
 71
     0
 10
0.0
 20
0.0
 30
0.0
  3
_D_3
  1

  0
INSERT
  5
299
330
296
100
AcDbEntity
  8
DIMS
100
AcDbBlockReference
  2
_Open90
 10
22.09936245627768
 20
19.57541276086452
 30
-2.476639630006518
 41
0.2
 42
0.2
 50
180.0000000000006
  0
INSERT
  5
29A
330
296
100
AcDbEntity
  8
DIMS
100
AcDbBlockReference
  2
_Open90
 10
27.86114834516856
 20
19.57541276086454
 30
-2.476639630006518
 41
0.2
 42
0.2
 50
0.0000000000005852
  0
LINE
  5
29B
330
296
100
AcDbEntity
  8
DIMS
100
AcDbLine
 10
25.2098716046011
 20
19.60547062863348
 30
0.0
 11
25.51126047793112
 21
19.60547062863348
 31
0.0
  0
LINE
  5
29C
330
296
100
AcDbEntity
  8
DIMS
100
AcDbLine
 10
22.09936245627769
 20
15.1082017648325
 30
0.0
 11
22.09936245627768
 21
19.95041276086452
 31
0.0
  0
LINE
  5
29D
330
296
100
AcDbEntity
  8
DIMS
100
AcDbLine
 10
27.86114834516856
 20
18.75915889910967
 30
0.0
 11
27.86114834516856
 21
19.95041276086454
 31
0.0
  0
LINE
  5
29E
330
296
100
AcDbEntity
  8
DIMS
100
AcDbLine
 10
22.09936245627768
 20
19.57541276086452
 30
0.0
 11
24.95142254106008
 21
19.57541276086453
 31
0.0
  0
LINE
  5
29F
330
296
100
AcDbEntity
  8
DIMS
100
AcDbLine
 10
27.86114834516856
 20
19.57541276086454
 30
0.0
 11
25.67464783296646
 21
19.57541276086453
 31
0.0
  0
MTEXT
  5
2A0
330
296
100
AcDbEntity
  8
DIMS
100
AcDbMText
 10
24.95142254106008
 20
19.73205702137533
 30
0.0
 40
0.2916666666666666
 41
0.0
 71
     1
 72
     1
  1
5
  7
SLDTEXTSTYLE1
 73
     1
 44
1.0
  0
MTEXT
  5
2A1
330
296
100
AcDbEntity
  8
DIMS
100
AcDbMText
 10
25.25281141439009
 20
19.95226532917684
 30
0.0
 40
0.2916666666666666
 41
0.0
 71
     1
 72
     1
  1
3
  7
SLDTEXTSTYLE1
 73
     1
 44
1.0
  0
MTEXT
  5
2A2
330
296
100
AcDbEntity
  8
DIMS
100
AcDbMText
 10
25.25281141439009
 20
19.5547884826862
 30
0.0
 40
0.2916666666666666
 41
0.0
 71
     1
 72
     1
  1
4
  7
SLDTEXTSTYLE1
 73
     1
 44
1.0
  0
MTEXT
  5
2A3
330
296
100
AcDbEntity
  8
DIMS
100
AcDbMText
 10
25.55420028772011
 20
19.73205702137533
 30
0.0
 40
0.2916666666666666
 41
0.0
 71
     1
 72
     1
  1
"
  7
SLDTEXTSTYLE1
 73
     1
 44
1.0
  0
ENDBLK
  5
3CD
330
296
100
AcDbEntity
  8
0
100
AcDbBlockEnd
  0
BLOCK
  5
3CE
330
333
100
AcDbEntity
  8
0
100
AcDbBlockBegin
  2
_D_4
 70
     0
 71
     0
 10
0.0
 20
0.0
 30
0.0
  3
_D_4
  1

  0
INSERT
  5
336
330
333
100
AcDbEntity
  8
DIMS
100
AcDbBlockReference
  2
_Open90
 10
14.53250714205081
 20
23.04840003721504
 30
-0.878773039068912
 41
0.2
 42
0.2
 50
0.0000000000002036
  0
INSERT
  5
337
330
333
100
AcDbEntity
  8
DIMS
100
AcDbBlockReference
  2
_Open90
 10
7.061420577099772
 20
23.04840003721507
 30
-0.878773039068912
 41
0.2
 42
0.2
 50
180.0000000000002
  0
LINE
  5
338
330
333
100
AcDbEntity
  8
DIMS
100
AcDbLine
 10
10.7580774802194
 20
23.078457904984
 30
0.0
 11
11.05946635354942
 21
23.078457904984
 31
0.0
  0
LINE
  5
339
330
333
100
AcDbEntity
  8
DIMS
100
AcDbLine
 10
14.53250714205081
 20
24.45455834418985
 30
0.0
 11
14.5325071420508
 21
22.67340003721504
 31
0.0
  0
LINE
  5
33A
330
333
100
AcDbEntity
  8
DIMS
100
AcDbLine
 10
7.061420577099776
 20
24.45455834418989
 30
0.0
 11
7.061420577099771
 21
22.67340003721506
 31
0.0
  0
LINE
  5
33B
330
333
100
AcDbEntity
  8
DIMS
100
AcDbLine
 10
14.53250714205081
 20
23.04840003721504
 30
0.0
 11
11.22285370858475
 21
23.04840003721505
 31
0.0
  0
LINE
  5
33C
330
333
100
AcDbEntity
  8
DIMS
100
AcDbLine
 10
7.061420577099772
 20
23.04840003721507
 30
0.0
 11
10.49962841667837
 21
23.04840003721506
 31
0.0
  0
MTEXT
  5
33D
330
333
100
AcDbEntity
  8
DIMS
100
AcDbMText
 10
10.49962841667837
 20
23.20504429772585
 30
0.0
 40
0.2916666666666666
 41
0.0
 71
     1
 72
     1
  1
7
  7
SLDTEXTSTYLE1
 73
     1
 44
1.0
  0
MTEXT
  5
33E
330
333
100
AcDbEntity
  8
DIMS
100
AcDbMText
 10
10.80101729000839
 20
23.42525260552735
 30
0.0
 40
0.2916666666666666
 41
0.0
 71
     1
 72
     1
  1
1
  7
SLDTEXTSTYLE1
 73
     1
 44
1.0
  0
MTEXT
  5
33F
330
333
100
AcDbEntity
  8
DIMS
100
AcDbMText
 10
10.80101729000839
 20
23.02777575903672
 30
0.0
 40
0.2916666666666666
 41
0.0
 71
     1
 72
     1
  1
2
  7
SLDTEXTSTYLE1
 73
     1
 44
1.0
  0
MTEXT
  5
340
330
333
100
AcDbEntity
  8
DIMS
100
AcDbMText
 10
11.1024061633384
 20
23.20504429772585
 30
0.0
 40
0.2916666666666666
 41
0.0
 71
     1
 72
     1
  1
"
  7
SLDTEXTSTYLE1
 73
     1
 44
1.0
  0
ENDBLK
  5
3CF
330
333
100
AcDbEntity
  8
0
100
AcDbBlockEnd
  0
BLOCK
  5
3D0
330
37B
100
AcDbEntity
  8
0
100
AcDbBlockBegin
  2
_D_5
 70
     0
 71
     0
 10
0.0
 20
0.0
 30
0.0
  3
_D_5
  1

  0
INSERT
  5
37E
330
37B
100
AcDbEntity
  8
DIMS
100
AcDbBlockReference
  2
_Open90
 10
36.96233997983901
 20
10.18258916347699
 30
1.304509271505606
 41
0.2
 42
0.2
 50
180.0000000000004
  0
INSERT
  5
37F
330
37B
100
AcDbEntity
  8
DIMS
100
AcDbBlockReference
  2
_Open90
 10
40.58733997983901
 20
10.18258916347699
 30
1.304509271505606
 41
0.2
 42
0.2
 50
0.0000000000004071
  0
LINE
  5
380
330
37B
100
AcDbEntity
  8
DIMS
100
AcDbLine
 10
38.65192574928951
 20
10.21264703124594
 30
0.0
 11
38.95331462261952
 21
10.21264703124594
 31
0.0
  0
LINE
  5
381
330
37B
100
AcDbEntity
  8
DIMS
100
AcDbLine
 10
36.96233997983901
 20
13.5213786592534
 30
0.0
 11
36.96233997983901
 21
9.807589163476992
 31
0.0
  0
LINE
  5
382
330
37B
100
AcDbEntity
  8
DIMS
100
AcDbLine
 10
40.58733997983901
 20
13.5213786592534
 30
0.0
 11
40.58733997983901
 21
9.807589163476992
 31
0.0
  0
LINE
  5
383
330
37B
100
AcDbEntity
  8
DIMS
100
AcDbLine
 10
36.96233997983901
 20
10.18258916347699
 30
0.0
 11
38.39347668574848
 21
10.18258916347699
 31
0.0
  0
LINE
  5
384
330
37B
100
AcDbEntity
  8
DIMS
100
AcDbLine
 10
40.58733997983901
 20
10.18258916347699
 30
0.0
 11
39.11670197765486
 21
10.18258916347699
 31
0.0
  0
MTEXT
  5
385
330
37B
100
AcDbEntity
  8
DIMS
100
AcDbMText
 10
38.39347668574847
 20
10.33923342398779
 30
0.0
 40
0.2916666666666666
 41
0.0
 71
     1
 72
     1
  1
3
  7
SLDTEXTSTYLE1
 73
     1
 44
1.0
  0
MTEXT
  5
386
330
37B
100
AcDbEntity
  8
DIMS
100
AcDbMText
 10
38.69486555907849
 20
10.5594417317893
 30
0.0
 40
0.2916666666666666
 41
0.0
 71
     1
 72
     1
  1
5
  7
SLDTEXTSTYLE1
 73
     1
 44
1.0
  0
MTEXT
  5
387
330
37B
100
AcDbEntity
  8
DIMS
100
AcDbMText
 10
38.69486555907849
 20
10.16196488529866
 30
0.0
 40
0.2916666666666666
 41
0.0
 71
     1
 72
     1
  1
8
  7
SLDTEXTSTYLE1
 73
     1
 44
1.0
  0
MTEXT
  5
388
330
37B
100
AcDbEntity
  8
DIMS
100
AcDbMText
 10
38.99625443240851
 20
10.33923342398779
 30
0.0
 40
0.2916666666666666
 41
0.0
 71
     1
 72
     1
  1
"
  7
SLDTEXTSTYLE1
 73
     1
 44
1.0
  0
ENDBLK
  5
3D1
330
37B
100
AcDbEntity
  8
0
100
AcDbBlockEnd
  0
BLOCK
  5
3D2
330
38A
100
AcDbEntity
  8
0
100
AcDbBlockBegin
  2
_D_6
 70
     0
 71
     0
 10
0.0
 20
0.0
 30
0.0
  3
_D_6
  1

  0
INSERT
  5
38D
330
38A
100
AcDbEntity
  8
DIMS
100
AcDbBlockReference
  2
_Open90
 10
33.94924990026571
 20
13.68804532592007
 30
1.304509271505606
 41
0.2
 42
0.2
 50
90.00000000000041
  0
INSERT
  5
38E
330
38A
100
AcDbEntity
  8
DIMS
100
AcDbBlockReference
  2
_Open90
 10
33.94924990026571
 20
11.38804532592005
 30
1.304509271505606
 41
0.2
 42
0.2
 50
270.0000000000004
  0
LINE
  5
38F
330
38A
100
AcDbEntity
  8
DIMS
100
AcDbLine
 10
33.73833170931065
 20
12.59350705279302
 30
0.0
 11
34.25522983639272
 21
12.59350705279302
 31
0.0
  0
LINE
  5
390
330
38A
100
AcDbEntity
  8
DIMS
100
AcDbLine
 10
36.79567331317234
 20
13.68804532592007
 30
0.0
 11
33.57424990026571
 21
13.68804532592007
 31
0.0
  0
LINE
  5
391
330
38A
100
AcDbEntity
  8
DIMS
100
AcDbLine
 10
34.89433783593522
 20
11.38804532592005
 30
0.0
 11
33.57424990026571
 21
11.38804532592005
 31
0.0
  0
LINE
  5
392
330
38A
100
AcDbEntity
  8
DIMS
100
AcDbLine
 10
33.94924990026571
 20
13.68804532592007
 30
0.0
 11
33.94924990026571
 21
12.95663205294204
 31
0.0
  0
LINE
  5
393
330
38A
100
AcDbEntity
  8
DIMS
100
AcDbLine
 10
33.94924990026571
 20
11.38804532592005
 30
0.0
 11
33.94924990026572
 21
12.17026631710613
 31
0.0
  0
MTEXT
  5
394
330
38A
100
AcDbEntity
  8
DIMS
100
AcDbMText
 10
33.47988264576962
 20
12.72009344553488
 30
0.0
 40
0.2916666666666666
 41
0.0
 71
     1
 72
     1
  1
2
  7
SLDTEXTSTYLE1
 73
     1
 44
1.0
  0
MTEXT
  5
395
330
38A
100
AcDbEntity
  8
DIMS
100
AcDbMText
 10
33.88902614597566
 20
12.94030175333638
 30
0.0
 40
0.2916666666666666
 41
0.0
 71
     1
 72
     1
  1
5
  7
SLDTEXTSTYLE1
 73
     1
 44
1.0
  0
MTEXT
  5
396
330
38A
100
AcDbEntity
  8
DIMS
100
AcDbMText
 10
33.78127151909964
 20
12.54282490684575
 30
0.0
 40
0.2916666666666666
 41
0.0
 71
     1
 72
     1
  1
16
  7
SLDTEXTSTYLE1
 73
     1
 44
1.0
  0
MTEXT
  5
397
330
38A
100
AcDbEntity
  8
DIMS
100
AcDbMText
 10
34.2981696461817
 20
12.72009344553488
 30
0.0
 40
0.2916666666666666
 41
0.0
 71
     1
 72
     1
  1
"
  7
SLDTEXTSTYLE1
 73
     1
 44
1.0
  0
ENDBLK
  5
3D3
330
38A
100
AcDbEntity
  8
0
100
AcDbBlockEnd
  0
BLOCK
  5
3D4
330
39A
100
AcDbEntity
  8
0
100
AcDbBlockBegin
  2
_D_7
 70
     0
 71
     0
 10
0.0
 20
0.0
 30
0.0
  3
_D_7
  1

  0
INSERT
  5
39D
330
39A
100
AcDbEntity
  8
DIMS
100
AcDbBlockReference
  2
_Open90
 10
36.84173743946057
 20
13.73804532592006
 30
1.304509271505606
 41
0.2
 42
0.2
 50
330.0000000000005
  0
LINE
  5
39E
330
39A
100
AcDbEntity
  8
DIMS
100
AcDbLine
 10
33.78820409716022
 20
14.99396093849117
 30
0.0
 11
34.30510222424228
 21
14.99396093849117
 31
0.0
  0
LINE
  5
39F
330
39A
100
AcDbEntity
  8
DIMS
100
AcDbLine
 10
36.84173743946057
 20
13.73804532592006
 30
0.0
 11
34.71848954261138
 21
14.96390307072223
 31
0.0
  0
LINE
  5
3A0
330
39A
100
AcDbEntity
  8
DIMS
100
AcDbLine
 10
34.71848954261138
 20
14.96390307072223
 30
0.0
 11
34.46848954261138
 21
14.96390307072223
 31
0.0
  0
MTEXT
  5
3A1
330
39A
100
AcDbEntity
  8
DIMS
100
AcDbMText
 10
33.30500966323022
 20
15.12054733123303
 30
0.0
 40
0.2916666666666666
 41
0.0
 71
     1
 72
     1
  1
%%c
  7
SLDTEXTSTYLE1
 73
     1
 44
1.0
  0
MTEXT
  5
3A2
330
39A
100
AcDbEntity
  8
DIMS
100
AcDbMText
 10
33.93889853382523
 20
15.34075563903453
 30
0.0
 40
0.2916666666666666
 41
0.0
 71
     1
 72
     1
  1
3
  7
SLDTEXTSTYLE1
 73
     1
 44
1.0
  0
MTEXT
  5
3A3
330
39A
100
AcDbEntity
  8
DIMS
100
AcDbMText
 10
33.83114390694921
 20
14.9432787925439
 30
0.0
 40
0.2916666666666666
 41
0.0
 71
     1
 72
     1
  1
16
  7
SLDTEXTSTYLE1
 73
     1
 44
1.0
  0
MTEXT
  5
3A4
330
39A
100
AcDbEntity
  8
DIMS
100
AcDbMText
 10
34.34804203403127
 20
15.12054733123303
 30
0.0
 40
0.2916666666666666
 41
0.0
 71
     1
 72
     1
  1
"
  7
SLDTEXTSTYLE1
 73
     1
 44
1.0
  0
ENDBLK
  5
3D5
330
39A
100
AcDbEntity
  8
0
100
AcDbBlockEnd
  0
ENDSEC
  0
SECTION
  2
ENTITIES
  0
LINE
  5
7A
330
1F
100
AcDbEntity
  8
TITLE
370
    50
100
AcDbLine
 10
31.51822297571294
 20
1.48761176446163
 30
0.0
 11
48.49998645119503
 21
1.48761176446163
 31
0.0
  0
LINE
  5
7B
330
1F
100
AcDbEntity
  8
TITLE
370
    50
100
AcDbLine
 10
48.49993174424403
 20
5.475360393555786
 30
0.0
 11
38.31053507231783
 21
5.475360393555786
 31
0.0
  0
LINE
  5
7C
330
1F
100
AcDbEntity
  8
TITLE
  6
SLD-Solid
370
    18
100
AcDbLine
 10
0.5
 20
0.5
 30
0.0
 11
0.5
 21
41.5
 31
0.0
  0
LINE
  5
7D
330
1F
100
AcDbEntity
  8
TITLE
  6
SLD-Solid
370
    18
100
AcDbLine
 10
0.5
 20
41.5
 30
0.0
 11
48.5
 21
41.5
 31
0.0
  0
LINE
  5
7E
330
1F
100
AcDbEntity
  8
TITLE
370
    50
100
AcDbLine
 10
31.51822297571294
 20
2.54278772310344
 30
0.0
 11
24.50597912026433
 21
2.542787723103439
 31
0.0
  0
LINE
  5
7F
330
1F
100
AcDbEntity
  8
TITLE
370
    50
100
AcDbLine
 10
31.51822297571294
 20
1.48761176446163
 30
0.0
 11
24.50597912026433
 21
1.487611764461629
 31
0.0
  0
LINE
  5
80
330
1F
100
AcDbEntity
  8
TITLE
  6
SLD-Solid
370
    18
100
AcDbLine
 10
48.5
 20
41.5
 30
0.0
 11
48.5
 21
0.5
 31
0.0
  0
LINE
  5
81
330
1F
100
AcDbEntity
  8
TITLE
  6
SLD-Solid
370
    18
100
AcDbLine
 10
48.5
 20
0.5
 30
0.0
 11
0.5
 21
0.5
 31
0.0
  0
LINE
  5
82
330
1F
100
AcDbEntity
  8
TITLE
370
    50
100
AcDbLine
 10
31.51822297571294
 20
1.48761176446163
 30
0.0
 11
31.51822297571294
 21
3.597963681745251
 31
0.0
  0
LINE
  5
83
330
1F
100
AcDbEntity
  8
TITLE
370
    50
100
AcDbLine
 10
24.50597912026433
 20
3.59796368174525
 30
0.0
 11
24.50597912026433
 21
0.5
 31
0.0
  0
LINE
  5
84
330
1F
100
AcDbEntity
  8
TITLE
370
    50
100
AcDbLine
 10
24.50597912026433
 20
0.5
 30
0.0
 11
48.5
 21
0.5
 31
0.0
  0
LINE
  5
85
330
1F
100
AcDbEntity
  8
TITLE
370
    50
100
AcDbLine
 10
48.49993174424403
 20
5.475360393555786
 30
0.0
 11
48.5
 21
0.5
 31
0.0
  0
LINE
  5
86
330
1F
100
AcDbEntity
  8
TITLE
  6
SLD-Solid
370
    18
100
AcDbLine
 10
0.4999606299212599
 20
21.0
 30
0.0
 11
0.5000393700787401
 21
21.0
 31
0.0
  0
LINE
  5
87
330
1F
100
AcDbEntity
  8
TITLE
370
    50
100
AcDbLine
 10
31.51822297571294
 20
3.597963681745251
 30
0.0
 11
24.50597912026433
 21
3.59796368174525
 31
0.0
  0
LINE
  5
88
330
1F
100
AcDbEntity
  8
TITLE
370
    50
100
AcDbLine
 10
31.51822297571294
 20
3.597963681745251
 30
0.0
 11
48.49976156426074
 21
3.59796483432463
 31
0.0
  0
LINE
  5
89
330
1F
100
AcDbEntity
  8
TITLE
370
    50
100
AcDbLine
 10
38.31053507231783
 20
5.475360393555786
 30
0.0
 11
38.31053507231783
 21
0.4636772425222311
 31
0.0
  0
LINE
  5
8A
330
1F
100
AcDbEntity
  8
TITLE
  6
SLD-Solid
370
    18
100
AcDbLine
 10
24.5
 20
41.50003937007874
 30
0.0
 11
24.5
 21
41.49996062992127
 31
0.0
  0
LINE
  5
8B
330
1F
100
AcDbEntity
  8
TITLE
  6
SLD-Solid
370
    18
100
AcDbLine
 10
48.50003937007874
 20
21.0
 30
0.0
 11
48.49996062992126
 21
21.0
 31
0.0
  0
LINE
  5
8C
330
1F
100
AcDbEntity
  8
TITLE
  6
SLD-Solid
370
    18
100
AcDbLine
 10
24.5
 20
0.4999606299212599
 30
0.0
 11
24.5
 21
0.5000393700787401
 31
0.0
  0
LINE
  5
8D
330
1F
100
AcDbEntity
  8
TITLE
  6
SLD-Solid
370
    18
100
AcDbLine
 10
0.5
 20
3.283464566929133
 30
0.0
 11
0.1653543307086614
 21
3.283464566929133
 31
0.0
  0
LINE
  5
8E
330
1F
100
AcDbEntity
  8
TITLE
  6
SLD-Solid
370
    18
100
AcDbLine
 10
48.5
 20
3.283464566929133
 30
0.0
 11
48.83464566929134
 21
3.283464566929133
 31
0.0
  0
LINE
  5
8F
330
1F
100
AcDbEntity
  8
TITLE
  6
SLD-Solid
370
    18
100
AcDbLine
 10
0.5
 20
5.251968503937007
 30
0.0
 11
0.1653543307086614
 21
5.251968503937007
 31
0.0
  0
LINE
  5
90
330
1F
100
AcDbEntity
  8
TITLE
  6
SLD-Solid
370
    18
100
AcDbLine
 10
48.5
 20
5.251968503937007
 30
0.0
 11
48.83464566929134
 21
5.251968503937007
 31
0.0
  0
LINE
  5
91
330
1F
100
AcDbEntity
  8
TITLE
  6
SLD-Solid
370
    18
100
AcDbLine
 10
0.5
 20
7.220472440944881
 30
0.0
 11
0.1653543307086614
 21
7.220472440944881
 31
0.0
  0
LINE
  5
3D6
330
1F
100
AcDbEntity
  8
TITLE
  6
SLD-Solid
370
    18
100
AcDbLine
 10
48.5
 20
7.220472440944881
 30
0.0
 11
48.83464566929134
 21
7.220472440944881
 31
0.0
  0
LINE
  5
3D7
330
1F
100
AcDbEntity
  8
TITLE
  6
SLD-Solid
370
    18
100
AcDbLine
 10
0.5
 20
9.188976377952754
 30
0.0
 11
0.1653543307086614
 21
9.188976377952754
 31
0.0
  0
LINE
  5
94
330
1F
100
AcDbEntity
  8
TITLE
  6
SLD-Solid
370
    18
100
AcDbLine
 10
48.5
 20
9.188976377952754
 30
0.0
 11
48.83464566929134
 21
9.188976377952754
 31
0.0
  0
LINE
  5
95
330
1F
100
AcDbEntity
  8
TITLE
  6
SLD-Solid
370
    18
100
AcDbLine
 10
0.5
 20
11.15748031496063
 30
0.0
 11
0.1653543307086614
 21
11.15748031496063
 31
0.0
  0
LINE
  5
96
330
1F
100
AcDbEntity
  8
TITLE
  6
SLD-Solid
370
    18
100
AcDbLine
 10
48.5
 20
11.15748031496063
 30
0.0
 11
48.83464566929134
 21
11.15748031496063
 31
0.0
  0
LINE
  5
3D8
330
1F
100
AcDbEntity
  8
TITLE
  6
SLD-Solid
370
    18
100
AcDbLine
 10
0.5
 20
13.1259842519685
 30
0.0
 11
0.1653543307086614
 21
13.1259842519685
 31
0.0
  0
LINE
  5
3D9
330
1F
100
AcDbEntity
  8
TITLE
  6
SLD-Solid
370
    18
100
AcDbLine
 10
48.5
 20
13.1259842519685
 30
0.0
 11
48.83464566929134
 21
13.1259842519685
 31
0.0
  0
LINE
  5
99
330
1F
100
AcDbEntity
  8
TITLE
  6
SLD-Solid
370
    18
100
AcDbLine
 10
0.5
 20
15.09448818897638
 30
0.0
 11
0.1653543307086614
 21
15.09448818897638
 31
0.0
  0
LINE
  5
9A
330
1F
100
AcDbEntity
  8
TITLE
  6
SLD-Solid
370
    18
100
AcDbLine
 10
48.5
 20
15.09448818897638
 30
0.0
 11
48.83464566929134
 21
15.09448818897638
 31
0.0
  0
LINE
  5
9B
330
1F
100
AcDbEntity
  8
TITLE
  6
SLD-Solid
370
    18
100
AcDbLine
 10
0.5
 20
17.06299212598425
 30
0.0
 11
0.1653543307086614
 21
17.06299212598425
 31
0.0
  0
LINE
  5
9C
330
1F
100
AcDbEntity
  8
TITLE
  6
SLD-Solid
370
    18
100
AcDbLine
 10
48.5
 20
17.06299212598425
 30
0.0
 11
48.83464566929134
 21
17.06299212598425
 31
0.0
  0
LINE
  5
9D
330
1F
100
AcDbEntity
  8
TITLE
  6
SLD-Solid
370
    18
100
AcDbLine
 10
0.5
 20
19.03149606299213
 30
0.0
 11
0.1653543307086614
 21
19.03149606299213
 31
0.0
  0
LINE
  5
9E
330
1F
100
AcDbEntity
  8
TITLE
  6
SLD-Solid
370
    18
100
AcDbLine
 10
48.5
 20
19.03149606299213
 30
0.0
 11
48.83464566929134
 21
19.03149606299213
 31
0.0
  0
LINE
  5
9F
330
1F
100
AcDbEntity
  8
TITLE
  6
SLD-Solid
370
    18
100
AcDbLine
 10
0.5
 20
21.0
 30
0.0
 11
0.1653543307086614
 21
21.0
 31
0.0
  0
LINE
  5
A0
330
1F
100
AcDbEntity
  8
TITLE
  6
SLD-Solid
370
    18
100
AcDbLine
 10
48.5
 20
21.0
 30
0.0
 11
48.83464566929134
 21
21.0
 31
0.0
  0
LINE
  5
A1
330
1F
100
AcDbEntity
  8
TITLE
  6
SLD-Solid
370
    18
100
AcDbLine
 10
0.5
 20
22.96850393700787
 30
0.0
 11
0.1653543307086614
 21
22.96850393700787
 31
0.0
  0
LINE
  5
A2
330
1F
100
AcDbEntity
  8
TITLE
  6
SLD-Solid
370
    18
100
AcDbLine
 10
48.5
 20
22.96850393700787
 30
0.0
 11
48.83464566929134
 21
22.96850393700787
 31
0.0
  0
LINE
  5
A3
330
1F
100
AcDbEntity
  8
TITLE
  6
SLD-Solid
370
    18
100
AcDbLine
 10
0.5
 20
24.93700787401575
 30
0.0
 11
0.1653543307086614
 21
24.93700787401575
 31
0.0
  0
LINE
  5
A4
330
1F
100
AcDbEntity
  8
TITLE
  6
SLD-Solid
370
    18
100
AcDbLine
 10
48.5
 20
24.93700787401575
 30
0.0
 11
48.83464566929134
 21
24.93700787401575
 31
0.0
  0
LINE
  5
A5
330
1F
100
AcDbEntity
  8
TITLE
  6
SLD-Solid
370
    18
100
AcDbLine
 10
0.5
 20
26.90551181102362
 30
0.0
 11
0.1653543307086614
 21
26.90551181102362
 31
0.0
  0
LINE
  5
A6
330
1F
100
AcDbEntity
  8
TITLE
  6
SLD-Solid
370
    18
100
AcDbLine
 10
48.5
 20
26.90551181102362
 30
0.0
 11
48.83464566929134
 21
26.90551181102362
 31
0.0
  0
LINE
  5
A7
330
1F
100
AcDbEntity
  8
TITLE
  6
SLD-Solid
370
    18
100
AcDbLine
 10
0.5
 20
28.8740157480315
 30
0.0
 11
0.1653543307086614
 21
28.8740157480315
 31
0.0
  0
LINE
  5
A8
330
1F
100
AcDbEntity
  8
TITLE
  6
SLD-Solid
370
    18
100
AcDbLine
 10
48.5
 20
28.8740157480315
 30
0.0
 11
48.83464566929134
 21
28.8740157480315
 31
0.0
  0
LINE
  5
A9
330
1F
100
AcDbEntity
  8
TITLE
  6
SLD-Solid
370
    18
100
AcDbLine
 10
0.5
 20
30.84251968503937
 30
0.0
 11
0.1653543307086614
 21
30.84251968503937
 31
0.0
  0
LINE
  5
AA
330
1F
100
AcDbEntity
  8
TITLE
  6
SLD-Solid
370
    18
100
AcDbLine
 10
48.5
 20
30.84251968503937
 30
0.0
 11
48.83464566929134
 21
30.84251968503937
 31
0.0
  0
LINE
  5
AB
330
1F
100
AcDbEntity
  8
TITLE
  6
SLD-Solid
370
    18
100
AcDbLine
 10
0.5
 20
32.81102362204724
 30
0.0
 11
0.1653543307086614
 21
32.81102362204724
 31
0.0
  0
LINE
  5
AC
330
1F
100
AcDbEntity
  8
TITLE
  6
SLD-Solid
370
    18
100
AcDbLine
 10
48.5
 20
32.81102362204724
 30
0.0
 11
48.83464566929134
 21
32.81102362204724
 31
0.0
  0
LINE
  5
AD
330
1F
100
AcDbEntity
  8
TITLE
  6
SLD-Solid
370
    18
100
AcDbLine
 10
0.5
 20
34.77952755905512
 30
0.0
 11
0.1653543307086614
 21
34.77952755905512
 31
0.0
  0
LINE
  5
AE
330
1F
100
AcDbEntity
  8
TITLE
  6
SLD-Solid
370
    18
100
AcDbLine
 10
48.5
 20
34.77952755905512
 30
0.0
 11
48.83464566929134
 21
34.77952755905512
 31
0.0
  0
LINE
  5
AF
330
1F
100
AcDbEntity
  8
TITLE
  6
SLD-Solid
370
    18
100
AcDbLine
 10
0.5
 20
36.74803149606299
 30
0.0
 11
0.1653543307086614
 21
36.74803149606299
 31
0.0
  0
LINE
  5
B0
330
1F
100
AcDbEntity
  8
TITLE
  6
SLD-Solid
370
    18
100
AcDbLine
 10
48.5
 20
36.74803149606299
 30
0.0
 11
48.83464566929134
 21
36.74803149606299
 31
0.0
  0
LINE
  5
B1
330
1F
100
AcDbEntity
  8
TITLE
  6
SLD-Solid
370
    18
100
AcDbLine
 10
0.5
 20
38.71653543307087
 30
0.0
 11
0.1653543307086614
 21
38.71653543307087
 31
0.0
  0
LINE
  5
B2
330
1F
100
AcDbEntity
  8
TITLE
  6
SLD-Solid
370
    18
100
AcDbLine
 10
48.5
 20
38.71653543307087
 30
0.0
 11
48.83464566929134
 21
38.71653543307087
 31
0.0
  0
LINE
  5
B3
330
1F
100
AcDbEntity
  8
TITLE
  6
SLD-Solid
370
    18
100
AcDbLine
 10
2.846456692913383
 20
41.5
 30
0.0
 11
2.846456692913383
 21
41.83464566929134
 31
0.0
  0
LINE
  5
B4
330
1F
100
AcDbEntity
  8
TITLE
  6
SLD-Solid
370
    18
100
AcDbLine
 10
2.846456692913383
 20
0.5
 30
0.0
 11
2.846456692913383
 21
0.1653543307086614
 31
0.0
  0
LINE
  5
B5
330
1F
100
AcDbEntity
  8
TITLE
  6
SLD-Solid
370
    18
100
AcDbLine
 10
4.814960629921258
 20
41.5
 30
0.0
 11
4.814960629921258
 21
41.83464566929134
 31
0.0
  0
LINE
  5
B6
330
1F
100
AcDbEntity
  8
TITLE
  6
SLD-Solid
370
    18
100
AcDbLine
 10
4.814960629921258
 20
0.5
 30
0.0
 11
4.814960629921258
 21
0.1653543307086614
 31
0.0
  0
LINE
  5
B7
330
1F
100
AcDbEntity
  8
TITLE
  6
SLD-Solid
370
    18
100
AcDbLine
 10
6.783464566929132
 20
41.5
 30
0.0
 11
6.783464566929132
 21
41.83464566929134
 31
0.0
  0
LINE
  5
B8
330
1F
100
AcDbEntity
  8
TITLE
  6
SLD-Solid
370
    18
100
AcDbLine
 10
6.783464566929132
 20
0.5
 30
0.0
 11
6.783464566929132
 21
0.1653543307086614
 31
0.0
  0
LINE
  5
B9
330
1F
100
AcDbEntity
  8
TITLE
  6
SLD-Solid
370
    18
100
AcDbLine
 10
8.751968503937006
 20
41.5
 30
0.0
 11
8.751968503937006
 21
41.83464566929134
 31
0.0
  0
LINE
  5
BA
330
1F
100
AcDbEntity
  8
TITLE
  6
SLD-Solid
370
    18
100
AcDbLine
 10
8.751968503937006
 20
0.5
 30
0.0
 11
8.751968503937006
 21
0.1653543307086614
 31
0.0
  0
LINE
  5
BB
330
1F
100
AcDbEntity
  8
TITLE
  6
SLD-Solid
370
    18
100
AcDbLine
 10
10.72047244094488
 20
41.5
 30
0.0
 11
10.72047244094488
 21
41.83464566929134
 31
0.0
  0
LINE
  5
BC
330
1F
100
AcDbEntity
  8
TITLE
  6
SLD-Solid
370
    18
100
AcDbLine
 10
10.72047244094488
 20
0.5
 30
0.0
 11
10.72047244094488
 21
0.1653543307086614
 31
0.0
  0
LINE
  5
BD
330
1F
100
AcDbEntity
  8
TITLE
  6
SLD-Solid
370
    18
100
AcDbLine
 10
12.68897637795275
 20
41.5
 30
0.0
 11
12.68897637795275
 21
41.83464566929134
 31
0.0
  0
LINE
  5
BE
330
1F
100
AcDbEntity
  8
TITLE
  6
SLD-Solid
370
    18
100
AcDbLine
 10
12.68897637795275
 20
0.5
 30
0.0
 11
12.68897637795275
 21
0.1653543307086614
 31
0.0
  0
LINE
  5
BF
330
1F
100
AcDbEntity
  8
TITLE
  6
SLD-Solid
370
    18
100
AcDbLine
 10
14.65748031496063
 20
41.5
 30
0.0
 11
14.65748031496063
 21
41.83464566929134
 31
0.0
  0
LINE
  5
C0
330
1F
100
AcDbEntity
  8
TITLE
  6
SLD-Solid
370
    18
100
AcDbLine
 10
14.65748031496063
 20
0.5
 30
0.0
 11
14.65748031496063
 21
0.1653543307086614
 31
0.0
  0
LINE
  5
C1
330
1F
100
AcDbEntity
  8
TITLE
  6
SLD-Solid
370
    18
100
AcDbLine
 10
16.6259842519685
 20
41.5
 30
0.0
 11
16.6259842519685
 21
41.83464566929134
 31
0.0
  0
LINE
  5
C2
330
1F
100
AcDbEntity
  8
TITLE
  6
SLD-Solid
370
    18
100
AcDbLine
 10
16.6259842519685
 20
0.5
 30
0.0
 11
16.6259842519685
 21
0.1653543307086614
 31
0.0
  0
LINE
  5
C3
330
1F
100
AcDbEntity
  8
TITLE
  6
SLD-Solid
370
    18
100
AcDbLine
 10
18.59448818897638
 20
41.5
 30
0.0
 11
18.59448818897638
 21
41.83464566929134
 31
0.0
  0
LINE
  5
C4
330
1F
100
AcDbEntity
  8
TITLE
  6
SLD-Solid
370
    18
100
AcDbLine
 10
18.59448818897638
 20
0.5
 30
0.0
 11
18.59448818897638
 21
0.1653543307086614
 31
0.0
  0
LINE
  5
C5
330
1F
100
AcDbEntity
  8
TITLE
  6
SLD-Solid
370
    18
100
AcDbLine
 10
20.56299212598425
 20
41.5
 30
0.0
 11
20.56299212598425
 21
41.83464566929134
 31
0.0
  0
LINE
  5
C6
330
1F
100
AcDbEntity
  8
TITLE
  6
SLD-Solid
370
    18
100
AcDbLine
 10
20.56299212598425
 20
0.5
 30
0.0
 11
20.56299212598425
 21
0.1653543307086614
 31
0.0
  0
LINE
  5
C7
330
1F
100
AcDbEntity
  8
TITLE
  6
SLD-Solid
370
    18
100
AcDbLine
 10
22.53149606299212
 20
41.5
 30
0.0
 11
22.53149606299212
 21
41.83464566929134
 31
0.0
  0
LINE
  5
C8
330
1F
100
AcDbEntity
  8
TITLE
  6
SLD-Solid
370
    18
100
AcDbLine
 10
22.53149606299212
 20
0.5
 30
0.0
 11
22.53149606299212
 21
0.1653543307086614
 31
0.0
  0
LINE
  5
C9
330
1F
100
AcDbEntity
  8
TITLE
  6
SLD-Solid
370
    18
100
AcDbLine
 10
24.5
 20
41.5
 30
0.0
 11
24.5
 21
41.83464566929134
 31
0.0
  0
LINE
  5
CA
330
1F
100
AcDbEntity
  8
TITLE
  6
SLD-Solid
370
    18
100
AcDbLine
 10
24.5
 20
0.5
 30
0.0
 11
24.5
 21
0.1653543307086614
 31
0.0
  0
LINE
  5
CB
330
1F
100
AcDbEntity
  8
TITLE
  6
SLD-Solid
370
    18
100
AcDbLine
 10
26.46850393700787
 20
41.5
 30
0.0
 11
26.46850393700787
 21
41.83464566929134
 31
0.0
  0
LINE
  5
CC
330
1F
100
AcDbEntity
  8
TITLE
  6
SLD-Solid
370
    18
100
AcDbLine
 10
26.46850393700787
 20
0.5
 30
0.0
 11
26.46850393700787
 21
0.1653543307086614
 31
0.0
  0
LINE
  5
CD
330
1F
100
AcDbEntity
  8
TITLE
  6
SLD-Solid
370
    18
100
AcDbLine
 10
28.43700787401575
 20
41.5
 30
0.0
 11
28.43700787401575
 21
41.83464566929134
 31
0.0
  0
LINE
  5
CE
330
1F
100
AcDbEntity
  8
TITLE
  6
SLD-Solid
370
    18
100
AcDbLine
 10
28.43700787401575
 20
0.5
 30
0.0
 11
28.43700787401575
 21
0.1653543307086614
 31
0.0
  0
LINE
  5
CF
330
1F
100
AcDbEntity
  8
TITLE
  6
SLD-Solid
370
    18
100
AcDbLine
 10
30.40551181102362
 20
41.5
 30
0.0
 11
30.40551181102362
 21
41.83464566929134
 31
0.0
  0
LINE
  5
D0
330
1F
100
AcDbEntity
  8
TITLE
  6
SLD-Solid
370
    18
100
AcDbLine
 10
30.40551181102362
 20
0.5
 30
0.0
 11
30.40551181102362
 21
0.1653543307086614
 31
0.0
  0
LINE
  5
D1
330
1F
100
AcDbEntity
  8
TITLE
  6
SLD-Solid
370
    18
100
AcDbLine
 10
32.3740157480315
 20
41.5
 30
0.0
 11
32.3740157480315
 21
41.83464566929134
 31
0.0
  0
LINE
  5
D2
330
1F
100
AcDbEntity
  8
TITLE
  6
SLD-Solid
370
    18
100
AcDbLine
 10
32.3740157480315
 20
0.5
 30
0.0
 11
32.3740157480315
 21
0.1653543307086614
 31
0.0
  0
LINE
  5
D3
330
1F
100
AcDbEntity
  8
TITLE
  6
SLD-Solid
370
    18
100
AcDbLine
 10
34.34251968503937
 20
41.5
 30
0.0
 11
34.34251968503937
 21
41.83464566929134
 31
0.0
  0
LINE
  5
D4
330
1F
100
AcDbEntity
  8
TITLE
  6
SLD-Solid
370
    18
100
AcDbLine
 10
34.34251968503937
 20
0.5
 30
0.0
 11
34.34251968503937
 21
0.1653543307086614
 31
0.0
  0
LINE
  5
D5
330
1F
100
AcDbEntity
  8
TITLE
  6
SLD-Solid
370
    18
100
AcDbLine
 10
36.31102362204724
 20
41.5
 30
0.0
 11
36.31102362204724
 21
41.83464566929134
 31
0.0
  0
LINE
  5
D6
330
1F
100
AcDbEntity
  8
TITLE
  6
SLD-Solid
370
    18
100
AcDbLine
 10
36.31102362204724
 20
0.5
 30
0.0
 11
36.31102362204724
 21
0.1653543307086614
 31
0.0
  0
LINE
  5
D7
330
1F
100
AcDbEntity
  8
TITLE
  6
SLD-Solid
370
    18
100
AcDbLine
 10
38.27952755905512
 20
41.5
 30
0.0
 11
38.27952755905512
 21
41.83464566929134
 31
0.0
  0
LINE
  5
D8
330
1F
100
AcDbEntity
  8
TITLE
  6
SLD-Solid
370
    18
100
AcDbLine
 10
38.27952755905512
 20
0.5
 30
0.0
 11
38.27952755905512
 21
0.1653543307086614
 31
0.0
  0
LINE
  5
D9
330
1F
100
AcDbEntity
  8
TITLE
  6
SLD-Solid
370
    18
100
AcDbLine
 10
40.24803149606299
 20
41.5
 30
0.0
 11
40.24803149606299
 21
41.83464566929134
 31
0.0
  0
LINE
  5
DA
330
1F
100
AcDbEntity
  8
TITLE
  6
SLD-Solid
370
    18
100
AcDbLine
 10
40.24803149606299
 20
0.5
 30
0.0
 11
40.24803149606299
 21
0.1653543307086614
 31
0.0
  0
LINE
  5
DB
330
1F
100
AcDbEntity
  8
TITLE
  6
SLD-Solid
370
    18
100
AcDbLine
 10
42.21653543307087
 20
41.5
 30
0.0
 11
42.21653543307087
 21
41.83464566929134
 31
0.0
  0
LINE
  5
DC
330
1F
100
AcDbEntity
  8
TITLE
  6
SLD-Solid
370
    18
100
AcDbLine
 10
42.21653543307087
 20
0.5
 30
0.0
 11
42.21653543307087
 21
0.1653543307086614
 31
0.0
  0
LINE
  5
DD
330
1F
100
AcDbEntity
  8
TITLE
  6
SLD-Solid
370
    18
100
AcDbLine
 10
44.18503937007875
 20
41.5
 30
0.0
 11
44.18503937007875
 21
41.83464566929134
 31
0.0
  0
LINE
  5
DE
330
1F
100
AcDbEntity
  8
TITLE
  6
SLD-Solid
370
    18
100
AcDbLine
 10
44.18503937007875
 20
0.5
 30
0.0
 11
44.18503937007875
 21
0.1653543307086614
 31
0.0
  0
LINE
  5
DF
330
1F
100
AcDbEntity
  8
TITLE
  6
SLD-Solid
370
    18
100
AcDbLine
 10
46.15354330708661
 20
41.5
 30
0.0
 11
46.15354330708661
 21
41.83464566929134
 31
0.0
  0
LINE
  5
E0
330
1F
100
AcDbEntity
  8
TITLE
  6
SLD-Solid
370
    18
100
AcDbLine
 10
46.15354330708661
 20
0.5
 30
0.0
 11
46.15354330708661
 21
0.1653543307086614
 31
0.0
  0
MTEXT
  5
E2
330
1F
100
AcDbEntity
  8
NOTES
100
AcDbMText
 10
25.40829780303408
 20
1.070290334694341
 30
0.0
 40
0.25
 41
0.0
 71
     1
 72
     1
  1
UNLESS OTHERWISE SPECIFIED DIMENSIONS ARE IN INCHES.
  7
SLDTEXTSTYLE0
 73
     1
 44
1.0
  0
MTEXT
  5
E3
330
1F
100
AcDbEntity
  8
NOTES
100
AcDbMText
 10
25.4300699278903
 20
3.083062777580425
 30
0.0
 40
0.25
 41
0.0
 71
     1
 72
     1
  1
DATE:
  7
SLDTEXTSTYLE0
 73
     1
 44
1.0
  0
MTEXT
  5
E4
330
1F
100
AcDbEntity
  8
NOTES
100
AcDbMText
 10
27.53870118800532
 20
2.193032963662708
 30
0.0
 40
0.25
 41
0.0
 71
     2
 72
     1
  1
DO NOT SCALE DRAWING
  7
SLDTEXTSTYLE0
 73
     1
 44
1.0
  0
MTEXT
  5
E6
330
1F
100
AcDbEntity
  8
NOTES
100
AcDbMText
 10
31.83073730750538
 20
3.268275555297605
 30
0.0
 40
0.25
 41
0.0
 71
     1
 72
     1
  1
TITLE:
  7
SLDTEXTSTYLE1
 73
     1
 44
1.0
  0
MTEXT
  5
E7
330
1F
100
AcDbEntity
  8
NOTES
100
AcDbMText
 10
39.15618310516095
 20
3.268275555297605
 30
0.0
 40
0.25
 41
0.0
 71
     1
 72
     1
  1
DWG NO.
  7
SLDTEXTSTYLE1
 73
     1
 44
1.0
  0
MTEXT
  5
E8
330
1F
100
AcDbEntity
  8
NOTES
100
AcDbMText
 10
39.18317532028494
 20
1.064581557673828
 30
0.0
 40
0.25
 41
0.0
 71
     1
 72
     1
  1
SCALE:     1:1
  7
SLDTEXTSTYLE1
 73
     1
 44
1.0
  0
MTEXT
  5
E9
330
1F
100
AcDbEntity
  8
NOTES
100
AcDbMText
 10
43.1843009987485
 20
2.651034429460863
 30
0.0
 40
0.25
 41
0.0
 71
     2
 72
     1
  1
156 - S CAD
  7
SLDTEXTSTYLE1
 73
     1
 44
1.0
  0
MTEXT
  5
EA
330
1F
100
AcDbEntity
  8
NOTES
100
AcDbMText
 10
35.42983143161651
 20
2.651034429460865
 30
0.0
 40
0.25
 41
0.0
 71
     2
 72
     1
  1
Assembly
  7
SLDTEXTSTYLE1
 73
     1
 44
1.0
  0
INSERT
  5
FA
330
1F
100
AcDbEntity
  8
NOTES
100
AcDbBlockReference
  2
SW_NOTE_0_1
 10
25.61597262459081
 20
5.148152684778704
 30
0.0
  0
MTEXT
  5
FB
330
1F
100
AcDbEntity
  8
NOTES
100
AcDbMText
 10
28.5053414521308
 20
3.086473326765871
 30
0.0
 40
0.25
 41
0.0
 71
     2
 72
     1
  1
July 26, 2021
  7
SLDTEXTSTYLE1
 73
     1
 44
1.0
  0
MTEXT
  5
FC
330
1F
100
AcDbEntity
  8
TITLE
100
AcDbMText
 10
0.3276279775836454
 20
1.971610227982046
 30
0.0
 40
0.125
 41
0.0
 71
     2
 72
     1
  1
A
  7
SLDTEXTSTYLE1
 73
     1
 44
1.0
  0
MTEXT
  5
FD
330
1F
100
AcDbEntity
  8
TITLE
100
AcDbMText
 10
48.66227364687499
 20
1.971610227982046
 30
0.0
 40
0.125
 41
0.0
 71
     2
 72
     1
  1
A
  7
SLDTEXTSTYLE1
 73
     1
 44
1.0
  0
MTEXT
  5
FE
330
1F
100
AcDbEntity
  8
TITLE
100
AcDbMText
 10
0.3317512413046844
 20
4.34759447995055
 30
0.0
 40
0.125
 41
0.0
 71
     2
 72
     1
  1
B
  7
SLDTEXTSTYLE1
 73
     1
 44
1.0
  0
MTEXT
  5
FF
330
1F
100
AcDbEntity
  8
TITLE
100
AcDbMText
 10
48.66639691059603
 20
4.34759447995055
 30
0.0
 40
0.125
 41
0.0
 71
     2
 72
     1
  1
B
  7
SLDTEXTSTYLE1
 73
     1
 44
1.0
  0
MTEXT
  5
100
330
1F
100
AcDbEntity
  8
TITLE
100
AcDbMText
 10
0.3313750816934457
 20
6.316098416958423
 30
0.0
 40
0.125
 41
0.0
 71
     2
 72
     1
  1
C
  7
SLDTEXTSTYLE1
 73
     1
 44
1.0
  0
MTEXT
  5
101
330
1F
100
AcDbEntity
  8
TITLE
100
AcDbMText
 10
48.66602075098479
 20
6.316098416958423
 30
0.0
 40
0.125
 41
0.0
 71
     2
 72
     1
  1
C
  7
SLDTEXTSTYLE1
 73
     1
 44
1.0
  0
MTEXT
  5
102
330
1F
100
AcDbEntity
  8
TITLE
100
AcDbMText
 10
0.3311870028448152
 20
8.284602353966298
 30
0.0
 40
0.125
 41
0.0
 71
     2
 72
     1
  1
D
  7
SLDTEXTSTYLE1
 73
     1
 44
1.0
  0
MTEXT
  5
103
330
1F
100
AcDbEntity
  8
TITLE
100
AcDbMText
 10
48.66583267213616
 20
8.284602353966298
 30
0.0
 40
0.125
 41
0.0
 71
     2
 72
     1
  1
D
  7
SLDTEXTSTYLE1
 73
     1
 44
1.0
  0
MTEXT
  5
104
330
1F
100
AcDbEntity
  8
TITLE
100
AcDbMText
 10
0.3329231160377541
 20
10.25310629097417
 30
0.0
 40
0.125
 41
0.0
 71
     2
 72
     1
  1
E
  7
SLDTEXTSTYLE1
 73
     1
 44
1.0
  0
MTEXT
  5
105
330
1F
100
AcDbEntity
  8
TITLE
100
AcDbMText
 10
48.6675687853291
 20
10.25310629097417
 30
0.0
 40
0.125
 41
0.0
 71
     2
 72
     1
  1
E
  7
SLDTEXTSTYLE1
 73
     1
 44
1.0
  0
MTEXT
  5
106
330
1F
100
AcDbEntity
  8
TITLE
100
AcDbMText
 10
0.3313461474003637
 20
12.22161022798205
 30
0.0
 40
0.125
 41
0.0
 71
     2
 72
     1
  1
F
  7
SLDTEXTSTYLE1
 73
     1
 44
1.0
  0
MTEXT
  5
107
330
1F
100
AcDbEntity
  8
TITLE
100
AcDbMText
 10
48.66599181669171
 20
12.22161022798205
 30
0.0
 40
0.125
 41
0.0
 71
     2
 72
     1
  1
F
  7
SLDTEXTSTYLE1
 73
     1
 44
1.0
  0
MTEXT
  5
108
330
1F
100
AcDbEntity
  8
TITLE
100
AcDbMText
 10
0.332257605436456
 20
14.19011416498992
 30
0.0
 40
0.125
 41
0.0
 71
     2
 72
     1
  1
G
  7
SLDTEXTSTYLE1
 73
     1
 44
1.0
  0
MTEXT
  5
109
330
1F
100
AcDbEntity
  8
TITLE
100
AcDbMText
 10
48.6669032747278
 20
14.19011416498992
 30
0.0
 40
0.125
 41
0.0
 71
     2
 72
     1
  1
G
  7
SLDTEXTSTYLE1
 73
     1
 44
1.0
  0
MTEXT
  5
10A
330
1F
100
AcDbEntity
  8
TITLE
100
AcDbMText
 10
0.3323733456814148
 20
16.15861810199779
 30
0.0
 40
0.125
 41
0.0
 71
     2
 72
     1
  1
H
  7
SLDTEXTSTYLE1
 73
     1
 44
1.0
  0
MTEXT
  5
10B
330
1F
100
AcDbEntity
  8
TITLE
100
AcDbMText
 10
48.66701901497275
 20
16.15861810199779
 30
0.0
 40
0.125
 41
0.0
 71
     2
 72
     1
  1
H
  7
SLDTEXTSTYLE1
 73
     1
 44
1.0
  0
MTEXT
  5
10C
330
1F
100
AcDbEntity
  8
TITLE
100
AcDbMText
 10
0.3315776305595837
 20
18.12712203900567
 30
0.0
 40
0.125
 41
0.0
 71
     2
 72
     1
  1
J
  7
SLDTEXTSTYLE1
 73
     1
 44
1.0
  0
MTEXT
  5
10D
330
1F
100
AcDbEntity
  8
TITLE
100
AcDbMText
 10
48.66622329985093
 20
18.12712203900567
 30
0.0
 40
0.125
 41
0.0
 71
     2
 72
     1
  1
J
  7
SLDTEXTSTYLE1
 73
     1
 44
1.0
  0
MTEXT
  5
10E
330
1F
100
AcDbEntity
  8
TITLE
100
AcDbMText
 10
0.3323154765159243
 20
20.09562597601354
 30
0.0
 40
0.125
 41
0.0
 71
     2
 72
     1
  1
K
  7
SLDTEXTSTYLE1
 73
     1
 44
1.0
  0
MTEXT
  5
10F
330
1F
100
AcDbEntity
  8
TITLE
100
AcDbMText
 10
48.66696114580726
 20
20.09562597601354
 30
0.0
 40
0.125
 41
0.0
 71
     2
 72
     1
  1
K
  7
SLDTEXTSTYLE1
 73
     1
 44
1.0
  0
MTEXT
  5
110
330
1F
100
AcDbEntity
  8
TITLE
100
AcDbMText
 10
0.3312448739242835
 20
22.06412991302142
 30
0.0
 40
0.125
 41
0.0
 71
     2
 72
     1
  1
L
  7
SLDTEXTSTYLE1
 73
     1
 44
1.0
  0
MTEXT
  5
111
330
1F
100
AcDbEntity
  8
TITLE
100
AcDbMText
 10
48.66589054321563
 20
22.06412991302142
 30
0.0
 40
0.125
 41
0.0
 71
     2
 72
     1
  1
L
  7
SLDTEXTSTYLE1
 73
     1
 44
1.0
  0
MTEXT
  5
112
330
1F
100
AcDbEntity
  8
TITLE
100
AcDbMText
 10
0.3283224192293962
 20
24.0326338500293
 30
0.0
 40
0.125
 41
0.0
 71
     2
 72
     1
  1
M
  7
SLDTEXTSTYLE1
 73
     1
 44
1.0
  0
MTEXT
  5
113
330
1F
100
AcDbEntity
  8
TITLE
100
AcDbMText
 10
48.66296808852074
 20
24.0326338500293
 30
0.0
 40
0.125
 41
0.0
 71
     2
 72
     1
  1
M
  7
SLDTEXTSTYLE1
 73
     1
 44
1.0
  0
MTEXT
  5
114
330
1F
100
AcDbEntity
  8
TITLE
100
AcDbMText
 10
0.3315342275836453
 20
26.00113778703717
 30
0.0
 40
0.125
 41
0.0
 71
     2
 72
     1
  1
N
  7
SLDTEXTSTYLE1
 73
     1
 44
1.0
  0
MTEXT
  5
115
330
1F
100
AcDbEntity
  8
TITLE
100
AcDbMText
 10
48.66617989687499
 20
26.00113778703717
 30
0.0
 40
0.125
 41
0.0
 71
     2
 72
     1
  1
N
  7
SLDTEXTSTYLE1
 73
     1
 44
1.0
  0
MTEXT
  5
116
330
1F
100
AcDbEntity
  8
TITLE
100
AcDbMText
 10
0.3321997349363143
 20
27.96964172404504
 30
0.0
 40
0.125
 41
0.0
 71
     2
 72
     1
  1
P
  7
SLDTEXTSTYLE1
 73
     1
 44
1.0
  0
MTEXT
  5
117
330
1F
100
AcDbEntity
  8
TITLE
100
AcDbMText
 10
48.66684540422766
 20
27.96964172404504
 30
0.0
 40
0.125
 41
0.0
 71
     2
 72
     1
  1
P
  7
SLDTEXTSTYLE1
 73
     1
 44
1.0
  0
MTEXT
  5
118
330
1F
100
AcDbEntity
  8
TITLE
100
AcDbMText
 10
0.3309265867271643
 20
29.93814566105291
 30
0.0
 40
0.125
 41
0.0
 71
     2
 72
     1
  1
R
  7
SLDTEXTSTYLE1
 73
     1
 44
1.0
  0
MTEXT
  5
119
330
1F
100
AcDbEntity
  8
TITLE
100
AcDbMText
 10
48.66557225601851
 20
29.93814566105292
 30
0.0
 40
0.125
 41
0.0
 71
     2
 72
     1
  1
R
  7
SLDTEXTSTYLE1
 73
     1
 44
1.0
  0
MTEXT
  5
11A
330
1F
100
AcDbEntity
  8
TITLE
100
AcDbMText
 10
0.3323010070777432
 20
31.90664959806079
 30
0.0
 40
0.125
 41
0.0
 71
     2
 72
     1
  1
T
  7
SLDTEXTSTYLE1
 73
     1
 44
1.0
  0
MTEXT
  5
11B
330
1F
100
AcDbEntity
  8
TITLE
100
AcDbMText
 10
48.66694667636908
 20
31.90664959806079
 30
0.0
 40
0.125
 41
0.0
 71
     2
 72
     1
  1
T
  7
SLDTEXTSTYLE1
 73
     1
 44
1.0
  0
MTEXT
  5
11C
330
1F
100
AcDbEntity
  8
TITLE
100
AcDbMText
 10
0.3328507755201046
 20
33.87515353506867
 30
0.0
 40
0.125
 41
0.0
 71
     2
 72
     1
  1
U
  7
SLDTEXTSTYLE1
 73
     1
 44
1.0
  0
MTEXT
  5
11D
330
1F
100
AcDbEntity
  8
TITLE
100
AcDbMText
 10
48.66749644481145
 20
33.87515353506867
 30
0.0
 40
0.125
 41
0.0
 71
     2
 72
     1
  1
U
  7
SLDTEXTSTYLE1
 73
     1
 44
1.0
  0
MTEXT
  5
11E
330
1F
100
AcDbEntity
  8
TITLE
100
AcDbMText
 10
0.3307529773167151
 20
35.84365747207654
 30
0.0
 40
0.125
 41
0.0
 71
     2
 72
     1
  1
V
  7
SLDTEXTSTYLE1
 73
     1
 44
1.0
  0
MTEXT
  5
11F
330
1F
100
AcDbEntity
  8
TITLE
100
AcDbMText
 10
48.66539864660805
 20
35.84365747207654
 30
0.0
 40
0.125
 41
0.0
 71
     2
 72
     1
  1
V
  7
SLDTEXTSTYLE1
 73
     1
 44
1.0
  0
MTEXT
  5
120
330
1F
100
AcDbEntity
  8
TITLE
100
AcDbMText
 10
0.3327784409203867
 20
37.81216140908441
 30
0.0
 40
0.125
 41
0.0
 71
     2
 72
     1
  1
W
  7
SLDTEXTSTYLE1
 73
     1
 44
1.0
  0
MTEXT
  5
121
330
1F
100
AcDbEntity
  8
TITLE
100
AcDbMText
 10
48.66742411021173
 20
37.81216140908441
 30
0.0
 40
0.125
 41
0.0
 71
     2
 72
     1
  1
W
  7
SLDTEXTSTYLE1
 73
     1
 44
1.0
  0
MTEXT
  5
122
330
1F
100
AcDbEntity
  8
TITLE
100
AcDbMText
 10
0.3321997349363143
 20
40.18814566105292
 30
0.0
 40
0.125
 41
0.0
 71
     2
 72
     1
  1
Y
  7
SLDTEXTSTYLE1
 73
     1
 44
1.0
  0
MTEXT
  5
123
330
1F
100
AcDbEntity
  8
TITLE
100
AcDbMText
 10
48.66684540422766
 20
40.18814566105292
 30
0.0
 40
0.125
 41
0.0
 71
     2
 72
     1
  1
Y
  7
SLDTEXTSTYLE1
 73
     1
 44
1.0
  0
MTEXT
  5
124
330
1F
100
AcDbEntity
  8
TITLE
100
AcDbMText
 10
1.670710985086798
 20
0.4125551098718104
 30
0.0
 40
0.125
 41
0.0
 71
     2
 72
     1
  1
24
  7
SLDTEXTSTYLE1
 73
     1
 44
1.0
  0
MTEXT
  5
125
330
1F
100
AcDbEntity
  8
TITLE
100
AcDbMText
 10
1.670710985086798
 20
41.74720077916316
 30
0.0
 40
0.125
 41
0.0
 71
     2
 72
     1
  1
24
  7
SLDTEXTSTYLE1
 73
     1
 44
1.0
  0
MTEXT
  5
126
330
1F
100
AcDbEntity
  8
TITLE
100
AcDbMText
 10
3.828191300047427
 20
0.4125551098718104
 30
0.0
 40
0.125
 41
0.0
 71
     2
 72
     1
  1
23
  7
SLDTEXTSTYLE1
 73
     1
 44
1.0
  0
MTEXT
  5
127
330
1F
100
AcDbEntity
  8
TITLE
100
AcDbMText
 10
3.828191300047427
 20
41.74720077916316
 30
0.0
 40
0.125
 41
0.0
 71
     2
 72
     1
  1
23
  7
SLDTEXTSTYLE1
 73
     1
 44
1.0
  0
MTEXT
  5
128
330
1F
100
AcDbEntity
  8
TITLE
100
AcDbMText
 10
5.796695237055302
 20
0.4125551098718104
 30
0.0
 40
0.125
 41
0.0
 71
     2
 72
     1
  1
22
  7
SLDTEXTSTYLE1
 73
     1
 44
1.0
  0
MTEXT
  5
129
330
1F
100
AcDbEntity
  8
TITLE
100
AcDbMText
 10
5.796695237055302
 20
41.74720077916316
 30
0.0
 40
0.125
 41
0.0
 71
     2
 72
     1
  1
22
  7
SLDTEXTSTYLE1
 73
     1
 44
1.0
  0
MTEXT
  5
12A
330
1F
100
AcDbEntity
  8
TITLE
100
AcDbMText
 10
7.765199174063176
 20
0.4125551098718104
 30
0.0
 40
0.125
 41
0.0
 71
     2
 72
     1
  1
21
  7
SLDTEXTSTYLE1
 73
     1
 44
1.0
  0
MTEXT
  5
12B
330
1F
100
AcDbEntity
  8
TITLE
100
AcDbMText
 10
7.765199174063176
 20
41.74720077916316
 30
0.0
 40
0.125
 41
0.0
 71
     2
 72
     1
  1
21
  7
SLDTEXTSTYLE1
 73
     1
 44
1.0
  0
MTEXT
  5
12C
330
1F
100
AcDbEntity
  8
TITLE
100
AcDbMText
 10
9.733703111071051
 20
0.4125551098718104
 30
0.0
 40
0.125
 41
0.0
 71
     2
 72
     1
  1
20
  7
SLDTEXTSTYLE1
 73
     1
 44
1.0
  0
MTEXT
  5
12D
330
1F
100
AcDbEntity
  8
TITLE
100
AcDbMText
 10
9.733703111071048
 20
41.74720077916316
 30
0.0
 40
0.125
 41
0.0
 71
     2
 72
     1
  1
20
  7
SLDTEXTSTYLE1
 73
     1
 44
1.0
  0
MTEXT
  5
12E
330
1F
100
AcDbEntity
  8
TITLE
100
AcDbMText
 10
11.70220704807892
 20
0.4125551098718104
 30
0.0
 40
0.125
 41
0.0
 71
     2
 72
     1
  1
19
  7
SLDTEXTSTYLE1
 73
     1
 44
1.0
  0
MTEXT
  5
12F
330
1F
100
AcDbEntity
  8
TITLE
100
AcDbMText
 10
11.70220704807892
 20
41.74720077916316
 30
0.0
 40
0.125
 41
0.0
 71
     2
 72
     1
  1
19
  7
SLDTEXTSTYLE1
 73
     1
 44
1.0
  0
MTEXT
  5
130
330
1F
100
AcDbEntity
  8
TITLE
100
AcDbMText
 10
13.6707109850868
 20
0.4125551098718104
 30
0.0
 40
0.125
 41
0.0
 71
     2
 72
     1
  1
18
  7
SLDTEXTSTYLE1
 73
     1
 44
1.0
  0
MTEXT
  5
131
330
1F
100
AcDbEntity
  8
TITLE
100
AcDbMText
 10
13.6707109850868
 20
41.74720077916316
 30
0.0
 40
0.125
 41
0.0
 71
     2
 72
     1
  1
18
  7
SLDTEXTSTYLE1
 73
     1
 44
1.0
  0
MTEXT
  5
132
330
1F
100
AcDbEntity
  8
TITLE
100
AcDbMText
 10
15.63921492209467
 20
0.4125551098718104
 30
0.0
 40
0.125
 41
0.0
 71
     2
 72
     1
  1
17
  7
SLDTEXTSTYLE1
 73
     1
 44
1.0
  0
MTEXT
  5
133
330
1F
100
AcDbEntity
  8
TITLE
100
AcDbMText
 10
15.63921492209467
 20
41.74720077916316
 30
0.0
 40
0.125
 41
0.0
 71
     2
 72
     1
  1
17
  7
SLDTEXTSTYLE1
 73
     1
 44
1.0
  0
MTEXT
  5
134
330
1F
100
AcDbEntity
  8
TITLE
100
AcDbMText
 10
17.60771885910254
 20
0.4125551098718105
 30
0.0
 40
0.125
 41
0.0
 71
     2
 72
     1
  1
16
  7
SLDTEXTSTYLE1
 73
     1
 44
1.0
  0
MTEXT
  5
135
330
1F
100
AcDbEntity
  8
TITLE
100
AcDbMText
 10
17.60771885910254
 20
41.74720077916316
 30
0.0
 40
0.125
 41
0.0
 71
     2
 72
     1
  1
16
  7
SLDTEXTSTYLE1
 73
     1
 44
1.0
  0
MTEXT
  5
136
330
1F
100
AcDbEntity
  8
TITLE
100
AcDbMText
 10
19.57622279611042
 20
0.4125551098718104
 30
0.0
 40
0.125
 41
0.0
 71
     2
 72
     1
  1
15
  7
SLDTEXTSTYLE1
 73
     1
 44
1.0
  0
MTEXT
  5
137
330
1F
100
AcDbEntity
  8
TITLE
100
AcDbMText
 10
19.57622279611042
 20
41.74720077916316
 30
0.0
 40
0.125
 41
0.0
 71
     2
 72
     1
  1
15
  7
SLDTEXTSTYLE1
 73
     1
 44
1.0
  0
MTEXT
  5
138
330
1F
100
AcDbEntity
  8
TITLE
100
AcDbMText
 10
21.54472673311829
 20
0.4125551098718104
 30
0.0
 40
0.125
 41
0.0
 71
     2
 72
     1
  1
14
  7
SLDTEXTSTYLE1
 73
     1
 44
1.0
  0
MTEXT
  5
139
330
1F
100
AcDbEntity
  8
TITLE
100
AcDbMText
 10
21.54472673311829
 20
41.74720077916316
 30
0.0
 40
0.125
 41
0.0
 71
     2
 72
     1
  1
14
  7
SLDTEXTSTYLE1
 73
     1
 44
1.0
  0
MTEXT
  5
13A
330
1F
100
AcDbEntity
  8
TITLE
100
AcDbMText
 10
23.51323067012617
 20
0.4125551098718105
 30
0.0
 40
0.125
 41
0.0
 71
     2
 72
     1
  1
13
  7
SLDTEXTSTYLE1
 73
     1
 44
1.0
  0
MTEXT
  5
13B
330
1F
100
AcDbEntity
  8
TITLE
100
AcDbMText
 10
23.51323067012617
 20
41.74720077916316
 30
0.0
 40
0.125
 41
0.0
 71
     2
 72
     1
  1
13
  7
SLDTEXTSTYLE1
 73
     1
 44
1.0
  0
MTEXT
  5
13C
330
1F
100
AcDbEntity
  8
TITLE
100
AcDbMText
 10
25.48173460713404
 20
0.4125551098718104
 30
0.0
 40
0.125
 41
0.0
 71
     2
 72
     1
  1
12
  7
SLDTEXTSTYLE1
 73
     1
 44
1.0
  0
MTEXT
  5
13D
330
1F
100
AcDbEntity
  8
TITLE
100
AcDbMText
 10
25.48173460713404
 20
41.74720077916316
 30
0.0
 40
0.125
 41
0.0
 71
     2
 72
     1
  1
12
  7
SLDTEXTSTYLE1
 73
     1
 44
1.0
  0
MTEXT
  5
13E
330
1F
100
AcDbEntity
  8
TITLE
100
AcDbMText
 10
27.45023854414192
 20
0.4125551098718104
 30
0.0
 40
0.125
 41
0.0
 71
     2
 72
     1
  1
11
  7
SLDTEXTSTYLE1
 73
     1
 44
1.0
  0
MTEXT
  5
13F
330
1F
100
AcDbEntity
  8
TITLE
100
AcDbMText
 10
27.45023854414192
 20
41.74720077916316
 30
0.0
 40
0.125
 41
0.0
 71
     2
 72
     1
  1
11
  7
SLDTEXTSTYLE1
 73
     1
 44
1.0
  0
MTEXT
  5
140
330
1F
100
AcDbEntity
  8
TITLE
100
AcDbMText
 10
29.41874248114979
 20
0.4125551098718104
 30
0.0
 40
0.125
 41
0.0
 71
     2
 72
     1
  1
10
  7
SLDTEXTSTYLE1
 73
     1
 44
1.0
  0
MTEXT
  5
141
330
1F
100
AcDbEntity
  8
TITLE
100
AcDbMText
 10
29.41874248114979
 20
41.74720077916316
 30
0.0
 40
0.125
 41
0.0
 71
     2
 72
     1
  1
10
  7
SLDTEXTSTYLE1
 73
     1
 44
1.0
  0
MTEXT
  5
142
330
1F
100
AcDbEntity
  8
TITLE
100
AcDbMText
 10
31.38850509884261
 20
0.4125551098718104
 30
0.0
 40
0.125
 41
0.0
 71
     2
 72
     1
  1
9
  7
SLDTEXTSTYLE1
 73
     1
 44
1.0
  0
MTEXT
  5
143
330
1F
100
AcDbEntity
  8
TITLE
100
AcDbMText
 10
31.38850509884261
 20
41.74720077916316
 30
0.0
 40
0.125
 41
0.0
 71
     2
 72
     1
  1
9
  7
SLDTEXTSTYLE1
 73
     1
 44
1.0
  0
MTEXT
  5
144
330
1F
100
AcDbEntity
  8
TITLE
100
AcDbMText
 10
33.35700903585049
 20
0.4125551098718104
 30
0.0
 40
0.125
 41
0.0
 71
     2
 72
     1
  1
8
  7
SLDTEXTSTYLE1
 73
     1
 44
1.0
  0
MTEXT
  5
145
330
1F
100
AcDbEntity
  8
TITLE
100
AcDbMText
 10
33.35700903585049
 20
41.74720077916316
 30
0.0
 40
0.125
 41
0.0
 71
     2
 72
     1
  1
8
  7
SLDTEXTSTYLE1
 73
     1
 44
1.0
  0
MTEXT
  5
146
330
1F
100
AcDbEntity
  8
TITLE
100
AcDbMText
 10
35.32551297285836
 20
0.4125551098718104
 30
0.0
 40
0.125
 41
0.0
 71
     2
 72
     1
  1
7
  7
SLDTEXTSTYLE1
 73
     1
 44
1.0
  0
MTEXT
  5
147
330
1F
100
AcDbEntity
  8
TITLE
100
AcDbMText
 10
35.32551297285836
 20
41.74720077916316
 30
0.0
 40
0.125
 41
0.0
 71
     2
 72
     1
  1
7
  7
SLDTEXTSTYLE1
 73
     1
 44
1.0
  0
MTEXT
  5
148
330
1F
100
AcDbEntity
  8
TITLE
100
AcDbMText
 10
37.29401690986624
 20
0.4125551098718105
 30
0.0
 40
0.125
 41
0.0
 71
     2
 72
     1
  1
6
  7
SLDTEXTSTYLE1
 73
     1
 44
1.0
  0
MTEXT
  5
149
330
1F
100
AcDbEntity
  8
TITLE
100
AcDbMText
 10
37.29401690986624
 20
41.74720077916316
 30
0.0
 40
0.125
 41
0.0
 71
     2
 72
     1
  1
6
  7
SLDTEXTSTYLE1
 73
     1
 44
1.0
  0
MTEXT
  5
14A
330
1F
100
AcDbEntity
  8
TITLE
100
AcDbMText
 10
39.26252084687411
 20
0.4125551098718104
 30
0.0
 40
0.125
 41
0.0
 71
     2
 72
     1
  1
5
  7
SLDTEXTSTYLE1
 73
     1
 44
1.0
  0
MTEXT
  5
14B
330
1F
100
AcDbEntity
  8
TITLE
100
AcDbMText
 10
39.26252084687411
 20
41.74720077916316
 30
0.0
 40
0.125
 41
0.0
 71
     2
 72
     1
  1
5
  7
SLDTEXTSTYLE1
 73
     1
 44
1.0
  0
MTEXT
  5
14C
330
1F
100
AcDbEntity
  8
TITLE
100
AcDbMText
 10
41.23102478388198
 20
0.4125551098718105
 30
0.0
 40
0.125
 41
0.0
 71
     2
 72
     1
  1
4
  7
SLDTEXTSTYLE1
 73
     1
 44
1.0
  0
MTEXT
  5
14D
330
1F
100
AcDbEntity
  8
TITLE
100
AcDbMText
 10
41.23102478388197
 20
41.74720077916316
 30
0.0
 40
0.125
 41
0.0
 71
     2
 72
     1
  1
4
  7
SLDTEXTSTYLE1
 73
     1
 44
1.0
  0
MTEXT
  5
14E
330
1F
100
AcDbEntity
  8
TITLE
100
AcDbMText
 10
43.19952872088987
 20
0.4125551098718104
 30
0.0
 40
0.125
 41
0.0
 71
     2
 72
     1
  1
3
  7
SLDTEXTSTYLE1
 73
     1
 44
1.0
  0
MTEXT
  5
14F
330
1F
100
AcDbEntity
  8
TITLE
100
AcDbMText
 10
43.19952872088986
 20
41.74720077916315
 30
0.0
 40
0.125
 41
0.0
 71
     2
 72
     1
  1
3
  7
SLDTEXTSTYLE1
 73
     1
 44
1.0
  0
MTEXT
  5
150
330
1F
100
AcDbEntity
  8
TITLE
100
AcDbMText
 10
45.16803265789773
 20
0.4125551098718104
 30
0.0
 40
0.125
 41
0.0
 71
     2
 72
     1
  1
2
  7
SLDTEXTSTYLE1
 73
     1
 44
1.0
  0
MTEXT
  5
151
330
1F
100
AcDbEntity
  8
TITLE
100
AcDbMText
 10
45.16803265789773
 20
41.74720077916316
 30
0.0
 40
0.125
 41
0.0
 71
     2
 72
     1
  1
2
  7
SLDTEXTSTYLE1
 73
     1
 44
1.0
  0
MTEXT
  5
152
330
1F
100
AcDbEntity
  8
TITLE
100
AcDbMText
 10
47.32551297285838
 20
0.4125551098718104
 30
0.0
 40
0.125
 41
0.0
 71
     2
 72
     1
  1
1
  7
SLDTEXTSTYLE1
 73
     1
 44
1.0
  0
MTEXT
  5
153
330
1F
100
AcDbEntity
  8
TITLE
100
AcDbMText
 10
47.32551297285836
 20
41.74720077916316
 30
0.0
 40
0.125
 41
0.0
 71
     2
 72
     1
  1
1
  7
SLDTEXTSTYLE1
 73
     1
 44
1.0
  0
LINE
  5
154
330
1F
100
AcDbEntity
  8
0
  6
SLD-Solid
 62
     7
370
    25
100
AcDbLine
 10
8.494271664813697
 20
11.43554532592005
 30
0.0
 11
12.9942716648137
 21
11.43554532592005
 31
0.0
  0
SPLINE
  5
155
330
1F
100
AcDbEntity
  8
0
  6
SLD-Solid
 62
     7
370
    25
100
AcDbSpline
210
0.0
220
0.0
230
1.0
 70
    12
 71
     3
 72
    18
 73
    14
 74
     0
 42
0.00000001
 43
0.00000001
 40
0.0
 40
0.0
 40
0.0
 40
0.0
 40
0.070031549317655
 40
0.1560030181230329
 40
0.2432567631313842
 40
0.3331750406779808
 40
0.4259101463354377
 40
0.5205727596925899
 40
0.6160240045109217
 40
0.711387089424686
 40
0.8064620080866385
 40
0.9012709510175161
 40
1.0
 40
1.0
 40
1.0
 40
1.0
 10
11.23112592276055
 20
17.95095870160407
 30
0.0
 41
1.0
 10
11.23034799631703
 20
17.96183155866396
 30
0.0
 41
1.0
 10
11.22861507916396
 20
17.98605204976392
 30
0.0
 41
1.0
 10
11.2151821572779
 20
18.02231582940259
 30
0.0
 41
1.0
 10
11.19352408215848
 20
18.05889392435293
 30
0.0
 41
1.0
 10
11.16347396979998
 20
18.09302116927573
 30
0.0
 41
1.0
 10
11.12558169938007
 20
18.12426632019944
 30
0.0
 41
1.0
 10
11.08031241865714
 20
18.15195423656195
 30
0.0
 41
1.0
 10
11.02872959795614
 20
18.17538187230207
 30
0.0
 41
1.0
 10
10.9721057833944
 20
18.19406912502278
 30
0.0
 41
1.0
 10
10.91175030937885
 20
18.20756125078475
 30
0.0
 41
1.0
 10
10.84800065191933
 20
18.21630407300746
 30
0.0
 41
1.0
 10
10.80429423166609
 20
18.21741014946234
 30
0.0
 41
1.0
 10
10.78199838544297
 20
18.217974389462
 30
0.0
 41
1.0
  0
SPLINE
  5
156
330
1F
100
AcDbEntity
  8
0
  6
SLD-Solid
 62
     7
370
    25
100
AcDbSpline
210
0.0
220
0.0
230
1.0
 70
    12
 71
     3
 72
    19
 73
    15
 74
     0
 42
0.00000001
 43
0.00000001
 40
0.0
 40
0.0
 40
0.0
 40
0.0
 40
0.0494450518988453
 40
0.1426561634727749
 40
0.2360836578467575
 40
0.3298212776302064
 40
0.4240188582541053
 40
0.5187909288302506
 40
0.6141246060775911
 40
0.7095178142768385
 40
0.8037206818400439
 40
0.8951976440138659
 40
0.9832323870436459
 40
1.0
 40
1.0
 40
1.0
 40
1.0
 10
10.78199838544297
 20
18.217974389462
 30
0.0
 41
1.0
 10
10.77067357373087
 20
18.21782215771162
 30
0.0
 41
1.0
 10
10.73799984544346
 20
18.217382946979
 30
0.0
 41
1.0
 10
10.68432310630182
 20
18.21251696421081
 30
0.0
 41
1.0
 10
10.62259348282981
 20
18.20170408779111
 30
0.0
 41
1.0
 10
10.56389084551836
 20
18.18561887883263
 30
0.0
 41
1.0
 10
10.50934143535316
 20
18.16451650203847
 30
0.0
 41
1.0
 10
10.46001671715317
 20
18.13855127531244
 30
0.0
 41
1.0
 10
10.41699088724792
 20
18.10795366741095
 30
0.0
 41
1.0
 10
10.38154159130248
 20
18.07310240802999
 30
0.0
 41
1.0
 10
10.3545681334674
 20
18.03469847435613
 30
0.0
 41
1.0
 10
10.33818815520855
 20
17.99396143003007
 30
0.0
 41
1.0
 10
10.33115929910642
 20
17.96312666270911
 30
0.0
 41
1.0
 10
10.33251268376719
 20
17.94665289050797
 30
0.0
 41
1.0
 10
10.33272921544683
 20
17.94401720704837
 30
0.0
 41
1.0
  0
LINE
  5
157
330
1F
100
AcDbEntity
  8
0
  6
SLD-Solid
 62
     7
370
    25
100
AcDbLine
 10
11.23199838544298
 20
17.77781840123108
 30
0.0
 11
11.23199838544298
 21
17.94328259479762
 31
0.0
  0
LINE
  5
158
330
1F
100
AcDbEntity
  8
0
  6
SLD-Solid
 62
     7
370
    25
100
AcDbLine
 10
10.33199838544298
 20
17.94328259479761
 30
0.0
 11
10.33199838544298
 21
17.77781840123108
 31
0.0
  0
LINE
  5
159
330
1F
100
AcDbEntity
  8
0
  6
SLD-Solid
 62
     7
370
    25
100
AcDbLine
 10
10.46699838544298
 20
17.98464864318925
 30
0.0
 11
10.46699838544298
 21
17.97430713109134
 31
0.0
  0
LINE
  5
15A
330
1F
100
AcDbEntity
  8
0
  6
SLD-Solid
 62
     7
370
    25
100
AcDbLine
 10
11.09699838544297
 20
17.97430713109134
 30
0.0
 11
11.09699838544297
 21
17.98464864318925
 31
0.0
  0
LINE
  5
15B
330
1F
100
AcDbEntity
  8
0
  6
SLD-Solid
 62
     7
370
    25
100
AcDbLine
 10
14.4278886015957
 20
11.55704532592005
 30
0.0
 11
14.46670714205082
 21
11.55704532592005
 31
0.0
  0
LINE
  5
15C
330
1F
100
AcDbEntity
  8
0
  6
SLD-Solid
 62
     7
370
    25
100
AcDbLine
 10
14.46670714205082
 20
11.68204532592005
 30
0.0
 11
14.4278886015957
 21
11.68204532592005
 31
0.0
  0
LINE
  5
15D
330
1F
100
AcDbEntity
  8
0
  6
SLD-Solid
 62
     7
370
    25
100
AcDbLine
 10
7.136139117554965
 20
11.68204532592005
 30
0.0
 11
7.103936187576582
 21
11.68204532592005
 31
0.0
  0
LINE
  5
15E
330
1F
100
AcDbEntity
  8
0
  6
SLD-Solid
 62
     7
370
    25
100
AcDbLine
 10
7.103936187576582
 20
11.55704532592005
 30
0.0
 11
7.136139117554965
 21
11.55704532592005
 31
0.0
  0
ARC
  5
15F
330
1F
100
AcDbEntity
  8
0
  6
SLD-Solid
 62
     7
370
    25
100
AcDbCircle
 10
7.029020577099836
 20
11.4946052074435
 30
0.0
 40
0.0025000000000004
100
AcDbArc
 50
212.9862941624495
 51
0.0
  0
ARC
  5
160
330
1F
100
AcDbEntity
  8
0
  6
SLD-Solid
 62
     7
370
    25
100
AcDbCircle
 10
7.029020577099836
 20
11.74448544439661
 30
0.0
 40
0.0025000000000004
100
AcDbArc
 50
0.0
 51
147.0137058375513
  0
ARC
  5
161
330
1F
100
AcDbEntity
  8
0
  6
SLD-Solid
 62
     7
370
    25
100
AcDbCircle
 10
7.221512280414065
 20
11.61954532592005
 30
0.0
 40
0.2319843982708822
100
AcDbArc
 50
147.0137058375607
 51
212.9862941624404
  0
ARC
  5
162
330
1F
100
AcDbEntity
  8
0
  6
SLD-Solid
 62
     7
370
    25
100
AcDbCircle
 10
14.53500714205083
 20
11.74448544439661
 30
0.0
 40
0.0025000000000012
100
AcDbArc
 50
32.98629416242653
 51
179.9999999999898
  0
ARC
  5
163
330
1F
100
AcDbEntity
  8
0
  6
SLD-Solid
 62
     7
370
    25
100
AcDbCircle
 10
14.53500714205083
 20
11.4946052074435
 30
0.0
 40
0.0025000000000012
100
AcDbArc
 50
180.0
 51
327.0137058375743
  0
ARC
  5
164
330
1F
100
AcDbEntity
  8
0
  6
SLD-Solid
 62
     7
370
    25
100
AcDbCircle
 10
14.3425154387366
 20
11.61954532592005
 30
0.0
 40
0.2319843982708829
100
AcDbArc
 50
327.0137058375613
 51
32.98629416243913
  0
LINE
  5
165
330
1F
100
AcDbEntity
  8
0
  6
SLD-Solid
 62
     7
370
    25
100
AcDbLine
 10
13.24849582111999
 20
12.43957429041847
 30
0.0
 11
13.24849582111999
 21
12.45804532592006
 31
0.0
  0
ARC
  5
166
330
1F
100
AcDbEntity
  8
0
  6
SLD-Solid
 62
     7
370
    25
100
AcDbCircle
 10
13.09227166481371
 20
12.71265275981019
 30
0.0
 40
0.3146074338901328
100
AcDbArc
 50
251.8503906058727
 51
299.7732353832891
  0
LINE
  5
167
330
1F
100
AcDbEntity
  8
0
  6
SLD-Solid
 62
     7
370
    25
100
AcDbLine
 10
13.18602166481371
 20
12.45804532592006
 30
0.0
 11
13.18602166481371
 21
12.50804532592006
 31
0.0
  0
LINE
  5
168
330
1F
100
AcDbEntity
  8
0
  6
SLD-Solid
 62
     7
370
    25
100
AcDbLine
 10
13.18602166481371
 20
12.55804532592006
 30
0.0
 11
13.18602166481371
 21
12.60754532592006
 31
0.0
  0
LINE
  5
169
330
1F
100
AcDbEntity
  8
0
  6
SLD-Solid
 62
     7
370
    25
100
AcDbLine
 10
13.18602166481371
 20
14.76354532592005
 30
0.0
 11
13.18602166481371
 21
14.81304532592006
 31
0.0
  0
LINE
  5
16A
330
1F
100
AcDbEntity
  8
0
  6
SLD-Solid
 62
     7
370
    25
100
AcDbLine
 10
13.18602166481371
 20
14.86304532592006
 30
0.0
 11
13.18602166481371
 21
14.90863509816582
 31
0.0
  0
ARC
  5
16B
330
1F
100
AcDbEntity
  8
0
  6
SLD-Solid
 62
     7
370
    25
100
AcDbCircle
 10
8.226271664813705
 20
12.90054532592005
 30
0.0
 40
0.0500000000000007
100
AcDbArc
 50
180.0
 51
270.0000000000008
  0
ARC
  5
16C
330
1F
100
AcDbEntity
  8
0
  6
SLD-Solid
 62
     7
370
    25
100
AcDbCircle
 10
8.226271664813705
 20
14.47054532592005
 30
0.0
 40
0.0499999999999989
100
AcDbArc
 50
90.0
 51
180.0
  0
LINE
  5
16D
330
1F
100
AcDbEntity
  8
0
  6
SLD-Solid
 62
     7
370
    25
100
AcDbLine
 10
8.226271664813705
 20
12.85054532592005
 30
0.0
 11
8.266271664813702
 21
12.85054532592005
 31
0.0
  0
LINE
  5
16E
330
1F
100
AcDbEntity
  8
0
  6
SLD-Solid
 62
     7
370
    25
100
AcDbLine
 10
8.266271664813702
 20
14.52054532592005
 30
0.0
 11
8.226271664813705
 21
14.52054532592005
 31
0.0
  0
ARC
  5
16F
330
1F
100
AcDbEntity
  8
0
  6
SLD-Solid
 62
     7
370
    25
100
AcDbCircle
 10
8.266271664813706
 20
12.90054532592005
 30
0.0
 40
0.0500000000000025
100
AcDbArc
 50
270.0000000000008
 51
348.9173680777014
  0
ARC
  5
170
330
1F
100
AcDbEntity
  8
0
  6
SLD-Solid
 62
     7
370
    25
100
AcDbCircle
 10
8.266271664813706
 20
14.47054532592005
 30
0.0
 40
0.0500000000000006
100
AcDbArc
 50
11.08263192229736
 51
90.0
  0
ARC
  5
171
330
1F
100
AcDbEntity
  8
0
  6
SLD-Solid
 62
     7
370
    25
100
AcDbCircle
 10
8.303072326493119
 20
12.89333690723372
 30
0.0
 40
0.0125000000000013
100
AcDbArc
 50
348.9173680776983
 51
0.0
  0
ARC
  5
172
330
1F
100
AcDbEntity
  8
0
  6
SLD-Solid
 62
     7
370
    25
100
AcDbCircle
 10
8.303072326493119
 20
14.47775374460637
 30
0.0
 40
0.0125000000000011
100
AcDbArc
 50
0.0
 51
11.08263192229458
  0
LINE
  5
173
330
1F
100
AcDbEntity
  8
0
  6
SLD-Solid
 62
     7
370
    25
100
AcDbLine
 10
8.31557232649312
 20
12.89333690723372
 30
0.0
 11
8.31557232649312
 21
14.47775374460637
 31
0.0
  0
LWPOLYLINE
  5
174
330
1F
100
AcDbEntity
  8
0
  6
SLD-Solid
 62
     7
370
    25
100
AcDbPolyline
 90
        3
 70
   128
 43
0.0
 10
8.318771664813706
 20
14.35154532592005
 10
8.316333035788505
 20
14.35178550991501
 10
8.31557232649312
 20
14.35196169094085
  0
LWPOLYLINE
  5
175
330
1F
100
AcDbEntity
  8
0
  6
SLD-Solid
 62
     7
370
    25
100
AcDbPolyline
 90
        3
 70
   128
 43
0.0
 10
8.31557232649312
 20
13.01912896089924
 10
8.316333035788505
 20
13.01930514192509
 10
8.318771664813706
 20
13.01954532592005
  0
LINE
  5
176
330
1F
100
AcDbEntity
  8
0
  6
SLD-Solid
 62
     7
370
    25
100
AcDbLine
 10
8.318771664813706
 20
13.01954532592005
 30
0.0
 11
8.494271664813697
 21
13.01954532592005
 31
0.0
  0
LINE
  5
177
330
1F
100
AcDbEntity
  8
0
  6
SLD-Solid
 62
     7
370
    25
100
AcDbLine
 10
8.494271664813697
 20
14.35154532592005
 30
0.0
 11
8.318771664813706
 21
14.35154532592005
 31
0.0
  0
ARC
  5
178
330
1F
100
AcDbEntity
  8
0
  6
SLD-Solid
 62
     7
370
    25
100
AcDbCircle
 10
8.860999527238718
 20
13.68554532592005
 30
0.0
 40
0.6999999999999985
100
AcDbArc
 50
177.3912504070947
 51
182.6087495929064
  0
LINE
  5
179
330
1F
100
AcDbEntity
  8
0
  6
SLD-Solid
 62
     7
370
    25
100
AcDbLine
 10
8.175709295285834
 20
14.02433031834255
 30
0.0
 11
8.161724985680912
 21
13.71740620364052
 31
0.0
  0
LINE
  5
17A
330
1F
100
AcDbEntity
  8
0
  6
SLD-Solid
 62
     7
370
    25
100
AcDbLine
 10
8.161724985680912
 20
13.65368444819958
 30
0.0
 11
8.175709295285834
 21
13.34676033349755
 31
0.0
  0
ARC
  5
17B
330
1F
100
AcDbEntity
  8
0
  6
SLD-Solid
 62
     7
370
    25
100
AcDbCircle
 10
13.22227166481369
 20
14.47054532592005
 30
0.0
 40
0.0499999999999989
100
AcDbArc
 50
90.0
 51
168.9173680777023
  0
ARC
  5
17C
330
1F
100
AcDbEntity
  8
0
  6
SLD-Solid
 62
     7
370
    25
100
AcDbCircle
 10
13.22227166481369
 20
12.90054532592005
 30
0.0
 40
0.0500000000000007
100
AcDbArc
 50
191.0826319223005
 51
270.0000000000008
  0
ARC
  5
17D
330
1F
100
AcDbEntity
  8
0
  6
SLD-Solid
 62
     7
370
    25
100
AcDbCircle
 10
13.26227166481369
 20
14.47054532592005
 30
0.0
 40
0.0500000000000025
100
AcDbArc
 50
0.0
 51
90.0
  0
ARC
  5
17E
330
1F
100
AcDbEntity
  8
0
  6
SLD-Solid
 62
     7
370
    25
100
AcDbCircle
 10
13.26227166481369
 20
12.90054532592005
 30
0.0
 40
0.0500000000000007
100
AcDbArc
 50
270.0000000000008
 51
0.0
  0
LINE
  5
17F
330
1F
100
AcDbEntity
  8
0
  6
SLD-Solid
 62
     7
370
    25
100
AcDbLine
 10
13.26227166481369
 20
14.52054532592005
 30
0.0
 11
13.22227166481369
 21
14.52054532592005
 31
0.0
  0
LINE
  5
180
330
1F
100
AcDbEntity
  8
0
  6
SLD-Solid
 62
     7
370
    25
100
AcDbLine
 10
13.22227166481369
 20
12.85054532592005
 30
0.0
 11
13.26227166481369
 21
12.85054532592005
 31
0.0
  0
ARC
  5
181
330
1F
100
AcDbEntity
  8
0
  6
SLD-Solid
 62
     7
370
    25
100
AcDbCircle
 10
13.18547100313428
 20
14.47775374460637
 30
0.0
 40
0.0125000000000011
100
AcDbArc
 50
168.9173680777054
 51
180.0
  0
ARC
  5
182
330
1F
100
AcDbEntity
  8
0
  6
SLD-Solid
 62
     7
370
    25
100
AcDbCircle
 10
13.18547100313428
 20
12.89333690723372
 30
0.0
 40
0.0124999999999995
100
AcDbArc
 50
180.0
 51
191.082631922305
  0
LINE
  5
183
330
1F
100
AcDbEntity
  8
0
  6
SLD-Solid
 62
     7
370
    25
100
AcDbLine
 10
13.17297100313428
 20
14.47775374460637
 30
0.0
 11
13.17297100313428
 21
12.89333690723372
 31
0.0
  0
LWPOLYLINE
  5
184
330
1F
100
AcDbEntity
  8
0
  6
SLD-Solid
 62
     7
370
    25
100
AcDbPolyline
 90
        3
 70
   128
 43
0.0
 10
13.16977166481369
 20
13.02554532592005
 10
13.1722102938389
 20
13.02530514192509
 10
13.17297100313428
 20
13.02512896089924
  0
LWPOLYLINE
  5
185
330
1F
100
AcDbEntity
  8
0
  6
SLD-Solid
 62
     7
370
    25
100
AcDbPolyline
 90
        3
 70
   128
 43
0.0
 10
13.17297100313428
 20
14.34596169094085
 10
13.17221029383889
 20
14.34578550991501
 10
13.16977166481369
 20
14.34554532592005
  0
LINE
  5
186
330
1F
100
AcDbEntity
  8
0
  6
SLD-Solid
 62
     7
370
    25
100
AcDbLine
 10
13.16977166481369
 20
14.34554532592005
 30
0.0
 11
12.9942716648137
 21
14.34554532592005
 31
0.0
  0
LINE
  5
187
330
1F
100
AcDbEntity
  8
0
  6
SLD-Solid
 62
     7
370
    25
100
AcDbLine
 10
12.9942716648137
 20
13.02554532592005
 30
0.0
 11
13.16977166481369
 21
13.02554532592005
 31
0.0
  0
ARC
  5
188
330
1F
100
AcDbEntity
  8
0
  6
SLD-Solid
 62
     7
370
    25
100
AcDbCircle
 10
12.62754380229383
 20
13.68554532592005
 30
0.0
 40
0.6999999999999995
100
AcDbArc
 50
357.3912504242891
 51
2.608749575711474
  0
LINE
  5
189
330
1F
100
AcDbEntity
  8
0
  6
SLD-Solid
 62
     7
370
    25
100
AcDbLine
 10
13.3268183438612
 20
13.71740620343067
 30
0.0
 11
13.31283403433415
 21
14.02433031844929
 31
0.0
  0
LINE
  5
18A
330
1F
100
AcDbEntity
  8
0
  6
SLD-Solid
 62
     7
370
    25
100
AcDbLine
 10
13.3128340343341
 20
13.34676033338972
 30
0.0
 11
13.3268183438612
 21
13.65368444840943
 31
0.0
  0
LINE
  5
18B
330
1F
100
AcDbEntity
  8
0
  6
SLD-Solid
 62
     7
370
    25
100
AcDbLine
 10
7.311420577099776
 20
14.90863509816581
 30
0.0
 11
14.2526071420508
 21
14.90863509816583
 31
0.0
  0
LINE
  5
18C
330
1F
100
AcDbEntity
  8
0
  6
SLD-Solid
 62
     7
370
    25
100
AcDbLine
 10
14.50260714205083
 20
11.38776346206809
 30
0.0
 11
14.53250714205083
 21
11.38776346206809
 31
0.0
  0
LINE
  5
18D
330
1F
100
AcDbEntity
  8
0
  6
SLD-Solid
 62
     7
370
    25
100
AcDbLine
 10
7.031520577099834
 20
11.38773785792283
 30
0.0
 11
7.061420577099836
 21
11.38773785792283
 31
0.0
  0
LINE
  5
18E
330
1F
100
AcDbEntity
  8
0
  6
SLD-Solid
 62
     7
370
    25
100
AcDbLine
 10
12.9942716648137
 20
14.90863509816582
 30
0.0
 11
12.9942716648137
 21
11.43554532592005
 31
0.0
  0
LINE
  5
18F
330
1F
100
AcDbEntity
  8
0
  6
SLD-Solid
 62
     7
370
    25
100
AcDbLine
 10
8.494271664813697
 20
14.90863509816581
 30
0.0
 11
8.494271664813697
 21
11.43554532592005
 31
0.0
  0
LWPOLYLINE
  5
190
330
1F
100
AcDbEntity
  8
0
  6
SLD-Solid
 62
     7
370
    25
100
AcDbPolyline
 90
       40
 70
   128
 43
0.0
 10
10.78199838544297
 20
18.20934043785363
 10
10.71783387309987
 20
18.20643073812531
 10
10.65533118792238
 20
18.19777699863492
 10
10.59610911662547
 20
18.18360334668966
 10
10.54170147974778
 20
18.16427687242983
 10
10.49351740650545
 20
18.14029812138704
 10
10.45280483908551
 20
18.11228813061784
 10
10.42061821159882
 20
18.08097234417017
 10
10.39779114079042
 20
18.04716182446361
 10
10.38491483580375
 20
18.0117322461987
 10
10.38232278617435
 20
17.97560121684221
 10
10.39008212462607
 20
17.93970451107572
 10
10.40799188836881
 20
17.9049718347229
 10
10.4355882239292
 20
17.87230274585706
 10
10.47215640071192
 20
17.84254335671953
 10
10.51674932214666
 20
17.81646441985711
 10
10.56821205499186
 20
17.79474136603587
 10
10.62521174149895
 20
17.77793681093921
 10
10.68627211972796
 20
17.7664859837171
 10
10.74981175795629
 20
17.76068545477974
 10
10.81418501292967
 20
17.76068545477974
 10
10.877724651158
 20
17.7664859837171
 10
10.93878502938701
 20
17.77793681093921
 10
10.9957847158941
 20
17.79474136603588
 10
11.0472474487393
 20
17.81646441985711
 10
11.09184037017404
 20
17.84254335671954
 10
11.12840854695676
 20
17.87230274585707
 10
11.15600488251714
 20
17.90497183472291
 10
11.17391464625988
 20
17.93970451107573
 10
11.1816739847116
 20
17.97560121684223
 10
11.1790819350822
 20
18.01173224619871
 10
11.16620563009552
 20
18.04716182446362
 10
11.14337855928713
 20
18.08097234417018
 10
11.11119193180043
 20
18.11228813061785
 10
11.0704793643805
 20
18.14029812138705
 10
11.02229529113816
 20
18.16427687242984
 10
10.96788765426048
 20
18.18360334668967
 10
10.90866558296356
 20
18.19777699863493
 10
10.84616289778607
 20
18.20643073812532
 10
10.78199838544297
 20
18.20934043785363
  0
LWPOLYLINE
  5
191
330
1F
100
AcDbEntity
  8
0
  6
SLD-Solid
 62
     7
370
    25
100
AcDbPolyline
 90
       22
 70
   128
 43
0.0
 10
10.33199838544298
 20
17.77781840123108
 10
10.33496744505112
 20
17.74882892347617
 10
10.34808431248907
 20
17.71083683578946
 10
10.37137175802853
 20
17.67441473922577
 10
10.4042839436836
 20
17.64041633685859
 10
10.4460494357176
 20
17.60963852242372
 10
10.49568928639603
 20
17.58280270180544
 10
10.55203997969178
 20
17.56053788389405
 10
10.61378070311464
 20
17.54336593715062
 10
10.67946430643657
 20
17.53168935745254
 10
10.74755122166656
 20
17.52578183393132
 10
10.81644554921941
 20
17.52578183393132
 10
10.8845324644494
 20
17.53168935745254
 10
10.95021606777133
 20
17.54336593715062
 10
11.01195679119418
 20
17.56053788389406
 10
11.06830748448994
 20
17.58280270180545
 10
11.11794733516837
 20
17.60963852242373
 10
11.15971282720236
 20
17.6404163368586
 10
11.19262501285743
 20
17.67441473922578
 10
11.21591245839689
 20
17.71083683578948
 10
11.22902932583483
 20
17.74882892347618
 10
11.23199838544298
 20
17.77781840123108
  0
LWPOLYLINE
  5
192
330
1F
100
AcDbEntity
  8
0
  6
SLD-Solid
 62
     7
370
    25
100
AcDbPolyline
 90
       35
 70
   128
 43
0.0
 10
10.78199838544297
 20
18.16159343148745
 10
10.72411728733075
 20
18.15858061021564
 10
10.66820726059402
 20
18.14964474441516
 10
10.61617225413661
 20
18.13509013427843
 10
10.56978425769431
 20
18.11541241959734
 10
10.5306229588497
 20
18.09128170134454
 10
10.50002194866613
 20
18.06351972218852
 10
10.47902330784354
 20
18.03307188303261
 10
10.46834211991004
 20
18.0009750485211
 10
10.46834211991004
 20
17.96832223785739
 10
10.47902330784354
 20
17.93622540334589
 10
10.50002194866613
 20
17.90577756418998
 10
10.5306229588497
 20
17.87801558503396
 10
10.56978425769431
 20
17.85388486678116
 10
10.61617225413661
 20
17.83420715210007
 10
10.66820726059403
 20
17.81965254196335
 10
10.72411728733076
 20
17.81071667616286
 10
10.78199838544298
 20
17.80770385489105
 10
10.8398794835552
 20
17.81071667616286
 10
10.89578951029193
 20
17.81965254196335
 10
10.94782451674935
 20
17.83420715210007
 10
10.99421251319164
 20
17.85388486678116
 10
11.03337381203625
 20
17.87801558503396
 10
11.06397482221982
 20
17.90577756418999
 10
11.08497346304241
 20
17.9362254033459
 10
11.09565465097591
 20
17.9683222378574
 10
11.09565465097591
 20
18.00097504852111
 10
11.08497346304241
 20
18.03307188303261
 10
11.06397482221982
 20
18.06351972218852
 10
11.03337381203625
 20
18.09128170134455
 10
10.99421251319164
 20
18.11541241959735
 10
10.94782451674934
 20
18.13509013427844
 10
10.89578951029192
 20
18.14964474441516
 10
10.83987948355519
 20
18.15858061021565
 10
10.78199838544297
 20
18.16159343148745
  0
LINE
  5
193
330
1F
100
AcDbEntity
  8
0
  6
SLD-Solid
 62
     7
370
    25
100
AcDbLine
 10
10.82699838544298
 20
17.93884003750783
 30
0.0
 11
10.82699838544297
 21
18.14948859500569
 31
0.0
  0
LINE
  5
194
330
1F
100
AcDbEntity
  8
0
  6
SLD-Solid
 62
     7
370
    25
100
AcDbLine
 10
10.82699838544297
 20
18.14948859500569
 30
0.0
 11
10.73699838544297
 21
18.14948859500569
 31
0.0
  0
LINE
  5
195
330
1F
100
AcDbEntity
  8
0
  6
SLD-Solid
 62
     7
370
    25
100
AcDbLine
 10
10.73699838544297
 20
18.14948859500569
 30
0.0
 11
10.73699838544298
 21
17.93884003750783
 31
0.0
  0
LINE
  5
196
330
1F
100
AcDbEntity
  8
0
  6
SLD-Solid
 62
     7
370
    25
100
AcDbLine
 10
10.73699838544298
 20
17.93884003750783
 30
0.0
 11
10.82699838544298
 21
17.93884003750783
 31
0.0
  0
LINE
  5
197
330
1F
100
AcDbEntity
  8
0
  6
SLD-Solid
 62
     7
370
    25
100
AcDbLine
 10
14.4278886015957
 20
11.68204532592005
 30
0.0
 11
14.4278886015957
 21
11.55704532592005
 31
0.0
  0
LINE
  5
198
330
1F
100
AcDbEntity
  8
0
  6
SLD-Solid
 62
     7
370
    25
100
AcDbLine
 10
7.136139117554966
 20
11.62081601062368
 30
0.0
 11
7.136139117554965
 21
11.68204532592005
 31
0.0
  0
LINE
  5
199
330
1F
100
AcDbEntity
  8
0
  6
SLD-Solid
 62
     7
370
    25
100
AcDbLine
 10
7.136139117554965
 20
11.55704532592005
 30
0.0
 11
7.136139117554966
 21
11.62081601062368
 31
0.0
  0
LINE
  5
19A
330
1F
100
AcDbEntity
  8
0
  6
SLD-Solid
 62
     7
370
    25
100
AcDbLine
 10
13.23374794014802
 20
12.43957429041847
 30
0.0
 11
13.24849582111999
 21
12.43957429041847
 31
0.0
  0
LINE
  5
19B
330
1F
100
AcDbEntity
  8
0
  6
SLD-Solid
 62
     7
370
    25
100
AcDbLine
 10
12.9942716648137
 20
12.43957429041847
 30
0.0
 11
13.23374794014802
 21
12.43957429041847
 31
0.0
  0
LINE
  5
19C
330
1F
100
AcDbEntity
  8
0
  6
SLD-Solid
 62
     7
370
    25
100
AcDbLine
 10
13.23374794014802
 20
12.45804532592006
 30
0.0
 11
13.24849582111999
 21
12.45804532592006
 31
0.0
  0
LINE
  5
19D
330
1F
100
AcDbEntity
  8
0
  6
SLD-Solid
 62
     7
370
    25
100
AcDbLine
 10
12.9942716648137
 20
12.45804532592006
 30
0.0
 11
13.23374794014802
 21
12.45804532592006
 31
0.0
  0
LINE
  5
19E
330
1F
100
AcDbEntity
  8
0
  6
SLD-Solid
 62
     7
370
    25
100
AcDbLine
 10
8.176271664813706
 20
12.90054532592005
 30
0.0
 11
8.176271664813706
 21
14.47054532592005
 31
0.0
  0
ELLIPSE
  5
19F
330
1F
100
AcDbEntity
  8
0
  6
SLD-Solid
 62
     7
370
    25
100
AcDbEllipse
 10
7.876271664813705
 20
13.68554532592005
 30
0.0
 11
0.0
 21
0.6278332993887793
 31
0.0
210
0.0
220
0.0
230
1.0
 40
0.4778338458505826
 41
4.712388980384693
 42
4.76314534908547
  0
LINE
  5
1A0
330
1F
100
AcDbEntity
  8
0
  6
SLD-Solid
 62
     7
370
    25
100
AcDbLine
 10
8.175885316422686
 20
13.7173981836318
 30
0.0
 11
8.175885316422686
 21
14.02432229833384
 31
0.0
  0
ELLIPSE
  5
1A1
330
1F
100
AcDbEntity
  8
0
  6
SLD-Solid
 62
     7
370
    25
100
AcDbEllipse
 10
7.876271664813705
 20
14.04903573755467
 30
0.0
 11
0.0
 21
0.4871123409292668
 31
0.0
210
0.0
220
0.0
230
1.0
 40
0.6158743574997281
 41
4.661632611683917
 42
4.712388980384694
  0
ELLIPSE
  5
1A2
330
1F
100
AcDbEntity
  8
0
  6
SLD-Solid
 62
     7
370
    25
100
AcDbEllipse
 10
7.876271664813705
 20
13.32205491428543
 30
0.0
 11
0.0
 21
0.4871123409292632
 31
0.0
210
0.0
220
0.0
230
1.0
 40
0.6158743574997307
 41
4.712388980384701
 42
4.76314534908547
  0
LINE
  5
1A3
330
1F
100
AcDbEntity
  8
0
  6
SLD-Solid
 62
     7
370
    25
100
AcDbLine
 10
8.175885316422685
 20
13.34676835350626
 30
0.0
 11
8.175885316422686
 21
13.65369246820829
 31
0.0
  0
ELLIPSE
  5
1A4
330
1F
100
AcDbEntity
  8
0
  6
SLD-Solid
 62
     7
370
    25
100
AcDbEllipse
 10
7.876271664813705
 20
13.68554532592005
 30
0.0
 11
0.0
 21
0.6278332993887652
 31
0.0
210
0.0
220
0.0
230
1.0
 40
0.4778338458505935
 41
4.661632611683915
 42
4.712388980384693
  0
ARC
  5
1A5
330
1F
100
AcDbEntity
  8
0
  6
SLD-Solid
 62
     7
370
    25
100
AcDbCircle
 10
8.87533680678602
 20
13.68554532592005
 30
0.0
 40
0.7001764005705232
100
AcDbArc
 50
177.3925650644739
 51
182.6074349355269
  0
LINE
  5
1A6
330
1F
100
AcDbEntity
  8
0
  6
SLD-Solid
 62
     7
370
    25
100
AcDbLine
 10
8.175885316422686
 20
13.65369246820829
 30
0.0
 11
8.161901006817764
 21
13.65369246820829
 31
0.0
  0
ARC
  5
1A7
330
1F
100
AcDbEntity
  8
0
  6
SLD-Solid
 62
     7
370
    25
100
AcDbCircle
 10
8.861352497181125
 20
13.68554532592005
 30
0.0
 40
0.70017640057055
100
AcDbArc
 50
177.392565064474
 51
182.607434935527
  0
LINE
  5
1A8
330
1F
100
AcDbEntity
  8
0
  6
SLD-Solid
 62
     7
370
    25
100
AcDbLine
 10
8.161901006817764
 20
13.7173981836318
 30
0.0
 11
8.175885316422686
 21
13.7173981836318
 31
0.0
  0
LINE
  5
1A9
330
1F
100
AcDbEntity
  8
0
  6
SLD-Solid
 62
     7
370
    25
100
AcDbLine
 10
8.175885316422686
 20
14.02432229833384
 30
0.0
 11
8.161901006817764
 21
13.7173981836318
 31
0.0
  0
LINE
  5
1AA
330
1F
100
AcDbEntity
  8
0
  6
SLD-Solid
 62
     7
370
    25
100
AcDbLine
 10
8.161901006817764
 20
13.65369246820829
 30
0.0
 11
8.175885316422685
 21
13.34676835350626
 31
0.0
  0
LINE
  5
1AB
330
1F
100
AcDbEntity
  8
0
  6
SLD-Solid
 62
     7
370
    25
100
AcDbLine
 10
8.315339213719591
 20
14.46061479088339
 30
0.0
 11
8.31533921371959
 21
14.42091039442404
 31
0.0
  0
LINE
  5
1AC
330
1F
100
AcDbEntity
  8
0
  6
SLD-Solid
 62
     7
370
    25
100
AcDbLine
 10
8.494271664813697
 20
12.65754532592006
 30
0.0
 11
8.492115178915778
 21
12.65754532592006
 31
0.0
  0
LINE
  5
1AD
330
1F
100
AcDbEntity
  8
0
  6
SLD-Solid
 62
     7
370
    25
100
AcDbLine
 10
8.494271664813697
 20
12.60754532592006
 30
0.0
 11
8.492115178915778
 21
12.60754532592006
 31
0.0
  0
ELLIPSE
  5
1AE
330
1F
100
AcDbEntity
  8
0
  6
SLD-Solid
 62
     7
370
    25
100
AcDbEllipse
 10
8.492115178915778
 20
12.65754532592006
 30
0.0
 11
0.0
 21
0.05000000000000071
 31
0.0
210
0.0
220
0.0
230
1.0
 40
0.0911379657603093
 41
2.899419891875913
 42
3.141592653589792
  0
ELLIPSE
  5
1AF
330
1F
100
AcDbEntity
  8
0
  6
SLD-Solid
 62
     7
370
    25
100
AcDbEllipse
 10
8.492115178915776
 20
14.71354532592006
 30
0.0
 11
0.0
 21
0.04999999999999893
 31
0.0
210
0.0
220
0.0
230
1.0
 40
0.0911379657603481
 41
0.0
 42
0.2421727617137925
  0
LINE
  5
1B0
330
1F
100
AcDbEntity
  8
0
  6
SLD-Solid
 62
     7
370
    25
100
AcDbLine
 10
8.494271664813697
 20
14.76354532592005
 30
0.0
 11
8.492115178915776
 21
14.76354532592005
 31
0.0
  0
LINE
  5
1B1
330
1F
100
AcDbEntity
  8
0
  6
SLD-Solid
 62
     7
370
    25
100
AcDbLine
 10
8.491022377518853
 20
14.76208628648514
 30
0.0
 11
8.226271664813703
 21
14.76208628648514
 31
0.0
  0
ARC
  5
1B2
330
1F
100
AcDbEntity
  8
0
  6
SLD-Solid
 62
     7
370
    25
100
AcDbCircle
 10
8.225552789076609
 20
14.71280484228651
 30
0.0
 40
0.0492866870932482
100
AcDbArc
 50
89.16427723783197
 51
179.139155302192
  0
LINE
  5
1B3
330
1F
100
AcDbEntity
  8
0
  6
SLD-Solid
 62
     7
370
    25
100
AcDbLine
 10
8.176271664813703
 20
14.47054532592005
 30
0.0
 11
8.176271664813703
 21
14.71354532592006
 31
0.0
  0
ARC
  5
1B4
330
1F
100
AcDbEntity
  8
0
  6
SLD-Solid
 62
     7
370
    25
100
AcDbCircle
 10
8.225552789076612
 20
12.6582858095536
 30
0.0
 40
0.0492866870932517
100
AcDbArc
 50
180.8608446978087
 51
270.8357227621647
  0
LINE
  5
1B5
330
1F
100
AcDbEntity
  8
0
  6
SLD-Solid
 62
     7
370
    25
100
AcDbLine
 10
8.176271664813703
 20
12.65754532592005
 30
0.0
 11
8.176271664813704
 21
12.90054532592005
 31
0.0
  0
LINE
  5
1B6
330
1F
100
AcDbEntity
  8
0
  6
SLD-Solid
 62
     7
370
    25
100
AcDbLine
 10
8.226271664813703
 20
12.60900436535496
 30
0.0
 11
8.491022377518854
 21
12.60900436535497
 31
0.0
  0
LINE
  5
1B7
330
1F
100
AcDbEntity
  8
0
  6
SLD-Solid
 62
     7
370
    25
100
AcDbLine
 10
8.226271664813703
 20
14.76208628648514
 30
0.0
 11
8.226271664813703
 21
14.76354532592005
 31
0.0
  0
LINE
  5
1B8
330
1F
100
AcDbEntity
  8
0
  6
SLD-Solid
 62
     7
370
    25
100
AcDbLine
 10
8.226271664813703
 20
14.76354532592005
 30
0.0
 11
8.492115178915776
 21
14.76354532592005
 31
0.0
  0
ARC
  5
1B9
330
1F
100
AcDbEntity
  8
0
  6
SLD-Solid
 62
     7
370
    25
100
AcDbCircle
 10
8.226271664813703
 20
14.71354532592006
 30
0.0
 40
0.0500000000000007
100
AcDbArc
 50
90.0
 51
179.9999999999997
  0
LINE
  5
1BA
330
1F
100
AcDbEntity
  8
0
  6
SLD-Solid
 62
     7
370
    25
100
AcDbLine
 10
8.226271664813703
 20
12.60754532592005
 30
0.0
 11
8.226271664813703
 21
12.60900436535496
 31
0.0
  0
ARC
  5
1BB
330
1F
100
AcDbEntity
  8
0
  6
SLD-Solid
 62
     7
370
    25
100
AcDbCircle
 10
8.226271664813703
 20
12.65754532592005
 30
0.0
 40
0.0500000000000007
100
AcDbArc
 50
180.0
 51
270.0000000000008
  0
LINE
  5
1BC
330
1F
100
AcDbEntity
  8
0
  6
SLD-Solid
 62
     7
370
    25
100
AcDbLine
 10
8.492115178915778
 20
12.60754532592006
 30
0.0
 11
8.226271664813703
 21
12.60754532592005
 31
0.0
  0
LINE
  5
1BD
330
1F
100
AcDbEntity
  8
0
  6
SLD-Solid
 62
     7
370
    25
100
AcDbLine
 10
13.31227166481369
 20
14.47054532592005
 30
0.0
 11
13.31227166481369
 21
12.90054532592005
 31
0.0
  0
ELLIPSE
  5
1BE
330
1F
100
AcDbEntity
  8
0
  6
SLD-Solid
 62
     7
370
    25
100
AcDbEllipse
 10
13.61227166481369
 20
13.68554532592005
 30
0.0
 11
8.881784197001252E-15
 21
0.6278332993887793
 31
0.0
210
0.0
220
0.0
230
1.0
 40
0.4778338458505798
 41
1.520039958428538
 42
1.570796326794903
  0
ELLIPSE
  5
1BF
330
1F
100
AcDbEntity
  8
0
  6
SLD-Solid
 62
     7
370
    25
100
AcDbEllipse
 10
13.61227166481369
 20
14.0490357374987
 30
0.0
 11
3.552713678800501E-15
 21
0.4871123409292668
 31
0.0
210
0.0
220
0.0
230
1.0
 40
0.6158743574997281
 41
1.570796326794901
 42
1.621552695161265
  0
LINE
  5
1C0
330
1F
100
AcDbEntity
  8
0
  6
SLD-Solid
 62
     7
370
    25
100
AcDbLine
 10
13.31265801319962
 20
14.02432229844056
 30
0.0
 11
13.31265801319962
 21
13.71739818342211
 31
0.0
  0
ELLIPSE
  5
1C1
330
1F
100
AcDbEntity
  8
0
  6
SLD-Solid
 62
     7
370
    25
100
AcDbEllipse
 10
13.6122716648137
 20
13.3220549143414
 30
0.0
 11
-3.552713678800500E-15
 21
0.4871123409292632
 31
0.0
210
0.0
220
0.0
230
1.0
 40
0.6158743574997326
 41
1.520039958428667
 42
1.570796326794896
  0
ELLIPSE
  5
1C2
330
1F
100
AcDbEntity
  8
0
  6
SLD-Solid
 62
     7
370
    25
100
AcDbEllipse
 10
13.61227166481369
 20
13.68554532592005
 30
0.0
 11
-1.065814103640150E-14
 21
0.6278332993887688
 31
0.0
210
0.0
220
0.0
230
1.0
 40
0.4778338458505879
 41
1.570796326794889
 42
1.621552695161246
  0
LINE
  5
1C3
330
1F
100
AcDbEntity
  8
0
  6
SLD-Solid
 62
     7
370
    25
100
AcDbLine
 10
13.31265801319962
 20
13.65369246841799
 30
0.0
 11
13.31265801319962
 21
13.34676835339947
 31
0.0
  0
ARC
  5
1C4
330
1F
100
AcDbEntity
  8
0
  6
SLD-Solid
 62
     7
370
    25
100
AcDbCircle
 10
12.6132065228289
 20
13.68554532592005
 30
0.0
 40
0.7001764005683643
100
AcDbArc
 50
357.3925650816432
 51
2.607434918357468
  0
LINE
  5
1C5
330
1F
100
AcDbEntity
  8
0
  6
SLD-Solid
 62
     7
370
    25
100
AcDbLine
 10
13.31265801319962
 20
13.71739818342211
 30
0.0
 11
13.32664232272667
 21
13.71739818342212
 31
0.0
  0
ARC
  5
1C6
330
1F
100
AcDbEntity
  8
0
  6
SLD-Solid
 62
     7
370
    25
100
AcDbCircle
 10
12.62719083235528
 20
13.68554532592005
 30
0.0
 40
0.7001764005690316
100
AcDbArc
 50
357.3925650816456
 51
2.607434918355127
  0
LINE
  5
1C7
330
1F
100
AcDbEntity
  8
0
  6
SLD-Solid
 62
     7
370
    25
100
AcDbLine
 10
13.32664232272667
 20
13.65369246841798
 30
0.0
 11
13.31265801319962
 21
13.65369246841799
 31
0.0
  0
LINE
  5
1C8
330
1F
100
AcDbEntity
  8
0
  6
SLD-Solid
 62
     7
370
    25
100
AcDbLine
 10
13.31265801319962
 20
13.34676835339947
 30
0.0
 11
13.32664232272667
 21
13.65369246841798
 31
0.0
  0
LINE
  5
1C9
330
1F
100
AcDbEntity
  8
0
  6
SLD-Solid
 62
     7
370
    25
100
AcDbLine
 10
13.32664232272667
 20
13.71739818342212
 30
0.0
 11
13.31265801319962
 21
14.02432229844056
 31
0.0
  0
ARC
  5
1CA
330
1F
100
AcDbEntity
  8
0
  6
SLD-Solid
 62
     7
370
    25
100
AcDbCircle
 10
13.2629905405508
 20
14.71280484228652
 30
0.0
 40
0.0492866870932429
100
AcDbArc
 50
0.8608446977997721
 51
90.83572276217019
  0
LINE
  5
1CB
330
1F
100
AcDbEntity
  8
0
  6
SLD-Solid
 62
     7
370
    25
100
AcDbLine
 10
13.3122716648137
 20
14.71354532592006
 30
0.0
 11
13.31227166481369
 21
14.47054532592005
 31
0.0
  0
ARC
  5
1CC
330
1F
100
AcDbEntity
  8
0
  6
SLD-Solid
 62
     7
370
    25
100
AcDbCircle
 10
13.2629905405508
 20
12.6582858095536
 30
0.0
 40
0.04928668709325
100
AcDbArc
 50
269.1642772378349
 51
359.1391553021929
  0
LINE
  5
1CD
330
1F
100
AcDbEntity
  8
0
  6
SLD-Solid
 62
     7
370
    25
100
AcDbLine
 10
13.31227166481369
 20
12.90054532592005
 30
0.0
 11
13.3122716648137
 21
12.65754532592005
 31
0.0
  0
LINE
  5
1CE
330
1F
100
AcDbEntity
  8
0
  6
SLD-Solid
 62
     7
370
    25
100
AcDbLine
 10
13.2622716648137
 20
14.76354532592005
 30
0.0
 11
13.2622716648137
 21
14.76208628648514
 31
0.0
  0
ARC
  5
1CF
330
1F
100
AcDbEntity
  8
0
  6
SLD-Solid
 62
     7
370
    25
100
AcDbCircle
 10
13.2622716648137
 20
14.71354532592006
 30
0.0
 40
0.0499999999999989
100
AcDbArc
 50
0.0000000000005089
 51
90.0
  0
LINE
  5
1D0
330
1F
100
AcDbEntity
  8
0
  6
SLD-Solid
 62
     7
370
    25
100
AcDbLine
 10
12.9942716648137
 20
14.76354532592005
 30
0.0
 11
13.2622716648137
 21
14.76354532592005
 31
0.0
  0
LINE
  5
1D1
330
1F
100
AcDbEntity
  8
0
  6
SLD-Solid
 62
     7
370
    25
100
AcDbLine
 10
13.2622716648137
 20
12.60900436535497
 30
0.0
 11
13.2622716648137
 21
12.60754532592006
 31
0.0
  0
LINE
  5
1D2
330
1F
100
AcDbEntity
  8
0
  6
SLD-Solid
 62
     7
370
    25
100
AcDbLine
 10
13.2622716648137
 20
12.60754532592006
 30
0.0
 11
12.9942716648137
 21
12.60754532592006
 31
0.0
  0
ARC
  5
1D3
330
1F
100
AcDbEntity
  8
0
  6
SLD-Solid
 62
     7
370
    25
100
AcDbCircle
 10
13.2622716648137
 20
12.65754532592005
 30
0.0
 40
0.0500000000000007
100
AcDbArc
 50
270.0000000000008
 51
0.0000000000002544
  0
LINE
  5
1D4
330
1F
100
AcDbEntity
  8
0
  6
SLD-Solid
 62
     7
370
    25
100
AcDbLine
 10
13.2782716648137
 20
14.86304532592006
 30
0.0
 11
13.2782716648137
 21
14.81304532592006
 31
0.0
  0
LINE
  5
1D5
330
1F
100
AcDbEntity
  8
0
  6
SLD-Solid
 62
     7
370
    25
100
AcDbLine
 10
12.9942716648137
 20
14.81304532592006
 30
0.0
 11
13.2782716648137
 21
14.81304532592006
 31
0.0
  0
LINE
  5
1D6
330
1F
100
AcDbEntity
  8
0
  6
SLD-Solid
 62
     7
370
    25
100
AcDbLine
 10
12.9942716648137
 20
14.86304532592006
 30
0.0
 11
13.2782716648137
 21
14.86304532592006
 31
0.0
  0
LINE
  5
1D7
330
1F
100
AcDbEntity
  8
0
  6
SLD-Solid
 62
     7
370
    25
100
AcDbLine
 10
13.2782716648137
 20
12.50804532592006
 30
0.0
 11
13.2782716648137
 21
12.55804532592006
 31
0.0
  0
LINE
  5
1D8
330
1F
100
AcDbEntity
  8
0
  6
SLD-Solid
 62
     7
370
    25
100
AcDbLine
 10
12.9942716648137
 20
12.50804532592006
 30
0.0
 11
13.2782716648137
 21
12.50804532592006
 31
0.0
  0
LINE
  5
1D9
330
1F
100
AcDbEntity
  8
0
  6
SLD-Solid
 62
     7
370
    25
100
AcDbLine
 10
12.9942716648137
 20
12.55804532592006
 30
0.0
 11
13.2782716648137
 21
12.55804532592006
 31
0.0
  0
LINE
  5
1DA
330
1F
100
AcDbEntity
  8
0
  6
SLD-Solid
 62
     7
370
    25
100
AcDbLine
 10
13.2782716648137
 20
14.87804532592006
 30
0.0
 11
13.2782716648137
 21
14.86304532592006
 31
0.0
  0
LINE
  5
1DB
330
1F
100
AcDbEntity
  8
0
  6
SLD-Solid
 62
     7
370
    25
100
AcDbLine
 10
13.2782716648137
 20
12.50804532592006
 30
0.0
 11
13.2782716648137
 21
12.49304532592006
 31
0.0
  0
LINE
  5
1DC
330
1F
100
AcDbEntity
  8
0
  6
SLD-Solid
 62
     7
370
    25
100
AcDbLine
 10
13.2782716648137
 20
14.76091620304936
 30
0.0
 11
13.2782716648137
 21
14.81304532592006
 31
0.0
  0
LINE
  5
1DD
330
1F
100
AcDbEntity
  8
0
  6
SLD-Solid
 62
     7
370
    25
100
AcDbLine
 10
8.299271664813705
 20
12.60754532592006
 30
0.0
 11
8.299271664813705
 21
12.56004532592006
 31
0.0
  0
LINE
  5
1DE
330
1F
100
AcDbEntity
  8
0
  6
SLD-Solid
 62
     7
370
    25
100
AcDbLine
 10
8.299271664813705
 20
12.56004532592006
 30
0.0
 11
8.494271664813697
 21
12.56004532592006
 31
0.0
  0
LINE
  5
1DF
330
1F
100
AcDbEntity
  8
0
  6
SLD-Solid
 62
     7
370
    25
100
AcDbLine
 10
8.299271664813705
 20
14.81104532592006
 30
0.0
 11
8.299271664813705
 21
14.76354532592005
 31
0.0
  0
LINE
  5
1E0
330
1F
100
AcDbEntity
  8
0
  6
SLD-Solid
 62
     7
370
    25
100
AcDbLine
 10
8.494271664813697
 20
14.81104532592006
 30
0.0
 11
8.299271664813705
 21
14.81104532592006
 31
0.0
  0
LINE
  5
1E1
330
1F
100
AcDbEntity
  8
0
  6
SLD-Solid
 62
     7
370
    25
100
AcDbLine
 10
13.2782716648137
 20
12.55804532592006
 30
0.0
 11
13.2782716648137
 21
12.61017444879075
 31
0.0
  0
ELLIPSE
  5
1E2
330
1F
100
AcDbEntity
  8
0
  6
SLD-Solid
 62
     7
370
    25
100
AcDbEllipse
 10
8.02244499638547
 20
14.85187199434829
 30
0.0
 11
-0.1323301782391795
 21
0.1323301782391795
 31
4.440892098500626E-16
210
1.677958934837207E-15
220
-1.677958934837207E-15
230
1.0
 40
0.935113126531015
 41
0.500242200901497
 42
0.7518794142949925
  0
ELLIPSE
  5
1E3
330
1F
100
AcDbEntity
  8
0
  6
SLD-Solid
 62
     7
370
    25
100
AcDbEllipse
 10
13.55509833324194
 20
14.85187199434829
 30
0.0
 11
0.1323301782391777
 21
0.1323301782391795
 31
4.440892098500626E-16
210
-1.677958934837207E-15
220
-1.677958934837229E-15
230
1.0
 40
0.9351131265310209
 41
5.531305892884605
 42
5.782943106278235
  0
ELLIPSE
  5
1E4
330
1F
100
AcDbEntity
  8
0
  6
SLD-Solid
 62
     7
370
    25
100
AcDbEllipse
 10
13.55509833324194
 20
12.51921865749182
 30
0.0
 11
0.1323301782391777
 21
-0.1323301782391795
 31
-4.440892098500626E-16
210
1.677958934837207E-15
220
-1.677958934837229E-15
230
1.0
 40
0.9351131265310277
 41
5.53130589288462
 42
7.035064721474577
  0
ELLIPSE
  5
1E5
330
1F
100
AcDbEntity
  8
0
  6
SLD-Solid
 62
     7
370
    25
100
AcDbEllipse
 10
8.02244499638547
 20
12.51921865749182
 30
0.0
 11
-0.1323301782391777
 21
-0.1323301782391795
 31
-4.440892098500626E-16
210
-1.677958934837207E-15
220
-1.677958934837229E-15
230
1.0
 40
0.9351131265310277
 41
5.531305892884608
 42
7.035064721474564
  0
LINE
  5
1E6
330
1F
100
AcDbEntity
  8
0
  6
SLD-Solid
 62
     7
370
    25
100
AcDbLine
 10
13.7362716648137
 20
12.50708234552065
 30
0.0
 11
13.7362716648137
 21
14.86400830631947
 31
0.0
  0
LINE
  5
1E7
330
1F
100
AcDbEntity
  8
0
  6
SLD-Solid
 62
     7
370
    25
100
AcDbLine
 10
7.841271664813705
 20
12.50708234552065
 30
0.0
 11
7.841271664813704
 21
14.86400830631947
 31
0.0
  0
LINE
  5
1E8
330
1F
100
AcDbEntity
  8
0
  6
SLD-Solid
 62
     7
370
    25
100
AcDbLine
 10
13.56723464521312
 20
12.33804532592006
 30
0.0
 11
12.9942716648137
 21
12.33804532592006
 31
0.0
  0
LINE
  5
1E9
330
1F
100
AcDbEntity
  8
0
  6
SLD-Solid
 62
     7
370
    25
100
AcDbLine
 10
8.494271664813697
 20
12.33804532592006
 30
0.0
 11
8.010308684414293
 21
12.33804532592006
 31
0.0
  0
LINE
  5
1EA
330
1F
100
AcDbEntity
  8
0
  6
SLD-Solid
 62
     7
370
    25
100
AcDbLine
 10
7.311420577099776
 20
14.9687539580075
 30
0.0
 11
7.311420577099776
 21
14.90863509816581
 31
0.0
  0
LINE
  5
1EB
330
1F
100
AcDbEntity
  8
0
  6
SLD-Solid
 62
     7
370
    25
100
AcDbLine
 10
14.2526071420508
 20
14.90863509816583
 30
0.0
 11
14.2526071420508
 21
14.96875395800753
 31
0.0
  0
LINE
  5
1EC
330
1F
100
AcDbEntity
  8
0
  6
SLD-Solid
 62
     7
370
    25
100
AcDbLine
 10
7.311420577099776
 20
14.9687539580075
 30
0.0
 11
7.311420577099777
 21
14.98100202341388
 31
0.0
  0
LINE
  5
1ED
330
1F
100
AcDbEntity
  8
0
  6
SLD-Solid
 62
     7
370
    25
100
AcDbLine
 10
14.25260714205082
 20
18.70298686576168
 30
0.0
 11
7.311420577099794
 21
18.70298686576166
 31
0.0
  0
LINE
  5
1EE
330
1F
100
AcDbEntity
  8
0
  6
SLD-Solid
 62
     7
370
    25
100
AcDbLine
 10
14.2526071420508
 20
14.96875395800753
 30
0.0
 11
14.2526071420508
 21
14.9810020234139
 31
0.0
  0
LINE
  5
1EF
330
1F
100
AcDbEntity
  8
0
  6
SLD-Solid
 62
     7
370
    25
100
AcDbLine
 10
14.53250714205081
 20
14.74943488451753
 30
0.0
 11
14.53250714205083
 21
18.4111416374567
 31
0.0
  0
LWPOLYLINE
  5
1F0
330
1F
100
AcDbEntity
  8
0
  6
SLD-Solid
 62
     7
370
    25
100
AcDbPolyline
 90
        9
 70
   128
 43
0.0
 10
14.53250714205081
 20
14.74943488451753
 10
14.52712894203567
 20
14.79461139221318
 10
14.51120102320072
 20
14.83805179205336
 10
14.48533548653429
 20
14.87808669383387
 10
14.45052633010492
 20
14.91317757873112
 10
14.40811125027299
 20
14.9419759237177
 10
14.3597202347698
 20
14.96337502454608
 10
14.30721292318312
 20
14.97655252577218
 10
14.2526071420508
 20
14.9810020234139
  0
ARC
  5
1F1
330
1F
100
AcDbEntity
  8
0
  6
SLD-Solid
 62
     7
370
    25
100
AcDbCircle
 10
14.25599981211745
 20
18.38947047851073
 30
0.0
 40
0.3135347433460349
100
AcDbArc
 50
53.15220640795334
 51
90.6199933940041
  0
SPLINE
  5
1F2
330
1F
100
AcDbEntity
  8
0
  6
SLD-Solid
 62
     7
370
    25
100
AcDbSpline
210
0.0
220
0.0
230
1.0
 70
    12
 71
     3
 72
     9
 73
     5
 74
     0
 42
0.00000001
 43
0.00000001
 40
0.0
 40
0.0
 40
0.0
 40
0.0
 40
0.4890910200609096
 40
1.0
 40
1.0
 40
1.0
 40
1.0
 10
14.50818066620547
 20
18.54800757536071
 30
0.0
 41
1.0
 10
14.50060456617511
 20
18.56582514863395
 30
0.0
 41
1.0
 10
14.48511440234138
 20
18.60225512289728
 30
0.0
 41
1.0
 10
14.4579185055391
 20
18.62748212663544
 30
0.0
 41
1.0
 10
14.44402387764531
 20
18.64037082938222
 30
0.0
 41
1.0
  0
SPLINE
  5
1F3
330
1F
100
AcDbEntity
  8
0
  6
SLD-Solid
 62
     7
370
    25
100
AcDbSpline
210
0.0
220
0.0
230
1.0
 70
    12
 71
     3
 72
     9
 73
     5
 74
     0
 42
0.00000001
 43
0.00000001
 40
0.0
 40
0.0
 40
0.0
 40
0.0
 40
0.7096798841761676
 40
1.0
 40
1.0
 40
1.0
 40
1.0
 10
14.53250714205083
 20
18.4111416374567
 30
0.0
 41
1.0
 10
14.53038706018418
 20
18.4442998248368
 30
0.0
 41
1.0
 10
14.527399682475
 20
18.49102256296061
 30
0.0
 41
1.0
 10
14.51250513565563
 20
18.53518540022318
 30
0.0
 41
1.0
 10
14.50818094909789
 20
18.54800676025237
 30
0.0
 41
1.0
  0
LWPOLYLINE
  5
1F4
330
1F
100
AcDbEntity
  8
0
  6
SLD-Solid
 62
     7
370
    25
100
AcDbPolyline
 90
        9
 70
   128
 43
0.0
 10
7.031520577099776
 20
14.7494348845175
 10
7.036898777114913
 20
14.79461139221315
 10
7.052826695949866
 20
14.83805179205333
 10
7.078692232616294
 20
14.87808669383385
 10
7.113501389045662
 20
14.9131775787311
 10
7.15591646887759
 20
14.94197592371768
 10
7.204307484380789
 20
14.96337502454606
 10
7.256814795967462
 20
14.97655252577216
 10
7.311420577099777
 20
14.98100202341388
  0
LINE
  5
1F5
330
1F
100
AcDbEntity
  8
0
  6
SLD-Solid
 62
     7
370
    25
100
AcDbLine
 10
7.031520577099776
 20
14.7494348845175
 30
0.0
 11
7.031520577099792
 21
18.4111534411173
 31
0.0
  0
SPLINE
  5
1F6
330
1F
100
AcDbEntity
  8
0
  6
SLD-Solid
 62
     7
370
    25
100
AcDbSpline
210
0.0
220
0.0
230
1.0
 70
    12
 71
     3
 72
     9
 73
     5
 74
     0
 42
0.00000001
 43
0.00000001
 40
0.0
 40
0.0
 40
0.0
 40
0.0
 40
0.2902614761831103
 40
0.9999999999999999
 40
0.9999999999999999
 40
0.9999999999999999
 40
0.9999999999999999
 10
7.055833440021924
 20
18.54798206076409
 30
0.0
 41
1.0
 10
7.051512411184095
 20
18.53516650697858
 30
0.0
 41
1.0
 10
7.036625734196677
 20
18.49101475127872
 30
0.0
 41
1.0
 10
7.033639805631714
 20
18.44430508833965
 30
0.0
 41
1.0
 10
7.031520577099795
 20
18.4111534411173
 30
0.0
 41
1.0
  0
SPLINE
  5
1F7
330
1F
100
AcDbEntity
  8
0
  6
SLD-Solid
 62
     7
370
    25
100
AcDbSpline
210
0.0
220
0.0
230
1.0
 70
    12
 71
     3
 72
     9
 73
     5
 74
     0
 42
0.00000001
 43
0.00000001
 40
0.0
 40
0.0
 40
0.0
 40
0.0
 40
0.5258998029754588
 40
1.0
 40
1.0
 40
1.0
 40
1.0
 10
7.119979989001402
 20
18.64035233023328
 30
0.0
 41
1.0
 10
7.105700483431709
 20
18.62703051348887
 30
0.0
 41
1.0
 10
7.078547962193062
 20
18.60169904032794
 30
0.0
 41
1.0
 10
7.063139077719875
 20
18.56525907151827
 30
0.0
 41
1.0
 10
7.055833722555208
 20
18.54798287512604
 30
0.0
 41
1.0
  0
ARC
  5
1F8
330
1F
100
AcDbEntity
  8
0
  6
SLD-Solid
 62
     7
370
    25
100
AcDbCircle
 10
7.308026429449628
 20
18.38947748761644
 30
0.0
 40
0.313527750643023
100
AcDbArc
 50
89.37972274002665
 51
126.8538611428091
  0
ARC
  5
1F9
330
1F
100
AcDbEntity
  8
0
  6
SLD-Solid
 62
     7
370
    25
100
AcDbCircle
 10
14.27232839306233
 20
14.72559739969808
 30
0.0
 40
0.2315092393798022
100
AcDbArc
 50
5.909967960592341
 51
94.88669706755049
  0
ARC
  5
1FA
330
1F
100
AcDbEntity
  8
0
  6
SLD-Solid
 62
     7
370
    25
100
AcDbCircle
 10
7.291699326088248
 20
14.72559739969806
 30
0.0
 40
0.2315092393798001
100
AcDbArc
 50
85.11330293244951
 51
174.0900320394089
  0
LINE
  5
1FB
330
1F
100
AcDbEntity
  8
0
  6
SLD-Solid
 62
     7
370
    25
100
AcDbLine
 10
7.061420577099776
 20
14.74935215242072
 30
0.0
 11
7.061420577099776
 21
14.7494348845175
 31
0.0
  0
LINE
  5
1FC
330
1F
100
AcDbEntity
  8
0
  6
SLD-Solid
 62
     7
370
    25
100
AcDbLine
 10
7.031520577099776
 20
14.74935215242072
 30
0.0
 11
7.061420577099776
 21
14.74935215242072
 31
0.0
  0
LINE
  5
1FD
330
1F
100
AcDbEntity
  8
0
  6
SLD-Solid
 62
     7
370
    25
100
AcDbLine
 10
7.031520577099776
 20
14.74935215242072
 30
0.0
 11
7.031520577099776
 21
14.7494348845175
 31
0.0
  0
SPLINE
  5
1FE
330
1F
100
AcDbEntity
  8
0
  6
SLD-Solid
 62
     7
370
    25
100
AcDbSpline
210
0.0
220
0.0
230
1.0
 70
    12
 71
     3
 72
    15
 73
    11
 74
     0
 42
0.00000001
 43
0.00000001
 40
0.0
 40
0.0
 40
0.0
 40
0.0
 40
0.1249999999999995
 40
0.2499999999999956
 40
0.3750000000000047
 40
0.4999999999999955
 40
0.6249999999999877
 40
0.749999999999997
 40
0.8750000000000021
 40
1.0
 40
1.0
 40
1.0
 40
1.0
 10
14.46670714205081
 20
11.4507167615621
 30
0.0
 41
1.0
 10
14.46720168079551
 20
11.4469480024036
 30
0.0
 41
1.0
 10
14.46819075828492
 20
11.4394104840866
 30
0.0
 41
1.0
 10
14.47579885739665
 20
11.42920893624083
 30
0.0
 41
1.0
 10
14.48667378582713
 20
11.42104866258278
 30
0.0
 41
1.0
 10
14.49960714205081
 20
11.41555544217957
 30
0.0
 41
1.0
 10
14.51254049827449
 20
11.41294901941716
 30
0.0
 41
1.0
 10
14.52341542670498
 20
11.41300964990958
 30
0.0
 41
1.0
 10
14.53102352581671
 20
11.41511155458972
 30
0.0
 41
1.0
 10
14.53201260330611
 20
11.4172493107963
 30
0.0
 41
1.0
 10
14.53250714205081
 20
11.4183181888996
 30
0.0
 41
1.0
  0
LINE
  5
1FF
330
1F
100
AcDbEntity
  8
0
  6
SLD-Solid
 62
     7
370
    25
100
AcDbLine
 10
14.46670714205082
 20
11.4507167615621
 30
0.0
 11
14.46670714205081
 21
14.73718681911115
 31
0.0
  0
LWPOLYLINE
  5
200
330
1F
100
AcDbEntity
  8
0
  6
SLD-Solid
 62
     7
370
    25
100
AcDbPolyline
 90
        9
 70
   128
 43
0.0
 10
14.53250714205081
 20
14.73718681911115
 10
14.53000277867043
 20
14.73011448482342
 10
14.52287095515185
 20
14.72411884932013
 10
14.51219742697562
 20
14.72011269375608
 10
14.49960714205081
 20
14.71870591900001
 10
14.487016857126
 20
14.72011269375608
 10
14.47634332894977
 20
14.72411884932013
 10
14.46921150543119
 20
14.73011448482342
 10
14.46670714205081
 20
14.73718681911115
  0
LINE
  5
201
330
1F
100
AcDbEntity
  8
0
  6
SLD-Solid
 62
     7
370
    25
100
AcDbLine
 10
14.53250714205081
 20
11.4183181888996
 30
0.0
 11
14.53250714205081
 21
14.73718681911115
 31
0.0
  0
SPLINE
  5
202
330
1F
100
AcDbEntity
  8
0
  6
SLD-Solid
 62
     7
370
    25
100
AcDbSpline
210
0.0
220
0.0
230
1.0
 70
    12
 71
     3
 72
    15
 73
    11
 74
     0
 42
0.00000001
 43
0.00000001
 40
0.0
 40
0.0
 40
0.0
 40
0.0
 40
0.1249999999999983
 40
0.2499999999999992
 40
0.3750000000000042
 40
0.5000000000000105
 40
0.6250000000000082
 40
0.7500000000000044
 40
0.8749999999999942
 40
1.0
 40
1.0
 40
1.0
 40
1.0
 10
7.031520577099813
 20
11.41829258475164
 30
0.0
 41
1.0
 10
7.032015115844516
 20
11.41722370664835
 30
0.0
 41
1.0
 10
7.033004193333921
 20
11.41508595044177
 30
0.0
 41
1.0
 10
7.040612292445648
 20
11.41298404576161
 30
0.0
 41
1.0
 10
7.051487220876136
 20
11.41292341526918
 30
0.0
 41
1.0
 10
7.064420577099813
 20
11.41552983803159
 30
0.0
 41
1.0
 10
7.077353933323488
 20
11.42102305843479
 30
0.0
 41
1.0
 10
7.088228861753976
 20
11.42918333209284
 30
0.0
 41
1.0
 10
7.095836960865701
 20
11.4393848799386
 30
0.0
 41
1.0
 10
7.096826038355107
 20
11.44692239825559
 30
0.0
 41
1.0
 10
7.09732057709981
 20
11.45069115741408
 30
0.0
 41
1.0
  0
LINE
  5
203
330
1F
100
AcDbEntity
  8
0
  6
SLD-Solid
 62
     7
370
    25
100
AcDbLine
 10
7.031520577099811
 20
11.41829258475165
 30
0.0
 11
7.031520577099776
 21
14.73710408701433
 31
0.0
  0
LWPOLYLINE
  5
204
330
1F
100
AcDbEntity
  8
0
  6
SLD-Solid
 62
     7
370
    25
100
AcDbPolyline
 90
        9
 70
   128
 43
0.0
 10
7.097320577099774
 20
14.73710408701433
 10
7.094816213719396
 20
14.7300317527266
 10
7.087684390200812
 20
14.72403611722331
 10
7.077010862024588
 20
14.72002996165926
 10
7.064420577099776
 20
14.71862318690319
 10
7.051830292174964
 20
14.72002996165926
 10
7.041156763998739
 20
14.72403611722331
 10
7.034024940480155
 20
14.7300317527266
 10
7.031520577099776
 20
14.73710408701433
  0
LINE
  5
205
330
1F
100
AcDbEntity
  8
0
  6
SLD-Solid
 62
     7
370
    25
100
AcDbLine
 10
7.097320577099814
 20
11.45069115741408
 30
0.0
 11
7.097320577099778
 21
14.73710408701433
 31
0.0
  0
LWPOLYLINE
  5
206
330
1F
100
AcDbEntity
  8
0
  6
SLD-Solid
 62
     7
370
    25
100
AcDbPolyline
 90
        9
 70
   128
 43
0.0
 10
14.50260714205081
 20
14.73718681911115
 10
14.50237878064834
 20
14.7365419254071
 10
14.50172846239437
 20
14.73599521092352
 10
14.5007551923479
 20
14.73562990798455
 10
14.49960714205081
 20
14.73550163065117
 10
14.49845909175371
 20
14.73562990798455
 10
14.49748582170725
 20
14.73599521092352
 10
14.49683550345327
 20
14.7365419254071
 10
14.49660714205081
 20
14.73718681911115
  0
LINE
  5
207
330
1F
100
AcDbEntity
  8
0
  6
SLD-Solid
 62
     7
370
    25
100
AcDbLine
 10
7.097320577099774
 20
14.73710408701433
 30
0.0
 11
7.067420577099777
 21
14.73710408701433
 31
0.0
  0
LINE
  5
208
330
1F
100
AcDbEntity
  8
0
  6
SLD-Solid
 62
     7
370
    25
100
AcDbLine
 10
7.031520577099776
 20
14.73710408701433
 30
0.0
 11
7.061420577099775
 21
14.73710408701433
 31
0.0
  0
LWPOLYLINE
  5
209
330
1F
100
AcDbEntity
  8
0
  6
SLD-Solid
 62
     7
370
    25
100
AcDbPolyline
 90
        9
 70
   128
 43
0.0
 10
7.067420577099777
 20
14.73710408701433
 10
7.06719221569731
 20
14.73645919331029
 10
7.066541897443335
 20
14.7359124788267
 10
7.065568627396869
 20
14.73554717588773
 10
7.064420577099773
 20
14.73541889855435
 10
7.063272526802678
 20
14.73554717588773
 10
7.062299256756213
 20
14.7359124788267
 10
7.061648938502239
 20
14.73645919331029
 10
7.061420577099775
 20
14.73710408701433
  0
LINE
  5
20A
330
1F
100
AcDbEntity
  8
0
  6
SLD-Solid
 62
     7
370
    25
100
AcDbLine
 10
14.46670714205082
 20
14.85622401241802
 30
0.0
 11
14.46670714205081
 21
14.73718681911115
 31
0.0
  0
LINE
  5
20B
330
1F
100
AcDbEntity
  8
0
  6
SLD-Solid
 62
     7
370
    25
100
AcDbLine
 10
14.49660714205081
 20
14.79447641415438
 30
0.0
 11
14.49660714205081
 21
14.73718681911115
 31
0.0
  0
LINE
  5
20C
330
1F
100
AcDbEntity
  8
0
  6
SLD-Solid
 62
     7
370
    25
100
AcDbLine
 10
14.53250714205081
 20
14.73718681911115
 30
0.0
 11
14.53250714205081
 21
14.74943488451753
 31
0.0
  0
LINE
  5
20D
330
1F
100
AcDbEntity
  8
0
  6
SLD-Solid
 62
     7
370
    25
100
AcDbLine
 10
14.50260714205081
 20
14.73718681911115
 30
0.0
 11
14.50260714205081
 21
14.74943488451753
 31
0.0
  0
LINE
  5
20E
330
1F
100
AcDbEntity
  8
0
  6
SLD-Solid
 62
     7
370
    25
100
AcDbLine
 10
7.097320577099776
 20
14.856224012418
 30
0.0
 11
7.097320577099774
 21
14.73710408701433
 31
0.0
  0
LINE
  5
20F
330
1F
100
AcDbEntity
  8
0
  6
SLD-Solid
 62
     7
370
    25
100
AcDbLine
 10
7.067420577099776
 20
14.79447641415437
 30
0.0
 11
7.067420577099777
 21
14.73710408701433
 31
0.0
  0
LINE
  5
210
330
1F
100
AcDbEntity
  8
0
  6
SLD-Solid
 62
     7
370
    25
100
AcDbLine
 10
7.061420577099775
 20
14.73710408701433
 30
0.0
 11
7.061420577099776
 21
14.74935215242072
 31
0.0
  0
LINE
  5
211
330
1F
100
AcDbEntity
  8
0
  6
SLD-Solid
 62
     7
370
    25
100
AcDbLine
 10
7.031520577099776
 20
14.73710408701433
 30
0.0
 11
7.031520577099776
 21
14.74935215242072
 31
0.0
  0
LINE
  5
212
330
1F
100
AcDbEntity
  8
0
  6
SLD-Solid
 62
     7
370
    25
100
AcDbLine
 10
14.53250714205083
 20
11.3877772784209
 30
0.0
 11
14.50260714205083
 21
11.3877772784209
 31
0.0
  0
LINE
  5
213
330
1F
100
AcDbEntity
  8
0
  6
SLD-Solid
 62
     7
370
    25
100
AcDbLine
 10
14.53250714205082
 20
11.4183181888996
 30
0.0
 11
14.53250714205083
 21
11.3877772784209
 31
0.0
  0
LINE
  5
214
330
1F
100
AcDbEntity
  8
0
  6
SLD-Solid
 62
     7
370
    25
100
AcDbLine
 10
7.031520577099834
 20
11.38775167290608
 30
0.0
 11
7.061420577099834
 21
11.38775167290608
 31
0.0
  0
LINE
  5
215
330
1F
100
AcDbEntity
  8
0
  6
SLD-Solid
 62
     7
370
    25
100
AcDbLine
 10
7.061420577099834
 20
11.38775167290608
 30
0.0
 11
7.061420577099812
 21
11.41829258475165
 31
0.0
  0
LINE
  5
216
330
1F
100
AcDbEntity
  8
0
  6
SLD-Solid
 62
     7
370
    25
100
AcDbLine
 10
7.031520577099834
 20
11.38775167290608
 30
0.0
 11
7.031520577099813
 21
11.41829258475165
 31
0.0
  0
LINE
  5
217
330
1F
100
AcDbEntity
  8
0
  6
SLD-Solid
 62
     7
370
    25
100
AcDbLine
 10
7.103936187576582
 20
14.86481643769392
 30
0.0
 11
7.103936187576582
 21
11.63804532592005
 31
0.0
  0
LINE
  5
218
330
1F
100
AcDbEntity
  8
0
  6
SLD-Solid
 62
     7
370
    25
100
AcDbLine
 10
14.50260714205083
 20
11.38804532592005
 30
0.0
 11
14.47360714205083
 21
11.38804532592005
 31
0.0
  0
LINE
  5
219
330
1F
100
AcDbEntity
  8
0
  6
SLD-Solid
 62
     7
370
    25
100
AcDbLine
 10
14.50260714205083
 20
11.38804532592005
 30
0.0
 11
14.50260714205083
 21
11.38813110271268
 31
0.0
  0
LINE
  5
21A
330
1F
100
AcDbEntity
  8
0
  6
SLD-Solid
 62
     7
370
    25
100
AcDbLine
 10
14.47360714205083
 20
11.38804532592005
 30
0.0
 11
14.47360714205083
 21
11.42929682195144
 31
0.0
  0
LINE
  5
21B
330
1F
100
AcDbEntity
  8
0
  6
SLD-Solid
 62
     7
370
    25
100
AcDbLine
 10
7.074936187576581
 20
11.38804532592005
 30
0.0
 11
7.103936187576581
 21
11.38804532592005
 31
0.0
  0
LINE
  5
21C
330
1F
100
AcDbEntity
  8
0
  6
SLD-Solid
 62
     7
370
    25
100
AcDbLine
 10
7.074936187576581
 20
11.41701814879054
 30
0.0
 11
7.074936187576581
 21
11.38804532592005
 31
0.0
  0
LINE
  5
21D
330
1F
100
AcDbEntity
  8
0
  6
SLD-Solid
 62
     7
370
    25
100
AcDbLine
 10
7.103936187576582
 20
11.63804532592005
 30
0.0
 11
7.103936187576581
 21
11.38804532592005
 31
0.0
  0
LINE
  5
21E
330
1F
100
AcDbEntity
  8
0
  6
SLD-Solid
 62
     7
370
    25
100
AcDbLine
 10
14.47360714205083
 20
11.38804532592005
 30
0.0
 11
14.44460714205083
 21
11.38804532592005
 31
0.0
  0
LINE
  5
21F
330
1F
100
AcDbEntity
  8
0
  6
SLD-Solid
 62
     7
370
    25
100
AcDbLine
 10
7.13293618757658
 20
11.38804532592005
 30
0.0
 11
7.10393618757658
 21
11.38804532592005
 31
0.0
  0
LINE
  5
220
330
1F
100
AcDbEntity
  8
0
  6
SLD-Solid
 62
     7
370
    25
100
AcDbLine
 10
7.13293618757658
 20
11.38804532592005
 30
0.0
 11
14.44460714205083
 21
11.38804532592005
 31
0.0
  0
LINE
  5
221
330
1F
100
AcDbEntity
  8
0
  6
SLD-Solid
 62
     8
370
    25
100
AcDbLine
 10
7.026923575029492
 20
11.49324411144506
 30
0.0
 11
7.026923575029492
 21
11.74584654039505
 31
0.0
  0
LINE
  5
222
330
1F
100
AcDbEntity
  8
0
  6
SLD-Solid
 62
     8
370
    25
100
AcDbLine
 10
8.3153392137196
 20
12.89093410100495
 30
0.0
 11
8.3153392137196
 21
14.48015655083515
 31
0.0
  0
LINE
  5
223
330
1F
100
AcDbEntity
  8
0
  6
SLD-Solid
 62
     8
370
    25
100
AcDbLine
 10
8.161724985680912
 20
13.71740620364052
 30
0.0
 11
8.161901006817764
 21
13.7173981836318
 31
0.0
  0
LINE
  5
224
330
1F
100
AcDbEntity
  8
0
  6
SLD-Solid
 62
     8
370
    25
100
AcDbLine
 10
8.161724985680912
 20
13.65368444819958
 30
0.0
 11
8.161901006817764
 21
13.65369246820829
 31
0.0
  0
LINE
  5
225
330
1F
100
AcDbEntity
  8
0
  6
SLD-Solid
 62
     8
370
    25
100
AcDbLine
 10
8.175709295285834
 20
14.02433031834254
 30
0.0
 11
8.175885316422686
 21
14.02432229833384
 31
0.0
  0
LINE
  5
226
330
1F
100
AcDbEntity
  8
0
  6
SLD-Solid
 62
     8
370
    25
100
AcDbLine
 10
8.17570929528583
 20
13.34676033349754
 30
0.0
 11
8.175885316422685
 21
13.34676835350626
 31
0.0
  0
LINE
  5
227
330
1F
100
AcDbEntity
  8
0
  6
SLD-Solid
 62
     8
370
    25
100
AcDbLine
 10
13.1732041159078
 20
14.48015655083515
 30
0.0
 11
13.1732041159078
 21
12.89093410100495
 31
0.0
  0
LINE
  5
228
330
1F
100
AcDbEntity
  8
0
  6
SLD-Solid
 62
     8
370
    25
100
AcDbLine
 10
13.16977166481369
 20
13.02554532592005
 30
0.0
 11
13.16977166481369
 21
14.34554532592005
 31
0.0
  0
LINE
  5
229
330
1F
100
AcDbEntity
  8
0
  6
SLD-Solid
 62
     8
370
    25
100
AcDbLine
 10
13.32664232272667
 20
13.71739818342212
 30
0.0
 11
13.3268183438612
 21
13.71740620343067
 31
0.0
  0
LINE
  5
22A
330
1F
100
AcDbEntity
  8
0
  6
SLD-Solid
 62
     8
370
    25
100
AcDbLine
 10
13.32664232272667
 20
13.65369246841798
 30
0.0
 11
13.3268183438612
 21
13.65368444840943
 31
0.0
  0
LINE
  5
22B
330
1F
100
AcDbEntity
  8
0
  6
SLD-Solid
 62
     8
370
    25
100
AcDbLine
 10
13.31265801319962
 20
14.02432229844056
 30
0.0
 11
13.31283403433415
 21
14.02433031844929
 31
0.0
  0
LINE
  5
22C
330
1F
100
AcDbEntity
  8
0
  6
SLD-Solid
 62
     8
370
    25
100
AcDbLine
 10
13.31265801319962
 20
13.34676835339947
 30
0.0
 11
13.31283403433412
 21
13.34676033338999
 31
0.0
  0
LINE
  5
22D
330
1F
100
AcDbEntity
  8
0
  6
SLD-Solid
 62
     8
370
    25
100
AcDbLine
 10
13.2622716648137
 20
14.76208628648514
 30
0.0
 11
12.9942716648137
 21
14.76208628648514
 31
0.0
  0
LINE
  5
22E
330
1F
100
AcDbEntity
  8
0
  6
SLD-Solid
 62
     8
370
    25
100
AcDbLine
 10
12.9942716648137
 20
12.60900436535497
 30
0.0
 11
13.2622716648137
 21
12.60900436535497
 31
0.0
  0
LINE
  5
22F
330
1F
100
AcDbEntity
  8
0
  6
SLD-Solid
 62
     8
370
    25
100
AcDbLine
 10
12.9942716648137
 20
14.87804532592006
 30
0.0
 11
12.99852166481371
 21
14.87804532592006
 31
0.0
  0
LINE
  5
230
330
1F
100
AcDbEntity
  8
0
  6
SLD-Solid
 62
     8
370
    25
100
AcDbLine
 10
13.18602166481371
 20
14.87804532592006
 30
0.0
 11
13.2782716648137
 21
14.87804532592006
 31
0.0
  0
LINE
  5
231
330
1F
100
AcDbEntity
  8
0
  6
SLD-Solid
 62
     8
370
    25
100
AcDbLine
 10
13.2782716648137
 20
12.49304532592006
 30
0.0
 11
13.18602166481371
 21
12.49304532592006
 31
0.0
  0
LINE
  5
232
330
1F
100
AcDbEntity
  8
0
  6
SLD-Solid
 62
     8
370
    25
100
AcDbLine
 10
12.99852166481371
 20
12.49304532592006
 30
0.0
 11
12.9942716648137
 21
12.49304532592006
 31
0.0
  0
LINE
  5
233
330
1F
100
AcDbEntity
  8
0
  6
SLD-Solid
 62
     8
370
    25
100
AcDbLine
 10
14.44460714205083
 20
11.38804532592005
 30
0.0
 11
14.44460714205083
 21
11.55704532592005
 31
0.0
  0
LINE
  5
234
330
1F
100
AcDbEntity
  8
0
  6
SLD-Solid
 62
     8
370
    25
100
AcDbLine
 10
14.44460714205083
 20
11.68204532592005
 30
0.0
 11
14.44460714205083
 21
14.88189928028141
 31
0.0
  0
LINE
  5
235
330
1F
100
AcDbEntity
  8
0
  6
SLD-Solid
 62
     8
370
    25
100
AcDbLine
 10
7.13293618757658
 20
11.38804532592005
 30
0.0
 11
7.13293618757658
 21
11.55704532592005
 31
0.0
  0
LINE
  5
236
330
1F
100
AcDbEntity
  8
0
  6
SLD-Solid
 62
     8
370
    25
100
AcDbLine
 10
7.13293618757658
 20
11.68204532592005
 30
0.0
 11
7.13293618757658
 21
14.89425935812927
 31
0.0
  0
LINE
  5
237
330
1F
100
AcDbEntity
  8
DIMS
100
AcDbLine
 10
4.945771808272462
 20
7.388045325920054
 30
0.0
 11
29.63446945838151
 21
7.388045325920054
 31
0.0
  0
LINE
  5
238
330
1F
100
AcDbEntity
  8
DIMS
100
AcDbLine
 10
5.887709663188565
 20
7.388045325920054
 30
0.0
 11
5.887709663188565
 21
7.793334723822256
 31
0.0
  0
LINE
  5
239
330
1F
100
AcDbEntity
  8
DIMS
100
AcDbLine
 10
5.887709663188565
 20
7.793334723822256
 30
0.0
 11
5.993775680366515
 21
7.899400741000208
 31
0.0
  0
LINE
  5
23A
330
1F
100
AcDbEntity
  8
DIMS
100
AcDbLine
 10
5.993775680366515
 20
7.899400741000208
 30
0.0
 11
5.781643646010554
 21
8.111532775356197
 31
0.0
  0
LINE
  5
23B
330
1F
100
AcDbEntity
  8
DIMS
100
AcDbLine
 10
5.781643646010554
 20
8.111532775356197
 30
0.0
 11
5.887709663188505
 21
8.21759879253415
 31
0.0
  0
LINE
  5
23C
330
1F
100
AcDbEntity
  8
DIMS
100
AcDbLine
 10
5.887709663188505
 20
8.21759879253415
 30
0.0
 11
5.887709663188505
 21
8.383463368898852
 31
0.0
  0
DIMENSION
  5
23D
330
1F
100
AcDbEntity
  8
DIMS
100
AcDbDimension
  2
_D
 10
5.887165677418773
 20
12.33804532592006
 30
0.0
 11
5.887165677418773
 21
8.174444276564326
 31
0.0
 70
    32
  1
                                                                                                                                           44" (1117mm) Max height from bottom of dispenser to floor for unrestricted access\P \P 
 71
     2
 42
-1.0
  3
SLDDIMSTYLE0
100
AcDbAlignedDimension
 13
5.887709663188565
 23
7.388045325920054
 33
0.0
 14
8.010308684414293
 24
12.33804532592006
 34
0.0
 50
90.0000000000002
100
AcDbRotatedDimension
  0
DIMENSION
  5
251
330
1F
100
AcDbEntity
  8
DIMS
100
AcDbDimension
  2
_D_1
 10
15.91308251417284
 20
11.38804532592005
 30
0.0
 11
15.91308251417284
 21
15.059911427356
 31
0.0
 70
    32
  1
<>
 71
     2
 42
-1.0
  3
SLDDIMSTYLE1
100
AcDbAlignedDimension
 13
14.25260714205082
 23
18.70298686576168
 33
0.0
 14
14.47360714205083
 24
11.38804532592005
 34
0.0
 50
90.0000000000002
100
AcDbRotatedDimension
  0
DIMENSION
  5
261
330
1F
100
AcDbEntity
  8
DIMS
100
AcDbDimension
  2
_D_2
 10
6.595827094741607
 20
11.38804532592005
 30
0.0
 11
6.595827094741607
 21
11.86727388313177
 31
0.0
 70
    32
  1
<>
 71
     2
 42
-1.0
  3
SLDDIMSTYLE0
100
AcDbAlignedDimension
 13
8.010308684414293
 23
12.33804532592006
 33
0.0
 14
7.10393618757658
 24
11.38804532592005
 34
0.0
 50
90.0000000000002
100
AcDbRotatedDimension
  0
MTEXT
  5
26C
330
1F
100
AcDbEntity
  8
NOTES
100
AcDbMText
 10
12.4697387194775
 20
19.82393547399677
 30
0.0
 40
0.2916666666666666
 41
0.0
 71
     1
 72
     1
  1
lock
  7
SLDTEXTSTYLE1
 73
     1
 44
1.0
  0
LEADER
  5
26E
330
1F
100
AcDbEntity
  8
NOTES
100
AcDbLeader
  3
SLDDIMSTYLE2
 76
     3
 10
10.95677716822333
 20
18.13185754468105
 30
0.0
 10
11.94593112835686
 20
19.68477633677498
 30
0.0
 10
12.44593112835686
 20
19.68477633677498
 30
0.0
1001
ACAD
1000
DSTYLE
1002
{
1070
   176
1070
     0
1070
    77
1070
     0
1070
    40
1040
1.0
1070
   147
1040
0.0
1002
}
  0
MTEXT
  5
26F
330
1F
100
AcDbEntity
  8
NOTES
100
AcDbMText
 10
6.149685118611789
 20
7.879377171956425
 30
0.0
 40
0.2916666666666666
 41
0.0
 71
     1
 72
     1
  1
Floor
  7
SLDTEXTSTYLE1
 73
     1
 44
1.0
  0
MTEXT
  5
270
330
1F
100
AcDbEntity
  8
NOTES
100
AcDbMText
 10
7.123039558715159
 20
11.18952123060111
 30
0.0
 40
0.2916666666666666
 41
0.0
 71
     1
 72
     1
  1
Front view
  7
SLDTEXTSTYLE1
 73
     1
 44
1.0
  0
LINE
  5
271
330
1F
100
AcDbEntity
  8
0
  6
SLD-Solid
 62
     7
370
    25
100
AcDbLine
 10
26.62329500735396
 20
18.03059667022851
 30
0.0
 11
26.51094911002177
 21
18.19606086379504
 31
0.0
  0
LINE
  5
272
330
1F
100
AcDbEntity
  8
0
  6
SLD-Solid
 62
     7
370
    25
100
AcDbLine
 10
25.76636023897235
 20
17.69050432580019
 30
0.0
 11
25.87870613630454
 21
17.52504013223365
 31
0.0
  0
ARC
  5
273
330
1F
100
AcDbEntity
  8
0
  6
SLD-Solid
 62
     7
370
    25
100
AcDbCircle
 10
25.80772628736398
 20
17.71859080013324
 30
0.0
 40
0.0500000000000042
100
AcDbArc
 50
124.1754878476177
 51
214.1754878476151
  0
ARC
  5
274
330
1F
100
AcDbEntity
  8
0
  6
SLD-Solid
 62
     7
370
    25
100
AcDbCircle
 10
26.46958306163014
 20
18.167974389462
 30
0.0
 40
0.0499999999999993
100
AcDbArc
 50
34.17548784761324
 51
124.1754878476166
  0
CIRCLE
  5
275
330
1F
100
AcDbEntity
  8
0
  6
SLD-Solid
 62
     7
370
    25
100
AcDbCircle
 10
27.4673134626213
 20
11.61954532592005
 30
0.0
 40
0.1274401184765526
  0
LINE
  5
276
330
1F
100
AcDbEntity
  8
0
  6
SLD-Solid
 62
     7
370
    25
100
AcDbLine
 10
22.24379077964127
 20
14.71870591900001
 30
0.0
 11
24.48621763364544
 21
11.4160365751197
 31
0.0
  0
LINE
  5
277
330
1F
100
AcDbEntity
  8
0
  6
SLD-Solid
 62
     7
370
    25
100
AcDbLine
 10
24.48621763364543
 20
11.41603657511971
 30
0.0
 11
24.48623501819807
 21
11.41601097097172
 31
0.0
  0
ARC
  5
278
330
1F
100
AcDbEntity
  8
0
  6
SLD-Solid
 62
     7
370
    25
100
AcDbCircle
 10
24.3199483451686
 20
13.68554532592005
 30
0.0
 40
2.250000000000003
100
AcDbArc
 50
154.5375849311904
 51
273.8133907640428
  0
LINE
  5
279
330
1F
100
AcDbEntity
  8
0
  6
SLD-Solid
 62
     7
370
    25
100
AcDbLine
 10
25.77963982249355
 20
17.75995685494974
 30
0.0
 11
26.44149658729709
 21
18.20934043785363
 31
0.0
  0
CIRCLE
  5
27A
330
1F
100
AcDbEntity
  8
0
  6
SLD-Solid
 62
     7
370
    25
100
AcDbCircle
 10
27.4673134626213
 20
11.61954532592005
 30
0.0
 40
0.1263012144749958
  0
LINE
  5
27B
330
1F
100
AcDbEntity
  8
0
  6
SLD-Solid
 62
     7
370
    25
100
AcDbLine
 10
22.27100963948297
 20
14.73718681911115
 30
0.0
 11
22.28904871623914
 21
14.74943488451753
 31
0.0
  0
LINE
  5
27C
330
1F
100
AcDbEntity
  8
0
  6
SLD-Solid
 62
     7
370
    25
100
AcDbLine
 10
22.28904871623914
 20
14.74943488451753
 30
0.0
 11
27.68204809885766
 21
18.4111416374567
 31
0.0
  0
LINE
  5
27D
330
1F
100
AcDbEntity
  8
0
  6
SLD-Solid
 62
     7
370
    25
100
AcDbLine
 10
27.68204809885768
 20
11.63776329994547
 30
0.0
 11
27.68204809885766
 21
18.4111416374567
 31
0.0
  0
ARC
  5
27E
330
1F
100
AcDbEntity
  8
0
  6
SLD-Solid
 62
     7
370
    25
100
AcDbCircle
 10
27.4320480988629
 20
11.6377634620629
 30
0.0
 40
0.2499999999948159
100
AcDbArc
 50
269.397625840737
 51
359.9999628454242
  0
LINE
  5
27F
330
1F
100
AcDbEntity
  8
0
  6
SLD-Solid
 62
     7
370
    25
100
AcDbLine
 10
24.52443538889646
 20
11.41831818889959
 30
0.0
 11
27.42941979418011
 21
11.3877772784209
 31
0.0
  0
LINE
  5
280
330
1F
100
AcDbEntity
  8
0
  6
SLD-Solid
 62
     7
370
    25
100
AcDbLine
 10
22.28904871623913
 20
14.74943488451753
 30
0.0
 11
22.13182063292273
 21
14.9810020234139
 31
0.0
  0
LINE
  5
281
330
1F
100
AcDbEntity
  8
0
  6
SLD-Solid
 62
     7
370
    25
100
AcDbLine
 10
22.13182063292273
 20
14.9810020234139
 30
0.0
 11
27.61359820584968
 21
18.70298686576168
 31
0.0
  0
LINE
  5
282
330
1F
100
AcDbEntity
  8
0
  6
SLD-Solid
 62
     7
370
    25
100
AcDbLine
 10
27.65611287106397
 20
18.64037082938222
 30
0.0
 11
27.61359820584968
 21
18.70298686576168
 31
0.0
  0
SPLINE
  5
283
330
1F
100
AcDbEntity
  8
0
  6
SLD-Solid
 62
     7
370
    25
100
AcDbSpline
210
0.0
220
0.0
230
1.0
 70
    12
 71
     3
 72
     9
 73
     5
 74
     0
 42
0.00000001
 43
0.00000001
 40
0.0
 40
0.0
 40
0.0
 40
0.0
 40
0.7699755074695184
 40
1.0
 40
1.0
 40
1.0
 40
1.0
 10
27.68204809885766
 20
18.4111416374567
 30
0.0
 41
1.0
 10
27.6828555863212
 20
18.44181817593639
 30
0.0
 41
1.0
 10
27.68390430469692
 20
18.48165910357902
 30
0.0
 41
1.0
 10
27.68613447830674
 20
18.5196221958067
 30
0.0
 41
1.0
 10
27.68664747285959
 20
18.52835463683126
 30
0.0
 41
1.0
  0
SPLINE
  5
284
330
1F
100
AcDbEntity
  8
0
  6
SLD-Solid
 62
     7
370
    25
100
AcDbSpline
210
0.0
220
0.0
230
1.0
 70
    12
 71
     3
 72
    11
 73
     7
 74
     0
 42
0.00000001
 43
0.00000001
 40
0.0
 40
0.0
 40
0.0
 40
0.0
 40
0.2499999999999821
 40
0.4999999999999986
 40
0.7500000000000064
 40
0.9999999999999999
 40
0.9999999999999999
 40
0.9999999999999999
 40
0.9999999999999999
 10
24.48621763364544
 20
11.4160365751197
 30
0.0
 41
1.0
 10
24.48754335053579
 20
11.41496443158729
 30
0.0
 41
1.0
 10
24.49019478431647
 20
11.41282014452248
 30
0.0
 41
1.0
 10
24.49923884808928
 20
11.41304401654816
 30
0.0
 41
1.0
 10
24.51098562825583
 20
11.41510296293008
 30
0.0
 41
1.0
 10
24.51995213534958
 20
11.41724644690976
 30
0.0
 41
1.0
 10
24.52443538889646
 20
11.41831818889959
 30
0.0
 41
1.0
  0
LINE
  5
285
330
1F
100
AcDbEntity
  8
0
  6
SLD-Solid
 62
     7
370
    25
100
AcDbLine
 10
22.27100963948297
 20
14.73718681911115
 30
0.0
 11
22.24379077964127
 21
14.71870591900001
 31
0.0
  0
SPLINE
  5
286
330
1F
100
AcDbEntity
  8
0
  6
SLD-Solid
 62
     7
370
    25
100
AcDbSpline
210
0.0
220
0.0
230
1.0
 70
    28
 71
     3
 72
    11
 73
     7
 74
     0
 42
0.00000001
 43
0.00000001
 40
0.0
 40
0.0
 40
0.0
 40
0.0
 40
0.0522692885076633
 40
0.3772114718978193
 40
0.7020507927804256
 40
0.9999999999999999
 40
0.9999999999999999
 40
0.9999999999999999
 40
0.9999999999999999
 10
27.65611287106397
 20
18.64037082938222
 30
0.0
 41
1.0
 10
27.65623904800139
 20
18.6401849946905
 30
0.0
 41
1.0
 10
27.65714962837548
 20
18.63884388254618
 30
0.0
 41
1.0
 10
27.65880356373773
 20
18.63640794952659
 30
0.0
 41
1.0
 10
27.66095090453
 20
18.63324532391282
 30
0.0
 41
1.0
 10
27.66227085057871
 20
18.63130129379079
 30
0.0
 41
1.0
 10
27.66290232797599
 20
18.63037124738253
 30
0.0
 41
1.0
  0
SPLINE
  5
287
330
1F
100
AcDbEntity
  8
0
  6
SLD-Solid
 62
     7
370
    25
100
AcDbSpline
210
0.0
220
0.0
230
1.0
 70
    12
 71
     3
 72
    10
 73
     6
 74
     0
 42
0.00000001
 43
0.00000001
 40
0.0
 40
0.0
 40
0.0
 40
0.0
 40
0.4315743340290851
 40
0.8639944649590151
 40
0.9999999999999999
 40
0.9999999999999999
 40
0.9999999999999999
 40
0.9999999999999999
 10
27.66290232797598
 20
18.63037124738253
 30
0.0
 41
1.0
 10
27.66920386145873
 20
18.61900496561219
 30
0.0
 41
1.0
 10
27.68181927813335
 20
18.59625012649779
 30
0.0
 41
1.0
 10
27.68777890926326
 20
18.55707933165769
 30
0.0
 41
1.0
 10
27.68686603206251
 20
18.53390107310321
 30
0.0
 41
1.0
 10
27.68664761062319
 20
18.52835527944058
 30
0.0
 41
1.0
  0
LINE
  5
288
330
1F
100
AcDbEntity
  8
0
  6
SLD-Solid
 62
     7
370
    25
100
AcDbLine
 10
22.16878243314503
 20
14.9265643037305
 30
0.0
 11
22.15074335638886
 21
14.91431623832413
 31
0.0
  0
LINE
  5
289
330
1F
100
AcDbEntity
  8
0
  6
SLD-Solid
 62
     7
370
    25
100
AcDbLine
 10
22.11378155616656
 20
14.96875395800752
 30
0.0
 11
22.13182063292273
 21
14.9810020234139
 31
0.0
  0
ARC
  5
28A
330
1F
100
AcDbEntity
  8
0
  6
SLD-Solid
 62
     7
370
    25
100
AcDbCircle
 10
22.13226245627772
 20
14.94153509816583
 30
0.0
 40
0.0329000000000032
100
AcDbArc
 50
124.1754878476229
 51
304.1754878476204
  0
SPLINE
  5
28B
330
1F
100
AcDbEntity
  8
0
  6
SLD-Solid
 62
     7
370
    25
100
AcDbSpline
210
0.0
220
0.0
230
1.0
 70
    12
 71
     3
 72
     9
 73
     5
 74
     0
 42
0.00000001
 43
0.00000001
 40
0.0
 40
0.0
 40
0.0
 40
0.0
 40
0.229942674152244
 40
1.0
 40
1.0
 40
1.0
 40
1.0
 10
27.68666266270552
 20
18.52833226433825
 30
0.0
 41
1.0
 10
27.68615014813547
 20
18.51960534807607
 30
0.0
 41
1.0
 10
27.6839212683856
 20
18.48165277448633
 30
0.0
 41
1.0
 10
27.68287283625406
 20
18.44182393259542
 30
0.0
 41
1.0
 10
27.68206548341051
 20
18.4111534411173
 30
0.0
 41
1.0
  0
LINE
  5
28C
330
1F
100
AcDbEntity
  8
0
  6
SLD-Solid
 62
     7
370
    25
100
AcDbLine
 10
27.44446062206104
 20
11.38804532592005
 30
0.0
 11
27.42943730899821
 21
11.38775167290608
 31
0.0
  0
LINE
  5
28D
330
1F
100
AcDbEntity
  8
0
  6
SLD-Solid
 62
     7
370
    25
100
AcDbLine
 10
27.86114834516861
 20
11.38804532592005
 30
0.0
 11
27.86114834516858
 21
18.32447810414612
 31
0.0
  0
LINE
  5
28E
330
1F
100
AcDbEntity
  8
0
  6
SLD-Solid
 62
     7
370
    25
100
AcDbLine
 10
27.80314834516861
 20
11.38804532592005
 30
0.0
 11
27.86114834516861
 21
11.38804532592005
 31
0.0
  0
LINE
  5
28F
330
1F
100
AcDbEntity
  8
0
  6
SLD-Solid
 62
     7
370
    25
100
AcDbLine
 10
27.4023131652764
 20
11.38804532592005
 30
0.0
 11
27.39576480375186
 21
11.38813110271268
 31
0.0
  0
LINE
  5
290
330
1F
100
AcDbEntity
  8
0
  6
SLD-Solid
 62
     7
370
    25
100
AcDbLine
 10
27.80314834516861
 20
11.38804532592005
 30
0.0
 11
27.4439162275591
 21
11.38804532592005
 31
0.0
  0
LINE
  5
291
330
1F
100
AcDbEntity
  8
0
  6
SLD-Solid
 62
     7
370
    25
100
AcDbLine
 10
27.86114834516858
 20
18.32447810414612
 30
0.0
 11
27.86114834516858
 21
18.49304714745634
 31
0.0
  0
LINE
  5
292
330
1F
100
AcDbEntity
  8
0
  6
SLD-Solid
 62
     7
370
    25
100
AcDbLine
 10
27.86114834516858
 20
18.49304714745634
 30
0.0
 11
27.86114834516858
 21
18.592492232443
 31
0.0
  0
LINE
  5
293
330
1F
100
AcDbEntity
  8
0
  6
SLD-Solid
 62
     7
370
    25
100
AcDbLine
 10
27.77414834516858
 20
18.6427217058625
 30
0.0
 11
27.68064253544535
 21
18.588736101448
 31
0.0
  0
ARC
  5
294
330
1F
100
AcDbEntity
  8
0
  6
SLD-Solid
 62
     7
370
    25
100
AcDbCircle
 10
27.80314834516858
 20
18.592492232443
 30
0.0
 40
0.0580000000000034
100
AcDbArc
 50
0.0
 51
119.9999999999991
  0
DIMENSION
  5
295
330
1F
100
AcDbEntity
  8
DIMS
100
AcDbDimension
  2
_D_3
 10
27.86114834516856
 20
19.57541276086454
 30
0.0
 11
25.31303518701327
 21
19.57541276086453
 31
0.0
 70
    32
  1
<>
 71
     2
 42
-1.0
  3
SLDDIMSTYLE1
100
AcDbAlignedDimension
 13
22.09936245627769
 23
14.94153509816583
 33
0.0
 14
27.86114834516856
 24
18.592492232443
 34
0.0
 50
0.0000000000001766
100
AcDbRotatedDimension
  0
MTEXT
  5
2A4
330
1F
100
AcDbEntity
  8
NOTES
100
AcDbMText
 10
22.42477254786651
 20
11.22878649469529
 30
0.0
 40
0.2916666666666666
 41
0.0
 71
     1
 72
     1
  1
Side view
  7
SLDTEXTSTYLE1
 73
     1
 44
1.0
  0
LINE
  5
2A5
330
1F
100
AcDbEntity
  8
0
  6
SLD-Solid
 62
     7
370
    25
100
AcDbLine
 10
34.39392500159052
 20
23.45327142489517
 30
0.0
 11
37.57590551692999
 21
21.61635317329408
 31
0.0
  0
SPLINE
  5
2A6
330
1F
100
AcDbEntity
  8
0
  6
SLD-Solid
 62
     7
370
    25
100
AcDbSpline
210
0.0
220
0.0
230
1.0
 70
    12
 71
     3
 72
    10
 73
     6
 74
     0
 42
0.00000001
 43
0.00000001
 40
0.0
 40
0.0
 40
0.0
 40
0.0
 40
0.0271465129837262
 40
0.5139878003282738
 40
0.9999999999999999
 40
0.9999999999999999
 40
0.9999999999999999
 40
0.9999999999999999
 10
38.77602005101267
 20
28.96431040732209
 30
0.0
 41
1.0
 10
38.7754236946083
 20
28.96530080788674
 30
0.0
 41
1.0
 10
38.76413237639454
 20
28.9840528961557
 30
0.0
 41
1.0
 10
38.73317494776908
 20
29.01418430473814
 30
0.0
 41
1.0
 10
38.69872846847736
 20
29.03733491736761
 30
0.0
 41
1.0
 10
38.6815199068646
 20
29.04890035894537
 30
0.0
 41
1.0
  0
SPLINE
  5
2A7
330
1F
100
AcDbEntity
  8
0
  6
SLD-Solid
 62
     7
370
    25
100
AcDbSpline
210
0.0
220
0.0
230
1.0
 70
    12
 71
     3
 72
    25
 73
    21
 74
     0
 42
0.00000001
 43
0.00000001
 40
0.0
 40
0.0
 40
0.0
 40
0.0
 40
0.0331330639447793
 40
0.0913975178607901
 40
0.1499380520089447
 40
0.2089017893821497
 40
0.2682279432128908
 40
0.3278095546386254
 40
0.3875490777994787
 40
0.4473838000705291
 40
0.5072854971120062
 40
0.567248847202159
 40
0.6272731239419792
 40
0.6873394503618695
 40
0.7473925647630205
 40
0.8073259610415459
 40
0.8669861034136237
 40
0.9262148552845324
 40
0.9849295085406691
 40
1.0
 40
1.0
 40
1.0
 40
1.0
 10
38.6815199068646
 20
29.04890035894537
 30
0.0
 41
1.0
 10
38.67099088159283
 20
29.05452061185827
 30
0.0
 41
1.0
 10
38.6419465777839
 20
29.07002407289784
 30
0.0
 41
1.0
 10
38.58931859890706
 20
29.08699765273906
 30
0.0
 41
1.0
 10
38.52381572611035
 20
29.09632796018074
 30
0.0
 41
1.0
 10
38.45536744467903
 20
29.09427450592501
 30
0.0
 41
1.0
 10
38.38589560217011
 20
29.08101773251087
 30
0.0
 41
1.0
 10
38.31728967338152
 20
29.0568260469162
 30
0.0
 41
1.0
 10
38.25149168759432
 20
29.02236032643924
 30
0.0
 41
1.0
 10
38.19035039453273
 20
28.97856271992115
 30
0.0
 41
1.0
 10
38.13557794845259
 20
28.92662958028721
 30
0.0
 41
1.0
 10
38.08871134292706
 20
28.86796164744837
 30
0.0
 41
1.0
 10
38.05108858442478
 20
28.80413047474942
 30
0.0
 41
1.0
 10
38.02383342333551
 20
28.73686243642504
 30
0.0
 41
1.0
 10
38.00779093634785
 20
28.66799627095162
 30
0.0
 41
1.0
 10
38.00359306260007
 20
28.59955820056515
 30
0.0
 41
1.0
 10
38.01115952209283
 20
28.53335659332546
 30
0.0
 41
1.0
 10
38.03123535453958
 20
28.47222719692528
 30
0.0
 41
1.0
 10
38.05254925112757
 20
28.4290063151
 30
0.0
 41
1.0
 10
38.06989943096976
 20
28.40936787037976
 30
0.0
 41
1.0
 10
38.07344317596257
 20
28.40535675114197
 30
0.0
 41
1.0
  0
LINE
  5
2A8
330
1F
100
AcDbEntity
  8
0
  6
SLD-Solid
 62
     7
370
    25
100
AcDbLine
 10
38.83809142573921
 20
28.89698592876242
 30
0.0
 11
38.75865087989713
 21
28.98623414475926
 31
0.0
  0
LINE
  5
2A9
330
1F
100
AcDbEntity
  8
0
  6
SLD-Solid
 62
     7
370
    25
100
AcDbLine
 10
38.08638958394242
 20
28.38784902632691
 30
0.0
 11
38.1658301297845
 21
28.29860081033007
 31
0.0
  0
LINE
  5
2AA
330
1F
100
AcDbEntity
  8
0
  6
SLD-Solid
 62
     7
370
    25
100
AcDbLine
 10
38.47473853632557
 20
22.73750516969688
 30
0.0
 11
38.48771824753938
 21
22.73088201106577
 31
0.0
  0
LINE
  5
2AB
330
1F
100
AcDbEntity
  8
0
  6
SLD-Solid
 62
     7
370
    25
100
AcDbLine
 10
38.44895242842389
 20
22.75127265396161
 30
0.0
 11
38.47723669967134
 21
22.73494449172515
 31
0.0
  0
SPLINE
  5
2AC
330
1F
100
AcDbEntity
  8
0
  6
SLD-Solid
 62
     7
370
    25
100
AcDbSpline
210
0.0
220
0.0
230
1.0
 70
    12
 71
     3
 72
     9
 73
     5
 74
     0
 42
0.00000001
 43
0.00000001
 40
0.0
 40
0.0
 40
0.0
 40
0.0
 40
0.8812378941891171
 40
1.0
 40
1.0
 40
1.0
 40
1.0
 10
38.2695077506718
 20
23.04800086954875
 30
0.0
 41
1.0
 10
38.27306605541989
 20
23.02397975064224
 30
0.0
 41
1.0
 10
38.27710390351012
 20
22.99672136892158
 30
0.0
 41
1.0
 10
38.28602151583415
 20
22.97308746997944
 30
0.0
 41
1.0
 10
38.28708059025256
 20
22.97028065837256
 30
0.0
 41
1.0
  0
SPLINE
  5
2AD
330
1F
100
AcDbEntity
  8
0
  6
SLD-Solid
 62
     7
370
    25
100
AcDbSpline
210
0.0
220
0.0
230
1.0
 70
    12
 71
     3
 72
    12
 73
     8
 74
     0
 42
0.00000001
 43
0.00000001
 40
0.0
 40
0.0
 40
0.0
 40
0.0
 40
0.1438047579362156
 40
0.4110998419891658
 40
0.6742419731844269
 40
0.9326168931843866
 40
1.0
 40
1.0
 40
1.0
 40
1.0
 10
38.29581412733738
 20
22.94647846988817
 30
0.0
 41
1.0
 10
38.30006992372004
 20
22.93399232902425
 30
0.0
 41
1.0
 10
38.31223612215155
 20
22.89829774833109
 30
0.0
 41
1.0
 10
38.34223849616349
 20
22.84805506370711
 30
0.0
 41
1.0
 10
38.38496405516405
 20
22.7978338779299
 30
0.0
 41
1.0
 10
38.42187442087999
 20
22.76571911867442
 30
0.0
 41
1.0
 10
38.44581718286756
 20
22.75404588147413
 30
0.0
 41
1.0
 10
38.45076974751881
 20
22.75163127024616
 30
0.0
 41
1.0
  0
LINE
  5
2AE
330
1F
100
AcDbEntity
  8
0
  6
SLD-Solid
 62
     7
370
    25
100
AcDbLine
 10
33.119055360257
 20
25.98877762466783
 30
0.0
 11
38.02721544981479
 21
23.15535711601742
 31
0.0
  0
LINE
  5
2AF
330
1F
100
AcDbEntity
  8
0
  6
SLD-Solid
 62
     7
370
    25
100
AcDbLine
 10
38.29185367688258
 20
22.95092787458307
 30
0.0
 11
39.87620134214914
 21
21.17097783591023
 31
0.0
  0
LINE
  5
2B0
330
1F
100
AcDbEntity
  8
0
  6
SLD-Solid
 62
     7
370
    25
100
AcDbLine
 10
36.8925133667029
 20
31.3608584465894
 30
0.0
 11
33.02078892561818
 21
26.09011770034465
 31
0.0
  0
LINE
  5
2B1
330
1F
100
AcDbEntity
  8
0
  6
SLD-Solid
 62
     7
370
    25
100
AcDbLine
 10
33.03442255769153
 20
25.98595656274567
 30
0.0
 11
33.97106143096043
 21
24.93368095730465
 31
0.0
  0
LINE
  5
2B2
330
1F
100
AcDbEntity
  8
0
  6
SLD-Solid
 62
     7
370
    25
100
AcDbLine
 10
42.24735048232435
 20
22.5187841416532
 30
0.0
 11
42.24735048232434
 21
28.16845037782417
 31
0.0
  0
LINE
  5
2B3
330
1F
100
AcDbEntity
  8
0
  6
SLD-Solid
 62
     7
370
    25
100
AcDbLine
 10
41.9844121882372
 20
28.58678824394919
 30
0.0
 11
37.28215145746079
 21
31.3013455828488
 31
0.0
  0
LWPOLYLINE
  5
2B4
330
1F
100
AcDbEntity
  8
0
  6
SLD-Solid
 62
     7
370
    25
100
AcDbPolyline
 90
       31
 70
   128
 43
0.0
 10
37.28444938944889
 20
23.58414683562085
 10
37.24434046251918
 20
23.46350893553982
 10
37.19859595975807
 20
23.3028630864945
 10
37.16211313131519
 20
23.14383317127371
 10
37.13511690595967
 20
22.98739966218758
 10
37.11777372439796
 20
22.83452702383907
 10
37.11019051311158
 20
22.68615776687889
 10
37.1124140251198
 20
22.54320663711399
 10
37.12443055173169
 20
22.40655497579544
 10
37.14616600706479
 20
22.27704528585657
 10
37.17748638480919
 20
22.15547603760218
 10
37.21819858442102
 20
22.04259674587365
 10
37.26805160165149
 20
21.93910334904065
 10
37.32673807607158
 20
21.84563391830971
 10
37.39389618605123
 20
21.76276472380302
 10
37.46911187951009
 20
21.69100668166151
 10
37.55192142668624
 20
21.63080220407697
 10
37.64181427918435
 20
21.58252247167372
 10
37.73823621767638
 20
21.54646514505666
 10
37.84059276884798
 20
21.52285252963468
 10
37.94825287052414
 20
21.51183020503382
 10
38.06055276237745
 20
21.51346612755057
 10
38.1768000782311
 20
21.5277502111786
 10
38.29627811472672
 20
21.55459438979239
 10
38.41825025003882
 20
21.59383316010422
 10
38.54196448539336
 20
21.64522460204688
 10
38.6666580813902
 20
21.70845187029141
 10
38.79156226054523
 20
21.78312514770389
 10
38.91590694705906
 20
21.86878404869768
 10
39.03892551459057
 20
21.96490045766368
 10
39.11298982759475
 20
22.02841487111935
  0
LWPOLYLINE
  5
2B5
330
1F
100
AcDbEntity
  8
0
  6
SLD-Solid
 62
     7
370
    25
100
AcDbPolyline
 90
       18
 70
   128
 43
0.0
 10
34.10246887410943
 20
25.42106508722195
 10
34.06235994717971
 20
25.30042718714091
 10
34.01661544441862
 20
25.1397813380956
 10
33.98013261597574
 20
24.9807514228748
 10
33.95313639062021
 20
24.82431791378868
 10
33.9357932090585
 20
24.67144527544017
 10
33.92820999777212
 20
24.52307601847998
 10
33.93043350978034
 20
24.38012488871508
 10
33.94245003639223
 20
24.24347322739654
 10
33.96418549172533
 20
24.11396353745767
 10
33.99550586946973
 20
23.99239428920328
 10
34.03621806908156
 20
23.87951499747475
 10
34.08607108631204
 20
23.77602160064175
 10
34.14475756073212
 20
23.68255216991081
 10
34.21191567071178
 20
23.59968297540411
 10
34.28713136417063
 20
23.52792493326261
 10
34.36994091134678
 20
23.46772045567806
 10
34.39392500159052
 20
23.45327142489517
  0
LINE
  5
2B6
330
1F
100
AcDbEntity
  8
0
  6
SLD-Solid
 62
     7
370
    25
100
AcDbLine
 10
38.75865087989713
 20
28.98623414475926
 30
0.0
 11
38.77526433097733
 21
28.96576491994945
 31
0.0
  0
LWPOLYLINE
  5
2B7
330
1F
100
AcDbEntity
  8
0
  6
SLD-Solid
 62
     7
370
    25
100
AcDbPolyline
 90
        3
 70
   128
 43
0.0
 10
38.08638958394242
 20
28.38784902632691
 10
38.08410275217827
 20
28.39044934890338
 10
38.07332337626473
 20
28.40361768853247
  0
LWPOLYLINE
  5
2B8
330
1F
100
AcDbEntity
  8
0
  6
SLD-Solid
 62
     7
370
    25
100
AcDbPolyline
 90
       31
 70
   128
 43
0.0
 10
38.59278648209525
 20
28.96818065789743
 10
38.54085164028225
 20
28.990107545077
 10
38.48287716484388
 20
28.99976413937798
 10
38.4213968185492
 20
28.99672840129196
 10
38.35909758754672
 20
28.98113300714038
 10
38.29870224717612
 20
28.95365955048267
 10
38.24285036362059
 20
28.91550875320702
 10
38.19398293219859
 20
28.86834798822225
 10
38.1542356941552
 20
28.81423840726062
 10
38.12534579452134
 20
28.75554485865676
 10
38.10857586054011
 20
28.69483253212752
 10
38.10465881879759
 20
28.63475484767232
 10
38.11376586281395
 20
28.57793748838656
 10
38.13549897106525
 20
28.52686364551096
 10
38.16890830243387
 20
28.48376549105867
 10
38.21253370882325
 20
28.45052662118716
 10
38.26446855063625
 20
28.4285997340076
 10
38.32244302607462
 20
28.41894313970661
 10
38.3839233723693
 20
28.42197887779263
 10
38.44622260337179
 20
28.43757427194421
 10
38.50661794374238
 20
28.46504772860193
 10
38.56246982729792
 20
28.50319852587757
 10
38.61133725871991
 20
28.55035929086235
 10
38.6510844967633
 20
28.60446887182397
 10
38.67997439639716
 20
28.66316242042784
 10
38.69674433037839
 20
28.72387474695707
 10
38.70066137212091
 20
28.78395243141227
 10
38.69155432810455
 20
28.84076979069804
 10
38.66982121985325
 20
28.89184363357364
 10
38.63641188848463
 20
28.93494178802592
 10
38.59278648209525
 20
28.96818065789743
  0
LWPOLYLINE
  5
2B9
330
1F
100
AcDbEntity
  8
0
  6
SLD-Solid
 62
     7
370
    25
100
AcDbPolyline
 90
       19
 70
   128
 43
0.0
 10
38.1658301297845
 20
28.29860081033007
 10
38.21124557920533
 20
28.25732622213429
 10
38.26829168607318
 20
28.22439420561717
 10
38.33284810981147
 20
28.20346354546258
 10
38.40283995384404
 20
28.1952069703097
 10
38.47601762271423
 20
28.19988985327748
 10
38.55002912593374
 20
28.21736168265424
 10
38.62249567289224
 20
28.24706089946793
 10
38.69108812914481
 20
28.28803294645359
 10
38.75360187670942
 20
28.33896094830917
 10
38.80802767230288
 20
28.39820803715134
 10
38.85261622607311
 20
28.46386996279604
 10
38.88593442521435
 20
28.53383629692622
 10
38.90691139539189
 20
28.60585826399448
 10
38.91487291952433
 20
28.67762101871936
 10
38.90956310767528
 20
28.7468180471174
 10
38.8911526215665
 20
28.81122529976038
 10
38.86023318936972
 20
28.86877267455392
 10
38.83809142573921
 20
28.89698592876242
  0
LINE
  5
2BA
330
1F
100
AcDbEntity
  8
0
  6
SLD-Solid
 62
     7
370
    25
100
AcDbLine
 10
38.38677325461004
 20
28.6260394004297
 30
0.0
 11
38.60614985457466
 21
28.92468596007025
 31
0.0
  0
LINE
  5
2BB
330
1F
100
AcDbEntity
  8
0
  6
SLD-Solid
 62
     7
370
    25
100
AcDbLine
 10
38.60614985457466
 20
28.92468596007025
 30
0.0
 11
38.54251024426787
 21
28.96142432510227
 31
0.0
  0
LINE
  5
2BC
330
1F
100
AcDbEntity
  8
0
  6
SLD-Solid
 62
     7
370
    25
100
AcDbLine
 10
38.54251024426787
 20
28.96142432510227
 30
0.0
 11
38.32313364430325
 21
28.66277776546173
 31
0.0
  0
LINE
  5
2BD
330
1F
100
AcDbEntity
  8
0
  6
SLD-Solid
 62
     7
370
    25
100
AcDbLine
 10
38.32313364430325
 20
28.66277776546173
 30
0.0
 11
38.38677325461004
 21
28.6260394004297
 31
0.0
  0
LINE
  5
2BE
330
1F
100
AcDbEntity
  8
0
  6
SLD-Solid
 62
     7
370
    25
100
AcDbLine
 10
38.59216058541917
 20
28.90564419010424
 30
0.0
 11
38.3867720122748
 21
28.62604011761457
 31
0.0
  0
LINE
  5
2BF
330
1F
100
AcDbEntity
  8
0
  6
SLD-Solid
 62
     7
370
    25
100
AcDbLine
 10
38.5921618277544
 20
28.90564347291938
 30
0.0
 11
38.59216058541917
 21
28.90564419010424
 31
0.0
  0
LWPOLYLINE
  5
2C0
330
1F
100
AcDbEntity
  8
0
  6
SLD-Solid
 62
     7
370
    25
100
AcDbPolyline
 90
       19
 70
   128
 43
0.0
 10
41.95382541352726
 20
22.56889819365157
 10
41.93615975644142
 20
22.52926041416612
 10
41.92827895480466
 20
22.49006964658817
 10
41.93113354960264
 20
22.45605287588175
 10
41.94437923457337
 20
22.43131302662813
 10
41.96641838462389
 20
22.41883408976858
 10
41.99459275299491
 20
22.42012120925786
 10
42.02550409505148
 20
22.43501913948969
 10
42.05542404673876
 20
22.46173097020809
 10
42.0807438203118
 20
22.49703486040379
 10
42.09840947739764
 20
22.53667263988924
 10
42.1062902790344
 20
22.57586340746719
 10
42.10343568423642
 20
22.60988017817361
 10
42.09018999926569
 20
22.63462002742723
 10
42.06815084921517
 20
22.64709896428678
 10
42.03997648084415
 20
22.6458118447975
 10
42.00906513878758
 20
22.63091391456567
 10
41.9791451871003
 20
22.60420208384727
 10
41.95382541352726
 20
22.56889819365157
  0
LWPOLYLINE
  5
2C1
330
1F
100
AcDbEntity
  8
0
  6
SLD-Solid
 62
     7
370
    25
100
AcDbPolyline
 90
        9
 70
   128
 43
0.0
 10
41.94111432894911
 20
22.43515107703377
 10
41.92881139271886
 20
22.45875825740818
 10
41.92598756070945
 20
22.49240844343304
 10
41.93378343420346
 20
22.53117686830315
 10
41.95125871580265
 20
22.57038748781813
 10
41.97630562863849
 20
22.6053109225774
 10
42.0059031453699
 20
22.63173489093396
 10
42.03648136866625
 20
22.64647227232778
 10
42.06389938270701
 20
22.64784402588601
  0
ARC
  5
2C2
330
1F
100
AcDbEntity
  8
0
  6
SLD-Solid
 62
     7
370
    25
100
AcDbCircle
 10
37.31442495218221
 20
21.95448816512492
 30
0.0
 40
1.45687481936169
100
AcDbArc
 50
44.56133067088374
 51
59.97777588270078
  0
ARC
  5
2C3
330
1F
100
AcDbEntity
  8
0
  6
SLD-Solid
 62
     7
370
    25
100
AcDbCircle
 10
41.10894117122125
 20
27.11636999095043
 30
0.0
 40
1.597331069282582
100
AcDbArc
 50
52.33553556120005
 51
59.50392046686696
  0
SPLINE
  5
2C4
330
1F
100
AcDbEntity
  8
0
  6
SLD-Solid
 62
     7
370
    25
100
AcDbSpline
210
0.0
220
0.0
230
1.0
 70
    12
 71
     3
 72
     9
 73
     5
 74
     0
 42
0.00000001
 43
0.00000001
 40
0.0
 40
0.0
 40
0.0
 40
0.0
 40
0.4890910200609096
 40
1.0
 40
1.0
 40
1.0
 40
1.0
 10
42.14753971222029
 20
28.28914674525189
 30
0.0
 41
1.0
 10
42.14147220080312
 20
28.30637801073495
 30
0.0
 41
1.0
 10
42.12906651112924
 20
28.34160921469554
 30
0.0
 41
1.0
 10
42.09987994832424
 20
28.36756199950169
 30
0.0
 41
1.0
 10
42.08496827129362
 20
28.38082151031357
 30
0.0
 41
1.0
  0
SPLINE
  5
2C5
330
1F
100
AcDbEntity
  8
0
  6
SLD-Solid
 62
     7
370
    25
100
AcDbSpline
210
0.0
220
0.0
230
1.0
 70
    12
 71
     3
 72
     9
 73
     5
 74
     0
 42
0.00000001
 43
0.00000001
 40
0.0
 40
0.0
 40
0.0
 40
0.0
 40
0.7096798841761676
 40
1.0
 40
1.0
 40
1.0
 40
1.0
 10
42.16587436302082
 20
28.16811415759656
 30
0.0
 41
1.0
 10
42.16375352803502
 20
28.19569569089755
 30
0.0
 41
1.0
 10
42.16076508911617
 20
28.23456044374739
 30
0.0
 41
1.0
 10
42.15051551758817
 20
28.27686427988894
 30
0.0
 41
1.0
 10
42.14753986079501
 20
28.28914593449736
 30
0.0
 41
1.0
  0
LWPOLYLINE
  5
2C6
330
1F
100
AcDbEntity
  8
0
  6
SLD-Solid
 62
     7
370
    25
100
AcDbPolyline
 90
        9
 70
   128
 43
0.0
 10
38.05673208275768
 20
23.16916879205826
 10
38.04837197238968
 20
23.16025955447062
 10
38.03929513310138
 20
23.15494176718233
 10
38.03088343139267
 20
23.15402501510216
 10
38.02441747259643
 20
23.15764886542395
 10
38.02088164032533
 20
23.16526161978648
 10
38.02081423299024
 20
23.17570430534785
 10
38.02422551274688
 20
23.18738711789452
 10
38.03059614317564
 20
23.19853145512122
  0
LWPOLYLINE
  5
2C7
330
1F
100
AcDbEntity
  8
0
  6
SLD-Solid
 62
     7
370
    25
100
AcDbPolyline
 90
        6
 70
   128
 43
0.0
 10
33.12243605361784
 20
26.03195196377164
 10
33.11606542318908
 20
26.02080762654494
 10
33.11265414343244
 20
26.00912481399826
 10
33.11272155076752
 20
25.99868212843689
 10
33.11625738303863
 20
25.99106937407436
 10
33.119055360257
 20
25.98877762466783
  0
LINE
  5
2C8
330
1F
100
AcDbEntity
  8
0
  6
SLD-Solid
 62
     7
370
    25
100
AcDbLine
 10
33.12243605361784
 20
26.03195196377164
 30
0.0
 11
33.13519160711847
 21
26.04931663333935
 31
0.0
  0
LINE
  5
2C9
330
1F
100
AcDbEntity
  8
0
  6
SLD-Solid
 62
     7
370
    25
100
AcDbLine
 10
41.91955379144926
 20
28.49273248855872
 30
0.0
 11
37.01139370189146
 21
31.32615299720913
 31
0.0
  0
LINE
  5
2CA
330
1F
100
AcDbEntity
  8
0
  6
SLD-Solid
 62
     7
370
    25
100
AcDbLine
 10
38.03059614317564
 20
23.19853145512122
 30
0.0
 11
38.04335169667626
 21
23.21589612468894
 31
0.0
  0
LINE
  5
2CB
330
1F
100
AcDbEntity
  8
0
  6
SLD-Solid
 62
     7
370
    25
100
AcDbLine
 10
38.07336533947395
 20
23.1918123415286
 30
0.0
 11
38.05673208275768
 21
23.16916879205826
 31
0.0
  0
SPLINE
  5
2CC
330
1F
100
AcDbEntity
  8
0
  6
SLD-Solid
 62
     7
370
    25
100
AcDbSpline
210
0.0
220
0.0
230
1.0
 70
    12
 71
     3
 72
    12
 73
     8
 74
     0
 42
0.00000001
 43
0.00000001
 40
0.0
 40
0.0
 40
0.0
 40
0.0
 40
0.1420380324052313
 40
0.3565285243039082
 40
0.5710190162026144
 40
0.7855095081013135
 40
1.0
 40
1.0
 40
1.0
 40
1.0
 10
39.87660431566148
 20
21.1713749993262
 30
0.0
 41
1.0
 10
39.87855209055117
 20
21.16917292640197
 30
0.0
 41
1.0
 10
39.88344118465746
 20
21.16364552084172
 30
0.0
 41
1.0
 10
39.89500039670343
 20
21.15918809031982
 30
0.0
 41
1.0
 10
39.90879935669641
 20
21.15828652754139
 30
0.0
 41
1.0
 10
39.92256055846955
 20
21.1617458511173
 30
0.0
 41
1.0
 10
39.92959018845412
 20
21.16674068792885
 30
0.0
 41
1.0
 10
39.93310500344641
 20
21.16923810633462
 30
0.0
 41
1.0
  0
LWPOLYLINE
  5
2CD
330
1F
100
AcDbEntity
  8
0
  6
SLD-Solid
 62
     7
370
    25
100
AcDbPolyline
 90
        9
 70
   128
 43
0.0
 10
38.33969237513574
 20
22.95937226158405
 10
38.33055615240854
 20
22.95036776546623
 10
38.31926913211385
 20
22.94477870483508
 10
38.30754966077445
 20
22.94345596350673
 10
38.29718192166447
 20
22.94660091685774
 10
38.28974430907964
 20
22.9537347742495
 10
38.28636913211385
 20
22.96377147056269
 10
38.28757023086411
 20
22.97518300976651
 10
38.29316474893366
 20
22.98623208846302
  0
LINE
  5
2CE
330
1F
100
AcDbEntity
  8
0
  6
SLD-Solid
 62
     7
370
    25
100
AcDbLine
 10
38.33969237513574
 20
22.95937226158405
 30
0.0
 11
38.35244792863637
 21
22.97673693115177
 31
0.0
  0
LINE
  5
2CF
330
1F
100
AcDbEntity
  8
0
  6
SLD-Solid
 62
     7
370
    25
100
AcDbLine
 10
42.16587436302083
 20
22.6373743106758
 30
0.0
 11
42.16587436302082
 21
28.16811415759656
 31
0.0
  0
ARC
  5
2D0
330
1F
100
AcDbEntity
  8
0
  6
SLD-Solid
 62
     7
370
    25
100
AcDbCircle
 10
41.78268359165421
 20
22.65460965403868
 30
0.0
 40
0.3835781854086228
100
AcDbArc
 50
302.2275184919204
 51
357.4246579506188
  0
LINE
  5
2D1
330
1F
100
AcDbEntity
  8
0
  6
SLD-Solid
 62
     7
370
    25
100
AcDbLine
 10
39.93310500344641
 20
21.16923810633462
 30
0.0
 11
41.98723917566365
 21
22.33012662309264
 31
0.0
  0
LINE
  5
2D2
330
1F
100
AcDbEntity
  8
0
  6
SLD-Solid
 62
     7
370
    25
100
AcDbLine
 10
38.31088366843795
 20
23.01035359618697
 30
0.0
 11
38.29316474893366
 21
22.98623208846302
 31
0.0
  0
LWPOLYLINE
  5
2D3
330
1F
100
AcDbEntity
  8
0
  6
SLD-Solid
 62
     7
370
    25
100
AcDbPolyline
 90
        9
 70
   128
 43
0.0
 10
33.04844946297035
 20
26.03867007030136
 10
33.03056285937521
 20
26.06084200998755
 10
33.02096955132787
 20
26.0777710883464
 10
33.02003820427659
 20
26.08880673039052
 10
33.02780460936626
 20
26.09352484258501
 10
33.04397030800473
 20
26.09174411052419
 10
33.06791406145915
 20
26.08353296674252
 10
33.09871572471207
 20
26.06920696089065
 10
33.13519160711847
 20
26.04931663333935
  0
LINE
  5
2D4
330
1F
100
AcDbEntity
  8
0
  6
SLD-Solid
 62
     7
370
    25
100
AcDbLine
 10
36.90609605349971
 20
31.37051595324427
 30
0.0
 11
36.89303272954336
 21
31.36046641962039
 31
0.0
  0
ARC
  5
2D5
330
1F
100
AcDbEntity
  8
0
  6
SLD-Solid
 62
     7
370
    25
100
AcDbCircle
 10
36.85077608703308
 20
31.09206526387256
 30
0.0
 40
0.2838927352037238
100
AcDbArc
 50
55.54431392243415
 51
78.763325460967
  0
LINE
  5
2D6
330
1F
100
AcDbEntity
  8
0
  6
SLD-Solid
 62
     7
370
    25
100
AcDbLine
 10
33.06963167600075
 20
26.02642014492162
 30
0.0
 11
33.06959195572782
 21
26.02646476902962
 31
0.0
  0
LINE
  5
2D7
330
1F
100
AcDbEntity
  8
0
  6
SLD-Solid
 62
     7
370
    25
100
AcDbLine
 10
33.04848918324327
 20
26.03862544619336
 30
0.0
 11
33.04844946297035
 21
26.03867007030136
 31
0.0
  0
LWPOLYLINE
  5
2D8
330
1F
100
AcDbEntity
  8
0
  6
SLD-Solid
 62
     7
370
    25
100
AcDbPolyline
 90
        9
 70
   128
 43
0.0
 10
33.08226125594469
 20
25.99440094974667
 10
33.0731250332175
 20
25.98539645362884
 10
33.06183801292281
 20
25.97980739299769
 10
33.0501185415834
 20
25.97848465166934
 10
33.03975080247343
 20
25.98162960502035
 10
33.0323131898886
 20
25.98876346241211
 10
33.02893801292281
 20
25.9988001587253
 10
33.03013911167307
 20
26.01021169792911
 10
33.03573362974262
 20
26.02126077662563
  0
LINE
  5
2D9
330
1F
100
AcDbEntity
  8
0
  6
SLD-Solid
 62
     7
370
    25
100
AcDbLine
 10
33.12271415822237
 20
26.04947118100492
 30
0.0
 11
33.08226125594469
 21
25.99440094974667
 31
0.0
  0
LINE
  5
2DA
330
1F
100
AcDbEntity
  8
0
  6
SLD-Solid
 62
     7
370
    25
100
AcDbLine
 10
33.03573362974262
 20
26.02126077662563
 30
0.0
 11
33.04848918324327
 21
26.03862544619336
 31
0.0
  0
LINE
  5
2DB
330
1F
100
AcDbEntity
  8
0
  6
SLD-Solid
 62
     7
370
    25
100
AcDbLine
 10
37.18769825664555
 20
31.22437454416487
 30
0.0
 11
37.23264771755994
 21
31.28029124621585
 31
0.0
  0
LINE
  5
2DC
330
1F
100
AcDbEntity
  8
0
  6
SLD-Solid
 62
     7
370
    25
100
AcDbLine
 10
41.93490844833634
 20
28.56573390731624
 30
0.0
 11
41.88995898742196
 21
28.50981720526525
 31
0.0
  0
LINE
  5
2DD
330
1F
100
AcDbEntity
  8
0
  6
SLD-Solid
 62
     7
370
    25
100
AcDbLine
 10
42.16587436302082
 20
28.05538830633952
 30
0.0
 11
42.23036267563315
 21
28.13056032642865
 31
0.0
  0
LINE
  5
2DE
330
1F
100
AcDbEntity
  8
0
  6
SLD-Solid
 62
     7
370
    25
100
AcDbLine
 10
42.23036267563317
 20
22.49510830641035
 30
0.0
 11
42.07329342390847
 21
22.40443415744321
 31
0.0
  0
LINE
  5
2DF
330
1F
100
AcDbEntity
  8
0
  6
SLD-Solid
 62
     7
370
    25
100
AcDbLine
 10
42.23036267563315
 20
28.2063404292197
 30
0.0
 11
42.15209396325015
 21
28.29757583267914
 31
0.0
  0
LINE
  5
2E0
330
1F
100
AcDbEntity
  8
0
  6
SLD-Solid
 62
     7
370
    25
100
AcDbLine
 10
42.07267893013598
 20
28.39014746655834
 30
0.0
 11
41.99642673829958
 21
28.47903227474092
 31
0.0
  0
SPLINE
  5
2E1
330
1F
100
AcDbEntity
  8
0
  6
SLD-Solid
 62
     7
370
    25
100
AcDbSpline
210
0.0
220
0.0
230
1.0
 70
    12
 71
     3
 72
    11
 73
     7
 74
     0
 42
0.00000001
 43
0.00000001
 40
0.0
 40
0.0
 40
0.0
 40
0.0
 40
0.249999999999991
 40
0.4999999999999978
 40
0.7500000000000023
 40
1.0
 40
1.0
 40
1.0
 40
1.0
 10
42.23036267563315
 20
28.20634042921969
 30
0.0
 41
1.0
 10
42.23512031443546
 20
28.20051309669363
 30
0.0
 41
1.0
 10
42.24463559204008
 20
28.1888584316415
 30
0.0
 41
1.0
 10
42.24870792746646
 20
28.16845037782417
 30
0.0
 41
1.0
 10
42.24463559204008
 20
28.14804232400684
 30
0.0
 41
1.0
 10
42.23512031443546
 20
28.13638765895471
 30
0.0
 41
1.0
 10
42.23036267563315
 20
28.13056032642865
 30
0.0
 41
1.0
  0
ARC
  5
2E2
330
1F
100
AcDbEntity
  8
0
  6
SLD-Solid
 62
     7
370
    25
100
AcDbCircle
 10
42.21832397269989
 20
22.52167871151336
 30
0.0
 40
0.029170478152648
100
AcDbArc
 50
294.3746582935873
 51
354.3052007487883
  0
LWPOLYLINE
  5
2E3
330
1F
100
AcDbEntity
  8
0
  6
SLD-Solid
 62
     7
370
    25
100
AcDbPolyline
 90
        9
 70
   128
 43
0.0
 10
41.93490844833634
 20
28.56573390731624
 10
41.94479980828101
 20
28.57617528864988
 10
41.95541454499076
 20
28.58391677702048
 10
41.96602928170051
 20
28.588430802789
 10
41.97592064164517
 20
28.58940974255909
 10
41.98441454499076
 20
28.58678688320319
 10
41.99093214626112
 20
28.58074096825193
 10
41.99502928170051
 20
28.57168401681789
 10
41.99642673829958
 20
28.56023324517396
  0
ARC
  5
2E4
330
1F
100
AcDbEntity
  8
0
  6
SLD-Solid
 62
     7
370
    25
100
AcDbCircle
 10
37.27121517458389
 20
31.25833469201053
 30
0.0
 40
0.0443794886616068
100
AcDbArc
 50
75.73384779307061
 51
150.3470274598282
  0
LINE
  5
2E5
330
1F
100
AcDbEntity
  8
0
  6
SLD-Solid
 62
     7
370
    25
100
AcDbLine
 10
41.99642673829958
 20
28.47903227474092
 30
0.0
 11
41.99642673829958
 21
28.56023324517396
 31
0.0
  0
LWPOLYLINE
  5
2E6
330
1F
100
AcDbEntity
  8
0
  6
SLD-Solid
 62
     8
370
    25
100
AcDbPolyline
 90
       19
 70
   128
 43
0.0
 10
38.77526433097733
 20
28.96576491994945
 10
38.78079264352765
 20
28.95802089055075
 10
38.81171207572443
 20
28.90047351575722
 10
38.83012256183321
 20
28.83606626311423
 10
38.83543237368225
 20
28.76686923471619
 10
38.82747084954981
 20
28.69510647999132
 10
38.80649387937226
 20
28.62308451292306
 10
38.77317568023103
 20
28.55311817879287
 10
38.72858712646079
 20
28.48745625314817
 10
38.67416133086734
 20
28.42820916430601
 10
38.61164758330273
 20
28.37728116245043
 10
38.54305512705015
 20
28.33630911546478
 10
38.47058858009166
 20
28.30660989865108
 10
38.39657707687214
 20
28.28913806927432
 10
38.32339940800195
 20
28.28445518630654
 10
38.25340756396938
 20
28.29271176145942
 10
38.18885114023109
 20
28.31364242161401
 10
38.13180503336324
 20
28.34657443813114
 10
38.08638958394242
 20
28.38784902632691
  0
MTEXT
  5
2E7
330
1F
100
AcDbEntity
  8
NOTES
100
AcDbMText
 10
38.37157171301511
 20
20.94960477823657
 30
0.0
 40
0.2916666666666666
 41
0.0
 71
     1
 72
     1
  1
3d view Code 156 - S
  7
SLDTEXTSTYLE1
 73
     1
 44
1.0
  0
LINE
  5
2E8
330
1F
100
AcDbEntity
  8
0
  6
SLD-Solid
 62
     7
370
    25
100
AcDbLine
 10
8.494271664813697
 20
24.40212463978598
 30
0.0
 11
12.9942716648137
 21
24.40212463978598
 31
0.0
  0
SPLINE
  5
2E9
330
1F
100
AcDbEntity
  8
0
  6
SLD-Solid
 62
     7
370
    25
100
AcDbSpline
210
0.0
220
0.0
230
1.0
 70
    12
 71
     3
 72
    30
 73
    26
 74
     0
 42
0.00000001
 43
0.00000001
 40
0.0
 40
0.0
 40
0.0
 40
0.0
 40
0.0395005713217564
 40
0.0832926559421912
 40
0.1270936337220843
 40
0.17101647406905
 40
0.2151357092690958
 40
0.2594766259222701
 40
0.3040225389299639
 40
0.3487328520143408
 40
0.3935618333293118
 40
0.4384712127913689
 40
0.4834350787835618
 40
0.528439040935899
 40
0.573476131182806
 40
0.6185403031343132
 40
0.6636213211532076
 40
0.7086976179821239
 40
0.7537314892661815
 40
0.7986678081823735
 40
0.8434399301660926
 40
0.8879855364123391
 40
0.9322701100031868
 40
0.9763082791314409
 40
1.0
 40
1.0
 40
1.0
 40
1.0
 10
10.33274079061569
 20
28.4854528447237
 30
0.0
 41
1.0
 10
10.33255192223021
 20
28.46906714451045
 30
0.0
 41
1.0
 10
10.33215366597912
 20
28.43451553058274
 30
0.0
 41
1.0
 10
10.34280760030879
 20
28.3824261184647
 30
0.0
 41
1.0
 10
10.36186334147513
 20
28.33049389315801
 30
0.0
 41
1.0
 10
10.38960665389664
 20
28.28146634417987
 30
0.0
 41
1.0
 10
10.425226749383
 20
28.23627551407619
 30
0.0
 41
1.0
 10
10.46813068525939
 20
28.19580186403704
 30
0.0
 41
1.0
 10
10.5174704504045
 20
28.16086796911672
 30
0.0
 41
1.0
 10
10.57226922387747
 20
28.13220311199757
 30
0.0
 41
1.0
 10
10.63141104605718
 20
28.11041298362444
 30
0.0
 41
1.0
 10
10.69368385086173
 20
28.09595864829195
 30
0.0
 41
1.0
 10
10.75781220660493
 20
28.08914760430064
 30
0.0
 41
1.0
 10
10.82248850068203
 20
28.09013288278954
 30
0.0
 41
1.0
 10
10.88639711233789
 20
28.09891569033161
 30
0.0
 41
1.0
 10
10.94823510915134
 20
28.11534810589967
 30
0.0
 41
1.0
 10
11.00672991029287
 20
28.1391340002131
 30
0.0
 41
1.0
 10
11.06065956292481
 20
28.16982750912468
 30
0.0
 41
1.0
 10
11.10887002442632
 20
28.206828973375
 30
0.0
 41
1.0
 10
11.15032311163713
 20
28.24938260518077
 30
0.0
 41
1.0
 10
11.18406656685601
 20
28.29657856358018
 30
0.0
 41
1.0
 10
11.20952906052478
 20
28.34738056246171
 30
0.0
 41
1.0
 10
11.2256212454951
 20
28.40063672301852
 30
0.0
 41
1.0
 10
11.23289997343315
 20
28.44691185328336
 30
0.0
 41
1.0
 10
11.23116455137449
 20
28.47495234574446
 30
0.0
 41
1.0
 10
11.23055750572589
 20
28.48476082942037
 30
0.0
 41
1.0
  0
LINE
  5
2EA
330
1F
100
AcDbEntity
  8
0
  6
SLD-Solid
 62
     7
370
    25
100
AcDbLine
 10
10.33199838544298
 20
28.58317686644664
 30
0.0
 11
10.33199838544298
 21
28.47083096911445
 31
0.0
  0
LINE
  5
2EB
330
1F
100
AcDbEntity
  8
0
  6
SLD-Solid
 62
     7
370
    25
100
AcDbLine
 10
11.23199838544298
 20
28.47083096911444
 30
0.0
 11
11.23199838544298
 21
28.58317686644663
 31
0.0
  0
ARC
  5
2EC
330
1F
100
AcDbEntity
  8
0
  6
SLD-Solid
 62
     7
370
    25
100
AcDbCircle
 10
7.029020577099836
 20
29.67454963876214
 30
0.0
 40
0.0025000000000007
100
AcDbArc
 50
212.9862941624837
 51
0.0
  0
ARC
  5
2ED
330
1F
100
AcDbEntity
  8
0
  6
SLD-Solid
 62
     7
370
    25
100
AcDbCircle
 10
7.029020577099836
 20
29.92442987571525
 30
0.0
 40
0.0025000000000007
100
AcDbArc
 50
0.0
 51
147.0137058375172
  0
ARC
  5
2EE
330
1F
100
AcDbEntity
  8
0
  6
SLD-Solid
 62
     7
370
    25
100
AcDbCircle
 10
7.221512280414065
 20
29.7994897572387
 30
0.0
 40
0.2319843982708824
100
AcDbArc
 50
147.0137058375607
 51
212.9862941624409
  0
ARC
  5
2EF
330
1F
100
AcDbEntity
  8
0
  6
SLD-Solid
 62
     7
370
    25
100
AcDbCircle
 10
14.53500714205083
 20
29.92442987571524
 30
0.0
 40
0.0025000000000013
100
AcDbArc
 50
32.98629416241455
 51
180.0
  0
ARC
  5
2F0
330
1F
100
AcDbEntity
  8
0
  6
SLD-Solid
 62
     7
370
    25
100
AcDbCircle
 10
14.53500714205083
 20
29.67454963876214
 30
0.0
 40
0.0025000000000041
100
AcDbArc
 50
180.0
 51
327.0137058374718
  0
ARC
  5
2F1
330
1F
100
AcDbEntity
  8
0
  6
SLD-Solid
 62
     7
370
    25
100
AcDbCircle
 10
14.3425154387366
 20
29.79948975723869
 30
0.0
 40
0.2319843982708839
100
AcDbArc
 50
327.013705837561
 51
32.9862941624384
  0
LINE
  5
2F2
330
1F
100
AcDbEntity
  8
0
  6
SLD-Solid
 62
     7
370
    25
100
AcDbLine
 10
14.51755713107536
 20
30.01422439347505
 30
0.0
 11
14.48919120104544
 21
30.01781778384071
 31
0.0
  0
LINE
  5
2F3
330
1F
100
AcDbEntity
  8
0
  6
SLD-Solid
 62
     7
370
    25
100
AcDbLine
 10
7.074833317806563
 20
30.0178345372433
 30
0.0
 11
7.046470588066678
 21
30.0142417780279
 31
0.0
  0
LINE
  5
2F4
330
1F
100
AcDbEntity
  8
0
  6
SLD-Solid
 62
     7
370
    25
100
AcDbLine
 10
7.311420577099776
 20
24.43153875089514
 30
0.0
 11
14.2526071420508
 21
24.4315387508951
 31
0.0
  0
LINE
  5
2F5
330
1F
100
AcDbEntity
  8
0
  6
SLD-Solid
 62
     7
370
    25
100
AcDbLine
 10
12.9942716648137
 20
24.4315387508951
 30
0.0
 11
12.9942716648137
 21
24.40212463978598
 31
0.0
  0
LINE
  5
2F6
330
1F
100
AcDbEntity
  8
0
  6
SLD-Solid
 62
     7
370
    25
100
AcDbLine
 10
8.494271664813697
 20
24.43153875089513
 30
0.0
 11
8.494271664813697
 21
24.40212463978598
 31
0.0
  0
LINE
  5
2F7
330
1F
100
AcDbEntity
  8
0
  6
SLD-Solid
 62
     7
370
    25
100
AcDbLine
 10
11.23171382090761
 20
28.48406880534413
 30
0.0
 11
11.23199838544298
 21
28.47083096911444
 31
0.0
  0
LINE
  5
2F8
330
1F
100
AcDbEntity
  8
0
  6
SLD-Solid
 62
     7
370
    25
100
AcDbLine
 10
10.33199838544298
 20
28.47083096911445
 30
0.0
 11
10.33231537004964
 21
28.48480230322576
 31
0.0
  0
LWPOLYLINE
  5
2F9
330
1F
100
AcDbEntity
  8
0
  6
SLD-Solid
 62
     7
370
    25
100
AcDbPolyline
 90
       36
 70
   128
 43
0.0
 10
10.78199838544297
 20
28.71162380932702
 10
10.72396739463342
 20
28.70730280812495
 10
10.66780156761654
 20
28.69447868505272
 10
10.61530612028605
 20
28.67356361797758
 10
10.56816829951257
 20
28.64522983436432
 10
10.52790315364086
 20
28.61038800533136
 10
10.49580483758953
 20
28.57015797593179
 10
10.47290501764705
 20
28.52583277241188
 10
10.4599397128684
 20
28.47883704328367
 10
10.45732563881705
 20
28.43068126994954
 10
10.46514681398388
 20
28.38291321858717
 10
10.48315185936376
 20
28.33706819367102
 10
10.51076207798355
 20
28.2946196920233
 10
10.54709005469908
 20
28.25693204341372
 10
10.59096817844793
 20
28.2252165598781
 10
10.64098617022977
 20
28.20049260315285
 10
10.69553641063381
 20
28.18355482155005
 10
10.75286561004936
 20
28.17494760930689
 10
10.8111311608366
 20
28.17494760930689
 10
10.86846036025215
 20
28.18355482155006
 10
10.92301060065619
 20
28.20049260315285
 10
10.97302859243803
 20
28.2252165598781
 10
11.01690671618688
 20
28.25693204341372
 10
11.0532346929024
 20
28.2946196920233
 10
11.0808449115222
 20
28.33706819367102
 10
11.09884995690207
 20
28.38291321858717
 10
11.1066711320689
 20
28.43068126994955
 10
11.10405705801755
 20
28.47883704328367
 10
11.0910917532389
 20
28.52583277241188
 10
11.06819193329641
 20
28.57015797593179
 10
11.03609361724508
 20
28.61038800533136
 10
10.99582847137338
 20
28.64522983436432
 10
10.94869065059989
 20
28.67356361797759
 10
10.89619520326941
 20
28.69447868505272
 10
10.84002937625253
 20
28.70730280812496
 10
10.78199838544297
 20
28.71162380932702
  0
LWPOLYLINE
  5
2FA
330
1F
100
AcDbEntity
  8
0
  6
SLD-Solid
 62
     7
370
    25
100
AcDbPolyline
 90
       12
 70
   128
 43
0.0
 10
10.78199838544297
 20
28.95547130197134
 10
10.71330620754448
 20
28.95110816895806
 10
10.64622411607514
 20
28.93812103805802
 10
10.58232445840284
 20
28.91681431661214
 10
10.52310498834459
 20
28.88768741611237
 10
10.46995376008646
 20
28.8514230464196
 10
10.42411659336993
 20
28.80887121362319
 10
10.38666787253305
 20
28.76102929661862
 10
10.35848536385217
 20
28.70901866939155
 10
10.34022964144439
 20
28.65405841696202
 10
10.33232860397011
 20
28.59743676106482
 10
10.33199838544298
 20
28.58317686644664
  0
LWPOLYLINE
  5
2FB
330
1F
100
AcDbEntity
  8
0
  6
SLD-Solid
 62
     7
370
    25
100
AcDbPolyline
 90
       12
 70
   128
 43
0.0
 10
11.23199838544298
 20
28.58317686644663
 10
11.23166816691584
 20
28.59743676106483
 10
11.22376712944156
 20
28.65405841696203
 10
11.20551140703378
 20
28.70901866939156
 10
11.1773288983529
 20
28.76102929661863
 10
11.13988017751601
 20
28.8088712136232
 10
11.09404301079948
 20
28.85142304641961
 10
11.04089178254135
 20
28.88768741611237
 10
10.9816723124831
 20
28.91681431661214
 10
10.91777265481081
 20
28.93812103805802
 10
10.85069056334146
 20
28.95110816895806
 10
10.78199838544297
 20
28.95547130197134
  0
LINE
  5
2FC
330
1F
100
AcDbEntity
  8
0
  6
SLD-Solid
 62
     7
370
    25
100
AcDbLine
 10
10.82699838544298
 20
28.37527710898918
 30
0.0
 11
10.82699838544297
 21
28.68552247192644
 31
0.0
  0
LINE
  5
2FD
330
1F
100
AcDbEntity
  8
0
  6
SLD-Solid
 62
     7
370
    25
100
AcDbLine
 10
10.82699838544297
 20
28.68552247192644
 30
0.0
 11
10.73699838544297
 21
28.68552247192644
 31
0.0
  0
LINE
  5
2FE
330
1F
100
AcDbEntity
  8
0
  6
SLD-Solid
 62
     7
370
    25
100
AcDbLine
 10
10.73699838544297
 20
28.68552247192644
 30
0.0
 11
10.73699838544298
 21
28.37527710898918
 31
0.0
  0
LINE
  5
2FF
330
1F
100
AcDbEntity
  8
0
  6
SLD-Solid
 62
     7
370
    25
100
AcDbLine
 10
10.73699838544298
 20
28.37527710898918
 30
0.0
 11
10.82699838544298
 21
28.37527710898918
 31
0.0
  0
LWPOLYLINE
  5
300
330
1F
100
AcDbEntity
  8
0
  6
SLD-Solid
 62
     7
370
    25
100
AcDbPolyline
 90
        9
 70
   128
 43
0.0
 10
7.031520577099776
 20
24.62122501085656
 10
7.036898777114913
 20
24.59055133345238
 10
7.052826695949866
 20
24.56105642826886
 10
7.078692232616294
 20
24.53387376797124
 10
7.113501389045662
 20
24.51004796695057
 10
7.15591646887759
 20
24.4904946373784
 10
7.204307484380789
 20
24.47596520274455
 10
7.256814795967462
 20
24.46701802107382
 10
7.311420577099777
 20
24.46399692754016
  0
LINE
  5
301
330
1F
100
AcDbEntity
  8
0
  6
SLD-Solid
 62
     7
370
    25
100
AcDbLine
 10
7.031520577099776
 20
24.62122501085656
 30
0.0
 11
7.031520577099792
 21
30.0142417780279
 31
0.0
  0
SPLINE
  5
302
330
1F
100
AcDbEntity
  8
0
  6
SLD-Solid
 62
     7
370
    25
100
AcDbSpline
210
0.0
220
0.0
230
1.0
 70
    12
 71
     3
 72
     9
 73
     5
 74
     0
 42
0.00000001
 43
0.00000001
 40
0.0
 40
0.0
 40
0.0
 40
0.0
 40
0.2902614761831103
 40
0.9999999999999999
 40
0.9999999999999999
 40
0.9999999999999999
 40
0.9999999999999999
 10
7.055833440021924
 20
30.01263845448391
 30
0.0
 41
1.0
 10
7.051512411184095
 20
30.01252277048065
 30
0.0
 41
1.0
 10
7.036625734196677
 20
30.01212421947491
 30
0.0
 41
1.0
 10
7.033639805631714
 20
30.01336274719332
 30
0.0
 41
1.0
 10
7.031520577099795
 20
30.0142417780279
 30
0.0
 41
1.0
  0
SPLINE
  5
303
330
1F
100
AcDbEntity
  8
0
  6
SLD-Solid
 62
     7
370
    25
100
AcDbSpline
210
0.0
220
0.0
230
1.0
 70
    12
 71
     3
 72
     9
 73
     5
 74
     0
 42
0.00000001
 43
0.00000001
 40
0.0
 40
0.0
 40
0.0
 40
0.0
 40
0.5258998029754588
 40
1.0
 40
1.0
 40
1.0
 40
1.0
 10
7.119979989001402
 20
29.98830172612387
 30
0.0
 41
1.0
 10
7.105700483431709
 20
29.99568822757136
 30
0.0
 41
1.0
 10
7.078547962193062
 20
30.00973368148807
 30
0.0
 41
1.0
 10
7.063139077719875
 20
30.01170427056785
 30
0.0
 41
1.0
 10
7.055833722555208
 20
30.01263852723883
 30
0.0
 41
1.0
  0
ARC
  5
304
330
1F
100
AcDbEntity
  8
0
  6
SLD-Solid
 62
     7
370
    25
100
AcDbCircle
 10
7.304058093336907
 20
30.364789692503
 30
0.0
 40
0.4190798698625847
100
AcDbArc
 50
243.9443772595564
 51
271.0066361551923
  0
LINE
  5
305
330
1F
100
AcDbEntity
  8
0
  6
SLD-Solid
 62
     7
370
    25
100
AcDbLine
 10
14.53250714205081
 20
24.62122501085652
 30
0.0
 11
14.53250714205083
 21
30.01422439347505
 31
0.0
  0
LWPOLYLINE
  5
306
330
1F
100
AcDbEntity
  8
0
  6
SLD-Solid
 62
     7
370
    25
100
AcDbPolyline
 90
        9
 70
   128
 43
0.0
 10
14.53250714205081
 20
24.62122501085652
 10
14.52712894203567
 20
24.59055133345234
 10
14.51120102320072
 20
24.56105642826881
 10
14.48533548653429
 20
24.5338737679712
 10
14.45052633010492
 20
24.51004796695053
 10
14.40811125027299
 20
24.49049463737836
 10
14.3597202347698
 20
24.47596520274451
 10
14.30721292318312
 20
24.46701802107378
 10
14.2526071420508
 20
24.46399692754012
  0
ARC
  5
307
330
1F
100
AcDbEntity
  8
0
  6
SLD-Solid
 62
     7
370
    25
100
AcDbCircle
 10
14.2599664206836
 20
30.36481208502645
 30
0.0
 40
0.4191022026372198
100
AcDbArc
 50
268.9938557344945
 51
296.0509879991807
  0
SPLINE
  5
308
330
1F
100
AcDbEntity
  8
0
  6
SLD-Solid
 62
     7
370
    25
100
AcDbSpline
210
0.0
220
0.0
230
1.0
 70
    12
 71
     3
 72
     9
 73
     5
 74
     0
 42
0.00000001
 43
0.00000001
 40
0.0
 40
0.0
 40
0.0
 40
0.0
 40
0.4890910200609096
 40
1.0
 40
1.0
 40
1.0
 40
1.0
 10
14.50818066620547
 20
30.01262175749692
 30
0.0
 41
1.0
 10
14.50060456617511
 20
30.01161710059127
 30
0.0
 41
1.0
 10
14.48511440234138
 20
30.0095629698376
 30
0.0
 41
1.0
 10
14.4579185055391
 20
29.99548283368201
 30
0.0
 41
1.0
 10
14.44402387764531
 20
29.98828916568135
 30
0.0
 41
1.0
  0
SPLINE
  5
309
330
1F
100
AcDbEntity
  8
0
  6
SLD-Solid
 62
     7
370
    25
100
AcDbSpline
210
0.0
220
0.0
230
1.0
 70
    12
 71
     3
 72
     9
 73
     5
 74
     0
 42
0.00000001
 43
0.00000001
 40
0.0
 40
0.0
 40
0.0
 40
0.0
 40
0.7096798841761676
 40
1.0
 40
1.0
 40
1.0
 40
1.0
 10
14.53250714205083
 20
30.01422439347505
 30
0.0
 41
1.0
 10
14.53038706018418
 20
30.01334516174122
 30
0.0
 41
1.0
 10
14.527399682475
 20
30.01210624860105
 30
0.0
 41
1.0
 10
14.51250513565563
 20
30.012505712357
 30
0.0
 41
1.0
 10
14.50818094909789
 20
30.01262168472089
 30
0.0
 41
1.0
  0
ARC
  5
30A
330
1F
100
AcDbEntity
  8
0
  6
SLD-Solid
 62
     7
370
    25
100
AcDbCircle
 10
14.25783299061719
 20
30.34665217261126
 30
0.0
 40
0.3841175104956971
100
AcDbArc
 50
269.2204773371523
 51
293.7550425941648
  0
LINE
  5
30B
330
1F
100
AcDbEntity
  8
0
  6
SLD-Solid
 62
     7
370
    25
100
AcDbLine
 10
7.311420577099776
 20
24.44595785078399
 30
0.0
 11
7.311420577099777
 21
24.46399692754016
 31
0.0
  0
LINE
  5
30C
330
1F
100
AcDbEntity
  8
0
  6
SLD-Solid
 62
     7
370
    25
100
AcDbLine
 10
14.25260714205082
 20
29.94577450046706
 30
0.0
 11
7.311420577099794
 21
29.9457745004671
 31
0.0
  0
LINE
  5
30D
330
1F
100
AcDbEntity
  8
0
  6
SLD-Solid
 62
     7
370
    25
100
AcDbLine
 10
14.2526071420508
 20
24.44595785078395
 30
0.0
 11
14.2526071420508
 21
24.46399692754012
 31
0.0
  0
LINE
  5
30E
330
1F
100
AcDbEntity
  8
0
  6
SLD-Solid
 62
     7
370
    25
100
AcDbLine
 10
14.25260714205082
 20
29.96257021211822
 30
0.0
 11
7.311420577099795
 21
29.96257021211826
 31
0.0
  0
ARC
  5
30F
330
1F
100
AcDbEntity
  8
0
  6
SLD-Solid
 62
     7
370
    25
100
AcDbCircle
 10
7.306192234087638
 20
30.34663321027989
 30
0.0
 40
0.3840985838655969
100
AcDbArc
 50
246.2404639531476
 51
270.7799332061488
  0
LINE
  5
310
330
1F
100
AcDbEntity
  8
0
  6
SLD-Solid
 62
     7
370
    25
100
AcDbLine
 10
14.48964217052029
 20
30.01772852319876
 30
0.0
 11
14.48410376178347
 21
30.01882376747697
 31
0.0
  0
SPLINE
  5
311
330
1F
100
AcDbEntity
  8
0
  6
SLD-Solid
 62
     7
370
    25
100
AcDbSpline
210
0.0
220
0.0
230
1.0
 70
    12
 71
     3
 72
    10
 73
     6
 74
     0
 42
0.00000001
 43
0.00000001
 40
0.0
 40
0.0
 40
0.0
 40
0.0
 40
0.4315743340290851
 40
0.8639944649590151
 40
0.9999999999999999
 40
0.9999999999999999
 40
0.9999999999999999
 40
0.9999999999999999
 10
14.41256598902812
 20
29.99507862259337
 30
0.0
 41
1.0
 10
14.42616443598496
 20
30.00138015607612
 30
0.0
 41
1.0
 10
14.45338798005689
 20
30.01399557275073
 30
0.0
 41
1.0
 10
14.47416991814896
 20
30.01995520388065
 30
0.0
 41
1.0
 10
14.4821856709907
 20
30.0190423266799
 30
0.0
 41
1.0
 10
14.48410357656616
 20
30.01882390524057
 30
0.0
 41
1.0
  0
SPLINE
  5
312
330
1F
100
AcDbEntity
  8
0
  6
SLD-Solid
 62
     7
370
    25
100
AcDbSpline
210
0.0
220
0.0
230
1.0
 70
    12
 71
     3
 72
    10
 73
     6
 74
     0
 42
0.00000001
 43
0.00000001
 40
0.0
 40
0.0
 40
0.0
 40
0.0
 40
0.4296302432849606
 40
0.8598900047090969
 40
1.0
 40
1.0
 40
1.0
 40
1.0
 10
7.079913118236972
 20
30.01883909494234
 30
0.0
 41
1.0
 10
7.086729024527033
 20
30.01865478232896
 30
0.0
 41
1.0
 10
7.100370824152324
 20
30.01828588703709
 30
0.0
 41
1.0
 10
7.128321781886223
 20
30.00585816992301
 30
0.0
 41
1.0
 10
7.146880406614494
 20
29.9972128270825
 30
0.0
 41
1.0
 10
7.151439289326403
 20
29.99508911885567
 30
0.0
 41
1.0
  0
LINE
  5
313
330
1F
100
AcDbEntity
  8
0
  6
SLD-Solid
 62
     7
370
    25
100
AcDbLine
 10
7.079912933326245
 20
30.0188389573229
 30
0.0
 11
7.074393646234677
 21
30.01774750223524
 31
0.0
  0
SPLINE
  5
314
330
1F
100
AcDbEntity
  8
0
  6
SLD-Solid
 62
     7
370
    25
100
AcDbSpline
210
0.0
220
0.0
230
1.0
 70
    12
 71
     3
 72
    13
 73
     9
 74
     0
 42
0.00000001
 43
0.00000001
 40
0.0
 40
0.0
 40
0.0
 40
0.0
 40
0.0000745358641737
 40
0.1018631447114591
 40
0.4964983126527631
 40
0.8819149914407168
 40
0.9999254641358334
 40
0.9999999999999999
 40
0.9999999999999999
 40
0.9999999999999999
 40
0.9999999999999999
 10
14.48410069368645
 20
30.01882457791667
 30
0.0
 41
1.0
 10
14.48410128982822
 20
30.0188244388172
 30
0.0
 41
1.0
 10
14.48491599663456
 20
30.01863434092568
 30
0.0
 41
1.0
 10
14.48888830952269
 20
30.01769659480894
 30
0.0
 41
1.0
 10
14.49595521103537
 20
30.01593718190627
 30
0.0
 41
1.0
 10
14.50317161167909
 20
30.01401156216136
 30
0.0
 41
1.0
 10
14.50722481159169
 20
30.01288874544663
 30
0.0
 41
1.0
 10
14.50817580580432
 20
30.01262311511588
 30
0.0
 41
1.0
 10
14.50817640607675
 20
30.01262294744865
 30
0.0
 41
1.0
  0
LINE
  5
315
330
1F
100
AcDbEntity
  8
0
  6
SLD-Solid
 62
     7
370
    25
100
AcDbLine
 10
14.51755713107536
 20
30.01422439347505
 30
0.0
 11
14.53250714205083
 21
30.01422439347505
 31
0.0
  0
LINE
  5
316
330
1F
100
AcDbEntity
  8
0
  6
SLD-Solid
 62
     7
370
    25
100
AcDbLine
 10
7.046470588066679
 20
30.0142417780279
 30
0.0
 11
7.031520577099793
 21
30.0142417780279
 31
0.0
  0
LINE
  5
317
330
1F
100
AcDbEntity
  8
0
  6
SLD-Solid
 62
     7
370
    25
100
AcDbLine
 10
14.2526071420508
 20
24.4315387508951
 30
0.0
 11
14.2526071420508
 21
24.44595785078395
 31
0.0
  0
LINE
  5
318
330
1F
100
AcDbEntity
  8
0
  6
SLD-Solid
 62
     7
370
    25
100
AcDbLine
 10
7.311420577099776
 20
24.44595785078399
 30
0.0
 11
7.311420577099776
 21
24.43153875089514
 31
0.0
  0
LINE
  5
319
330
1F
100
AcDbEntity
  8
0
  6
SLD-Solid
 62
     7
370
    25
100
AcDbLine
 10
14.53250714205081
 20
24.60318593410035
 30
0.0
 11
14.53250714205081
 21
24.62122501085652
 31
0.0
  0
LINE
  5
31A
330
1F
100
AcDbEntity
  8
0
  6
SLD-Solid
 62
     7
370
    25
100
AcDbLine
 10
7.031520577099776
 20
24.60324210704904
 30
0.0
 11
7.031520577099776
 21
24.62122501085656
 31
0.0
  0
LWPOLYLINE
  5
31B
330
1F
100
AcDbEntity
  8
0
  6
SLD-Solid
 62
     7
370
    25
100
AcDbPolyline
 90
        3
 70
   128
 43
0.0
 10
14.53250714205081
 20
24.60318593410035
 10
14.53000277867043
 20
24.59276972739107
 10
14.52559167100056
 20
24.58649096891428
  0
LWPOLYLINE
  5
31C
330
1F
100
AcDbEntity
  8
0
  6
SLD-Solid
 62
     7
370
    25
100
AcDbPolyline
 90
        3
 70
   128
 43
0.0
 10
7.038396381892942
 20
24.58658948480842
 10
7.034024940480155
 20
24.59282590033975
 10
7.031520577099776
 20
24.60324210704904
  0
LINE
  5
31D
330
1F
100
AcDbEntity
  8
0
  6
SLD-Solid
 62
     7
370
    25
100
AcDbLine
 10
14.11377176674723
 20
30.19332463978597
 30
0.0
 11
7.463770867468789
 21
30.19332463978597
 31
0.0
  0
LINE
  5
31E
330
1F
100
AcDbEntity
  8
0
  6
SLD-Solid
 62
     7
370
    25
100
AcDbLine
 10
7.463770867468789
 20
30.19332463978597
 30
0.0
 11
7.463770867468789
 21
30.10632463978596
 31
0.0
  0
LINE
  5
31F
330
1F
100
AcDbEntity
  8
0
  6
SLD-Solid
 62
     7
370
    25
100
AcDbLine
 10
14.11377176674723
 20
30.10632463978597
 30
0.0
 11
14.11377176674723
 21
30.19332463978597
 31
0.0
  0
LINE
  5
320
330
1F
100
AcDbEntity
  8
0
  6
SLD-Solid
 62
     7
370
    25
100
AcDbLine
 10
7.463770867468789
 20
29.96257021211825
 30
0.0
 11
7.463770867468789
 21
30.10632463978596
 31
0.0
  0
LINE
  5
321
330
1F
100
AcDbEntity
  8
0
  6
SLD-Solid
 62
     7
370
    25
100
AcDbLine
 10
14.11377176674723
 20
30.10632463978597
 30
0.0
 11
14.11377176674723
 21
29.96257021211822
 31
0.0
  0
LINE
  5
322
330
1F
100
AcDbEntity
  8
0
  6
SLD-Solid
 62
     7
370
    25
100
AcDbLine
 10
14.44460714205083
 20
30.16432463978597
 30
0.0
 11
14.11377176674723
 21
30.16432463978596
 31
0.0
  0
LINE
  5
323
330
1F
100
AcDbEntity
  8
0
  6
SLD-Solid
 62
     7
370
    25
100
AcDbLine
 10
14.44460714205083
 20
30.19332463978597
 30
0.0
 11
14.11377176674723
 21
30.19332463978597
 31
0.0
  0
LINE
  5
324
330
1F
100
AcDbEntity
  8
0
  6
SLD-Solid
 62
     7
370
    25
100
AcDbLine
 10
7.463770867468789
 20
30.16432463978596
 30
0.0
 11
7.13293618757658
 21
30.16432463978597
 31
0.0
  0
LINE
  5
325
330
1F
100
AcDbEntity
  8
0
  6
SLD-Solid
 62
     7
370
    25
100
AcDbLine
 10
7.463770867468789
 20
30.19332463978597
 30
0.0
 11
7.13293618757658
 21
30.19332463978597
 31
0.0
  0
SPLINE
  5
326
330
1F
100
AcDbEntity
  8
0
  6
SLD-Solid
 62
     7
370
    25
100
AcDbSpline
210
0.0
220
0.0
230
1.0
 70
    12
 71
     3
 72
    11
 73
     7
 74
     0
 42
0.00000001
 43
0.00000001
 40
0.0
 40
0.0
 40
0.0
 40
0.0
 40
0.249999999999991
 40
0.4999999999999978
 40
0.7500000000000023
 40
1.0
 40
1.0
 40
1.0
 40
1.0
 10
14.44460714205083
 20
30.19332463978597
 30
0.0
 41
1.0
 10
14.45220729059159
 20
30.1924528085643
 30
0.0
 41
1.0
 10
14.46740758767312
 20
30.19070914612097
 30
0.0
 41
1.0
 10
14.48657919402474
 20
30.17729669175987
 30
0.0
 41
1.0
 10
14.49999164838584
 20
30.15812508540825
 30
0.0
 41
1.0
 10
14.50173531082917
 20
30.14292478832673
 30
0.0
 41
1.0
 10
14.50260714205083
 20
30.13532463978596
 30
0.0
 41
1.0
  0
SPLINE
  5
327
330
1F
100
AcDbEntity
  8
0
  6
SLD-Solid
 62
     7
370
    25
100
AcDbSpline
210
0.0
220
0.0
230
1.0
 70
    12
 71
     3
 72
    11
 73
     7
 74
     0
 42
0.00000001
 43
0.00000001
 40
0.0
 40
0.0
 40
0.0
 40
0.0
 40
0.2499999999999727
 40
0.5000000000000017
 40
0.750000000000008
 40
1.0
 40
1.0
 40
1.0
 40
1.0
 10
14.44460714205083
 20
30.16432463978597
 30
0.0
 41
1.0
 10
14.44840721632121
 20
30.16388872417513
 30
0.0
 41
1.0
 10
14.45600736486197
 20
30.16301689295347
 30
0.0
 41
1.0
 10
14.46559316803779
 20
30.15631066577292
 30
0.0
 41
1.0
 10
14.47229939521833
 20
30.14672486259711
 30
0.0
 41
1.0
 10
14.47317122644
 20
30.13912471405635
 30
0.0
 41
1.0
 10
14.47360714205083
 20
30.13532463978596
 30
0.0
 41
1.0
  0
SPLINE
  5
328
330
1F
100
AcDbEntity
  8
0
  6
SLD-Solid
 62
     7
370
    25
100
AcDbSpline
210
0.0
220
0.0
230
1.0
 70
    12
 71
     3
 72
    11
 73
     7
 74
     0
 42
0.00000001
 43
0.00000001
 40
0.0
 40
0.0
 40
0.0
 40
0.0
 40
0.2499999999999999
 40
0.4999999999999998
 40
0.7500000000000027
 40
1.0
 40
1.0
 40
1.0
 40
1.0
 10
7.10393618757658
 20
30.13532463978596
 30
0.0
 41
1.0
 10
7.104372103187412
 20
30.13912471405635
 30
0.0
 41
1.0
 10
7.105243934409077
 20
30.14672486259711
 30
0.0
 41
1.0
 10
7.111950161589626
 20
30.15631066577292
 30
0.0
 41
1.0
 10
7.121535964765437
 20
30.16301689295347
 30
0.0
 41
1.0
 10
7.129136113306198
 20
30.16388872417513
 30
0.0
 41
1.0
 10
7.13293618757658
 20
30.16432463978597
 30
0.0
 41
1.0
  0
SPLINE
  5
329
330
1F
100
AcDbEntity
  8
0
  6
SLD-Solid
 62
     7
370
    25
100
AcDbSpline
210
0.0
220
0.0
230
1.0
 70
    12
 71
     3
 72
    11
 73
     7
 74
     0
 42
0.00000001
 43
0.00000001
 40
0.0
 40
0.0
 40
0.0
 40
0.0
 40
0.2500000000000001
 40
0.4999999999999999
 40
0.7500000000000037
 40
1.0
 40
1.0
 40
1.0
 40
1.0
 10
7.07493618757658
 20
30.13532463978596
 30
0.0
 41
1.0
 10
7.075808018798244
 20
30.14292478832673
 30
0.0
 41
1.0
 10
7.077551681241574
 20
30.15812508540825
 30
0.0
 41
1.0
 10
7.090964135602674
 20
30.17729669175987
 30
0.0
 41
1.0
 10
7.110135741954295
 20
30.19070914612097
 30
0.0
 41
1.0
 10
7.125336039035818
 20
30.1924528085643
 30
0.0
 41
1.0
 10
7.13293618757658
 20
30.19332463978597
 30
0.0
 41
1.0
  0
LINE
  5
32A
330
1F
100
AcDbEntity
  8
0
  6
SLD-Solid
 62
     7
370
    25
100
AcDbLine
 10
14.50260714205083
 20
30.01611825510662
 30
0.0
 11
14.50260714205083
 21
30.13532463978596
 31
0.0
  0
LINE
  5
32B
330
1F
100
AcDbEntity
  8
0
  6
SLD-Solid
 62
     7
370
    25
100
AcDbLine
 10
14.47360714205083
 20
30.01804453373194
 30
0.0
 11
14.47360714205083
 21
30.13532463978596
 31
0.0
  0
LINE
  5
32C
330
1F
100
AcDbEntity
  8
0
  6
SLD-Solid
 62
     7
370
    25
100
AcDbLine
 10
7.10393618757658
 20
30.13532463978596
 30
0.0
 11
7.10393618757658
 21
30.01530812488425
 31
0.0
  0
LINE
  5
32D
330
1F
100
AcDbEntity
  8
0
  6
SLD-Solid
 62
     7
370
    25
100
AcDbLine
 10
7.07493618757658
 20
30.13532463978596
 30
0.0
 11
7.07493618757658
 21
30.01785479136481
 31
0.0
  0
LWPOLYLINE
  5
32E
330
1F
100
AcDbEntity
  8
0
  6
SLD-Solid
 62
     8
370
    25
100
AcDbPolyline
 90
       12
 70
   128
 43
0.0
 10
10.78199838544297
 20
28.84312540463916
 10
10.85069056334147
 20
28.83876227162587
 10
10.91777265481081
 20
28.82577514072583
 10
10.9816723124831
 20
28.80446841927995
 10
11.04089178254135
 20
28.77534151878018
 10
11.09404301079948
 20
28.73907714908741
 10
11.13988017751602
 20
28.69652531629101
 10
11.1773288983529
 20
28.64868339928643
 10
11.20551140703378
 20
28.59667277205936
 10
11.22376712944156
 20
28.54171251962983
 10
11.23166816691584
 20
28.48509086373263
 10
11.23171382090761
 20
28.48406880534413
  0
LWPOLYLINE
  5
32F
330
1F
100
AcDbEntity
  8
0
  6
SLD-Solid
 62
     8
370
    25
100
AcDbPolyline
 90
       12
 70
   128
 43
0.0
 10
10.33231537004964
 20
28.48480230322576
 10
10.33232860397011
 20
28.48509086373263
 10
10.34022964144439
 20
28.54171251962983
 10
10.35848536385217
 20
28.59667277205936
 10
10.38666787253305
 20
28.64868339928644
 10
10.42411659336993
 20
28.69652531629101
 10
10.46995376008647
 20
28.73907714908742
 10
10.5231049883446
 20
28.77534151878018
 10
10.58232445840285
 20
28.80446841927995
 10
10.64622411607514
 20
28.82577514072583
 10
10.71330620754449
 20
28.83876227162587
 10
10.78199838544297
 20
28.84312540463916
  0
LINE
  5
330
330
1F
100
AcDbEntity
  8
0
  6
SLD-Solid
 62
     8
370
    25
100
AcDbLine
 10
14.53065882027003
 20
24.60318593410035
 30
0.0
 11
14.53250714205081
 21
24.60318593410035
 31
0.0
  0
LINE
  5
331
330
1F
100
AcDbEntity
  8
0
  6
SLD-Solid
 62
     8
370
    25
100
AcDbLine
 10
7.031520577099776
 20
24.60324210704904
 30
0.0
 11
7.033357367644999
 21
24.60324210704903
 31
0.0
  0
DIMENSION
  5
332
330
1F
100
AcDbEntity
  8
DIMS
100
AcDbDimension
  2
_D_4
 10
7.061420577099772
 20
23.04840003721507
 30
0.0
 11
10.86124106263156
 21
23.04840003721506
 31
0.0
 70
    32
  1
<>
 71
     2
 42
-1.0
  3
SLDDIMSTYLE1
100
AcDbAlignedDimension
 13
14.53250714205081
 23
24.62122501085652
 33
0.0
 14
7.061420577099776
 24
24.62122501085655
 34
0.0
 50
-0.0000000000001635
100
AcDbRotatedDimension
  0
MTEXT
  5
341
330
1F
100
AcDbEntity
  8
NOTES
100
AcDbMText
 10
7.228956089756122
 20
24.1051432071191
 30
0.0
 40
0.2916666666666666
 41
0.0
 71
     1
 72
     1
  1
Top view
  7
SLDTEXTSTYLE1
 73
     1
 44
1.0
  0
LINE
  5
342
330
1F
100
AcDbEntity
  8
0
  6
SLD-Solid
 62
     7
370
    25
100
AcDbLine
 10
42.48867545707613
 20
11.55704532592005
 30
0.0
 11
42.50219106755288
 21
11.55704532592005
 31
0.0
  0
LINE
  5
343
330
1F
100
AcDbEntity
  8
0
  6
SLD-Solid
 62
     7
370
    25
100
AcDbLine
 10
42.50219106755288
 20
11.68204532592005
 30
0.0
 11
42.48867545707613
 21
11.68204532592005
 31
0.0
  0
ARC
  5
344
330
1F
100
AcDbEntity
  8
0
  6
SLD-Solid
 62
     7
370
    25
100
AcDbCircle
 10
42.53459106755287
 20
11.74448544439661
 30
0.0
 40
0.0025000000000066
100
AcDbArc
 50
32.98629416239419
 51
180.0
  0
ARC
  5
345
330
1F
100
AcDbEntity
  8
0
  6
SLD-Solid
 62
     7
370
    25
100
AcDbCircle
 10
42.53459106755287
 20
11.4946052074435
 30
0.0
 40
0.0025000000000056
100
AcDbArc
 50
180.0
 51
327.0137058376408
  0
ARC
  5
346
330
1F
100
AcDbEntity
  8
0
  6
SLD-Solid
 62
     7
370
    25
100
AcDbCircle
 10
42.34209936423865
 20
11.61954532592005
 30
0.0
 40
0.2319843982708854
100
AcDbArc
 50
327.0137058375623
 51
32.98629416243963
  0
ARC
  5
347
330
1F
100
AcDbEntity
  8
0
  6
SLD-Solid
 62
     7
370
    25
100
AcDbCircle
 10
35.02860450260189
 20
11.4946052074435
 30
0.0
 40
0.0025000000000048
100
AcDbArc
 50
212.9862941624495
 51
0.0
  0
ARC
  5
348
330
1F
100
AcDbEntity
  8
0
  6
SLD-Solid
 62
     7
370
    25
100
AcDbCircle
 10
35.02860450260189
 20
11.74448544439661
 30
0.0
 40
0.0025000000000048
100
AcDbArc
 50
0.0
 51
147.0137058375172
  0
ARC
  5
349
330
1F
100
AcDbEntity
  8
0
  6
SLD-Solid
 62
     7
370
    25
100
AcDbCircle
 10
35.22109620591612
 20
11.61954532592005
 30
0.0
 40
0.2319843982708854
100
AcDbArc
 50
147.0137058375604
 51
212.9862941624393
  0
LINE
  5
34A
330
1F
100
AcDbEntity
  8
0
  6
SLD-Solid
 62
     7
370
    25
100
AcDbLine
 10
42.50219106755288
 20
11.38773785792283
 30
0.0
 11
42.53209106755288
 21
11.38773785792283
 31
0.0
  0
LINE
  5
34B
330
1F
100
AcDbEntity
  8
0
  6
SLD-Solid
 62
     7
370
    25
100
AcDbLine
 10
35.03110450260189
 20
11.38776346206808
 30
0.0
 11
35.06100450260189
 21
11.38776346206808
 31
0.0
  0
LINE
  5
34C
330
1F
100
AcDbEntity
  8
0
  6
SLD-Solid
 62
     7
370
    25
100
AcDbLine
 10
42.09984077718392
 20
18.650492232443
 30
0.0
 11
35.44983987790549
 21
18.650492232443
 31
0.0
  0
LINE
  5
34D
330
1F
100
AcDbEntity
  8
0
  6
SLD-Solid
 62
     7
370
    25
100
AcDbLine
 10
42.50219106755292
 20
18.4111534411173
 30
0.0
 11
42.50219106755288
 21
11.63773769579752
 31
0.0
  0
LINE
  5
34E
330
1F
100
AcDbEntity
  8
0
  6
SLD-Solid
 62
     7
370
    25
100
AcDbLine
 10
42.53209106755292
 20
18.4111534411173
 30
0.0
 11
42.53209106755288
 21
11.63773769579752
 31
0.0
  0
LINE
  5
34F
330
1F
100
AcDbEntity
  8
0
  6
SLD-Solid
 62
     7
370
    25
100
AcDbLine
 10
35.03110450260189
 20
11.63776329994547
 30
0.0
 11
35.03110450260189
 21
18.4111416374567
 31
0.0
  0
LINE
  5
350
330
1F
100
AcDbEntity
  8
0
  6
SLD-Solid
 62
     7
370
    25
100
AcDbLine
 10
35.06100450260189
 20
18.28966241350149
 30
0.0
 11
35.06100450260189
 21
18.4111416374567
 31
0.0
  0
SPLINE
  5
351
330
1F
100
AcDbEntity
  8
0
  6
SLD-Solid
 62
     7
370
    25
100
AcDbSpline
210
0.0
220
0.0
230
1.0
 70
    12
 71
     3
 72
     9
 73
     5
 74
     0
 42
0.00000001
 43
0.00000001
 40
0.0
 40
0.0
 40
0.0
 40
0.0
 40
0.2902614761831103
 40
0.9999999999999999
 40
0.9999999999999999
 40
0.9999999999999999
 40
0.9999999999999999
 10
42.50777820463079
 20
18.54798206076409
 30
0.0
 41
1.0
 10
42.51209923346862
 20
18.53516650697858
 30
0.0
 41
1.0
 10
42.52698591045604
 20
18.49101475127872
 30
0.0
 41
1.0
 10
42.529971839021
 20
18.44430508833965
 30
0.0
 41
1.0
 10
42.53209106755292
 20
18.4111534411173
 30
0.0
 41
1.0
  0
SPLINE
  5
352
330
1F
100
AcDbEntity
  8
0
  6
SLD-Solid
 62
     7
370
    25
100
AcDbSpline
210
0.0
220
0.0
230
1.0
 70
    12
 71
     3
 72
     9
 73
     5
 74
     0
 42
0.00000001
 43
0.00000001
 40
0.0
 40
0.0
 40
0.0
 40
0.0
 40
0.5258998029754588
 40
1.0
 40
1.0
 40
1.0
 40
1.0
 10
42.44363165565132
 20
18.64035233023328
 30
0.0
 41
1.0
 10
42.45791116122101
 20
18.62703051348887
 30
0.0
 41
1.0
 10
42.48506368245965
 20
18.60169904032794
 30
0.0
 41
1.0
 10
42.50047256693284
 20
18.56525907151827
 30
0.0
 41
1.0
 10
42.50777792209751
 20
18.54798287512604
 30
0.0
 41
1.0
  0
ARC
  5
353
330
1F
100
AcDbEntity
  8
0
  6
SLD-Solid
 62
     7
370
    25
100
AcDbCircle
 10
42.25558521520309
 20
18.38947748761641
 30
0.0
 40
0.3135277506430479
100
AcDbArc
 50
53.14613885719405
 51
90.62027725997396
  0
ARC
  5
354
330
1F
100
AcDbEntity
  8
0
  6
SLD-Solid
 62
     7
370
    25
100
AcDbCircle
 10
35.30761183253528
 20
18.38947047851073
 30
0.0
 40
0.3135347433460413
100
AcDbArc
 50
89.38000660599852
 51
126.8477935920482
  0
SPLINE
  5
355
330
1F
100
AcDbEntity
  8
0
  6
SLD-Solid
 62
     7
370
    25
100
AcDbSpline
210
0.0
220
0.0
230
1.0
 70
    12
 71
     3
 72
     9
 73
     5
 74
     0
 42
0.00000001
 43
0.00000001
 40
0.0
 40
0.0
 40
0.0
 40
0.0
 40
0.4890910200609096
 40
1.0
 40
1.0
 40
1.0
 40
1.0
 10
35.05543097844725
 20
18.54800757536071
 30
0.0
 41
1.0
 10
35.0630070784776
 20
18.56582514863395
 30
0.0
 41
1.0
 10
35.07849724231134
 20
18.60225512289728
 30
0.0
 41
1.0
 10
35.10569313911362
 20
18.62748212663544
 30
0.0
 41
1.0
 10
35.1195877670074
 20
18.64037082938222
 30
0.0
 41
1.0
  0
SPLINE
  5
356
330
1F
100
AcDbEntity
  8
0
  6
SLD-Solid
 62
     7
370
    25
100
AcDbSpline
210
0.0
220
0.0
230
1.0
 70
    12
 71
     3
 72
     9
 73
     5
 74
     0
 42
0.00000001
 43
0.00000001
 40
0.0
 40
0.0
 40
0.0
 40
0.0
 40
0.7096798841761676
 40
1.0
 40
1.0
 40
1.0
 40
1.0
 10
35.03110450260189
 20
18.4111416374567
 30
0.0
 41
1.0
 10
35.03322458446853
 20
18.4442998248368
 30
0.0
 41
1.0
 10
35.03621196217772
 20
18.49102256296061
 30
0.0
 41
1.0
 10
35.05110650899709
 20
18.53518540022318
 30
0.0
 41
1.0
 10
35.05543069555483
 20
18.54800676025237
 30
0.0
 41
1.0
  0
SPLINE
  5
357
330
1F
100
AcDbEntity
  8
0
  6
SLD-Solid
 62
     7
370
    25
100
AcDbSpline
210
0.0
220
0.0
230
1.0
 70
    12
 71
     3
 72
     9
 73
     5
 74
     0
 42
0.00000001
 43
0.00000001
 40
0.0
 40
0.0
 40
0.0
 40
0.0
 40
0.7699755074695184
 40
1.0
 40
1.0
 40
1.0
 40
1.0
 10
35.06100450260189
 20
18.4111416374567
 30
0.0
 41
1.0
 10
35.06289274940201
 20
18.44181817593639
 30
0.0
 41
1.0
 10
35.06534509597901
 20
18.48165910357902
 30
0.0
 41
1.0
 10
35.07685932758679
 20
18.5196221958067
 30
0.0
 41
1.0
 10
35.07950788286924
 20
18.52835463683126
 30
0.0
 41
1.0
  0
SPLINE
  5
358
330
1F
100
AcDbEntity
  8
0
  6
SLD-Solid
 62
     7
370
    25
100
AcDbSpline
210
0.0
220
0.0
230
1.0
 70
    12
 71
     3
 72
    10
 73
     6
 74
     0
 42
0.00000001
 43
0.00000001
 40
0.0
 40
0.0
 40
0.0
 40
0.0
 40
0.4315743340290851
 40
0.8639944649590151
 40
0.9999999999999999
 40
0.9999999999999999
 40
0.9999999999999999
 40
0.9999999999999999
 10
35.1510456556246
 20
18.63037124738253
 30
0.0
 41
1.0
 10
35.13744720866775
 20
18.61900496561219
 30
0.0
 41
1.0
 10
35.11022366459583
 20
18.59625012649779
 30
0.0
 41
1.0
 10
35.08944172650375
 20
18.55707933165769
 30
0.0
 41
1.0
 10
35.08142597366201
 20
18.53390107310321
 30
0.0
 41
1.0
 10
35.07950806808655
 20
18.52835527944058
 30
0.0
 41
1.0
  0
ARC
  5
359
330
1F
100
AcDbEntity
  8
0
  6
SLD-Solid
 62
     7
370
    25
100
AcDbCircle
 10
35.30859535615039
 20
18.39515473047847
 30
0.0
 40
0.2831054891029918
100
AcDbArc
 50
89.51242347737309
 51
123.8144576912468
  0
LWPOLYLINE
  5
35A
330
1F
100
AcDbEntity
  8
0
  6
SLD-Solid
 62
     7
370
    25
100
AcDbPolyline
 90
        3
 70
   128
 43
0.0
 10
42.50219106755294
 20
14.7494348845175
 10
42.49738738765375
 20
14.7897854630238
 10
42.49619106755293
 20
14.79447641415439
  0
ARC
  5
35B
330
1F
100
AcDbEntity
  8
0
  6
SLD-Solid
 62
     7
370
    25
100
AcDbCircle
 10
42.25460136395839
 20
18.39516066589639
 30
0.0
 40
0.2830995636882762
100
AcDbArc
 50
56.17955255737764
 51
90.4878194726982
  0
SPLINE
  5
35C
330
1F
100
AcDbEntity
  8
0
  6
SLD-Solid
 62
     7
370
    25
100
AcDbSpline
210
0.0
220
0.0
230
1.0
 70
    12
 71
     3
 72
    10
 73
     6
 74
     0
 42
0.00000001
 43
0.00000001
 40
0.0
 40
0.0
 40
0.0
 40
0.0
 40
0.4296302432849606
 40
0.8598900047090969
 40
1.0
 40
1.0
 40
1.0
 40
1.0
 10
42.48369852641574
 20
18.52833290612402
 30
0.0
 41
1.0
 10
42.47688262012568
 20
18.54577436069124
 30
0.0
 41
1.0
 10
42.46324082050039
 20
18.58068282601543
 30
0.0
 41
1.0
 10
42.43528986276649
 20
18.61330876156483
 30
0.0
 41
1.0
 10
42.41673123803822
 20
18.62699403339632
 30
0.0
 41
1.0
 10
42.41217235532631
 20
18.63035578837945
 30
0.0
 41
1.0
  0
SPLINE
  5
35D
330
1F
100
AcDbEntity
  8
0
  6
SLD-Solid
 62
     7
370
    25
100
AcDbSpline
210
0.0
220
0.0
230
1.0
 70
    12
 71
     3
 72
     9
 73
     5
 74
     0
 42
0.00000001
 43
0.00000001
 40
0.0
 40
0.0
 40
0.0
 40
0.0
 40
0.229942674152244
 40
1.0
 40
1.0
 40
1.0
 40
1.0
 10
42.48369871132648
 20
18.52833226433825
 30
0.0
 41
1.0
 10
42.48634481450917
 20
18.51960534807607
 30
0.0
 41
1.0
 10
42.49785247915844
 20
18.48165277448633
 30
0.0
 41
1.0
 10
42.50030357965735
 20
18.44182393259542
 30
0.0
 41
1.0
 10
42.50219106755292
 20
18.4111534411173
 30
0.0
 41
1.0
  0
LINE
  5
35E
330
1F
100
AcDbEntity
  8
0
  6
SLD-Solid
 62
     7
370
    25
100
AcDbLine
 10
42.50219106755288
 20
11.63773769579752
 30
0.0
 11
42.50219106755289
 21
11.38775167290608
 31
0.0
  0
LINE
  5
35F
330
1F
100
AcDbEntity
  8
0
  6
SLD-Solid
 62
     7
370
    25
100
AcDbLine
 10
42.53209106755288
 20
11.63773769579752
 30
0.0
 11
42.53209106755288
 21
11.38775167290608
 31
0.0
  0
LINE
  5
360
330
1F
100
AcDbEntity
  8
0
  6
SLD-Solid
 62
     7
370
    25
100
AcDbLine
 10
35.03110450260189
 20
11.3877772784209
 30
0.0
 11
35.03110450260189
 21
11.63776329994547
 31
0.0
  0
LINE
  5
361
330
1F
100
AcDbEntity
  8
0
  6
SLD-Solid
 62
     7
370
    25
100
AcDbLine
 10
35.06100450260189
 20
11.3877772784209
 30
0.0
 11
35.06100450260189
 21
11.38804532592005
 31
0.0
  0
LINE
  5
362
330
1F
100
AcDbEntity
  8
0
  6
SLD-Solid
 62
     7
370
    25
100
AcDbLine
 10
35.31100450260189
 20
18.67824996882348
 30
0.0
 11
42.25219106755291
 21
18.67824996882345
 31
0.0
  0
LINE
  5
363
330
1F
100
AcDbEntity
  8
0
  6
SLD-Solid
 62
     7
370
    25
100
AcDbLine
 10
35.31100450260189
 20
18.70298686576168
 30
0.0
 11
42.25219106755292
 21
18.70298686576165
 31
0.0
  0
LINE
  5
364
330
1F
100
AcDbEntity
  8
0
  6
SLD-Solid
 62
     7
370
    25
100
AcDbLine
 10
42.48867545707611
 20
11.45069115741408
 30
0.0
 11
42.49619106755291
 21
11.45069115741408
 31
0.0
  0
LINE
  5
365
330
1F
100
AcDbEntity
  8
0
  6
SLD-Solid
 62
     7
370
    25
100
AcDbLine
 10
42.49619106755291
 20
11.45069115741408
 30
0.0
 11
42.49619106755291
 21
11.55704532592005
 31
0.0
  0
LINE
  5
366
330
1F
100
AcDbEntity
  8
0
  6
SLD-Solid
 62
     7
370
    25
100
AcDbLine
 10
42.49619106755291
 20
11.68204532592005
 30
0.0
 11
42.49619106755291
 21
11.69851320247123
 31
0.0
  0
LINE
  5
367
330
1F
100
AcDbEntity
  8
0
  6
SLD-Solid
 62
     7
370
    25
100
AcDbLine
 10
42.49619106755291
 20
11.69851320247123
 30
0.0
 11
42.49619106755291
 21
11.81362044291804
 31
0.0
  0
LINE
  5
368
330
1F
100
AcDbEntity
  8
0
  6
SLD-Solid
 62
     7
370
    25
100
AcDbLine
 10
42.4886754570761
 20
14.88978452408593
 30
0.0
 11
42.49619106755295
 21
14.88978452408593
 31
0.0
  0
LINE
  5
369
330
1F
100
AcDbEntity
  8
0
  6
SLD-Solid
 62
     7
370
    25
100
AcDbLine
 10
42.49619106755291
 20
11.81362044291804
 30
0.0
 11
42.49619106755295
 21
14.88978452408593
 31
0.0
  0
LWPOLYLINE
  5
36A
330
1F
100
AcDbEntity
  8
0
  6
SLD-Solid
 62
     7
370
    25
100
AcDbPolyline
 90
        9
 70
   128
 43
0.0
 10
42.49619106755294
 20
14.73710408701433
 10
42.49641942895541
 20
14.73645919331028
 10
42.49706974720937
 20
14.7359124788267
 10
42.49804301725585
 20
14.73554717588773
 10
42.49919106755294
 20
14.73541889855435
 10
42.50033911785004
 20
14.73554717588773
 10
42.5013123878965
 20
14.7359124788267
 10
42.50196270615048
 20
14.73645919331029
 10
42.50219106755294
 20
14.73710408701433
  0
LINE
  5
36B
330
1F
100
AcDbEntity
  8
0
  6
SLD-Solid
 62
     7
370
    25
100
AcDbLine
 10
42.48867545707613
 20
11.38804532592005
 30
0.0
 11
42.48867545707613
 21
18.28966241350142
 31
0.0
  0
LINE
  5
36C
330
1F
100
AcDbEntity
  8
0
  6
SLD-Solid
 62
     7
370
    25
100
AcDbLine
 10
42.43067545707613
 20
11.38804532592005
 30
0.0
 11
42.48867545707613
 21
11.38804532592005
 31
0.0
  0
SPLINE
  5
36D
330
1F
100
AcDbEntity
  8
0
  6
SLD-Solid
 62
     7
370
    25
100
AcDbSpline
210
0.0
220
0.0
230
1.0
 70
    12
 71
     3
 72
    11
 73
     7
 74
     0
 42
0.00000001
 43
0.00000001
 40
0.0
 40
0.0
 40
0.0
 40
0.0
 40
0.2500000000000001
 40
0.4999999999999999
 40
0.7500000000000037
 40
1.0
 40
1.0
 40
1.0
 40
1.0
 10
42.48867545707613
 20
18.28966241350142
 30
0.0
 41
1.0
 10
42.48780362585447
 20
18.29256372105514
 30
0.0
 41
1.0
 10
42.48605996341114
 20
18.29836633616258
 30
0.0
 41
1.0
 10
42.47264750905004
 20
18.30707025882374
 30
0.0
 41
1.0
 10
42.45347590269841
 20
18.31577418148489
 30
0.0
 41
1.0
 10
42.4382756056169
 20
18.32157679659233
 30
0.0
 41
1.0
 10
42.43067545707613
 20
18.32447810414605
 30
0.0
 41
1.0
  0
CIRCLE
  5
36E
330
1F
100
AcDbEntity
  8
0
  6
SLD-Solid
 62
     7
370
    25
100
AcDbCircle
 10
36.96233997983901
 20
13.68804532592006
 30
0.0
 40
0.0999999999999943
  0
CIRCLE
  5
36F
330
1F
100
AcDbEntity
  8
0
  6
SLD-Solid
 62
     7
370
    25
100
AcDbCircle
 10
40.58733997983901
 20
13.68804532592006
 30
0.0
 40
0.0999999999999925
  0
LINE
  5
370
330
1F
100
AcDbEntity
  8
0
  6
SLD-Solid
 62
     7
370
    25
100
AcDbLine
 10
42.09984077718392
 20
18.592492232443
 30
0.0
 11
42.09984077718392
 21
18.49304679312647
 31
0.0
  0
LINE
  5
371
330
1F
100
AcDbEntity
  8
0
  6
SLD-Solid
 62
     7
370
    25
100
AcDbLine
 10
42.09984077718392
 20
18.49304679312647
 30
0.0
 11
42.43067545707613
 21
18.32447810414605
 31
0.0
  0
LINE
  5
372
330
1F
100
AcDbEntity
  8
0
  6
SLD-Solid
 62
     7
370
    25
100
AcDbLine
 10
42.43067545707613
 20
11.38804532592005
 30
0.0
 11
35.11900450260188
 21
11.38804532592005
 31
0.0
  0
LINE
  5
373
330
1F
100
AcDbEntity
  8
0
  6
SLD-Solid
 62
     7
370
    25
100
AcDbLine
 10
35.11900450260188
 20
18.32447810414612
 30
0.0
 11
35.44983987790549
 21
18.49304714745634
 31
0.0
  0
LINE
  5
374
330
1F
100
AcDbEntity
  8
0
  6
SLD-Solid
 62
     7
370
    25
100
AcDbLine
 10
35.44983987790549
 20
18.49304714745634
 30
0.0
 11
35.44983987790549
 21
18.592492232443
 31
0.0
  0
LINE
  5
375
330
1F
100
AcDbEntity
  8
0
  6
SLD-Solid
 62
     7
370
    25
100
AcDbLine
 10
35.06100450260188
 20
11.38804532592005
 30
0.0
 11
35.11900450260188
 21
11.38804532592005
 31
0.0
  0
LINE
  5
376
330
1F
100
AcDbEntity
  8
0
  6
SLD-Solid
 62
     7
370
    25
100
AcDbLine
 10
35.06100450260188
 20
11.38804532592005
 30
0.0
 11
35.06100450260188
 21
18.28966241350149
 31
0.0
  0
SPLINE
  5
377
330
1F
100
AcDbEntity
  8
0
  6
SLD-Solid
 62
     7
370
    25
100
AcDbSpline
210
0.0
220
0.0
230
1.0
 70
    12
 71
     3
 72
    11
 73
     7
 74
     0
 42
0.00000001
 43
0.00000001
 40
0.0
 40
0.0
 40
0.0
 40
0.0
 40
0.249999999999991
 40
0.4999999999999978
 40
0.7500000000000023
 40
1.0
 40
1.0
 40
1.0
 40
1.0
 10
35.11900450260188
 20
18.32447810414612
 30
0.0
 41
1.0
 10
35.11140435406112
 20
18.3215767965924
 30
0.0
 41
1.0
 10
35.09620405697959
 20
18.31577418148496
 30
0.0
 41
1.0
 10
35.07703245062797
 20
18.3070702588238
 30
0.0
 41
1.0
 10
35.06361999626688
 20
18.29836633616264
 30
0.0
 41
1.0
 10
35.06187633382355
 20
18.29256372105521
 30
0.0
 41
1.0
 10
35.06100450260188
 20
18.28966241350149
 30
0.0
 41
1.0
  0
LINE
  5
378
330
1F
100
AcDbEntity
  8
0
  6
SLD-Solid
 62
     7
370
    25
100
AcDbLine
 10
35.44983987790549
 20
18.650492232443
 30
0.0
 11
35.44983987790549
 21
18.592492232443
 31
0.0
  0
LINE
  5
379
330
1F
100
AcDbEntity
  8
0
  6
SLD-Solid
 62
     7
370
    25
100
AcDbLine
 10
42.09984077718392
 20
18.592492232443
 30
0.0
 11
42.09984077718392
 21
18.650492232443
 31
0.0
  0
DIMENSION
  5
37A
330
1F
100
AcDbEntity
  8
DIMS
100
AcDbDimension
  2
_D_5
 10
40.58733997983901
 20
10.18258916347699
 30
0.0
 11
38.75508933170167
 21
10.18258916347699
 31
0.0
 70
    32
  1
<>
 71
     2
 42
-1.0
  3
SLDDIMSTYLE1
100
AcDbAlignedDimension
 13
36.96233997983901
 23
13.68804532592007
 33
0.0
 14
40.58733997983901
 24
13.68804532592006
 34
0.0
100
AcDbRotatedDimension
  0
DIMENSION
  5
389
330
1F
100
AcDbEntity
  8
DIMS
100
AcDbDimension
  2
_D_6
 10
33.94924990026571
 20
11.38804532592005
 30
0.0
 11
33.94924990026571
 21
12.56344918502408
 31
0.0
 70
    32
  1
<>
 71
     2
 42
-1.0
  3
SLDDIMSTYLE1
100
AcDbAlignedDimension
 13
36.96233997983901
 23
13.68804532592007
 33
0.0
 14
35.06100450260188
 24
11.38804532592005
 34
0.0
 50
90.0000000000002
100
AcDbRotatedDimension
  0
DIMENSION
  5
398
330
1F
100
AcDbEntity
  8
DIMS
100
AcDbDimension
  2
_D_7
 10
37.01494252021745
 20
13.63804532592006
 30
0.0
 11
33.8867496029208
 21
14.96390307072223
 31
0.0
 70
    35
  1
<>
 71
     1
 42
-1.0
  3
SLDDIMSTYLE3
100
AcDbDiametricDimension
 15
36.84173743946057
 25
13.73804532592006
 35
0.0
 40
0.0
  0
MTEXT
  5
3A5
330
1F
100
AcDbEntity
  8
NOTES
100
AcDbMText
 10
34.20294846278959
 20
19.69577620299614
 30
0.0
 40
0.2916666666666666
 41
0.0
 71
     1
 72
     1
  1
mounting hole (2)
  7
SLDTEXTSTYLE1
 73
     1
 44
1.0
  0
LEADER
  5
3A6
330
1F
100
AcDbEntity
  8
NOTES
100
AcDbLeader
  3
SLDDIMSTYLE2
 76
     3
 10
40.57013328764568
 20
13.78655385216913
 30
0.0
 10
38.06221793201177
 20
19.55716623761723
 30
0.0
 10
37.56221793201177
 20
19.55716623761723
 30
0.0
1001
ACAD
1000
DSTYLE
1002
{
1070
   176
1070
     0
1070
    77
1070
     0
1070
    40
1040
1.0
1070
   147
1040
0.0
1002
}
  0
MTEXT
  5
3A7
330
1F
100
AcDbEntity
  8
NOTES
100
AcDbMText
 10
34.9897592136394
 20
11.19183466913013
 30
0.0
 40
0.2916666666666666
 41
0.0
 71
     1
 72
     1
  1
Back view
  7
SLDTEXTSTYLE1
 73
     1
 44
1.0
  0
MTEXT
  5
3AB
330
1F
100
AcDbEntity
  8
NOTES
100
AcDbMText
 10
39.2661315570167
 20
4.986500874567161
 30
0.0
 40
0.2916666666666666
 41
0.0
 71
     1
 72
     1
  1
FROST PRODUCTS LTD.
  7
SLDTEXTSTYLE0
 73
     1
 44
1.0
  0
MTEXT
  5
3AC
330
1F
100
AcDbEntity
  8
NOTES
100
AcDbMText
 10
39.2661315570167
 20
4.561008512941702
 30
0.0
 40
0.2291666666666666
 41
0.0
 71
     1
 72
     1
  1
5280 JOHN LUCAS DRIVE, BURLINGTON, ON, L7L 5Z9
  7
SLDTEXTSTYLE0
 73
     1
 44
1.0
  0
ENDSEC
  0
SECTION
  2
OBJECTS
  0
DICTIONARY
  5
C
330
0
100
AcDbDictionary
281
     1
  3
ACAD_COLOR
350
6C
  3
ACAD_GROUP
350
D
  3
ACAD_LAYOUT
350
1A
  3
ACAD_MATERIAL
350
6B
  3
ACAD_MLINESTYLE
350
17
  3
ACAD_PLOTSETTINGS
350
19
  3
ACAD_PLOTSTYLENAME
350
E
  3
ACAD_SCALELIST
350
47
  3
ACAD_TABLESTYLE
350
92
  3
AcDbVariableDictionary
350
59
  0
DICTIONARY
  5
6C
102
{ACAD_REACTORS
330
C
102
}
330
C
100
AcDbDictionary
281
     1
  0
DICTIONARY
  5
D
102
{ACAD_REACTORS
330
C
102
}
330
C
100
AcDbDictionary
281
     1
  0
DICTIONARY
  5
1A
102
{ACAD_REACTORS
330
C
102
}
330
C
100
AcDbDictionary
281
     1
  3
Layout1
350
74
  3
Layout2
350
26
  3
Model
350
22
  0
DICTIONARY
  5
6B
102
{ACAD_REACTORS
330
C
102
}
330
C
100
AcDbDictionary
281
     1
  0
DICTIONARY
  5
17
102
{ACAD_REACTORS
330
C
102
}
330
C
100
AcDbDictionary
281
     1
  3
Standard
350
18
  0
DICTIONARY
  5
19
102
{ACAD_REACTORS
330
C
102
}
330
C
100
AcDbDictionary
281
     1
  0
ACDBDICTIONARYWDFLT
  5
E
102
{ACAD_REACTORS
330
C
102
}
330
C
100
AcDbDictionary
281
     1
  3
Normal
350
F
100
AcDbDictionaryWithDefault
340
F
  0
DICTIONARY
  5
47
102
{ACAD_REACTORS
330
C
102
}
330
C
100
AcDbDictionary
281
     1
  3
A0
350
48
  3
A1
350
49
  3
A2
350
4A
  3
A3
350
4B
  3
A4
350
4C
  3
A5
350
4D
  3
A6
350
4E
  3
A7
350
4F
  3
A8
350
50
  3
A9
350
51
  3
B0
350
52
  3
B1
350
53
  3
B2
350
54
  3
B3
350
55
  3
B4
350
56
  3
B5
350
57
  3
B6
350
58
  3
B7
350
3BD
  3
B8
350
3BE
  3
B9
350
5B
  3
C0
350
5C
  3
C1
350
5D
  3
C2
350
3BF
  3
C3
350
5F
  3
C4
350
60
  3
C5
350
61
  3
C6
350
62
  3
C7
350
63
  3
C8
350
64
  3
C9
350
65
  3
D0
350
66
  3
D1
350
67
  3
D2
350
68
  0
DICTIONARY
  5
92
102
{ACAD_REACTORS
330
C
102
}
330
C
100
AcDbDictionary
281
     1
  3
Standard
350
93
  0
DICTIONARY
  5
59
102
{ACAD_REACTORS
330
C
102
}
330
C
100
AcDbDictionary
281
     1
  3
CTABLESTYLE
350
98
  3
HIDETEXT
350
3AA
  0
LAYOUT
  5
74
102
{ACAD_REACTORS
330
1A
102
}
330
1A
100
AcDbPlotSettings
  1

  2
none_device
  4

  6

 40
0.0
 41
0.0
 42
0.0
 43
0.0
 44
0.0
 45
0.0
 46
0.0
 47
0.0
 48
0.0
 49
0.0
140
0.0
141
0.0
142
1.0
143
1.0
 70
   688
 72
     0
 73
     0
 74
     5
  7

 75
    16
 76
     0
 77
     2
 78
   300
147
1.0
148
0.0
149
0.0
100
AcDbLayout
  1
Layout1
 70
     1
 71
     1
 10
0.0
 20
0.0
 11
12.0
 21
9.0
 12
0.0
 22
0.0
 32
0.0
 14
1.000000000000000E+20
 24
1.000000000000000E+20
 34
1.000000000000000E+20
 15
-1.000000000000000E+20
 25
-1.000000000000000E+20
 35
-1.000000000000000E+20
146
0.0
 13
0.0
 23
0.0
 33
0.0
 16
1.0
 26
0.0
 36
0.0
 17
0.0
 27
1.0
 37
0.0
 76
     0
330
73
  0
LAYOUT
  5
26
102
{ACAD_REACTORS
330
1A
102
}
330
1A
100
AcDbPlotSettings
  1

  2
none_device
  4

  6

 40
0.0
 41
0.0
 42
0.0
 43
0.0
 44
0.0
 45
0.0
 46
0.0
 47
0.0
 48
0.0
 49
0.0
140
0.0
141
0.0
142
1.0
143
1.0
 70
   688
 72
     0
 73
     0
 74
     5
  7

 75
    16
 76
     0
 77
     2
 78
   300
147
1.0
148
0.0
149
0.0
100
AcDbLayout
  1
Layout2
 70
     1
 71
     2
 10
0.0
 20
0.0
 11
0.0
 21
0.0
 12
0.0
 22
0.0
 32
0.0
 14
0.0
 24
0.0
 34
0.0
 15
0.0
 25
0.0
 35
0.0
146
0.0
 13
0.0
 23
0.0
 33
0.0
 16
1.0
 26
0.0
 36
0.0
 17
0.0
 27
1.0
 37
0.0
 76
     0
330
23
  0
LAYOUT
  5
22
102
{ACAD_REACTORS
330
1A
102
}
330
1A
100
AcDbPlotSettings
  1

  2
none_device
  4
Letter_(8.50_x_11.00_Inches)
  6

 40
6.35
 41
6.35
 42
6.35000508
 43
6.35000508
 44
215.9
 45
279.4
 46
0.0
 47
0.0
 48
0.0
 49
0.0
140
0.0
141
0.0
142
1.0
143
1.0
 70
 11952
 72
     0
 73
     0
 74
     0
  7

 75
     0
 76
     0
 77
     2
 78
   300
147
1.0
148
0.0
149
0.0
100
AcDbLayout
  1
Model
 70
     1
 71
     0
 10
0.0
 20
0.0
 11
49.0
 21
42.0
 12
0.0
 22
0.0
 32
0.0
 14
0.1653543307086614
 24
0.1653543307086614
 34
-2.981934347123715
 15
48.83464566929134
 25
41.83464566929134
 35
1.304509271505606
146
0.0
 13
0.0
 23
0.0
 33
0.0
 16
1.0
 26
0.0
 36
0.0
 17
0.0
 27
1.0
 37
0.0
 76
     0
330
1F
  0
MLINESTYLE
  5
18
102
{ACAD_REACTORS
330
17
102
}
330
17
100
AcDbMlineStyle
  2
Standard
 70
     0
  3

 62
   256
 51
90.0
 52
90.0
 71
     2
 49
0.5
 62
   256
  6
BYLAYER
 49
-0.5
 62
   256
  6
BYLAYER
  0
ACDBPLACEHOLDER
  5
F
102
{ACAD_REACTORS
330
E
102
}
330
E
  0
ACAD_PROXY_OBJECT
  5
48
102
{ACAD_REACTORS
330
47
102
}
330
47
100
AcDbProxyObject
 90
      499
 91
      505
 95
   393239
 70
     0
 93
       41
310
903313A31580
  0
ACAD_PROXY_OBJECT
  5
49
102
{ACAD_REACTORS
330
47
102
}
330
47
100
AcDbProxyObject
 90
      499
 91
      505
 95
   393239
 70
     0
 93
      105
310
903313A324000000000000004000
  0
ACAD_PROXY_OBJECT
  5
4A
102
{ACAD_REACTORS
330
47
102
}
330
47
100
AcDbProxyObject
 90
      499
 91
      505
 95
   393239
 70
     0
 93
      105
310
903313A344000000000000104000
  0
ACAD_PROXY_OBJECT
  5
4B
102
{ACAD_REACTORS
330
47
102
}
330
47
100
AcDbProxyObject
 90
      499
 91
      505
 95
   393239
 70
     0
 93
      105
310
903313A354000000000000144000
  0
ACAD_PROXY_OBJECT
  5
4C
102
{ACAD_REACTORS
330
47
102
}
330
47
100
AcDbProxyObject
 90
      499
 91
      505
 95
   393239
 70
     0
 93
      105
310
903313A384000000000000204000
  0
ACAD_PROXY_OBJECT
  5
4D
102
{ACAD_REACTORS
330
47
102
}
330
47
100
AcDbProxyObject
 90
      499
 91
      505
 95
   393239
 70
     0
 93
      113
310
904313A31304000000000000244000
  0
ACAD_PROXY_OBJECT
  5
4E
102
{ACAD_REACTORS
330
47
102
}
330
47
100
AcDbProxyObject
 90
      499
 91
      505
 95
   393239
 70
     0
 93
      113
310
904313A31364000000000000304000
  0
ACAD_PROXY_OBJECT
  5
4F
102
{ACAD_REACTORS
330
47
102
}
330
47
100
AcDbProxyObject
 90
      499
 91
      505
 95
   393239
 70
     0
 93
      113
310
904313A32304000000000000344000
  0
ACAD_PROXY_OBJECT
  5
50
102
{ACAD_REACTORS
330
47
102
}
330
47
100
AcDbProxyObject
 90
      499
 91
      505
 95
   393239
 70
     0
 93
      113
310
904313A333040000000000003E4000
  0
ACAD_PROXY_OBJECT
  5
51
102
{ACAD_REACTORS
330
47
102
}
330
47
100
AcDbProxyObject
 90
      499
 91
      505
 95
   393239
 70
     0
 93
      113
310
904313A34304000000000000444000
  0
ACAD_PROXY_OBJECT
  5
52
102
{ACAD_REACTORS
330
47
102
}
330
47
100
AcDbProxyObject
 90
      499
 91
      505
 95
   393239
 70
     0
 93
      113
310
904313A35304000000000000494000
  0
ACAD_PROXY_OBJECT
  5
53
102
{ACAD_REACTORS
330
47
102
}
330
47
100
AcDbProxyObject
 90
      499
 91
      505
 95
   393239
 70
     0
 93
      121
310
905313A3130304000000000000594000
  0
ACAD_PROXY_OBJECT
  5
54
102
{ACAD_REACTORS
330
47
102
}
330
47
100
AcDbProxyObject
 90
      499
 91
      505
 95
   393239
 70
     0
 93
      105
310
903323A310000000000000010100
  0
ACAD_PROXY_OBJECT
  5
55
102
{ACAD_REACTORS
330
47
102
}
330
47
100
AcDbProxyObject
 90
      499
 91
      505
 95
   393239
 70
     0
 93
      105
310
903343A310000000000000410100
  0
ACAD_PROXY_OBJECT
  5
56
102
{ACAD_REACTORS
330
47
102
}
330
47
100
AcDbProxyObject
 90
      499
 91
      505
 95
   393239
 70
     0
 93
      105
310
903383A310000000000000810100
  0
ACAD_PROXY_OBJECT
  5
57
102
{ACAD_REACTORS
330
47
102
}
330
47
100
AcDbProxyObject
 90
      499
 91
      505
 95
   393239
 70
     0
 93
      113
310
90431303A310000000000000910100
  0
ACAD_PROXY_OBJECT
  5
58
102
{ACAD_REACTORS
330
47
102
}
330
47
100
AcDbProxyObject
 90
      499
 91
      505
 95
   393239
 70
     0
 93
      121
310
9053130303A310000000000001650100
  0
ACAD_PROXY_OBJECT
  5
3BD
102
{ACAD_REACTORS
330
47
102
}
330
47
100
AcDbProxyObject
 90
      499
 91
      505
 95
   393239
 70
     0
 93
      257
310
90E312F31323822203D2031272D3022000000000000200FC000000000000284000
  0
ACAD_PROXY_OBJECT
  5
3BE
102
{ACAD_REACTORS
330
47
102
}
330
47
100
AcDbProxyObject
 90
      499
 91
      505
 95
   393239
 70
     0
 93
      249
310
90D312F363422203D2031272D3022000000000000240FC000000000000284000
  0
ACAD_PROXY_OBJECT
  5
5B
102
{ACAD_REACTORS
330
47
102
}
330
47
100
AcDbProxyObject
 90
      499
 91
      505
 95
   393239
 70
     0
 93
      249
310
90D312F333222203D2031272D3022000000000000280FC000000000000284000
  0
ACAD_PROXY_OBJECT
  5
5C
102
{ACAD_REACTORS
330
47
102
}
330
47
100
AcDbProxyObject
 90
      499
 91
      505
 95
   393239
 70
     0
 93
      249
310
90D312F313622203D2031272D30220000000000002C0FC000000000000284000
  0
ACAD_PROXY_OBJECT
  5
5D
102
{ACAD_REACTORS
330
47
102
}
330
47
100
AcDbProxyObject
 90
      499
 91
      505
 95
   393239
 70
     0
 93
      249
310
90D332F333222203D2031272D30220000000000002E0FC000000000000284000
  0
ACAD_PROXY_OBJECT
  5
3BF
102
{ACAD_REACTORS
330
47
102
}
330
47
100
AcDbProxyObject
 90
      499
 91
      505
 95
   393239
 70
     0
 93
      241
310
90C312F3822203D2031272D3022000000000000300FC000000000000284000
  0
ACAD_PROXY_OBJECT
  5
5F
102
{ACAD_REACTORS
330
47
102
}
330
47
100
AcDbProxyObject
 90
      499
 91
      505
 95
   393239
 70
     0
 93
      249
310
90D332F313622203D2031272D3022000000000000320FC000000000000284000
  0
ACAD_PROXY_OBJECT
  5
60
102
{ACAD_REACTORS
330
47
102
}
330
47
100
AcDbProxyObject
 90
      499
 91
      505
 95
   393239
 70
     0
 93
      241
310
90C312F3422203D2031272D3022000000000000340FC000000000000284000
  0
ACAD_PROXY_OBJECT
  5
61
102
{ACAD_REACTORS
330
47
102
}
330
47
100
AcDbProxyObject
 90
      499
 91
      505
 95
   393239
 70
     0
 93
      241
310
90C332F3822203D2031272D3022000000000000360FC000000000000284000
  0
ACAD_PROXY_OBJECT
  5
62
102
{ACAD_REACTORS
330
47
102
}
330
47
100
AcDbProxyObject
 90
      499
 91
      505
 95
   393239
 70
     0
 93
      241
310
90C312F3222203D2031272D3022000000000000380FC000000000000284000
  0
ACAD_PROXY_OBJECT
  5
63
102
{ACAD_REACTORS
330
47
102
}
330
47
100
AcDbProxyObject
 90
      499
 91
      505
 95
   393239
 70
     0
 93
      241
310
90C332F3422203D2031272D30220000000000003A0FC000000000000284000
  0
ACAD_PROXY_OBJECT
  5
64
102
{ACAD_REACTORS
330
47
102
}
330
47
100
AcDbProxyObject
 90
      499
 91
      505
 95
   393239
 70
     0
 93
      161
310
90A3122203D2031272D30224000000000000284000
  0
ACAD_PROXY_OBJECT
  5
65
102
{ACAD_REACTORS
330
47
102
}
330
47
100
AcDbProxyObject
 90
      499
 91
      505
 95
   393239
 70
     0
 93
      257
310
90E312D312F3222203D2031272D30220000000000003E0FC000000000000284000
  0
ACAD_PROXY_OBJECT
  5
66
102
{ACAD_REACTORS
330
47
102
}
330
47
100
AcDbProxyObject
 90
      499
 91
      505
 95
   393239
 70
     0
 93
      225
310
90A3322203D2031272D302200000000000002100000000000000284000
  0
ACAD_PROXY_OBJECT
  5
67
102
{ACAD_REACTORS
330
47
102
}
330
47
100
AcDbProxyObject
 90
      499
 91
      505
 95
   393239
 70
     0
 93
      225
310
90A3622203D2031272D302200000000000006100000000000000284000
  0
ACAD_PROXY_OBJECT
  5
68
102
{ACAD_REACTORS
330
47
102
}
330
47
100
AcDbProxyObject
 90
      499
 91
      505
 95
   393239
 70
     0
 93
      249
310
90D31272D3022203D2031272D30220000000000000A100000000000000284000
  0
TABLESTYLE
  5
93
102
{ACAD_REACTORS
330
92
102
}
330
92
100
AcDbTableStyle
  3
Standard
 70
     0
 71
     0
 40
0.06
 41
0.06
280
     0
281
     0
  7
Standard
140
0.18
170
     2
 62
     0
 63
     7
283
     0
274
    -2
284
     1
 64
     0
275
    -2
285
     1
 65
     0
276
    -2
286
     1
 66
     0
277
    -2
287
     1
 67
     0
278
    -2
288
     1
 68
     0
279
    -2
289
     1
 69
     0
  7
Standard
140
0.25
170
     5
 62
     0
 63
     7
283
     0
274
    -2
284
     1
 64
     0
275
    -2
285
     1
 65
     0
276
    -2
286
     1
 66
     0
277
    -2
287
     1
 67
     0
278
    -2
288
     1
 68
     0
279
    -2
289
     1
 69
     0
  7
Standard
140
0.18
170
     5
 62
     0
 63
     7
283
     0
274
    -2
284
     1
 64
     0
275
    -2
285
     1
 65
     0
276
    -2
286
     1
 66
     0
277
    -2
287
     1
 67
     0
278
    -2
288
     1
 68
     0
279
    -2
289
     1
 69
     0
  0
DICTIONARYVAR
  5
98
102
{ACAD_REACTORS
330
59
102
}
330
59
100
DictionaryVariables
280
     0
  1
STANDARD
  0
DICTIONARYVAR
  5
3AA
102
{ACAD_REACTORS
330
59
102
}
330
59
100
DictionaryVariables
280
     0
  1
2
  0
ENDSEC
  0
EOF
