  0
SECTION
  2
HEADER
  9
$ACADVER
  1
AC1018
  9
$ACADMAINTVER
 70
    39
  9
$DWGCODEPAGE
  3
ANSI_1252
  9
$LASTSAVEDBY
  1
fottrem
  9
$INSBASE
 10
0.0
 20
0.0
 30
0.0
  9
$EXTMIN
 10
0.1653543307086614
 20
0.1653543307086614
 30
-2.170500000000001
  9
$EXTMAX
 10
37.83464566929133
 20
23.83464566929134
 30
2.170500000000001
  9
$LIMMIN
 10
0.0
 20
0.0
  9
$LIMMAX
 10
38.0
 20
24.0
  9
$ORTHOMODE
 70
     0
  9
$REGENMODE
 70
     1
  9
$FILLMODE
 70
     1
  9
$QTEXTMODE
 70
     0
  9
$MIRRTEXT
 70
     1
  9
$LTSCALE
 40
1.0
  9
$ATTMODE
 70
     1
  9
$TEXTSIZE
 40
0.25
  9
$TRACEWID
 40
0.05
  9
$TEXTSTYLE
  7
Standard
  9
$CLAYER
  8
0
  9
$CELTYPE
  6
ByLayer
  9
$CECOLOR
 62
   256
  9
$CELTSCALE
 40
1.0
  9
$DISPSILH
 70
     0
  9
$DIMSCALE
 40
1.0
  9
$DIMASZ
 40
0.3
  9
$DIMEXO
 40
0.04
  9
$DIMDLI
 40
0.38
  9
$DIMRND
 40
0.0
  9
$DIMDLE
 40
0.0
  9
$DIMEXE
 40
0.3
  9
$DIMTP
 40
0.0
  9
$DIMTM
 40
0.0
  9
$DIMTXT
 40
0.25
  9
$DIMCEN
 40
0.09
  9
$DIMTSZ
 40
0.0
  9
$DIMTOL
 70
     0
  9
$DIMLIM
 70
     0
  9
$DIMTIH
 70
     1
  9
$DIMTOH
 70
     1
  9
$DIMSE1
 70
     0
  9
$DIMSE2
 70
     0
  9
$DIMTAD
 70
     0
  9
$DIMZIN
 70
     1
  9
$DIMBLK
  1

  9
$DIMASO
 70
     1
  9
$DIMSHO
 70
     1
  9
$DIMPOST
  1

  9
$DIMAPOST
  1

  9
$DIMALT
 70
     0
  9
$DIMALTD
 70
     2
  9
$DIMALTF
 40
25.4
  9
$DIMLFAC
 40
1.0
  9
$DIMTOFL
 70
     0
  9
$DIMTVP
 40
0.0
  9
$DIMTIX
 70
     0
  9
$DIMSOXD
 70
     0
  9
$DIMSAH
 70
     0
  9
$DIMBLK1
  1

  9
$DIMBLK2
  1

  9
$DIMSTYLE
  2
Standard
  9
$DIMCLRD
 70
     0
  9
$DIMCLRE
 70
     0
  9
$DIMCLRT
 70
     0
  9
$DIMTFAC
 40
1.0
  9
$DIMGAP
 40
0.125
  9
$DIMJUST
 70
     0
  9
$DIMSD1
 70
     0
  9
$DIMSD2
 70
     0
  9
$DIMTOLJ
 70
     1
  9
$DIMTZIN
 70
     1
  9
$DIMALTZ
 70
     0
  9
$DIMALTTZ
 70
     0
  9
$DIMUPT
 70
     0
  9
$DIMDEC
 70
     2
  9
$DIMTDEC
 70
     2
  9
$DIMALTU
 70
     2
  9
$DIMALTTD
 70
     2
  9
$DIMTXSTY
  7
Standard
  9
$DIMAUNIT
 70
     0
  9
$DIMADEC
 70
     2
  9
$DIMALTRND
 40
0.0
  9
$DIMAZIN
 70
     0
  9
$DIMDSEP
 70
    46
  9
$DIMATFIT
 70
     3
  9
$DIMFRAC
 70
     0
  9
$DIMLDRBLK
  1

  9
$DIMLUNIT
 70
     2
  9
$DIMLWD
 70
    -2
  9
$DIMLWE
 70
    -2
  9
$DIMTMOVE
 70
     0
  9
$LUNITS
 70
     2
  9
$LUPREC
 70
     4
  9
$SKETCHINC
 40
0.1
  9
$FILLETRAD
 40
0.5
  9
$AUNITS
 70
     0
  9
$AUPREC
 70
     2
  9
$MENU
  1
.
  9
$ELEVATION
 40
0.0
  9
$PELEVATION
 40
0.0
  9
$THICKNESS
 40
0.0
  9
$LIMCHECK
 70
     0
  9
$CHAMFERA
 40
0.0
  9
$CHAMFERB
 40
0.0
  9
$CHAMFERC
 40
0.0
  9
$CHAMFERD
 40
0.0
  9
$SKPOLY
 70
     0
  9
$TDCREATE
 40
2453353.550459155
  9
$TDUCREATE
 40
2453353.717125822
  9
$TDUPDATE
 40
2459488.544500567
  9
$TDUUPDATE
 40
2459488.711167234
  9
$TDINDWG
 40
0.0428009375
  9
$TDUSRTIMER
 40
0.0427893634
  9
$USRTIMER
 70
     1
  9
$ANGBASE
 50
0.0
  9
$ANGDIR
 70
     0
  9
$PDMODE
 70
     0
  9
$PDSIZE
 40
-1.0
  9
$PLINEWID
 40
0.0
  9
$SPLFRAME
 70
     0
  9
$SPLINETYPE
 70
     6
  9
$SPLINESEGS
 70
     8
  9
$HANDSEED
  5
469
  9
$SURFTAB1
 70
     6
  9
$SURFTAB2
 70
     6
  9
$SURFTYPE
 70
     6
  9
$SURFU
 70
     6
  9
$SURFV
 70
     6
  9
$UCSBASE
  2

  9
$UCSNAME
  2

  9
$UCSORG
 10
0.0
 20
0.0
 30
0.0
  9
$UCSXDIR
 10
1.0
 20
0.0
 30
0.0
  9
$UCSYDIR
 10
0.0
 20
1.0
 30
0.0
  9
$UCSORTHOREF
  2

  9
$UCSORTHOVIEW
 70
     0
  9
$UCSORGTOP
 10
0.0
 20
0.0
 30
0.0
  9
$UCSORGBOTTOM
 10
0.0
 20
0.0
 30
0.0
  9
$UCSORGLEFT
 10
0.0
 20
0.0
 30
0.0
  9
$UCSORGRIGHT
 10
0.0
 20
0.0
 30
0.0
  9
$UCSORGFRONT
 10
0.0
 20
0.0
 30
0.0
  9
$UCSORGBACK
 10
0.0
 20
0.0
 30
0.0
  9
$PUCSBASE
  2

  9
$PUCSNAME
  2

  9
$PUCSORG
 10
0.0
 20
0.0
 30
0.0
  9
$PUCSXDIR
 10
1.0
 20
0.0
 30
0.0
  9
$PUCSYDIR
 10
0.0
 20
1.0
 30
0.0
  9
$PUCSORTHOREF
  2

  9
$PUCSORTHOVIEW
 70
     0
  9
$PUCSORGTOP
 10
0.0
 20
0.0
 30
0.0
  9
$PUCSORGBOTTOM
 10
0.0
 20
0.0
 30
0.0
  9
$PUCSORGLEFT
 10
0.0
 20
0.0
 30
0.0
  9
$PUCSORGRIGHT
 10
0.0
 20
0.0
 30
0.0
  9
$PUCSORGFRONT
 10
0.0
 20
0.0
 30
0.0
  9
$PUCSORGBACK
 10
0.0
 20
0.0
 30
0.0
  9
$USERI1
 70
     0
  9
$USERI2
 70
     0
  9
$USERI3
 70
     0
  9
$USERI4
 70
     0
  9
$USERI5
 70
     0
  9
$USERR1
 40
0.0
  9
$USERR2
 40
0.0
  9
$USERR3
 40
0.0
  9
$USERR4
 40
0.0
  9
$USERR5
 40
0.0
  9
$WORLDVIEW
 70
     1
  9
$SHADEDGE
 70
     3
  9
$SHADEDIF
 70
    70
  9
$TILEMODE
 70
     1
  9
$MAXACTVP
 70
    64
  9
$PINSBASE
 10
0.0
 20
0.0
 30
0.0
  9
$PLIMCHECK
 70
     0
  9
$PEXTMIN
 10
1.000000000000000E+20
 20
1.000000000000000E+20
 30
1.000000000000000E+20
  9
$PEXTMAX
 10
-1.000000000000000E+20
 20
-1.000000000000000E+20
 30
-1.000000000000000E+20
  9
$PLIMMIN
 10
0.0
 20
0.0
  9
$PLIMMAX
 10
12.0
 20
9.0
  9
$UNITMODE
 70
     0
  9
$VISRETAIN
 70
     1
  9
$PLINEGEN
 70
     0
  9
$PSLTSCALE
 70
     1
  9
$TREEDEPTH
 70
  3020
  9
$CMLSTYLE
  2
Standard
  9
$CMLJUST
 70
     0
  9
$CMLSCALE
 40
1.0
  9
$PROXYGRAPHICS
 70
     1
  9
$MEASUREMENT
 70
     0
  9
$CELWEIGHT
370
    -1
  9
$ENDCAPS
280
     0
  9
$JOINSTYLE
280
     0
  9
$LWDISPLAY
290
     1
  9
$INSUNITS
 70
     1
  9
$HYPERLINKBASE
  1

  9
$STYLESHEET
  1

  9
$XEDIT
290
     0
  9
$CEPSNTYPE
380
     0
  9
$PSTYLEMODE
290
     1
  9
$FINGERPRINTGUID
  2
{eb92069a-044e-465f-8f5a-9e496db77a0b}
  9
$VERSIONGUID
  2
{FAEB1C32-E019-11D5-929B-00C0DF256EC4}
  9
$EXTNAMES
290
     1
  9
$PSVPSCALE
 40
0.0
  9
$OLESTARTUP
290
     0
  9
$SORTENTS
280
   127
  9
$INDEXCTL
280
     0
  9
$HIDETEXT
280
     1
  9
$XCLIPFRAME
290
     0
  9
$HALOGAP
280
     0
  9
$OBSCOLOR
 70
   257
  9
$OBSLTYPE
280
     0
  9
$INTERSECTIONDISPLAY
280
     0
  9
$INTERSECTIONCOLOR
 70
   257
  9
$DIMASSOC
280
     2
  9
$PROJECTNAME
  1

  0
ENDSEC
  0
SECTION
  2
CLASSES
  0
CLASS
  1
ACDBDICTIONARYWDFLT
  2
AcDbDictionaryWithDefault
  3
ObjectDBX Classes
 90
        0
 91
        3
280
     0
281
     0
  0
CLASS
  1
ACDBPLACEHOLDER
  2
AcDbPlaceHolder
  3
ObjectDBX Classes
 90
        0
 91
        1
280
     0
281
     0
  0
CLASS
  1
LAYOUT
  2
AcDbLayout
  3
ObjectDBX Classes
 90
        0
 91
        1
280
     0
281
     0
  0
CLASS
  1
DICTIONARYVAR
  2
AcDbDictionaryVar
  3
ObjectDBX Classes
 90
        0
 91
        3
280
     0
281
     0
  0
CLASS
  1
TABLESTYLE
  2
AcDbTableStyle
  3
ObjectDBX Classes
 90
     2047
 91
        3
280
     0
281
     0
  0
CLASS
  1
SCALE
  2
AcDbScale
  3
ObjectDBX Classes
 90
     1153
 91
       67
280
     1
281
     0
  0
ENDSEC
  0
SECTION
  2
TABLES
  0
TABLE
  2
VPORT
  5
8
330
0
100
AcDbSymbolTable
 70
     2
  0
VPORT
  5
97
330
8
100
AcDbSymbolTableRecord
100
AcDbViewportTableRecord
  2
*Active
 70
     0
 10
0.0
 20
0.0
 11
1.0
 21
1.0
 12
19.0
 22
12.0
 13
0.0
 23
0.0
 14
0.5
 24
0.5
 15
0.5
 25
0.5
 16
0.0
 26
0.0
 36
1.0
 17
0.0
 27
0.0
 37
0.0
 40
24.14267716535433
 41
1.583333333333333
 42
50.0
 43
0.0
 44
0.0
 50
0.0
 51
0.0
 71
    16
 72
  2000
 73
     1
 74
     1
 75
     0
 76
     0
 77
     0
 78
     0
281
     0
 65
     0
110
0.0
120
0.0
130
0.0
111
1.0
121
0.0
131
0.0
112
0.0
122
1.0
132
0.0
 79
     0
146
0.0
  0
ENDTAB
  0
TABLE
  2
LTYPE
  5
5
330
0
100
AcDbSymbolTable
 70
     8
  0
LTYPE
  5
14
330
5
100
AcDbSymbolTableRecord
100
AcDbLinetypeTableRecord
  2
ByBlock
 70
     0
  3

 72
    65
 73
     0
 40
0.0
  0
LTYPE
  5
15
330
5
100
AcDbSymbolTableRecord
100
AcDbLinetypeTableRecord
  2
ByLayer
 70
     0
  3

 72
    65
 73
     0
 40
0.0
  0
LTYPE
  5
16
330
5
100
AcDbSymbolTableRecord
100
AcDbLinetypeTableRecord
  2
Continuous
 70
     0
  3
Solid line
 72
    65
 73
     0
 40
0.0
  0
LTYPE
  5
448
330
5
100
AcDbSymbolTableRecord
100
AcDbLinetypeTableRecord
  2
SLD-Solid
 70
     0
  3
SolidWorks Line Style
 72
    65
 73
     0
 40
0.0
  0
LTYPE
  5
449
330
5
100
AcDbSymbolTableRecord
100
AcDbLinetypeTableRecord
  2
SLD-Dashed
 70
     0
  3
SolidWorks Line Style
 72
    65
 73
     2
 40
0.075
 49
0.05
 74
     4
 75
     0
340
0
 46
1.0
 50
0.0
 44
0.0
 45
0.0
 49
-0.025
 74
     4
 75
     0
340
0
 46
1.0
 50
0.0
 44
0.0
 45
0.0
  0
LTYPE
  5
44A
330
5
100
AcDbSymbolTableRecord
100
AcDbLinetypeTableRecord
  2
SLD-Phantom
 70
     0
  3
SolidWorks Line Style
 72
    65
 73
     6
 40
0.4999999999999999
 49
0.25
 74
     4
 75
     0
340
0
 46
1.0
 50
0.0
 44
0.0
 45
0.0
 49
-0.05
 74
     4
 75
     0
340
0
 46
1.0
 50
0.0
 44
0.0
 45
0.0
 49
0.05
 74
     4
 75
     0
340
0
 46
1.0
 50
0.0
 44
0.0
 45
0.0
 49
-0.05
 74
     4
 75
     0
340
0
 46
1.0
 50
0.0
 44
0.0
 45
0.0
 49
0.05
 74
     4
 75
     0
340
0
 46
1.0
 50
0.0
 44
0.0
 45
0.0
 49
-0.05
 74
     4
 75
     0
340
0
 46
1.0
 50
0.0
 44
0.0
 45
0.0
  0
LTYPE
  5
44B
330
5
100
AcDbSymbolTableRecord
100
AcDbLinetypeTableRecord
  2
SLD-Chain
 70
     0
  3
SolidWorks Line Style
 72
    65
 73
     4
 40
0.4
 49
0.25
 74
     4
 75
     0
340
0
 46
1.0
 50
0.0
 44
0.0
 45
0.0
 49
-0.05
 74
     4
 75
     0
340
0
 46
1.0
 50
0.0
 44
0.0
 45
0.0
 49
0.05
 74
     4
 75
     0
340
0
 46
1.0
 50
0.0
 44
0.0
 45
0.0
 49
-0.05
 74
     4
 75
     0
340
0
 46
1.0
 50
0.0
 44
0.0
 45
0.0
  0
LTYPE
  5
44C
330
5
100
AcDbSymbolTableRecord
100
AcDbLinetypeTableRecord
  2
SLD-Center
 70
     0
  3
SolidWorks Line Style
 72
    65
 73
     4
 40
0.7500000000000002
 49
0.6000000000000001
 74
     4
 75
     0
340
0
 46
1.0
 50
0.0
 44
0.0
 45
0.0
 49
-0.05
 74
     4
 75
     0
340
0
 46
1.0
 50
0.0
 44
0.0
 45
0.0
 49
0.05
 74
     4
 75
     0
340
0
 46
1.0
 50
0.0
 44
0.0
 45
0.0
 49
-0.05
 74
     4
 75
     0
340
0
 46
1.0
 50
0.0
 44
0.0
 45
0.0
  0
LTYPE
  5
44D
330
5
100
AcDbSymbolTableRecord
100
AcDbLinetypeTableRecord
  2
SLD-Stitch
 70
     0
  3
SolidWorks Line Style
 72
    65
 73
     2
 40
0.025
 49
0.0
 74
     4
 75
     0
340
0
 46
1.0
 50
0.0
 44
0.0
 45
0.0
 49
-0.025
 74
     4
 75
     0
340
0
 46
1.0
 50
0.0
 44
0.0
 45
0.0
  0
LTYPE
  5
44E
330
5
100
AcDbSymbolTableRecord
100
AcDbLinetypeTableRecord
  2
SLD-Thin-Thick-Chain
 70
     0
  3
SolidWorks Line Style
 72
    65
 73
     4
 40
0.4
 49
0.25
 74
     4
 75
     0
340
0
 46
1.0
 50
0.0
 44
0.0
 45
0.0
 49
-0.05
 74
     4
 75
     0
340
0
 46
1.0
 50
0.0
 44
0.0
 45
0.0
 49
0.05
 74
     4
 75
     0
340
0
 46
1.0
 50
0.0
 44
0.0
 45
0.0
 49
-0.05
 74
     4
 75
     0
340
0
 46
1.0
 50
0.0
 44
0.0
 45
0.0
  0
ENDTAB
  0
TABLE
  2
LAYER
  5
2
330
0
100
AcDbSymbolTable
 70
     6
  0
LAYER
  5
10
330
2
100
AcDbSymbolTableRecord
100
AcDbLayerTableRecord
  2
0
 70
     0
 62
     7
  6
Continuous
370
    -3
390
F
  0
LAYER
  5
425
330
2
100
AcDbSymbolTableRecord
100
AcDbLayerTableRecord
  2
FORMAT
 70
     0
 62
     7
  6
SLD-Solid
370
    -3
390
F
  0
LAYER
  5
426
330
2
100
AcDbSymbolTableRecord
100
AcDbLayerTableRecord
  2
NOTES
 70
     0
 62
     1
  6
SLD-Solid
370
    -3
390
F
  0
LAYER
  5
77
330
2
100
AcDbSymbolTableRecord
100
AcDbLayerTableRecord
  2
OBJECT
 70
     0
 62
     7
  6
SLD-Solid
370
    -3
390
F
  0
LAYER
  5
78
330
2
100
AcDbSymbolTableRecord
100
AcDbLayerTableRecord
  2
DIMS
 70
     0
 62
     5
  6
SLD-Solid
370
    -3
390
F
  0
LAYER
  5
79
330
2
100
AcDbSymbolTableRecord
100
AcDbLayerTableRecord
  2
TITLE
 70
     0
 62
     8
  6
SLD-Solid
370
    -3
390
F
  0
ENDTAB
  0
TABLE
  2
STYLE
  5
3
330
0
100
AcDbSymbolTable
 70
     5
  0
STYLE
  5
11
330
3
100
AcDbSymbolTableRecord
100
AcDbTextStyleTableRecord
  2
Standard
 70
     0
 40
0.0
 41
1.0
 50
0.0
 71
     0
 42
0.25
  3
GOTHIC.TTF
  4

1001
ACAD
1000
CENTURY GOTHIC
1071
       34
  0
STYLE
  5
C5
330
3
100
AcDbSymbolTableRecord
100
AcDbTextStyleTableRecord
  2
SLDTEXTSTYLE0
 70
     0
 40
0.0
 41
0.948
 50
0.0
 71
     0
 42
0.25
  3
ARIAL.TTF
  4

1001
ACAD
1000
Arial
1071
      290
  0
STYLE
  5
C9
330
3
100
AcDbSymbolTableRecord
100
AcDbTextStyleTableRecord
  2
SLDTEXTSTYLE1
 70
     0
 40
0.0
 41
0.913
 50
0.0
 71
     0
 42
0.25
  3
GOTHIC.TTF
  4

1001
ACAD
1000
Century Gothic
1071
      290
  0
STYLE
  5
D8
330
3
100
AcDbSymbolTableRecord
100
AcDbTextStyleTableRecord
  2
SLDTEXTSTYLE2
 70
     0
 40
0.0
 41
0.87
 50
0.0
 71
     0
 42
0.25
  3
ARIALNB.TTF
  4

1001
ACAD
1000
Arial Narrow
1071
 33554722
  0
STYLE
  5
DA
330
3
100
AcDbSymbolTableRecord
100
AcDbTextStyleTableRecord
  2
SLDTEXTSTYLE3
 70
     0
 40
0.0
 41
0.87
 50
0.0
 71
     0
 42
0.25
  3
ARIALN.TTF
  4

1001
ACAD
1000
Arial Narrow
1071
      290
  0
ENDTAB
  0
TABLE
  2
VIEW
  5
6
330
0
100
AcDbSymbolTable
 70
     0
  0
ENDTAB
  0
TABLE
  2
UCS
  5
7
330
0
100
AcDbSymbolTable
 70
     0
  0
ENDTAB
  0
TABLE
  2
APPID
  5
9
330
0
100
AcDbSymbolTable
 70
     1
  0
APPID
  5
12
330
9
100
AcDbSymbolTableRecord
100
AcDbRegAppTableRecord
  2
ACAD
 70
     0
  0
ENDTAB
  0
TABLE
  2
DIMSTYLE
  5
A
330
0
100
AcDbSymbolTable
 70
     4
100
AcDbDimStyleTable
  0
DIMSTYLE
105
27
330
A
100
AcDbSymbolTableRecord
100
AcDbDimStyleTableRecord
  2
Standard
 70
     0
340
11
  0
DIMSTYLE
105
1F5
102
{ACAD_REACTORS
330
1F4
330
20A
330
255
330
35A
330
376
102
}
330
A
100
AcDbSymbolTableRecord
100
AcDbDimStyleTableRecord
  2
SLDDIMSTYLE0
 70
     0
 41
0.3
 44
0.0
 45
0.000000001
 78
    12
 79
     3
140
0.25
147
0.0625
173
     1
271
     6
272
     2
276
     2
277
     5
284
    12
340
C9
341
44F
343
44F
344
44F
  0
DIMSTYLE
105
36A
102
{ACAD_REACTORS
330
369
102
}
330
A
100
AcDbSymbolTableRecord
100
AcDbDimStyleTableRecord
  2
SLDDIMSTYLE1
 70
     0
 41
0.3
 44
0.0
 45
0.000000001
 78
    12
 79
     3
140
0.25
141
0.0
147
0.0625
173
     1
271
     2
272
     2
276
     2
277
     5
284
    12
340
C9
341
44F
343
44F
344
44F
  0
DIMSTYLE
105
387
330
A
100
AcDbSymbolTableRecord
100
AcDbDimStyleTableRecord
  2
SLDDIMSTYLE2
 70
     0
 41
0.3
 44
0.0
 45
0.000000001
146
0.3
147
0.0
173
     1
271
     0
272
     0
276
     2
277
     5
340
11
341
44F
343
44F
344
44F
  0
ENDTAB
  0
TABLE
  2
BLOCK_RECORD
  5
1
330
0
100
AcDbSymbolTable
 70
    10
  0
BLOCK_RECORD
  5
1F
330
1
100
AcDbSymbolTableRecord
100
AcDbBlockTableRecord
  2
*Model_Space
340
22
  0
BLOCK_RECORD
  5
73
330
1
100
AcDbSymbolTableRecord
100
AcDbBlockTableRecord
  2
*Paper_Space
340
74
  0
BLOCK_RECORD
  5
44F
330
1
100
AcDbSymbolTableRecord
100
AcDbBlockTableRecord
  2
_Open90
340
0
102
{BLKREFS
331
1FF
331
200
331
20E
331
20F
331
259
331
25A
331
35E
331
35F
331
36E
331
37A
331
37B
102
}
  0
BLOCK_RECORD
  5
23
330
1
100
AcDbSymbolTableRecord
100
AcDbBlockTableRecord
  2
*Paper_Space1
340
26
  0
BLOCK_RECORD
  5
CF
330
1
100
AcDbSymbolTableRecord
100
AcDbBlockTableRecord
  2
SW_NOTE_0
340
0
  0
BLOCK_RECORD
  5
D5
330
1
100
AcDbSymbolTableRecord
100
AcDbBlockTableRecord
  2
SW_NOTE_0_1
340
0
102
{BLKREFS
331
DE
102
}
  0
BLOCK_RECORD
  5
1FC
330
1
100
AcDbSymbolTableRecord
100
AcDbBlockTableRecord
  2
_D
340
0
  0
BLOCK_RECORD
  5
20B
330
1
100
AcDbSymbolTableRecord
100
AcDbBlockTableRecord
  2
_D_1
340
0
  0
BLOCK_RECORD
  5
256
330
1
100
AcDbSymbolTableRecord
100
AcDbBlockTableRecord
  2
_D_2
340
0
  0
BLOCK_RECORD
  5
35B
330
1
100
AcDbSymbolTableRecord
100
AcDbBlockTableRecord
  2
_D_3
340
0
  0
BLOCK_RECORD
  5
36B
330
1
100
AcDbSymbolTableRecord
100
AcDbBlockTableRecord
  2
_D_4
340
0
  0
BLOCK_RECORD
  5
377
330
1
100
AcDbSymbolTableRecord
100
AcDbBlockTableRecord
  2
_D_5
340
0
  0
ENDTAB
  0
ENDSEC
  0
SECTION
  2
BLOCKS
  0
BLOCK
  5
20
330
1F
100
AcDbEntity
  8
0
100
AcDbBlockBegin
  2
*Model_Space
 70
     0
 71
     0
 10
0.0
 20
0.0
 30
0.0
  3
*Model_Space
  1

  0
ENDBLK
  5
21
330
1F
100
AcDbEntity
  8
0
100
AcDbBlockEnd
  0
BLOCK
  5
75
330
73
100
AcDbEntity
 67
     1
  8
0
100
AcDbBlockBegin
  2
*Paper_Space
 70
     0
 71
     0
 10
0.0
 20
0.0
 30
0.0
  3
*Paper_Space
  1

  0
ENDBLK
  5
76
330
73
100
AcDbEntity
 67
     1
  8
0
100
AcDbBlockEnd
  0
BLOCK
  5
450
330
44F
100
AcDbEntity
  8
0
100
AcDbBlockBegin
  2
_Open90
 70
     0
 71
     0
 10
0.0
 20
0.0
 30
0.0
  3
_Open90
  1

  0
LINE
  5
1F9
330
44F
100
AcDbEntity
  8
0
  6
ByBlock
 62
     0
370
    -2
100
AcDbLine
 10
-0.5
 20
0.5
 30
0.0
 11
0.0
 21
0.0
 31
0.0
  0
LINE
  5
1FA
330
44F
100
AcDbEntity
  8
0
  6
ByBlock
 62
     0
370
    -2
100
AcDbLine
 10
0.0
 20
0.0
 30
0.0
 11
-0.5
 21
-0.5
 31
0.0
  0
LINE
  5
1FB
330
44F
100
AcDbEntity
  8
0
  6
ByBlock
 62
     0
370
    -2
100
AcDbLine
 10
0.0
 20
0.0
 30
0.0
 11
-1.0
 21
0.0
 31
0.0
  0
ENDBLK
  5
451
330
44F
100
AcDbEntity
  8
0
100
AcDbBlockEnd
  0
BLOCK
  5
457
330
23
100
AcDbEntity
  8
0
100
AcDbBlockBegin
  2
*Paper_Space1
 70
     0
 71
     0
 10
0.0
 20
0.0
 30
0.0
  3
*Paper_Space1
  1

  0
ENDBLK
  5
458
330
23
100
AcDbEntity
  8
0
100
AcDbBlockEnd
  0
BLOCK
  5
459
330
CF
100
AcDbEntity
  8
0
100
AcDbBlockBegin
  2
SW_NOTE_0
 70
     0
 71
     0
 10
0.0
 20
0.0
 30
0.0
  3
SW_NOTE_0
  1

  0
MTEXT
  5
D2
330
CF
100
AcDbEntity
  8
NOTES
 62
     0
100
AcDbMText
 10
0.0
 20
0.3759780907668229
 30
0.0
 40
0.2916666666666666
 41
0.0
 71
     1
 72
     1
  1
FROST PRODUCTS LTD.
  7
SLDTEXTSTYLE0
 73
     1
 44
1.0
  0
MTEXT
  5
D3
330
CF
100
AcDbEntity
  8
NOTES
 62
     0
100
AcDbMText
 10
0.0
 20
-0.0495142708586375
 30
0.0
 40
0.2291666666666666
 41
0.0
 71
     1
 72
     1
  1
5280 JOHN LUCUS DRIVE, BURLINGTON, ON, L7L 5Z9
  7
SLDTEXTSTYLE0
 73
     1
 44
1.0
  0
ENDBLK
  5
45A
330
CF
100
AcDbEntity
  8
0
100
AcDbBlockEnd
  0
BLOCK
  5
45B
330
D5
100
AcDbEntity
  8
0
100
AcDbBlockBegin
  2
SW_NOTE_0_1
 70
     0
 71
     0
 10
0.0
 20
0.0
 30
0.0
  3
SW_NOTE_0_1
  1

  0
MTEXT
  5
D9
330
D5
100
AcDbEntity
  8
NOTES
 62
     0
100
AcDbMText
 10
0.0
 20
0.2381282770514712
 30
0.0
 40
0.1847290640394089
 41
0.0
 71
     1
 72
     1
  1
PROPRIETARY AND CONFIDENTIAL
  7
SLDTEXTSTYLE2
 73
     1
 44
1.0
  0
MTEXT
  5
DB
330
D5
100
AcDbEntity
  8
NOTES
 62
     0
100
AcDbMText
 10
0.0
 20
-0.0504364795553608
 30
0.0
 40
0.25
 41
0.0
 71
     1
 72
     1
  1
THE INFORMATION CONTAINED IN THIS DRAWING IS THE SOLE PROPERTY OF 
  7
SLDTEXTSTYLE3
 73
     1
 44
1.0
  0
MTEXT
  5
DC
330
D5
100
AcDbEntity
  8
NOTES
 62
     0
100
AcDbMText
 10
0.0
 20
-0.4231398940537119
 30
0.0
 40
0.25
 41
0.0
 71
     1
 72
     1
  1
FROST PRODUCTS LTD.  ANY REPRODUCTION IN PART OR AS A WHOLE WITHOUT 
  7
SLDTEXTSTYLE3
 73
     1
 44
1.0
  0
MTEXT
  5
DD
330
D5
100
AcDbEntity
  8
NOTES
 62
     0
100
AcDbMText
 10
0.0
 20
-0.7958433085520636
 30
0.0
 40
0.25
 41
0.0
 71
     1
 72
     1
  1
THE WRITTEN PERMISSION OF FROST PRODUCTS LTD. IS PROHIBITED.
  7
SLDTEXTSTYLE3
 73
     1
 44
1.0
  0
ENDBLK
  5
45C
330
D5
100
AcDbEntity
  8
0
100
AcDbBlockEnd
  0
BLOCK
  5
45D
330
1FC
100
AcDbEntity
  8
0
100
AcDbBlockBegin
  2
_D
 70
     0
 71
     0
 10
0.0
 20
0.0
 30
0.0
  3
_D
  1

  0
INSERT
  5
1FF
330
1FC
100
AcDbEntity
  8
DIMS
100
AcDbBlockReference
  2
_Open90
 10
12.98431764562011
 20
7.808490007627118
 30
-2.170500000000001
 41
0.3
 42
0.3
 50
270.0000000000004
  0
INSERT
  5
200
330
1FC
100
AcDbEntity
  8
DIMS
100
AcDbBlockReference
  2
_Open90
 10
12.98431764562011
 20
10.50349000762712
 30
-2.170500000000001
 41
0.3
 42
0.3
 50
90.00000000000041
  0
LINE
  5
201
330
1FC
100
AcDbEntity
  8
DIMS
100
AcDbLine
 10
12.89612318528337
 20
9.172023337218402
 30
0.0
 11
13.15410931000564
 21
9.172023337218402
 31
0.0
  0
LINE
  5
202
330
1FC
100
AcDbEntity
  8
DIMS
100
AcDbLine
 10
11.98913889373605
 20
7.808490007627118
 30
0.0
 11
13.28431764562011
 21
7.808490007627118
 31
0.0
  0
LINE
  5
203
330
1FC
100
AcDbEntity
  8
DIMS
100
AcDbLine
 10
11.98913889373605
 20
10.50349000762712
 30
0.0
 11
13.28431764562011
 21
10.50349000762712
 31
0.0
  0
LINE
  5
204
330
1FC
100
AcDbEntity
  8
DIMS
100
AcDbLine
 10
12.98431764562011
 20
7.808490007627118
 30
0.0
 11
12.98431764562011
 21
8.819453911380478
 31
0.0
  0
LINE
  5
205
330
1FC
100
AcDbEntity
  8
DIMS
100
AcDbLine
 10
12.98431764562011
 20
10.50349000762712
 30
0.0
 11
12.98431764562011
 21
9.473308064668172
 31
0.0
  0
MTEXT
  5
206
330
1FC
100
AcDbEntity
  8
DIMS
100
AcDbMText
 10
12.67476901155234
 20
9.28672386743409
 30
0.0
 40
0.25
 41
0.0
 71
     1
 72
     1
  1
2
  7
SLDTEXTSTYLE1
 73
     1
 44
1.0
  0
MTEXT
  5
207
330
1FC
100
AcDbEntity
  8
DIMS
100
AcDbMText
 10
12.93275513627461
 20
9.469380116956842
 30
0.0
 40
0.25
 41
0.0
 71
     1
 72
     1
  1
3
  7
SLDTEXTSTYLE1
 73
     1
 44
1.0
  0
MTEXT
  5
208
330
1FC
100
AcDbEntity
  8
DIMS
100
AcDbMText
 10
12.93275513627461
 20
9.138789827682823
 30
0.0
 40
0.25
 41
0.0
 71
     1
 72
     1
  1
4
  7
SLDTEXTSTYLE1
 73
     1
 44
1.0
  0
MTEXT
  5
209
330
1FC
100
AcDbEntity
  8
DIMS
100
AcDbMText
 10
13.19074126099689
 20
9.28672386743409
 30
0.0
 40
0.25
 41
0.0
 71
     1
 72
     1
  1
"
  7
SLDTEXTSTYLE1
 73
     1
 44
1.0
  0
ENDBLK
  5
45E
330
1FC
100
AcDbEntity
  8
0
100
AcDbBlockEnd
  0
BLOCK
  5
45F
330
20B
100
AcDbEntity
  8
0
100
AcDbBlockBegin
  2
_D_1
 70
     0
 71
     0
 10
0.0
 20
0.0
 30
0.0
  3
_D_1
  1

  0
INSERT
  5
20E
330
20B
100
AcDbEntity
  8
DIMS
100
AcDbBlockReference
  2
_Open90
 10
12.11817591333664
 20
11.13341126746962
 30
-2.170500000000001
 41
0.3
 42
0.3
 50
0.0000000000004071
  0
INSERT
  5
20F
330
20B
100
AcDbEntity
  8
DIMS
100
AcDbBlockReference
  2
_Open90
 10
6.223175913336642
 20
11.13341126746963
 30
-2.170500000000001
 41
0.3
 42
0.3
 50
180.0000000000004
  0
LINE
  5
210
330
20B
100
AcDbEntity
  8
DIMS
100
AcDbLine
 10
9.136847626315982
 20
11.15905361666369
 30
0.0
 11
9.394833751038254
 21
11.15905361666369
 31
0.0
  0
LINE
  5
211
330
20B
100
AcDbEntity
  8
DIMS
100
AcDbLine
 10
12.11817591333664
 20
10.37445298802653
 30
0.0
 11
12.11817591333664
 21
11.43341126746962
 31
0.0
  0
LINE
  5
212
330
20B
100
AcDbEntity
  8
DIMS
100
AcDbLine
 10
6.223175913336642
 20
10.37445298802653
 30
0.0
 11
6.223175913336642
 21
11.43341126746963
 31
0.0
  0
LINE
  5
213
330
20B
100
AcDbEntity
  8
DIMS
100
AcDbLine
 10
12.11817591333664
 20
11.13341126746962
 30
0.0
 11
9.534590720720482
 21
11.13341126746962
 31
0.0
  0
LINE
  5
214
330
20B
100
AcDbEntity
  8
DIMS
100
AcDbLine
 10
6.223175913336642
 20
11.13341126746963
 30
0.0
 11
8.915493452584952
 21
11.13341126746962
 31
0.0
  0
MTEXT
  5
215
330
20B
100
AcDbEntity
  8
DIMS
100
AcDbMText
 10
8.915493452584952
 20
11.27375414687937
 30
0.0
 40
0.25
 41
0.0
 71
     1
 72
     1
  1
5
  7
SLDTEXTSTYLE1
 73
     1
 44
1.0
  0
MTEXT
  5
216
330
20B
100
AcDbEntity
  8
DIMS
100
AcDbMText
 10
9.173479577307225
 20
11.45641039640212
 30
0.0
 40
0.25
 41
0.0
 71
     1
 72
     1
  1
7
  7
SLDTEXTSTYLE1
 73
     1
 44
1.0
  0
MTEXT
  5
217
330
20B
100
AcDbEntity
  8
DIMS
100
AcDbMText
 10
9.173479577307225
 20
11.12582010712811
 30
0.0
 40
0.25
 41
0.0
 71
     1
 72
     1
  1
8
  7
SLDTEXTSTYLE1
 73
     1
 44
1.0
  0
MTEXT
  5
218
330
20B
100
AcDbEntity
  8
DIMS
100
AcDbMText
 10
9.431465702029497
 20
11.27375414687937
 30
0.0
 40
0.25
 41
0.0
 71
     1
 72
     1
  1
"
  7
SLDTEXTSTYLE1
 73
     1
 44
1.0
  0
ENDBLK
  5
460
330
20B
100
AcDbEntity
  8
0
100
AcDbBlockEnd
  0
BLOCK
  5
461
330
256
100
AcDbEntity
  8
0
100
AcDbBlockBegin
  2
_D_2
 70
     0
 71
     0
 10
0.0
 20
0.0
 30
0.0
  3
_D_2
  1

  0
INSERT
  5
259
330
256
100
AcDbEntity
  8
DIMS
100
AcDbBlockReference
  2
_Open90
 10
16.32515446848444
 20
11.13341126746964
 30
0.0000000000000076
 41
0.3
 42
0.3
 50
180.0000000000004
  0
INSERT
  5
25A
330
256
100
AcDbEntity
  8
DIMS
100
AcDbBlockReference
  2
_Open90
 10
20.66615446848443
 20
11.13341126746964
 30
0.0000000000000076
 41
0.3
 42
0.3
 50
0.0000000000004071
  0
LINE
  5
25B
330
256
100
AcDbEntity
  8
DIMS
100
AcDbLine
 10
18.26317764215147
 20
11.1590536166637
 30
0.0
 11
18.52116376687374
 21
11.1590536166637
 31
0.0
  0
LINE
  5
25C
330
256
100
AcDbEntity
  8
DIMS
100
AcDbLine
 10
16.32515446848444
 20
9.195990007627117
 30
0.0
 11
16.32515446848444
 21
11.43341126746964
 31
0.0
  0
LINE
  5
25D
330
256
100
AcDbEntity
  8
DIMS
100
AcDbLine
 10
20.66615446848443
 20
10.37445298802653
 30
0.0
 11
20.66615446848443
 21
11.43341126746964
 31
0.0
  0
LINE
  5
25E
330
256
100
AcDbEntity
  8
DIMS
100
AcDbLine
 10
16.32515446848444
 20
11.13341126746964
 30
0.0
 11
18.04182346842044
 21
11.13341126746964
 31
0.0
  0
LINE
  5
25F
330
256
100
AcDbEntity
  8
DIMS
100
AcDbLine
 10
20.66615446848443
 20
11.13341126746964
 30
0.0
 11
18.66092073655597
 21
11.13341126746964
 31
0.0
  0
MTEXT
  5
260
330
256
100
AcDbEntity
  8
DIMS
100
AcDbMText
 10
18.04182346842044
 20
11.27375414687938
 30
0.0
 40
0.25
 41
0.0
 71
     1
 72
     1
  1
4
  7
SLDTEXTSTYLE1
 73
     1
 44
1.0
  0
MTEXT
  5
261
330
256
100
AcDbEntity
  8
DIMS
100
AcDbMText
 10
18.29980959314272
 20
11.45641039640213
 30
0.0
 40
0.25
 41
0.0
 71
     1
 72
     1
  1
3
  7
SLDTEXTSTYLE1
 73
     1
 44
1.0
  0
MTEXT
  5
262
330
256
100
AcDbEntity
  8
DIMS
100
AcDbMText
 10
18.29980959314272
 20
11.12582010712812
 30
0.0
 40
0.25
 41
0.0
 71
     1
 72
     1
  1
8
  7
SLDTEXTSTYLE1
 73
     1
 44
1.0
  0
MTEXT
  5
263
330
256
100
AcDbEntity
  8
DIMS
100
AcDbMText
 10
18.55779571786499
 20
11.27375414687938
 30
0.0
 40
0.25
 41
0.0
 71
     1
 72
     1
  1
"
  7
SLDTEXTSTYLE1
 73
     1
 44
1.0
  0
ENDBLK
  5
462
330
256
100
AcDbEntity
  8
0
100
AcDbBlockEnd
  0
BLOCK
  5
463
330
35B
100
AcDbEntity
  8
0
100
AcDbBlockBegin
  2
_D_3
 70
     0
 71
     0
 10
0.0
 20
0.0
 30
0.0
  3
_D_3
  1

  0
INSERT
  5
35E
330
35B
100
AcDbEntity
  8
DIMS
100
AcDbBlockReference
  2
_Open90
 10
26.30111440334504
 20
10.89719079502871
 30
2.170500000000001
 41
0.3
 42
0.3
 50
180.0000000000004
  0
INSERT
  5
35F
330
35B
100
AcDbEntity
  8
DIMS
100
AcDbBlockReference
  2
_Open90
 10
29.99411440334504
 20
10.89719079502871
 30
2.170500000000001
 41
0.3
 42
0.3
 50
0.0000000000004071
  0
LINE
  5
360
330
35B
100
AcDbEntity
  8
DIMS
100
AcDbLine
 10
28.21594529093909
 20
10.92283314422277
 30
0.0
 11
28.47393141566136
 21
10.92283314422277
 31
0.0
  0
LINE
  5
361
330
35B
100
AcDbEntity
  8
DIMS
100
AcDbLine
 10
26.30111440334504
 20
9.193490007627117
 30
0.0
 11
26.30111440334504
 21
11.19719079502871
 31
0.0
  0
LINE
  5
362
330
35B
100
AcDbEntity
  8
DIMS
100
AcDbLine
 10
29.99411440334504
 20
9.293490007627117
 30
0.0
 11
29.99411440334504
 21
11.19719079502871
 31
0.0
  0
LINE
  5
363
330
35B
100
AcDbEntity
  8
DIMS
100
AcDbLine
 10
26.30111440334504
 20
10.89719079502871
 30
0.0
 11
27.99459111720806
 21
10.89719079502871
 31
0.0
  0
LINE
  5
364
330
35B
100
AcDbEntity
  8
DIMS
100
AcDbLine
 10
29.99411440334504
 20
10.89719079502871
 30
0.0
 11
28.61368838534359
 21
10.89719079502871
 31
0.0
  0
MTEXT
  5
365
330
35B
100
AcDbEntity
  8
DIMS
100
AcDbMText
 10
27.99459111720806
 20
11.03753367443846
 30
0.0
 40
0.25
 41
0.0
 71
     1
 72
     1
  1
3
  7
SLDTEXTSTYLE1
 73
     1
 44
1.0
  0
MTEXT
  5
366
330
35B
100
AcDbEntity
  8
DIMS
100
AcDbMText
 10
28.25257724193033
 20
11.22018992396121
 30
0.0
 40
0.25
 41
0.0
 71
     1
 72
     1
  1
3
  7
SLDTEXTSTYLE1
 73
     1
 44
1.0
  0
MTEXT
  5
367
330
35B
100
AcDbEntity
  8
DIMS
100
AcDbMText
 10
28.25257724193033
 20
10.88959963468719
 30
0.0
 40
0.25
 41
0.0
 71
     1
 72
     1
  1
4
  7
SLDTEXTSTYLE1
 73
     1
 44
1.0
  0
MTEXT
  5
368
330
35B
100
AcDbEntity
  8
DIMS
100
AcDbMText
 10
28.5105633666526
 20
11.03753367443846
 30
0.0
 40
0.25
 41
0.0
 71
     1
 72
     1
  1
"
  7
SLDTEXTSTYLE1
 73
     1
 44
1.0
  0
ENDBLK
  5
464
330
35B
100
AcDbEntity
  8
0
100
AcDbBlockEnd
  0
BLOCK
  5
465
330
36B
100
AcDbEntity
  8
0
100
AcDbBlockBegin
  2
_D_4
 70
     0
 71
     0
 10
0.0
 20
0.0
 30
0.0
  3
_D_4
  1

  0
INSERT
  5
36E
330
36B
100
AcDbEntity
  8
DIMS
100
AcDbBlockReference
  2
_Open90
 10
30.08071694372348
 20
9.203490007627115
 30
2.170500000000001
 41
0.3
 42
0.3
 50
210.0000000000004
  0
LINE
  5
36F
330
36B
100
AcDbEntity
  8
DIMS
100
AcDbLine
 10
32.05815266710838
 20
9.987639281377334
 30
0.0
 11
32.50086101457045
 21
9.987639281377334
 31
0.0
  0
LINE
  5
370
330
36B
100
AcDbEntity
  8
DIMS
100
AcDbLine
 10
30.08071694372348
 20
9.203490007627115
 30
0.0
 11
31.39448947494755
 21
9.961996932183274
 31
0.0
  0
LINE
  5
371
330
36B
100
AcDbEntity
  8
DIMS
100
AcDbLine
 10
31.39448947494755
 20
9.961996932183274
 30
0.0
 11
31.64448947494755
 21
9.961996932183274
 31
0.0
  0
MTEXT
  5
372
330
36B
100
AcDbEntity
  8
DIMS
100
AcDbMText
 10
31.64448947494754
 20
10.09852036696557
 30
0.0
 40
0.25
 41
0.0
 71
     1
 72
     1
  1
%%c
  7
SLDTEXTSTYLE1
 73
     1
 44
1.0
  0
MTEXT
  5
373
330
36B
100
AcDbEntity
  8
DIMS
100
AcDbMText
 10
32.18714572946952
 20
10.28499606111577
 30
0.0
 40
0.25
 41
0.0
 71
     1
 72
     1
  1
3
  7
SLDTEXTSTYLE1
 73
     1
 44
1.0
  0
MTEXT
  5
374
330
36B
100
AcDbEntity
  8
DIMS
100
AcDbMText
 10
32.09478461809962
 20
9.954405771841754
 30
0.0
 40
0.25
 41
0.0
 71
     1
 72
     1
  1
16
  7
SLDTEXTSTYLE1
 73
     1
 44
1.0
  0
MTEXT
  5
375
330
36B
100
AcDbEntity
  8
DIMS
100
AcDbMText
 10
32.53749296556169
 20
10.10233981159302
 30
0.0
 40
0.25
 41
0.0
 71
     1
 72
     1
  1
"
  7
SLDTEXTSTYLE1
 73
     1
 44
1.0
  0
ENDBLK
  5
466
330
36B
100
AcDbEntity
  8
0
100
AcDbBlockEnd
  0
BLOCK
  5
467
330
377
100
AcDbEntity
  8
0
100
AcDbBlockBegin
  2
_D_5
 70
     0
 71
     0
 10
0.0
 20
0.0
 30
0.0
  3
_D_5
  1

  0
INSERT
  5
37A
330
377
100
AcDbEntity
  8
DIMS
100
AcDbBlockReference
  2
_Open90
 10
24.57019314350251
 20
10.50349000762712
 30
2.170500000000001
 41
0.3
 42
0.3
 50
90.00000000000041
  0
INSERT
  5
37B
330
377
100
AcDbEntity
  8
DIMS
100
AcDbBlockReference
  2
_Open90
 10
24.57019314350251
 20
9.153490007627118
 30
2.170500000000001
 41
0.3
 42
0.3
 50
270.0000000000004
  0
LINE
  5
37C
330
377
100
AcDbEntity
  8
DIMS
100
AcDbLine
 10
24.48199868316578
 20
9.889593588920732
 30
0.0
 11
24.73998480788805
 21
9.889593588920732
 31
0.0
  0
LINE
  5
37D
330
377
100
AcDbEntity
  8
DIMS
100
AcDbLine
 10
25.32915142294562
 20
10.50349000762712
 30
0.0
 11
24.27019314350252
 21
10.50349000762712
 31
0.0
  0
LINE
  5
37E
330
377
100
AcDbEntity
  8
DIMS
100
AcDbLine
 10
26.26111440334504
 20
9.153490007627118
 30
0.0
 11
24.27019314350252
 21
9.153490007627118
 31
0.0
  0
LINE
  5
37F
330
377
100
AcDbEntity
  8
DIMS
100
AcDbLine
 10
24.57019314350251
 20
10.50349000762712
 30
0.0
 11
24.57019314350251
 21
10.19087831637053
 31
0.0
  0
LINE
  5
380
330
377
100
AcDbEntity
  8
DIMS
100
AcDbLine
 10
24.57019314350251
 20
9.153490007627118
 30
0.0
 11
24.57019314350251
 21
9.53702416308284
 31
0.0
  0
MTEXT
  5
381
330
377
100
AcDbEntity
  8
DIMS
100
AcDbMText
 10
24.26064450943475
 20
10.00429411913642
 30
0.0
 40
0.25
 41
0.0
 71
     1
 72
     1
  1
1
  7
SLDTEXTSTYLE1
 73
     1
 44
1.0
  0
MTEXT
  5
382
330
377
100
AcDbEntity
  8
DIMS
100
AcDbMText
 10
24.51863063415702
 20
10.18695036865917
 30
0.0
 40
0.25
 41
0.0
 71
     1
 72
     1
  1
3
  7
SLDTEXTSTYLE1
 73
     1
 44
1.0
  0
MTEXT
  5
383
330
377
100
AcDbEntity
  8
DIMS
100
AcDbMText
 10
24.51863063415702
 20
9.856360079385153
 30
0.0
 40
0.25
 41
0.0
 71
     1
 72
     1
  1
8
  7
SLDTEXTSTYLE1
 73
     1
 44
1.0
  0
MTEXT
  5
384
330
377
100
AcDbEntity
  8
DIMS
100
AcDbMText
 10
24.7766167588793
 20
10.00429411913642
 30
0.0
 40
0.25
 41
0.0
 71
     1
 72
     1
  1
"
  7
SLDTEXTSTYLE1
 73
     1
 44
1.0
  0
ENDBLK
  5
468
330
377
100
AcDbEntity
  8
0
100
AcDbBlockEnd
  0
ENDSEC
  0
SECTION
  2
ENTITIES
  0
LINE
  5
7A
330
1F
100
AcDbEntity
  8
TITLE
370
    50
100
AcDbLine
 10
20.51822302401259
 20
1.487611764461632
 30
0.0
 11
37.49998645119503
 21
1.487611764461632
 31
0.0
  0
LINE
  5
7B
330
1F
100
AcDbEntity
  8
TITLE
370
    50
100
AcDbLine
 10
37.49993174424402
 20
5.475360393555779
 30
0.0
 11
27.31053507231782
 21
5.475360393555779
 31
0.0
  0
LINE
  5
7C
330
1F
100
AcDbEntity
  8
TITLE
  6
SLD-Solid
370
    18
100
AcDbLine
 10
0.5
 20
0.5
 30
0.0
 11
0.5
 21
23.5
 31
0.0
  0
LINE
  5
7D
330
1F
100
AcDbEntity
  8
TITLE
  6
SLD-Solid
370
    18
100
AcDbLine
 10
0.5
 20
23.5
 30
0.0
 11
37.5
 21
23.5
 31
0.0
  0
LINE
  5
7E
330
1F
100
AcDbEntity
  8
TITLE
370
    50
100
AcDbLine
 10
20.51822302401259
 20
2.542787723103441
 30
0.0
 11
13.50597912026432
 21
2.542787723103441
 31
0.0
  0
LINE
  5
7F
330
1F
100
AcDbEntity
  8
TITLE
370
    50
100
AcDbLine
 10
20.51822302401259
 20
1.487611764461632
 30
0.0
 11
13.50597912026432
 21
1.487611764461632
 31
0.0
  0
LINE
  5
80
330
1F
100
AcDbEntity
  8
TITLE
  6
SLD-Solid
370
    18
100
AcDbLine
 10
37.5
 20
23.5
 30
0.0
 11
37.5
 21
0.5
 31
0.0
  0
LINE
  5
81
330
1F
100
AcDbEntity
  8
TITLE
  6
SLD-Solid
370
    18
100
AcDbLine
 10
37.5
 20
0.5
 30
0.0
 11
0.5
 21
0.5
 31
0.0
  0
LINE
  5
82
330
1F
100
AcDbEntity
  8
TITLE
370
    50
100
AcDbLine
 10
20.51822302401259
 20
1.487611764461632
 30
0.0
 11
20.51822302401259
 21
3.597963681745252
 31
0.0
  0
LINE
  5
83
330
1F
100
AcDbEntity
  8
TITLE
370
    50
100
AcDbLine
 10
13.50597912026432
 20
3.597963681745252
 30
0.0
 11
13.50597912026432
 21
0.5
 31
0.0
  0
LINE
  5
84
330
1F
100
AcDbEntity
  8
TITLE
370
    50
100
AcDbLine
 10
13.50597912026432
 20
0.5
 30
0.0
 11
37.5
 21
0.5
 31
0.0
  0
LINE
  5
85
330
1F
100
AcDbEntity
  8
TITLE
370
    50
100
AcDbLine
 10
37.49993174424402
 20
5.475360393555779
 30
0.0
 11
37.5
 21
0.5
 31
0.0
  0
LINE
  5
86
330
1F
100
AcDbEntity
  8
TITLE
  6
SLD-Solid
370
    18
100
AcDbLine
 10
0.4999606299212599
 20
12.0
 30
0.0
 11
0.5000393700787401
 21
12.0
 31
0.0
  0
LINE
  5
87
330
1F
100
AcDbEntity
  8
TITLE
370
    50
100
AcDbLine
 10
20.51822302401259
 20
3.597963681745252
 30
0.0
 11
13.50597912026432
 21
3.597963681745252
 31
0.0
  0
LINE
  5
88
330
1F
100
AcDbEntity
  8
TITLE
370
    50
100
AcDbLine
 10
20.51822302401259
 20
3.597963681745252
 30
0.0
 11
37.49976156426074
 21
3.597964834324631
 31
0.0
  0
LINE
  5
89
330
1F
100
AcDbEntity
  8
TITLE
370
    50
100
AcDbLine
 10
27.31053507231782
 20
5.475360393555779
 30
0.0
 11
27.31053507231782
 21
0.4636772425222311
 31
0.0
  0
LINE
  5
8A
330
1F
100
AcDbEntity
  8
TITLE
  6
SLD-Solid
370
    18
100
AcDbLine
 10
19.0
 20
23.50003937007874
 30
0.0
 11
19.0
 21
23.49996062992126
 31
0.0
  0
LINE
  5
8B
330
1F
100
AcDbEntity
  8
TITLE
  6
SLD-Solid
370
    18
100
AcDbLine
 10
37.50003937007874
 20
12.0
 30
0.0
 11
37.49996062992125
 21
12.0
 31
0.0
  0
LINE
  5
8C
330
1F
100
AcDbEntity
  8
TITLE
  6
SLD-Solid
370
    18
100
AcDbLine
 10
19.0
 20
0.4999606299212599
 30
0.0
 11
19.0
 21
0.5000393700787401
 31
0.0
  0
LINE
  5
8D
330
1F
100
AcDbEntity
  8
TITLE
  6
SLD-Solid
370
    18
100
AcDbLine
 10
0.5
 20
2.157480314960631
 30
0.0
 11
0.1653543307086614
 21
2.157480314960631
 31
0.0
  0
LINE
  5
8E
330
1F
100
AcDbEntity
  8
TITLE
  6
SLD-Solid
370
    18
100
AcDbLine
 10
37.5
 20
2.157480314960631
 30
0.0
 11
37.83464566929133
 21
2.157480314960631
 31
0.0
  0
LINE
  5
8F
330
1F
100
AcDbEntity
  8
TITLE
  6
SLD-Solid
370
    18
100
AcDbLine
 10
0.5
 20
4.125984251968505
 30
0.0
 11
0.1653543307086614
 21
4.125984251968505
 31
0.0
  0
LINE
  5
90
330
1F
100
AcDbEntity
  8
TITLE
  6
SLD-Solid
370
    18
100
AcDbLine
 10
37.5
 20
4.125984251968505
 30
0.0
 11
37.83464566929133
 21
4.125984251968505
 31
0.0
  0
LINE
  5
91
330
1F
100
AcDbEntity
  8
TITLE
  6
SLD-Solid
370
    18
100
AcDbLine
 10
0.5
 20
6.094488188976378
 30
0.0
 11
0.1653543307086614
 21
6.094488188976378
 31
0.0
  0
LINE
  5
442
330
1F
100
AcDbEntity
  8
TITLE
  6
SLD-Solid
370
    18
100
AcDbLine
 10
37.5
 20
6.094488188976378
 30
0.0
 11
37.83464566929133
 21
6.094488188976378
 31
0.0
  0
LINE
  5
443
330
1F
100
AcDbEntity
  8
TITLE
  6
SLD-Solid
370
    18
100
AcDbLine
 10
0.5
 20
8.062992125984252
 30
0.0
 11
0.1653543307086614
 21
8.062992125984252
 31
0.0
  0
LINE
  5
94
330
1F
100
AcDbEntity
  8
TITLE
  6
SLD-Solid
370
    18
100
AcDbLine
 10
37.5
 20
8.062992125984252
 30
0.0
 11
37.83464566929133
 21
8.062992125984252
 31
0.0
  0
LINE
  5
95
330
1F
100
AcDbEntity
  8
TITLE
  6
SLD-Solid
370
    18
100
AcDbLine
 10
0.5
 20
10.03149606299213
 30
0.0
 11
0.1653543307086614
 21
10.03149606299213
 31
0.0
  0
LINE
  5
96
330
1F
100
AcDbEntity
  8
TITLE
  6
SLD-Solid
370
    18
100
AcDbLine
 10
37.5
 20
10.03149606299213
 30
0.0
 11
37.83464566929133
 21
10.03149606299213
 31
0.0
  0
LINE
  5
444
330
1F
100
AcDbEntity
  8
TITLE
  6
SLD-Solid
370
    18
100
AcDbLine
 10
0.5
 20
12.0
 30
0.0
 11
0.1653543307086614
 21
12.0
 31
0.0
  0
LINE
  5
445
330
1F
100
AcDbEntity
  8
TITLE
  6
SLD-Solid
370
    18
100
AcDbLine
 10
37.5
 20
12.0
 30
0.0
 11
37.83464566929133
 21
12.0
 31
0.0
  0
LINE
  5
99
330
1F
100
AcDbEntity
  8
TITLE
  6
SLD-Solid
370
    18
100
AcDbLine
 10
0.5
 20
13.96850393700787
 30
0.0
 11
0.1653543307086614
 21
13.96850393700787
 31
0.0
  0
LINE
  5
9A
330
1F
100
AcDbEntity
  8
TITLE
  6
SLD-Solid
370
    18
100
AcDbLine
 10
37.5
 20
13.96850393700787
 30
0.0
 11
37.83464566929133
 21
13.96850393700787
 31
0.0
  0
LINE
  5
9B
330
1F
100
AcDbEntity
  8
TITLE
  6
SLD-Solid
370
    18
100
AcDbLine
 10
0.5
 20
15.93700787401575
 30
0.0
 11
0.1653543307086614
 21
15.93700787401575
 31
0.0
  0
LINE
  5
9C
330
1F
100
AcDbEntity
  8
TITLE
  6
SLD-Solid
370
    18
100
AcDbLine
 10
37.5
 20
15.93700787401575
 30
0.0
 11
37.83464566929133
 21
15.93700787401575
 31
0.0
  0
LINE
  5
9D
330
1F
100
AcDbEntity
  8
TITLE
  6
SLD-Solid
370
    18
100
AcDbLine
 10
0.5
 20
17.90551181102363
 30
0.0
 11
0.1653543307086614
 21
17.90551181102363
 31
0.0
  0
LINE
  5
9E
330
1F
100
AcDbEntity
  8
TITLE
  6
SLD-Solid
370
    18
100
AcDbLine
 10
37.5
 20
17.90551181102363
 30
0.0
 11
37.83464566929133
 21
17.90551181102363
 31
0.0
  0
LINE
  5
9F
330
1F
100
AcDbEntity
  8
TITLE
  6
SLD-Solid
370
    18
100
AcDbLine
 10
0.5
 20
19.8740157480315
 30
0.0
 11
0.1653543307086614
 21
19.8740157480315
 31
0.0
  0
LINE
  5
A0
330
1F
100
AcDbEntity
  8
TITLE
  6
SLD-Solid
370
    18
100
AcDbLine
 10
37.5
 20
19.8740157480315
 30
0.0
 11
37.83464566929133
 21
19.8740157480315
 31
0.0
  0
LINE
  5
A1
330
1F
100
AcDbEntity
  8
TITLE
  6
SLD-Solid
370
    18
100
AcDbLine
 10
0.5
 20
21.84251968503937
 30
0.0
 11
0.1653543307086614
 21
21.84251968503937
 31
0.0
  0
LINE
  5
A2
330
1F
100
AcDbEntity
  8
TITLE
  6
SLD-Solid
370
    18
100
AcDbLine
 10
37.5
 20
21.84251968503937
 30
0.0
 11
37.83464566929133
 21
21.84251968503937
 31
0.0
  0
LINE
  5
A3
330
1F
100
AcDbEntity
  8
TITLE
  6
SLD-Solid
370
    18
100
AcDbLine
 10
3.251968503937006
 20
23.5
 30
0.0
 11
3.251968503937006
 21
23.83464566929134
 31
0.0
  0
LINE
  5
A4
330
1F
100
AcDbEntity
  8
TITLE
  6
SLD-Solid
370
    18
100
AcDbLine
 10
3.251968503937006
 20
0.5
 30
0.0
 11
3.251968503937006
 21
0.1653543307086614
 31
0.0
  0
LINE
  5
A5
330
1F
100
AcDbEntity
  8
TITLE
  6
SLD-Solid
370
    18
100
AcDbLine
 10
5.22047244094488
 20
23.5
 30
0.0
 11
5.22047244094488
 21
23.83464566929134
 31
0.0
  0
LINE
  5
A6
330
1F
100
AcDbEntity
  8
TITLE
  6
SLD-Solid
370
    18
100
AcDbLine
 10
5.22047244094488
 20
0.5
 30
0.0
 11
5.22047244094488
 21
0.1653543307086614
 31
0.0
  0
LINE
  5
A7
330
1F
100
AcDbEntity
  8
TITLE
  6
SLD-Solid
370
    18
100
AcDbLine
 10
7.188976377952753
 20
23.5
 30
0.0
 11
7.188976377952753
 21
23.83464566929134
 31
0.0
  0
LINE
  5
A8
330
1F
100
AcDbEntity
  8
TITLE
  6
SLD-Solid
370
    18
100
AcDbLine
 10
7.188976377952753
 20
0.5
 30
0.0
 11
7.188976377952753
 21
0.1653543307086614
 31
0.0
  0
LINE
  5
A9
330
1F
100
AcDbEntity
  8
TITLE
  6
SLD-Solid
370
    18
100
AcDbLine
 10
9.15748031496063
 20
23.5
 30
0.0
 11
9.15748031496063
 21
23.83464566929134
 31
0.0
  0
LINE
  5
AA
330
1F
100
AcDbEntity
  8
TITLE
  6
SLD-Solid
370
    18
100
AcDbLine
 10
9.15748031496063
 20
0.5
 30
0.0
 11
9.15748031496063
 21
0.1653543307086614
 31
0.0
  0
LINE
  5
AB
330
1F
100
AcDbEntity
  8
TITLE
  6
SLD-Solid
370
    18
100
AcDbLine
 10
11.1259842519685
 20
23.5
 30
0.0
 11
11.1259842519685
 21
23.83464566929134
 31
0.0
  0
LINE
  5
AC
330
1F
100
AcDbEntity
  8
TITLE
  6
SLD-Solid
370
    18
100
AcDbLine
 10
11.1259842519685
 20
0.5
 30
0.0
 11
11.1259842519685
 21
0.1653543307086614
 31
0.0
  0
LINE
  5
AD
330
1F
100
AcDbEntity
  8
TITLE
  6
SLD-Solid
370
    18
100
AcDbLine
 10
13.09448818897638
 20
23.5
 30
0.0
 11
13.09448818897638
 21
23.83464566929134
 31
0.0
  0
LINE
  5
AE
330
1F
100
AcDbEntity
  8
TITLE
  6
SLD-Solid
370
    18
100
AcDbLine
 10
13.09448818897638
 20
0.5
 30
0.0
 11
13.09448818897638
 21
0.1653543307086614
 31
0.0
  0
LINE
  5
AF
330
1F
100
AcDbEntity
  8
TITLE
  6
SLD-Solid
370
    18
100
AcDbLine
 10
15.06299212598425
 20
23.5
 30
0.0
 11
15.06299212598425
 21
23.83464566929134
 31
0.0
  0
LINE
  5
B0
330
1F
100
AcDbEntity
  8
TITLE
  6
SLD-Solid
370
    18
100
AcDbLine
 10
15.06299212598425
 20
0.5
 30
0.0
 11
15.06299212598425
 21
0.1653543307086614
 31
0.0
  0
LINE
  5
B1
330
1F
100
AcDbEntity
  8
TITLE
  6
SLD-Solid
370
    18
100
AcDbLine
 10
17.03149606299213
 20
23.5
 30
0.0
 11
17.03149606299213
 21
23.83464566929134
 31
0.0
  0
LINE
  5
B2
330
1F
100
AcDbEntity
  8
TITLE
  6
SLD-Solid
370
    18
100
AcDbLine
 10
17.03149606299213
 20
0.5
 30
0.0
 11
17.03149606299213
 21
0.1653543307086614
 31
0.0
  0
LINE
  5
B3
330
1F
100
AcDbEntity
  8
TITLE
  6
SLD-Solid
370
    18
100
AcDbLine
 10
19.0
 20
23.5
 30
0.0
 11
19.0
 21
23.83464566929134
 31
0.0
  0
LINE
  5
B4
330
1F
100
AcDbEntity
  8
TITLE
  6
SLD-Solid
370
    18
100
AcDbLine
 10
19.0
 20
0.5
 30
0.0
 11
19.0
 21
0.1653543307086614
 31
0.0
  0
LINE
  5
B5
330
1F
100
AcDbEntity
  8
TITLE
  6
SLD-Solid
370
    18
100
AcDbLine
 10
20.96850393700787
 20
23.5
 30
0.0
 11
20.96850393700787
 21
23.83464566929134
 31
0.0
  0
LINE
  5
B6
330
1F
100
AcDbEntity
  8
TITLE
  6
SLD-Solid
370
    18
100
AcDbLine
 10
20.96850393700787
 20
0.5
 30
0.0
 11
20.96850393700787
 21
0.1653543307086614
 31
0.0
  0
LINE
  5
B7
330
1F
100
AcDbEntity
  8
TITLE
  6
SLD-Solid
370
    18
100
AcDbLine
 10
22.93700787401575
 20
23.5
 30
0.0
 11
22.93700787401575
 21
23.83464566929134
 31
0.0
  0
LINE
  5
B8
330
1F
100
AcDbEntity
  8
TITLE
  6
SLD-Solid
370
    18
100
AcDbLine
 10
22.93700787401575
 20
0.5
 30
0.0
 11
22.93700787401575
 21
0.1653543307086614
 31
0.0
  0
LINE
  5
B9
330
1F
100
AcDbEntity
  8
TITLE
  6
SLD-Solid
370
    18
100
AcDbLine
 10
24.90551181102363
 20
23.5
 30
0.0
 11
24.90551181102363
 21
23.83464566929134
 31
0.0
  0
LINE
  5
BA
330
1F
100
AcDbEntity
  8
TITLE
  6
SLD-Solid
370
    18
100
AcDbLine
 10
24.90551181102363
 20
0.5
 30
0.0
 11
24.90551181102363
 21
0.1653543307086614
 31
0.0
  0
LINE
  5
BB
330
1F
100
AcDbEntity
  8
TITLE
  6
SLD-Solid
370
    18
100
AcDbLine
 10
26.8740157480315
 20
23.5
 30
0.0
 11
26.8740157480315
 21
23.83464566929134
 31
0.0
  0
LINE
  5
BC
330
1F
100
AcDbEntity
  8
TITLE
  6
SLD-Solid
370
    18
100
AcDbLine
 10
26.8740157480315
 20
0.5
 30
0.0
 11
26.8740157480315
 21
0.1653543307086614
 31
0.0
  0
LINE
  5
BD
330
1F
100
AcDbEntity
  8
TITLE
  6
SLD-Solid
370
    18
100
AcDbLine
 10
28.84251968503937
 20
23.5
 30
0.0
 11
28.84251968503937
 21
23.83464566929134
 31
0.0
  0
LINE
  5
BE
330
1F
100
AcDbEntity
  8
TITLE
  6
SLD-Solid
370
    18
100
AcDbLine
 10
28.84251968503937
 20
0.5
 30
0.0
 11
28.84251968503937
 21
0.1653543307086614
 31
0.0
  0
LINE
  5
BF
330
1F
100
AcDbEntity
  8
TITLE
  6
SLD-Solid
370
    18
100
AcDbLine
 10
30.81102362204724
 20
23.5
 30
0.0
 11
30.81102362204724
 21
23.83464566929134
 31
0.0
  0
LINE
  5
C0
330
1F
100
AcDbEntity
  8
TITLE
  6
SLD-Solid
370
    18
100
AcDbLine
 10
30.81102362204724
 20
0.5
 30
0.0
 11
30.81102362204724
 21
0.1653543307086614
 31
0.0
  0
LINE
  5
C1
330
1F
100
AcDbEntity
  8
TITLE
  6
SLD-Solid
370
    18
100
AcDbLine
 10
32.77952755905512
 20
23.5
 30
0.0
 11
32.77952755905512
 21
23.83464566929134
 31
0.0
  0
LINE
  5
C2
330
1F
100
AcDbEntity
  8
TITLE
  6
SLD-Solid
370
    18
100
AcDbLine
 10
32.77952755905512
 20
0.5
 30
0.0
 11
32.77952755905512
 21
0.1653543307086614
 31
0.0
  0
LINE
  5
C3
330
1F
100
AcDbEntity
  8
TITLE
  6
SLD-Solid
370
    18
100
AcDbLine
 10
34.74803149606299
 20
23.5
 30
0.0
 11
34.74803149606299
 21
23.83464566929134
 31
0.0
  0
LINE
  5
C4
330
1F
100
AcDbEntity
  8
TITLE
  6
SLD-Solid
370
    18
100
AcDbLine
 10
34.74803149606299
 20
0.5
 30
0.0
 11
34.74803149606299
 21
0.1653543307086614
 31
0.0
  0
MTEXT
  5
C6
330
1F
100
AcDbEntity
  8
NOTES
100
AcDbMText
 10
14.40829780303407
 20
1.070290334694339
 30
0.0
 40
0.25
 41
0.0
 71
     1
 72
     1
  1
UNLESS OTHERWISE SPECIFIED DIMENSIONS ARE IN INCHES.
  7
SLDTEXTSTYLE0
 73
     1
 44
1.0
  0
MTEXT
  5
C7
330
1F
100
AcDbEntity
  8
NOTES
100
AcDbMText
 10
14.43006992789031
 20
3.083062777580432
 30
0.0
 40
0.25
 41
0.0
 71
     1
 72
     1
  1
DATE:
  7
SLDTEXTSTYLE0
 73
     1
 44
1.0
  0
MTEXT
  5
C8
330
1F
100
AcDbEntity
  8
NOTES
100
AcDbMText
 10
16.53870118800532
 20
2.193032963662713
 30
0.0
 40
0.25
 41
0.0
 71
     2
 72
     1
  1
DO NOT SCALE DRAWING
  7
SLDTEXTSTYLE0
 73
     1
 44
1.0
  0
MTEXT
  5
CA
330
1F
100
AcDbEntity
  8
NOTES
100
AcDbMText
 10
20.83073730750537
 20
3.268275555297611
 30
0.0
 40
0.25
 41
0.0
 71
     1
 72
     1
  1
TITLE:
  7
SLDTEXTSTYLE1
 73
     1
 44
1.0
  0
MTEXT
  5
CB
330
1F
100
AcDbEntity
  8
NOTES
100
AcDbMText
 10
28.15618310516096
 20
3.268275555297597
 30
0.0
 40
0.25
 41
0.0
 71
     1
 72
     1
  1
DWG NO.
  7
SLDTEXTSTYLE1
 73
     1
 44
1.0
  0
MTEXT
  5
CC
330
1F
100
AcDbEntity
  8
NOTES
100
AcDbMText
 10
28.18317532028492
 20
1.064581557673826
 30
0.0
 40
0.25
 41
0.0
 71
     1
 72
     1
  1
SCALE:     1:1
  7
SLDTEXTSTYLE1
 73
     1
 44
1.0
  0
MTEXT
  5
CD
330
1F
100
AcDbEntity
  8
NOTES
100
AcDbMText
 10
32.18074202746737
 20
2.651034429460871
 30
0.0
 40
0.25
 41
0.0
 71
     2
 72
     1
  1
146 CAD
  7
SLDTEXTSTYLE1
 73
     1
 44
1.0
  0
MTEXT
  5
CE
330
1F
100
AcDbEntity
  8
NOTES
100
AcDbMText
 10
24.47265557300439
 20
2.651034429460869
 30
0.0
 40
0.25
 41
0.0
 71
     2
 72
     1
  1
146 Single roll dispenser
  7
SLDTEXTSTYLE1
 73
     1
 44
1.0
  0
INSERT
  5
DE
330
1F
100
AcDbEntity
  8
NOTES
100
AcDbBlockReference
  2
SW_NOTE_0_1
 10
14.61597262459081
 20
5.148152684778697
 30
0.0
  0
MTEXT
  5
DF
330
1F
100
AcDbEntity
  8
NOTES
100
AcDbMText
 10
17.51185182237312
 20
3.086473326765866
 30
0.0
 40
0.25
 41
0.0
 71
     2
 72
     1
  1
July 1, 2021
  7
SLDTEXTSTYLE1
 73
     1
 44
1.0
  0
MTEXT
  5
E0
330
1F
100
AcDbEntity
  8
TITLE
100
AcDbMText
 10
0.3276279775836454
 20
1.408618101997795
 30
0.0
 40
0.125
 41
0.0
 71
     2
 72
     1
  1
A
  7
SLDTEXTSTYLE1
 73
     1
 44
1.0
  0
MTEXT
  5
E1
330
1F
100
AcDbEntity
  8
TITLE
100
AcDbMText
 10
37.66227364687498
 20
1.408618101997795
 30
0.0
 40
0.125
 41
0.0
 71
     2
 72
     1
  1
A
  7
SLDTEXTSTYLE1
 73
     1
 44
1.0
  0
MTEXT
  5
E2
330
1F
100
AcDbEntity
  8
TITLE
100
AcDbMText
 10
0.3317512413046844
 20
3.221610227982048
 30
0.0
 40
0.125
 41
0.0
 71
     2
 72
     1
  1
B
  7
SLDTEXTSTYLE1
 73
     1
 44
1.0
  0
MTEXT
  5
E3
330
1F
100
AcDbEntity
  8
TITLE
100
AcDbMText
 10
37.66639691059601
 20
3.221610227982048
 30
0.0
 40
0.125
 41
0.0
 71
     2
 72
     1
  1
B
  7
SLDTEXTSTYLE1
 73
     1
 44
1.0
  0
MTEXT
  5
E4
330
1F
100
AcDbEntity
  8
TITLE
100
AcDbMText
 10
0.3313750816934456
 20
5.19011416498992
 30
0.0
 40
0.125
 41
0.0
 71
     2
 72
     1
  1
C
  7
SLDTEXTSTYLE1
 73
     1
 44
1.0
  0
MTEXT
  5
E5
330
1F
100
AcDbEntity
  8
TITLE
100
AcDbMText
 10
37.66602075098478
 20
5.19011416498992
 30
0.0
 40
0.125
 41
0.0
 71
     2
 72
     1
  1
C
  7
SLDTEXTSTYLE1
 73
     1
 44
1.0
  0
MTEXT
  5
E6
330
1F
100
AcDbEntity
  8
TITLE
100
AcDbMText
 10
0.3311870028448152
 20
7.158618101997797
 30
0.0
 40
0.125
 41
0.0
 71
     2
 72
     1
  1
D
  7
SLDTEXTSTYLE1
 73
     1
 44
1.0
  0
MTEXT
  5
E7
330
1F
100
AcDbEntity
  8
TITLE
100
AcDbMText
 10
37.66583267213615
 20
7.158618101997795
 30
0.0
 40
0.125
 41
0.0
 71
     2
 72
     1
  1
D
  7
SLDTEXTSTYLE1
 73
     1
 44
1.0
  0
MTEXT
  5
E8
330
1F
100
AcDbEntity
  8
TITLE
100
AcDbMText
 10
0.3329231160377542
 20
9.12712203900567
 30
0.0
 40
0.125
 41
0.0
 71
     2
 72
     1
  1
E
  7
SLDTEXTSTYLE1
 73
     1
 44
1.0
  0
MTEXT
  5
E9
330
1F
100
AcDbEntity
  8
TITLE
100
AcDbMText
 10
37.6675687853291
 20
9.127122039005672
 30
0.0
 40
0.125
 41
0.0
 71
     2
 72
     1
  1
E
  7
SLDTEXTSTYLE1
 73
     1
 44
1.0
  0
MTEXT
  5
EA
330
1F
100
AcDbEntity
  8
TITLE
100
AcDbMText
 10
0.3313461474003637
 20
11.09562597601354
 30
0.0
 40
0.125
 41
0.0
 71
     2
 72
     1
  1
F
  7
SLDTEXTSTYLE1
 73
     1
 44
1.0
  0
MTEXT
  5
EB
330
1F
100
AcDbEntity
  8
TITLE
100
AcDbMText
 10
37.66599181669171
 20
11.09562597601354
 30
0.0
 40
0.125
 41
0.0
 71
     2
 72
     1
  1
F
  7
SLDTEXTSTYLE1
 73
     1
 44
1.0
  0
MTEXT
  5
EC
330
1F
100
AcDbEntity
  8
TITLE
100
AcDbMText
 10
0.332257605436456
 20
13.06412991302141
 30
0.0
 40
0.125
 41
0.0
 71
     2
 72
     1
  1
G
  7
SLDTEXTSTYLE1
 73
     1
 44
1.0
  0
MTEXT
  5
ED
330
1F
100
AcDbEntity
  8
TITLE
100
AcDbMText
 10
37.66690327472779
 20
13.06412991302142
 30
0.0
 40
0.125
 41
0.0
 71
     2
 72
     1
  1
G
  7
SLDTEXTSTYLE1
 73
     1
 44
1.0
  0
MTEXT
  5
EE
330
1F
100
AcDbEntity
  8
TITLE
100
AcDbMText
 10
0.3323733456814148
 20
15.03263385002929
 30
0.0
 40
0.125
 41
0.0
 71
     2
 72
     1
  1
H
  7
SLDTEXTSTYLE1
 73
     1
 44
1.0
  0
MTEXT
  5
EF
330
1F
100
AcDbEntity
  8
TITLE
100
AcDbMText
 10
37.66701901497275
 20
15.03263385002929
 30
0.0
 40
0.125
 41
0.0
 71
     2
 72
     1
  1
H
  7
SLDTEXTSTYLE1
 73
     1
 44
1.0
  0
MTEXT
  5
F0
330
1F
100
AcDbEntity
  8
TITLE
100
AcDbMText
 10
0.3315776305595839
 20
17.00113778703717
 30
0.0
 40
0.125
 41
0.0
 71
     2
 72
     1
  1
J
  7
SLDTEXTSTYLE1
 73
     1
 44
1.0
  0
MTEXT
  5
F1
330
1F
100
AcDbEntity
  8
TITLE
100
AcDbMText
 10
37.66622329985092
 20
17.00113778703716
 30
0.0
 40
0.125
 41
0.0
 71
     2
 72
     1
  1
J
  7
SLDTEXTSTYLE1
 73
     1
 44
1.0
  0
MTEXT
  5
F2
330
1F
100
AcDbEntity
  8
TITLE
100
AcDbMText
 10
0.3323154765159243
 20
18.96964172404504
 30
0.0
 40
0.125
 41
0.0
 71
     2
 72
     1
  1
K
  7
SLDTEXTSTYLE1
 73
     1
 44
1.0
  0
MTEXT
  5
F3
330
1F
100
AcDbEntity
  8
TITLE
100
AcDbMText
 10
37.66696114580726
 20
18.96964172404504
 30
0.0
 40
0.125
 41
0.0
 71
     2
 72
     1
  1
K
  7
SLDTEXTSTYLE1
 73
     1
 44
1.0
  0
MTEXT
  5
F4
330
1F
100
AcDbEntity
  8
TITLE
100
AcDbMText
 10
0.3312448739242835
 20
20.93814566105292
 30
0.0
 40
0.125
 41
0.0
 71
     2
 72
     1
  1
L
  7
SLDTEXTSTYLE1
 73
     1
 44
1.0
  0
MTEXT
  5
F5
330
1F
100
AcDbEntity
  8
TITLE
100
AcDbMText
 10
37.66589054321562
 20
20.93814566105292
 30
0.0
 40
0.125
 41
0.0
 71
     2
 72
     1
  1
L
  7
SLDTEXTSTYLE1
 73
     1
 44
1.0
  0
MTEXT
  5
F6
330
1F
100
AcDbEntity
  8
TITLE
100
AcDbMText
 10
0.3283224192293962
 20
22.75113778703717
 30
0.0
 40
0.125
 41
0.0
 71
     2
 72
     1
  1
M
  7
SLDTEXTSTYLE1
 73
     1
 44
1.0
  0
MTEXT
  5
F7
330
1F
100
AcDbEntity
  8
TITLE
100
AcDbMText
 10
37.66296808852072
 20
22.75113778703716
 30
0.0
 40
0.125
 41
0.0
 71
     2
 72
     1
  1
M
  7
SLDTEXTSTYLE1
 73
     1
 44
1.0
  0
MTEXT
  5
F8
330
1F
100
AcDbEntity
  8
TITLE
100
AcDbMText
 10
1.87346689059861
 20
0.4125551098718104
 30
0.0
 40
0.125
 41
0.0
 71
     2
 72
     1
  1
18
  7
SLDTEXTSTYLE1
 73
     1
 44
1.0
  0
MTEXT
  5
F9
330
1F
100
AcDbEntity
  8
TITLE
100
AcDbMText
 10
1.87346689059861
 20
23.74720077916315
 30
0.0
 40
0.125
 41
0.0
 71
     2
 72
     1
  1
18
  7
SLDTEXTSTYLE1
 73
     1
 44
1.0
  0
MTEXT
  5
FA
330
1F
100
AcDbEntity
  8
TITLE
100
AcDbMText
 10
4.233703111071049
 20
0.4125551098718104
 30
0.0
 40
0.125
 41
0.0
 71
     2
 72
     1
  1
17
  7
SLDTEXTSTYLE1
 73
     1
 44
1.0
  0
MTEXT
  5
FB
330
1F
100
AcDbEntity
  8
TITLE
100
AcDbMText
 10
4.233703111071049
 20
23.74720077916315
 30
0.0
 40
0.125
 41
0.0
 71
     2
 72
     1
  1
17
  7
SLDTEXTSTYLE1
 73
     1
 44
1.0
  0
MTEXT
  5
FC
330
1F
100
AcDbEntity
  8
TITLE
100
AcDbMText
 10
6.202207048078924
 20
0.4125551098718104
 30
0.0
 40
0.125
 41
0.0
 71
     2
 72
     1
  1
16
  7
SLDTEXTSTYLE1
 73
     1
 44
1.0
  0
MTEXT
  5
FD
330
1F
100
AcDbEntity
  8
TITLE
100
AcDbMText
 10
6.202207048078923
 20
23.74720077916315
 30
0.0
 40
0.125
 41
0.0
 71
     2
 72
     1
  1
16
  7
SLDTEXTSTYLE1
 73
     1
 44
1.0
  0
MTEXT
  5
FE
330
1F
100
AcDbEntity
  8
TITLE
100
AcDbMText
 10
8.170710985086798
 20
0.4125551098718104
 30
0.0
 40
0.125
 41
0.0
 71
     2
 72
     1
  1
15
  7
SLDTEXTSTYLE1
 73
     1
 44
1.0
  0
MTEXT
  5
FF
330
1F
100
AcDbEntity
  8
TITLE
100
AcDbMText
 10
8.170710985086798
 20
23.74720077916315
 30
0.0
 40
0.125
 41
0.0
 71
     2
 72
     1
  1
15
  7
SLDTEXTSTYLE1
 73
     1
 44
1.0
  0
MTEXT
  5
100
330
1F
100
AcDbEntity
  8
TITLE
100
AcDbMText
 10
10.13921492209467
 20
0.4125551098718105
 30
0.0
 40
0.125
 41
0.0
 71
     2
 72
     1
  1
14
  7
SLDTEXTSTYLE1
 73
     1
 44
1.0
  0
MTEXT
  5
101
330
1F
100
AcDbEntity
  8
TITLE
100
AcDbMText
 10
10.13921492209467
 20
23.74720077916315
 30
0.0
 40
0.125
 41
0.0
 71
     2
 72
     1
  1
14
  7
SLDTEXTSTYLE1
 73
     1
 44
1.0
  0
MTEXT
  5
102
330
1F
100
AcDbEntity
  8
TITLE
100
AcDbMText
 10
12.10771885910255
 20
0.4125551098718104
 30
0.0
 40
0.125
 41
0.0
 71
     2
 72
     1
  1
13
  7
SLDTEXTSTYLE1
 73
     1
 44
1.0
  0
MTEXT
  5
103
330
1F
100
AcDbEntity
  8
TITLE
100
AcDbMText
 10
12.10771885910255
 20
23.74720077916315
 30
0.0
 40
0.125
 41
0.0
 71
     2
 72
     1
  1
13
  7
SLDTEXTSTYLE1
 73
     1
 44
1.0
  0
MTEXT
  5
104
330
1F
100
AcDbEntity
  8
TITLE
100
AcDbMText
 10
14.07622279611042
 20
0.4125551098718104
 30
0.0
 40
0.125
 41
0.0
 71
     2
 72
     1
  1
12
  7
SLDTEXTSTYLE1
 73
     1
 44
1.0
  0
MTEXT
  5
105
330
1F
100
AcDbEntity
  8
TITLE
100
AcDbMText
 10
14.07622279611042
 20
23.74720077916315
 30
0.0
 40
0.125
 41
0.0
 71
     2
 72
     1
  1
12
  7
SLDTEXTSTYLE1
 73
     1
 44
1.0
  0
MTEXT
  5
106
330
1F
100
AcDbEntity
  8
TITLE
100
AcDbMText
 10
16.0447267331183
 20
0.4125551098718104
 30
0.0
 40
0.125
 41
0.0
 71
     2
 72
     1
  1
11
  7
SLDTEXTSTYLE1
 73
     1
 44
1.0
  0
MTEXT
  5
107
330
1F
100
AcDbEntity
  8
TITLE
100
AcDbMText
 10
16.0447267331183
 20
23.74720077916315
 30
0.0
 40
0.125
 41
0.0
 71
     2
 72
     1
  1
11
  7
SLDTEXTSTYLE1
 73
     1
 44
1.0
  0
MTEXT
  5
108
330
1F
100
AcDbEntity
  8
TITLE
100
AcDbMText
 10
18.01323067012617
 20
0.4125551098718104
 30
0.0
 40
0.125
 41
0.0
 71
     2
 72
     1
  1
10
  7
SLDTEXTSTYLE1
 73
     1
 44
1.0
  0
MTEXT
  5
109
330
1F
100
AcDbEntity
  8
TITLE
100
AcDbMText
 10
18.01323067012617
 20
23.74720077916315
 30
0.0
 40
0.125
 41
0.0
 71
     2
 72
     1
  1
10
  7
SLDTEXTSTYLE1
 73
     1
 44
1.0
  0
MTEXT
  5
10A
330
1F
100
AcDbEntity
  8
TITLE
100
AcDbMText
 10
19.98299328781899
 20
0.4125551098718104
 30
0.0
 40
0.125
 41
0.0
 71
     2
 72
     1
  1
9
  7
SLDTEXTSTYLE1
 73
     1
 44
1.0
  0
MTEXT
  5
10B
330
1F
100
AcDbEntity
  8
TITLE
100
AcDbMText
 10
19.98299328781899
 20
23.74720077916315
 30
0.0
 40
0.125
 41
0.0
 71
     2
 72
     1
  1
9
  7
SLDTEXTSTYLE1
 73
     1
 44
1.0
  0
MTEXT
  5
10C
330
1F
100
AcDbEntity
  8
TITLE
100
AcDbMText
 10
21.95149722482687
 20
0.4125551098718105
 30
0.0
 40
0.125
 41
0.0
 71
     2
 72
     1
  1
8
  7
SLDTEXTSTYLE1
 73
     1
 44
1.0
  0
MTEXT
  5
10D
330
1F
100
AcDbEntity
  8
TITLE
100
AcDbMText
 10
21.95149722482687
 20
23.74720077916315
 30
0.0
 40
0.125
 41
0.0
 71
     2
 72
     1
  1
8
  7
SLDTEXTSTYLE1
 73
     1
 44
1.0
  0
MTEXT
  5
10E
330
1F
100
AcDbEntity
  8
TITLE
100
AcDbMText
 10
23.92000116183474
 20
0.4125551098718105
 30
0.0
 40
0.125
 41
0.0
 71
     2
 72
     1
  1
7
  7
SLDTEXTSTYLE1
 73
     1
 44
1.0
  0
MTEXT
  5
10F
330
1F
100
AcDbEntity
  8
TITLE
100
AcDbMText
 10
23.92000116183474
 20
23.74720077916315
 30
0.0
 40
0.125
 41
0.0
 71
     2
 72
     1
  1
7
  7
SLDTEXTSTYLE1
 73
     1
 44
1.0
  0
MTEXT
  5
110
330
1F
100
AcDbEntity
  8
TITLE
100
AcDbMText
 10
25.88850509884261
 20
0.4125551098718104
 30
0.0
 40
0.125
 41
0.0
 71
     2
 72
     1
  1
6
  7
SLDTEXTSTYLE1
 73
     1
 44
1.0
  0
MTEXT
  5
111
330
1F
100
AcDbEntity
  8
TITLE
100
AcDbMText
 10
25.88850509884261
 20
23.74720077916315
 30
0.0
 40
0.125
 41
0.0
 71
     2
 72
     1
  1
6
  7
SLDTEXTSTYLE1
 73
     1
 44
1.0
  0
MTEXT
  5
112
330
1F
100
AcDbEntity
  8
TITLE
100
AcDbMText
 10
27.85700903585049
 20
0.4125551098718104
 30
0.0
 40
0.125
 41
0.0
 71
     2
 72
     1
  1
5
  7
SLDTEXTSTYLE1
 73
     1
 44
1.0
  0
MTEXT
  5
113
330
1F
100
AcDbEntity
  8
TITLE
100
AcDbMText
 10
27.85700903585049
 20
23.74720077916315
 30
0.0
 40
0.125
 41
0.0
 71
     2
 72
     1
  1
5
  7
SLDTEXTSTYLE1
 73
     1
 44
1.0
  0
MTEXT
  5
114
330
1F
100
AcDbEntity
  8
TITLE
100
AcDbMText
 10
29.82551297285836
 20
0.4125551098718104
 30
0.0
 40
0.125
 41
0.0
 71
     2
 72
     1
  1
4
  7
SLDTEXTSTYLE1
 73
     1
 44
1.0
  0
MTEXT
  5
115
330
1F
100
AcDbEntity
  8
TITLE
100
AcDbMText
 10
29.82551297285836
 20
23.74720077916315
 30
0.0
 40
0.125
 41
0.0
 71
     2
 72
     1
  1
4
  7
SLDTEXTSTYLE1
 73
     1
 44
1.0
  0
MTEXT
  5
116
330
1F
100
AcDbEntity
  8
TITLE
100
AcDbMText
 10
31.79401690986624
 20
0.4125551098718104
 30
0.0
 40
0.125
 41
0.0
 71
     2
 72
     1
  1
3
  7
SLDTEXTSTYLE1
 73
     1
 44
1.0
  0
MTEXT
  5
117
330
1F
100
AcDbEntity
  8
TITLE
100
AcDbMText
 10
31.79401690986624
 20
23.74720077916315
 30
0.0
 40
0.125
 41
0.0
 71
     2
 72
     1
  1
3
  7
SLDTEXTSTYLE1
 73
     1
 44
1.0
  0
MTEXT
  5
118
330
1F
100
AcDbEntity
  8
TITLE
100
AcDbMText
 10
33.76252084687411
 20
0.4125551098718104
 30
0.0
 40
0.125
 41
0.0
 71
     2
 72
     1
  1
2
  7
SLDTEXTSTYLE1
 73
     1
 44
1.0
  0
MTEXT
  5
119
330
1F
100
AcDbEntity
  8
TITLE
100
AcDbMText
 10
33.76252084687411
 20
23.74720077916315
 30
0.0
 40
0.125
 41
0.0
 71
     2
 72
     1
  1
2
  7
SLDTEXTSTYLE1
 73
     1
 44
1.0
  0
MTEXT
  5
11A
330
1F
100
AcDbEntity
  8
TITLE
100
AcDbMText
 10
36.12275706734655
 20
0.4125551098718104
 30
0.0
 40
0.125
 41
0.0
 71
     2
 72
     1
  1
1
  7
SLDTEXTSTYLE1
 73
     1
 44
1.0
  0
MTEXT
  5
11B
330
1F
100
AcDbEntity
  8
TITLE
100
AcDbMText
 10
36.12275706734655
 20
23.74720077916315
 30
0.0
 40
0.125
 41
0.0
 71
     2
 72
     1
  1
1
  7
SLDTEXTSTYLE1
 73
     1
 44
1.0
  0
LINE
  5
11C
330
1F
100
AcDbEntity
  8
0
  6
SLD-Solid
 62
     7
370
    25
100
AcDbLine
 10
11.73317591333664
 20
9.990990007627119
 30
0.0
 11
11.69317591333664
 21
9.990990007627119
 31
0.0
  0
LINE
  5
11D
330
1F
100
AcDbEntity
  8
0
  6
SLD-Solid
 62
     7
370
    25
100
AcDbLine
 10
11.69317591333664
 20
8.320990007627119
 30
0.0
 11
11.73317591333664
 21
8.320990007627119
 31
0.0
  0
ARC
  5
11E
330
1F
100
AcDbEntity
  8
0
  6
SLD-Solid
 62
     7
370
    25
100
AcDbCircle
 10
11.73317591333664
 20
9.94099000762712
 30
0.0
 40
0.0499999999999989
100
AcDbArc
 50
0.0
 51
90.0
  0
ARC
  5
11F
330
1F
100
AcDbEntity
  8
0
  6
SLD-Solid
 62
     7
370
    25
100
AcDbCircle
 10
11.73317591333664
 20
8.370990007627118
 30
0.0
 40
0.0499999999999989
100
AcDbArc
 50
270.0000000000008
 51
0.0
  0
ARC
  5
120
330
1F
100
AcDbEntity
  8
0
  6
SLD-Solid
 62
     7
370
    25
100
AcDbCircle
 10
11.69317591333664
 20
9.94099000762712
 30
0.0
 40
0.0499999999999989
100
AcDbArc
 50
90.0
 51
168.9173680777043
  0
ARC
  5
121
330
1F
100
AcDbEntity
  8
0
  6
SLD-Solid
 62
     7
370
    25
100
AcDbCircle
 10
11.69317591333664
 20
8.370990007627118
 30
0.0
 40
0.0499999999999989
100
AcDbArc
 50
191.0826319222986
 51
270.0000000000008
  0
ARC
  5
122
330
1F
100
AcDbEntity
  8
0
  6
SLD-Solid
 62
     7
370
    25
100
AcDbCircle
 10
11.65637525165723
 20
9.948198426313443
 30
0.0
 40
0.0125000000000011
100
AcDbArc
 50
168.9173680777054
 51
180.0
  0
ARC
  5
123
330
1F
100
AcDbEntity
  8
0
  6
SLD-Solid
 62
     7
370
    25
100
AcDbCircle
 10
11.65637525165723
 20
8.363781588940794
 30
0.0
 40
0.0125000000000013
100
AcDbArc
 50
180.0
 51
191.0826319223034
  0
LINE
  5
124
330
1F
100
AcDbEntity
  8
0
  6
SLD-Solid
 62
     7
370
    25
100
AcDbLine
 10
11.64387525165723
 20
9.948198426313443
 30
0.0
 11
11.64387525165723
 21
8.363781588940794
 31
0.0
  0
LWPOLYLINE
  5
125
330
1F
100
AcDbEntity
  8
0
  6
SLD-Solid
 62
     7
370
    25
100
AcDbPolyline
 90
        3
 70
   128
 43
0.0
 10
11.64067591333664
 20
8.489990007627119
 10
11.64311454236184
 20
8.48974982363216
 10
11.64387525165723
 20
8.489573642606313
  0
LWPOLYLINE
  5
126
330
1F
100
AcDbEntity
  8
0
  6
SLD-Solid
 62
     7
370
    25
100
AcDbPolyline
 90
        3
 70
   128
 43
0.0
 10
11.64387525165723
 20
9.822406372647924
 10
11.64311454236184
 20
9.82223019162208
 10
11.64067591333664
 20
9.82199000762712
  0
LINE
  5
127
330
1F
100
AcDbEntity
  8
0
  6
SLD-Solid
 62
     7
370
    25
100
AcDbLine
 10
11.64067591333664
 20
9.82199000762712
 30
0.0
 11
11.43275725549969
 21
9.82199000762712
 31
0.0
  0
LINE
  5
128
330
1F
100
AcDbEntity
  8
0
  6
SLD-Solid
 62
     7
370
    25
100
AcDbLine
 10
11.3473141438739
 20
9.82199000762712
 30
0.0
 11
11.22817591333664
 21
9.82199000762712
 31
0.0
  0
LINE
  5
129
330
1F
100
AcDbEntity
  8
0
  6
SLD-Solid
 62
     7
370
    25
100
AcDbLine
 10
11.22817591333664
 20
8.489990007627119
 30
0.0
 11
11.3473141438739
 21
8.489990007627119
 31
0.0
  0
LINE
  5
12A
330
1F
100
AcDbEntity
  8
0
  6
SLD-Solid
 62
     7
370
    25
100
AcDbLine
 10
11.43275725549969
 20
8.489990007627119
 30
0.0
 11
11.64067591333664
 21
8.489990007627119
 31
0.0
  0
ARC
  5
12B
330
1F
100
AcDbEntity
  8
0
  6
SLD-Solid
 62
     7
370
    25
100
AcDbCircle
 10
11.22817591333664
 20
8.564990007627118
 30
0.0
 40
0.0750000000000011
100
AcDbArc
 50
180.0
 51
270.0000000000008
  0
ARC
  5
12C
330
1F
100
AcDbEntity
  8
0
  6
SLD-Solid
 62
     7
370
    25
100
AcDbCircle
 10
11.22817591333664
 20
9.746990007627119
 30
0.0
 40
0.0750000000000011
100
AcDbArc
 50
90.0
 51
180.0
  0
SPLINE
  5
12D
330
1F
100
AcDbEntity
  8
0
  6
SLD-Solid
 62
     7
370
    25
100
AcDbSpline
210
0.0
220
0.0
230
1.0
 70
    12
 71
     3
 72
     9
 73
     5
 74
     0
 42
0.00000001
 43
0.00000001
 40
0.0
 40
0.0
 40
0.0
 40
0.0
 40
0.1683720702984549
 40
0.9999999999999999
 40
0.9999999999999999
 40
0.9999999999999999
 40
0.9999999999999999
 10
11.64778790283503
 20
9.919488289242294
 30
0.0
 41
1.0
 10
11.6472977716492
 20
9.919380834228242
 30
0.0
 41
1.0
 10
11.64438677111948
 20
9.918742634473023
 30
0.0
 41
1.0
 10
11.64161450002893
 20
9.919087309126375
 30
0.0
 41
1.0
 10
11.63930900196133
 20
9.919373950194762
 30
0.0
 41
1.0
  0
LINE
  5
12E
330
1F
100
AcDbEntity
  8
0
  6
SLD-Solid
 62
     7
370
    25
100
AcDbLine
 10
11.63981426767515
 20
8.392599897571394
 30
0.0
 11
11.64743759849705
 21
8.392472422841914
 31
0.0
  0
LINE
  5
12F
330
1F
100
AcDbEntity
  8
0
  6
SLD-Solid
 62
     7
370
    25
100
AcDbLine
 10
11.60739853477662
 20
9.868885820185973
 30
0.0
 11
11.64387525165723
 21
9.868885820185975
 31
0.0
  0
LINE
  5
130
330
1F
100
AcDbEntity
  8
0
  6
SLD-Solid
 62
     7
370
    25
100
AcDbLine
 10
11.64387525165723
 20
8.443094195068264
 30
0.0
 11
11.60739853477662
 21
8.443094195068264
 31
0.0
  0
ARC
  5
131
330
1F
100
AcDbEntity
  8
0
  6
SLD-Solid
 62
     7
370
    25
100
AcDbCircle
 10
11.09844805091163
 20
9.15599000762712
 30
0.0
 40
0.7000000000000003
100
AcDbArc
 50
357.3912504070952
 51
2.608749592905449
  0
LINE
  5
132
330
1F
100
AcDbEntity
  8
0
  6
SLD-Solid
 62
     7
370
    25
100
AcDbLine
 10
11.78373828286451
 20
8.817205015204614
 30
0.0
 11
11.79772259246944
 21
9.12412912990665
 31
0.0
  0
LINE
  5
133
330
1F
100
AcDbEntity
  8
0
  6
SLD-Solid
 62
     7
370
    25
100
AcDbLine
 10
11.79772259246944
 20
9.187850885347586
 30
0.0
 11
11.78373828286451
 21
9.494775000049621
 31
0.0
  0
CIRCLE
  5
134
330
1F
100
AcDbEntity
  8
0
  6
SLD-Solid
 62
     7
370
    25
100
AcDbCircle
 10
8.303175913336641
 20
9.15599000762712
 30
0.0
 40
0.0952500000000001
  0
CIRCLE
  5
135
330
1F
100
AcDbEntity
  8
0
  6
SLD-Solid
 62
     7
370
    25
100
AcDbCircle
 10
8.715675913336641
 20
9.15599000762712
 30
0.0
 40
0.0952500000000001
  0
LINE
  5
136
330
1F
100
AcDbEntity
  8
0
  6
SLD-Solid
 62
     7
370
    25
100
AcDbLine
 10
7.023400069642924
 20
10.38349000762712
 30
0.0
 11
7.023400069642924
 21
10.40196104312871
 31
0.0
  0
LINE
  5
137
330
1F
100
AcDbEntity
  8
0
  6
SLD-Solid
 62
     7
370
    25
100
AcDbLine
 10
6.710951757030359
 20
10.40196104312871
 30
0.0
 11
6.710951757030359
 21
10.38349000762712
 31
0.0
  0
ARC
  5
138
330
1F
100
AcDbEntity
  8
0
  6
SLD-Solid
 62
     7
370
    25
100
AcDbCircle
 10
6.867175913336641
 20
10.12888257373699
 30
0.0
 40
0.3146074338901314
100
AcDbArc
 50
60.22676461671158
 51
119.7732353832884
  0
LINE
  5
139
330
1F
100
AcDbEntity
  8
0
  6
SLD-Solid
 62
     7
370
    25
100
AcDbLine
 10
6.773425913336641
 20
10.38349000762712
 30
0.0
 11
6.773425913336641
 21
10.33349000762712
 31
0.0
  0
LINE
  5
13A
330
1F
100
AcDbEntity
  8
0
  6
SLD-Solid
 62
     7
370
    25
100
AcDbLine
 10
6.773425913336641
 20
10.28349000762712
 30
0.0
 11
6.773425913336641
 21
10.23399000762712
 31
0.0
  0
LINE
  5
13B
330
1F
100
AcDbEntity
  8
0
  6
SLD-Solid
 62
     7
370
    25
100
AcDbLine
 10
6.960925913336641
 20
10.08349000762712
 30
0.0
 11
6.960925913336641
 21
10.16843490375296
 31
0.0
  0
LINE
  5
13C
330
1F
100
AcDbEntity
  8
0
  6
SLD-Solid
 62
     7
370
    25
100
AcDbLine
 10
6.960925913336641
 20
10.23399000762712
 30
0.0
 11
6.960925913336641
 21
10.28349000762712
 31
0.0
  0
LINE
  5
13D
330
1F
100
AcDbEntity
  8
0
  6
SLD-Solid
 62
     7
370
    25
100
AcDbLine
 10
6.960925913336641
 20
10.33349000762712
 30
0.0
 11
6.960925913336641
 21
10.38349000762712
 31
0.0
  0
ARC
  5
13E
330
1F
100
AcDbEntity
  8
0
  6
SLD-Solid
 62
     7
370
    25
100
AcDbCircle
 10
6.867175913336641
 20
8.18309744151725
 30
0.0
 40
0.3146074338901314
100
AcDbArc
 50
240.2267646167124
 51
299.7732353832892
  0
LINE
  5
13F
330
1F
100
AcDbEntity
  8
0
  6
SLD-Solid
 62
     7
370
    25
100
AcDbLine
 10
6.710951757030359
 20
7.928490007627118
 30
0.0
 11
6.710951757030359
 21
7.910018972125531
 31
0.0
  0
LINE
  5
140
330
1F
100
AcDbEntity
  8
0
  6
SLD-Solid
 62
     7
370
    25
100
AcDbLine
 10
7.023400069642924
 20
7.910018972125531
 30
0.0
 11
7.023400069642924
 21
7.928490007627118
 31
0.0
  0
LINE
  5
141
330
1F
100
AcDbEntity
  8
0
  6
SLD-Solid
 62
     7
370
    25
100
AcDbLine
 10
6.960925913336641
 20
7.928490007627119
 30
0.0
 11
6.960925913336641
 21
7.978490007627118
 31
0.0
  0
LINE
  5
142
330
1F
100
AcDbEntity
  8
0
  6
SLD-Solid
 62
     7
370
    25
100
AcDbLine
 10
6.960925913336641
 20
8.028490007627118
 30
0.0
 11
6.960925913336641
 21
8.077990007627118
 31
0.0
  0
LINE
  5
143
330
1F
100
AcDbEntity
  8
0
  6
SLD-Solid
 62
     7
370
    25
100
AcDbLine
 10
6.960925913336641
 20
8.14354511150128
 30
0.0
 11
6.960925913336641
 21
8.228490007627117
 31
0.0
  0
LINE
  5
144
330
1F
100
AcDbEntity
  8
0
  6
SLD-Solid
 62
     7
370
    25
100
AcDbLine
 10
6.773425913336641
 20
8.077990007627118
 30
0.0
 11
6.773425913336641
 21
8.028490007627118
 31
0.0
  0
LINE
  5
145
330
1F
100
AcDbEntity
  8
0
  6
SLD-Solid
 62
     7
370
    25
100
AcDbLine
 10
6.773425913336641
 20
7.978490007627118
 30
0.0
 11
6.773425913336641
 21
7.928490007627119
 31
0.0
  0
LINE
  5
146
330
1F
100
AcDbEntity
  8
0
  6
SLD-Solid
 62
     7
370
    25
100
AcDbLine
 10
11.42428920227189
 20
8.28099000762712
 30
0.0
 11
11.46986410302459
 21
8.28099000762712
 31
0.0
  0
LINE
  5
147
330
1F
100
AcDbEntity
  8
0
  6
SLD-Solid
 62
     7
370
    25
100
AcDbLine
 10
11.46986410302459
 20
10.03099000762712
 30
0.0
 11
11.42428920227189
 21
10.03099000762712
 31
0.0
  0
LINE
  5
148
330
1F
100
AcDbEntity
  8
0
  6
SLD-Solid
 62
     7
370
    25
100
AcDbLine
 10
7.0060626244014
 20
10.03099000762712
 30
0.0
 11
6.960487723648708
 21
10.03099000762712
 31
0.0
  0
LINE
  5
149
330
1F
100
AcDbEntity
  8
0
  6
SLD-Solid
 62
     7
370
    25
100
AcDbLine
 10
6.960487723648709
 20
8.280990007627116
 30
0.0
 11
7.006062624401403
 21
8.280990007627116
 31
0.0
  0
ARC
  5
14A
330
1F
100
AcDbEntity
  8
0
  6
SLD-Solid
 62
     7
370
    25
100
AcDbCircle
 10
6.697175913336655
 20
8.370990007627116
 30
0.0
 40
0.0499999999999998
100
AcDbArc
 50
180.0
 51
270.0000000000008
  0
ARC
  5
14B
330
1F
100
AcDbEntity
  8
0
  6
SLD-Solid
 62
     7
370
    25
100
AcDbCircle
 10
6.697175913336652
 20
9.940990007627118
 30
0.0
 40
0.0499999999999998
100
AcDbArc
 50
90.0
 51
180.0
  0
LINE
  5
14C
330
1F
100
AcDbEntity
  8
0
  6
SLD-Solid
 62
     7
370
    25
100
AcDbLine
 10
6.697175913336655
 20
8.320990007627117
 30
0.0
 11
6.737175913336655
 21
8.320990007627117
 31
0.0
  0
LINE
  5
14D
330
1F
100
AcDbEntity
  8
0
  6
SLD-Solid
 62
     7
370
    25
100
AcDbLine
 10
6.737175913336653
 20
9.990990007627117
 30
0.0
 11
6.697175913336652
 21
9.990990007627117
 31
0.0
  0
ARC
  5
14E
330
1F
100
AcDbEntity
  8
0
  6
SLD-Solid
 62
     7
370
    25
100
AcDbCircle
 10
6.737175913336655
 20
8.370990007627116
 30
0.0
 40
0.0499999999999997
100
AcDbArc
 50
270.0000000000008
 51
348.9173680777033
  0
ARC
  5
14F
330
1F
100
AcDbEntity
  8
0
  6
SLD-Solid
 62
     7
370
    25
100
AcDbCircle
 10
6.737175913336653
 20
9.940990007627118
 30
0.0
 40
0.0499999999999994
100
AcDbArc
 50
11.08263192229556
 51
90.0
  0
ARC
  5
150
330
1F
100
AcDbEntity
  8
0
  6
SLD-Solid
 62
     7
370
    25
100
AcDbCircle
 10
6.773976575016069
 20
8.363781588940792
 30
0.0
 40
0.0124999999999995
100
AcDbArc
 50
348.9173680776967
 51
0.0
  0
ARC
  5
151
330
1F
100
AcDbEntity
  8
0
  6
SLD-Solid
 62
     7
370
    25
100
AcDbCircle
 10
6.773976575016066
 20
9.948198426313443
 30
0.0
 40
0.0125000000000002
100
AcDbArc
 50
0.0
 51
11.08263192228737
  0
LINE
  5
152
330
1F
100
AcDbEntity
  8
0
  6
SLD-Solid
 62
     7
370
    25
100
AcDbLine
 10
6.786476575016068
 20
8.363781588940792
 30
0.0
 11
6.786476575016066
 21
9.948198426313443
 31
0.0
  0
LWPOLYLINE
  5
153
330
1F
100
AcDbEntity
  8
0
  6
SLD-Solid
 62
     7
370
    25
100
AcDbPolyline
 90
        3
 70
   128
 43
0.0
 10
6.789675913336652
 20
9.815990007627116
 10
6.787237284311451
 20
9.816230191622077
 10
6.786476575016066
 20
9.81640637264792
  0
LWPOLYLINE
  5
154
330
1F
100
AcDbEntity
  8
0
  6
SLD-Solid
 62
     7
370
    25
100
AcDbPolyline
 90
        3
 70
   128
 43
0.0
 10
6.786476575016068
 20
8.495573642606312
 10
6.787237284311453
 20
8.495749823632156
 10
6.789675913336655
 20
8.495990007627116
  0
LINE
  5
155
330
1F
100
AcDbEntity
  8
0
  6
SLD-Solid
 62
     7
370
    25
100
AcDbLine
 10
6.789675913336655
 20
8.495990007627116
 30
0.0
 11
6.999517021030094
 21
8.495990007627116
 31
0.0
  0
LINE
  5
156
330
1F
100
AcDbEntity
  8
0
  6
SLD-Solid
 62
     7
370
    25
100
AcDbLine
 10
7.083982631692363
 20
8.495990007627116
 30
0.0
 11
7.202175913336655
 21
8.495990007627116
 31
0.0
  0
LINE
  5
157
330
1F
100
AcDbEntity
  8
0
  6
SLD-Solid
 62
     7
370
    25
100
AcDbLine
 10
7.202175913336654
 20
9.815990007627118
 30
0.0
 11
7.08398263169236
 21
9.815990007627116
 31
0.0
  0
LINE
  5
158
330
1F
100
AcDbEntity
  8
0
  6
SLD-Solid
 62
     7
370
    25
100
AcDbLine
 10
6.999517021030093
 20
9.815990007627116
 30
0.0
 11
6.789675913336652
 21
9.815990007627116
 31
0.0
  0
ARC
  5
159
330
1F
100
AcDbEntity
  8
0
  6
SLD-Solid
 62
     7
370
    25
100
AcDbCircle
 10
7.202175913336654
 20
9.740990007627117
 30
0.0
 40
0.0750000000000011
100
AcDbArc
 50
0.0
 51
90.0
  0
ARC
  5
15A
330
1F
100
AcDbEntity
  8
0
  6
SLD-Solid
 62
     7
370
    25
100
AcDbCircle
 10
7.202175913336655
 20
8.570990007627117
 30
0.0
 40
0.0750000000000011
100
AcDbArc
 50
270.0000000000008
 51
0.0
  0
SPLINE
  5
15B
330
1F
100
AcDbEntity
  8
0
  6
SLD-Solid
 62
     7
370
    25
100
AcDbSpline
210
0.0
220
0.0
230
1.0
 70
    12
 71
     3
 72
     9
 73
     5
 74
     0
 42
0.00000001
 43
0.00000001
 40
0.0
 40
0.0
 40
0.0
 40
0.0
 40
0.0703666986735959
 40
1.0
 40
1.0
 40
1.0
 40
1.0
 10
6.786243462242538
 20
8.39164708690419
 30
0.0
 41
1.0
 10
6.786576462233125
 20
8.391743733956154
 30
0.0
 41
1.0
 10
6.791308814281234
 20
8.393117211095015
 30
0.0
 41
1.0
 10
6.795637600263094
 20
8.392923169317132
 30
0.0
 41
1.0
 10
6.799661783866145
 20
8.392742781618564
 30
0.0
 41
1.0
  0
LINE
  5
15C
330
1F
100
AcDbEntity
  8
0
  6
SLD-Solid
 62
     7
370
    25
100
AcDbLine
 10
6.799537057551323
 20
9.919096288462313
 30
0.0
 11
6.786243462242536
 21
9.920536928518509
 31
0.0
  0
LINE
  5
15D
330
1F
100
AcDbEntity
  8
0
  6
SLD-Solid
 62
     7
370
    25
100
AcDbLine
 10
6.786476575016071
 20
9.868885820185973
 30
0.0
 11
6.826598810527083
 21
9.868885820185973
 31
0.0
  0
LINE
  5
15E
330
1F
100
AcDbEntity
  8
0
  6
SLD-Solid
 62
     7
370
    25
100
AcDbLine
 10
6.826598810527084
 20
8.443094195068262
 30
0.0
 11
6.786476575016072
 21
8.443094195068262
 31
0.0
  0
ARC
  5
15F
330
1F
100
AcDbEntity
  8
0
  6
SLD-Solid
 62
     7
370
    25
100
AcDbCircle
 10
7.331903775856512
 20
9.155990007627118
 30
0.0
 40
0.7000000000000013
100
AcDbArc
 50
177.3912504242885
 51
182.6087495757124
  0
LINE
  5
160
330
1F
100
AcDbEntity
  8
0
  6
SLD-Solid
 62
     7
370
    25
100
AcDbLine
 10
6.646613543816242
 20
9.494775000157446
 30
0.0
 11
6.632629234289142
 21
9.187850885137738
 31
0.0
  0
LINE
  5
161
330
1F
100
AcDbEntity
  8
0
  6
SLD-Solid
 62
     7
370
    25
100
AcDbLine
 10
6.632629234289142
 20
9.124129130116495
 30
0.0
 11
6.646613543816193
 21
8.81720501509788
 31
0.0
  0
LINE
  5
162
330
1F
100
AcDbEntity
  8
0
  6
SLD-Solid
 62
     7
370
    25
100
AcDbLine
 10
11.78317591333664
 20
9.94099000762712
 30
0.0
 11
11.78317591333664
 21
8.370990007627118
 31
0.0
  0
LINE
  5
163
330
1F
100
AcDbEntity
  8
0
  6
SLD-Solid
 62
     7
370
    25
100
AcDbLine
 10
11.15317591333664
 20
8.564990007627118
 30
0.0
 11
11.15317591333664
 21
9.746990007586335
 31
0.0
  0
ARC
  5
164
330
1F
100
AcDbEntity
  8
0
  6
SLD-Solid
 62
     7
370
    25
100
AcDbCircle
 10
11.10317591333664
 20
8.727490007627118
 30
0.0
 40
0.0500000000000007
100
AcDbArc
 50
0.0
 51
90.0
  0
ARC
  5
165
330
1F
100
AcDbEntity
  8
0
  6
SLD-Solid
 62
     7
370
    25
100
AcDbCircle
 10
11.10317591333664
 20
9.58449000762712
 30
0.0
 40
0.0500000000000007
100
AcDbArc
 50
270.0000000000008
 51
0.0
  0
LINE
  5
166
330
1F
100
AcDbEntity
  8
0
  6
SLD-Solid
 62
     7
370
    25
100
AcDbLine
 10
7.277175913336656
 20
9.534490007627118
 30
0.0
 11
11.10317591333664
 21
9.534490007627118
 31
0.0
  0
LINE
  5
167
330
1F
100
AcDbEntity
  8
0
  6
SLD-Solid
 62
     7
370
    25
100
AcDbLine
 10
7.277175913336656
 20
8.777490007627119
 30
0.0
 11
11.10317591333664
 21
8.777490007627119
 31
0.0
  0
ELLIPSE
  5
168
330
1F
100
AcDbEntity
  8
0
  6
SLD-Solid
 62
     7
370
    25
100
AcDbEllipse
 10
11.60739853477662
 20
6.29617829570403
 30
0.0
 11
0.0
 21
2.096915899364233
 31
0.0
210
0.0
220
0.0
230
1.0
 40
0.0911379657603223
 41
0.0994478318355428
 42
0.2421727617137952
  0
ELLIPSE
  5
169
330
1F
100
AcDbEntity
  8
0
  6
SLD-Solid
 62
     7
370
    25
100
AcDbEllipse
 10
11.60739853477662
 20
12.01580171955021
 30
0.0
 11
0.0
 21
2.096915899364234
 31
0.0
210
0.0
220
0.0
230
1.0
 40
0.0911379657603223
 41
2.899419891875996
 42
3.04214482175425
  0
SPLINE
  5
16A
330
1F
100
AcDbEntity
  8
0
  6
SLD-Solid
 62
     7
370
    25
100
AcDbSpline
210
0.0
220
0.0
230
1.0
 70
    12
 71
     3
 72
    12
 73
     8
 74
     0
 42
0.00000001
 43
0.00000001
 40
0.0
 40
0.0
 40
0.0
 40
0.0
 40
0.0060496451759061
 40
0.1385707799432106
 40
0.2725171926647854
 40
0.6362028253025273
 40
1.0
 40
1.0
 40
1.0
 40
1.0
 10
11.6172572072741
 20
9.888293611987942
 30
0.0
 41
1.0
 10
11.61720170553552
 20
9.888503835157074
 30
0.0
 41
1.0
 10
11.61593040466096
 20
9.893319123932153
 30
0.0
 41
1.0
 10
11.6133239126156
 20
9.899011547466035
 30
0.0
 41
1.0
 10
11.60728055238664
 20
9.908766424695482
 30
0.0
 41
1.0
 10
11.598958173392
 20
9.917804271134102
 30
0.0
 41
1.0
 10
11.5919360868114
 20
9.92543196145432
 30
0.0
 41
1.0
 10
11.58842450518673
 20
9.929246391376218
 30
0.0
 41
1.0
  0
SPLINE
  5
16B
330
1F
100
AcDbEntity
  8
0
  6
SLD-Solid
 62
     7
370
    25
100
AcDbSpline
210
0.0
220
0.0
230
1.0
 70
    12
 71
     3
 72
    14
 73
    10
 74
     0
 42
0.00000001
 43
0.00000001
 40
0.0
 40
0.0
 40
0.0
 40
0.0
 40
0.3118380049357923
 40
0.563666241600752
 40
0.7321562944816997
 40
0.8453439042829177
 40
0.9217830621683256
 40
0.9737705533117355
 40
1.0
 40
1.0
 40
1.0
 40
1.0
 10
11.58842450518673
 20
8.382733623878021
 30
0.0
 41
1.0
 10
11.59143538152522
 20
8.385993659168072
 30
0.0
 41
1.0
 10
11.59687772441729
 20
8.391886372084215
 30
0.0
 41
1.0
 10
11.60394624847043
 20
8.399632227474939
 30
0.0
 41
1.0
 10
11.6090882250877
 20
8.406176172584566
 30
0.0
 41
1.0
 10
11.61252841362995
 20
8.411614250223254
 30
0.0
 41
1.0
 10
11.61483248930606
 20
8.41638075911328
 30
0.0
 41
1.0
 10
11.61629389725563
 20
8.420214123301456
 30
0.0
 41
1.0
 10
11.61701529283267
 20
8.422814415378612
 30
0.0
 41
1.0
 10
11.61725720727414
 20
8.423686403266435
 30
0.0
 41
1.0
  0
SPLINE
  5
16C
330
1F
100
AcDbEntity
  8
0
  6
SLD-Solid
 62
     7
370
    25
100
AcDbSpline
210
0.0
220
0.0
230
1.0
 70
    12
 71
     3
 72
     9
 73
     5
 74
     0
 42
0.00000001
 43
0.00000001
 40
0.0
 40
0.0
 40
0.0
 40
0.0
 40
0.6019660185692974
 40
1.0
 40
1.0
 40
1.0
 40
1.0
 10
11.64673862855302
 20
9.87426434070015
 30
0.0
 41
1.0
 10
11.64550453492442
 20
9.874396348985742
 30
0.0
 41
1.0
 10
11.64345442978473
 20
9.874615644230863
 30
0.0
 41
1.0
 10
11.6425077228887
 20
9.8749018267114
 30
0.0
 41
1.0
 10
11.64213090137362
 20
9.875015737063544
 30
0.0
 41
1.0
  0
SPLINE
  5
16D
330
1F
100
AcDbEntity
  8
0
  6
SLD-Solid
 62
     7
370
    25
100
AcDbSpline
210
0.0
220
0.0
230
1.0
 70
    12
 71
     3
 72
     9
 73
     5
 74
     0
 42
0.00000001
 43
0.00000001
 40
0.0
 40
0.0
 40
0.0
 40
0.0
 40
0.4683661853465421
 40
0.9999999999999999
 40
0.9999999999999999
 40
0.9999999999999999
 40
0.9999999999999999
 10
11.64213090137386
 20
8.436964278190766
 30
0.0
 41
1.0
 10
11.64249742648875
 20
8.437078812703511
 30
0.0
 41
1.0
 10
11.64327998749841
 20
8.437323353228273
 30
0.0
 41
1.0
 10
11.64500025496439
 20
8.43751105063872
 30
0.0
 41
1.0
 10
11.64591480731955
 20
8.43761083692904
 30
0.0
 41
1.0
  0
SPLINE
  5
16E
330
1F
100
AcDbEntity
  8
0
  6
SLD-Solid
 62
     7
370
    25
100
AcDbSpline
210
0.0
220
0.0
230
1.0
 70
    12
 71
     3
 72
    18
 73
    14
 74
     0
 42
0.00000001
 43
0.00000001
 40
0.0
 40
0.0
 40
0.0
 40
0.0
 40
0.2614293421500297
 40
0.5620387233725971
 40
0.8582901019345787
 40
0.8953846361273102
 40
0.9140397544485402
 40
0.9215561722600983
 40
0.9291408581904373
 40
0.9358581230432655
 40
0.9452797171026339
 40
0.9629541059508737
 40
1.0
 40
1.0
 40
1.0
 40
1.0
 10
11.60995886706363
 20
9.86906962952276
 30
0.0
 41
1.0
 10
11.61071535686173
 20
9.869369863003305
 30
0.0
 41
1.0
 10
11.61234171049471
 20
9.870015325523806
 30
0.0
 41
1.0
 10
11.61481532336351
 20
9.87171104429403
 30
0.0
 41
1.0
 10
11.61664261843875
 20
9.876073518070864
 30
0.0
 41
1.0
 10
11.61754918489093
 20
9.88129169310471
 30
0.0
 41
1.0
 10
11.61768518657219
 20
9.882708451539632
 30
0.0
 41
1.0
 10
11.61772890510504
 20
9.883686181017135
 30
0.0
 41
1.0
 10
11.61773613198126
 20
9.884396519078779
 30
0.0
 41
1.0
 10
11.61771689246357
 20
9.885138151427295
 30
0.0
 41
1.0
 10
11.61765853980232
 20
9.886026336076077
 30
0.0
 41
1.0
 10
11.61750643127026
 20
9.88724958713706
 30
0.0
 41
1.0
 10
11.6173578186983
 20
9.887872140425136
 30
0.0
 41
1.0
 10
11.6172572072741
 20
9.888293611987942
 30
0.0
 41
1.0
  0
SPLINE
  5
16F
330
1F
100
AcDbEntity
  8
0
  6
SLD-Solid
 62
     7
370
    25
100
AcDbSpline
210
0.0
220
0.0
230
1.0
 70
    12
 71
     3
 72
    18
 73
    14
 74
     0
 42
0.00000001
 43
0.00000001
 40
0.0
 40
0.0
 40
0.0
 40
0.0
 40
0.0233884179248475
 40
0.0480710271310204
 40
0.0574397355264177
 40
0.0668974740196993
 40
0.0734535196257918
 40
0.0800047162080118
 40
0.0898039629992832
 40
0.1086163178753477
 40
0.1753027871911819
 40
0.4968081840738789
 40
1.0
 40
1.0
 40
1.0
 40
1.0
 10
11.61725720727414
 20
8.423686403266435
 30
0.0
 41
1.0
 10
11.6173204567378
 20
8.423948063451427
 30
0.0
 41
1.0
 10
11.61745045555572
 20
8.4244858627114
 30
0.0
 41
1.0
 10
11.61759733137594
 20
8.42539311187194
 30
0.0
 41
1.0
 10
11.61768832883773
 20
8.426359657570115
 30
0.0
 41
1.0
 10
11.61772647100863
 20
8.427073890830593
 30
0.0
 41
1.0
 10
11.61773586012742
 20
8.42780038868183
 30
0.0
 41
1.0
 10
11.61772174198746
 20
8.428526370617398
 30
0.0
 41
1.0
 10
11.6176676528834
 20
8.429497646752738
 30
0.0
 41
1.0
 10
11.61745457583731
 20
8.431482645746692
 30
0.0
 41
1.0
 10
11.61635179492759
 20
8.436439823270497
 30
0.0
 41
1.0
 10
11.61379411692343
 20
8.441077577457664
 30
0.0
 41
1.0
 10
11.61141220111469
 20
8.442215859228442
 30
0.0
 41
1.0
 10
11.60995886706363
 20
8.442910385731475
 30
0.0
 41
1.0
  0
ELLIPSE
  5
170
330
1F
100
AcDbEntity
  8
0
  6
SLD-Solid
 62
     7
370
    25
100
AcDbEllipse
 10
11.60739853477662
 20
12.01580171955021
 30
0.0
 11
0.0
 21
2.146915899364233
 31
0.0
210
0.0
220
0.0
230
1.0
 40
0.0911379657603229
 41
2.899419891875997
 42
3.154678275393703
  0
ELLIPSE
  5
171
330
1F
100
AcDbEntity
  8
0
  6
SLD-Solid
 62
     7
370
    25
100
AcDbEllipse
 10
11.60739853477662
 20
6.29617829570403
 30
0.0
 11
0.0
 21
2.146915899364232
 31
0.0
210
0.0
220
0.0
230
1.0
 40
0.0911379657603229
 41
6.270099685375975
 42
6.525358068893378
  0
LINE
  5
172
330
1F
100
AcDbEntity
  8
0
  6
SLD-Solid
 62
     7
370
    25
100
AcDbLine
 10
11.46733239923457
 20
10.18399000762712
 30
0.0
 11
11.56047548089857
 21
9.931534519398166
 31
0.0
  0
LINE
  5
173
330
1F
100
AcDbEntity
  8
0
  6
SLD-Solid
 62
     7
370
    25
100
AcDbLine
 10
11.41010541988246
 20
10.18399000762712
 30
0.0
 11
11.46733239923457
 21
10.18399000762712
 31
0.0
  0
LINE
  5
174
330
1F
100
AcDbEntity
  8
0
  6
SLD-Solid
 62
     7
370
    25
100
AcDbLine
 10
11.41010541988246
 20
10.23399000762712
 30
0.0
 11
11.41010541988246
 21
10.18399000762712
 31
0.0
  0
LINE
  5
175
330
1F
100
AcDbEntity
  8
0
  6
SLD-Solid
 62
     7
370
    25
100
AcDbLine
 10
11.41010541988246
 20
10.23399000762712
 30
0.0
 11
11.46733239923457
 21
10.23399000762712
 31
0.0
  0
ELLIPSE
  5
176
330
1F
100
AcDbEntity
  8
0
  6
SLD-Solid
 62
     7
370
    25
100
AcDbEllipse
 10
11.46733239923457
 20
10.18399000762712
 30
0.0
 11
0.0
 21
0.04999999999999893
 31
0.0
210
0.0
220
0.0
230
1.0
 40
0.0911379657603481
 41
6.041012545466313
 42
6.283185307179586
  0
LINE
  5
177
330
1F
100
AcDbEntity
  8
0
  6
SLD-Solid
 62
     7
370
    25
100
AcDbLine
 10
11.46842520063149
 20
10.23253096819221
 30
0.0
 11
11.56156828229549
 21
9.980075479963256
 31
0.0
  0
LINE
  5
178
330
1F
100
AcDbEntity
  8
0
  6
SLD-Solid
 62
     7
370
    25
100
AcDbLine
 10
11.56156828229549
 20
8.331904535290983
 30
0.0
 11
11.46842520063149
 21
8.07944904706203
 31
0.0
  0
ELLIPSE
  5
179
330
1F
100
AcDbEntity
  8
0
  6
SLD-Solid
 62
     7
370
    25
100
AcDbEllipse
 10
11.46733239923457
 20
8.127990007627119
 30
0.0
 11
0.0
 21
0.04999999999999893
 31
0.0
210
0.0
220
0.0
230
1.0
 40
0.0911379657603481
 41
3.141592653589792
 42
3.383765415303333
  0
LINE
  5
17A
330
1F
100
AcDbEntity
  8
0
  6
SLD-Solid
 62
     7
370
    25
100
AcDbLine
 10
11.41010541988246
 20
8.077990007627118
 30
0.0
 11
11.46733239923457
 21
8.077990007627118
 31
0.0
  0
LINE
  5
17B
330
1F
100
AcDbEntity
  8
0
  6
SLD-Solid
 62
     7
370
    25
100
AcDbLine
 10
11.41010541988246
 20
8.127990007627119
 30
0.0
 11
11.41010541988246
 21
8.077990007627118
 31
0.0
  0
LINE
  5
17C
330
1F
100
AcDbEntity
  8
0
  6
SLD-Solid
 62
     7
370
    25
100
AcDbLine
 10
11.46733239923457
 20
8.127990007627119
 30
0.0
 11
11.41010541988246
 21
8.127990007627119
 31
0.0
  0
LINE
  5
17D
330
1F
100
AcDbEntity
  8
0
  6
SLD-Solid
 62
     7
370
    25
100
AcDbLine
 10
11.56047548089857
 20
8.38044549585607
 30
0.0
 11
11.46733239923457
 21
8.127990007627119
 31
0.0
  0
LINE
  5
17E
330
1F
100
AcDbEntity
  8
0
  6
SLD-Solid
 62
     7
370
    25
100
AcDbLine
 10
11.78317591333664
 20
8.370990007627121
 30
0.0
 11
11.78317591333664
 21
8.127990007627119
 31
0.0
  0
LINE
  5
17F
330
1F
100
AcDbEntity
  8
0
  6
SLD-Solid
 62
     7
370
    25
100
AcDbLine
 10
11.78317591333664
 20
10.18399000762712
 30
0.0
 11
11.78317591333664
 21
9.94099000762712
 31
0.0
  0
ARC
  5
180
330
1F
100
AcDbEntity
  8
0
  6
SLD-Solid
 62
     7
370
    25
100
AcDbCircle
 10
11.73317591333664
 20
8.127990007627119
 30
0.0
 40
0.0500000000000007
100
AcDbArc
 50
270.0000000000008
 51
0.0
  0
LINE
  5
181
330
1F
100
AcDbEntity
  8
0
  6
SLD-Solid
 62
     7
370
    25
100
AcDbLine
 10
11.46733239923457
 20
10.23399000762712
 30
0.0
 11
11.73317591333664
 21
10.23399000762712
 31
0.0
  0
LINE
  5
182
330
1F
100
AcDbEntity
  8
0
  6
SLD-Solid
 62
     7
370
    25
100
AcDbLine
 10
11.73317591333664
 20
8.077990007627118
 30
0.0
 11
11.46733239923457
 21
8.077990007627118
 31
0.0
  0
ARC
  5
183
330
1F
100
AcDbEntity
  8
0
  6
SLD-Solid
 62
     7
370
    25
100
AcDbCircle
 10
11.73317591333664
 20
10.18399000762712
 30
0.0
 40
0.0499999999999989
100
AcDbArc
 50
0.0
 51
90.0
  0
LINE
  5
184
330
1F
100
AcDbEntity
  8
0
  6
SLD-Solid
 62
     7
370
    25
100
AcDbLine
 10
11.11617591333664
 20
10.18399000762712
 30
0.0
 11
11.11617591333664
 21
10.23399000762712
 31
0.0
  0
LINE
  5
185
330
1F
100
AcDbEntity
  8
0
  6
SLD-Solid
 62
     7
370
    25
100
AcDbLine
 10
11.11617591333664
 20
10.23399000762712
 30
0.0
 11
11.41010541988246
 21
10.23399000762712
 31
0.0
  0
LINE
  5
186
330
1F
100
AcDbEntity
  8
0
  6
SLD-Solid
 62
     7
370
    25
100
AcDbLine
 10
11.11617591333664
 20
10.18399000762712
 30
0.0
 11
11.41010541988246
 21
10.18399000762712
 31
0.0
  0
LINE
  5
187
330
1F
100
AcDbEntity
  8
0
  6
SLD-Solid
 62
     7
370
    25
100
AcDbLine
 10
11.11617591333664
 20
8.077990007627118
 30
0.0
 11
11.11617591333664
 21
8.127990007627119
 31
0.0
  0
LINE
  5
188
330
1F
100
AcDbEntity
  8
0
  6
SLD-Solid
 62
     7
370
    25
100
AcDbLine
 10
11.11617591333664
 20
8.077990007627118
 30
0.0
 11
11.41010541988246
 21
8.077990007627118
 31
0.0
  0
LINE
  5
189
330
1F
100
AcDbEntity
  8
0
  6
SLD-Solid
 62
     7
370
    25
100
AcDbLine
 10
11.41010541988246
 20
8.127990007627119
 30
0.0
 11
11.11617591333664
 21
8.127990007627119
 31
0.0
  0
CIRCLE
  5
18A
330
1F
100
AcDbEntity
  8
0
  6
SLD-Solid
 62
     7
370
    25
100
AcDbCircle
 10
8.303175913336641
 20
9.15599000762712
 30
0.0
 40
0.0449925411675292
  0
CIRCLE
  5
18B
330
1F
100
AcDbEntity
  8
0
  6
SLD-Solid
 62
     7
370
    25
100
AcDbCircle
 10
8.715675913336641
 20
9.15599000762712
 30
0.0
 40
0.0449925411675274
  0
LINE
  5
18C
330
1F
100
AcDbEntity
  8
0
  6
SLD-Solid
 62
     7
370
    25
100
AcDbLine
 10
7.408903294786549
 20
9.45599000762712
 30
0.0
 11
7.401366837107661
 21
9.45599000762712
 31
0.0
  0
LINE
  5
18D
330
1F
100
AcDbEntity
  8
0
  6
SLD-Solid
 62
     7
370
    25
100
AcDbLine
 10
7.408903294786549
 20
8.855990007627119
 30
0.0
 11
7.401366837107661
 21
8.855990007627119
 31
0.0
  0
LINE
  5
18E
330
1F
100
AcDbEntity
  8
0
  6
SLD-Solid
 62
     7
370
    25
100
AcDbLine
 10
7.401366837107661
 20
9.45599000762712
 30
0.0
 11
7.277175913336656
 21
9.45599000762712
 31
0.0
  0
LINE
  5
18F
330
1F
100
AcDbEntity
  8
0
  6
SLD-Solid
 62
     7
370
    25
100
AcDbLine
 10
7.401366837107661
 20
8.855990007627119
 30
0.0
 11
7.277175913336656
 21
8.855990007627119
 31
0.0
  0
LINE
  5
190
330
1F
100
AcDbEntity
  8
0
  6
SLD-Solid
 62
     7
370
    25
100
AcDbLine
 10
8.155165897188523
 20
8.855990007627119
 30
0.0
 11
8.155165897188523
 21
9.455990007627118
 31
0.0
  0
LINE
  5
191
330
1F
100
AcDbEntity
  8
0
  6
SLD-Solid
 62
     7
370
    25
100
AcDbLine
 10
8.155165897188523
 20
9.455990007627118
 30
0.0
 11
7.408903294786549
 21
9.45599000762712
 31
0.0
  0
LINE
  5
192
330
1F
100
AcDbEntity
  8
0
  6
SLD-Solid
 62
     7
370
    25
100
AcDbLine
 10
8.155165897188523
 20
8.855990007627119
 30
0.0
 11
7.408903294786549
 21
8.855990007627119
 31
0.0
  0
LINE
  5
193
330
1F
100
AcDbEntity
  8
0
  6
SLD-Solid
 62
     7
370
    25
100
AcDbLine
 10
8.903175913336641
 20
8.955990007627118
 30
0.0
 11
8.903175913336641
 21
9.355990007627119
 31
0.0
  0
ARC
  5
194
330
1F
100
AcDbEntity
  8
0
  6
SLD-Solid
 62
     7
370
    25
100
AcDbCircle
 10
8.803175913336641
 20
9.355990007627119
 30
0.0
 40
0.0999999999999996
100
AcDbArc
 50
0.0
 51
90.0
  0
ARC
  5
195
330
1F
100
AcDbEntity
  8
0
  6
SLD-Solid
 62
     7
370
    25
100
AcDbCircle
 10
8.803175913336641
 20
8.955990007627118
 30
0.0
 40
0.0999999999999996
100
AcDbArc
 50
270.0000000000008
 51
0.0
  0
LINE
  5
196
330
1F
100
AcDbEntity
  8
0
  6
SLD-Solid
 62
     7
370
    25
100
AcDbLine
 10
8.803175913336641
 20
9.455990007627118
 30
0.0
 11
8.155165897188523
 21
9.455990007627118
 31
0.0
  0
LINE
  5
197
330
1F
100
AcDbEntity
  8
0
  6
SLD-Solid
 62
     7
370
    25
100
AcDbLine
 10
8.803175913336641
 20
8.855990007627119
 30
0.0
 11
8.155165897188523
 21
8.855990007627119
 31
0.0
  0
LINE
  5
198
330
1F
100
AcDbEntity
  8
0
  6
SLD-Solid
 62
     7
370
    25
100
AcDbLine
 10
6.725699638002321
 20
10.40196104312871
 30
0.0
 11
6.710951757030359
 21
10.40196104312871
 31
0.0
  0
LINE
  5
199
330
1F
100
AcDbEntity
  8
0
  6
SLD-Solid
 62
     7
370
    25
100
AcDbLine
 10
7.023400069642924
 20
10.40196104312871
 30
0.0
 11
6.725699638002321
 21
10.40196104312871
 31
0.0
  0
LINE
  5
19A
330
1F
100
AcDbEntity
  8
0
  6
SLD-Solid
 62
     7
370
    25
100
AcDbLine
 10
6.725699638002321
 20
10.38349000762712
 30
0.0
 11
6.710951757030359
 21
10.38349000762712
 31
0.0
  0
LINE
  5
19B
330
1F
100
AcDbEntity
  8
0
  6
SLD-Solid
 62
     7
370
    25
100
AcDbLine
 10
7.023400069642924
 20
10.38349000762712
 30
0.0
 11
6.725699638002321
 21
10.38349000762712
 31
0.0
  0
LINE
  5
19C
330
1F
100
AcDbEntity
  8
0
  6
SLD-Solid
 62
     7
370
    25
100
AcDbLine
 10
6.929585618648281
 20
10.08349000762712
 30
0.0
 11
6.960925913336641
 21
10.08349000762712
 31
0.0
  0
LINE
  5
19D
330
1F
100
AcDbEntity
  8
0
  6
SLD-Solid
 62
     7
370
    25
100
AcDbLine
 10
6.710951757030359
 20
7.910018972125531
 30
0.0
 11
7.023400069642924
 21
7.910018972125531
 31
0.0
  0
LINE
  5
19E
330
1F
100
AcDbEntity
  8
0
  6
SLD-Solid
 62
     7
370
    25
100
AcDbLine
 10
6.710951757030359
 20
7.928490007627118
 30
0.0
 11
7.023400069642924
 21
7.928490007627118
 31
0.0
  0
LINE
  5
19F
330
1F
100
AcDbEntity
  8
0
  6
SLD-Solid
 62
     7
370
    25
100
AcDbLine
 10
6.960925913336641
 20
8.228490007627117
 30
0.0
 11
6.929585618648281
 21
8.228490007627117
 31
0.0
  0
LWPOLYLINE
  5
1A0
330
1F
100
AcDbEntity
  8
0
  6
SLD-Solid
 62
     7
370
    25
100
AcDbPolyline
 90
       59
 70
   128
 43
0.0
 10
11.54683916142257
 20
8.489990007627117
 10
11.54025368285733
 20
8.451499515267331
 10
11.53251589830224
 20
8.412845626507018
 10
11.52438953087775
 20
8.378800914143044
 10
11.5159249824464
 20
8.349576532412238
 10
11.50717475235799
 20
8.32535373859635
 10
11.49819311183493
 20
8.306282768816851
 10
11.48903576736786
 20
8.292481906231082
 10
11.47975951520934
 20
8.284036747409104
 10
11.47042188910864
 20
8.280999671441295
 10
11.46108080347233
 20
8.283389515069505
 10
11.45179419416392
 20
8.29119145585664
 10
11.44261965917043
 20
8.304357104119305
 10
11.43361410136459
 20
8.322804803053302
 10
11.4248333755783
 20
8.346420135190572
 10
11.41633194217627
 20
8.375056632046327
 10
11.4081625292786
 20
8.408536682555031
 10
11.4003758057271
 20
8.446652634660802
 10
11.3930200668239
 20
8.489168083229956
 10
11.38614093479124
 20
8.535819336297635
 10
11.37978107581058
 20
8.586317050554575
 10
11.37397993539563
 20
8.640348025930187
 10
11.36877349374104
 20
8.697577148141571
 10
11.36419404256373
 20
8.757649467160192
 10
11.36026998482119
 20
8.820192398705089
 10
11.35702565854891
 20
8.884818035108303
 10
11.35448118590952
 20
8.951125551220006
 10
11.35265234838978
 20
9.018703690431217
 10
11.35155048891975
 20
9.087133315395176
 10
11.3511824415209
 20
9.155990007627125
 10
11.35155048891975
 20
9.224846699859071
 10
11.35265234838978
 20
9.293276324823033
 10
11.35448118590952
 20
9.360854464034242
 10
11.35702565854891
 20
9.427161980145945
 10
11.36026998482119
 20
9.491787616549159
 10
11.36419404256373
 20
9.554330548094056
 10
11.36877349374104
 20
9.614402867112679
 10
11.37397993539563
 20
9.671631989324059
 10
11.37978107581058
 20
9.725662964699671
 10
11.38614093479124
 20
9.776160678956611
 10
11.3930200668239
 20
9.822811932024292
 10
11.4003758057271
 20
9.865327380593442
 10
11.4081625292786
 20
9.903443332699213
 10
11.41633194217628
 20
9.936923383207917
 10
11.4248333755783
 20
9.965559880063672
 10
11.4336141013646
 20
9.98917521220094
 10
11.44261965917043
 20
10.00762291113494
 10
11.45179419416392
 20
10.0207885593976
 10
11.46108080347233
 20
10.02859050018474
 10
11.47042188910864
 20
10.03098034381294
 10
11.47975951520934
 20
10.02794326784514
 10
11.48903576736786
 20
10.01949810902315
 10
11.49819311183494
 20
10.00569724643739
 10
11.50717475235799
 20
9.986626276657887
 10
11.5159249824464
 20
9.962403482841998
 10
11.52438953087776
 20
9.933179101111191
 10
11.53251589830224
 20
9.899134388747216
 10
11.54025368285734
 20
9.8604804999869
 10
11.54683916142257
 20
9.82199000762712
  0
LWPOLYLINE
  5
1A1
330
1F
100
AcDbEntity
  8
0
  6
SLD-Solid
 62
     7
370
    25
100
AcDbPolyline
 90
       47
 70
   128
 43
0.0
 10
11.50697095054948
 20
8.489990007627119
 10
11.50326512427246
 20
8.479411320661264
 10
11.4951398670213
 20
8.460523412698988
 10
11.48682224594421
 20
8.446928425458328
 10
11.47837556315989
 20
8.438729825001062
 10
11.46986410302459
 20
8.435990007627119
 10
11.46135264288928
 20
8.438729825001062
 10
11.45290596010496
 20
8.44692842545833
 10
11.44458833902787
 20
8.46052341269899
 10
11.43646308177672
 20
8.479411320661265
 10
11.42859202646535
 20
8.503448400960732
 10
11.42103507657735
 20
8.532451716902324
 10
11.41384974506439
 20
8.566200535739046
 10
11.40709071663791
 20
8.604438008581456
 10
11.40080943158543
 20
8.646873125172807
 10
11.39505369427896
 20
8.693182928652812
 10
11.3898673093548
 20
8.743014973454368
 10
11.38528974833386
 20
8.795990007627122
 10
11.3813558492195
 20
8.85170485917382
 10
11.37809555135934
 20
8.909735504432641
 10
11.37553366758872
 20
8.969640295153308
 10
11.37368969539004
 20
9.030963319706933
 10
11.37257766850516
 20
9.09323787284881
 10
11.37220605013012
 20
9.155990007627123
 10
11.37257766850516
 20
9.218742142405437
 10
11.37368969539004
 20
9.281016695547313
 10
11.37553366758872
 20
9.342339720100938
 10
11.37809555135934
 20
9.402244510821605
 10
11.3813558492195
 20
9.460275156080428
 10
11.38528974833386
 20
9.515990007627124
 10
11.3898673093548
 20
9.568965041799876
 10
11.39505369427896
 20
9.618797086601433
 10
11.40080943158544
 20
9.665106890081438
 10
11.40709071663791
 20
9.707542006672787
 10
11.4138497450644
 20
9.745779479515196
 10
11.42103507657735
 20
9.779528298351918
 10
11.42859202646535
 20
9.80853161429351
 10
11.43646308177672
 20
9.832568694592975
 10
11.44458833902787
 20
9.85145660255525
 10
11.45290596010496
 20
9.865051589795911
 10
11.46135264288928
 20
9.873250190253176
 10
11.46986410302459
 20
9.875990007627118
 10
11.47837556315989
 20
9.873250190253176
 10
11.48682224594421
 20
9.86505158979591
 10
11.4951398670213
 20
9.851456602555247
 10
11.50326512427246
 20
9.832568694592972
 10
11.50697095054948
 20
9.82199000762712
  0
LWPOLYLINE
  5
1A2
330
1F
100
AcDbEntity
  8
0
  6
SLD-Solid
 62
     7
370
    25
100
AcDbPolyline
 90
       41
 70
   128
 43
0.0
 10
11.42428920227189
 20
8.28099000762712
 10
11.41550590271964
 20
8.283389515069505
 10
11.40621929341122
 20
8.29119145585664
 10
11.39704475841773
 20
8.304357104119305
 10
11.3880392006119
 20
8.3228048030533
 10
11.37925847482561
 20
8.34642013519057
 10
11.37075704142358
 20
8.375056632046327
 10
11.36258762852591
 20
8.408536682555031
 10
11.35480090497441
 20
8.446652634660802
 10
11.3474451660712
 20
8.489168083229956
 10
11.34056603403855
 20
8.535819336297635
 10
11.33420617505788
 20
8.586317050554575
 10
11.32840503464293
 20
8.640348025930187
 10
11.32319859298835
 20
8.69757714814157
 10
11.31861914181103
 20
8.757649467160192
 10
11.31469508406849
 20
8.820192398705089
 10
11.31145075779622
 20
8.884818035108303
 10
11.30890628515682
 20
8.951125551220006
 10
11.30707744763708
 20
9.018703690431217
 10
11.30597558816705
 20
9.087133315395176
 10
11.3056075407682
 20
9.155990007627125
 10
11.30597558816705
 20
9.224846699859071
 10
11.30707744763708
 20
9.293276324823033
 10
11.30890628515682
 20
9.360854464034242
 10
11.31145075779622
 20
9.427161980145945
 10
11.31469508406849
 20
9.491787616549159
 10
11.31861914181103
 20
9.554330548094056
 10
11.32319859298835
 20
9.614402867112679
 10
11.32840503464294
 20
9.671631989324059
 10
11.33420617505788
 20
9.725662964699671
 10
11.34056603403855
 20
9.776160678956611
 10
11.34744516607121
 20
9.822811932024292
 10
11.35480090497441
 20
9.865327380593442
 10
11.36258762852591
 20
9.903443332699213
 10
11.37075704142358
 20
9.936923383207917
 10
11.37925847482561
 20
9.965559880063672
 10
11.3880392006119
 20
9.98917521220094
 10
11.39704475841774
 20
10.00762291113494
 10
11.40621929341123
 20
10.0207885593976
 10
11.41550590271964
 20
10.02859050018474
 10
11.42428920227189
 20
10.03099000762712
  0
ARC
  5
1A3
330
1F
100
AcDbEntity
  8
0
  6
SLD-Solid
 62
     7
370
    25
100
AcDbCircle
 10
11.27780600282405
 20
8.546961332394721
 30
0.0
 40
0.1922265257274003
100
AcDbArc
 50
331.7122919489655
 51
342.7599345470431
  0
ARC
  5
1A4
330
1F
100
AcDbEntity
  8
0
  6
SLD-Solid
 62
     7
370
    25
100
AcDbCircle
 10
11.27780600282362
 20
9.765018682859338
 30
0.0
 40
0.1922265257278623
100
AcDbArc
 50
17.24006545297098
 51
28.28770805102191
  0
LWPOLYLINE
  5
1A5
330
1F
100
AcDbEntity
  8
0
  6
SLD-Solid
 62
     7
370
    25
100
AcDbPolyline
 90
       61
 70
   128
 43
0.0
 10
6.882567716357748
 20
9.815990007627116
 10
6.88279693389986
 20
9.817457176388187
 10
6.890098143815957
 20
9.860480499986906
 10
6.897835928371055
 20
9.89913438874722
 10
6.905962295795538
 20
9.933179101111191
 10
6.914426844226897
 20
9.962403482841998
 10
6.923177074315305
 20
9.986626276657885
 10
6.932158714838359
 20
10.00569724643738
 10
6.941316059305435
 20
10.01949810902315
 10
6.950592311463955
 20
10.02794326784513
 10
6.959929937564651
 20
10.03098034381294
 10
6.969271023200959
 20
10.02859050018473
 10
6.978557632509376
 20
10.02078855939759
 10
6.987732167502866
 20
10.00762291113493
 10
6.996737725308701
 20
9.989175212200934
 10
7.005518451094993
 20
9.965559880063664
 10
7.014019884497022
 20
9.936923383207908
 10
7.022189297394696
 20
9.903443332699204
 10
7.029976020946192
 20
9.865327380593433
 10
7.0373317598494
 20
9.82281193202428
 10
7.044210891882052
 20
9.776160678956598
 10
7.050570750862723
 20
9.72566296469966
 10
7.056371891277667
 20
9.671631989324046
 10
7.061578332932257
 20
9.614402867112664
 10
7.066157784109572
 20
9.554330548094043
 10
7.070081841852113
 20
9.491787616549146
 10
7.073326168124385
 20
9.42716198014593
 10
7.075870640763782
 20
9.36085446403423
 10
7.077699478283519
 20
9.293276324823019
 10
7.078801337753552
 20
9.224846699859057
 10
7.079169385152402
 20
9.15599000762711
 10
7.078801337753552
 20
9.087133315395162
 10
7.07769947828352
 20
9.018703690431202
 10
7.075870640763782
 20
8.951125551219992
 10
7.073326168124385
 20
8.88481803510829
 10
7.070081841852113
 20
8.820192398705075
 10
7.066157784109572
 20
8.75764946716018
 10
7.061578332932257
 20
8.697577148141557
 10
7.056371891277668
 20
8.640348025930175
 10
7.050570750862723
 20
8.586317050554563
 10
7.044210891882052
 20
8.535819336297624
 10
7.0373317598494
 20
8.489168083229943
 10
7.029976020946193
 20
8.446652634660794
 10
7.022189297394696
 20
8.40853668255502
 10
7.014019884497022
 20
8.375056632046318
 10
7.005518451094993
 20
8.346420135190563
 10
6.996737725308701
 20
8.322804803053295
 10
6.987732167502867
 20
8.304357104119298
 10
6.978557632509376
 20
8.291191455856636
 10
6.96927102320096
 20
8.283389515069501
 10
6.959929937564651
 20
8.28099967144129
 10
6.950592311463956
 20
8.2840367474091
 10
6.941316059305435
 20
8.29248190623108
 10
6.932158714838359
 20
8.306282768816848
 10
6.923177074315305
 20
8.32535373859635
 10
6.914426844226897
 20
8.349576532412238
 10
6.905962295795538
 20
8.378800914143044
 10
6.897835928371055
 20
8.41284562650702
 10
6.890098143815957
 20
8.451499515267335
 10
6.88279693389986
 20
8.494522838866052
 10
6.882567716357751
 20
8.495990007627116
  0
LWPOLYLINE
  5
1A6
330
1F
100
AcDbEntity
  8
0
  6
SLD-Solid
 62
     7
370
    25
100
AcDbPolyline
 90
       47
 70
   128
 43
0.0
 10
6.921458426267323
 20
9.815990007627116
 10
6.927086702400837
 20
9.832568694592972
 10
6.935211959651991
 20
9.851456602555247
 10
6.943529580729083
 20
9.865051589795906
 10
6.951976263513401
 20
9.873250190253174
 10
6.960487723648709
 20
9.875990007627117
 10
6.968999183784017
 20
9.873250190253172
 10
6.977445866568333
 20
9.865051589795906
 10
6.985763487645426
 20
9.851456602555244
 10
6.993888744896579
 20
9.83256869459297
 10
7.00175980020795
 20
9.808531614293504
 10
7.009316750095942
 20
9.779528298351911
 10
7.0165020816089
 20
9.745779479515187
 10
7.023261110035385
 20
9.707542006672778
 10
7.029542395087861
 20
9.665106890081429
 10
7.035298132394335
 20
9.618797086601422
 10
7.040484517318494
 20
9.568965041799867
 10
7.045062078339441
 20
9.515990007627112
 10
7.048995977453802
 20
9.460275156080415
 10
7.052256275313959
 20
9.402244510821594
 10
7.054818159084578
 20
9.342339720100927
 10
7.056662131283256
 20
9.2810166955473
 10
7.05777415816814
 20
9.218742142405425
 10
7.058145776543176
 20
9.15599000762711
 10
7.05777415816814
 20
9.093237872848796
 10
7.056662131283256
 20
9.03096331970692
 10
7.054818159084578
 20
8.969640295153296
 10
7.052256275313959
 20
8.909735504432629
 10
7.048995977453802
 20
8.851704859173807
 10
7.045062078339441
 20
8.795990007627111
 10
7.040484517318494
 20
8.743014973454358
 10
7.035298132394335
 20
8.693182928652803
 10
7.029542395087861
 20
8.646873125172798
 10
7.023261110035385
 20
8.604438008581448
 10
7.0165020816089
 20
8.56620053573904
 10
7.009316750095943
 20
8.532451716902317
 10
7.00175980020795
 20
8.503448400960725
 10
6.99388874489658
 20
8.479411320661258
 10
6.985763487645426
 20
8.460523412698985
 10
6.977445866568334
 20
8.446928425458324
 10
6.968999183784017
 20
8.438729825001058
 10
6.960487723648709
 20
8.435990007627115
 10
6.951976263513401
 20
8.43872982500106
 10
6.943529580729084
 20
8.446928425458326
 10
6.935211959651991
 20
8.460523412698988
 10
6.927086702400837
 20
8.479411320661265
 10
6.921458426267324
 20
8.495990007627116
  0
LWPOLYLINE
  5
1A7
330
1F
100
AcDbEntity
  8
0
  6
SLD-Solid
 62
     7
370
    25
100
AcDbPolyline
 90
       41
 70
   128
 43
0.0
 10
7.006062624401401
 20
10.03099000762712
 10
7.014845923953653
 20
10.02859050018473
 10
7.024132533262069
 20
10.02078855939759
 10
7.033307068255559
 20
10.00762291113493
 10
7.042312626061395
 20
9.989175212200934
 10
7.051093351847687
 20
9.965559880063664
 10
7.059594785249715
 20
9.936923383207908
 10
7.06776419814739
 20
9.903443332699204
 10
7.075550921698887
 20
9.865327380593433
 10
7.082906660602093
 20
9.82281193202428
 10
7.089785792634745
 20
9.776160678956598
 10
7.096145651615415
 20
9.72566296469966
 10
7.101946792030361
 20
9.671631989324048
 10
7.10715323368495
 20
9.614402867112664
 10
7.111732684862266
 20
9.554330548094043
 10
7.115656742604807
 20
9.491787616549146
 10
7.118901068877078
 20
9.42716198014593
 10
7.121445541516477
 20
9.36085446403423
 10
7.123274379036214
 20
9.293276324823019
 10
7.124376238506247
 20
9.224846699859057
 10
7.124744285905096
 20
9.15599000762711
 10
7.124376238506247
 20
9.087133315395162
 10
7.123274379036214
 20
9.018703690431202
 10
7.121445541516477
 20
8.951125551219992
 10
7.118901068877079
 20
8.88481803510829
 10
7.115656742604807
 20
8.820192398705075
 10
7.111732684862266
 20
8.75764946716018
 10
7.107153233684951
 20
8.697577148141557
 10
7.101946792030362
 20
8.640348025930175
 10
7.096145651615417
 20
8.586317050554563
 10
7.089785792634745
 20
8.535819336297624
 10
7.082906660602094
 20
8.489168083229943
 10
7.075550921698887
 20
8.446652634660794
 10
7.06776419814739
 20
8.40853668255502
 10
7.059594785249715
 20
8.375056632046318
 10
7.051093351847688
 20
8.346420135190563
 10
7.042312626061395
 20
8.322804803053295
 10
7.033307068255559
 20
8.304357104119298
 10
7.02413253326207
 20
8.291191455856636
 10
7.014845923953654
 20
8.283389515069501
 10
7.006062624401403
 20
8.280990007627116
  0
ARC
  5
1A8
330
1F
100
AcDbEntity
  8
0
  6
SLD-Solid
 62
     7
370
    25
100
AcDbCircle
 10
7.161812735342224
 20
9.760495922273588
 30
0.0
 40
0.2025305197138791
100
AcDbArc
 50
151.8279794524189
 51
164.097357775735
  0
ARC
  5
1A9
330
1F
100
AcDbEntity
  8
0
  6
SLD-Solid
 62
     7
370
    25
100
AcDbCircle
 10
7.161812735342289
 20
8.551484092980662
 30
0.0
 40
0.2025305197139441
100
AcDbArc
 50
195.9026422242653
 51
208.1720205475778
  0
LINE
  5
1AA
330
1F
100
AcDbEntity
  8
0
  6
SLD-Solid
 62
     7
370
    25
100
AcDbLine
 10
6.647175913336655
 20
8.370990007627116
 30
0.0
 11
6.647175913336652
 21
9.940990007627118
 31
0.0
  0
LINE
  5
1AB
330
1F
100
AcDbEntity
  8
0
  6
SLD-Solid
 62
     7
370
    25
100
AcDbLine
 10
7.277175913336653
 20
9.740990007627117
 30
0.0
 11
7.277175913336654
 21
8.570990007973625
 31
0.0
  0
LINE
  5
1AC
330
1F
100
AcDbEntity
  8
0
  6
SLD-Solid
 62
     7
370
    25
100
AcDbLine
 10
6.786243462242537
 20
9.931059472590457
 30
0.0
 11
6.786243462242536
 21
9.896121427840969
 31
0.0
  0
LINE
  5
1AD
330
1F
100
AcDbEntity
  8
0
  6
SLD-Solid
 62
     7
370
    25
100
AcDbLine
 10
6.786243462242537
 20
8.415858587413265
 30
0.0
 11
6.786243462242538
 21
8.380920542663775
 31
0.0
  0
ELLIPSE
  5
1AE
330
1F
100
AcDbEntity
  8
0
  6
SLD-Solid
 62
     7
370
    25
100
AcDbEllipse
 10
6.826598810527079
 20
12.0158017195502
 30
0.0
 11
-1.776356839400250E-15
 21
2.096915899364234
 31
0.0
210
0.0
220
0.0
230
1.0
 40
0.0911379657603181
 41
3.222595741586224
 42
3.383765415303727
  0
ELLIPSE
  5
1AF
330
1F
100
AcDbEntity
  8
0
  6
SLD-Solid
 62
     7
370
    25
100
AcDbEllipse
 10
6.800370270138565
 20
12.0158017195502
 30
0.0
 11
-1.776356839400250E-15
 21
2.096915899364234
 31
0.0
210
0.0
220
0.0
230
1.0
 40
0.2457226901677996
 41
3.138964368498798
 42
3.141592653589849
  0
ELLIPSE
  5
1B0
330
1F
100
AcDbEntity
  8
0
  6
SLD-Solid
 62
     7
370
    25
100
AcDbEllipse
 10
6.800370270138572
 20
6.296178295704029
 30
0.0
 11
-2.664535259100376E-15
 21
2.096915899364233
 31
0.0
210
0.0
220
0.0
230
1.0
 40
0.2457226901678001
 41
0.0
 42
0.0022145353812612
  0
ELLIPSE
  5
1B1
330
1F
100
AcDbEntity
  8
0
  6
SLD-Solid
 62
     7
370
    25
100
AcDbEllipse
 10
6.826598810527087
 20
6.296178295704029
 30
0.0
 11
-2.664535259100376E-15
 21
2.096915899364233
 31
0.0
210
0.0
220
0.0
230
1.0
 40
0.091137965760319
 41
6.041012545465945
 42
6.20218221918367
  0
SPLINE
  5
1B2
330
1F
100
AcDbEntity
  8
0
  6
SLD-Solid
 62
     7
370
    25
100
AcDbSpline
210
0.0
220
0.0
230
1.0
 70
    12
 71
     3
 72
    11
 73
     7
 74
     0
 42
0.00000001
 43
0.00000001
 40
0.0
 40
0.0
 40
0.0
 40
0.0
 40
0.1221580985714931
 40
0.2457316414932855
 40
0.6227858583433972
 40
1.0
 40
1.0
 40
1.0
 40
1.0
 10
6.813141728406991
 20
8.421311175770958
 30
0.0
 41
1.0
 10
6.814294009477034
 20
8.41816518585859
 30
0.0
 41
1.0
 10
6.816611923083371
 20
8.411836753488343
 30
0.0
 41
1.0
 10
6.822622244465021
 20
8.403786526741532
 30
0.0
 41
1.0
 10
6.831110374847448
 20
8.395752126251084
 30
0.0
 41
1.0
 10
6.838411127451387
 20
8.38939682375502
 30
0.0
 41
1.0
 10
6.842062277729512
 20
8.386218498761025
 30
0.0
 41
1.0
  0
SPLINE
  5
1B3
330
1F
100
AcDbEntity
  8
0
  6
SLD-Solid
 62
     7
370
    25
100
AcDbSpline
210
0.0
220
0.0
230
1.0
 70
    12
 71
     3
 72
    14
 73
    10
 74
     0
 42
0.00000001
 43
0.00000001
 40
0.0
 40
0.0
 40
0.0
 40
0.0
 40
0.3115850422017686
 40
0.5633233396504171
 40
0.7318561573153729
 40
0.8451228514151958
 40
0.9216456205996668
 40
0.9737125749665465
 40
1.0
 40
1.0
 40
1.0
 40
1.0
 10
6.84206227772955
 20
9.925761516493244
 30
0.0
 41
1.0
 10
6.839046483480892
 20
9.923110090860607
 30
0.0
 41
1.0
 10
6.83359414444739
 20
9.918316504070763
 30
0.0
 41
1.0
 10
6.826511096015447
 20
9.911994973654991
 30
0.0
 41
1.0
 10
6.821354550296694
 20
9.906492293925108
 30
0.0
 41
1.0
 10
6.817900994257267
 20
9.901755341262266
 30
0.0
 41
1.0
 10
6.815584928058472
 20
9.897463665585402
 30
0.0
 41
1.0
 10
6.81411380325114
 20
9.893934837101247
 30
0.0
 41
1.0
 10
6.813385926648128
 20
9.891489301897966
 30
0.0
 41
1.0
 10
6.813141728406988
 20
9.890668839483295
 30
0.0
 41
1.0
  0
SPLINE
  5
1B4
330
1F
100
AcDbEntity
  8
0
  6
SLD-Solid
 62
     7
370
    25
100
AcDbSpline
210
0.0
220
0.0
230
1.0
 70
    12
 71
     3
 72
    18
 73
    14
 74
     0
 42
0.00000001
 43
0.00000001
 40
0.0
 40
0.0
 40
0.0
 40
0.0
 40
0.0241410239423731
 40
0.0494125206690895
 40
0.058501219058744
 40
0.0676730033143471
 40
0.0742182754275473
 40
0.0807574045756837
 40
0.0906377170292489
 40
0.1097155615641048
 40
0.1928045595360079
 40
0.5215185057075201
 40
1.0
 40
1.0
 40
1.0
 40
1.0
 10
6.813141728406988
 20
9.890668839483295
 30
0.0
 41
1.0
 10
6.813076002503788
 20
9.890413337678773
 30
0.0
 41
1.0
 10
6.812941472893191
 20
9.889890369463881
 30
0.0
 41
1.0
 10
6.812790353671707
 20
9.88899315698152
 30
0.0
 41
1.0
 10
6.812698852478572
 20
9.888031561355216
 30
0.0
 41
1.0
 10
6.812661266405784
 20
9.887336691601558
 30
0.0
 41
1.0
 10
6.812651354772554
 20
9.886621437888078
 30
0.0
 41
1.0
 10
6.812664757130475
 20
9.885892375549876
 30
0.0
 41
1.0
 10
6.812718209483847
 20
9.884904554171172
 30
0.0
 41
1.0
 10
6.812966224935662
 20
9.88254160000407
 30
0.0
 41
1.0
 10
6.814146124651485
 20
9.877513010329594
 30
0.0
 41
1.0
 10
6.816679992838646
 20
9.872383995269892
 30
0.0
 41
1.0
 10
6.819011422355028
 20
9.870865743519197
 30
0.0
 41
1.0
 10
6.820393424560338
 20
9.869965768952978
 30
0.0
 41
1.0
  0
SPLINE
  5
1B5
330
1F
100
AcDbEntity
  8
0
  6
SLD-Solid
 62
     7
370
    25
100
AcDbSpline
210
0.0
220
0.0
230
1.0
 70
    12
 71
     3
 72
    18
 73
    14
 74
     0
 42
0.00000001
 43
0.00000001
 40
0.0
 40
0.0
 40
0.0
 40
0.0
 40
0.261538153614653
 40
0.5614432218703783
 40
0.8570742739453471
 40
0.8940835034039546
 40
0.9126848222523358
 40
0.9203148079294017
 40
0.9280163816756393
 40
0.9348287082711948
 40
0.9440109334957567
 40
0.9609360601375416
 40
1.0
 40
1.0
 40
1.0
 40
1.0
 10
6.820393424560339
 20
8.442014246301257
 30
0.0
 41
1.0
 10
6.819637572955441
 20
8.441560255746037
 30
0.0
 41
1.0
 10
6.818014988432131
 20
8.440585675492644
 30
0.0
 41
1.0
 10
6.815549122972731
 20
8.438375323620592
 30
0.0
 41
1.0
 10
6.813734677405859
 20
8.43366419642852
 30
0.0
 41
1.0
 10
6.812838050300124
 20
8.428301857818246
 30
0.0
 41
1.0
 10
6.812703479458788
 20
8.426876333513352
 30
0.0
 41
1.0
 10
6.812659006916998
 20
8.42589790481888
 30
0.0
 41
1.0
 10
6.812650861523042
 20
8.425178243114129
 30
0.0
 41
1.0
 10
6.812669747013373
 20
8.424435787975325
 30
0.0
 41
1.0
 10
6.812726539752378
 20
8.423571291920979
 30
0.0
 41
1.0
 10
6.812881364701839
 20
8.422333245995596
 30
0.0
 41
1.0
 10
6.813034726719098
 20
8.42173121603393
 30
0.0
 41
1.0
 10
6.813141728406991
 20
8.421311175770958
 30
0.0
 41
1.0
  0
ELLIPSE
  5
1B6
330
1F
100
AcDbEntity
  8
0
  6
SLD-Solid
 62
     7
370
    25
100
AcDbEllipse
 10
6.82659881052708
 20
12.0158017195502
 30
0.0
 11
-1.776356839400250E-15
 21
2.146915899364233
 31
0.0
210
0.0
220
0.0
230
1.0
 40
0.0911379657603184
 41
3.109873085516223
 42
3.383765415303722
  0
ELLIPSE
  5
1B7
330
1F
100
AcDbEntity
  8
0
  6
SLD-Solid
 62
     7
370
    25
100
AcDbEllipse
 10
6.826598810527087
 20
6.296178295704029
 30
0.0
 11
-2.664535259100376E-15
 21
2.146915899364234
 31
0.0
210
0.0
220
0.0
230
1.0
 40
0.0911379657603183
 41
6.041012545465934
 42
6.314904875253162
  0
LINE
  5
1B8
330
1F
100
AcDbEntity
  8
0
  6
SLD-Solid
 62
     7
370
    25
100
AcDbLine
 10
6.966664946069132
 20
8.127990007627119
 30
0.0
 11
6.873521864405133
 21
8.380445495856069
 31
0.0
  0
LINE
  5
1B9
330
1F
100
AcDbEntity
  8
0
  6
SLD-Solid
 62
     7
370
    25
100
AcDbLine
 10
7.023891925421236
 20
8.127990007627119
 30
0.0
 11
6.966664946069132
 21
8.127990007627119
 31
0.0
  0
LINE
  5
1BA
330
1F
100
AcDbEntity
  8
0
  6
SLD-Solid
 62
     7
370
    25
100
AcDbLine
 10
7.023891925421236
 20
8.077990007627118
 30
0.0
 11
7.023891925421236
 21
8.127990007627119
 31
0.0
  0
LINE
  5
1BB
330
1F
100
AcDbEntity
  8
0
  6
SLD-Solid
 62
     7
370
    25
100
AcDbLine
 10
7.023891925421236
 20
8.077990007627118
 30
0.0
 11
6.966664946069134
 21
8.077990007627118
 31
0.0
  0
ELLIPSE
  5
1BC
330
1F
100
AcDbEntity
  8
0
  6
SLD-Solid
 62
     7
370
    25
100
AcDbEllipse
 10
6.966664946069134
 20
8.127990007627119
 30
0.0
 11
0.0
 21
0.04999999999999893
 31
0.0
210
0.0
220
0.0
230
1.0
 40
0.0911379657603303
 41
2.899419891875966
 42
3.141592653589792
  0
LINE
  5
1BD
330
1F
100
AcDbEntity
  8
0
  6
SLD-Solid
 62
     7
370
    25
100
AcDbLine
 10
6.96557214467221
 20
8.07944904706203
 30
0.0
 11
6.872429063008209
 21
8.33190453529098
 31
0.0
  0
LINE
  5
1BE
330
1F
100
AcDbEntity
  8
0
  6
SLD-Solid
 62
     7
370
    25
100
AcDbLine
 10
6.872429063008207
 20
9.980075479963253
 30
0.0
 11
6.965572144672207
 21
10.23253096819221
 31
0.0
  0
ELLIPSE
  5
1BF
330
1F
100
AcDbEntity
  8
0
  6
SLD-Solid
 62
     7
370
    25
100
AcDbEllipse
 10
6.96666494606913
 20
10.18399000762712
 30
0.0
 11
0.0
 21
0.04999999999999893
 31
0.0
210
0.0
220
0.0
230
1.0
 40
0.0911379657603126
 41
0.0
 42
0.2421727617136941
  0
LINE
  5
1C0
330
1F
100
AcDbEntity
  8
0
  6
SLD-Solid
 62
     7
370
    25
100
AcDbLine
 10
7.023891925421235
 20
10.23399000762712
 30
0.0
 11
6.96666494606913
 21
10.23399000762712
 31
0.0
  0
LINE
  5
1C1
330
1F
100
AcDbEntity
  8
0
  6
SLD-Solid
 62
     7
370
    25
100
AcDbLine
 10
7.023891925421235
 20
10.18399000762712
 30
0.0
 11
7.023891925421235
 21
10.23399000762712
 31
0.0
  0
LINE
  5
1C2
330
1F
100
AcDbEntity
  8
0
  6
SLD-Solid
 62
     7
370
    25
100
AcDbLine
 10
6.966664946069129
 20
10.18399000762712
 30
0.0
 11
7.023891925421235
 21
10.18399000762712
 31
0.0
  0
LINE
  5
1C3
330
1F
100
AcDbEntity
  8
0
  6
SLD-Solid
 62
     7
370
    25
100
AcDbLine
 10
6.873521864405131
 20
9.931534519398165
 30
0.0
 11
6.966664946069129
 21
10.18399000762712
 31
0.0
  0
LINE
  5
1C4
330
1F
100
AcDbEntity
  8
0
  6
SLD-Solid
 62
     7
370
    25
100
AcDbLine
 10
6.647175913336648
 20
9.940990007627114
 30
0.0
 11
6.647175913336644
 21
10.18399000762712
 31
0.0
  0
LINE
  5
1C5
330
1F
100
AcDbEntity
  8
0
  6
SLD-Solid
 62
     7
370
    25
100
AcDbLine
 10
6.647175913336647
 20
8.127990007627117
 30
0.0
 11
6.647175913336652
 21
8.370990007627118
 31
0.0
  0
LINE
  5
1C6
330
1F
100
AcDbEntity
  8
0
  6
SLD-Solid
 62
     7
370
    25
100
AcDbLine
 10
6.697175913336645
 20
10.23399000762712
 30
0.0
 11
6.96666494606913
 21
10.23399000762712
 31
0.0
  0
ARC
  5
1C7
330
1F
100
AcDbEntity
  8
0
  6
SLD-Solid
 62
     7
370
    25
100
AcDbCircle
 10
6.697175913336645
 20
10.18399000762712
 30
0.0
 40
0.0500000000000007
100
AcDbArc
 50
90.0
 51
179.9999999999997
  0
ARC
  5
1C8
330
1F
100
AcDbEntity
  8
0
  6
SLD-Solid
 62
     7
370
    25
100
AcDbCircle
 10
6.697175913336647
 20
8.127990007627117
 30
0.0
 40
0.0499999999999998
100
AcDbArc
 50
180.0
 51
270.0000000000008
  0
LINE
  5
1C9
330
1F
100
AcDbEntity
  8
0
  6
SLD-Solid
 62
     7
370
    25
100
AcDbLine
 10
6.966664946069134
 20
8.077990007627118
 30
0.0
 11
6.697175913336647
 21
8.077990007627118
 31
0.0
  0
LINE
  5
1CA
330
1F
100
AcDbEntity
  8
0
  6
SLD-Solid
 62
     7
370
    25
100
AcDbLine
 10
7.314175913336642
 20
10.23399000762712
 30
0.0
 11
7.314175913336642
 21
10.18399000762712
 31
0.0
  0
LINE
  5
1CB
330
1F
100
AcDbEntity
  8
0
  6
SLD-Solid
 62
     7
370
    25
100
AcDbLine
 10
7.314175913336642
 20
10.23399000762712
 30
0.0
 11
7.023891925421235
 21
10.23399000762712
 31
0.0
  0
LINE
  5
1CC
330
1F
100
AcDbEntity
  8
0
  6
SLD-Solid
 62
     7
370
    25
100
AcDbLine
 10
7.023891925421235
 20
10.18399000762712
 30
0.0
 11
7.314175913336642
 21
10.18399000762712
 31
0.0
  0
LINE
  5
1CD
330
1F
100
AcDbEntity
  8
0
  6
SLD-Solid
 62
     7
370
    25
100
AcDbLine
 10
7.314175913336644
 20
8.127990007627119
 30
0.0
 11
7.314175913336644
 21
8.077990007627118
 31
0.0
  0
LINE
  5
1CE
330
1F
100
AcDbEntity
  8
0
  6
SLD-Solid
 62
     7
370
    25
100
AcDbLine
 10
7.314175913336644
 20
8.077990007627118
 30
0.0
 11
7.023891925421236
 21
8.077990007627118
 31
0.0
  0
LINE
  5
1CF
330
1F
100
AcDbEntity
  8
0
  6
SLD-Solid
 62
     7
370
    25
100
AcDbLine
 10
7.314175913336644
 20
8.127990007627119
 30
0.0
 11
7.023891925421236
 21
8.127990007627119
 31
0.0
  0
LINE
  5
1D0
330
1F
100
AcDbEntity
  8
0
  6
SLD-Solid
 62
     7
370
    25
100
AcDbLine
 10
6.681175913336642
 20
10.33349000762712
 30
0.0
 11
6.681175913336642
 21
10.28349000762712
 31
0.0
  0
LINE
  5
1D1
330
1F
100
AcDbEntity
  8
0
  6
SLD-Solid
 62
     7
370
    25
100
AcDbLine
 10
7.053175913336641
 20
10.33349000762712
 30
0.0
 11
6.681175913336642
 21
10.33349000762712
 31
0.0
  0
LINE
  5
1D2
330
1F
100
AcDbEntity
  8
0
  6
SLD-Solid
 62
     7
370
    25
100
AcDbLine
 10
7.053175913336641
 20
10.33349000762712
 30
0.0
 11
7.053175913336641
 21
10.28349000762712
 31
0.0
  0
LINE
  5
1D3
330
1F
100
AcDbEntity
  8
0
  6
SLD-Solid
 62
     7
370
    25
100
AcDbLine
 10
7.053175913336641
 20
10.28349000762712
 30
0.0
 11
6.681175913336642
 21
10.28349000762712
 31
0.0
  0
LINE
  5
1D4
330
1F
100
AcDbEntity
  8
0
  6
SLD-Solid
 62
     7
370
    25
100
AcDbLine
 10
7.053175913336641
 20
7.978490007627118
 30
0.0
 11
7.053175913336641
 21
8.028490007627118
 31
0.0
  0
LINE
  5
1D5
330
1F
100
AcDbEntity
  8
0
  6
SLD-Solid
 62
     7
370
    25
100
AcDbLine
 10
6.681175913336642
 20
7.978490007627118
 30
0.0
 11
6.681175913336642
 21
8.028490007627118
 31
0.0
  0
LINE
  5
1D6
330
1F
100
AcDbEntity
  8
0
  6
SLD-Solid
 62
     7
370
    25
100
AcDbLine
 10
7.053175913336641
 20
8.028490007627118
 30
0.0
 11
6.681175913336642
 21
8.028490007627118
 31
0.0
  0
LINE
  5
1D7
330
1F
100
AcDbEntity
  8
0
  6
SLD-Solid
 62
     7
370
    25
100
AcDbLine
 10
7.053175913336641
 20
7.978490007627118
 30
0.0
 11
6.681175913336642
 21
7.978490007627118
 31
0.0
  0
LINE
  5
1D8
330
1F
100
AcDbEntity
  8
0
  6
SLD-Solid
 62
     7
370
    25
100
AcDbLine
 10
7.053175913336641
 20
7.978490007627118
 30
0.0
 11
7.053175913336641
 21
7.963490007627119
 31
0.0
  0
LINE
  5
1D9
330
1F
100
AcDbEntity
  8
0
  6
SLD-Solid
 62
     7
370
    25
100
AcDbLine
 10
6.681175913336642
 20
7.963490007627119
 30
0.0
 11
6.681175913336642
 21
7.978490007627118
 31
0.0
  0
LINE
  5
1DA
330
1F
100
AcDbEntity
  8
0
  6
SLD-Solid
 62
     7
370
    25
100
AcDbLine
 10
6.681175913336642
 20
10.33349000762712
 30
0.0
 11
6.681175913336642
 21
10.34849000762712
 31
0.0
  0
LINE
  5
1DB
330
1F
100
AcDbEntity
  8
0
  6
SLD-Solid
 62
     7
370
    25
100
AcDbLine
 10
7.053175913336641
 20
10.34849000762712
 30
0.0
 11
7.053175913336641
 21
10.33349000762712
 31
0.0
  0
LINE
  5
1DC
330
1F
100
AcDbEntity
  8
0
  6
SLD-Solid
 62
     7
370
    25
100
AcDbLine
 10
7.053175913336641
 20
8.028490007627118
 30
0.0
 11
7.053175913336641
 21
8.077990007627118
 31
0.0
  0
LINE
  5
1DD
330
1F
100
AcDbEntity
  8
0
  6
SLD-Solid
 62
     7
370
    25
100
AcDbLine
 10
7.053175913336641
 20
8.127990007627119
 30
0.0
 11
7.053175913336641
 21
8.247490007627118
 31
0.0
  0
ARC
  5
1DE
330
1F
100
AcDbEntity
  8
0
  6
SLD-Solid
 62
     7
370
    25
100
AcDbCircle
 10
6.867175913336641
 20
8.247490007627118
 30
0.0
 40
0.1860000000000007
100
AcDbArc
 50
0.0
 51
21.92136282139021
  0
LWPOLYLINE
  5
1DF
330
1F
100
AcDbEntity
  8
0
  6
SLD-Solid
 62
     7
370
    25
100
AcDbPolyline
 90
        3
 70
   128
 43
0.0
 10
6.893926296466032
 20
8.431556346218482
 10
6.867175913336641
 20
8.433490007627118
 10
6.846192577469049
 20
8.432302614382902
  0
LINE
  5
1E0
330
1F
100
AcDbEntity
  8
0
  6
SLD-Solid
 62
     7
370
    25
100
AcDbLine
 10
6.681175913336642
 20
8.080619130497812
 30
0.0
 11
6.681175913336642
 21
8.028490007627118
 31
0.0
  0
LINE
  5
1E1
330
1F
100
AcDbEntity
  8
0
  6
SLD-Solid
 62
     7
370
    25
100
AcDbLine
 10
11.66017591333664
 20
10.23399000762712
 30
0.0
 11
11.66017591333664
 21
10.28149000762712
 31
0.0
  0
LINE
  5
1E2
330
1F
100
AcDbEntity
  8
0
  6
SLD-Solid
 62
     7
370
    25
100
AcDbLine
 10
6.681175913336642
 20
10.28349000762712
 30
0.0
 11
6.681175913336642
 21
10.23136088475643
 31
0.0
  0
LINE
  5
1E3
330
1F
100
AcDbEntity
  8
0
  6
SLD-Solid
 62
     7
370
    25
100
AcDbLine
 10
7.053175913336641
 20
10.06449000762712
 30
0.0
 11
7.053175913336641
 21
10.18399000762712
 31
0.0
  0
LINE
  5
1E4
330
1F
100
AcDbEntity
  8
0
  6
SLD-Solid
 62
     7
370
    25
100
AcDbLine
 10
7.053175913336641
 20
10.23399000762712
 30
0.0
 11
7.053175913336641
 21
10.28349000762712
 31
0.0
  0
LINE
  5
1E5
330
1F
100
AcDbEntity
  8
0
  6
SLD-Solid
 62
     7
370
    25
100
AcDbLine
 10
11.29017591333664
 20
8.077990007627118
 30
0.0
 11
11.29017591333664
 21
8.030490007627117
 31
0.0
  0
LWPOLYLINE
  5
1E6
330
1F
100
AcDbEntity
  8
0
  6
SLD-Solid
 62
     7
370
    25
100
AcDbPolyline
 90
        3
 70
   128
 43
0.0
 10
6.846192577469085
 20
9.879677400871332
 10
6.867175913336642
 20
9.878490007627118
 10
6.89392629646601
 20
9.880423669035752
  0
ARC
  5
1E7
330
1F
100
AcDbEntity
  8
0
  6
SLD-Solid
 62
     7
370
    25
100
AcDbCircle
 10
6.867175913336641
 20
10.06449000762712
 30
0.0
 40
0.1860000000000003
100
AcDbArc
 50
338.0786371786153
 51
0.0
  0
LINE
  5
1E8
330
1F
100
AcDbEntity
  8
0
  6
SLD-Solid
 62
     7
370
    25
100
AcDbLine
 10
11.66017591333664
 20
8.030490007627117
 30
0.0
 11
11.66017591333664
 21
8.077990007627118
 31
0.0
  0
LINE
  5
1E9
330
1F
100
AcDbEntity
  8
0
  6
SLD-Solid
 62
     7
370
    25
100
AcDbLine
 10
11.29017591333664
 20
8.030490007627117
 30
0.0
 11
11.66017591333664
 21
8.030490007627117
 31
0.0
  0
LINE
  5
1EA
330
1F
100
AcDbEntity
  8
0
  6
SLD-Solid
 62
     7
370
    25
100
AcDbLine
 10
11.66017591333664
 20
10.28149000762712
 30
0.0
 11
11.29017591333664
 21
10.28149000762712
 31
0.0
  0
LINE
  5
1EB
330
1F
100
AcDbEntity
  8
0
  6
SLD-Solid
 62
     7
370
    25
100
AcDbLine
 10
11.29017591333664
 20
10.28149000762712
 30
0.0
 11
11.29017591333664
 21
10.23399000762712
 31
0.0
  0
ELLIPSE
  5
1EC
330
1F
100
AcDbEntity
  8
0
  6
SLD-Solid
 62
     7
370
    25
100
AcDbEllipse
 10
6.404349244908405
 20
7.989663339198883
 30
0.0
 11
-0.1323301782391786
 21
-0.1323301782391786
 31
0.0
210
0.0
220
0.0
230
1.0
 40
0.935113126531021
 41
5.531305892884614
 42
7.035064721474573
  0
ELLIPSE
  5
1ED
330
1F
100
AcDbEntity
  8
0
  6
SLD-Solid
 62
     7
370
    25
100
AcDbEllipse
 10
11.93700258176488
 20
7.989663339198883
 30
0.0
 11
0.1323301782391777
 21
-0.1323301782391786
 31
0.0
210
0.0
220
0.0
230
1.0
 40
0.935113126531021
 41
5.531305892884602
 42
7.035064721474571
  0
ELLIPSE
  5
1EE
330
1F
100
AcDbEntity
  8
0
  6
SLD-Solid
 62
     7
370
    25
100
AcDbEllipse
 10
6.404349244908406
 20
10.32231667605535
 30
0.0
 11
-0.1323301782391777
 21
0.1323301782391777
 31
0.0
210
0.0
220
0.0
230
1.0
 40
0.9351131265310275
 41
5.531305892884613
 42
7.035064721474582
  0
ELLIPSE
  5
1EF
330
1F
100
AcDbEntity
  8
0
  6
SLD-Solid
 62
     7
370
    25
100
AcDbEllipse
 10
11.93700258176488
 20
10.32231667605535
 30
0.0
 11
0.1323301782391759
 21
0.1323301782391777
 31
0.0
210
0.0
220
0.0
230
1.0
 40
0.9351131265310403
 41
5.531305892884605
 42
7.035064721474567
  0
LINE
  5
1F0
330
1F
100
AcDbEntity
  8
0
  6
SLD-Solid
 62
     7
370
    25
100
AcDbLine
 10
12.11817591333664
 20
10.33445298802653
 30
0.0
 11
12.11817591333664
 21
7.977527027227705
 31
0.0
  0
LINE
  5
1F1
330
1F
100
AcDbEntity
  8
0
  6
SLD-Solid
 62
     7
370
    25
100
AcDbLine
 10
6.223175913336642
 20
10.33445298802653
 30
0.0
 11
6.22317591333664
 21
7.977527027227705
 31
0.0
  0
LINE
  5
1F2
330
1F
100
AcDbEntity
  8
0
  6
SLD-Solid
 62
     7
370
    25
100
AcDbLine
 10
6.392212932937229
 20
10.50349000762712
 30
0.0
 11
11.94913889373605
 21
10.50349000762712
 31
0.0
  0
LINE
  5
1F3
330
1F
100
AcDbEntity
  8
0
  6
SLD-Solid
 62
     7
370
    25
100
AcDbLine
 10
6.392212932937228
 20
7.808490007627118
 30
0.0
 11
11.94913889373605
 21
7.808490007627118
 31
0.0
  0
DIMENSION
  5
1F4
330
1F
100
AcDbEntity
  8
DIMS
100
AcDbDimension
  2
_D
 10
12.98431764562011
 20
10.50349000762712
 30
0.0
 11
12.98431764562011
 21
9.146380988024339
 31
0.0
 70
    32
  1
<>
 71
     2
 42
-1.0
  3
SLDDIMSTYLE0
100
AcDbAlignedDimension
 13
11.94913889373605
 23
7.808490007627118
 33
0.0
 14
11.94913889373605
 24
10.50349000762712
 34
0.0
 50
90.0000000000002
100
AcDbRotatedDimension
  0
DIMENSION
  5
20A
330
1F
100
AcDbEntity
  8
DIMS
100
AcDbDimension
  2
_D_1
 10
6.223175913336643
 20
11.13341126746963
 30
0.0
 11
9.225042086652715
 21
11.13341126746962
 31
0.0
 70
    32
  1
<>
 71
     2
 42
-1.0
  3
SLDDIMSTYLE0
100
AcDbAlignedDimension
 13
12.11817591333664
 23
10.33445298802653
 33
0.0
 14
6.223175913336642
 24
10.33445298802653
 34
0.0
 50
-0.0000000000000345
100
AcDbRotatedDimension
  0
MTEXT
  5
219
330
1F
100
AcDbEntity
  8
NOTES
100
AcDbMText
 10
6.52710716133445
 20
7.65388272465601
 30
0.0
 40
0.25
 41
0.0
 71
     1
 72
     1
  1
Front view
  7
SLDTEXTSTYLE1
 73
     1
 44
1.0
  0
ARC
  5
21A
330
1F
100
AcDbEntity
  8
0
  6
SLD-Solid
 62
     7
370
    25
100
AcDbCircle
 10
20.15715446848444
 20
10.12888257373699
 30
0.0
 40
0.3146074338901318
100
AcDbArc
 50
60.226764616712
 51
119.7732353832886
  0
LINE
  5
21B
330
1F
100
AcDbEntity
  8
0
  6
SLD-Solid
 62
     7
370
    25
100
AcDbLine
 10
20.31337862479072
 20
10.38349000762712
 30
0.0
 11
20.31337862479072
 21
10.40196104312871
 31
0.0
  0
LINE
  5
21C
330
1F
100
AcDbEntity
  8
0
  6
SLD-Solid
 62
     7
370
    25
100
AcDbLine
 10
20.00093031217815
 20
10.40196104312871
 30
0.0
 11
20.00093031217815
 21
10.38349000762712
 31
0.0
  0
LINE
  5
21D
330
1F
100
AcDbEntity
  8
0
  6
SLD-Solid
 62
     7
370
    25
100
AcDbLine
 10
20.06340446848444
 20
10.38349000762712
 30
0.0
 11
20.06340446848444
 21
10.33349000762712
 31
0.0
  0
LINE
  5
21E
330
1F
100
AcDbEntity
  8
0
  6
SLD-Solid
 62
     7
370
    25
100
AcDbLine
 10
20.06340446848444
 20
10.28349000762712
 30
0.0
 11
20.06340446848444
 21
10.23399000762712
 31
0.0
  0
LINE
  5
21F
330
1F
100
AcDbEntity
  8
0
  6
SLD-Solid
 62
     7
370
    25
100
AcDbLine
 10
20.25090446848444
 20
10.23399000762712
 30
0.0
 11
20.25090446848444
 21
10.28349000762712
 31
0.0
  0
LINE
  5
220
330
1F
100
AcDbEntity
  8
0
  6
SLD-Solid
 62
     7
370
    25
100
AcDbLine
 10
20.25090446848444
 20
10.33349000762712
 30
0.0
 11
20.25090446848444
 21
10.38349000762712
 31
0.0
  0
ARC
  5
221
330
1F
100
AcDbEntity
  8
0
  6
SLD-Solid
 62
     7
370
    25
100
AcDbCircle
 10
20.15715446848444
 20
8.18309744151725
 30
0.0
 40
0.3146074338901318
100
AcDbArc
 50
240.2267646167122
 51
299.7732353832888
  0
LINE
  5
222
330
1F
100
AcDbEntity
  8
0
  6
SLD-Solid
 62
     7
370
    25
100
AcDbLine
 10
20.00093031217815
 20
7.928490007627118
 30
0.0
 11
20.00093031217815
 21
7.910018972125531
 31
0.0
  0
LINE
  5
223
330
1F
100
AcDbEntity
  8
0
  6
SLD-Solid
 62
     7
370
    25
100
AcDbLine
 10
20.31337862479072
 20
7.910018972125531
 30
0.0
 11
20.31337862479072
 21
7.928490007627118
 31
0.0
  0
LINE
  5
224
330
1F
100
AcDbEntity
  8
0
  6
SLD-Solid
 62
     7
370
    25
100
AcDbLine
 10
20.25090446848444
 20
7.928490007627119
 30
0.0
 11
20.25090446848444
 21
7.978490007627118
 31
0.0
  0
LINE
  5
225
330
1F
100
AcDbEntity
  8
0
  6
SLD-Solid
 62
     7
370
    25
100
AcDbLine
 10
20.25090446848444
 20
8.028490007627118
 30
0.0
 11
20.25090446848444
 21
8.077990007627118
 31
0.0
  0
LINE
  5
226
330
1F
100
AcDbEntity
  8
0
  6
SLD-Solid
 62
     7
370
    25
100
AcDbLine
 10
20.06340446848444
 20
8.077990007627118
 30
0.0
 11
20.06340446848444
 21
8.028490007627118
 31
0.0
  0
LINE
  5
227
330
1F
100
AcDbEntity
  8
0
  6
SLD-Solid
 62
     7
370
    25
100
AcDbLine
 10
20.06340446848444
 20
7.978490007627118
 30
0.0
 11
20.06340446848444
 21
7.928490007627119
 31
0.0
  0
LINE
  5
228
330
1F
100
AcDbEntity
  8
0
  6
SLD-Solid
 62
     7
370
    25
100
AcDbLine
 10
17.20058519310029
 20
10.03099000762712
 30
0.0
 11
17.19434592860981
 21
10.03099000762712
 31
0.0
  0
LINE
  5
229
330
1F
100
AcDbEntity
  8
0
  6
SLD-Solid
 62
     7
370
    25
100
AcDbLine
 10
17.19434592860981
 20
8.28099000762712
 30
0.0
 11
17.20058519310029
 21
8.28099000762712
 31
0.0
  0
LINE
  5
22A
330
1F
100
AcDbEntity
  8
0
  6
SLD-Solid
 62
     7
370
    25
100
AcDbLine
 10
17.20678519310028
 20
10.03099000762712
 30
0.0
 11
17.20058519310027
 21
10.03099000762712
 31
0.0
  0
LINE
  5
22B
330
1F
100
AcDbEntity
  8
0
  6
SLD-Solid
 62
     7
370
    25
100
AcDbLine
 10
17.20058519310027
 20
8.280990007627116
 30
0.0
 11
17.20678519310029
 21
8.280990007627116
 31
0.0
  0
LINE
  5
22C
330
1F
100
AcDbEntity
  8
0
  6
SLD-Solid
 62
     7
370
    25
100
AcDbLine
 10
19.97115446848444
 20
10.33349000762712
 30
0.0
 11
19.97115446848444
 21
10.28349000762712
 31
0.0
  0
LINE
  5
22D
330
1F
100
AcDbEntity
  8
0
  6
SLD-Solid
 62
     7
370
    25
100
AcDbLine
 10
19.97115446848444
 20
8.028490007627118
 30
0.0
 11
19.97115446848444
 21
7.978490007627118
 31
0.0
  0
LINE
  5
22E
330
1F
100
AcDbEntity
  8
0
  6
SLD-Solid
 62
     7
370
    25
100
AcDbLine
 10
19.33703855139447
 20
10.23399000762712
 30
0.0
 11
20.37615446848443
 21
10.23399000762712
 31
0.0
  0
LINE
  5
22F
330
1F
100
AcDbEntity
  8
0
  6
SLD-Solid
 62
     7
370
    25
100
AcDbLine
 10
20.37615446848443
 20
8.077990007627118
 30
0.0
 11
19.33703855139447
 21
8.077990007627118
 31
0.0
  0
ARC
  5
230
330
1F
100
AcDbEntity
  8
0
  6
SLD-Solid
 62
     7
370
    25
100
AcDbCircle
 10
19.33703855139447
 20
10.18399000762712
 30
0.0
 40
0.0499999999999989
100
AcDbArc
 50
90.0
 51
103.8754771592244
  0
LINE
  5
231
330
1F
100
AcDbEntity
  8
0
  6
SLD-Solid
 62
     7
370
    25
100
AcDbLine
 10
18.3030470389138
 20
9.980075479963256
 30
0.0
 11
19.32504792391221
 21
10.23253096819221
 31
0.0
  0
LINE
  5
232
330
1F
100
AcDbEntity
  8
0
  6
SLD-Solid
 62
     7
370
    25
100
AcDbLine
 10
19.32504792391221
 20
8.07944904706203
 30
0.0
 11
18.3030470389138
 21
8.331904535290983
 31
0.0
  0
ARC
  5
233
330
1F
100
AcDbEntity
  8
0
  6
SLD-Solid
 62
     7
370
    25
100
AcDbCircle
 10
19.33703855139447
 20
8.127990007627119
 30
0.0
 40
0.0500000000000007
100
AcDbArc
 50
256.1245228407769
 51
270.0000000000008
  0
ARC
  5
234
330
1F
100
AcDbEntity
  8
0
  6
SLD-Solid
 62
     7
370
    25
100
AcDbCircle
 10
17.80018029069546
 20
12.01580171955021
 30
0.0
 40
2.096915899364233
100
AcDbArc
 50
257.2668397452694
 51
283.8754771592284
  0
ARC
  5
235
330
1F
100
AcDbEntity
  8
0
  6
SLD-Solid
 62
     7
370
    25
100
AcDbCircle
 10
17.80018029069546
 20
6.29617829570403
 30
0.0
 40
2.096915899364234
100
AcDbArc
 50
76.12452284077241
 51
102.7331602547315
  0
ARC
  5
236
330
1F
100
AcDbEntity
  8
0
  6
SLD-Solid
 62
     7
370
    25
100
AcDbCircle
 10
17.15395446848443
 20
9.15599000762712
 30
0.0
 40
0.8350000000000017
100
AcDbArc
 50
77.26683974526827
 51
282.7331602547323
  0
LINE
  5
237
330
1F
100
AcDbEntity
  8
0
  6
SLD-Solid
 62
     7
370
    25
100
AcDbLine
 10
20.31337862479072
 20
10.40196104312871
 30
0.0
 11
20.00093031217815
 21
10.40196104312871
 31
0.0
  0
LINE
  5
238
330
1F
100
AcDbEntity
  8
0
  6
SLD-Solid
 62
     7
370
    25
100
AcDbLine
 10
20.31337862479072
 20
10.38349000762712
 30
0.0
 11
20.00093031217815
 21
10.38349000762712
 31
0.0
  0
LINE
  5
239
330
1F
100
AcDbEntity
  8
0
  6
SLD-Solid
 62
     7
370
    25
100
AcDbLine
 10
20.00093031217815
 20
7.910018972125531
 30
0.0
 11
20.31337862479072
 21
7.910018972125531
 31
0.0
  0
LINE
  5
23A
330
1F
100
AcDbEntity
  8
0
  6
SLD-Solid
 62
     7
370
    25
100
AcDbLine
 10
20.00093031217815
 20
7.928490007627118
 30
0.0
 11
20.31337862479072
 21
7.928490007627118
 31
0.0
  0
ARC
  5
23B
330
1F
100
AcDbEntity
  8
0
  6
SLD-Solid
 62
     7
370
    25
100
AcDbCircle
 10
17.19419290779448
 20
9.14413657716466
 30
0.0
 40
0.8628261812872484
100
AcDbArc
 50
210.9794596883637
 51
298.1958768525824
  0
ARC
  5
23C
330
1F
100
AcDbEntity
  8
0
  6
SLD-Solid
 62
     7
370
    25
100
AcDbCircle
 10
17.19416413225528
 20
9.167947819270582
 30
0.0
 40
0.8627477855529664
100
AcDbArc
 50
61.79916360487773
 51
149.0254998540583
  0
ARC
  5
23D
330
1F
100
AcDbEntity
  8
0
  6
SLD-Solid
 62
     7
370
    25
100
AcDbCircle
 10
17.2004008240911
 20
9.141572596420977
 30
0.0
 40
0.8605826085432291
100
AcDbArc
 50
270.0122749008356
 51
298.3770570903499
  0
ARC
  5
23E
330
1F
100
AcDbEntity
  8
0
  6
SLD-Solid
 62
     7
370
    25
100
AcDbCircle
 10
17.20040082409112
 20
9.170407418833362
 30
0.0
 40
0.8605826085431296
100
AcDbArc
 50
61.62294290964863
 51
89.9877250991664
  0
ARC
  5
23F
330
1F
100
AcDbEntity
  8
0
  6
SLD-Solid
 62
     7
370
    25
100
AcDbCircle
 10
17.20660368925065
 20
9.170409570593044
 30
0.0
 40
0.8605797914440659
100
AcDbArc
 50
61.52990449667603
 51
90.19431009855491
  0
ARC
  5
240
330
1F
100
AcDbEntity
  8
0
  6
SLD-Solid
 62
     7
370
    25
100
AcDbCircle
 10
17.20660368921987
 20
9.141570444738003
 30
0.0
 40
0.8605797915262652
100
AcDbArc
 50
269.80569158063
 51
298.4700955026897
  0
LINE
  5
241
330
1F
100
AcDbEntity
  8
0
  6
SLD-Solid
 62
     7
370
    25
100
AcDbLine
 10
20.66615446848443
 20
7.808490007627118
 30
0.0
 11
20.66615446848443
 21
7.977527027227705
 31
0.0
  0
LINE
  5
242
330
1F
100
AcDbEntity
  8
0
  6
SLD-Solid
 62
     7
370
    25
100
AcDbLine
 10
20.45027256397418
 20
7.866335389601133
 30
0.0
 11
20.66615446848443
 21
7.808490007627118
 31
0.0
  0
LINE
  5
243
330
1F
100
AcDbEntity
  8
0
  6
SLD-Solid
 62
     7
370
    25
100
AcDbLine
 10
20.66615446848443
 20
10.33445298802653
 30
0.0
 11
20.66615446848443
 21
7.977527027227705
 31
0.0
  0
LINE
  5
244
330
1F
100
AcDbEntity
  8
0
  6
SLD-Solid
 62
     7
370
    25
100
AcDbLine
 10
20.66615446848443
 20
10.50349000762712
 30
0.0
 11
20.45027256397418
 21
10.4456446256531
 31
0.0
  0
LINE
  5
245
330
1F
100
AcDbEntity
  8
0
  6
SLD-Solid
 62
     7
370
    25
100
AcDbLine
 10
20.66615446848443
 20
10.33445298802653
 30
0.0
 11
20.66615446848443
 21
10.50349000762712
 31
0.0
  0
LINE
  5
246
330
1F
100
AcDbEntity
  8
0
  6
SLD-Solid
 62
     7
370
    25
100
AcDbLine
 10
20.37615446848443
 20
8.03537240920172
 30
0.0
 11
20.37615446848443
 21
7.96292797223004
 31
0.0
  0
ARC
  5
247
330
1F
100
AcDbEntity
  8
0
  6
SLD-Solid
 62
     7
370
    25
100
AcDbCircle
 10
20.47615446848443
 20
7.96292797223004
 30
0.0
 40
0.0999999999999988
100
AcDbArc
 50
179.9999999999995
 51
255.000000000004
  0
LINE
  5
248
330
1F
100
AcDbEntity
  8
0
  6
SLD-Solid
 62
     7
370
    25
100
AcDbLine
 10
20.37615446848443
 20
10.27660760605252
 30
0.0
 11
20.37615446848443
 21
8.03537240920172
 31
0.0
  0
LINE
  5
249
330
1F
100
AcDbEntity
  8
0
  6
SLD-Solid
 62
     7
370
    25
100
AcDbLine
 10
20.37615446848443
 20
10.3490520430242
 30
0.0
 11
20.37615446848443
 21
10.27660760605252
 31
0.0
  0
ARC
  5
24A
330
1F
100
AcDbEntity
  8
0
  6
SLD-Solid
 62
     7
370
    25
100
AcDbCircle
 10
20.47615446848443
 20
10.3490520430242
 30
0.0
 40
0.0999999999999989
100
AcDbArc
 50
104.9999999999989
 51
180.0
  0
LINE
  5
24B
330
1F
100
AcDbEntity
  8
0
  6
SLD-Solid
 62
     7
370
    25
100
AcDbLine
 10
20.36115446848444
 20
10.33349000762712
 30
0.0
 11
20.15715446848444
 21
10.33349000762712
 31
0.0
  0
ARC
  5
24C
330
1F
100
AcDbEntity
  8
0
  6
SLD-Solid
 62
     7
370
    25
100
AcDbCircle
 10
20.36115446848444
 20
10.34849000762712
 30
0.0
 40
0.0149999999999988
100
AcDbArc
 50
270.0000000000008
 51
0.0
  0
LINE
  5
24D
330
1F
100
AcDbEntity
  8
0
  6
SLD-Solid
 62
     7
370
    25
100
AcDbLine
 10
20.37615446848443
 20
10.28349000762712
 30
0.0
 11
20.15715446848444
 21
10.28349000762712
 31
0.0
  0
ARC
  5
24E
330
1F
100
AcDbEntity
  8
0
  6
SLD-Solid
 62
     7
370
    25
100
AcDbCircle
 10
20.36115446848444
 20
7.963490007627119
 30
0.0
 40
0.0149999999999997
100
AcDbArc
 50
0.0
 51
90.0
  0
LINE
  5
24F
330
1F
100
AcDbEntity
  8
0
  6
SLD-Solid
 62
     7
370
    25
100
AcDbLine
 10
20.36115446848444
 20
7.978490007627118
 30
0.0
 11
20.15715446848444
 21
7.978490007627118
 31
0.0
  0
LINE
  5
250
330
1F
100
AcDbEntity
  8
0
  6
SLD-Solid
 62
     7
370
    25
100
AcDbLine
 10
20.37615446848443
 20
8.028490007627118
 30
0.0
 11
20.15715446848444
 21
8.028490007627118
 31
0.0
  0
LINE
  5
251
330
1F
100
AcDbEntity
  8
0
  6
SLD-Solid
 62
     7
370
    25
100
AcDbLine
 10
20.15715446848444
 20
10.33349000762712
 30
0.0
 11
19.97115446848444
 21
10.33349000762712
 31
0.0
  0
LINE
  5
252
330
1F
100
AcDbEntity
  8
0
  6
SLD-Solid
 62
     7
370
    25
100
AcDbLine
 10
20.15715446848444
 20
10.28349000762712
 30
0.0
 11
19.97115446848444
 21
10.28349000762712
 31
0.0
  0
LINE
  5
253
330
1F
100
AcDbEntity
  8
0
  6
SLD-Solid
 62
     7
370
    25
100
AcDbLine
 10
20.15715446848444
 20
7.978490007627118
 30
0.0
 11
19.97115446848444
 21
7.978490007627118
 31
0.0
  0
LINE
  5
254
330
1F
100
AcDbEntity
  8
0
  6
SLD-Solid
 62
     7
370
    25
100
AcDbLine
 10
20.15715446848444
 20
8.028490007627118
 30
0.0
 11
19.97115446848444
 21
8.028490007627118
 31
0.0
  0
DIMENSION
  5
255
330
1F
100
AcDbEntity
  8
DIMS
100
AcDbDimension
  2
_D_2
 10
20.66615446848443
 20
11.13341126746964
 30
0.0
 11
18.3513721024882
 21
11.13341126746964
 31
0.0
 70
    32
  1
<>
 71
     2
 42
-1.0
  3
SLDDIMSTYLE0
100
AcDbAlignedDimension
 13
16.32515446848444
 23
9.155990007627116
 33
0.0
 14
20.66615446848443
 24
10.33445298802653
 34
0.0
100
AcDbRotatedDimension
  0
MTEXT
  5
264
330
1F
100
AcDbEntity
  8
NOTES
100
AcDbMText
 10
16.32598111301708
 20
7.725375397857018
 30
0.0
 40
0.25
 41
0.0
 71
     1
 72
     1
  1
Side view
  7
SLDTEXTSTYLE1
 73
     1
 44
1.0
  0
SPLINE
  5
265
330
1F
100
AcDbEntity
  8
0
  6
SLD-Solid
 62
     7
370
    25
100
AcDbSpline
210
0.0
220
0.0
230
1.0
 70
    12
 71
     3
 72
    18
 73
    14
 74
     0
 42
0.00000001
 43
0.00000001
 40
0.0
 40
0.0
 40
0.0
 40
0.0
 40
0.0849803663129024
 40
0.1755608166114319
 40
0.2665453773403285
 40
0.358456689007762
 40
0.4515447621651428
 40
0.5457681070531387
 40
0.6408786663410737
 40
0.7365549907244441
 40
0.8325106422249443
 40
0.9285267812304814
 40
1.0
 40
1.0
 40
1.0
 40
1.0
 10
27.3804160795543
 20
13.66017866345054
 30
0.0
 41
1.0
 10
27.39387575686284
 20
13.65305073935613
 30
0.0
 41
1.0
 10
27.42168208486703
 20
13.63832517121546
 30
0.0
 41
1.0
 10
27.46804773702911
 20
13.62444115048535
 30
0.0
 41
1.0
 10
27.51784107885253
 20
13.61663175595384
 30
0.0
 41
1.0
 10
27.57014348943155
 20
13.61593283859383
 30
0.0
 41
1.0
 10
27.62451460152731
 20
13.6222022567689
 30
0.0
 41
1.0
 10
27.6805645226197
 20
13.63550878557108
 30
0.0
 41
1.0
 10
27.73776708768378
 20
13.6557805181023
 30
0.0
 41
1.0
 10
27.79555681113981
 20
13.682813043017
 30
0.0
 41
1.0
 10
27.85330952809764
 20
13.71643174028258
 30
0.0
 41
1.0
 10
27.90570484767749
 20
13.75249759583404
 30
0.0
 41
1.0
 10
27.93828252158573
 20
13.77895983248918
 30
0.0
 41
1.0
 10
27.95218448673251
 20
13.79025213938382
 30
0.0
 41
1.0
  0
LINE
  5
266
330
1F
100
AcDbEntity
  8
0
  6
SLD-Solid
 62
     7
370
    25
100
AcDbLine
 10
27.35196903941861
 20
13.67634061129283
 30
0.0
 11
27.38025331066607
 21
13.66001244905638
 31
0.0
  0
SPLINE
  5
267
330
1F
100
AcDbEntity
  8
0
  6
SLD-Solid
 62
     7
370
    25
100
AcDbSpline
210
0.0
220
0.0
230
1.0
 70
    12
 71
     3
 72
    35
 73
    31
 74
     0
 42
0.00000001
 43
0.00000001
 40
0.0
 40
0.0
 40
0.0
 40
0.0
 40
0.020133634766982
 40
0.0577839682486969
 40
0.0955043225889677
 40
0.1332720102407611
 40
0.1710214669337654
 40
0.2087315906317053
 40
0.246396748074749
 40
0.2840202574487394
 40
0.3216102469704124
 40
0.3591772767565227
 40
0.396733082963145
 40
0.4342899721548771
 40
0.4718575560210553
 40
0.5094474246234066
 40
0.5470723688516687
 40
0.5847448020844037
 40
0.6224759002888662
 40
0.6602738639286212
 40
0.6981406844045954
 40
0.736066595534746
 40
0.7740151546304133
 40
0.8119027928375245
 40
0.8496142620836133
 40
0.8870036310858797
 40
0.9239350349632969
 40
0.9603465085715137
 40
0.9963002993379608
 40
1.0
 40
1.0
 40
1.0
 40
1.0
 10
27.87669966891308
 20
15.14301225146985
 30
0.0
 41
1.0
 10
27.86645111818634
 20
15.13957669269741
 30
0.0
 41
1.0
 10
27.83703755542715
 20
15.12971656454268
 30
0.0
 41
1.0
 10
27.78810042777796
 20
15.10816105606871
 30
0.0
 41
1.0
 10
27.73023722734973
 20
15.07648294659223
 30
0.0
 41
1.0
 10
27.67282329439331
 20
15.03848748212332
 30
0.0
 41
1.0
 10
27.61638109468516
 20
14.99468652923088
 30
0.0
 41
1.0
 10
27.56141346214009
 20
14.94549764743512
 30
0.0
 41
1.0
 10
27.50839217015617
 20
14.89140571135921
 30
0.0
 41
1.0
 10
27.45776636784862
 20
14.83291462098115
 30
0.0
 41
1.0
 10
27.40996525149387
 20
14.77055963443642
 30
0.0
 41
1.0
 10
27.36539664891408
 20
14.70490142990833
 30
0.0
 41
1.0
 10
27.32444486783501
 20
14.63652396223731
 30
0.0
 41
1.0
 10
27.28746890629736
 20
14.56603197239336
 30
0.0
 41
1.0
 10
27.25479863171754
 20
14.49404529449067
 30
0.0
 41
1.0
 10
27.22673185867535
 20
14.42119256036355
 30
0.0
 41
1.0
 10
27.20353230177319
 20
14.34810354492872
 30
0.0
 41
1.0
 10
27.18542980577143
 20
14.27540508114962
 30
0.0
 41
1.0
 10
27.17262099949792
 20
14.2037175872599
 30
0.0
 41
1.0
 10
27.16527037072651
 20
14.1336526422903
 30
0.0
 41
1.0
 10
27.16351126816774
 20
14.06581326695795
 30
0.0
 41
1.0
 10
27.16744540579548
 20
14.00080266297906
 30
0.0
 41
1.0
 10
27.17713310367267
 20
13.93923862214387
 30
0.0
 41
1.0
 10
27.19257738490197
 20
13.88176349881663
 30
0.0
 41
1.0
 10
27.2136784014106
 20
13.82900972039488
 30
0.0
 41
1.0
 10
27.24026220804585
 20
13.78167894182922
 30
0.0
 41
1.0
 10
27.27184416785885
 20
13.74009521520865
 30
0.0
 41
1.0
 10
27.30844409885522
 20
13.70561547442477
 30
0.0
 41
1.0
 10
27.33610519369431
 20
13.6842067808281
 30
0.0
 41
1.0
 10
27.3523838715897
 20
13.67637117018951
 30
0.0
 41
1.0
 10
27.35390268451681
 20
13.67564010180631
 30
0.0
 41
1.0
  0
LINE
  5
268
330
1F
100
AcDbEntity
  8
0
  6
SLD-Solid
 62
     7
370
    25
100
AcDbLine
 10
27.83805344152321
 20
15.12888861982973
 30
0.0
 11
27.81283783446464
 21
15.14344527993743
 31
0.0
  0
LINE
  5
269
330
1F
100
AcDbEntity
  8
0
  6
SLD-Solid
 62
     7
370
    25
100
AcDbLine
 10
27.14852155818703
 20
13.98892744738817
 30
0.0
 11
27.1725565074078
 21
13.97505236654242
 31
0.0
  0
SPLINE
  5
26A
330
1F
100
AcDbEntity
  8
0
  6
SLD-Solid
 62
     7
370
    25
100
AcDbSpline
210
0.0
220
0.0
230
1.0
 70
    12
 71
     3
 72
    22
 73
    18
 74
     0
 42
0.00000001
 43
0.00000001
 40
0.0
 40
0.0
 40
0.0
 40
0.0
 40
0.0151512666609773
 40
0.0891501857965918
 40
0.1638154320220854
 40
0.2387302546224011
 40
0.3135821242682955
 40
0.3882799262034693
 40
0.4628088760843276
 40
0.5371954605115509
 40
0.6114863661526666
 40
0.6857375822831697
 40
0.7600093829987148
 40
0.8343450799496624
 40
0.9088066936837327
 40
0.9834570096081394
 40
0.9999999999999999
 40
0.9999999999999999
 40
0.9999999999999999
 40
0.9999999999999999
 10
27.49584927168812
 20
15.17937543739921
 30
0.0
 41
1.0
 10
27.49225014961409
 20
15.1782806895676
 30
0.0
 41
1.0
 10
27.4710728837931
 20
15.17183918373368
 30
0.0
 41
1.0
 10
27.43219574598139
 20
15.15333581987818
 30
0.0
 41
1.0
 10
27.37966657389957
 20
15.12383670289782
 30
0.0
 41
1.0
 10
27.32788377382124
 20
15.08749769709656
 30
0.0
 41
1.0
 10
27.2775022079969
 20
15.04561574291705
 30
0.0
 41
1.0
 10
27.22909095412386
 20
14.99856661945933
 30
0.0
 41
1.0
 10
27.1831473179036
 20
14.94698991095605
 30
0.0
 41
1.0
 10
27.14013174875198
 20
14.8914742672015
 30
0.0
 41
1.0
 10
27.10048080743415
 20
14.83264684524477
 30
0.0
 41
1.0
 10
27.06459081568062
 20
14.7711453844375
 30
0.0
 41
1.0
 10
27.03288675590965
 20
14.70764043232155
 30
0.0
 41
1.0
 10
27.00556455237453
 20
14.64277200702679
 30
0.0
 41
1.0
 10
26.9835294842612
 20
14.57733564367873
 30
0.0
 41
1.0
 10
26.96973578068139
 20
14.52868389563372
 30
0.0
 41
1.0
 10
26.96509194051557
 20
14.50244704666694
 30
0.0
 41
1.0
 10
26.96424952119394
 20
14.49768753132636
 30
0.0
 41
1.0
  0
SPLINE
  5
26B
330
1F
100
AcDbEntity
  8
0
  6
SLD-Solid
 62
     7
370
    25
100
AcDbSpline
210
0.0
220
0.0
230
1.0
 70
    12
 71
     3
 72
    10
 73
     6
 74
     0
 42
0.00000001
 43
0.00000001
 40
0.0
 40
0.0
 40
0.0
 40
0.0
 40
0.2783688875392675
 40
0.8088236738483287
 40
1.0
 40
1.0
 40
1.0
 40
1.0
 10
28.03959540194836
 20
15.20554769719563
 30
0.0
 41
1.0
 10
28.02433984955723
 20
15.19885453237132
 30
0.0
 41
1.0
 10
27.98001358867134
 20
15.17940699205628
 30
0.0
 41
1.0
 10
27.92569694808841
 20
15.15892132200519
 30
0.0
 41
1.0
 10
27.88696154828427
 20
15.14634421123352
 30
0.0
 41
1.0
 10
27.87669966891308
 20
15.14301225146985
 30
0.0
 41
1.0
  0
SPLINE
  5
26C
330
1F
100
AcDbEntity
  8
0
  6
SLD-Solid
 62
     7
370
    25
100
AcDbSpline
210
0.0
220
0.0
230
1.0
 70
    12
 71
     3
 72
     9
 73
     5
 74
     0
 42
0.00000001
 43
0.00000001
 40
0.0
 40
0.0
 40
0.0
 40
0.0
 40
0.2311846742111834
 40
1.0
 40
1.0
 40
1.0
 40
1.0
 10
28.04324020515683
 20
15.20744780764188
 30
0.0
 41
1.0
 10
28.04332792821099
 20
15.20753136575727
 30
0.0
 41
1.0
 10
28.04370737833873
 20
15.20789280024972
 30
0.0
 41
1.0
 10
28.04117815455335
 20
15.20652703810455
 30
0.0
 41
1.0
 10
28.03923364854479
 20
15.20547701923596
 30
0.0
 41
1.0
  0
SPLINE
  5
26D
330
1F
100
AcDbEntity
  8
0
  6
SLD-Solid
 62
     7
370
    25
100
AcDbSpline
210
0.0
220
0.0
230
1.0
 70
    12
 71
     3
 72
     9
 73
     5
 74
     0
 42
0.00000001
 43
0.00000001
 40
0.0
 40
0.0
 40
0.0
 40
0.0
 40
0.3571624424202993
 40
0.9999999999999999
 40
0.9999999999999999
 40
0.9999999999999999
 40
0.9999999999999999
 10
28.129775517334
 20
15.28180457755971
 30
0.0
 41
1.0
 10
28.11947302626318
 20
15.27225633789725
 30
0.0
 41
1.0
 10
28.09062763311094
 20
15.24552273288058
 30
0.0
 41
1.0
 10
28.06202587054088
 20
15.22257399121027
 30
0.0
 41
1.0
 10
28.04363958334788
 20
15.20782167816541
 30
0.0
 41
1.0
  0
SPLINE
  5
26E
330
1F
100
AcDbEntity
  8
0
  6
SLD-Solid
 62
     7
370
    25
100
AcDbSpline
210
0.0
220
0.0
230
1.0
 70
    12
 71
     3
 72
    16
 73
    12
 74
     0
 42
0.00000001
 43
0.00000001
 40
0.0
 40
0.0
 40
0.0
 40
0.0
 40
0.0675114801205681
 40
0.1960114049451459
 40
0.3244683426469984
 40
0.4528727195787888
 40
0.5812313824357853
 40
0.7095574477318092
 40
0.8378715878716649
 40
0.9661954484583068
 40
1.0
 40
1.0
 40
1.0
 40
1.0
 10
27.95218448673251
 20
13.79025213938382
 30
0.0
 41
1.0
 10
27.96737711518768
 20
13.80281316928762
 30
0.0
 41
1.0
 10
28.01148707164233
 20
13.83928259811075
 30
0.0
 41
1.0
 10
28.08523716617449
 20
13.8954925374534
 30
0.0
 41
1.0
 10
28.17335273839941
 20
13.95679142131194
 30
0.0
 41
1.0
 10
28.26170279678069
 20
14.01205760156317
 30
0.0
 41
1.0
 10
28.34992948941531
 20
14.06118910505926
 30
0.0
 41
1.0
 10
28.43771239327684
 20
14.10402158456661
 30
0.0
 41
1.0
 10
28.52470249891368
 20
14.14035650394268
 30
0.0
 41
1.0
 10
28.5895390883193
 20
14.16298433161824
 30
0.0
 41
1.0
 10
28.62529110577744
 20
14.17364115809454
 30
0.0
 41
1.0
 10
28.63274557289407
 20
14.17586315752795
 30
0.0
 41
1.0
  0
LINE
  5
26F
330
1F
100
AcDbEntity
  8
0
  6
SLD-Solid
 62
     7
370
    25
100
AcDbLine
 10
28.63274557289407
 20
14.17586315752795
 30
0.0
 11
29.3554093290551
 21
14.38690785460582
 31
0.0
  0
ARC
  5
270
330
1F
100
AcDbEntity
  8
0
  6
SLD-Solid
 62
     7
370
    25
100
AcDbCircle
 10
29.34139294046774
 20
14.43490307156509
 30
0.0
 40
0.0500000000000027
100
AcDbArc
 50
286.2797681180072
 51
299.9973117336535
  0
LINE
  5
271
330
1F
100
AcDbEntity
  8
0
  6
SLD-Solid
 62
     7
370
    25
100
AcDbLine
 10
29.36639090878364
 20
14.39160062844606
 30
0.0
 11
30.10115682019683
 21
14.81577196036423
 31
0.0
  0
SPLINE
  5
272
330
1F
100
AcDbEntity
  8
0
  6
SLD-Solid
 62
     7
370
    25
100
AcDbSpline
210
0.0
220
0.0
230
1.0
 70
    12
 71
     3
 72
     9
 73
     5
 74
     0
 42
0.00000001
 43
0.00000001
 40
0.0
 40
0.0
 40
0.0
 40
0.0
 40
0.4354131390242336
 40
1.0
 40
1.0
 40
1.0
 40
1.0
 10
25.26547897937582
 20
15.82252066629425
 30
0.0
 41
1.0
 10
25.26337578729764
 20
15.81783239692612
 30
0.0
 41
1.0
 10
25.25854545056757
 20
15.80706499248206
 30
0.0
 41
1.0
 10
25.25803506714307
 20
15.79505163205741
 30
0.0
 41
1.0
 10
25.25774691136754
 20
15.78826904660549
 30
0.0
 41
1.0
  0
SPLINE
  5
273
330
1F
100
AcDbEntity
  8
0
  6
SLD-Solid
 62
     7
370
    25
100
AcDbSpline
210
0.0
220
0.0
230
1.0
 70
    12
 71
     3
 72
    14
 73
    10
 74
     0
 42
0.00000001
 43
0.00000001
 40
0.0
 40
0.0
 40
0.0
 40
0.0
 40
0.0956389147866515
 40
0.2527455229170188
 40
0.4114383040485157
 40
0.5727446319846216
 40
0.740176119210594
 40
0.8883567429502025
 40
1.0
 40
1.0
 40
1.0
 40
1.0
 10
25.25774691136754
 20
15.78826904660549
 30
0.0
 41
1.0
 10
25.25798998283602
 20
15.78312156415113
 30
0.0
 41
1.0
 10
25.25863234923616
 20
15.76951828197739
 30
0.0
 41
1.0
 10
25.26490252330284
 20
15.7470392008193
 30
0.0
 41
1.0
 10
25.27719973604013
 20
15.72226057645847
 30
0.0
 41
1.0
 10
25.29443478826649
 20
15.69996915569208
 30
0.0
 41
1.0
 10
25.3147945588901
 20
15.68324659188417
 30
0.0
 41
1.0
 10
25.33535114831957
 20
15.67290707635578
 30
0.0
 41
1.0
 10
25.34893707863372
 20
15.67155569282582
 30
0.0
 41
1.0
 10
25.35477479264875
 20
15.67097501926206
 30
0.0
 41
1.0
  0
SPLINE
  5
274
330
1F
100
AcDbEntity
  8
0
  6
SLD-Solid
 62
     7
370
    25
100
AcDbSpline
210
0.0
220
0.0
230
1.0
 70
    12
 71
     3
 72
    19
 73
    15
 74
     0
 42
0.00000001
 43
0.00000001
 40
0.0
 40
0.0
 40
0.0
 40
0.0
 40
0.0621139450251525
 40
0.1556468685666824
 40
0.2467727412961799
 40
0.3355269773537716
 40
0.4333796696127688
 40
0.5261323633700524
 40
0.6118657620842592
 40
0.7027010309000062
 40
0.7953905241139035
 40
0.8893833614122688
 40
0.9773488565999013
 40
1.0
 40
1.0
 40
1.0
 40
1.0
 10
25.33733626011128
 20
15.75866393198337
 30
0.0
 41
1.0
 10
25.33907293247585
 20
15.75531093212162
 30
0.0
 41
1.0
 10
25.3434247348797
 20
15.74690889086384
 30
0.0
 41
1.0
 10
25.34610855221519
 20
15.7332996120245
 30
0.0
 41
1.0
 10
25.34541325639504
 20
15.72086693710481
 30
0.0
 41
1.0
 10
25.3413191058835
 20
15.71317156416734
 30
0.0
 41
1.0
 10
25.33619609818695
 20
15.71014292692221
 30
0.0
 41
1.0
 10
25.3275780198865
 20
15.71040769770026
 30
0.0
 41
1.0
 10
25.31661562796404
 20
15.71576919482002
 30
0.0
 41
1.0
 10
25.30548139158369
 20
15.72571675461853
 30
0.0
 41
1.0
 10
25.29559811237639
 20
15.73951256684017
 30
0.0
 41
1.0
 10
25.28885763959894
 20
15.75481552920932
 30
0.0
 41
1.0
 10
25.28660791971231
 20
15.76594875176645
 30
0.0
 41
1.0
 10
25.28648809885307
 20
15.77118034392602
 30
0.0
 41
1.0
 10
25.2864635629469
 20
15.7722516252968
 30
0.0
 41
1.0
  0
SPLINE
  5
275
330
1F
100
AcDbEntity
  8
0
  6
SLD-Solid
 62
     7
370
    25
100
AcDbSpline
210
0.0
220
0.0
230
1.0
 70
    12
 71
     3
 72
    10
 73
     6
 74
     0
 42
0.00000001
 43
0.00000001
 40
0.0
 40
0.0
 40
0.0
 40
0.0
 40
0.2116933294870915
 40
0.79816227792304
 40
1.0
 40
1.0
 40
1.0
 40
1.0
 10
25.32090078496267
 20
15.78035288284138
 30
0.0
 41
1.0
 10
25.32225926059179
 20
15.77926931434255
 30
0.0
 41
1.0
 10
25.3273812169863
 20
15.77518385967372
 30
0.0
 41
1.0
 10
25.33352098563472
 20
15.7671589598627
 30
0.0
 41
1.0
 10
25.33655852878723
 20
15.76039561585592
 30
0.0
 41
1.0
 10
25.33733626011128
 20
15.75866393198337
 30
0.0
 41
1.0
  0
SPLINE
  5
276
330
1F
100
AcDbEntity
  8
0
  6
SLD-Solid
 62
     7
370
    25
100
AcDbSpline
210
0.0
220
0.0
230
1.0
 70
    12
 71
     3
 72
     9
 73
     5
 74
     0
 42
0.00000001
 43
0.00000001
 40
0.0
 40
0.0
 40
0.0
 40
0.0
 40
0.4354131390242239
 40
1.0
 40
1.0
 40
1.0
 40
1.0
 10
25.55716052661527
 20
15.65413649323081
 30
0.0
 41
1.0
 10
25.55505733453709
 20
15.64944822386268
 30
0.0
 41
1.0
 10
25.55022699780702
 20
15.63868081941862
 30
0.0
 41
1.0
 10
25.54971661438253
 20
15.62666745899397
 30
0.0
 41
1.0
 10
25.549428458607
 20
15.61988487354205
 30
0.0
 41
1.0
  0
SPLINE
  5
277
330
1F
100
AcDbEntity
  8
0
  6
SLD-Solid
 62
     7
370
    25
100
AcDbSpline
210
0.0
220
0.0
230
1.0
 70
    12
 71
     3
 72
    14
 73
    10
 74
     0
 42
0.00000001
 43
0.00000001
 40
0.0
 40
0.0
 40
0.0
 40
0.0
 40
0.0956389147866513
 40
0.2527455229170184
 40
0.4114383040485162
 40
0.5727446319846217
 40
0.7401761192105901
 40
0.8883567429502014
 40
1.0
 40
1.0
 40
1.0
 40
1.0
 10
25.549428458607
 20
15.61988487354205
 30
0.0
 41
1.0
 10
25.54967153007547
 20
15.61473739108769
 30
0.0
 41
1.0
 10
25.55031389647561
 20
15.60113410891395
 30
0.0
 41
1.0
 10
25.55658407054229
 20
15.57865502775587
 30
0.0
 41
1.0
 10
25.56888128327958
 20
15.55387640339504
 30
0.0
 41
1.0
 10
25.58611633550594
 20
15.53158498262865
 30
0.0
 41
1.0
 10
25.60647610612955
 20
15.51486241882074
 30
0.0
 41
1.0
 10
25.62703269555902
 20
15.50452290329235
 30
0.0
 41
1.0
 10
25.64061862587317
 20
15.50317151976238
 30
0.0
 41
1.0
 10
25.6464563398882
 20
15.50259084619862
 30
0.0
 41
1.0
  0
SPLINE
  5
278
330
1F
100
AcDbEntity
  8
0
  6
SLD-Solid
 62
     7
370
    25
100
AcDbSpline
210
0.0
220
0.0
230
1.0
 70
    12
 71
     3
 72
    19
 73
    15
 74
     0
 42
0.00000001
 43
0.00000001
 40
0.0
 40
0.0
 40
0.0
 40
0.0
 40
0.0621139450251512
 40
0.1556468685666826
 40
0.2467727412961798
 40
0.3355269773537714
 40
0.4333796696127682
 40
0.5261323633700524
 40
0.611865762084259
 40
0.702701030900006
 40
0.7953905241139022
 40
0.8893833614122688
 40
0.9773488565999
 40
1.0
 40
1.0
 40
1.0
 40
1.0
 10
25.62901780735073
 20
15.59027975891994
 30
0.0
 41
1.0
 10
25.6307544797153
 20
15.58692675905819
 30
0.0
 41
1.0
 10
25.63510628211915
 20
15.5785247178004
 30
0.0
 41
1.0
 10
25.63779009945464
 20
15.56491543896106
 30
0.0
 41
1.0
 10
25.63709480363449
 20
15.55248276404137
 30
0.0
 41
1.0
 10
25.63300065312295
 20
15.5447873911039
 30
0.0
 41
1.0
 10
25.62787764542641
 20
15.54175875385878
 30
0.0
 41
1.0
 10
25.61925956712595
 20
15.54202352463683
 30
0.0
 41
1.0
 10
25.60829717520349
 20
15.54738502175659
 30
0.0
 41
1.0
 10
25.59716293882314
 20
15.5573325815551
 30
0.0
 41
1.0
 10
25.58727965961584
 20
15.57112839377674
 30
0.0
 41
1.0
 10
25.5805391868384
 20
15.58643135614589
 30
0.0
 41
1.0
 10
25.57828946695176
 20
15.59756457870301
 30
0.0
 41
1.0
 10
25.57816964609252
 20
15.60279617086258
 30
0.0
 41
1.0
 10
25.57814511018636
 20
15.60386745223336
 30
0.0
 41
1.0
  0
SPLINE
  5
279
330
1F
100
AcDbEntity
  8
0
  6
SLD-Solid
 62
     7
370
    25
100
AcDbSpline
210
0.0
220
0.0
230
1.0
 70
    12
 71
     3
 72
    10
 73
     6
 74
     0
 42
0.00000001
 43
0.00000001
 40
0.0
 40
0.0
 40
0.0
 40
0.0
 40
0.211693329487089
 40
0.7981622779230406
 40
1.0
 40
1.0
 40
1.0
 40
1.0
 10
25.61258233220212
 20
15.61196870977795
 30
0.0
 41
1.0
 10
25.61394080783124
 20
15.61088514127912
 30
0.0
 41
1.0
 10
25.61906276422575
 20
15.60679968661029
 30
0.0
 41
1.0
 10
25.62520253287417
 20
15.59877478679927
 30
0.0
 41
1.0
 10
25.62824007602668
 20
15.59201144279249
 30
0.0
 41
1.0
 10
25.62901780735073
 20
15.59027975891994
 30
0.0
 41
1.0
  0
LINE
  5
27A
330
1F
100
AcDbEntity
  8
0
  6
SLD-Solid
 62
     7
370
    25
100
AcDbLine
 10
25.73205182886329
 20
15.3039794328828
 30
0.0
 11
25.74760817804939
 21
15.31295992211285
 31
0.0
  0
LINE
  5
27B
330
1F
100
AcDbEntity
  8
0
  6
SLD-Solid
 62
     7
370
    25
100
AcDbLine
 10
26.63674502585362
 20
18.59770645251164
 30
0.0
 11
26.63674502585362
 21
18.61278880683648
 31
0.0
  0
LINE
  5
27C
330
1F
100
AcDbEntity
  8
0
  6
SLD-Solid
 62
     7
370
    25
100
AcDbLine
 10
26.32429671324106
 20
18.61278880683648
 30
0.0
 11
26.32429671324106
 21
18.59770645251164
 31
0.0
  0
LINE
  5
27D
330
1F
100
AcDbEntity
  8
0
  6
SLD-Solid
 62
     7
370
    25
100
AcDbLine
 10
26.57427086954734
 20
16.75599865130333
 30
0.0
 11
26.57427086954734
 21
16.83806100289785
 31
0.0
  0
LINE
  5
27E
330
1F
100
AcDbEntity
  8
0
  6
SLD-Solid
 62
     7
370
    25
100
AcDbLine
 10
26.38677086954734
 20
16.83806100289785
 30
0.0
 11
26.38677086954734
 21
16.75599865130333
 31
0.0
  0
LINE
  5
27F
330
1F
100
AcDbEntity
  8
0
  6
SLD-Solid
 62
     7
370
    25
100
AcDbLine
 10
27.08264227036356
 20
13.83178658967388
 30
0.0
 11
27.11045676550686
 21
13.81063583726796
 31
0.0
  0
LINE
  5
280
330
1F
100
AcDbEntity
  8
0
  6
SLD-Solid
 62
     7
370
    25
100
AcDbLine
 10
24.84372886142623
 20
17.13577017667849
 30
0.0
 11
24.80709071382126
 21
17.15182714294258
 31
0.0
  0
LINE
  5
281
330
1F
100
AcDbEntity
  8
0
  6
SLD-Solid
 62
     7
370
    25
100
AcDbLine
 10
24.10463795722751
 20
15.54899835459561
 30
0.0
 11
24.14127610483248
 21
15.53294138833152
 31
0.0
  0
LINE
  5
282
330
1F
100
AcDbEntity
  8
0
  6
SLD-Solid
 62
     7
370
    25
100
AcDbLine
 10
26.14303180971574
 20
17.73175630592151
 30
0.0
 11
26.1108054883416
 21
17.75036016525652
 31
0.0
  0
SPLINE
  5
283
330
1F
100
AcDbEntity
  8
0
  6
SLD-Solid
 62
     7
370
    25
100
AcDbSpline
210
0.0
220
0.0
230
1.0
 70
    12
 71
     3
 72
    18
 73
    14
 74
     0
 42
0.00000001
 43
0.00000001
 40
0.0
 40
0.0
 40
0.0
 40
0.0
 40
0.0231773175035333
 40
0.1214158346221311
 40
0.2195433976727461
 40
0.3186581863415255
 40
0.4196764569460178
 40
0.523014662873318
 40
0.6285238266948138
 40
0.7356306098167393
 40
0.843629976704909
 40
0.9519199088279925
 40
1.0
 40
1.0
 40
1.0
 40
1.0
 10
24.26820373923871
 20
15.66449111327319
 30
0.0
 41
1.0
 10
24.27117620875539
 20
15.66252393827856
 30
0.0
 41
1.0
 10
24.28674767716205
 20
15.65221876841655
 30
0.0
 41
1.0
 10
24.31867485858499
 20
15.64014790816637
 30
0.0
 41
1.0
 10
24.36310259487329
 20
15.62887719681724
 30
0.0
 41
1.0
 10
24.4101168561028
 20
15.62510486780463
 30
0.0
 41
1.0
 10
24.45901824607566
 20
15.62814526012209
 30
0.0
 41
1.0
 10
24.50961120034736
 20
15.63824110199042
 30
0.0
 41
1.0
 10
24.56139505787794
 20
15.65539305222876
 30
0.0
 41
1.0
 10
24.6137914806342
 20
15.67939869949471
 30
0.0
 41
1.0
 10
24.66596100064037
 20
15.71034799657596
 30
0.0
 41
1.0
 10
24.70808089734321
 20
15.73964796758141
 30
0.0
 41
1.0
 10
24.73199983745946
 20
15.76045217797236
 30
0.0
 41
1.0
 10
24.73935434695746
 20
15.76684898160057
 30
0.0
 41
1.0
  0
SPLINE
  5
284
330
1F
100
AcDbEntity
  8
0
  6
SLD-Solid
 62
     7
370
    25
100
AcDbSpline
210
0.0
220
0.0
230
1.0
 70
    12
 71
     3
 72
    18
 73
    14
 74
     0
 42
0.00000001
 43
0.00000001
 40
0.0
 40
0.0
 40
0.0
 40
0.0
 40
0.0335771841115644
 40
0.1348761720396088
 40
0.2365780739007679
 40
0.3386770280821967
 40
0.441050121585566
 40
0.5432184474239282
 40
0.6445095957733981
 40
0.7440916023704203
 40
0.8413062439883423
 40
0.9360384808816038
 40
1.0
 40
1.0
 40
1.0
 40
1.0
 10
25.06517954326695
 20
16.30234194233611
 30
0.0
 41
1.0
 10
25.06703900884861
 20
16.30956084686509
 30
0.0
 41
1.0
 10
25.07450829510148
 20
16.33855846042176
 30
0.0
 41
1.0
 10
25.08205322299981
 20
16.38854985479604
 30
0.0
 41
1.0
 10
25.08749237256492
 20
16.45152912186091
 30
0.0
 41
1.0
 10
25.0866756317776
 20
16.51236805547743
 30
0.0
 41
1.0
 10
25.0798915975611
 20
16.57039990201049
 30
0.0
 41
1.0
 10
25.06689940416812
 20
16.62480721844192
 30
0.0
 41
1.0
 10
25.04775411081446
 20
16.67468027980128
 30
0.0
 41
1.0
 10
25.02276196474869
 20
16.71922729371289
 30
0.0
 41
1.0
 10
24.99223946177446
 20
16.75733286631048
 30
0.0
 41
1.0
 10
24.96113810751834
 20
16.78641151730004
 30
0.0
 41
1.0
 10
24.93866234153352
 20
16.79970775321053
 30
0.0
 41
1.0
 10
24.92960348394601
 20
16.80506680115775
 30
0.0
 41
1.0
  0
LINE
  5
285
330
1F
100
AcDbEntity
  8
0
  6
SLD-Solid
 62
     7
370
    25
100
AcDbLine
 10
24.11735222257844
 20
15.7507740039454
 30
0.0
 11
24.26822943625886
 21
15.66367444245399
 31
0.0
  0
LINE
  5
286
330
1F
100
AcDbEntity
  8
0
  6
SLD-Solid
 62
     7
370
    25
100
AcDbLine
 10
24.92817579979866
 20
16.8068589407965
 30
0.0
 11
24.6364942525592
 21
16.97524311385992
 31
0.0
  0
SPLINE
  5
287
330
1F
100
AcDbEntity
  8
0
  6
SLD-Solid
 62
     7
370
    25
100
AcDbSpline
210
0.0
220
0.0
230
1.0
 70
    12
 71
     3
 72
    11
 73
     7
 74
     0
 42
0.00000001
 43
0.00000001
 40
0.0
 40
0.0
 40
0.0
 40
0.0
 40
0.3162863488708905
 40
0.653427361210139
 40
0.9920724751423877
 40
1.0
 40
1.0
 40
1.0
 40
1.0
 10
23.85209610427843
 20
15.70209628641928
 30
0.0
 41
1.0
 10
23.86554515165748
 20
15.69492961985531
 30
0.0
 41
1.0
 10
23.89333002309142
 20
15.68012374524742
 30
0.0
 41
1.0
 10
23.93986082544937
 20
15.666875758813
 30
0.0
 41
1.0
 10
23.9728756052617
 20
15.65997363902592
 30
0.0
 41
1.0
 10
23.99049303802941
 20
15.65974212006381
 30
0.0
 41
1.0
 10
23.99089602032103
 20
15.65973682428416
 30
0.0
 41
1.0
  0
LINE
  5
288
330
1F
100
AcDbEntity
  8
0
  6
SLD-Solid
 62
     7
370
    25
100
AcDbLine
 10
24.18238335102224
 20
15.68920401269303
 30
0.0
 11
24.20818630835257
 21
15.69833660238947
 31
0.0
  0
LINE
  5
289
330
1F
100
AcDbEntity
  8
0
  6
SLD-Solid
 62
     7
370
    25
100
AcDbLine
 10
23.82364762265399
 20
15.7182589397726
 30
0.0
 11
23.85193189390145
 21
15.70193077753615
 31
0.0
  0
SPLINE
  5
28A
330
1F
100
AcDbEntity
  8
0
  6
SLD-Solid
 62
     7
370
    25
100
AcDbSpline
210
0.0
220
0.0
230
1.0
 70
    12
 71
     3
 72
    35
 73
    31
 74
     0
 42
0.00000001
 43
0.00000001
 40
0.0
 40
0.0
 40
0.0
 40
0.0
 40
0.020133634766982
 40
0.0577839682486963
 40
0.0955043225889675
 40
0.1332720102407607
 40
0.171021466933765
 40
0.2087315906317064
 40
0.2463967480747495
 40
0.2840202574487408
 40
0.321610246970413
 40
0.3591772767565231
 40
0.3967330829631452
 40
0.4342899721548772
 40
0.4718575560210552
 40
0.5094474246234065
 40
0.5470723688516701
 40
0.5847448020844046
 40
0.6224759002888669
 40
0.660273863928623
 40
0.6981406844045955
 40
0.7360665955347458
 40
0.7740151546304131
 40
0.8119027928375242
 40
0.8496142620836131
 40
0.8870036310858791
 40
0.9239350349632961
 40
0.9603465085715132
 40
0.9963002993379615
 40
1.0
 40
1.0
 40
1.0
 40
1.0
 10
24.34837825214846
 20
17.18493057994963
 30
0.0
 41
1.0
 10
24.33812970142172
 20
17.18149502117718
 30
0.0
 41
1.0
 10
24.30871613866253
 20
17.17163489302245
 30
0.0
 41
1.0
 10
24.25977901101334
 20
17.15007938454848
 30
0.0
 41
1.0
 10
24.20191581058511
 20
17.11840127507201
 30
0.0
 41
1.0
 10
24.14450187762868
 20
17.0804058106031
 30
0.0
 41
1.0
 10
24.08805967792054
 20
17.03660485771065
 30
0.0
 41
1.0
 10
24.03309204537547
 20
16.98741597591489
 30
0.0
 41
1.0
 10
23.98007075339155
 20
16.93332403983897
 30
0.0
 41
1.0
 10
23.929444951084
 20
16.87483294946092
 30
0.0
 41
1.0
 10
23.88164383472925
 20
16.81247796291619
 30
0.0
 41
1.0
 10
23.83707523214946
 20
16.7468197583881
 30
0.0
 41
1.0
 10
23.79612345107039
 20
16.67844229071708
 30
0.0
 41
1.0
 10
23.75914748953274
 20
16.60795030087313
 30
0.0
 41
1.0
 10
23.72647721495292
 20
16.53596362297043
 30
0.0
 41
1.0
 10
23.69841044191073
 20
16.46311088884332
 30
0.0
 41
1.0
 10
23.67521088500857
 20
16.39002187340849
 30
0.0
 41
1.0
 10
23.65710838900681
 20
16.31732340962938
 30
0.0
 41
1.0
 10
23.64429958273329
 20
16.24563591573967
 30
0.0
 41
1.0
 10
23.63694895396189
 20
16.17557097077007
 30
0.0
 41
1.0
 10
23.63518985140312
 20
16.10773159543772
 30
0.0
 41
1.0
 10
23.63912398903086
 20
16.04272099145883
 30
0.0
 41
1.0
 10
23.64881168690805
 20
15.98115695062364
 30
0.0
 41
1.0
 10
23.66425596813735
 20
15.9236818272964
 30
0.0
 41
1.0
 10
23.68535698464598
 20
15.87092804887465
 30
0.0
 41
1.0
 10
23.71194079128124
 20
15.82359727030899
 30
0.0
 41
1.0
 10
23.74352275109423
 20
15.78201354368843
 30
0.0
 41
1.0
 10
23.7801226820906
 20
15.74753380290454
 30
0.0
 41
1.0
 10
23.8077837769297
 20
15.72612510930787
 30
0.0
 41
1.0
 10
23.82406245482509
 20
15.71828949866928
 30
0.0
 41
1.0
 10
23.8255812677522
 20
15.71755843028608
 30
0.0
 41
1.0
  0
SPLINE
  5
28B
330
1F
100
AcDbEntity
  8
0
  6
SLD-Solid
 62
     7
370
    25
100
AcDbSpline
210
0.0
220
0.0
230
1.0
 70
    12
 71
     3
 72
    16
 73
    12
 74
     0
 42
0.00000001
 43
0.00000001
 40
0.0
 40
0.0
 40
0.0
 40
0.0
 40
0.0675081753671333
 40
0.1960055170052699
 40
0.3244601766905328
 40
0.4528610692433274
 40
0.5812133646079818
 40
0.7095278543006224
 40
0.8378230410315466
 40
0.9661191435337187
 40
1.0
 40
1.0
 40
1.0
 40
1.0
 10
25.029466323934
 20
17.58649406591621
 30
0.0
 41
1.0
 10
25.01433582543129
 20
17.57361817071089
 30
0.0
 41
1.0
 10
24.97040542492137
 20
17.53623386158241
 30
0.0
 41
1.0
 10
24.89686890935115
 20
17.4784444647839
 30
0.0
 41
1.0
 10
24.80890101434851
 20
17.41519736214741
 30
0.0
 41
1.0
 10
24.72058553365562
 20
17.35791401398374
 30
0.0
 41
1.0
 10
24.63228242661566
 20
17.3067065622859
 30
0.0
 41
1.0
 10
24.54431279713631
 20
17.26174764387331
 30
0.0
 41
1.0
 10
24.45702591272788
 20
17.22324460402183
 30
0.0
 41
1.0
 10
24.39186580129052
 20
17.19894852211478
 30
0.0
 41
1.0
 10
24.35589335889023
 20
17.18735302806983
 30
0.0
 41
1.0
 10
24.34837825214846
 20
17.18493057994963
 30
0.0
 41
1.0
  0
SPLINE
  5
28C
330
1F
100
AcDbEntity
  8
0
  6
SLD-Solid
 62
     7
370
    25
100
AcDbSpline
210
0.0
220
0.0
230
1.0
 70
    12
 71
     3
 72
     9
 73
     5
 74
     0
 42
0.00000001
 43
0.00000001
 40
0.0
 40
0.0
 40
0.0
 40
0.0
 40
0.2999940509439628
 40
1.0
 40
1.0
 40
1.0
 40
1.0
 10
24.57223062416002
 20
17.15639361424386
 30
0.0
 41
1.0
 10
24.57247534269095
 20
17.15648892769117
 30
0.0
 41
1.0
 10
24.57329108730374
 20
17.15680664548263
 30
0.0
 41
1.0
 10
24.57413108994184
 20
17.15713638409199
 30
0.0
 41
1.0
 10
24.57471909678573
 20
17.15736720308017
 30
0.0
 41
1.0
  0
LINE
  5
28D
330
1F
100
AcDbEntity
  8
0
  6
SLD-Solid
 62
     7
370
    25
100
AcDbLine
 10
24.57470600357051
 20
17.15736570772481
 30
0.0
 11
24.57606566125355
 21
17.15789910721661
 31
0.0
  0
SPLINE
  5
28E
330
1F
100
AcDbEntity
  8
0
  6
SLD-Solid
 62
     7
370
    25
100
AcDbSpline
210
0.0
220
0.0
230
1.0
 70
    12
 71
     3
 72
     9
 73
     5
 74
     0
 42
0.00000001
 43
0.00000001
 40
0.0
 40
0.0
 40
0.0
 40
0.0
 40
0.4041049796687357
 40
1.0
 40
1.0
 40
1.0
 40
1.0
 10
24.62890074817102
 20
17.17562732665998
 30
0.0
 41
1.0
 10
24.63782260267716
 20
17.17792435681215
 30
0.0
 41
1.0
 10
24.65990066396075
 20
17.18360859795674
 30
0.0
 41
1.0
 10
24.68207231867266
 20
17.19073134448182
 30
0.0
 41
1.0
 10
24.69528429730799
 20
17.19497575366719
 30
0.0
 41
1.0
  0
LINE
  5
28F
330
1F
100
AcDbEntity
  8
0
  6
SLD-Solid
 62
     7
370
    25
100
AcDbLine
 10
25.75213008009504
 20
18.20981918164105
 30
0.0
 11
25.029466323934
 21
17.58649406591621
 31
0.0
  0
ARC
  5
290
330
1F
100
AcDbEntity
  8
0
  6
SLD-Solid
 62
     7
370
    25
100
AcDbCircle
 10
25.78478725245565
 20
18.17195747151843
 30
0.0
 40
0.0500000000000027
100
AcDbArc
 50
119.9973117336527
 51
130.7790257474336
  0
LINE
  5
291
330
1F
100
AcDbEntity
  8
0
  6
SLD-Solid
 62
     7
370
    25
100
AcDbLine
 10
26.29452086954734
 20
18.52395388815729
 30
0.0
 11
25.75978928413975
 21
18.21525991463746
 31
0.0
  0
SPLINE
  5
292
330
1F
100
AcDbEntity
  8
0
  6
SLD-Solid
 62
     7
370
    25
100
AcDbSpline
210
0.0
220
0.0
230
1.0
 70
    12
 71
     3
 72
    11
 73
     7
 74
     0
 42
0.00000001
 43
0.00000001
 40
0.0
 40
0.0
 40
0.0
 40
0.0
 40
0.2882106230078905
 40
0.634401779355462
 40
0.9677648066159328
 40
1.0
 40
1.0
 40
1.0
 40
1.0
 10
30.20867961943931
 20
14.61396578945347
 30
0.0
 41
1.0
 10
30.21618527221748
 20
14.61002541399433
 30
0.0
 41
1.0
 10
30.23270652125404
 20
14.60135196130712
 30
0.0
 41
1.0
 10
30.26023619502792
 20
14.59454629907405
 30
0.0
 41
1.0
 10
30.28144025611238
 20
14.591924425275
 30
0.0
 41
1.0
 10
30.29205149638292
 20
14.59391162607272
 30
0.0
 41
1.0
 10
30.29298710099709
 20
14.59408683973185
 30
0.0
 41
1.0
  0
LINE
  5
293
330
1F
100
AcDbEntity
  8
0
  6
SLD-Solid
 62
     7
370
    25
100
AcDbLine
 10
30.29367010909516
 20
14.59385105463114
 30
0.0
 11
30.49483617871777
 21
14.61180855850341
 31
0.0
  0
LINE
  5
294
330
1F
100
AcDbEntity
  8
0
  6
SLD-Solid
 62
     7
370
    25
100
AcDbLine
 10
26.75129773001273
 20
16.60986987020654
 30
0.0
 11
28.49622305142337
 21
15.60254592364926
 31
0.0
  0
LINE
  5
295
330
1F
100
AcDbEntity
  8
0
  6
SLD-Solid
 62
     7
370
    25
100
AcDbLine
 10
29.98013001050239
 20
14.74590467029471
 30
0.0
 11
30.20867961943931
 21
14.61396578945347
 31
0.0
  0
LINE
  5
296
330
1F
100
AcDbEntity
  8
0
  6
SLD-Solid
 62
     7
370
    25
100
AcDbLine
 10
26.29452086954734
 20
18.55687941191735
 30
0.0
 11
26.29452086954734
 21
18.51605237132306
 31
0.0
  0
SPLINE
  5
297
330
1F
100
AcDbEntity
  8
0
  6
SLD-Solid
 62
     7
370
    25
100
AcDbSpline
210
0.0
220
0.0
230
1.0
 70
    12
 71
     3
 72
    11
 73
     7
 74
     0
 42
0.00000001
 43
0.00000001
 40
0.0
 40
0.0
 40
0.0
 40
0.0
 40
0.0562041753284959
 40
0.3753165532842898
 40
0.6975554349059888
 40
1.0
 40
1.0
 40
1.0
 40
1.0
 10
26.28496649502686
 20
18.92331107351898
 30
0.0
 41
1.0
 10
26.28390111270273
 20
18.92203856813243
 30
0.0
 41
1.0
 10
26.27678677254056
 20
18.91354111517761
 30
0.0
 41
1.0
 10
26.26870565620126
 20
18.89430582106332
 30
0.0
 41
1.0
 10
26.26106288485091
 20
18.86772703232985
 30
0.0
 41
1.0
 10
26.26028965970344
 20
18.84937578698466
 30
0.0
 41
1.0
 10
26.25991529770509
 20
18.84049091185864
 30
0.0
 41
1.0
  0
LINE
  5
298
330
1F
100
AcDbEntity
  8
0
  6
SLD-Solid
 62
     7
370
    25
100
AcDbLine
 10
26.40114105370994
 20
19.08939391868696
 30
0.0
 11
26.28499713168833
 21
18.92417172453539
 31
0.0
  0
LINE
  5
299
330
1F
100
AcDbEntity
  8
0
  6
SLD-Solid
 62
     7
370
    25
100
AcDbLine
 10
26.25991529770509
 20
18.84049091185864
 30
0.0
 11
26.25991529770509
 21
18.50397651676306
 31
0.0
  0
LINE
  5
29A
330
1F
100
AcDbEntity
  8
0
  6
SLD-Solid
 62
     7
370
    25
100
AcDbLine
 10
26.76689911592789
 20
16.7146955900786
 30
0.0
 11
26.57427086954734
 21
16.82589750971468
 31
0.0
  0
LINE
  5
29B
330
1F
100
AcDbEntity
  8
0
  6
SLD-Solid
 62
     7
370
    25
100
AcDbLine
 10
30.11151419094026
 20
16.5174721099248
 30
0.0
 11
30.11151419094026
 21
15.80565265716339
 31
0.0
  0
LINE
  5
29C
330
1F
100
AcDbEntity
  8
0
  6
SLD-Solid
 62
     7
370
    25
100
AcDbLine
 10
30.11151419094026
 20
15.5504836534491
 30
0.0
 11
30.11151419094026
 21
14.83866420068769
 31
0.0
  0
ELLIPSE
  5
29D
330
1F
100
AcDbEntity
  8
0
  6
SLD-Solid
 62
     7
370
    25
100
AcDbEllipse
 10
28.16573200530525
 20
17.03345106396959
 30
0.0
 11
0.9160489137486714
 21
1.890683322219875
 31
0.0
210
0.0
220
0.0
230
1.0
 40
0.5227660535386892
 41
3.988473883679557
 42
4.131198813557807
  0
LINE
  5
29E
330
1F
100
AcDbEntity
  8
0
  6
SLD-Solid
 62
     7
370
    25
100
AcDbLine
 10
28.04318086082578
 20
15.20745078814636
 30
0.0
 11
28.04435762976633
 21
15.20837122337559
 31
0.0
  0
SPLINE
  5
29F
330
1F
100
AcDbEntity
  8
0
  6
SLD-Solid
 62
     7
370
    25
100
AcDbSpline
210
0.0
220
0.0
230
1.0
 70
    12
 71
     3
 72
     9
 73
     5
 74
     0
 42
0.00000001
 43
0.00000001
 40
0.0
 40
0.0
 40
0.0
 40
0.0
 40
0.1236907192216802
 40
0.9999999999999999
 40
0.9999999999999999
 40
0.9999999999999999
 40
0.9999999999999999
 10
28.13020905381564
 20
15.28129110930796
 30
0.0
 41
1.0
 10
28.13715203999953
 20
15.28746453543923
 30
0.0
 41
1.0
 10
28.19328386805891
 20
15.33737471600988
 30
0.0
 41
1.0
 10
28.24990788102125
 20
15.38270206116037
 30
0.0
 41
1.0
 10
28.29952802909506
 20
15.42242283438879
 30
0.0
 41
1.0
  0
LINE
  5
2A0
330
1F
100
AcDbEntity
  8
0
  6
SLD-Solid
 62
     7
370
    25
100
AcDbLine
 10
29.14570726218657
 20
16.25652434811221
 30
0.0
 11
28.48890561069076
 21
15.59517784867205
 31
0.0
  0
LINE
  5
2A1
330
1F
100
AcDbEntity
  8
0
  6
SLD-Solid
 62
     7
370
    25
100
AcDbLine
 10
24.5945217550079
 20
16.5087342511496
 30
0.0
 11
27.22348757834409
 21
14.99106458584476
 31
0.0
  0
LINE
  5
2A2
330
1F
100
AcDbEntity
  8
0
  6
SLD-Solid
 62
     7
370
    25
100
AcDbLine
 10
24.9648010674083
 20
15.67685515946385
 30
0.0
 11
26.96859919151015
 21
14.52008712491979
 31
0.0
  0
LINE
  5
2A3
330
1F
100
AcDbEntity
  8
0
  6
SLD-Solid
 62
     7
370
    25
100
AcDbLine
 10
24.65109029750282
 20
16.54139057562251
 30
0.0
 11
27.26507712279503
 21
15.03236810182782
 31
0.0
  0
ARC
  5
2A4
330
1F
100
AcDbEntity
  8
0
  6
SLD-Solid
 62
     7
370
    25
100
AcDbCircle
 10
30.03475338587188
 20
16.51397906731176
 30
0.0
 40
0.0768402403786102
100
AcDbArc
 50
2.605478485657426
 51
57.39452165997272
  0
ELLIPSE
  5
2A5
330
1F
100
AcDbEntity
  8
0
  6
SLD-Solid
 62
     7
370
    25
100
AcDbEllipse
 10
29.1534131889117
 20
16.22222938149639
 30
0.0
 11
0.02184276713306232
 21
0.04508247857706493
 31
0.0
210
0.0
220
0.0
230
0.9999999999999999
 40
0.5227660535386828
 41
0.7474333982541617
 42
0.9896061599679765
  0
LINE
  5
2A6
330
1F
100
AcDbEntity
  8
0
  6
SLD-Solid
 62
     7
370
    25
100
AcDbLine
 10
29.34911165946492
 20
16.66271774802121
 30
0.0
 11
29.55695120673429
 21
16.54273453129718
 31
0.0
  0
LINE
  5
2A7
330
1F
100
AcDbEntity
  8
0
  6
SLD-Solid
 62
     7
370
    25
100
AcDbLine
 10
29.34911165946492
 20
16.66271774802121
 30
0.0
 11
29.63987396788883
 21
16.83057125581196
 31
0.0
  0
LINE
  5
2A8
330
1F
100
AcDbEntity
  8
0
  6
SLD-Solid
 62
     7
370
    25
100
AcDbLine
 10
29.63987396788883
 20
16.83057125581196
 30
0.0
 11
29.79791233348402
 21
16.73933764931577
 31
0.0
  0
LINE
  5
2A9
330
1F
100
AcDbEntity
  8
0
  6
SLD-Solid
 62
     7
370
    25
100
AcDbLine
 10
29.83150536495914
 20
16.75873049359805
 30
0.0
 11
29.79791233348402
 21
16.73933764931577
 31
0.0
  0
LINE
  5
2AA
330
1F
100
AcDbEntity
  8
0
  6
SLD-Solid
 62
     7
370
    25
100
AcDbLine
 10
30.01888320260482
 20
16.61177388184347
 30
0.0
 11
30.02454005685431
 21
16.61503951429076
 31
0.0
  0
LINE
  5
2AB
330
1F
100
AcDbEntity
  8
0
  6
SLD-Solid
 62
     7
370
    25
100
AcDbLine
 10
30.07615885188093
 20
16.57870935331465
 30
0.0
 11
30.01888320260482
 21
16.61177388184347
 31
0.0
  0
LINE
  5
2AC
330
1F
100
AcDbEntity
  8
0
  6
SLD-Solid
 62
     7
370
    25
100
AcDbLine
 10
29.55695120673429
 20
16.54273453129718
 30
0.0
 11
29.1534131889117
 21
16.26305642209068
 31
0.0
  0
LINE
  5
2AD
330
1F
100
AcDbEntity
  8
0
  6
SLD-Solid
 62
     7
370
    25
100
AcDbLine
 10
29.34911165946492
 20
16.62189070742692
 30
0.0
 11
29.34911165946492
 21
16.66271774802121
 31
0.0
  0
LINE
  5
2AE
330
1F
100
AcDbEntity
  8
0
  6
SLD-Solid
 62
     7
370
    25
100
AcDbLine
 10
29.34911165946492
 20
16.62189070742692
 30
0.0
 11
29.52481285839455
 21
16.52046056428615
 31
0.0
  0
ARC
  5
2AF
330
1F
100
AcDbEntity
  8
0
  6
SLD-Solid
 62
     7
370
    25
100
AcDbCircle
 10
30.08772991312614
 20
14.83563599926629
 30
0.0
 40
0.0239762773379855
100
AcDbArc
 50
304.0563508568886
 51
7.255829536477899
  0
LWPOLYLINE
  5
2B0
330
1F
100
AcDbEntity
  8
0
  6
SLD-Solid
 62
     7
370
    25
100
AcDbPolyline
 90
       15
 70
   128
 43
0.0
 10
25.35480505385827
 20
15.6704968033998
 10
25.36085572919819
 20
15.67057986759681
 10
25.37653076078685
 20
15.67596588875342
 10
25.38782483105989
 20
15.68857502547852
 10
25.39373441231035
 20
15.70728690063979
 10
25.39373441231035
 20
15.73043888201344
 10
25.38782483105989
 20
15.75597381445363
 10
25.37653076078685
 20
15.78162280715484
 10
25.36085572919819
 20
15.80510683455682
 10
25.34219253163931
 20
15.82433923776695
 10
25.32219947511542
 20
15.83761113335999
 10
25.30265303043673
 20
15.84374325516975
 10
25.28528998499112
 20
15.84219073726305
 10
25.2716531215629
 20
15.83309152766903
 10
25.26536882990085
 20
15.82346650793071
  0
ARC
  5
2B1
330
1F
100
AcDbEntity
  8
0
  6
SLD-Solid
 62
     7
370
    25
100
AcDbCircle
 10
25.27077975346113
 20
15.72467187621747
 30
0.0
 40
0.1236726894352407
100
AcDbArc
 50
346.598313061615
 51
73.39631043404395
  0
LWPOLYLINE
  5
2B2
330
1F
100
AcDbEntity
  8
0
  6
SLD-Solid
 62
     7
370
    25
100
AcDbPolyline
 90
        7
 70
   128
 43
0.0
 10
25.2842668638058
 20
15.76919009487746
 10
25.28668860077559
 20
15.75373293776868
 10
25.29358512418441
 20
15.7378329147211
 10
25.30390650086041
 20
15.72391066010965
 10
25.31608139476818
 20
15.71408571099338
 10
25.32825628867594
 20
15.70985382681186
 10
25.33857583713933
 20
15.71185821799337
  0
LWPOLYLINE
  5
2B3
330
1F
100
AcDbEntity
  8
0
  6
SLD-Solid
 62
     7
370
    25
100
AcDbPolyline
 90
        4
 70
   128
 43
0.0
 10
25.29358695239702
 20
15.78978969618087
 10
25.29358512418441
 20
15.78978864060466
 10
25.28668860077559
 20
15.78185117399712
 10
25.2842668638058
 20
15.76919009487746
  0
LWPOLYLINE
  5
2B4
330
1F
100
AcDbEntity
  8
0
  6
SLD-Solid
 62
     7
370
    25
100
AcDbPolyline
 90
       15
 70
   128
 43
0.0
 10
25.64648660109772
 20
15.50211263033636
 10
25.65253727643764
 20
15.50219569453338
 10
25.6682123080263
 20
15.50758171568999
 10
25.67950637829934
 20
15.52019085241508
 10
25.6854159595498
 20
15.53890272757635
 10
25.6854159595498
 20
15.56205470895001
 10
25.67950637829934
 20
15.5875896413902
 10
25.6682123080263
 20
15.61323863409141
 10
25.65253727643764
 20
15.63672266149339
 10
25.63387407887876
 20
15.65595506470352
 10
25.61388102235487
 20
15.66922696029656
 10
25.59433457767619
 20
15.67535908210631
 10
25.57697153223057
 20
15.67380656419962
 10
25.56333466880235
 20
15.6647073546056
 10
25.5570503771403
 20
15.65508233486727
  0
ARC
  5
2B5
330
1F
100
AcDbEntity
  8
0
  6
SLD-Solid
 62
     7
370
    25
100
AcDbCircle
 10
25.56246129921799
 20
15.55628770191491
 30
0.0
 40
0.1236726911430828
100
AcDbArc
 50
346.5983157858811
 51
73.39630958874919
  0
LWPOLYLINE
  5
2B6
330
1F
100
AcDbEntity
  8
0
  6
SLD-Solid
 62
     7
370
    25
100
AcDbPolyline
 90
        7
 70
   128
 43
0.0
 10
25.57594841104525
 20
15.60080592181403
 10
25.57837014801504
 20
15.58534876470524
 10
25.58526667142386
 20
15.56944874165766
 10
25.59558804809986
 20
15.55552648704622
 10
25.60776294200762
 20
15.54570153792995
 10
25.61993783591539
 20
15.54146965374842
 10
25.63025738437878
 20
15.54347404492993
  0
LWPOLYLINE
  5
2B7
330
1F
100
AcDbEntity
  8
0
  6
SLD-Solid
 62
     7
370
    25
100
AcDbPolyline
 90
        4
 70
   128
 43
0.0
 10
25.58526849963647
 20
15.62140552311744
 10
25.58526667142386
 20
15.62140446754123
 10
25.57837014801504
 20
15.61346700093369
 10
25.57594841104525
 20
15.60080592181403
  0
LINE
  5
2B8
330
1F
100
AcDbEntity
  8
0
  6
SLD-Solid
 62
     7
370
    25
100
AcDbLine
 10
25.22384361553635
 20
16.06337504192658
 30
0.0
 11
24.59990609679312
 21
16.31243842139787
 31
0.0
  0
ARC
  5
2B9
330
1F
100
AcDbEntity
  8
0
  6
SLD-Solid
 62
     7
370
    25
100
AcDbCircle
 10
24.61646971780736
 20
16.35427066565817
 30
0.0
 40
0.0449921126527423
100
AcDbArc
 50
240.1782364711874
 51
248.3987403745858
  0
LINE
  5
2BA
330
1F
100
AcDbEntity
  8
0
  6
SLD-Solid
 62
     7
370
    25
100
AcDbLine
 10
24.5940949808348
 20
16.31523656074508
 30
0.0
 11
24.49920766866264
 21
16.3700138400949
 31
0.0
  0
LINE
  5
2BB
330
1F
100
AcDbEntity
  8
0
  6
SLD-Solid
 62
     7
370
    25
100
AcDbLine
 10
24.60965133002091
 20
16.32421704997514
 30
0.0
 11
24.49920766866264
 21
16.387974818555
 31
0.0
  0
ARC
  5
2BC
330
1F
100
AcDbEntity
  8
0
  6
SLD-Solid
 62
     7
370
    25
100
AcDbCircle
 10
24.62030596667442
 20
16.34280471898117
 30
0.0
 40
0.0214248155487076
100
AcDbArc
 50
240.1782364711375
 51
248.3987403746171
  0
LINE
  5
2BD
330
1F
100
AcDbEntity
  8
0
  6
SLD-Solid
 62
     7
370
    25
100
AcDbLine
 10
25.23650484564014
 20
16.07376182569024
 30
0.0
 11
24.6124185280963
 21
16.32288460266694
 31
0.0
  0
ARC
  5
2BE
330
1F
100
AcDbEntity
  8
0
  6
SLD-Solid
 62
     7
370
    25
100
AcDbCircle
 10
25.22861740706161
 20
16.05384170937517
 30
0.0
 40
0.0214248155496458
100
AcDbArc
 50
60.17823647130502
 51
68.39874037442411
  0
LINE
  5
2BF
330
1F
100
AcDbEntity
  8
0
  6
SLD-Solid
 62
     7
370
    25
100
AcDbLine
 10
25.69761224141759
 20
15.80783521429379
 30
0.0
 11
25.23927204371553
 21
16.07242937838205
 31
0.0
  0
LINE
  5
2C0
330
1F
100
AcDbEntity
  8
0
  6
SLD-Solid
 62
     7
370
    25
100
AcDbLine
 10
25.68205589223149
 20
15.79885472506374
 30
0.0
 11
25.22384361553635
 21
16.06337504192658
 31
0.0
  0
ARC
  5
2C1
330
1F
100
AcDbEntity
  8
0
  6
SLD-Solid
 62
     7
370
    25
100
AcDbCircle
 10
25.70965913360748
 20
15.34277119383966
 30
0.0
 40
0.0436709197428505
100
AcDbArc
 50
230.7967147642923
 51
9.21403699045897
  0
LINE
  5
2C2
330
1F
100
AcDbEntity
  8
0
  6
SLD-Solid
 62
     7
370
    25
100
AcDbLine
 10
25.68205589223149
 20
15.30893023793229
 30
0.0
 11
25.22384361553635
 21
15.57345055479513
 31
0.0
  0
LINE
  5
2C3
330
1F
100
AcDbEntity
  8
0
  6
SLD-Solid
 62
     7
370
    25
100
AcDbLine
 10
25.22384361553635
 20
15.57345055479513
 30
0.0
 11
25.22384361553635
 21
16.06337504192658
 31
0.0
  0
ARC
  5
2C4
330
1F
100
AcDbEntity
  8
0
  6
SLD-Solid
 62
     7
370
    25
100
AcDbCircle
 10
25.59924496021339
 20
15.66939415305797
 30
0.0
 40
0.1536804807572091
100
AcDbArc
 50
2.605478485652975
 51
57.39452165997317
  0
LINE
  5
2C5
330
1F
100
AcDbEntity
  8
0
  6
SLD-Solid
 62
     7
370
    25
100
AcDbLine
 10
25.75276657035014
 20
15.34976391352973
 30
0.0
 11
25.75276657035014
 21
15.67638023828403
 31
0.0
  0
ARC
  5
2C6
330
1F
100
AcDbEntity
  8
0
  6
SLD-Solid
 62
     7
370
    25
100
AcDbCircle
 10
25.6148013093995
 20
15.67837464228803
 30
0.0
 40
0.1536804807572019
100
AcDbArc
 50
2.605478485652434
 51
57.39452165997469
  0
LINE
  5
2C7
330
1F
100
AcDbEntity
  8
0
  6
SLD-Solid
 62
     7
370
    25
100
AcDbLine
 10
25.76832291953624
 20
15.35874440275978
 30
0.0
 11
25.76832291953624
 21
15.68536072751408
 31
0.0
  0
ARC
  5
2C8
330
1F
100
AcDbEntity
  8
0
  6
SLD-Solid
 62
     7
370
    25
100
AcDbCircle
 10
25.72075436394091
 20
15.35268799990209
 30
0.0
 40
0.0479525546452041
100
AcDbArc
 50
304.0563508342817
 51
7.255829559094282
  0
LINE
  5
2C9
330
1F
100
AcDbEntity
  8
0
  6
SLD-Solid
 62
     7
370
    25
100
AcDbLine
 10
25.22384361553635
 20
15.57345055479513
 30
0.0
 11
24.59990609679312
 21
15.82251393426642
 31
0.0
  0
ARC
  5
2CA
330
1F
100
AcDbEntity
  8
0
  6
SLD-Solid
 62
     7
370
    25
100
AcDbCircle
 10
24.61646971780711
 20
15.86434617852619
 30
0.0
 40
0.0449921126521533
100
AcDbArc
 50
240.1782364711225
 51
248.3987403746296
  0
LINE
  5
2CB
330
1F
100
AcDbEntity
  8
0
  6
SLD-Solid
 62
     7
370
    25
100
AcDbLine
 10
24.5940949808348
 20
15.82531207361364
 30
0.0
 11
24.49920766866264
 21
15.88008935296345
 31
0.0
  0
LWPOLYLINE
  5
2CC
330
1F
100
AcDbEntity
  8
0
  6
SLD-Solid
 62
     7
370
    25
100
AcDbPolyline
 90
       28
 70
   128
 43
0.0
 10
26.33362880477013
 20
18.64349220165112
 10
26.34985374343109
 20
18.6622205792032
 10
26.3731229806829
 20
18.67828407711205
 10
26.4021820659223
 20
18.69081670804753
 10
26.43546441634238
 20
18.69914283463195
 10
26.47117577181715
 20
18.70281359322601
 10
26.50739092392945
 20
18.70163109228376
 10
26.54215750445496
 20
18.69565908073708
 10
26.57360123803855
 20
18.68521951127425
 10
26.60002698486382
 20
18.67087518378719
 10
26.62001012607938
 20
18.65339940468361
 10
26.63247336536984
 20
18.63373429773844
 10
26.63674480627908
 20
18.6129400139572
 10
26.63259417432205
 20
18.59213757856095
 10
26.62024523114191
 20
18.5724484562264
 10
26.6003637114619
 20
18.55493409263495
 10
26.57402143315411
 20
18.54053869166124
 10
26.54263851526056
 20
18.53003831309787
 10
26.50790681900806
 20
18.52399903507112
 10
26.47169873913155
 20
18.52274643662261
 10
26.43596626258927
 20
18.52634804565893
 10
26.40263573644063
 20
18.53460969850469
 10
26.37350401797759
 20
18.54708600731653
 10
26.35014160568296
 20
18.56310437105702
 10
26.33380797325067
 20
18.58180123559071
 10
26.32538367103295
 20
18.60216864811111
 10
26.3253228553429
 20
18.62310859613731
 10
26.33362880477013
 20
18.64349220165112
  0
LWPOLYLINE
  5
2CD
330
1F
100
AcDbEntity
  8
0
  6
SLD-Solid
 62
     7
370
    25
100
AcDbPolyline
 90
       15
 70
   128
 43
0.0
 10
26.63674502585362
 20
18.59770645251164
 10
26.63259417432205
 20
18.57705522423612
 10
26.62024523114191
 20
18.55736610190156
 10
26.6003637114619
 20
18.53985173831012
 10
26.57402143315411
 20
18.5254563373364
 10
26.54263851526056
 20
18.51495595877304
 10
26.50790681900806
 20
18.50891668074628
 10
26.47169873913155
 20
18.50766408229778
 10
26.43596626258927
 20
18.5112656913341
 10
26.40263573644063
 20
18.51952734417986
 10
26.37350401797759
 20
18.53200365299169
 10
26.35014160568296
 20
18.54802201673218
 10
26.33380797325067
 20
18.56671888126588
 10
26.32538367103295
 20
18.58708629378627
 10
26.32429671324106
 20
18.59770645251164
  0
LWPOLYLINE
  5
2CE
330
1F
100
AcDbEntity
  8
0
  6
SLD-Solid
 62
     7
370
    25
100
AcDbPolyline
 90
       21
 70
   128
 43
0.0
 10
26.42913532172782
 20
16.79279418052631
 10
26.4074193807446
 20
16.80417645244324
 10
26.39285912281342
 20
16.81887558024622
 10
26.38687980742785
 20
16.83545271089103
 10
26.39006673163819
 20
16.85228515933051
 10
26.40210793709811
 20
16.86772524823284
 10
26.42182474672118
 20
16.88026159411883
 10
26.44728714180642
 20
16.88866705210729
 10
26.47600268571593
 20
16.89211883740607
 10
26.50516050093891
 20
16.89027906522009
 10
26.53190641736686
 20
16.88332782526938
 10
26.55362235835008
 20
16.87194555335245
 10
26.56818261628127
 20
16.85724642554948
 10
26.57416193166683
 20
16.84066929490466
 10
26.57097500745649
 20
16.82383684646518
 10
26.55893380199657
 20
16.80839675756285
 10
26.53921699237349
 20
16.79586041167687
 10
26.51375459728826
 20
16.7874549536884
 10
26.48503905337875
 20
16.78400316838963
 10
26.45588123815578
 20
16.7858429405756
 10
26.42913532172782
 20
16.79279418052631
  0
LWPOLYLINE
  5
2CF
330
1F
100
AcDbEntity
  8
0
  6
SLD-Solid
 62
     7
370
    25
100
AcDbPolyline
 90
       18
 70
   128
 43
0.0
 10
26.51715643227364
 20
16.87033419216572
 10
26.49448734928344
 20
16.87579484963311
 10
26.46993201581394
 20
16.87615934200844
 10
26.446806765716
 20
16.8713784425767
 10
26.42823479215679
 20
16.86209783829802
 10
26.41672434307632
 20
16.84957092620585
 10
26.41382996840452
 20
16.83548953519225
 10
26.4199425694791
 20
16.82175543514128
 10
26.43423660565385
 20
16.8102234923681
 10
26.45478158813737
 20
16.80245115964494
 10
26.47880280320158
 20
16.79948813357404
 10
26.50305605264593
 20
16.80173458724496
 10
26.52426580074106
 20
16.80888712464142
 10
26.53956755347943
 20
16.81997975595446
 10
26.54689472436381
 20
16.83351435985885
 10
26.545257738365
 20
16.84766301309947
 10
26.53487767951299
 20
16.86051486165579
 10
26.51715643227364
 20
16.87033419216572
  0
ARC
  5
2D0
330
1F
100
AcDbEntity
  8
0
  6
SLD-Solid
 62
     7
370
    25
100
AcDbCircle
 10
26.48173063677984
 20
16.71765605061518
 30
0.0
 40
0.2311207803466282
100
AcDbArc
 50
236.6184036768527
 51
294.485897990873
  0
ARC
  5
2D1
330
1F
100
AcDbEntity
  8
0
  6
SLD-Solid
 62
     7
370
    25
100
AcDbCircle
 10
26.48148819119432
 20
16.74512170254233
 30
0.0
 40
0.2427139445376769
100
AcDbArc
 50
241.9773142244049
 51
289.408576570167
  0
LWPOLYLINE
  5
2D2
330
1F
100
AcDbEntity
  8
0
  6
SLD-Solid
 62
     7
370
    25
100
AcDbPolyline
 90
       35
 70
   128
 43
0.0
 10
27.26933748531766
 20
13.73966868728298
 10
27.25885109808488
 20
13.74196187128998
 10
27.2029481140519
 20
13.75910929062481
 10
27.15134318709899
 20
13.78361142869113
 10
27.10454370504939
 20
13.81522737658292
 10
27.06300980783016
 20
13.85364628128812
 10
27.02714986330353
 20
13.89849040204476
 10
26.9973164521293
 20
13.949318824348
 10
26.9738029011359
 20
14.00563179509144
 10
26.95684039928455
 20
14.06687563621889
 10
26.94659572458266
 20
14.13244818857483
 10
26.94316960429608
 20
14.20170473242865
 10
26.94659572458266
 20
14.27396432646129
 10
26.95684039928455
 20
14.34851650288821
 10
26.97380290113591
 20
14.42462825289133
 10
26.9973164521293
 20
14.50155123367788
 10
27.02714986330353
 20
14.57852912630545
 10
27.06300980783017
 20
14.65480507192969
 10
27.10454370504939
 20
14.72962911336047
 10
27.151343187099
 20
14.80226556875987
 10
27.2029481140519
 20
14.87200026498266
 10
27.25885109808488
 20
14.93814755943988
 10
27.31850249219609
 20
15.00005708144545
 10
27.38131579442154
 20
15.05712012676393
 10
27.44667341441534
 20
15.10877564248699
 10
27.51393274569596
 20
15.1545157433946
 10
27.58243248385498
 20
15.19389070556302
 10
27.65149912860691
 20
15.22651338812173
 10
27.72045360575076
 20
15.25206303968383
 10
27.78861794393524
 20
15.27028845202453
 10
27.85532194058058
 20
15.28101043000025
 10
27.91990975141656
 20
15.28412355342368
 10
27.98174633884729
 20
15.27959721357175
 10
28.04022371574164
 20
15.26747591413551
 10
28.09196686737816
 20
15.24910961410705
  0
LWPOLYLINE
  5
2D3
330
1F
100
AcDbEntity
  8
0
  6
SLD-Solid
 62
     7
370
    25
100
AcDbPolyline
 90
       26
 70
   128
 43
0.0
 10
27.17169435556297
 20
13.96266432334481
 10
27.14871186891886
 20
13.98868635124619
 10
27.119626647309
 20
14.03218172384615
 10
27.09664339308275
 20
14.08124550290732
 10
27.08003156388212
 20
14.13530246047965
 10
27.06998591821614
 20
14.19371882816035
 10
27.06662423209543
 20
14.25580972744896
 10
27.06998591821614
 20
14.32084719932156
 10
27.08003156388212
 20
14.38806873888479
 10
27.09664339308275
 20
14.4566862350485
 10
27.11962664730901
 20
14.52589521040774
 10
27.14871186891887
 20
14.59488425300481
 10
27.18355806028183
 20
14.66284452939253
 10
27.22375668166434
 20
14.72897926746692
 10
27.26883644098465
 20
14.79251309789165
 10
27.31826881928152
 20
14.8527011445945
 10
27.3714742671159
 20
14.90883775775835
 10
27.42782899925812
 20
14.96026478692004
 10
27.48667230799944
 20
15.00637929718283
 10
27.54731430934583
 20
15.0466406380768
 10
27.60904403127699
 20
15.08057678219125
 10
27.67113774924332
 20
15.10778985926456
 10
27.73286747117448
 20
15.12796082084919
 10
27.79350947252087
 20
15.14085318086305
 10
27.85235278126219
 20
15.14631578817258
 10
27.87940905550503
 20
15.14628803106952
  0
LWPOLYLINE
  5
2D4
330
1F
100
AcDbEntity
  8
0
  6
SLD-Solid
 62
     7
370
    25
100
AcDbPolyline
 90
       33
 70
   128
 43
0.0
 10
27.08264227036356
 20
13.83178658967388
 10
27.07672920990609
 20
13.83637812898884
 10
27.03519531268686
 20
13.87479703369404
 10
26.99933536816023
 20
13.91964115445068
 10
26.969501956986
 20
13.97046957675392
 10
26.94598840599261
 20
14.02678254749736
 10
26.92902590414126
 20
14.08802638862482
 10
26.91878122943936
 20
14.15359894098076
 10
26.91535510915278
 20
14.22285548483458
 10
26.91878122943936
 20
14.29511507886722
 10
26.92902590414126
 20
14.36966725529414
 10
26.94598840599261
 20
14.44577900529725
 10
26.969501956986
 20
14.52270198608381
 10
26.99933536816024
 20
14.59967987871138
 10
27.03519531268687
 20
14.67595582433562
 10
27.0767292099061
 20
14.75077986576639
 10
27.12352869195571
 20
14.82341632116579
 10
27.17513361890861
 20
14.89315101738858
 10
27.23103660294159
 20
14.9592983118458
 10
27.2906879970528
 20
15.02120783385138
 10
27.35350129927824
 20
15.07827087916985
 10
27.41885891927204
 20
15.12992639489291
 10
27.48611825055266
 20
15.17566649580052
 10
27.55461798871168
 20
15.21504145796894
 10
27.62368463346361
 20
15.24766414052766
 10
27.69263911060746
 20
15.27321379208976
 10
27.76080344879194
 20
15.29143920443046
 10
27.82750744543729
 20
15.30216118240618
 10
27.89209525627325
 20
15.3052743058296
 10
27.95393184370399
 20
15.30074796597768
 10
28.01240922059834
 20
15.28862666654143
 10
28.06695242811569
 20
15.26902958605863
 10
28.09732519676425
 20
15.2538934690623
  0
LWPOLYLINE
  5
2D5
330
1F
100
AcDbEntity
  8
0
  6
SLD-Solid
 62
     7
370
    25
100
AcDbPolyline
 90
       45
 70
   128
 43
0.0
 10
24.96582033357413
 20
17.01354451885693
 10
24.94007922202994
 20
17.05570141421921
 10
24.9099374650303
 20
17.0907659249687
 10
24.87569142110866
 20
17.1183932912766
 10
24.83767780279824
 20
17.13831187649735
 10
24.7962703660209
 20
17.15032583794316
 10
24.75187623525976
 20
17.15431705244043
 10
24.7049319006467
 20
17.15024627773544
 10
24.65589892632215
 20
17.13815353833047
 10
24.60525941226334
 20
17.11815773195653
 10
24.55351125420086
 20
17.09045546055201
 10
24.50116324822891
 20
17.05531909724127
 10
24.44873008824142
 20
17.01309410831889
 10
24.39672730538012
 20
16.96419565657026
 10
24.3456661992506
 20
16.90910451932533
 10
24.29604881074352
 20
16.8483623613796
 10
24.24836298588902
 20
16.78256640926003
 10
24.20307757927713
 20
16.71236357919912
 10
24.1606378442052
 20
16.63844411655194
 10
24.12146105487682
 20
16.5615348091944
 10
24.08593240369575
 20
16.4823918416296
 10
24.05440121399308
 20
16.40179336006193
 10
24.02717750542492
 20
16.3205318215402
 10
24.00452894580994
 20
16.23940620239431
 10
23.98667821937696
 20
16.15921414257333
 10
23.97380083729832
 20
16.08074410312303
 10
23.96602341203619
 20
16.00476761391189
 10
23.96342241246878
 20
15.93203168782709
 10
23.9660234120362
 20
15.86325147602543
 10
23.97380083729832
 20
15.79910323645371
 10
23.98667821937697
 20
15.74021768477344
 10
24.00452894580994
 20
15.68717379306443
 10
24.02717750542493
 20
15.6404930972795
 10
24.05440121399309
 20
15.60063456942036
 10
24.08593240369576
 20
15.56799010485206
 10
24.12146105487683
 20
15.54288066912567
 10
24.16063784420521
 20
15.5255531421941
 10
24.20307757927714
 20
15.51617789104923
 10
24.24836298588903
 20
15.51484709464666
 10
24.29604881074354
 20
15.52157383758762
 10
24.34566619925061
 20
15.53629198146905
 10
24.39672730538013
 20
15.5588568151669
 10
24.44873008824142
 20
15.58904647765883
 10
24.50116324822891
 20
15.62656413939698
 10
24.51989792908006
 20
15.64167310226977
  0
LWPOLYLINE
  5
2D6
330
1F
100
AcDbEntity
  8
0
  6
SLD-Solid
 62
     7
370
    25
100
AcDbPolyline
 90
       34
 70
   128
 43
0.0
 10
24.80709071382126
 20
17.15182714294258
 10
24.80103965519327
 20
17.15436884276144
 10
24.75963221841593
 20
17.16638280420725
 10
24.7152380876548
 20
17.17037401870452
 10
24.66829375304173
 20
17.16630324399953
 10
24.61926077871719
 20
17.15421050459456
 10
24.56862126465838
 20
17.13421469822062
 10
24.5168731065959
 20
17.1065124268161
 10
24.46452510062394
 20
17.07137606350537
 10
24.41209194063645
 20
17.02915107458298
 10
24.36008915777515
 20
16.98025262283435
 10
24.30902805164563
 20
16.92516148558942
 10
24.25941066313856
 20
16.86441932764369
 10
24.21172483828405
 20
16.79862337552412
 10
24.16643943167217
 20
16.72842054546321
 10
24.12399969660023
 20
16.65450108281603
 10
24.08482290727186
 20
16.57759177545849
 10
24.04929425609078
 20
16.49844880789369
 10
24.01776306638812
 20
16.41785032632602
 10
23.99053935781996
 20
16.33658878780428
 10
23.96789079820497
 20
16.2554631686584
 10
23.950040071772
 20
16.17527110883742
 10
23.93716268969336
 20
16.09680106938712
 10
23.92938526443123
 20
16.02082458017598
 10
23.92678426486382
 20
15.94808865409118
 10
23.92938526443123
 20
15.87930844228952
 10
23.93716268969336
 20
15.8151602027178
 10
23.950040071772
 20
15.75627465103753
 10
23.96789079820497
 20
15.70323075932852
 10
23.99053935781996
 20
15.65655006354359
 10
24.01776306638812
 20
15.61669153568445
 10
24.04929425609079
 20
15.58404707111615
 10
24.08482290727186
 20
15.55893763538976
 10
24.10463795722751
 20
15.54899835459561
  0
LINE
  5
2D7
330
1F
100
AcDbEntity
  8
0
  6
SLD-Solid
 62
     7
370
    25
100
AcDbLine
 10
25.66634037384118
 20
17.54623532811817
 30
0.0
 11
24.96582033357413
 21
17.01354451885693
 31
0.0
  0
LINE
  5
2D8
330
1F
100
AcDbEntity
  8
0
  6
SLD-Solid
 62
     7
370
    25
100
AcDbLine
 10
25.66634037384118
 20
17.54623532811817
 30
0.0
 11
25.66634037384118
 21
16.90770041322351
 31
0.0
  0
LINE
  5
2D9
330
1F
100
AcDbEntity
  8
0
  6
SLD-Solid
 62
     7
370
    25
100
AcDbLine
 10
25.66634037384118
 20
16.90770041322351
 30
0.0
 11
25.08625073742599
 21
16.46658752550617
 31
0.0
  0
LWPOLYLINE
  5
2DA
330
1F
100
AcDbEntity
  8
0
  6
SLD-Solid
 62
     7
370
    25
100
AcDbPolyline
 90
       38
 70
   128
 43
0.0
 10
24.91035086011528
 20
16.81714905944437
 10
24.90507022355816
 20
16.83580171085975
 10
24.88762208125724
 20
16.8816701378214
 10
24.86554152292957
 20
16.92112180438126
 10
24.83908742293309
 20
16.9536941758199
 10
24.80856993140305
 20
16.97900537086343
 10
24.77434683802521
 20
16.99675863889219
 10
24.73681937727898
 20
17.00674583907052
 10
24.69642752432991
 20
17.00884988060771
 10
24.6536448367232
 20
17.00304609554048
 10
24.60897290235447
 20
16.98940252794229
 10
24.56293545881024
 20
16.9680791361688
 10
24.51607225302363
 20
16.93932591749239
 10
24.46893271323507
 20
16.90347997711272
 10
24.42206950744847
 20
16.86096157590649
 10
24.37603206390424
 20
16.8122692032529
 10
24.3313601295355
 20
16.75797373270144
 10
24.2885774419288
 20
16.69871172900152
 10
24.24818558897973
 20
16.63517798496274
 10
24.21065812823349
 20
16.56811737564452
 10
24.17643503485566
 20
16.49831612537699
 10
24.14591754332562
 20
16.42659258999966
 10
24.11946344332913
 20
16.35378766238737
 10
24.09738288500147
 20
16.2807549137502
 10
24.07993474270055
 20
16.20835058629143
 10
24.06732357994188
 20
16.13742355455063
 10
24.05969725107831
 20
16.06880537312573
 10
24.05714516784294
 20
16.00330052745575
 10
24.05969725107831
 20
15.94167700196451
 10
24.06732357994189
 20
15.88465727614548
 10
24.07993474270056
 20
15.83290985415026
 10
24.09738288500147
 20
15.7870414271886
 10
24.11946344332914
 20
15.74758976062875
 10
24.14591754332562
 20
15.7150173891901
 10
24.17643503485566
 20
15.68970619414658
 10
24.2106581282335
 20
15.67195292611781
 10
24.24818558897973
 20
15.66196572593949
 10
24.26934896209724
 20
15.65986118776457
  0
ARC
  5
2DB
330
1F
100
AcDbEntity
  8
0
  6
SLD-Solid
 62
     7
370
    25
100
AcDbCircle
 10
24.61747424051504
 20
16.78465173863466
 30
0.0
 40
0.2604150833530554
100
AcDbArc
 50
12.09719471831434
 51
56.09595694375206
  0
LWPOLYLINE
  5
2DC
330
1F
100
AcDbEntity
  8
0
  6
SLD-Solid
 62
     7
370
    25
100
AcDbPolyline
 90
        3
 70
   128
 43
0.0
 10
24.1856320870624
 20
15.68397932395271
 10
24.21154744137476
 20
15.67802269220358
 10
24.2472929195655
 20
15.67576083627494
  0
LINE
  5
2DD
330
1F
100
AcDbEntity
  8
0
  6
SLD-Solid
 62
     7
370
    25
100
AcDbLine
 10
25.62970222623621
 20
17.56229229438226
 30
0.0
 11
25.92332072597234
 21
17.73179464632092
 31
0.0
  0
LINE
  5
2DE
330
1F
100
AcDbEntity
  8
0
  6
SLD-Solid
 62
     7
370
    25
100
AcDbLine
 10
25.66634037384118
 20
17.54623532811817
 30
0.0
 11
25.95554704734647
 21
17.71319078698591
 31
0.0
  0
LINE
  5
2DF
330
1F
100
AcDbEntity
  8
0
  6
SLD-Solid
 62
     7
370
    25
100
AcDbLine
 10
25.62970222623621
 20
17.56229229438226
 30
0.0
 11
24.94812776462961
 21
17.04400811883376
 31
0.0
  0
LWPOLYLINE
  5
2E0
330
1F
100
AcDbEntity
  8
0
  6
SLD-Solid
 62
     7
370
    25
100
AcDbPolyline
 90
       11
 70
   128
 43
0.0
 10
25.95554704734647
 20
17.71319078698591
 10
25.99702799898694
 20
17.73336736601628
 10
26.03748755193063
 20
17.74550740143411
 10
26.07592945770651
 20
17.74931196527695
 10
26.11140714901302
 20
17.74468737655636
 10
26.14304704734648
 20
17.73174750799479
 10
26.17007007340311
 20
17.71081098210117
 10
26.19181083059712
 20
17.68239332562735
 10
26.20773398933296
 20
17.64719427558851
 10
26.21744746859662
 20
17.60608054941556
 10
26.22071209029143
 20
17.56006450349551
  0
LINE
  5
2E1
330
1F
100
AcDbEntity
  8
0
  6
SLD-Solid
 62
     7
370
    25
100
AcDbLine
 10
26.22071209029143
 20
17.56006450349551
 30
0.0
 11
26.22071209029143
 21
17.53393519751517
 31
0.0
  0
ARC
  5
2E2
330
1F
100
AcDbEntity
  8
0
  6
SLD-Solid
 62
     7
370
    25
100
AcDbCircle
 10
25.64911473307457
 20
17.55776086914236
 30
0.0
 40
0.5720936998480096
100
AcDbArc
 50
302.3868559777557
 51
357.6131438766182
  0
LINE
  5
2E3
330
1F
100
AcDbEntity
  8
0
  6
SLD-Solid
 62
     7
370
    25
100
AcDbLine
 10
25.95554704734647
 20
17.07465587209126
 30
0.0
 11
25.66634037384118
 21
16.90770041322351
 31
0.0
  0
ARC
  5
2E4
330
1F
100
AcDbEntity
  8
0
  6
SLD-Solid
 62
     7
370
    25
100
AcDbCircle
 10
26.03297253092836
 20
17.58041534481653
 30
0.0
 40
0.1869203339769945
100
AcDbArc
 50
65.39271363382399
 51
125.9177447952684
  0
ARC
  5
2E5
330
1F
100
AcDbEntity
  8
0
  6
SLD-Solid
 62
     7
370
    25
100
AcDbCircle
 10
24.15462597128641
 20
16.08015505297377
 30
0.0
 40
0.3090450911957396
100
AcDbArc
 50
189.5504915076633
 51
223.4851081337753
  0
LINE
  5
2E6
330
1F
100
AcDbEntity
  8
0
  6
SLD-Solid
 62
     7
370
    25
100
AcDbLine
 10
24.6364942525592
 20
16.97524311385992
 30
0.0
 11
24.60805526965595
 21
16.98904733681903
 31
0.0
  0
LWPOLYLINE
  5
2E7
330
1F
100
AcDbEntity
  8
0
  6
SLD-Solid
 62
     7
370
    25
100
AcDbPolyline
 90
       18
 70
   128
 43
0.0
 10
23.74329459780811
 20
16.04118122783207
 10
23.74221897580016
 20
16.08068848026398
 10
23.74534135213288
 20
16.15079814101719
 10
23.75467377862881
 20
16.2237336127365
 10
23.77011253346954
 20
16.29868428097358
 10
23.79148602829834
 20
16.37481713412036
 10
23.81855671527587
 20
16.45128602160982
 10
23.85102372721813
 20
16.52724105814494
 10
23.88852622147405
 20
16.60183806943596
 10
23.93064739037821
 20
16.67424797446473
 10
23.97691909370629
 20
16.74366600000043
 10
24.02682706164716
 20
16.80932062495537
 10
24.07981661046539
 20
16.87048215517207
 10
24.13529880732941
 20
16.92647083334034
 10
24.19265701578865
 20
16.97666439390959
 10
24.25125374915235
 20
17.02050497903031
 10
24.31043775560067
 20
17.05750533865961
 10
24.32968135676211
 20
17.06798265611373
  0
LINE
  5
2E8
330
1F
100
AcDbEntity
  8
0
  6
SLD-Solid
 62
     7
370
    25
100
AcDbLine
 10
24.49920766866264
 20
16.45371060031382
 30
0.0
 11
24.49920766866264
 21
15.78006443050808
 31
0.0
  0
LINE
  5
2E9
330
1F
100
AcDbEntity
  8
0
  6
SLD-Solid
 62
     7
370
    25
100
AcDbLine
 10
24.49920766866264
 20
15.78006443050808
 30
0.0
 11
24.58584117944188
 21
15.83007689173576
 31
0.0
  0
LINE
  5
2EA
330
1F
100
AcDbEntity
  8
0
  6
SLD-Solid
 62
     7
370
    25
100
AcDbLine
 10
24.80326358457285
 20
16.45354280688931
 30
0.0
 11
24.80326358457285
 21
16.62923834435571
 31
0.0
  0
LINE
  5
2EB
330
1F
100
AcDbEntity
  8
0
  6
SLD-Solid
 62
     7
370
    25
100
AcDbLine
 10
24.80326358457285
 20
16.62923834435571
 30
0.0
 11
24.49920766866264
 21
16.45371060031382
 31
0.0
  0
LINE
  5
2EC
330
1F
100
AcDbEntity
  8
0
  6
SLD-Solid
 62
     7
370
    25
100
AcDbLine
 10
24.65480879254248
 20
16.53924393412867
 30
0.0
 11
24.65588791992499
 21
16.54416018409405
 31
0.0
  0
LWPOLYLINE
  5
2ED
330
1F
100
AcDbEntity
  8
0
  6
SLD-Solid
 62
     7
370
    25
100
AcDbPolyline
 90
       26
 70
   128
 43
0.0
 10
24.42292318743075
 20
17.10047111407431
 10
24.3654285234855
 20
17.07864269687181
 10
24.30721746475259
 20
17.04934794410084
 10
24.24893697661318
 20
17.01291244150585
 10
24.19123479609599
 20
16.96974113806623
 10
24.13475223284259
 20
16.92031384534001
 10
24.08011704150748
 20
16.8651799047749
 10
24.02793644481013
 20
16.80495208225506
 10
23.97879038478157
 20
16.74029975774024
 10
23.93322507721225
 20
16.67194148568869
 10
23.8917469409377
 20
16.60063700894817
 10
23.85481696943284
 20
16.52717881487376
 10
23.82284560726972
 20
16.45238332751892
 10
23.79618818838246
 20
16.37708183379097
 10
23.77514098683898
 20
16.30211124441874
 10
23.75993792401208
 20
16.22830479241643
 10
23.75074796874632
 20
16.15648277242204
 10
23.74767325941611
 20
16.08744342383462
 10
23.75074796874632
 20
16.02195405907631
 10
23.75993792401208
 20
15.960742535581
 10
23.77514098683898
 20
15.90448916629077
 10
23.79618818838246
 20
15.8538191585682
 10
23.82284560726972
 20
15.80929566555933
 10
23.85481696943284
 20
15.7714135272353
 10
23.8917469409377
 20
15.74059377067574
 10
23.92241095322095
 20
15.72234430972529
  0
ARC
  5
2EE
330
1F
100
AcDbEntity
  8
0
  6
SLD-Solid
 62
     7
370
    25
100
AcDbCircle
 10
24.97804126901392
 20
16.01750111888125
 30
0.0
 40
1.23243103150481
100
AcDbArc
 50
129.4030940133341
 51
172.8883136259577
  0
ARC
  5
2EF
330
1F
100
AcDbEntity
  8
0
  6
SLD-Solid
 62
     7
370
    25
100
AcDbCircle
 10
24.8653141579718
 20
16.08521633639681
 30
0.0
 40
1.044046090595782
100
AcDbArc
 50
130.2387671093105
 51
177.6094756027021
  0
ELLIPSE
  5
2F0
330
1F
100
AcDbEntity
  8
0
  6
SLD-Solid
 62
     7
370
    25
100
AcDbEllipse
 10
24.78958016283698
 20
18.98752376705479
 30
0.0
 11
1.204535332042574
 21
1.7222869514177
 31
0.0
210
0.0
220
0.0
230
0.9999999999999999
 40
0.6271330936913706
 41
4.062404862792047
 42
4.223574536509551
  0
LINE
  5
2F1
330
1F
100
AcDbEntity
  8
0
  6
SLD-Solid
 62
     7
370
    25
100
AcDbLine
 10
25.17756753284829
 20
17.51183436186478
 30
0.0
 11
25.96609339367455
 21
18.09713809387428
 31
0.0
  0
ELLIPSE
  5
2F2
330
1F
100
AcDbEntity
  8
0
  6
SLD-Solid
 62
     7
370
    25
100
AcDbEllipse
 10
25.97534477495619
 20
18.0619509553334
 30
0.0
 11
0.02872159375604256
 21
0.04106714417921609
 31
0.0
210
0.0
220
0.0
230
1.0
 40
0.6271330936913843
 41
0.8398091212059421
 42
1.081981882919676
  0
LINE
  5
2F3
330
1F
100
AcDbEntity
  8
0
  6
SLD-Solid
 62
     7
370
    25
100
AcDbLine
 10
26.45981396311217
 20
18.33573553497602
 30
0.0
 11
25.97534477495619
 21
18.10277799592769
 31
0.0
  0
LINE
  5
2F4
330
1F
100
AcDbEntity
  8
0
  6
SLD-Solid
 62
     7
370
    25
100
AcDbLine
 10
26.45981396311217
 20
18.29490849438173
 30
0.0
 11
26.45981396311217
 21
18.33573553497602
 31
0.0
  0
LINE
  5
2F5
330
1F
100
AcDbEntity
  8
0
  6
SLD-Solid
 62
     7
370
    25
100
AcDbLine
 10
25.97534477495619
 20
18.0619509553334
 30
0.0
 11
26.45981396311217
 21
18.29490849438173
 31
0.0
  0
LINE
  5
2F6
330
1F
100
AcDbEntity
  8
0
  6
SLD-Solid
 62
     7
370
    25
100
AcDbLine
 10
25.18681891412994
 20
17.4766472233239
 30
0.0
 11
25.97534477495619
 21
18.0619509553334
 31
0.0
  0
ELLIPSE
  5
2F7
330
1F
100
AcDbEntity
  8
0
  6
SLD-Solid
 62
     7
370
    25
100
AcDbEllipse
 10
24.78958016283698
 20
18.98752376705479
 30
0.0
 11
1.233256925798617
 21
1.763354095596916
 31
0.0
210
0.0
220
0.0
230
0.9999999999999999
 40
0.6271330936913729
 41
3.949682206722184
 42
4.223574536509548
  0
SPLINE
  5
2F8
330
1F
100
AcDbEntity
  8
0
  6
SLD-Solid
 62
     7
370
    25
100
AcDbSpline
210
0.0
220
0.0
230
1.0
 70
    12
 71
     3
 72
    14
 73
    10
 74
     0
 42
0.00000001
 43
0.00000001
 40
0.0
 40
0.0
 40
0.0
 40
0.0
 40
0.3115850422017686
 40
0.5633233396504171
 40
0.7318561573153729
 40
0.8451228514151958
 40
0.9216456205996668
 40
0.9737125749665465
 40
1.0
 40
1.0
 40
1.0
 40
1.0
 10
24.92048997996296
 20
17.343868771534
 30
0.0
 41
1.0
 10
24.89495902572016
 20
17.32942718702127
 30
0.0
 41
1.0
 10
24.84880089724619
 20
17.30331784120652
 30
0.0
 41
1.0
 10
24.78883759388223
 20
17.26932263361667
 30
0.0
 41
1.0
 10
24.74518357708216
 20
17.2438383893144
 30
0.0
 41
1.0
 10
24.71594664181816
 20
17.22591186183949
 30
0.0
 41
1.0
 10
24.69633940894042
 20
17.21297937412185
 30
0.0
 41
1.0
 10
24.68388523698949
 20
17.20410933944113
 30
0.0
 41
1.0
 10
24.67772321706583
 20
17.19914944612029
 30
0.0
 41
1.0
 10
24.67565589628506
 20
17.19748543161538
 30
0.0
 41
1.0
  0
LINE
  5
2F9
330
1F
100
AcDbEntity
  8
0
  6
SLD-Solid
 62
     7
370
    25
100
AcDbLine
 10
24.76790824551353
 20
16.47395300968488
 30
0.0
 11
24.76790824551353
 21
16.60882814156014
 31
0.0
  0
ARC
  5
2FA
330
1F
100
AcDbEntity
  8
0
  6
SLD-Solid
 62
     7
370
    25
100
AcDbCircle
 10
23.96040316578285
 20
18.5558125216181
 30
0.0
 40
1.527070195811805
100
AcDbArc
 50
287.6307043962635
 51
293.2472829452409
  0
LINE
  5
2FB
330
1F
100
AcDbEntity
  8
0
  6
SLD-Solid
 62
     7
370
    25
100
AcDbLine
 10
26.35182743537139
 20
18.24298305439943
 30
0.0
 11
26.35182743537139
 21
16.88826777952384
 31
0.0
  0
LINE
  5
2FC
330
1F
100
AcDbEntity
  8
0
  6
SLD-Solid
 62
     7
370
    25
100
AcDbLine
 10
26.38506145408716
 20
16.83968048276516
 30
0.0
 11
26.35182743537139
 21
16.88826777952384
 31
0.0
  0
LINE
  5
2FD
330
1F
100
AcDbEntity
  8
0
  6
SLD-Solid
 62
     7
370
    25
100
AcDbLine
 10
25.78478725245565
 20
16.49314956228133
 30
0.0
 11
26.38506145408716
 21
16.83968048276516
 31
0.0
  0
LINE
  5
2FE
330
1F
100
AcDbEntity
  8
0
  6
SLD-Solid
 62
     7
370
    25
100
AcDbLine
 10
25.08743198025726
 20
16.28949588389764
 30
0.0
 11
25.78478725245565
 21
16.49314956228133
 31
0.0
  0
LINE
  5
2FF
330
1F
100
AcDbEntity
  8
0
  6
SLD-Solid
 62
     7
370
    25
100
AcDbLine
 10
24.49920766866264
 20
15.82088483609921
 30
0.0
 11
24.55048584038256
 21
15.85048709453133
 31
0.0
  0
ARC
  5
300
330
1F
100
AcDbEntity
  8
0
  6
SLD-Solid
 62
     7
370
    25
100
AcDbCircle
 10
24.4110419236208
 20
16.77812964630592
 30
0.0
 40
0.4287287964346519
100
AcDbArc
 50
11.38549040942822
 51
28.64363672567426
  0
LINE
  5
301
330
1F
100
AcDbEntity
  8
0
  6
SLD-Solid
 62
     7
370
    25
100
AcDbLine
 10
26.63876647414464
 20
18.45555370554961
 30
0.0
 11
26.78811231936349
 21
18.28826793947141
 31
0.0
  0
LINE
  5
302
330
1F
100
AcDbEntity
  8
0
  6
SLD-Solid
 62
     7
370
    25
100
AcDbLine
 10
26.78811231936349
 20
18.28826793947141
 30
0.0
 11
26.66507573943703
 21
18.21724043374283
 31
0.0
  0
LINE
  5
303
330
1F
100
AcDbEntity
  8
0
  6
SLD-Solid
 62
     7
370
    25
100
AcDbLine
 10
26.66507573943703
 20
18.21724043374283
 30
0.0
 11
26.45981396311217
 21
18.33573553497602
 31
0.0
  0
LINE
  5
304
330
1F
100
AcDbEntity
  8
0
  6
SLD-Solid
 62
     7
370
    25
100
AcDbLine
 10
25.9753447749562
 20
16.3831430460963
 30
0.0
 11
25.21443396183741
 21
16.21617920052091
 31
0.0
  0
LINE
  5
305
330
1F
100
AcDbEntity
  8
0
  6
SLD-Solid
 62
     7
370
    25
100
AcDbLine
 10
26.45981396311217
 20
16.61610058514463
 30
0.0
 11
25.9753447749562
 21
16.3831430460963
 31
0.0
  0
LINE
  5
306
330
1F
100
AcDbEntity
  8
0
  6
SLD-Solid
 62
     7
370
    25
100
AcDbLine
 10
26.45981396311217
 20
16.57527354455035
 30
0.0
 11
26.45981396311217
 21
16.61610058514463
 31
0.0
  0
LINE
  5
307
330
1F
100
AcDbEntity
  8
0
  6
SLD-Solid
 62
     7
370
    25
100
AcDbLine
 10
26.45981396311217
 20
16.57527354455035
 30
0.0
 11
25.9753447749562
 21
16.34231600550201
 31
0.0
  0
ELLIPSE
  5
308
330
1F
100
AcDbEntity
  8
0
  6
SLD-Solid
 62
     7
370
    25
100
AcDbEllipse
 10
25.9753447749562
 20
16.3831430460963
 30
0.0
 11
0.02872159375604255
 21
0.04106714417921964
 31
0.0
210
0.0
220
0.0
230
1.0
 40
0.6271330936913886
 41
3.739229013081975
 42
3.981401774795703
  0
LINE
  5
309
330
1F
100
AcDbEntity
  8
0
  6
SLD-Solid
 62
     7
370
    25
100
AcDbLine
 10
25.96609339367456
 20
16.33905883393811
 30
0.0
 11
25.26721854332593
 21
16.18570731024001
 31
0.0
  0
LINE
  5
30A
330
1F
100
AcDbEntity
  8
0
  6
SLD-Solid
 62
     7
370
    25
100
AcDbLine
 10
26.78811231936349
 20
18.24744089887712
 30
0.0
 11
26.78811231936349
 21
18.28826793947141
 31
0.0
  0
LINE
  5
30B
330
1F
100
AcDbEntity
  8
0
  6
SLD-Solid
 62
     7
370
    25
100
AcDbLine
 10
26.66507573943703
 20
18.21724043374283
 30
0.0
 11
26.66507573943703
 21
18.17641339314854
 31
0.0
  0
LINE
  5
30C
330
1F
100
AcDbEntity
  8
0
  6
SLD-Solid
 62
     7
370
    25
100
AcDbLine
 10
26.78811231936349
 20
18.24744089887712
 30
0.0
 11
26.66507573943703
 21
18.17641339314854
 31
0.0
  0
LINE
  5
30D
330
1F
100
AcDbEntity
  8
0
  6
SLD-Solid
 62
     7
370
    25
100
AcDbLine
 10
26.45981396311217
 20
18.29490849438173
 30
0.0
 11
26.66507573943703
 21
18.17641339314854
 31
0.0
  0
LINE
  5
30E
330
1F
100
AcDbEntity
  8
0
  6
SLD-Solid
 62
     7
370
    25
100
AcDbLine
 10
25.78478725245565
 20
16.49314956228133
 30
0.0
 11
25.9753447749562
 21
16.3831430460963
 31
0.0
  0
LINE
  5
30F
330
1F
100
AcDbEntity
  8
0
  6
SLD-Solid
 62
     7
370
    25
100
AcDbLine
 10
26.37491041911592
 20
16.85452103974905
 30
0.0
 11
26.38804134142458
 21
16.84694071965191
 31
0.0
  0
LINE
  5
310
330
1F
100
AcDbEntity
  8
0
  6
SLD-Solid
 62
     7
370
    25
100
AcDbLine
 10
26.57427086954734
 20
16.80801098283226
 30
0.0
 11
26.57454867839991
 21
16.80785060719537
 31
0.0
  0
LINE
  5
311
330
1F
100
AcDbEntity
  8
0
  6
SLD-Solid
 62
     7
370
    25
100
AcDbLine
 10
26.57454867839991
 20
16.80785060719537
 30
0.0
 11
26.78811231936349
 21
16.56863298964002
 31
0.0
  0
LINE
  5
312
330
1F
100
AcDbEntity
  8
0
  6
SLD-Solid
 62
     7
370
    25
100
AcDbLine
 10
26.66507573943703
 20
16.49760548391144
 30
0.0
 11
26.78811231936349
 21
16.56863298964002
 31
0.0
  0
LINE
  5
313
330
1F
100
AcDbEntity
  8
0
  6
SLD-Solid
 62
     7
370
    25
100
AcDbLine
 10
26.66507573943703
 20
16.49760548391144
 30
0.0
 11
26.45981396311217
 21
16.61610058514463
 31
0.0
  0
LINE
  5
314
330
1F
100
AcDbEntity
  8
0
  6
SLD-Solid
 62
     7
370
    25
100
AcDbLine
 10
26.66507573943703
 20
16.49760548391144
 30
0.0
 11
26.66507573943703
 21
16.45677844331715
 31
0.0
  0
LINE
  5
315
330
1F
100
AcDbEntity
  8
0
  6
SLD-Solid
 62
     7
370
    25
100
AcDbLine
 10
26.66507573943703
 20
16.45677844331715
 30
0.0
 11
26.45981396311217
 21
16.57527354455035
 31
0.0
  0
LINE
  5
316
330
1F
100
AcDbEntity
  8
0
  6
SLD-Solid
 62
     7
370
    25
100
AcDbLine
 10
26.78811231936349
 20
16.52780594904573
 30
0.0
 11
26.78811231936349
 21
16.56863298964002
 31
0.0
  0
LINE
  5
317
330
1F
100
AcDbEntity
  8
0
  6
SLD-Solid
 62
     7
370
    25
100
AcDbLine
 10
26.66507573943703
 20
16.45677844331715
 30
0.0
 11
26.78811231936349
 21
16.52780594904573
 31
0.0
  0
ELLIPSE
  5
318
330
1F
100
AcDbEntity
  8
0
  6
SLD-Solid
 62
     7
370
    25
100
AcDbEllipse
 10
30.42534703785729
 20
16.68600798632319
 30
0.0
 11
-0.08749123887920973
 21
0.1515595036633073
 31
0.0
210
0.0
220
0.0
230
1.0
 40
0.6174456632343659
 41
3.96060319215193
 42
5.4643620207419
  0
LINE
  5
319
330
1F
100
AcDbEntity
  8
0
  6
SLD-Solid
 62
     7
370
    25
100
AcDbLine
 10
30.55345592918185
 20
16.62196209158287
 30
0.0
 11
30.55345592918185
 21
14.69743585399759
 31
0.0
  0
LINE
  5
31A
330
1F
100
AcDbEntity
  8
0
  6
SLD-Solid
 62
     7
370
    25
100
AcDbLine
 10
26.5045886769183
 20
19.09734902940359
 30
0.0
 11
30.43392870635071
 21
16.82898931380641
 31
0.0
  0
LINE
  5
31B
330
1F
100
AcDbEntity
  8
0
  6
SLD-Solid
 62
     7
370
    25
100
AcDbLine
 10
26.76689911592789
 20
16.68822357436577
 30
0.0
 11
26.76689911592789
 21
16.86704601216875
 31
0.0
  0
LWPOLYLINE
  5
31C
330
1F
100
AcDbEntity
  8
0
  6
SLD-Solid
 62
     7
370
    25
100
AcDbPolyline
 90
       15
 70
   128
 43
0.0
 10
26.76689911592789
 20
16.86704601216875
 10
26.76360158827135
 20
16.90274535524295
 10
26.7538743571077
 20
16.94046182858069
 10
26.73820518642487
 20
16.97830417071857
 10
26.71737979386966
 20
17.0143748086059
 10
26.69244245158404
 20
17.04686500984117
 10
26.6646436220395
 20
17.07414558006716
 10
26.63537725462719
 20
17.09484855757901
 10
26.60611088721489
 20
17.10793580863617
 10
26.57831205767035
 20
17.11275108382302
 10
26.55337471538473
 20
17.10905292513487
 10
26.53254932282952
 20
17.09702677369051
 10
26.51688015214668
 20
17.07727567094017
 10
26.50715292098304
 20
17.0507900196492
 10
26.5038553933265
 20
17.01889792096777
  0
LINE
  5
31D
330
1F
100
AcDbEntity
  8
0
  6
SLD-Solid
 62
     7
370
    25
100
AcDbLine
 10
26.5038553933265
 20
17.01889792096777
 30
0.0
 11
26.5038553933265
 21
16.89047848079011
 31
0.0
  0
LINE
  5
31E
330
1F
100
AcDbEntity
  8
0
  6
SLD-Solid
 62
     7
370
    25
100
AcDbLine
 10
26.76689911592789
 20
16.6351484215932
 30
0.0
 11
26.76689911592789
 21
16.68822357436577
 31
0.0
  0
LINE
  5
31F
330
1F
100
AcDbEntity
  8
0
  6
SLD-Solid
 62
     7
370
    25
100
AcDbLine
 10
30.02454005685431
 20
16.60850824939618
 30
0.0
 11
30.02454005685431
 21
16.64729393796075
 31
0.0
  0
LINE
  5
320
330
1F
100
AcDbEntity
  8
0
  6
SLD-Solid
 62
     7
370
    25
100
AcDbLine
 10
30.02454005685431
 20
16.64729393796075
 30
0.0
 11
29.76291054781528
 21
16.79832943864795
 31
0.0
  0
LINE
  5
321
330
1F
100
AcDbEntity
  8
0
  6
SLD-Solid
 62
     7
370
    25
100
AcDbLine
 10
29.76291054781528
 20
16.79832943864795
 30
0.0
 11
29.76291054781528
 21
16.75954375008338
 31
0.0
  0
LINE
  5
322
330
1F
100
AcDbEntity
  8
0
  6
SLD-Solid
 62
     7
370
    25
100
AcDbLine
 10
30.11151419094026
 20
15.52210886023606
 30
0.0
 11
30.11151419094026
 21
15.83402745037642
 31
0.0
  0
LWPOLYLINE
  5
323
330
1F
100
AcDbEntity
  8
0
  6
SLD-Solid
 62
     7
370
    25
100
AcDbPolyline
 90
        3
 70
   128
 43
0.0
 10
26.76302931633943
 20
18.31636399644756
 10
26.76360158827135
 20
18.31880856868373
 10
26.76689911592789
 20
18.35070066736516
  0
LINE
  5
324
330
1F
100
AcDbEntity
  8
0
  6
SLD-Solid
 62
     7
370
    25
100
AcDbLine
 10
26.76689911592789
 20
18.35070066736516
 30
0.0
 11
26.76689911592789
 21
18.52952310516814
 31
0.0
  0
LINE
  5
325
330
1F
100
AcDbEntity
  8
0
  6
SLD-Solid
 62
     7
370
    25
100
AcDbLine
 10
26.76689911592789
 20
18.58259825794071
 30
0.0
 11
26.76689911592789
 21
18.52952310516814
 31
0.0
  0
LINE
  5
326
330
1F
100
AcDbEntity
  8
0
  6
SLD-Solid
 62
     7
370
    25
100
AcDbLine
 10
29.79826588687461
 20
16.74280134593815
 30
0.0
 11
29.79508913585987
 21
16.74096744661298
 31
0.0
  0
LINE
  5
327
330
1F
100
AcDbEntity
  8
0
  6
SLD-Solid
 62
     7
370
    25
100
AcDbLine
 10
29.79826588687461
 20
16.74280134593815
 30
0.0
 11
29.80108908449877
 21
16.74117154864093
 31
0.0
  0
LINE
  5
328
330
1F
100
AcDbEntity
  8
0
  6
SLD-Solid
 62
     7
370
    25
100
AcDbLine
 10
29.79826588687461
 20
16.77791923585238
 30
0.0
 11
29.79826588687461
 21
16.74280134593815
 31
0.0
  0
ELLIPSE
  5
329
330
1F
100
AcDbEntity
  8
0
  6
SLD-Solid
 62
     7
370
    25
100
AcDbEllipse
 10
30.42534703785729
 20
14.78130133679841
 30
0.0
 11
-0.09356530977844456
 21
0.1620743191389788
 31
0.0
210
0.0
220
0.0
230
0.9999999999999999
 40
0.5399170623545063
 41
2.896065202313934
 42
3.893543569266738
  0
LINE
  5
32A
330
1F
100
AcDbEntity
  8
0
  6
SLD-Solid
 62
     7
370
    25
100
AcDbLine
 10
26.53921073238583
 20
16.91905191682685
 30
0.0
 11
26.76689911592789
 21
16.78761021082339
 31
0.0
  0
LWPOLYLINE
  5
32B
330
1F
100
AcDbEntity
  8
0
  6
SLD-Solid
 62
     7
370
    25
100
AcDbPolyline
 90
       15
 70
   128
 43
0.0
 10
26.61204273084804
 20
18.48095345751784
 10
26.57947883577919
 20
18.46596196542972
 10
26.541952775071
 20
18.45552945374668
 10
26.50134626210255
 20
18.45017905216689
 10
26.45969547699212
 20
18.45017905216689
 10
26.41908896402368
 20
18.45552945374668
 10
26.38156290331548
 20
18.46596196542972
 10
26.34899900824664
 20
18.48095345751784
 10
26.32303016849088
 20
18.49975219399872
 10
26.30495857010999
 20
18.52141552772854
 10
26.29569039850719
 20
18.54485716869587
 10
26.29569039850719
 20
18.56890165513883
 10
26.30495857010999
 20
18.59234329610616
 10
26.32303016849088
 20
18.61400662983598
 10
26.3243527473851
 20
18.61520409430989
  0
LINE
  5
32C
330
1F
100
AcDbEntity
  8
0
  6
SLD-Solid
 62
     7
370
    25
100
AcDbLine
 10
26.47020901168752
 20
18.70277841188513
 30
0.0
 11
26.4932487916087
 21
18.71607899372278
 31
0.0
  0
LINE
  5
32D
330
1F
100
AcDbEntity
  8
0
  6
SLD-Solid
 62
     7
370
    25
100
AcDbLine
 10
26.75629251421009
 20
18.56422708492375
 30
0.0
 11
26.61204273084804
 21
18.48095345751784
 31
0.0
  0
LWPOLYLINE
  5
32E
330
1F
100
AcDbEntity
  8
0
  6
SLD-Solid
 62
     7
370
    25
100
AcDbPolyline
 90
       12
 70
   128
 43
0.0
 10
26.61204273084804
 20
18.44012641692355
 10
26.57947883577919
 20
18.42513492483543
 10
26.541952775071
 20
18.41470241315239
 10
26.50134626210255
 20
18.4093520115726
 10
26.45969547699212
 20
18.4093520115726
 10
26.41908896402368
 20
18.41470241315239
 10
26.38156290331548
 20
18.42513492483543
 10
26.34899900824664
 20
18.44012641692355
 10
26.32303016849088
 20
18.45892515340444
 10
26.30495857010999
 20
18.48058848713425
 10
26.29569039850719
 20
18.50403012810158
 10
26.29452086954734
 20
18.51605237132306
  0
ARC
  5
32F
330
1F
100
AcDbEntity
  8
0
  6
SLD-Solid
 62
     7
370
    25
100
AcDbCircle
 10
26.74387087440737
 20
18.58364617072462
 30
0.0
 40
0.0230520721135859
100
AcDbArc
 50
302.6054783400315
 51
357.3945215143428
  0
LINE
  5
330
330
1F
100
AcDbEntity
  8
0
  6
SLD-Solid
 62
     7
370
    25
100
AcDbLine
 10
26.76689911592789
 20
18.52952310516814
 30
0.0
 11
26.61204273084804
 21
18.44012641692355
 31
0.0
  0
ARC
  5
331
330
1F
100
AcDbEntity
  8
0
  6
SLD-Solid
 62
     7
370
    25
100
AcDbCircle
 10
26.48082715180598
 20
18.73549807952364
 30
0.0
 40
0.0230520721135822
100
AcDbArc
 50
302.6054783400363
 51
357.3945215143513
  0
LINE
  5
332
330
1F
100
AcDbEntity
  8
0
  6
SLD-Solid
 62
     7
370
    25
100
AcDbLine
 10
27.055398682652
 20
17.47047856305654
 30
0.0
 11
27.40329521899579
 21
17.26964216754816
 31
0.0
  0
LWPOLYLINE
  5
333
330
1F
100
AcDbEntity
  8
0
  6
SLD-Solid
 62
     7
370
    25
100
AcDbPolyline
 90
       11
 70
   128
 43
0.0
 10
27.40329521899579
 20
17.26964216754816
 10
27.42514602021823
 20
17.26102440369531
 10
27.44485791277353
 20
17.26124307699603
 10
27.46050135927755
 20
17.27027678218409
 10
27.47054507019218
 20
17.28724123725413
 10
27.47400589711444
 20
17.3104758431456
 10
27.47054507019218
 20
17.33770623474881
 10
27.46050135927755
 20
17.36626691160836
 10
27.44485791277353
 20
17.3933621556793
 10
27.42514602021823
 20
17.41633969568828
 10
27.40329521899579
 20
17.4329503299253
  0
LINE
  5
334
330
1F
100
AcDbEntity
  8
0
  6
SLD-Solid
 62
     7
370
    25
100
AcDbLine
 10
27.40329521899579
 20
17.4329503299253
 30
0.0
 11
27.055398682652
 21
17.63378672543369
 31
0.0
  0
LWPOLYLINE
  5
335
330
1F
100
AcDbEntity
  8
0
  6
SLD-Solid
 62
     7
370
    25
100
AcDbPolyline
 90
       11
 70
   128
 43
0.0
 10
27.055398682652
 20
17.63378672543369
 10
27.03354788142956
 20
17.64240448928654
 10
27.01383598887426
 20
17.64218581598581
 10
26.99819254237023
 20
17.63315211079776
 10
26.98814883145561
 20
17.61618765572772
 10
26.98468800453335
 20
17.59295304983625
 10
26.98814883145561
 20
17.56572265823304
 10
26.99819254237023
 20
17.53716198137349
 10
27.01383598887426
 20
17.51006673730256
 10
27.03354788142956
 20
17.48708919729357
 10
27.055398682652
 20
17.47047856305654
  0
LWPOLYLINE
  5
336
330
1F
100
AcDbEntity
  8
0
  6
SLD-Solid
 62
     7
370
    25
100
AcDbPolyline
 90
        3
 70
   128
 43
0.0
 10
27.43865055805511
 20
17.29005237034372
 10
27.46050135927755
 20
17.28143460649087
 10
27.46774034776006
 20
17.28048895673771
  0
ELLIPSE
  5
337
330
1F
100
AcDbEntity
  8
0
  6
SLD-Solid
 62
     7
370
    25
100
AcDbEllipse
 10
26.51317034541171
 20
18.9444595183795
 30
0.0
 11
-0.09356530977844456
 21
0.162074319138977
 31
0.0
210
0.0
220
0.0
230
1.0
 40
0.5399170623545342
 41
5.531377394266512
 42
6.528712758455494
  0
LINE
  5
338
330
1F
100
AcDbEntity
  8
0
  6
SLD-Solid
 62
     7
370
    25
100
AcDbLine
 10
27.09075402171133
 20
17.49088876585211
 30
0.0
 11
27.43865055805511
 21
17.29005237034372
 31
0.0
  0
ARC
  5
339
330
1F
100
AcDbEntity
  8
0
  6
SLD-Solid
 62
     7
370
    25
100
AcDbCircle
 10
27.15800095511669
 20
17.60916501755534
 30
0.0
 40
0.1360566858680317
100
AcDbArc
 50
165.4481244287658
 51
240.3792494263036
  0
ARC
  5
33A
330
1F
100
AcDbEntity
  8
0
  6
SLD-Solid
 62
     7
370
    25
100
AcDbCircle
 10
26.4808088029447
 20
16.83422117832606
 30
0.0
 40
0.3077718146668589
100
AcDbArc
 50
252.4576556423236
 51
280.2940369750903
  0
LWPOLYLINE
  5
33B
330
1F
100
AcDbEntity
  8
0
  6
SLD-Solid
 62
     7
370
    25
100
AcDbPolyline
 90
        3
 70
   128
 43
0.0
 10
26.47335396895232
 20
16.56745706555726
 10
26.45969547699212
 20
16.56805248077024
 10
26.44704009147427
 20
16.56913121440091
  0
LINE
  5
33C
330
1F
100
AcDbEntity
  8
0
  6
SLD-Solid
 62
     7
370
    25
100
AcDbLine
 10
26.76689911592789
 20
16.68822357436577
 30
0.0
 11
26.71044303195043
 21
16.65563217081311
 31
0.0
  0
ARC
  5
33D
330
1F
100
AcDbEntity
  8
0
  6
SLD-Solid
 62
     7
370
    25
100
AcDbCircle
 10
26.64450697827789
 20
17.04588078105412
 30
0.0
 40
0.1055011811442135
100
AcDbArc
 50
141.6601603121016
 51
183.5718040941682
  0
ARC
  5
33E
330
1F
100
AcDbEntity
  8
0
  6
SLD-Solid
 62
     7
370
    25
100
AcDbCircle
 10
26.76043300041649
 20
16.6361973295467
 30
0.0
 40
0.0065506379614322
100
AcDbArc
 50
350.7859630095744
 51
129.2032852356692
  0
LINE
  5
33F
330
1F
100
AcDbEntity
  8
0
  6
SLD-Solid
 62
     7
370
    25
100
AcDbLine
 10
26.75629251421009
 20
16.64127347293281
 30
0.0
 11
26.73449556812686
 21
16.62869036379797
 31
0.0
  0
LINE
  5
340
330
1F
100
AcDbEntity
  8
0
  6
SLD-Solid
 62
     7
370
    25
100
AcDbLine
 10
26.53921073238583
 20
17.03930812376334
 30
0.0
 11
26.53921073238583
 21
16.8802644955408
 31
0.0
  0
MTEXT
  5
341
330
1F
100
AcDbEntity
  8
NOTES
100
AcDbMText
 10
27.58138444091723
 20
13.34824265391965
 30
0.0
 40
0.25
 41
0.0
 71
     1
 72
     1
  1
3D view Code 146
  7
SLDTEXTSTYLE1
 73
     1
 44
1.0
  0
LINE
  5
342
330
1F
100
AcDbEntity
  8
0
  6
SLD-Solid
 62
     7
370
    25
100
AcDbLine
 10
31.04335059432453
 20
10.33098547032048
 30
0.0
 11
31.04335059432453
 21
7.980994544933757
 31
0.0
  0
ELLIPSE
  5
343
330
1F
100
AcDbEntity
  8
0
  6
SLD-Solid
 62
     7
370
    25
100
AcDbEllipse
 10
30.91394107177327
 20
10.32231667605535
 30
0.0
 11
0.09452155588511954
 21
0.09452155588512665
 31
0.0
210
0.0
220
0.0
230
1.0
 40
0.9351131265310932
 41
5.53130589288461
 42
7.035064721474527
  0
LINE
  5
344
330
1F
100
AcDbEntity
  8
0
  6
SLD-Solid
 62
     7
370
    25
100
AcDbLine
 10
30.9226098660384
 20
10.45172619860661
 30
0.0
 11
25.37261894065167
 21
10.45172619860661
 31
0.0
  0
ELLIPSE
  5
345
330
1F
100
AcDbEntity
  8
0
  6
SLD-Solid
 62
     7
370
    25
100
AcDbEllipse
 10
25.3812877349168
 20
10.32231667605535
 30
0.0
 11
-0.09452155588513377
 21
0.09452155588512666
 31
0.0
210
0.0
220
0.0
230
1.0
 40
0.9351131265309852
 41
5.53130589288458
 42
7.035064721474559
  0
LINE
  5
346
330
1F
100
AcDbEntity
  8
0
  6
SLD-Solid
 62
     7
370
    25
100
AcDbLine
 10
25.25187821236554
 20
10.33098547032048
 30
0.0
 11
25.25187821236554
 21
7.980994544933757
 31
0.0
  0
ELLIPSE
  5
347
330
1F
100
AcDbEntity
  8
0
  6
SLD-Solid
 62
     7
370
    25
100
AcDbEllipse
 10
25.3812877349168
 20
7.989663339198883
 30
0.0
 11
-0.09452155588512666
 21
-0.09452155588512756
 31
0.0
210
0.0
220
0.0
230
1.0
 40
0.9351131265310112
 41
5.5313058928846
 42
7.035064721474575
  0
LINE
  5
348
330
1F
100
AcDbEntity
  8
0
  6
SLD-Solid
 62
     7
370
    25
100
AcDbLine
 10
30.9226098660384
 20
7.860253816647623
 30
0.0
 11
25.37261894065167
 21
7.860253816647623
 31
0.0
  0
ELLIPSE
  5
349
330
1F
100
AcDbEntity
  8
0
  6
SLD-Solid
 62
     7
370
    25
100
AcDbEllipse
 10
30.91394107177327
 20
7.989663339198883
 30
0.0
 11
0.09452155588512666
 21
-0.09452155588512756
 31
0.0
210
0.0
220
0.0
230
1.0
 40
0.9351131265310112
 41
5.531305892884579
 42
7.035064721474583
  0
ELLIPSE
  5
34A
330
1F
100
AcDbEntity
  8
0
  6
SLD-Solid
 62
     7
370
    25
100
AcDbEllipse
 10
30.91394107177327
 20
10.32231667605535
 30
0.0
 11
0.1323301782391723
 21
0.1323301782391777
 31
0.0
210
0.0
220
0.0
230
1.0
 40
0.9351131265310664
 41
5.531305892884604
 42
7.035064721474538
  0
LINE
  5
34B
330
1F
100
AcDbEntity
  8
0
  6
SLD-Solid
 62
     7
370
    25
100
AcDbLine
 10
31.09511440334504
 20
10.33445298802653
 30
0.0
 11
31.09511440334504
 21
7.977527027227705
 31
0.0
  0
ELLIPSE
  5
34C
330
1F
100
AcDbEntity
  8
0
  6
SLD-Solid
 62
     7
370
    25
100
AcDbEllipse
 10
30.91394107177327
 20
7.989663339198883
 30
0.0
 11
0.1323301782391759
 21
-0.1323301782391786
 31
0.0
210
0.0
220
0.0
230
1.0
 40
0.9351131265310271
 41
5.531305892884615
 42
7.035064721474576
  0
LINE
  5
34D
330
1F
100
AcDbEntity
  8
0
  6
SLD-Solid
 62
     7
370
    25
100
AcDbLine
 10
30.92607738374445
 20
7.808490007627118
 30
0.0
 11
25.36915142294562
 21
7.808490007627118
 31
0.0
  0
ELLIPSE
  5
34E
330
1F
100
AcDbEntity
  8
0
  6
SLD-Solid
 62
     7
370
    25
100
AcDbEllipse
 10
25.3812877349168
 20
7.989663339198883
 30
0.0
 11
-0.1323301782391759
 21
-0.1323301782391786
 31
0.0
210
0.0
220
0.0
230
1.0
 40
0.9351131265310271
 41
5.53130589288461
 42
7.035064721474572
  0
LINE
  5
34F
330
1F
100
AcDbEntity
  8
0
  6
SLD-Solid
 62
     7
370
    25
100
AcDbLine
 10
25.20011440334503
 20
10.33445298802653
 30
0.0
 11
25.20011440334503
 21
7.977527027227705
 31
0.0
  0
ELLIPSE
  5
350
330
1F
100
AcDbEntity
  8
0
  6
SLD-Solid
 62
     7
370
    25
100
AcDbEllipse
 10
25.3812877349168
 20
10.32231667605535
 30
0.0
 11
-0.1323301782391795
 21
0.1323301782391777
 31
0.0
210
0.0
220
0.0
230
1.0
 40
0.9351131265310145
 41
5.531305892884628
 42
7.035064721474583
  0
LINE
  5
351
330
1F
100
AcDbEntity
  8
0
  6
SLD-Solid
 62
     7
370
    25
100
AcDbLine
 10
30.92607738374445
 20
10.50349000762712
 30
0.0
 11
25.36915142294562
 21
10.50349000762712
 31
0.0
  0
ARC
  5
352
330
1F
100
AcDbEntity
  8
0
  6
SLD-Solid
 62
     7
370
    25
100
AcDbCircle
 10
29.50211440334504
 20
9.153490007627118
 30
0.0
 40
0.0999999999999996
100
AcDbArc
 50
90.0
 51
270.0000000000008
  0
LINE
  5
353
330
1F
100
AcDbEntity
  8
0
  6
SLD-Solid
 62
     7
370
    25
100
AcDbLine
 10
29.99411440334503
 20
9.053490007627119
 30
0.0
 11
29.50211440334504
 21
9.053490007627119
 31
0.0
  0
ARC
  5
354
330
1F
100
AcDbEntity
  8
0
  6
SLD-Solid
 62
     7
370
    25
100
AcDbCircle
 10
29.99411440334503
 20
9.153490007627118
 30
0.0
 40
0.0999999999999996
100
AcDbArc
 50
270.0000000000008
 51
90.0
  0
LINE
  5
355
330
1F
100
AcDbEntity
  8
0
  6
SLD-Solid
 62
     7
370
    25
100
AcDbLine
 10
29.50211440334504
 20
9.253490007627118
 30
0.0
 11
29.99411440334503
 21
9.253490007627118
 31
0.0
  0
ARC
  5
356
330
1F
100
AcDbEntity
  8
0
  6
SLD-Solid
 62
     7
370
    25
100
AcDbCircle
 10
26.30111440334504
 20
9.153490007627118
 30
0.0
 40
0.0999999999999996
100
AcDbArc
 50
90.0
 51
270.0000000000008
  0
LINE
  5
357
330
1F
100
AcDbEntity
  8
0
  6
SLD-Solid
 62
     7
370
    25
100
AcDbLine
 10
26.30111440334504
 20
9.053490007627119
 30
0.0
 11
26.79311440334503
 21
9.053490007627119
 31
0.0
  0
ARC
  5
358
330
1F
100
AcDbEntity
  8
0
  6
SLD-Solid
 62
     7
370
    25
100
AcDbCircle
 10
26.79311440334503
 20
9.153490007627118
 30
0.0
 40
0.0999999999999996
100
AcDbArc
 50
270.0000000000008
 51
90.0
  0
LINE
  5
359
330
1F
100
AcDbEntity
  8
0
  6
SLD-Solid
 62
     7
370
    25
100
AcDbLine
 10
26.79311440334503
 20
9.253490007627118
 30
0.0
 11
26.30111440334504
 21
9.253490007627118
 31
0.0
  0
DIMENSION
  5
35A
330
1F
100
AcDbEntity
  8
DIMS
100
AcDbDimension
  2
_D_3
 10
29.99411440334504
 20
10.89719079502871
 30
0.0
 11
28.30413975127582
 21
10.89719079502871
 31
0.0
 70
    32
  1
<>
 71
     2
 42
-1.0
  3
SLDDIMSTYLE0
100
AcDbAlignedDimension
 13
26.30111440334504
 23
9.153490007627118
 33
0.0
 14
29.99411440334504
 24
9.253490007627118
 34
0.0
100
AcDbRotatedDimension
  0
DIMENSION
  5
369
330
1F
100
AcDbEntity
  8
DIMS
100
AcDbDimension
  2
_D_4
 10
29.90751186296659
 20
9.103490007627116
 30
0.0
 11
32.142553711267
 21
9.961996932183274
 31
0.0
 70
    35
  1
<>
 71
     1
 42
-1.0
  3
SLDDIMSTYLE1
100
AcDbDiametricDimension
 15
30.08071694372348
 25
9.203490007627115
 35
0.0
 40
0.0
  0
DIMENSION
  5
376
330
1F
100
AcDbEntity
  8
DIMS
100
AcDbDimension
  2
_D_5
 10
24.57019314350252
 20
9.153490007627118
 30
0.0
 11
24.57019314350252
 21
9.863951239726672
 31
0.0
 70
    32
  1
<>
 71
     2
 42
-1.0
  3
SLDDIMSTYLE0
100
AcDbAlignedDimension
 13
25.36915142294562
 23
10.50349000762712
 33
0.0
 14
26.30111440334504
 24
9.153490007627118
 34
0.0
 50
90.0000000000002
100
AcDbRotatedDimension
  0
MTEXT
  5
385
330
1F
100
AcDbEntity
  8
NOTES
100
AcDbMText
 10
25.1966972397354
 20
7.675069580019047
 30
0.0
 40
0.25
 41
0.0
 71
     1
 72
     1
  1
Back view
  7
SLDTEXTSTYLE1
 73
     1
 44
1.0
  0
MTEXT
  5
386
330
1F
100
AcDbEntity
  8
NOTES
100
AcDbMText
 10
22.02526181273175
 20
11.42510539383058
 30
0.0
 40
0.25
 41
0.0
 71
     1
 72
     1
  1
mounting hole (2)
  7
SLDTEXTSTYLE1
 73
     1
 44
1.0
  0
LEADER
  5
388
330
1F
100
AcDbEntity
  8
NOTES
100
AcDbLeader
  3
SLDDIMSTYLE2
 76
     3
 10
26.24348775124431
 20
9.23521619050422
 30
0.0
 10
25.40576852680267
 20
11.3031933260846
 30
0.0
 10
24.90576852680267
 20
11.3031933260846
 30
0.0
1001
ACAD
1000
DSTYLE
1002
{
1070
   176
1070
     0
1070
    77
1070
     0
1070
    40
1040
1.0
1070
   147
1040
0.0
1002
}
  0
ARC
  5
389
330
1F
100
AcDbEntity
  8
0
  6
SLD-Solid
 62
     7
370
    25
100
AcDbCircle
 10
11.73317591333664
 20
15.06155500781051
 30
0.0
 40
0.0499999999999989
100
AcDbArc
 50
270.0000000000008
 51
0.0
  0
LINE
  5
38A
330
1F
100
AcDbEntity
  8
0
  6
SLD-Solid
 62
     7
370
    25
100
AcDbLine
 10
11.69317591333664
 20
15.01155500781051
 30
0.0
 11
11.73317591333664
 21
15.01155500781051
 31
0.0
  0
ARC
  5
38B
330
1F
100
AcDbEntity
  8
0
  6
SLD-Solid
 62
     7
370
    25
100
AcDbCircle
 10
11.69317591333664
 20
15.06155500781051
 30
0.0
 40
0.0499999999999989
100
AcDbArc
 50
191.0826319222986
 51
270.0000000000008
  0
ARC
  5
38C
330
1F
100
AcDbEntity
  8
0
  6
SLD-Solid
 62
     7
370
    25
100
AcDbCircle
 10
11.65637525165723
 20
15.05434658912419
 30
0.0
 40
0.0124999999999975
100
AcDbArc
 50
180.0
 51
191.0826319222985
  0
LINE
  5
38D
330
1F
100
AcDbEntity
  8
0
  6
SLD-Solid
 62
     7
370
    25
100
AcDbLine
 10
11.64387525165723
 20
16.02116627030924
 30
0.0
 11
11.64387525165723
 21
15.05434658912419
 31
0.0
  0
LINE
  5
38E
330
1F
100
AcDbEntity
  8
0
  6
SLD-Solid
 62
     7
370
    25
100
AcDbLine
 10
11.61770406611228
 20
16.37951276841573
 30
0.0
 11
11.62997961303541
 21
16.32867241548037
 31
0.0
  0
SPLINE
  5
38F
330
1F
100
AcDbEntity
  8
0
  6
SLD-Solid
 62
     7
370
    25
100
AcDbSpline
210
0.0
220
0.0
230
1.0
 70
    12
 71
     3
 72
     9
 73
     5
 74
     0
 42
0.00000001
 43
0.00000001
 40
0.0
 40
0.0
 40
0.0
 40
0.0
 40
0.2647852699923329
 40
1.0
 40
1.0
 40
1.0
 40
1.0
 10
11.62997211322134
 20
16.32866600431554
 30
0.0
 41
1.0
 10
11.63020676555102
 20
16.3276933033229
 30
0.0
 41
1.0
 10
11.63109296412877
 20
16.32401975685762
 30
0.0
 41
1.0
 10
11.63192810380242
 20
16.32032564942999
 30
0.0
 41
1.0
 10
11.63254211079211
 20
16.31760968723496
 30
0.0
 41
1.0
  0
LINE
  5
390
330
1F
100
AcDbEntity
  8
0
  6
SLD-Solid
 62
     7
370
    25
100
AcDbLine
 10
11.64224585668844
 20
16.27235939317723
 30
0.0
 11
11.64257047176009
 21
16.27078402719187
 31
0.0
  0
LINE
  5
391
330
1F
100
AcDbEntity
  8
0
  6
SLD-Solid
 62
     7
370
    25
100
AcDbLine
 10
11.64248066219773
 20
16.2707613167009
 30
0.0
 11
11.64299602150273
 21
16.26830202149444
 31
0.0
  0
LWPOLYLINE
  5
392
330
1F
100
AcDbEntity
  8
0
  6
SLD-Solid
 62
     7
370
    25
100
AcDbPolyline
 90
        3
 70
   128
 43
0.0
 10
11.64067591333664
 20
15.18055500781051
 10
11.64311454236184
 20
15.18031482381555
 10
11.64387525165723
 20
15.18013864278971
  0
ARC
  5
393
330
1F
100
AcDbEntity
  8
0
  6
SLD-Solid
 62
     7
370
    25
100
AcDbCircle
 10
11.22817591333664
 20
15.25555500781051
 30
0.0
 40
0.0750000000000011
100
AcDbArc
 50
180.0
 51
270.0000000000008
  0
ARC
  5
394
330
1F
100
AcDbEntity
  8
0
  6
SLD-Solid
 62
     7
370
    25
100
AcDbCircle
 10
11.22817591333664
 20
16.43755500781051
 30
0.0
 40
0.0750000000000028
100
AcDbArc
 50
90.0
 51
180.0
  0
LINE
  5
395
330
1F
100
AcDbEntity
  8
0
  6
SLD-Solid
 62
     7
370
    25
100
AcDbLine
 10
11.60559635643835
 20
16.51255500781051
 30
0.0
 11
11.55551074368238
 21
16.51255500781051
 31
0.0
  0
LINE
  5
396
330
1F
100
AcDbEntity
  8
0
  6
SLD-Solid
 62
     7
370
    25
100
AcDbLine
 10
11.50908167932781
 20
16.51255500781051
 30
0.0
 11
11.22817591333664
 21
16.51255500781051
 31
0.0
  0
LINE
  5
397
330
1F
100
AcDbEntity
  8
0
  6
SLD-Solid
 62
     7
370
    25
100
AcDbLine
 10
11.22817591333664
 20
15.18055500781051
 30
0.0
 11
11.32672910885452
 21
15.18055500781051
 31
0.0
  0
LINE
  5
398
330
1F
100
AcDbEntity
  8
0
  6
SLD-Solid
 62
     7
370
    25
100
AcDbLine
 10
11.37315817320909
 20
15.18055500781051
 30
0.0
 11
11.64067591333664
 21
15.18055500781051
 31
0.0
  0
ARC
  5
399
330
1F
100
AcDbEntity
  8
0
  6
SLD-Solid
 62
     7
370
    25
100
AcDbCircle
 10
11.09844805091163
 20
16.35655500781051
 30
0.0
 40
0.6999999999999987
100
AcDbArc
 50
358.7130684014052
 51
1.286931598595273
  0
LINE
  5
39A
330
1F
100
AcDbEntity
  8
0
  6
SLD-Solid
 62
     7
370
    25
100
AcDbLine
 10
11.7982714815082
 20
16.37227652135217
 30
0.0
 11
11.78428717190328
 21
16.99477050046616
 31
0.0
  0
LINE
  5
39B
330
1F
100
AcDbEntity
  8
0
  6
SLD-Solid
 62
     7
370
    25
100
AcDbLine
 10
11.78428717190328
 20
15.71833951515487
 30
0.0
 11
11.7982714815082
 21
16.34083349426885
 31
0.0
  0
ARC
  5
39C
330
1F
100
AcDbEntity
  8
0
  6
SLD-Solid
 62
     7
370
    25
100
AcDbCircle
 10
8.39717591333664
 20
15.78330500781051
 30
0.0
 40
0.0012500000000006
100
AcDbArc
 50
333.6142395574073
 51
90.0
  0
ARC
  5
39D
330
1F
100
AcDbEntity
  8
0
  6
SLD-Solid
 62
     7
370
    25
100
AcDbCircle
 10
8.20917591333664
 20
15.78330500781051
 30
0.0
 40
0.0012500000000006
100
AcDbArc
 50
90.0
 51
206.3857604425943
  0
ARC
  5
39E
330
1F
100
AcDbEntity
  8
0
  6
SLD-Solid
 62
     7
370
    25
100
AcDbCircle
 10
8.36029439725964
 20
15.80160172806267
 30
0.0
 40
0.0424205744449093
100
AcDbArc
 50
270.0000000000008
 51
333.6142395573694
  0
ARC
  5
39F
330
1F
100
AcDbEntity
  8
0
  6
SLD-Solid
 62
     7
370
    25
100
AcDbCircle
 10
8.246057429413641
 20
15.80160172806267
 30
0.0
 40
0.0424205744449093
100
AcDbArc
 50
206.3857604426322
 51
270.0000000000008
  0
LINE
  5
3A0
330
1F
100
AcDbEntity
  8
0
  6
SLD-Solid
 62
     7
370
    25
100
AcDbLine
 10
8.246057429413641
 20
15.75918115361776
 30
0.0
 11
8.36029439725964
 21
15.75918115361776
 31
0.0
  0
LINE
  5
3A1
330
1F
100
AcDbEntity
  8
0
  6
SLD-Solid
 62
     7
370
    25
100
AcDbLine
 10
8.38517591333664
 20
15.88655500781051
 30
0.0
 11
8.38517591333664
 21
15.88955500781051
 31
0.0
  0
LINE
  5
3A2
330
1F
100
AcDbEntity
  8
0
  6
SLD-Solid
 62
     7
370
    25
100
AcDbLine
 10
8.22117591333664
 20
15.88955500781051
 30
0.0
 11
8.22117591333664
 21
15.88655500781051
 31
0.0
  0
ARC
  5
3A3
330
1F
100
AcDbEntity
  8
0
  6
SLD-Solid
 62
     7
370
    25
100
AcDbCircle
 10
8.80967591333664
 20
15.78330500781051
 30
0.0
 40
0.0012500000000011
100
AcDbArc
 50
333.6142395573705
 51
90.0
  0
ARC
  5
3A4
330
1F
100
AcDbEntity
  8
0
  6
SLD-Solid
 62
     7
370
    25
100
AcDbCircle
 10
8.621675913336642
 20
15.78330500781051
 30
0.0
 40
0.0012500000000027
100
AcDbArc
 50
90.0
 51
206.3857604425949
  0
ARC
  5
3A5
330
1F
100
AcDbEntity
  8
0
  6
SLD-Solid
 62
     7
370
    25
100
AcDbCircle
 10
8.77279439725964
 20
15.80160172806267
 30
0.0
 40
0.0424205744449101
100
AcDbArc
 50
270.0000000000008
 51
333.6142395573684
  0
ARC
  5
3A6
330
1F
100
AcDbEntity
  8
0
  6
SLD-Solid
 62
     7
370
    25
100
AcDbCircle
 10
8.658557429413642
 20
15.80160172806267
 30
0.0
 40
0.0424205744449117
100
AcDbArc
 50
206.3857604426322
 51
270.0000000000008
  0
LINE
  5
3A7
330
1F
100
AcDbEntity
  8
0
  6
SLD-Solid
 62
     7
370
    25
100
AcDbLine
 10
8.658557429413642
 20
15.75918115361776
 30
0.0
 11
8.77279439725964
 21
15.75918115361776
 31
0.0
  0
LINE
  5
3A8
330
1F
100
AcDbEntity
  8
0
  6
SLD-Solid
 62
     7
370
    25
100
AcDbLine
 10
8.79767591333664
 20
15.88655500781051
 30
0.0
 11
8.79767591333664
 21
15.88955500781051
 31
0.0
  0
LINE
  5
3A9
330
1F
100
AcDbEntity
  8
0
  6
SLD-Solid
 62
     7
370
    25
100
AcDbLine
 10
8.63367591333664
 20
15.88955500781051
 30
0.0
 11
8.63367591333664
 21
15.88655500781051
 31
0.0
  0
LINE
  5
3AA
330
1F
100
AcDbEntity
  8
0
  6
SLD-Solid
 62
     7
370
    25
100
AcDbLine
 10
11.3056075407682
 20
15.02627185941318
 30
0.0
 11
11.3511824415209
 21
15.0200325949227
 31
0.0
  0
LINE
  5
3AB
330
1F
100
AcDbEntity
  8
0
  6
SLD-Solid
 62
     7
370
    25
100
AcDbLine
 10
7.079169385152401
 20
15.0262325949227
 30
0.0
 11
7.124744285905095
 21
15.03247185941318
 31
0.0
  0
LINE
  5
3AC
330
1F
100
AcDbEntity
  8
0
  6
SLD-Solid
 62
     7
370
    25
100
AcDbLine
 10
6.697175913336657
 20
15.01775500781051
 30
0.0
 11
6.737175913336658
 21
15.01775500781051
 31
0.0
  0
ARC
  5
3AD
330
1F
100
AcDbEntity
  8
0
  6
SLD-Solid
 62
     7
370
    25
100
AcDbCircle
 10
6.697175913336657
 20
15.06775500781051
 30
0.0
 40
0.0499999999999998
100
AcDbArc
 50
180.0
 51
270.0000000000008
  0
ARC
  5
3AE
330
1F
100
AcDbEntity
  8
0
  6
SLD-Solid
 62
     7
370
    25
100
AcDbCircle
 10
6.737175913336658
 20
15.06775500781051
 30
0.0
 40
0.0499999999999997
100
AcDbArc
 50
270.0000000000008
 51
348.9173680777033
  0
ARC
  5
3AF
330
1F
100
AcDbEntity
  8
0
  6
SLD-Solid
 62
     7
370
    25
100
AcDbCircle
 10
6.773976575016071
 20
15.06054658912419
 30
0.0
 40
0.0125000000000002
100
AcDbArc
 50
348.9173680777054
 51
0.0
  0
LINE
  5
3B0
330
1F
100
AcDbEntity
  8
0
  6
SLD-Solid
 62
     7
370
    25
100
AcDbLine
 10
6.786476575016071
 20
15.06054658912419
 30
0.0
 11
6.786476575016066
 21
16.02736627030924
 31
0.0
  0
LINE
  5
3B1
330
1F
100
AcDbEntity
  8
0
  6
SLD-Solid
 62
     7
370
    25
100
AcDbLine
 10
6.787784541446283
 20
16.23717558796925
 30
0.0
 11
6.788108423922469
 21
16.23874408625306
 31
0.0
  0
SPLINE
  5
3B2
330
1F
100
AcDbEntity
  8
0
  6
SLD-Solid
 62
     7
370
    25
100
AcDbSpline
210
0.0
220
0.0
230
1.0
 70
    12
 71
     3
 72
     9
 73
     5
 74
     0
 42
0.00000001
 43
0.00000001
 40
0.0
 40
0.0
 40
0.0
 40
0.0
 40
0.2984160846199065
 40
1.0
 40
1.0
 40
1.0
 40
1.0
 10
6.787326700879151
 20
16.23471012601673
 30
0.0
 41
1.0
 10
6.787367394499936
 20
16.23495617968051
 30
0.0
 41
1.0
 10
6.787503759873264
 20
16.23578071185709
 30
0.0
 41
1.0
 10
6.787682829738856
 20
16.23659737867943
 30
0.0
 41
1.0
 10
6.787808462276285
 20
16.2371703389862
 30
0.0
 41
1.0
  0
SPLINE
  5
3B3
330
1F
100
AcDbEntity
  8
0
  6
SLD-Solid
 62
     7
370
    25
100
AcDbSpline
210
0.0
220
0.0
230
1.0
 70
    12
 71
     3
 72
     9
 73
     5
 74
     0
 42
0.00000001
 43
0.00000001
 40
0.0
 40
0.0
 40
0.0
 40
0.0
 40
0.3489733107248443
 40
1.0
 40
1.0
 40
1.0
 40
1.0
 10
6.801829553055861
 20
16.30115322323317
 30
0.0
 41
1.0
 10
6.80319300667531
 20
16.30679902013954
 30
0.0
 41
1.0
 10
6.807100049356072
 20
16.32297732585191
 30
0.0
 41
1.0
 10
6.811022061401761
 20
16.33922099698236
 30
0.0
 41
1.0
 10
6.813575395919163
 20
16.34979606042009
 30
0.0
 41
1.0
  0
LWPOLYLINE
  5
3B4
330
1F
100
AcDbEntity
  8
0
  6
SLD-Solid
 62
     7
370
    25
100
AcDbPolyline
 90
        3
 70
   128
 43
0.0
 10
6.78647657501607
 20
15.19233864278971
 10
6.787237284311455
 20
15.19251482381555
 10
6.789675913336657
 20
15.19275500781051
  0
ARC
  5
3B5
330
1F
100
AcDbEntity
  8
0
  6
SLD-Solid
 62
     7
370
    25
100
AcDbCircle
 10
7.202175913336651
 20
16.43775500781051
 30
0.0
 40
0.0750000000000028
100
AcDbArc
 50
0.0
 51
90.0
  0
ARC
  5
3B6
330
1F
100
AcDbEntity
  8
0
  6
SLD-Solid
 62
     7
370
    25
100
AcDbCircle
 10
7.202175913336656
 20
15.26775500781051
 30
0.0
 40
0.0750000000000002
100
AcDbArc
 50
270.0000000000008
 51
0.0000000000027141
  0
LINE
  5
3B7
330
1F
100
AcDbEntity
  8
0
  6
SLD-Solid
 62
     7
370
    25
100
AcDbLine
 10
6.789675913336657
 20
15.19275500781051
 30
0.0
 11
7.056372245489105
 21
15.19275500781051
 31
0.0
  0
LINE
  5
3B8
330
1F
100
AcDbEntity
  8
0
  6
SLD-Solid
 62
     7
370
    25
100
AcDbLine
 10
7.102801309843677
 20
15.19275500781051
 30
0.0
 11
7.202175913336656
 21
15.19275500781051
 31
0.0
  0
LINE
  5
3B9
330
1F
100
AcDbEntity
  8
0
  6
SLD-Solid
 62
     7
370
    25
100
AcDbLine
 10
7.202175913336651
 20
16.51275500781052
 30
0.0
 11
6.922091555320587
 21
16.51275500781052
 31
0.0
  0
LINE
  5
3BA
330
1F
100
AcDbEntity
  8
0
  6
SLD-Solid
 62
     7
370
    25
100
AcDbLine
 10
6.875662490966016
 20
16.51275500781052
 30
0.0
 11
6.82785416107079
 21
16.51275500781052
 31
0.0
  0
ARC
  5
3BB
330
1F
100
AcDbEntity
  8
0
  6
SLD-Solid
 62
     7
370
    25
100
AcDbCircle
 10
7.331903775856512
 20
16.36275500781051
 30
0.0
 40
0.7000000000000003
100
AcDbArc
 50
178.7130684098954
 51
181.2869315901054
  0
LINE
  5
3BC
330
1F
100
AcDbEntity
  8
0
  6
SLD-Solid
 62
     7
370
    25
100
AcDbLine
 10
6.646064654784646
 20
17.00097050100418
 30
0.0
 11
6.632080345257607
 21
16.37847652124846
 31
0.0
  0
LINE
  5
3BD
330
1F
100
AcDbEntity
  8
0
  6
SLD-Solid
 62
     7
370
    25
100
AcDbLine
 10
6.632080345257607
 20
16.34703349437256
 30
0.0
 11
6.64606465478465
 21
15.72453951461685
 31
0.0
  0
LINE
  5
3BE
330
1F
100
AcDbEntity
  8
0
  6
SLD-Solid
 62
     7
370
    25
100
AcDbLine
 10
11.41010541988246
 20
18.65755500781051
 30
0.0
 11
11.46733239923457
 21
18.02963909072056
 31
0.0
  0
LINE
  5
3BF
330
1F
100
AcDbEntity
  8
0
  6
SLD-Solid
 62
     7
370
    25
100
AcDbLine
 10
11.11617591333664
 20
18.65755500781051
 30
0.0
 11
11.41010541988246
 21
18.65755500781051
 31
0.0
  0
LINE
  5
3C0
330
1F
100
AcDbEntity
  8
0
  6
SLD-Solid
 62
     7
370
    25
100
AcDbLine
 10
11.11617591333664
 20
18.65755500781051
 30
0.0
 11
11.11617591333664
 21
19.06875500781051
 31
0.0
  0
LINE
  5
3C1
330
1F
100
AcDbEntity
  8
0
  6
SLD-Solid
 62
     7
370
    25
100
AcDbLine
 10
11.78317591333664
 20
19.06875500781051
 30
0.0
 11
11.78317591333664
 21
18.02963909072056
 31
0.0
  0
LINE
  5
3C2
330
1F
100
AcDbEntity
  8
0
  6
SLD-Solid
 62
     7
370
    25
100
AcDbLine
 10
11.46842520063149
 20
18.01764846323829
 30
0.0
 11
11.46733239923457
 21
18.02963909072056
 31
0.0
  0
LINE
  5
3C3
330
1F
100
AcDbEntity
  8
0
  6
SLD-Solid
 62
     7
370
    25
100
AcDbLine
 10
11.78317591333664
 20
18.02963909072056
 30
0.0
 11
11.78317591333664
 21
17.00763820572214
 31
0.0
  0
LINE
  5
3C4
330
1F
100
AcDbEntity
  8
0
  6
SLD-Solid
 62
     7
370
    25
100
AcDbLine
 10
11.46842520063149
 20
18.01764846323829
 30
0.0
 11
11.56156828229549
 21
16.99564757823988
 31
0.0
  0
LINE
  5
3C5
330
1F
100
AcDbEntity
  8
0
  6
SLD-Solid
 62
     7
370
    25
100
AcDbLine
 10
11.78317591333664
 20
16.01957745724218
 30
0.0
 11
11.78317591333664
 21
15.06155500781051
 31
0.0
  0
LINE
  5
3C6
330
1F
100
AcDbEntity
  8
0
  6
SLD-Solid
 62
     7
370
    25
100
AcDbLine
 10
11.56156828229549
 20
16.99564757823988
 30
0.0
 11
11.58842450518673
 21
16.70097101104659
 31
0.0
  0
LINE
  5
3C7
330
1F
100
AcDbEntity
  8
0
  6
SLD-Solid
 62
     7
370
    25
100
AcDbLine
 10
11.78317591333664
 20
17.00763820572214
 30
0.0
 11
11.78317591333664
 21
16.01957745724218
 31
0.0
  0
LINE
  5
3C8
330
1F
100
AcDbEntity
  8
0
  6
SLD-Solid
 62
     7
370
    25
100
AcDbLine
 10
11.64410836443076
 20
16.25869167886871
 30
0.0
 11
11.64410836443076
 21
16.02169587466492
 31
0.0
  0
LINE
  5
3C9
330
1F
100
AcDbEntity
  8
0
  6
SLD-Solid
 62
     7
370
    25
100
AcDbLine
 10
11.63322048599106
 20
16.31794826767592
 30
0.0
 11
11.6426362019087
 21
16.27233407405724
 31
0.0
  0
SPLINE
  5
3CA
330
1F
100
AcDbEntity
  8
0
  6
SLD-Solid
 62
     7
370
    25
100
AcDbSpline
210
0.0
220
0.0
230
1.0
 70
    28
 71
     3
 72
    12
 73
     8
 74
     0
 42
0.00000001
 43
0.00000001
 40
0.0
 40
0.0
 40
0.0
 40
0.0
 40
0.0060496451759061
 40
0.1385707799432106
 40
0.2725171926647854
 40
0.6362028253025273
 40
1.0
 40
1.0
 40
1.0
 40
1.0
 10
11.6172572072741
 20
16.38460777156858
 30
0.0
 41
1.0
 10
11.61720170553552
 20
16.38521675749573
 30
0.0
 41
1.0
 10
11.61593040466096
 20
16.39916594830715
 30
0.0
 41
1.0
 10
11.6133239126156
 20
16.42776535826349
 30
0.0
 41
1.0
 10
11.60728055238664
 20
16.49407537712929
 30
0.0
 41
1.0
 10
11.598958173392
 20
16.58539164609813
 30
0.0
 41
1.0
 10
11.5919360868114
 20
16.66244061819245
 30
0.0
 41
1.0
 10
11.58842450518673
 20
16.70097101104659
 30
0.0
 41
1.0
  0
SPLINE
  5
3CB
330
1F
100
AcDbEntity
  8
0
  6
SLD-Solid
 62
     7
370
    25
100
AcDbSpline
210
0.0
220
0.0
230
1.0
 70
    12
 71
     3
 72
     9
 73
     5
 74
     0
 42
0.00000001
 43
0.00000001
 40
0.0
 40
0.0
 40
0.0
 40
0.0
 40
0.3703645503001247
 40
1.0
 40
1.0
 40
1.0
 40
1.0
 10
11.6433478447856
 20
16.26838135824721
 30
0.0
 41
1.0
 10
11.64351606465182
 20
16.26719019052761
 30
0.0
 41
1.0
 10
11.64397026542801
 20
16.26397398714468
 30
0.0
 41
1.0
 10
11.64405500769523
 20
16.26073258227898
 30
0.0
 41
1.0
 10
11.64410836443076
 20
16.25869167886871
 30
0.0
 41
1.0
  0
LWPOLYLINE
  5
3CC
330
1F
100
AcDbEntity
  8
0
  6
SLD-Solid
 62
     7
370
    25
100
AcDbPolyline
 90
        3
 70
   128
 43
0.0
 10
11.6426362019087
 20
16.27233407405724
 10
11.64230649886769
 20
16.27233156425716
 10
11.64224513908205
 20
16.27235942896145
  0
LWPOLYLINE
  5
3CD
330
1F
100
AcDbEntity
  8
0
  6
SLD-Solid
 62
     7
370
    25
100
AcDbPolyline
 90
        3
 70
   128
 43
0.0
 10
11.63322048599106
 20
16.31794826767592
 10
11.63261718452998
 20
16.31769589704996
 10
11.63252871751389
 20
16.31760661614006
  0
LWPOLYLINE
  5
3CE
330
1F
100
AcDbEntity
  8
0
  6
SLD-Solid
 62
     7
370
    25
100
AcDbPolyline
 90
        3
 70
   128
 43
0.0
 10
11.6433478447856
 20
16.26838135824721
 10
11.64307378395924
 20
16.26832989360821
 10
11.64303271563319
 20
16.26832003779051
  0
LINE
  5
3CF
330
1F
100
AcDbEntity
  8
0
  6
SLD-Solid
 62
     7
370
    25
100
AcDbLine
 10
11.15317591333664
 20
15.25555500781051
 30
0.0
 11
11.15317591333664
 21
16.43755500781051
 31
0.0
  0
ARC
  5
3D0
330
1F
100
AcDbEntity
  8
0
  6
SLD-Solid
 62
     7
370
    25
100
AcDbCircle
 10
11.10317591333664
 20
15.93655500781051
 30
0.0
 40
0.0499999999999989
100
AcDbArc
 50
270.0000000000008
 51
0.0
  0
ARC
  5
3D1
330
1F
100
AcDbEntity
  8
0
  6
SLD-Solid
 62
     7
370
    25
100
AcDbCircle
 10
11.10317591333664
 20
15.75655500781051
 30
0.0
 40
0.0500000000000007
100
AcDbArc
 50
0.0
 51
90.0
  0
LINE
  5
3D2
330
1F
100
AcDbEntity
  8
0
  6
SLD-Solid
 62
     7
370
    25
100
AcDbLine
 10
7.277175913336653
 20
15.88655500781051
 30
0.0
 11
11.10317591333664
 21
15.88655500781051
 31
0.0
  0
LINE
  5
3D3
330
1F
100
AcDbEntity
  8
0
  6
SLD-Solid
 62
     7
370
    25
100
AcDbLine
 10
7.277175913336653
 20
15.80655500781051
 30
0.0
 11
11.10317591333664
 21
15.80655500781051
 31
0.0
  0
ELLIPSE
  5
3D4
330
1F
100
AcDbEntity
  8
0
  6
SLD-Solid
 62
     7
370
    25
100
AcDbEllipse
 10
12.08317591333664
 20
17.09377499760467
 30
0.0
 11
0.0
 21
1.951741503855242
 31
0.0
210
0.0
220
0.0
230
1.0
 40
0.1537088796889423
 41
1.570796326794897
 42
1.621552695495676
  0
ELLIPSE
  5
3D5
330
1F
100
AcDbEntity
  8
0
  6
SLD-Solid
 62
     7
370
    25
100
AcDbEllipse
 10
12.08317591333664
 20
15.61933501801636
 30
0.0
 11
0.0
 21
1.951741503855242
 31
0.0
210
0.0
220
0.0
230
1.0
 40
0.1537088796889423
 41
1.520039958094116
 42
1.570796326794897
  0
LINE
  5
3D6
330
1F
100
AcDbEntity
  8
0
  6
SLD-Solid
 62
     7
370
    25
100
AcDbLine
 10
11.78428717190328
 20
16.99477050046616
 30
0.0
 11
11.78356226172766
 21
16.9947542153796
 31
0.0
  0
LINE
  5
3D7
330
1F
100
AcDbEntity
  8
0
  6
SLD-Solid
 62
     7
370
    25
100
AcDbLine
 10
11.78356226172766
 20
15.71835580024143
 30
0.0
 11
11.78428717190328
 21
15.71833951515487
 31
0.0
  0
LINE
  5
3D8
330
1F
100
AcDbEntity
  8
0
  6
SLD-Solid
 62
     7
370
    25
100
AcDbLine
 10
8.38517591333664
 20
15.88955500781051
 30
0.0
 11
8.22117591333664
 21
15.88955500781051
 31
0.0
  0
LINE
  5
3D9
330
1F
100
AcDbEntity
  8
0
  6
SLD-Solid
 62
     7
370
    25
100
AcDbLine
 10
8.79767591333664
 20
15.88955500781051
 30
0.0
 11
8.63367591333664
 21
15.88955500781051
 31
0.0
  0
LINE
  5
3DA
330
1F
100
AcDbEntity
  8
0
  6
SLD-Solid
 62
     7
370
    25
100
AcDbLine
 10
8.155165897188523
 20
15.78455500781051
 30
0.0
 11
7.408903294786549
 21
15.64843670913239
 31
0.0
  0
ARC
  5
3DB
330
1F
100
AcDbEntity
  8
0
  6
SLD-Solid
 62
     7
370
    25
100
AcDbCircle
 10
7.401366837107661
 20
15.68975500781051
 30
0.0
 40
0.0419999999999992
100
AcDbArc
 50
270.0000000000008
 51
280.3371121443718
  0
LINE
  5
3DC
330
1F
100
AcDbEntity
  8
0
  6
SLD-Solid
 62
     7
370
    25
100
AcDbLine
 10
7.401366837107661
 20
15.64775500781051
 30
0.0
 11
7.277175913336654
 21
15.64775500781051
 31
0.0
  0
LINE
  5
3DD
330
1F
100
AcDbEntity
  8
0
  6
SLD-Solid
 62
     7
370
    25
100
AcDbLine
 10
7.401366837107661
 20
15.66975500781051
 30
0.0
 11
7.277175913336653
 21
15.66975500781051
 31
0.0
  0
ARC
  5
3DE
330
1F
100
AcDbEntity
  8
0
  6
SLD-Solid
 62
     7
370
    25
100
AcDbCircle
 10
7.401366837107661
 20
15.68975500781051
 30
0.0
 40
0.0199999999999998
100
AcDbArc
 50
270.0000000000008
 51
280.3371121443734
  0
ARC
  5
3DF
330
1F
100
AcDbEntity
  8
0
  6
SLD-Solid
 62
     7
370
    25
100
AcDbCircle
 10
8.154984989565623
 20
15.78655500781051
 30
0.0
 40
0.0199999999999998
100
AcDbArc
 50
90.0
 51
100.3371121443726
  0
LINE
  5
3E0
330
1F
100
AcDbEntity
  8
0
  6
SLD-Solid
 62
     7
370
    25
100
AcDbLine
 10
8.803175913336641
 20
15.78455500781051
 30
0.0
 11
8.155165897188523
 21
15.78455500781051
 31
0.0
  0
LINE
  5
3E1
330
1F
100
AcDbEntity
  8
0
  6
SLD-Solid
 62
     7
370
    25
100
AcDbLine
 10
8.151396200194723
 20
15.80623038813343
 30
0.0
 11
7.404955626478561
 21
15.6700796274876
 31
0.0
  0
LINE
  5
3E2
330
1F
100
AcDbEntity
  8
0
  6
SLD-Solid
 62
     7
370
    25
100
AcDbLine
 10
8.903175913336641
 20
15.80655500781051
 30
0.0
 11
8.903175913336641
 21
15.78455500781051
 31
0.0
  0
LINE
  5
3E3
330
1F
100
AcDbEntity
  8
0
  6
SLD-Solid
 62
     7
370
    25
100
AcDbLine
 10
8.903175913336641
 20
15.78455500781051
 30
0.0
 11
8.803175913336641
 21
15.78455500781051
 31
0.0
  0
CIRCLE
  5
3E4
330
1F
100
AcDbEntity
  8
0
  6
SLD-Solid
 62
     7
370
    25
100
AcDbCircle
 10
6.867175913336641
 20
18.84975500781051
 30
0.0
 40
0.156224156306282
  0
LINE
  5
3E5
330
1F
100
AcDbEntity
  8
0
  6
SLD-Solid
 62
     7
370
    25
100
AcDbLine
 10
11.57603734980745
 20
16.66249223813103
 30
0.0
 11
11.53046244905476
 21
16.66873150262151
 31
0.0
  0
LINE
  5
3E6
330
1F
100
AcDbEntity
  8
0
  6
SLD-Solid
 62
     7
370
    25
100
AcDbLine
 10
11.3056075407682
 20
15.02627185941318
 30
0.0
 11
11.53046244905476
 21
16.66873150262151
 31
0.0
  0
LINE
  5
3E7
330
1F
100
AcDbEntity
  8
0
  6
SLD-Solid
 62
     7
370
    25
100
AcDbLine
 10
11.3511824415209
 20
15.0200325949227
 30
0.0
 11
11.57603734980745
 21
16.66249223813103
 31
0.0
  0
LINE
  5
3E8
330
1F
100
AcDbEntity
  8
0
  6
SLD-Solid
 62
     7
370
    25
100
AcDbLine
 10
11.56702339321282
 20
16.93579205182103
 30
0.0
 11
11.53046244905476
 21
16.66873150262151
 31
0.0
  0
LINE
  5
3E9
330
1F
100
AcDbEntity
  8
0
  6
SLD-Solid
 62
     7
370
    25
100
AcDbLine
 10
11.58557918851319
 20
16.73219089454734
 30
0.0
 11
11.57603734980745
 21
16.66249223813103
 31
0.0
  0
LINE
  5
3EA
330
1F
100
AcDbEntity
  8
0
  6
SLD-Solid
 62
     7
370
    25
100
AcDbLine
 10
6.854314476865841
 20
16.66869223813103
 30
0.0
 11
6.899889377618534
 21
16.67493150262152
 31
0.0
  0
LINE
  5
3EB
330
1F
100
AcDbEntity
  8
0
  6
SLD-Solid
 62
     7
370
    25
100
AcDbLine
 10
6.854314476865841
 20
16.66869223813103
 30
0.0
 11
7.079169385152402
 21
15.0262325949227
 31
0.0
  0
LINE
  5
3EC
330
1F
100
AcDbEntity
  8
0
  6
SLD-Solid
 62
     7
370
    25
100
AcDbLine
 10
6.899889377618534
 20
16.67493150262152
 30
0.0
 11
7.124744285905096
 21
15.03247185941318
 31
0.0
  0
LINE
  5
3ED
330
1F
100
AcDbEntity
  8
0
  6
SLD-Solid
 62
     7
370
    25
100
AcDbLine
 10
6.846961192313411
 20
16.72240453293672
 30
0.0
 11
6.854314476865841
 21
16.66869223813103
 31
0.0
  0
LINE
  5
3EE
330
1F
100
AcDbEntity
  8
0
  6
SLD-Solid
 62
     7
370
    25
100
AcDbLine
 10
6.865516987613782
 20
16.92600569021041
 30
0.0
 11
6.899889377618534
 21
16.67493150262152
 31
0.0
  0
LINE
  5
3EF
330
1F
100
AcDbEntity
  8
0
  6
SLD-Solid
 62
     7
370
    25
100
AcDbLine
 10
7.053175913336641
 20
18.92122335665943
 30
0.0
 11
7.314175913336642
 21
18.83775500781051
 31
0.0
  0
LINE
  5
3F0
330
1F
100
AcDbEntity
  8
0
  6
SLD-Solid
 62
     7
370
    25
100
AcDbLine
 10
7.314175913336642
 20
18.83775500781051
 30
0.0
 11
7.314175913336642
 21
18.66375500781051
 31
0.0
  0
LINE
  5
3F1
330
1F
100
AcDbEntity
  8
0
  6
SLD-Solid
 62
     7
370
    25
100
AcDbLine
 10
7.314175913336642
 20
18.66375500781051
 30
0.0
 11
7.023891925421235
 21
18.66375500781051
 31
0.0
  0
LINE
  5
3F2
330
1F
100
AcDbEntity
  8
0
  6
SLD-Solid
 62
     7
370
    25
100
AcDbLine
 10
7.023891925421235
 20
18.66375500781051
 30
0.0
 11
6.96666494606913
 21
18.03583909072055
 31
0.0
  0
LINE
  5
3F3
330
1F
100
AcDbEntity
  8
0
  6
SLD-Solid
 62
     7
370
    25
100
AcDbLine
 10
6.647175913336642
 20
18.89575500781051
 30
0.0
 11
6.681175913336642
 21
18.89575500781051
 31
0.0
  0
LINE
  5
3F4
330
1F
100
AcDbEntity
  8
0
  6
SLD-Solid
 62
     7
370
    25
100
AcDbLine
 10
6.647175913336644
 20
18.03583909072055
 30
0.0
 11
6.647175913336642
 21
18.88475500781051
 31
0.0
  0
LINE
  5
3F5
330
1F
100
AcDbEntity
  8
0
  6
SLD-Solid
 62
     7
370
    25
100
AcDbLine
 10
6.647175913336642
 20
18.88475500781051
 30
0.0
 11
6.647175913336642
 21
18.89575500781051
 31
0.0
  0
LINE
  5
3F6
330
1F
100
AcDbEntity
  8
0
  6
SLD-Solid
 62
     7
370
    25
100
AcDbLine
 10
6.96666494606913
 20
18.03583909072055
 30
0.0
 11
6.965572144672207
 21
18.02384846323829
 31
0.0
  0
LINE
  5
3F7
330
1F
100
AcDbEntity
  8
0
  6
SLD-Solid
 62
     7
370
    25
100
AcDbLine
 10
6.872429063008207
 20
17.00184757823988
 30
0.0
 11
6.965572144672207
 21
18.02384846323829
 31
0.0
  0
LINE
  5
3F8
330
1F
100
AcDbEntity
  8
0
  6
SLD-Solid
 62
     7
370
    25
100
AcDbLine
 10
6.647175913336648
 20
17.01383820572214
 30
0.0
 11
6.647175913336644
 21
18.03583909072055
 31
0.0
  0
LINE
  5
3F9
330
1F
100
AcDbEntity
  8
0
  6
SLD-Solid
 62
     7
370
    25
100
AcDbLine
 10
6.647175913336657
 20
15.06775500781051
 30
0.0
 11
6.647175913336652
 21
16.02577745724218
 31
0.0
  0
LINE
  5
3FA
330
1F
100
AcDbEntity
  8
0
  6
SLD-Solid
 62
     7
370
    25
100
AcDbLine
 10
6.84206227772955
 20
16.66865180164642
 30
0.0
 11
6.872429063008207
 21
17.00184757823988
 31
0.0
  0
LINE
  5
3FB
330
1F
100
AcDbEntity
  8
0
  6
SLD-Solid
 62
     7
370
    25
100
AcDbLine
 10
6.647175913336652
 20
16.02577745724218
 30
0.0
 11
6.647175913336648
 21
17.01383820572214
 31
0.0
  0
LINE
  5
3FC
330
1F
100
AcDbEntity
  8
0
  6
SLD-Solid
 62
     7
370
    25
100
AcDbLine
 10
6.786243462242537
 20
16.02789587466492
 30
0.0
 11
6.786243462242536
 21
16.22507074922574
 31
0.0
  0
SPLINE
  5
3FD
330
1F
100
AcDbEntity
  8
0
  6
SLD-Solid
 62
     7
370
    25
100
AcDbSpline
210
0.0
220
0.0
230
1.0
 70
    12
 71
     3
 72
    10
 73
     6
 74
     0
 42
0.00000001
 43
0.00000001
 40
0.0
 40
0.0
 40
0.0
 40
0.0
 40
0.1912426356738472
 40
0.6287364561699975
 40
1.0
 40
1.0
 40
1.0
 40
1.0
 10
6.786243462242536
 20
16.22507074922574
 30
0.0
 41
1.0
 10
6.786249529825727
 20
16.22569192155154
 30
0.0
 41
1.0
 10
6.78626947783962
 20
16.22773411096928
 30
0.0
 41
1.0
 10
6.786481269838441
 20
16.23100081547378
 30
0.0
 41
1.0
 10
6.786843064876715
 20
16.23362254155097
 30
0.0
 41
1.0
 10
6.787009148443895
 20
16.2348260561739
 30
0.0
 41
1.0
  0
SPLINE
  5
3FE
330
1F
100
AcDbEntity
  8
0
  6
SLD-Solid
 62
     7
370
    25
100
AcDbSpline
210
0.0
220
0.0
230
1.0
 70
    12
 71
     3
 72
     9
 73
     5
 74
     0
 42
0.00000001
 43
0.00000001
 40
0.0
 40
0.0
 40
0.0
 40
0.0
 40
0.7778397036498637
 40
1.0
 40
1.0
 40
1.0
 40
1.0
 10
6.787718138887651
 20
16.23877603467096
 30
0.0
 41
1.0
 10
6.790949225794645
 20
16.25517628590883
 30
0.0
 41
1.0
 10
6.795103149658177
 20
16.27626064449959
 30
0.0
 41
1.0
 10
6.800039516372033
 20
16.29708378113093
 30
0.0
 41
1.0
 10
6.801136181064076
 20
16.30170985533589
 30
0.0
 41
1.0
  0
SPLINE
  5
3FF
330
1F
100
AcDbEntity
  8
0
  6
SLD-Solid
 62
     7
370
    25
100
AcDbSpline
210
0.0
220
0.0
230
1.0
 70
    28
 71
     3
 72
    14
 73
    10
 74
     0
 42
0.00000001
 43
0.00000001
 40
0.0
 40
0.0
 40
0.0
 40
0.0
 40
0.3115850422017686
 40
0.5633233396504171
 40
0.7318561573153729
 40
0.8451228514151958
 40
0.9216456205996668
 40
0.9737125749665465
 40
1.0
 40
1.0
 40
1.0
 40
1.0
 10
6.84206227772955
 20
16.66865180164642
 30
0.0
 41
1.0
 10
6.839046483480892
 20
16.63556137414458
 30
0.0
 41
1.0
 10
6.83359414444739
 20
16.57573626187642
 30
0.0
 41
1.0
 10
6.826511096015447
 20
16.49801839344637
 30
0.0
 41
1.0
 10
6.821354550296694
 20
16.4414388365544
 30
0.0
 41
1.0
 10
6.817900994257267
 20
16.40354512222126
 30
0.0
 41
1.0
 10
6.815584928058472
 20
16.37813237376375
 30
0.0
 41
1.0
 10
6.81411380325114
 20
16.36199063968994
 30
0.0
 41
1.0
 10
6.813385926648128
 20
16.35400410414529
 30
0.0
 41
1.0
 10
6.813141728406988
 20
16.3513246693005
 30
0.0
 41
1.0
  0
LWPOLYLINE
  5
400
330
1F
100
AcDbEntity
  8
0
  6
SLD-Solid
 62
     7
370
    25
100
AcDbPolyline
 90
        3
 70
   128
 43
0.0
 10
6.801136181064077
 20
16.30170985533589
 10
6.801767965448041
 20
16.30129321149118
 10
6.801828845306625
 20
16.30115278948624
  0
LWPOLYLINE
  5
401
330
1F
100
AcDbEntity
  8
0
  6
SLD-Solid
 62
     7
370
    25
100
AcDbPolyline
 90
        3
 70
   128
 43
0.0
 10
6.787718138887651
 20
16.23877603467096
 10
6.788047697706195
 20
16.23873785594148
 10
6.788109173658953
 20
16.23874424430814
  0
LINE
  5
402
330
1F
100
AcDbEntity
  8
0
  6
SLD-Solid
 62
     7
370
    25
100
AcDbLine
 10
7.277175913336653
 20
15.85275500781051
 30
0.0
 11
7.277175913336656
 21
15.26775500781052
 31
0.0
  0
LINE
  5
403
330
1F
100
AcDbEntity
  8
0
  6
SLD-Solid
 62
     7
370
    25
100
AcDbLine
 10
7.277175913336651
 20
16.43775500781051
 30
0.0
 11
7.277175913336653
 21
15.85275500781051
 31
0.0
  0
ELLIPSE
  5
404
330
1F
100
AcDbEntity
  8
0
  6
SLD-Solid
 62
     7
370
    25
100
AcDbEllipse
 10
6.34717591333665
 20
17.09997499749116
 30
0.0
 11
-6.217248937900877E-15
 21
1.951741503855242
 31
0.0
210
0.0
220
0.0
230
1.0
 40
0.1537088796889418
 41
4.661632612018328
 42
4.712388980384691
  0
ELLIPSE
  5
405
330
1F
100
AcDbEntity
  8
0
  6
SLD-Solid
 62
     7
370
    25
100
AcDbEllipse
 10
6.347175913336654
 20
15.62553501812986
 30
0.0
 11
-7.993605777301127E-15
 21
1.951741503855247
 31
0.0
210
0.0
220
0.0
230
1.0
 40
0.1537088796889419
 41
4.712388980384693
 42
4.763145348751054
  0
LINE
  5
406
330
1F
100
AcDbEntity
  8
0
  6
SLD-Solid
 62
     7
370
    25
100
AcDbLine
 10
6.646789564950721
 20
17.00095421591794
 30
0.0
 11
6.646064654784646
 21
17.00097050100418
 31
0.0
  0
LINE
  5
407
330
1F
100
AcDbEntity
  8
0
  6
SLD-Solid
 62
     7
370
    25
100
AcDbLine
 10
6.64606465478465
 20
15.72453951461684
 30
0.0
 11
6.646789564950724
 21
15.72455579970307
 31
0.0
  0
LINE
  5
408
330
1F
100
AcDbEntity
  8
0
  6
SLD-Solid
 62
     7
370
    25
100
AcDbLine
 10
12.06033053136263
 20
19.14287310330026
 30
0.0
 11
12.11817591333664
 21
19.35875500781051
 31
0.0
  0
LINE
  5
409
330
1F
100
AcDbEntity
  8
0
  6
SLD-Solid
 62
     7
370
    25
100
AcDbLine
 10
12.11817591333664
 20
19.35875500781051
 30
0.0
 11
11.94913889373605
 21
19.35875500781051
 31
0.0
  0
LINE
  5
40A
330
1F
100
AcDbEntity
  8
0
  6
SLD-Solid
 62
     7
370
    25
100
AcDbLine
 10
6.281021295310657
 20
19.14287310330026
 30
0.0
 11
6.223175913336642
 21
19.35875500781051
 31
0.0
  0
LINE
  5
40B
330
1F
100
AcDbEntity
  8
0
  6
SLD-Solid
 62
     7
370
    25
100
AcDbLine
 10
6.223175913336642
 20
19.35875500781051
 30
0.0
 11
6.392212932937229
 21
19.35875500781051
 31
0.0
  0
LINE
  5
40C
330
1F
100
AcDbEntity
  8
0
  6
SLD-Solid
 62
     7
370
    25
100
AcDbLine
 10
6.392212932937229
 20
19.35875500781051
 30
0.0
 11
11.94913889373605
 21
19.35875500781051
 31
0.0
  0
LINE
  5
40D
330
1F
100
AcDbEntity
  8
0
  6
SLD-Solid
 62
     7
370
    25
100
AcDbLine
 10
11.89129351176204
 20
19.06875500781051
 30
0.0
 11
11.96373794873372
 21
19.06875500781051
 31
0.0
  0
ARC
  5
40E
330
1F
100
AcDbEntity
  8
0
  6
SLD-Solid
 62
     7
370
    25
100
AcDbCircle
 10
11.96373794873372
 20
19.16875500781051
 30
0.0
 40
0.1000000000000015
100
AcDbArc
 50
270.0000000000008
 51
345.0000000000003
  0
LINE
  5
40F
330
1F
100
AcDbEntity
  8
0
  6
SLD-Solid
 62
     7
370
    25
100
AcDbLine
 10
11.89129351176204
 20
19.06875500781051
 30
0.0
 11
6.450058314911243
 21
19.06875500781051
 31
0.0
  0
LINE
  5
410
330
1F
100
AcDbEntity
  8
0
  6
SLD-Solid
 62
     7
370
    25
100
AcDbLine
 10
6.450058314911243
 20
19.06875500781051
 30
0.0
 11
6.377613877939563
 21
19.06875500781051
 31
0.0
  0
ARC
  5
411
330
1F
100
AcDbEntity
  8
0
  6
SLD-Solid
 62
     7
370
    25
100
AcDbCircle
 10
6.377613877939563
 20
19.16875500781051
 30
0.0
 40
0.1000000000000014
100
AcDbArc
 50
195.0000000000016
 51
270.0000000000008
  0
LINE
  5
412
330
1F
100
AcDbEntity
  8
0
  6
SLD-Solid
 62
     7
370
    25
100
AcDbLine
 10
7.053175913336641
 20
19.06875500781051
 30
0.0
 11
7.053175913336641
 21
19.05375500781051
 31
0.0
  0
LINE
  5
413
330
1F
100
AcDbEntity
  8
0
  6
SLD-Solid
 62
     7
370
    25
100
AcDbLine
 10
6.681175913336642
 20
19.05375500781051
 30
0.0
 11
6.681175913336642
 21
19.06875500781051
 31
0.0
  0
ARC
  5
414
330
1F
100
AcDbEntity
  8
0
  6
SLD-Solid
 62
     7
370
    25
100
AcDbCircle
 10
6.867175913336641
 20
18.84975500781051
 30
0.0
 40
0.1859999999999999
100
AcDbArc
 50
180.0
 51
0.0
  0
LINE
  5
415
330
1F
100
AcDbEntity
  8
0
  6
SLD-Solid
 62
     7
370
    25
100
AcDbLine
 10
7.053175913336641
 20
19.05375500781051
 30
0.0
 11
7.053175913336641
 21
18.84975500781051
 31
0.0
  0
LINE
  5
416
330
1F
100
AcDbEntity
  8
0
  6
SLD-Solid
 62
     7
370
    25
100
AcDbLine
 10
6.681175913336642
 20
18.84975500781051
 30
0.0
 11
6.681175913336642
 21
19.05375500781051
 31
0.0
  0
MTEXT
  5
417
330
1F
100
AcDbEntity
  8
NOTES
100
AcDbMText
 10
6.579477133549135
 20
14.70101178499872
 30
0.0
 40
0.25
 41
0.0
 71
     1
 72
     1
  1
Top view
  7
SLDTEXTSTYLE1
 73
     1
 44
1.0
  0
MTEXT
  5
41B
330
1F
100
AcDbEntity
  8
NOTES
100
AcDbMText
 10
28.26613155701669
 20
4.98650087456717
 30
0.0
 40
0.2916666666666666
 41
0.0
 71
     1
 72
     1
  1
FROST PRODUCTS LTD.
  7
SLDTEXTSTYLE0
 73
     1
 44
1.0
  0
MTEXT
  5
41C
330
1F
100
AcDbEntity
  8
NOTES
100
AcDbMText
 10
28.26613155701669
 20
4.561008512941711
 30
0.0
 40
0.2291666666666666
 41
0.0
 71
     1
 72
     1
  1
5280 JOHN LUCAS DRIVE, BURLINGTON, ON, L7L 5Z9
  7
SLDTEXTSTYLE0
 73
     1
 44
1.0
  0
ENDSEC
  0
SECTION
  2
OBJECTS
  0
DICTIONARY
  5
C
330
0
100
AcDbDictionary
281
     1
  3
ACAD_COLOR
350
6C
  3
ACAD_GROUP
350
D
  3
ACAD_LAYOUT
350
1A
  3
ACAD_MATERIAL
350
6B
  3
ACAD_MLINESTYLE
350
17
  3
ACAD_PLOTSETTINGS
350
19
  3
ACAD_PLOTSTYLENAME
350
E
  3
ACAD_SCALELIST
350
47
  3
ACAD_TABLESTYLE
350
92
  3
AcDbVariableDictionary
350
59
  0
DICTIONARY
  5
6C
102
{ACAD_REACTORS
330
C
102
}
330
C
100
AcDbDictionary
281
     1
  0
DICTIONARY
  5
D
102
{ACAD_REACTORS
330
C
102
}
330
C
100
AcDbDictionary
281
     1
  0
DICTIONARY
  5
1A
102
{ACAD_REACTORS
330
C
102
}
330
C
100
AcDbDictionary
281
     1
  3
Layout1
350
74
  3
Layout2
350
26
  3
Model
350
22
  0
DICTIONARY
  5
6B
102
{ACAD_REACTORS
330
C
102
}
330
C
100
AcDbDictionary
281
     1
  0
DICTIONARY
  5
17
102
{ACAD_REACTORS
330
C
102
}
330
C
100
AcDbDictionary
281
     1
  3
Standard
350
18
  0
DICTIONARY
  5
19
102
{ACAD_REACTORS
330
C
102
}
330
C
100
AcDbDictionary
281
     1
  0
ACDBDICTIONARYWDFLT
  5
E
102
{ACAD_REACTORS
330
C
102
}
330
C
100
AcDbDictionary
281
     1
  3
Normal
350
F
100
AcDbDictionaryWithDefault
340
F
  0
DICTIONARY
  5
47
102
{ACAD_REACTORS
330
C
102
}
330
C
100
AcDbDictionary
281
     1
  3
A0
350
48
  3
A1
350
49
  3
A2
350
4A
  3
A3
350
4B
  3
A4
350
4C
  3
A5
350
4D
  3
A6
350
4E
  3
A7
350
4F
  3
A8
350
50
  3
A9
350
51
  3
B0
350
52
  3
B1
350
53
  3
B2
350
54
  3
B3
350
55
  3
B4
350
56
  3
B5
350
57
  3
B6
350
58
  3
B7
350
42D
  3
B8
350
42E
  3
B9
350
5B
  3
C0
350
5C
  3
C1
350
5D
  3
C2
350
42F
  3
C3
350
5F
  3
C4
350
60
  3
C5
350
61
  3
C6
350
62
  3
C7
350
63
  3
C8
350
64
  3
C9
350
65
  3
D0
350
66
  3
D1
350
67
  3
D2
350
68
  0
DICTIONARY
  5
92
102
{ACAD_REACTORS
330
C
102
}
330
C
100
AcDbDictionary
281
     1
  0
DICTIONARY
  5
59
102
{ACAD_REACTORS
330
C
102
}
330
C
100
AcDbDictionary
281
     1
  0
LAYOUT
  5
74
102
{ACAD_REACTORS
330
1A
102
}
330
1A
100
AcDbPlotSettings
  1

  2
none_device
  4

  6

 40
0.0
 41
0.0
 42
0.0
 43
0.0
 44
0.0
 45
0.0
 46
0.0
 47
0.0
 48
0.0
 49
0.0
140
0.0
141
0.0
142
1.0
143
1.0
 70
   688
 72
     0
 73
     0
 74
     5
  7

 75
    16
 76
     0
 77
     2
 78
   300
147
1.0
148
0.0
149
0.0
100
AcDbLayout
  1
Layout1
 70
     1
 71
     1
 10
0.0
 20
0.0
 11
12.0
 21
9.0
 12
0.0
 22
0.0
 32
0.0
 14
1.000000000000000E+20
 24
1.000000000000000E+20
 34
1.000000000000000E+20
 15
-1.000000000000000E+20
 25
-1.000000000000000E+20
 35
-1.000000000000000E+20
146
0.0
 13
0.0
 23
0.0
 33
0.0
 16
1.0
 26
0.0
 36
0.0
 17
0.0
 27
1.0
 37
0.0
 76
     0
330
73
  0
LAYOUT
  5
26
102
{ACAD_REACTORS
330
1A
102
}
330
1A
100
AcDbPlotSettings
  1

  2
none_device
  4

  6

 40
0.0
 41
0.0
 42
0.0
 43
0.0
 44
0.0
 45
0.0
 46
0.0
 47
0.0
 48
0.0
 49
0.0
140
0.0
141
0.0
142
1.0
143
1.0
 70
   688
 72
     0
 73
     0
 74
     5
  7

 75
    16
 76
     0
 77
     2
 78
   300
147
1.0
148
0.0
149
0.0
100
AcDbLayout
  1
Layout2
 70
     1
 71
     2
 10
0.0
 20
0.0
 11
0.0
 21
0.0
 12
0.0
 22
0.0
 32
0.0
 14
0.0
 24
0.0
 34
0.0
 15
0.0
 25
0.0
 35
0.0
146
0.0
 13
0.0
 23
0.0
 33
0.0
 16
1.0
 26
0.0
 36
0.0
 17
0.0
 27
1.0
 37
0.0
 76
     0
330
23
  0
LAYOUT
  5
22
102
{ACAD_REACTORS
330
1A
102
}
330
1A
100
AcDbPlotSettings
  1

  2
none_device
  4
Letter_(8.50_x_11.00_Inches)
  6

 40
6.35
 41
6.35
 42
6.35000508
 43
6.35000508
 44
215.9
 45
279.4
 46
0.0
 47
0.0
 48
0.0
 49
0.0
140
0.0
141
0.0
142
1.0
143
1.0
 70
 11952
 72
     0
 73
     0
 74
     0
  7

 75
     0
 76
     0
 77
     2
 78
   300
147
1.0
148
0.0
149
0.0
100
AcDbLayout
  1
Model
 70
     1
 71
     0
 10
0.0
 20
0.0
 11
38.0
 21
24.0
 12
0.0
 22
0.0
 32
0.0
 14
0.1653543307086614
 24
0.1653543307086614
 34
-2.170500000000001
 15
37.83464566929133
 25
23.83464566929134
 35
2.170500000000001
146
0.0
 13
0.0
 23
0.0
 33
0.0
 16
1.0
 26
0.0
 36
0.0
 17
0.0
 27
1.0
 37
0.0
 76
     0
330
1F
  0
MLINESTYLE
  5
18
102
{ACAD_REACTORS
330
17
102
}
330
17
100
AcDbMlineStyle
  2
Standard
 70
     0
  3

 62
   256
 51
90.0
 52
90.0
 71
     2
 49
0.5
 62
   256
  6
BYLAYER
 49
-0.5
 62
   256
  6
BYLAYER
  0
ACDBPLACEHOLDER
  5
F
102
{ACAD_REACTORS
330
E
102
}
330
E
  0
ACAD_PROXY_OBJECT
  5
48
102
{ACAD_REACTORS
330
47
102
}
330
47
100
AcDbProxyObject
 90
      499
 91
      505
 95
   393239
 70
     0
 93
       41
310
903313A31580
  0
ACAD_PROXY_OBJECT
  5
49
102
{ACAD_REACTORS
330
47
102
}
330
47
100
AcDbProxyObject
 90
      499
 91
      505
 95
   393239
 70
     0
 93
      105
310
903313A324000000000000004000
  0
ACAD_PROXY_OBJECT
  5
4A
102
{ACAD_REACTORS
330
47
102
}
330
47
100
AcDbProxyObject
 90
      499
 91
      505
 95
   393239
 70
     0
 93
      105
310
903313A344000000000000104000
  0
ACAD_PROXY_OBJECT
  5
4B
102
{ACAD_REACTORS
330
47
102
}
330
47
100
AcDbProxyObject
 90
      499
 91
      505
 95
   393239
 70
     0
 93
      105
310
903313A354000000000000144000
  0
ACAD_PROXY_OBJECT
  5
4C
102
{ACAD_REACTORS
330
47
102
}
330
47
100
AcDbProxyObject
 90
      499
 91
      505
 95
   393239
 70
     0
 93
      105
310
903313A384000000000000204000
  0
ACAD_PROXY_OBJECT
  5
4D
102
{ACAD_REACTORS
330
47
102
}
330
47
100
AcDbProxyObject
 90
      499
 91
      505
 95
   393239
 70
     0
 93
      113
310
904313A31304000000000000244000
  0
ACAD_PROXY_OBJECT
  5
4E
102
{ACAD_REACTORS
330
47
102
}
330
47
100
AcDbProxyObject
 90
      499
 91
      505
 95
   393239
 70
     0
 93
      113
310
904313A31364000000000000304000
  0
ACAD_PROXY_OBJECT
  5
4F
102
{ACAD_REACTORS
330
47
102
}
330
47
100
AcDbProxyObject
 90
      499
 91
      505
 95
   393239
 70
     0
 93
      113
310
904313A32304000000000000344000
  0
ACAD_PROXY_OBJECT
  5
50
102
{ACAD_REACTORS
330
47
102
}
330
47
100
AcDbProxyObject
 90
      499
 91
      505
 95
   393239
 70
     0
 93
      113
310
904313A333040000000000003E4000
  0
ACAD_PROXY_OBJECT
  5
51
102
{ACAD_REACTORS
330
47
102
}
330
47
100
AcDbProxyObject
 90
      499
 91
      505
 95
   393239
 70
     0
 93
      113
310
904313A34304000000000000444000
  0
ACAD_PROXY_OBJECT
  5
52
102
{ACAD_REACTORS
330
47
102
}
330
47
100
AcDbProxyObject
 90
      499
 91
      505
 95
   393239
 70
     0
 93
      113
310
904313A35304000000000000494000
  0
ACAD_PROXY_OBJECT
  5
53
102
{ACAD_REACTORS
330
47
102
}
330
47
100
AcDbProxyObject
 90
      499
 91
      505
 95
   393239
 70
     0
 93
      121
310
905313A3130304000000000000594000
  0
ACAD_PROXY_OBJECT
  5
54
102
{ACAD_REACTORS
330
47
102
}
330
47
100
AcDbProxyObject
 90
      499
 91
      505
 95
   393239
 70
     0
 93
      105
310
903323A310000000000000010100
  0
ACAD_PROXY_OBJECT
  5
55
102
{ACAD_REACTORS
330
47
102
}
330
47
100
AcDbProxyObject
 90
      499
 91
      505
 95
   393239
 70
     0
 93
      105
310
903343A310000000000000410100
  0
ACAD_PROXY_OBJECT
  5
56
102
{ACAD_REACTORS
330
47
102
}
330
47
100
AcDbProxyObject
 90
      499
 91
      505
 95
   393239
 70
     0
 93
      105
310
903383A310000000000000810100
  0
ACAD_PROXY_OBJECT
  5
57
102
{ACAD_REACTORS
330
47
102
}
330
47
100
AcDbProxyObject
 90
      499
 91
      505
 95
   393239
 70
     0
 93
      113
310
90431303A310000000000000910100
  0
ACAD_PROXY_OBJECT
  5
58
102
{ACAD_REACTORS
330
47
102
}
330
47
100
AcDbProxyObject
 90
      499
 91
      505
 95
   393239
 70
     0
 93
      121
310
9053130303A310000000000001650100
  0
ACAD_PROXY_OBJECT
  5
42D
102
{ACAD_REACTORS
330
47
102
}
330
47
100
AcDbProxyObject
 90
      499
 91
      505
 95
   393239
 70
     0
 93
      257
310
90E312F31323822203D2031272D3022000000000000200FC000000000000284000
  0
ACAD_PROXY_OBJECT
  5
42E
102
{ACAD_REACTORS
330
47
102
}
330
47
100
AcDbProxyObject
 90
      499
 91
      505
 95
   393239
 70
     0
 93
      249
310
90D312F363422203D2031272D3022000000000000240FC000000000000284000
  0
ACAD_PROXY_OBJECT
  5
5B
102
{ACAD_REACTORS
330
47
102
}
330
47
100
AcDbProxyObject
 90
      499
 91
      505
 95
   393239
 70
     0
 93
      249
310
90D312F333222203D2031272D3022000000000000280FC000000000000284000
  0
ACAD_PROXY_OBJECT
  5
5C
102
{ACAD_REACTORS
330
47
102
}
330
47
100
AcDbProxyObject
 90
      499
 91
      505
 95
   393239
 70
     0
 93
      249
310
90D312F313622203D2031272D30220000000000002C0FC000000000000284000
  0
ACAD_PROXY_OBJECT
  5
5D
102
{ACAD_REACTORS
330
47
102
}
330
47
100
AcDbProxyObject
 90
      499
 91
      505
 95
   393239
 70
     0
 93
      249
310
90D332F333222203D2031272D30220000000000002E0FC000000000000284000
  0
ACAD_PROXY_OBJECT
  5
42F
102
{ACAD_REACTORS
330
47
102
}
330
47
100
AcDbProxyObject
 90
      499
 91
      505
 95
   393239
 70
     0
 93
      241
310
90C312F3822203D2031272D3022000000000000300FC000000000000284000
  0
ACAD_PROXY_OBJECT
  5
5F
102
{ACAD_REACTORS
330
47
102
}
330
47
100
AcDbProxyObject
 90
      499
 91
      505
 95
   393239
 70
     0
 93
      249
310
90D332F313622203D2031272D3022000000000000320FC000000000000284000
  0
ACAD_PROXY_OBJECT
  5
60
102
{ACAD_REACTORS
330
47
102
}
330
47
100
AcDbProxyObject
 90
      499
 91
      505
 95
   393239
 70
     0
 93
      241
310
90C312F3422203D2031272D3022000000000000340FC000000000000284000
  0
ACAD_PROXY_OBJECT
  5
61
102
{ACAD_REACTORS
330
47
102
}
330
47
100
AcDbProxyObject
 90
      499
 91
      505
 95
   393239
 70
     0
 93
      241
310
90C332F3822203D2031272D3022000000000000360FC000000000000284000
  0
ACAD_PROXY_OBJECT
  5
62
102
{ACAD_REACTORS
330
47
102
}
330
47
100
AcDbProxyObject
 90
      499
 91
      505
 95
   393239
 70
     0
 93
      241
310
90C312F3222203D2031272D3022000000000000380FC000000000000284000
  0
ACAD_PROXY_OBJECT
  5
63
102
{ACAD_REACTORS
330
47
102
}
330
47
100
AcDbProxyObject
 90
      499
 91
      505
 95
   393239
 70
     0
 93
      241
310
90C332F3422203D2031272D30220000000000003A0FC000000000000284000
  0
ACAD_PROXY_OBJECT
  5
64
102
{ACAD_REACTORS
330
47
102
}
330
47
100
AcDbProxyObject
 90
      499
 91
      505
 95
   393239
 70
     0
 93
      161
310
90A3122203D2031272D30224000000000000284000
  0
ACAD_PROXY_OBJECT
  5
65
102
{ACAD_REACTORS
330
47
102
}
330
47
100
AcDbProxyObject
 90
      499
 91
      505
 95
   393239
 70
     0
 93
      257
310
90E312D312F3222203D2031272D30220000000000003E0FC000000000000284000
  0
ACAD_PROXY_OBJECT
  5
66
102
{ACAD_REACTORS
330
47
102
}
330
47
100
AcDbProxyObject
 90
      499
 91
      505
 95
   393239
 70
     0
 93
      225
310
90A3322203D2031272D302200000000000002100000000000000284000
  0
ACAD_PROXY_OBJECT
  5
67
102
{ACAD_REACTORS
330
47
102
}
330
47
100
AcDbProxyObject
 90
      499
 91
      505
 95
   393239
 70
     0
 93
      225
310
90A3622203D2031272D302200000000000006100000000000000284000
  0
ACAD_PROXY_OBJECT
  5
68
102
{ACAD_REACTORS
330
47
102
}
330
47
100
AcDbProxyObject
 90
      499
 91
      505
 95
   393239
 70
     0
 93
      249
310
90D31272D3022203D2031272D30220000000000000A100000000000000284000
  0
ENDSEC
  0
EOF
