  0
SECTION
  2
HEADER
  9
$ACADVER
  1
AC1015
  9
$ACADMAINTVER
 70
     6
  9
$DWGCODEPAGE
  3
ANSI_1252
  9
$INSBASE
 10
0.0
 20
0.0
 30
0.0
  9
$EXTMIN
 10
0.0
 20
0.0
 30
0.0
  9
$EXTMAX
 10
42.0
 20
24.0
 30
0.0
  9
$LIMMIN
 10
0.0
 20
0.0
  9
$LIMMAX
 10
42.0
 20
24.0
  9
$ORTHOMODE
 70
     0
  9
$REGENMODE
 70
     1
  9
$FILLMODE
 70
     1
  9
$QTEXTMODE
 70
     0
  9
$MIRRTEXT
 70
     1
  9
$LTSCALE
 40
1.0
  9
$ATTMODE
 70
     1
  9
$TEXTSIZE
 40
0.25
  9
$TRACEWID
 40
0.05
  9
$TEXTSTYLE
  7
STANDARD
  9
$CLAYER
  8
0
  9
$CELTYPE
  6
ByLayer
  9
$CECOLOR
 62
   256
  9
$CELTSCALE
 40
1.0
  9
$DISPSILH
 70
     0
  9
$DIMSCALE
 40
1.0
  9
$DIMASZ
 40
0.3
  9
$DIMEXO
 40
0.1666666667
  9
$DIMDLI
 40
0.38
  9
$DIMRND
 40
0.0
  9
$DIMDLE
 40
0.0
  9
$DIMEXE
 40
0.375
  9
$DIMTP
 40
0.0
  9
$DIMTM
 40
0.0
  9
$DIMTXT
 40
0.25
  9
$DIMCEN
 40
0.09
  9
$DIMTSZ
 40
0.0
  9
$DIMTOL
 70
     0
  9
$DIMLIM
 70
     0
  9
$DIMTIH
 70
     1
  9
$DIMTOH
 70
     1
  9
$DIMSE1
 70
     0
  9
$DIMSE2
 70
     0
  9
$DIMTAD
 70
     0
  9
$DIMZIN
 70
     1
  9
$DIMBLK
  1

  9
$DIMASO
 70
     1
  9
$DIMSHO
 70
     1
  9
$DIMPOST
  1

  9
$DIMAPOST
  1

  9
$DIMALT
 70
     0
  9
$DIMALTD
 70
     2
  9
$DIMALTF
 40
25.4
  9
$DIMLFAC
 40
1.0
  9
$DIMTOFL
 70
     0
  9
$DIMTVP
 40
0.0
  9
$DIMTIX
 70
     0
  9
$DIMSOXD
 70
     0
  9
$DIMSAH
 70
     0
  9
$DIMBLK1
  1

  9
$DIMBLK2
  1

  9
$DIMSTYLE
  2
Standard
  9
$DIMCLRD
 70
     0
  9
$DIMCLRE
 70
     0
  9
$DIMCLRT
 70
     0
  9
$DIMTFAC
 40
1.0
  9
$DIMGAP
 40
0.125
  9
$DIMJUST
 70
     0
  9
$DIMSD1
 70
     0
  9
$DIMSD2
 70
     0
  9
$DIMTOLJ
 70
     1
  9
$DIMTZIN
 70
     1
  9
$DIMALTZ
 70
     0
  9
$DIMALTTZ
 70
     0
  9
$DIMUPT
 70
     0
  9
$DIMDEC
 70
     2
  9
$DIMTDEC
 70
     2
  9
$DIMALTU
 70
     2
  9
$DIMALTTD
 70
     2
  9
$DIMTXSTY
  7
STANDARD
  9
$DIMAUNIT
 70
     0
  9
$DIMADEC
 70
     2
  9
$DIMALTRND
 40
0.0
  9
$DIMAZIN
 70
     0
  9
$DIMDSEP
 70
    46
  9
$DIMATFIT
 70
     3
  9
$DIMFRAC
 70
     0
  9
$DIMLDRBLK
  1

  9
$DIMLUNIT
 70
     2
  9
$DIMLWD
 70
    -2
  9
$DIMLWE
 70
    -2
  9
$DIMTMOVE
 70
     0
  9
$LUNITS
 70
     2
  9
$LUPREC
 70
     4
  9
$SKETCHINC
 40
0.1
  9
$FILLETRAD
 40
0.5
  9
$AUNITS
 70
     0
  9
$AUPREC
 70
     2
  9
$MENU
  1
.
  9
$ELEVATION
 40
0.0
  9
$PELEVATION
 40
0.0
  9
$THICKNESS
 40
0.0
  9
$LIMCHECK
 70
     0
  9
$CHAMFERA
 40
0.0
  9
$CHAMFERB
 40
0.0
  9
$CHAMFERC
 40
0.0
  9
$CHAMFERD
 40
0.0
  9
$SKPOLY
 70
     0
  9
$TDCREATE
 40
2459473.618075093
  9
$TDUCREATE
 40
2459473.784741759
  9
$TDUPDATE
 40
2459473.618078634
  9
$TDUUPDATE
 40
2459473.784745301
  9
$TDINDWG
 40
0.0000000116
  9
$TDUSRTIMER
 40
0.0000000116
  9
$USRTIMER
 70
     1
  9
$ANGBASE
 50
0.0
  9
$ANGDIR
 70
     0
  9
$PDMODE
 70
     0
  9
$PDSIZE
 40
-1.0
  9
$PLINEWID
 40
0.0
  9
$SPLFRAME
 70
     0
  9
$SPLINETYPE
 70
     6
  9
$SPLINESEGS
 70
     8
  9
$HANDSEED
  5
42F
  9
$SURFTAB1
 70
     6
  9
$SURFTAB2
 70
     6
  9
$SURFTYPE
 70
     6
  9
$SURFU
 70
     6
  9
$SURFV
 70
     6
  9
$UCSBASE
  2

  9
$UCSNAME
  2

  9
$UCSORG
 10
0.0
 20
0.0
 30
0.0
  9
$UCSXDIR
 10
1.0
 20
0.0
 30
0.0
  9
$UCSYDIR
 10
0.0
 20
1.0
 30
0.0
  9
$UCSORTHOREF
  2

  9
$UCSORTHOVIEW
 70
     0
  9
$UCSORGTOP
 10
0.0
 20
0.0
 30
0.0
  9
$UCSORGBOTTOM
 10
0.0
 20
0.0
 30
0.0
  9
$UCSORGLEFT
 10
0.0
 20
0.0
 30
0.0
  9
$UCSORGRIGHT
 10
0.0
 20
0.0
 30
0.0
  9
$UCSORGFRONT
 10
0.0
 20
0.0
 30
0.0
  9
$UCSORGBACK
 10
0.0
 20
0.0
 30
0.0
  9
$PUCSBASE
  2

  9
$PUCSNAME
  2

  9
$PUCSORG
 10
0.0
 20
0.0
 30
0.0
  9
$PUCSXDIR
 10
1.0
 20
0.0
 30
0.0
  9
$PUCSYDIR
 10
0.0
 20
1.0
 30
0.0
  9
$PUCSORTHOREF
  2

  9
$PUCSORTHOVIEW
 70
     0
  9
$PUCSORGTOP
 10
0.0
 20
0.0
 30
0.0
  9
$PUCSORGBOTTOM
 10
0.0
 20
0.0
 30
0.0
  9
$PUCSORGLEFT
 10
0.0
 20
0.0
 30
0.0
  9
$PUCSORGRIGHT
 10
0.0
 20
0.0
 30
0.0
  9
$PUCSORGFRONT
 10
0.0
 20
0.0
 30
0.0
  9
$PUCSORGBACK
 10
0.0
 20
0.0
 30
0.0
  9
$USERI1
 70
     0
  9
$USERI2
 70
     0
  9
$USERI3
 70
     0
  9
$USERI4
 70
     0
  9
$USERI5
 70
     0
  9
$USERR1
 40
0.0
  9
$USERR2
 40
0.0
  9
$USERR3
 40
0.0
  9
$USERR4
 40
0.0
  9
$USERR5
 40
0.0
  9
$WORLDVIEW
 70
     1
  9
$SHADEDGE
 70
     3
  9
$SHADEDIF
 70
    70
  9
$TILEMODE
 70
     1
  9
$MAXACTVP
 70
    64
  9
$PINSBASE
 10
0.0
 20
0.0
 30
0.0
  9
$PLIMCHECK
 70
     0
  9
$PEXTMIN
 10
1.0000000000E+20
 20
1.0000000000E+20
 30
1.0000000000E+20
  9
$PEXTMAX
 10
-1.0000000000E+20
 20
-1.0000000000E+20
 30
-1.0000000000E+20
  9
$PLIMMIN
 10
0.0
 20
0.0
  9
$PLIMMAX
 10
12.0
 20
9.0
  9
$UNITMODE
 70
     0
  9
$VISRETAIN
 70
     1
  9
$PLINEGEN
 70
     0
  9
$PSLTSCALE
 70
     1
  9
$TREEDEPTH
 70
  3020
  9
$CMLSTYLE
  2
Standard
  9
$CMLJUST
 70
     0
  9
$CMLSCALE
 40
1.0
  9
$PROXYGRAPHICS
 70
     1
  9
$MEASUREMENT
 70
     0
  9
$CELWEIGHT
370
    -1
  9
$ENDCAPS
280
     0
  9
$JOINSTYLE
280
     0
  9
$LWDISPLAY
290
     1
  9
$INSUNITS
 70
     1
  9
$HYPERLINKBASE
  1

  9
$STYLESHEET
  1

  9
$XEDIT
290
     1
  9
$CEPSNTYPE
380
     0
  9
$PSTYLEMODE
290
     1
  9
$FINGERPRINTGUID
  2
{6c11e8e6-f7be-4b28-b053-e1775575418a}
  9
$VERSIONGUID
  2
{FAEB1C32-E019-11D5-929B-00C0DF256EC4}
  9
$EXTNAMES
290
     1
  9
$PSVPSCALE
 40
0.0
  9
$OLESTARTUP
290
     0
  0
ENDSEC
  0
SECTION
  2
CLASSES
  0
CLASS
  1
ACDBDICTIONARYWDFLT
  2
AcDbDictionaryWithDefault
  3
ObjectDBX Classes
 90
        0
280
     0
281
     0
  0
CLASS
  1
VISUALSTYLE
  2
AcDbVisualStyle
  3
ObjectDBX Classes
 90
     4095
280
     0
281
     0
  0
CLASS
  1
MATERIAL
  2
AcDbMaterial
  3
ObjectDBX Classes
 90
     1153
280
     0
281
     0
  0
CLASS
  1
SCALE
  2
AcDbScale
  3
ObjectDBX Classes
 90
     1153
280
     0
281
     0
  0
CLASS
  1
TABLESTYLE
  2
AcDbTableStyle
  3
ObjectDBX Classes
 90
     4095
280
     0
281
     0
  0
CLASS
  1
MLEADERSTYLE
  2
AcDbMLeaderStyle
  3
ACDB_MLEADERSTYLE_CLASS
 90
     4095
280
     0
281
     0
  0
CLASS
  1
SUN
  2
AcDbSun
  3
SCENEOE
 90
     1153
280
     0
281
     0
  0
CLASS
  1
ACDBPLACEHOLDER
  2
AcDbPlaceHolder
  3
ObjectDBX Classes
 90
        0
280
     0
281
     0
  0
CLASS
  1
LAYOUT
  2
AcDbLayout
  3
ObjectDBX Classes
 90
        0
280
     0
281
     0
  0
ENDSEC
  0
SECTION
  2
TABLES
  0
TABLE
  2
VPORT
  5
8
330
0
100
AcDbSymbolTable
 70
     1
  0
VPORT
  5
29
330
8
100
AcDbSymbolTableRecord
100
AcDbViewportTableRecord
  2
*Active
 70
     0
 10
0.0
 20
0.0
 11
1.0
 21
1.0
 12
21.0
 22
12.0
 13
0.0
 23
0.0
 14
0.5
 24
0.5
 15
0.5
 25
0.5
 16
0.0
 26
0.0
 36
1.0
 17
0.0
 27
0.0
 37
0.0
 40
24.0
 41
1.75
 42
50.0
 43
0.0
 44
0.0
 50
0.0
 51
0.0
 71
     0
 72
  2000
 73
     1
 74
     3
 75
     0
 76
     0
 77
     0
 78
     0
281
     0
 65
     1
110
0.0
120
0.0
130
0.0
111
1.0
121
0.0
131
0.0
112
0.0
122
1.0
132
0.0
 79
     0
146
0.0
  0
ENDTAB
  0
TABLE
  2
LTYPE
  5
5
330
0
100
AcDbSymbolTable
 70
     8
  0
LTYPE
  5
14
330
5
100
AcDbSymbolTableRecord
100
AcDbLinetypeTableRecord
  2
ByBlock
 70
     0
  3

 72
    65
 73
     0
 40
0.0
  0
LTYPE
  5
15
330
5
100
AcDbSymbolTableRecord
100
AcDbLinetypeTableRecord
  2
ByLayer
 70
     0
  3

 72
    65
 73
     0
 40
0.0
  0
LTYPE
  5
16
330
5
100
AcDbSymbolTableRecord
100
AcDbLinetypeTableRecord
  2
Continuous
 70
     0
  3
Solid line
 72
    65
 73
     0
 40
0.0
  0
LTYPE
  5
6E
330
5
100
AcDbSymbolTableRecord
100
AcDbLinetypeTableRecord
  2
SLD-Solid
 70
     0
  3
SolidWorks Line Style
 72
    65
 73
     0
 40
0.0
  0
LTYPE
  5
6F
330
5
100
AcDbSymbolTableRecord
100
AcDbLinetypeTableRecord
  2
SLD-Dashed
 70
     0
  3
SolidWorks Line Style
 72
    65
 73
     2
 40
0.075
 49
0.05
 74
     0
 49
-0.025
 74
     0
  0
LTYPE
  5
70
330
5
100
AcDbSymbolTableRecord
100
AcDbLinetypeTableRecord
  2
SLD-Phantom
 70
     0
  3
SolidWorks Line Style
 72
    65
 73
     6
 40
0.5
 49
0.25
 74
     0
 49
-0.05
 74
     0
 49
0.05
 74
     0
 49
-0.05
 74
     0
 49
0.05
 74
     0
 49
-0.05
 74
     0
  0
LTYPE
  5
71
330
5
100
AcDbSymbolTableRecord
100
AcDbLinetypeTableRecord
  2
SLD-Chain
 70
     0
  3
SolidWorks Line Style
 72
    65
 73
     4
 40
0.4
 49
0.25
 74
     0
 49
-0.05
 74
     0
 49
0.05
 74
     0
 49
-0.05
 74
     0
  0
LTYPE
  5
72
330
5
100
AcDbSymbolTableRecord
100
AcDbLinetypeTableRecord
  2
SLD-Center
 70
     0
  3
SolidWorks Line Style
 72
    65
 73
     4
 40
0.75
 49
0.6
 74
     0
 49
-0.05
 74
     0
 49
0.05
 74
     0
 49
-0.05
 74
     0
  0
LTYPE
  5
73
330
5
100
AcDbSymbolTableRecord
100
AcDbLinetypeTableRecord
  2
SLD-Stitch
 70
     0
  3
SolidWorks Line Style
 72
    65
 73
     2
 40
0.025
 49
0.0
 74
     0
 49
-0.025
 74
     0
  0
LTYPE
  5
74
330
5
100
AcDbSymbolTableRecord
100
AcDbLinetypeTableRecord
  2
SLD-Thin-Thick-Chain
 70
     0
  3
SolidWorks Line Style
 72
    65
 73
     4
 40
0.4
 49
0.25
 74
     0
 49
-0.05
 74
     0
 49
0.05
 74
     0
 49
-0.05
 74
     0
  0
ENDTAB
  0
TABLE
  2
LAYER
  5
2
330
0
100
AcDbSymbolTable
 70
     6
  0
LAYER
  5
10
330
2
100
AcDbSymbolTableRecord
100
AcDbLayerTableRecord
  2
0
 70
     0
 62
     7
  6
Continuous
370
    -3
390
F
  0
LAYER
  5
75
330
2
100
AcDbSymbolTableRecord
100
AcDbLayerTableRecord
  2
FORMAT
 70
     0
 62
     7
  6
SLD-Solid
370
    -3
390
F
  0
LAYER
  5
76
330
2
100
AcDbSymbolTableRecord
100
AcDbLayerTableRecord
  2
NOTES
 70
     0
 62
     1
  6
SLD-Solid
370
    -3
390
F
  0
LAYER
  5
77
330
2
100
AcDbSymbolTableRecord
100
AcDbLayerTableRecord
  2
OBJECT
 70
     0
 62
     7
  6
SLD-Solid
370
    25
390
F
  0
LAYER
  5
78
330
2
100
AcDbSymbolTableRecord
100
AcDbLayerTableRecord
  2
DIMS
 70
     0
 62
     5
  6
SLD-Solid
370
    -3
390
F
  0
LAYER
  5
79
330
2
100
AcDbSymbolTableRecord
100
AcDbLayerTableRecord
  2
TITLE
 70
     0
 62
     8
  6
SLD-Solid
370
    -3
390
F
  0
ENDTAB
  0
TABLE
  2
STYLE
  5
3
330
0
100
AcDbSymbolTable
 70
     5
  0
STYLE
  5
11
330
3
100
AcDbSymbolTableRecord
100
AcDbTextStyleTableRecord
  2
STANDARD
 70
     0
 40
0.0
 41
1.0
 50
0.0
 71
     0
 42
0.25
  3
GOTHIC.TTF
  4

1001
ACAD
1000
CENTURY GOTHIC
1071
       34
  0
STYLE
  5
CC
330
3
100
AcDbSymbolTableRecord
100
AcDbTextStyleTableRecord
  2
SLDTEXTSTYLE0
 70
     0
 40
0.0
 41
0.948
 50
0.0
 71
     0
 42
0.25
  3
ARIAL.TTF
  4

1001
ACAD
1000
Arial
1071
      290
  0
STYLE
  5
D0
330
3
100
AcDbSymbolTableRecord
100
AcDbTextStyleTableRecord
  2
SLDTEXTSTYLE1
 70
     0
 40
0.0
 41
0.913
 50
0.0
 71
     0
 42
0.25
  3
GOTHIC.TTF
  4

1001
ACAD
1000
Century Gothic
1071
      290
  0
STYLE
  5
DF
330
3
100
AcDbSymbolTableRecord
100
AcDbTextStyleTableRecord
  2
SLDTEXTSTYLE2
 70
     0
 40
0.0
 41
0.87
 50
0.0
 71
     0
 42
0.25
  3
ARIALNB.TTF
  4

1001
ACAD
1000
Arial Narrow
1071
 33554722
  0
STYLE
  5
E1
330
3
100
AcDbSymbolTableRecord
100
AcDbTextStyleTableRecord
  2
SLDTEXTSTYLE3
 70
     0
 40
0.0
 41
0.87
 50
0.0
 71
     0
 42
0.25
  3
ARIALN.TTF
  4

1001
ACAD
1000
Arial Narrow
1071
      290
  0
ENDTAB
  0
TABLE
  2
VIEW
  5
6
330
0
100
AcDbSymbolTable
 70
     0
  0
ENDTAB
  0
TABLE
  2
UCS
  5
7
330
0
100
AcDbSymbolTable
 70
     0
  0
ENDTAB
  0
TABLE
  2
APPID
  5
9
330
0
100
AcDbSymbolTable
 70
     1
  0
APPID
  5
12
330
9
100
AcDbSymbolTableRecord
100
AcDbRegAppTableRecord
  2
ACAD
 70
     0
  0
ENDTAB
  0
TABLE
  2
DIMSTYLE
  5
A
330
0
100
AcDbSymbolTable
 70
     5
100
AcDbDimStyleTable
  0
DIMSTYLE
105
27
330
A
100
AcDbSymbolTableRecord
100
AcDbDimStyleTableRecord
  2
Standard
 70
     0
178
     0
340
11
  0
DIMSTYLE
105
1F9
102
{ACAD_REACTORS
330
1F8
330
253
330
361
330
41E
102
}
330
A
100
AcDbSymbolTableRecord
100
AcDbDimStyleTableRecord
  2
SLDDIMSTYLE0
 70
     0
 41
0.3
 44
0.0
 45
0.000000001
 78
    12
 79
     3
140
0.25
147
0.0625
173
     1
178
     0
271
     6
272
     2
276
     2
277
     5
284
    12
340
D0
341
1FA
343
1FA
344
1FA
  0
DIMSTYLE
105
371
102
{ACAD_REACTORS
330
370
102
}
330
A
100
AcDbSymbolTableRecord
100
AcDbDimStyleTableRecord
  2
SLDDIMSTYLE1
 70
     0
 41
0.3
 44
0.0
 45
0.000000001
 78
    12
 79
     3
140
0.25
147
0.0625
172
     1
173
     1
178
     0
271
     6
272
     2
276
     2
277
     5
284
    12
289
     0
340
D0
341
1FA
343
1FA
344
1FA
  0
DIMSTYLE
105
381
102
{ACAD_REACTORS
330
380
102
}
330
A
100
AcDbSymbolTableRecord
100
AcDbDimStyleTableRecord
  2
SLDDIMSTYLE2
 70
     0
 41
0.3
 44
0.0
 45
0.000000001
 78
    12
 79
     3
140
0.25
141
0.0
147
0.0625
173
     1
178
     0
271
     2
272
     2
276
     2
277
     5
284
    12
340
D0
341
1FA
343
1FA
344
1FA
  0
DIMSTYLE
105
38F
330
A
100
AcDbSymbolTableRecord
100
AcDbDimStyleTableRecord
  2
SLDDIMSTYLE3
 70
     0
 41
0.3
 44
0.0
 45
0.000000001
146
0.3
147
0.0
173
     1
178
     0
271
     0
272
     0
276
     2
277
     5
340
11
341
1FA
343
1FA
344
1FA
  0
ENDTAB
  0
TABLE
  2
BLOCK_RECORD
  5
1
330
0
100
AcDbSymbolTable
 70
    10
  0
BLOCK_RECORD
  5
1F
330
1
100
AcDbSymbolTableRecord
100
AcDbBlockTableRecord
  2
*Model_Space
340
22
  0
BLOCK_RECORD
  5
1B
330
1
100
AcDbSymbolTableRecord
100
AcDbBlockTableRecord
  2
*Paper_Space
340
1E
  0
BLOCK_RECORD
  5
23
330
1
100
AcDbSymbolTableRecord
100
AcDbBlockTableRecord
  2
*Paper_Space0
340
26
  0
BLOCK_RECORD
  5
D6
330
1
100
AcDbSymbolTableRecord
100
AcDbBlockTableRecord
  2
SW_NOTE_0
340
0
102
{BLKREFS
331
DB
102
}
  0
BLOCK_RECORD
  5
DC
330
1
100
AcDbSymbolTableRecord
100
AcDbBlockTableRecord
  2
SW_NOTE_0_1
340
0
102
{BLKREFS
331
E5
102
}
  0
BLOCK_RECORD
  5
1FA
330
1
100
AcDbSymbolTableRecord
100
AcDbBlockTableRecord
  2
_Open90
340
0
102
{BLKREFS
331
203
331
204
331
257
331
258
331
365
331
366
331
375
331
376
331
385
331
422
331
423
102
}
  0
BLOCK_RECORD
  5
200
330
1
100
AcDbSymbolTableRecord
100
AcDbBlockTableRecord
  2
_D
340
0
  0
BLOCK_RECORD
  5
254
330
1
100
AcDbSymbolTableRecord
100
AcDbBlockTableRecord
  2
_D_1
340
0
  0
BLOCK_RECORD
  5
362
330
1
100
AcDbSymbolTableRecord
100
AcDbBlockTableRecord
  2
_D_2
340
0
  0
BLOCK_RECORD
  5
372
330
1
100
AcDbSymbolTableRecord
100
AcDbBlockTableRecord
  2
_D_3
340
0
  0
BLOCK_RECORD
  5
382
330
1
100
AcDbSymbolTableRecord
100
AcDbBlockTableRecord
  2
_D_4
340
0
  0
BLOCK_RECORD
  5
41F
330
1
100
AcDbSymbolTableRecord
100
AcDbBlockTableRecord
  2
_D_5
340
0
  0
ENDTAB
  0
ENDSEC
  0
SECTION
  2
BLOCKS
  0
BLOCK
  5
20
330
1F
100
AcDbEntity
  8
0
100
AcDbBlockBegin
  2
*Model_Space
 70
     0
 10
0.0
 20
0.0
 30
0.0
  3
*Model_Space
  1

  0
ENDBLK
  5
21
330
1F
100
AcDbEntity
  8
0
100
AcDbBlockEnd
  0
BLOCK
  5
1C
330
1B
100
AcDbEntity
 67
     1
  8
0
100
AcDbBlockBegin
  2
*Paper_Space
 70
     0
 10
0.0
 20
0.0
 30
0.0
  3
*Paper_Space
  1

  0
ENDBLK
  5
1D
330
1B
100
AcDbEntity
 67
     1
  8
0
100
AcDbBlockEnd
  0
BLOCK
  5
24
330
23
100
AcDbEntity
  8
0
100
AcDbBlockBegin
  2
*Paper_Space0
 70
     0
 10
0.0
 20
0.0
 30
0.0
  3
*Paper_Space0
  1

  0
ENDBLK
  5
25
330
23
100
AcDbEntity
  8
0
100
AcDbBlockEnd
  0
BLOCK
  5
D7
330
D6
100
AcDbEntity
  8
0
100
AcDbBlockBegin
  2
SW_NOTE_0
 70
     0
 10
0.0
 20
0.0
 30
0.0
  3
SW_NOTE_0
  1

  0
MTEXT
  5
D9
330
D6
100
AcDbEntity
  8
NOTES
 62
     0
100
AcDbMText
 10
0.0
 20
0.3759780908
 30
0.0
 40
0.2916666667
 41
0.0
 71
     1
 72
     1
  1
FROST PRODUCTS LTD.
  7
SLDTEXTSTYLE0
 73
     1
 44
1.0
  0
MTEXT
  5
DA
330
D6
100
AcDbEntity
  8
NOTES
 62
     0
100
AcDbMText
 10
0.0
 20
-0.0495142709
 30
0.0
 40
0.2291666667
 41
0.0
 71
     1
 72
     1
  1
5280 JOHN LUCAS DRIVE, BURLINGTON, ON, L7L 5Z9
  7
SLDTEXTSTYLE0
 73
     1
 44
1.0
  0
ENDBLK
  5
D8
330
D6
100
AcDbEntity
  8
0
100
AcDbBlockEnd
  0
BLOCK
  5
DD
330
DC
100
AcDbEntity
  8
0
100
AcDbBlockBegin
  2
SW_NOTE_0_1
 70
     0
 10
0.0
 20
0.0
 30
0.0
  3
SW_NOTE_0_1
  1

  0
MTEXT
  5
E0
330
DC
100
AcDbEntity
  8
NOTES
 62
     0
100
AcDbMText
 10
0.0
 20
0.2381282771
 30
0.0
 40
0.184729064
 41
0.0
 71
     1
 72
     1
  1
PROPRIETARY AND CONFIDENTIAL
  7
SLDTEXTSTYLE2
 73
     1
 44
1.0
  0
MTEXT
  5
E2
330
DC
100
AcDbEntity
  8
NOTES
 62
     0
100
AcDbMText
 10
0.0
 20
-0.0504364796
 30
0.0
 40
0.25
 41
0.0
 71
     1
 72
     1
  1
THE INFORMATION CONTAINED IN THIS DRAWING IS THE SOLE PROPERTY OF 
  7
SLDTEXTSTYLE3
 73
     1
 44
1.0
  0
MTEXT
  5
E3
330
DC
100
AcDbEntity
  8
NOTES
 62
     0
100
AcDbMText
 10
0.0
 20
-0.4231398941
 30
0.0
 40
0.25
 41
0.0
 71
     1
 72
     1
  1
FROST PRODUCTS LTD.  ANY REPRODUCTION IN PART OR AS A WHOLE WITHOUT 
  7
SLDTEXTSTYLE3
 73
     1
 44
1.0
  0
MTEXT
  5
E4
330
DC
100
AcDbEntity
  8
NOTES
 62
     0
100
AcDbMText
 10
0.0
 20
-0.7958433086
 30
0.0
 40
0.25
 41
0.0
 71
     1
 72
     1
  1
THE WRITTEN PERMISSION OF FROST PRODUCTS LTD. IS PROHIBITED.
  7
SLDTEXTSTYLE3
 73
     1
 44
1.0
  0
ENDBLK
  5
DE
330
DC
100
AcDbEntity
  8
0
100
AcDbBlockEnd
  0
BLOCK
  5
1FB
330
1FA
100
AcDbEntity
  8
0
100
AcDbBlockBegin
  2
_Open90
 70
     0
 10
0.0
 20
0.0
 30
0.0
  3
_Open90
  1

  0
LINE
  5
1FD
330
1FA
100
AcDbEntity
  8
0
  6
ByBlock
 62
     0
370
    -2
100
AcDbLine
 10
-0.5
 20
0.5
 30
0.0
 11
0.0
 21
0.0
 31
0.0
  0
LINE
  5
1FE
330
1FA
100
AcDbEntity
  8
0
  6
ByBlock
 62
     0
370
    -2
100
AcDbLine
 10
0.0
 20
0.0
 30
0.0
 11
-0.5
 21
-0.5
 31
0.0
  0
LINE
  5
1FF
330
1FA
100
AcDbEntity
  8
0
  6
ByBlock
 62
     0
370
    -2
100
AcDbLine
 10
0.0
 20
0.0
 30
0.0
 11
-1.0
 21
0.0
 31
0.0
  0
ENDBLK
  5
1FC
330
1FA
100
AcDbEntity
  8
0
100
AcDbBlockEnd
  0
BLOCK
  5
201
330
200
100
AcDbEntity
  8
0
100
AcDbBlockBegin
  2
_D
 70
     0
 10
0.0
 20
0.0
 30
0.0
  3
_D
  1

  0
INSERT
  5
203
330
200
100
AcDbEntity
  8
DIMS
100
AcDbBlockReference
  2
_Open90
 10
17.5352564718
 20
9.4014638679
 30
-2.1986
 41
0.3
 42
0.3
 50
90.0
  0
INSERT
  5
204
330
200
100
AcDbEntity
  8
DIMS
100
AcDbBlockReference
  2
_Open90
 10
17.5352564718
 20
6.7064638679
 30
-2.1986
 41
0.3
 42
0.3
 50
270.0
  0
LINE
  5
205
330
200
100
AcDbEntity
  8
DIMS
100
AcDbLine
 10
17.4470620115
 20
8.0585300282
 30
0.0
 11
17.7050481362
 21
8.0585300282
 31
0.0
  0
LINE
  5
206
330
200
100
AcDbEntity
  8
DIMS
100
AcDbLine
 10
16.902964859
 20
9.4014638679
 30
0.0
 11
17.9102564718
 21
9.4014638679
 31
0.0
  0
LINE
  5
207
330
200
100
AcDbEntity
  8
DIMS
100
AcDbLine
 10
16.902964859
 20
6.7064638679
 30
0.0
 11
17.9102564718
 21
6.7064638679
 31
0.0
  0
LINE
  5
208
330
200
100
AcDbEntity
  8
DIMS
100
AcDbLine
 10
17.5352564718
 20
9.4014638679
 30
0.0
 11
17.5352564718
 21
8.3598147557
 31
0.0
  0
LINE
  5
209
330
200
100
AcDbEntity
  8
DIMS
100
AcDbLine
 10
17.5352564718
 20
6.7064638679
 30
0.0
 11
17.5352564718
 21
7.7059606024
 31
0.0
  0
MTEXT
  5
20A
330
200
100
AcDbEntity
  8
DIMS
100
AcDbMText
 10
17.2257078377
 20
8.1732305584
 30
0.0
 40
0.25
 41
0.0
 71
     1
 72
     1
  1
2
  7
SLDTEXTSTYLE1
 73
     1
 44
1.0
  0
MTEXT
  5
20B
330
200
100
AcDbEntity
  8
DIMS
100
AcDbMText
 10
17.4836939624
 20
8.355886808
 30
0.0
 40
0.25
 41
0.0
 71
     1
 72
     1
  1
3
  7
SLDTEXTSTYLE1
 73
     1
 44
1.0
  0
MTEXT
  5
20C
330
200
100
AcDbEntity
  8
DIMS
100
AcDbMText
 10
17.4836939624
 20
8.0252965187
 30
0.0
 40
0.25
 41
0.0
 71
     1
 72
     1
  1
4
  7
SLDTEXTSTYLE1
 73
     1
 44
1.0
  0
MTEXT
  5
20D
330
200
100
AcDbEntity
  8
DIMS
100
AcDbMText
 10
17.7416800872
 20
8.1732305584
 30
0.0
 40
0.25
 41
0.0
 71
     1
 72
     1
  1
"
  7
SLDTEXTSTYLE1
 73
     1
 44
1.0
  0
ENDBLK
  5
202
330
200
100
AcDbEntity
  8
0
100
AcDbBlockEnd
  0
BLOCK
  5
255
330
254
100
AcDbEntity
  8
0
100
AcDbBlockBegin
  2
_D_1
 70
     0
 10
0.0
 20
0.0
 30
0.0
  3
_D_1
  1

  0
INSERT
  5
257
330
254
100
AcDbEntity
  8
DIMS
100
AcDbBlockReference
  2
_Open90
 10
19.5778072698
 20
10.0251452936
 30
-2.5525
 41
0.3
 42
0.3
 50
180.0
  0
INSERT
  5
258
330
254
100
AcDbEntity
  8
DIMS
100
AcDbBlockReference
  2
_Open90
 10
23.9250072698
 20
10.0251452936
 30
-2.5525
 41
0.3
 42
0.3
 50
0.0
  0
LINE
  5
259
330
254
100
AcDbEntity
  8
DIMS
100
AcDbLine
 10
21.9214833106
 20
10.0507876428
 30
0.0
 11
22.1794694353
 21
10.0507876428
 31
0.0
  0
LINE
  5
25A
330
254
100
AcDbEntity
  8
DIMS
100
AcDbLine
 10
19.5778072698
 20
8.2181305345
 30
0.0
 11
19.5778072698
 21
10.4001452936
 31
0.0
  0
LINE
  5
25B
330
254
100
AcDbEntity
  8
DIMS
100
AcDbLine
 10
23.9250072698
 20
9.3990935149
 30
0.0
 11
23.9250072698
 21
10.4001452936
 31
0.0
  0
LINE
  5
25C
330
254
100
AcDbEntity
  8
DIMS
100
AcDbLine
 10
19.5778072698
 20
10.0251452936
 30
0.0
 11
21.7001291369
 21
10.0251452936
 31
0.0
  0
LINE
  5
25D
330
254
100
AcDbEntity
  8
DIMS
100
AcDbLine
 10
23.9250072698
 20
10.0251452936
 30
0.0
 11
22.319226405
 21
10.0251452936
 31
0.0
  0
MTEXT
  5
25E
330
254
100
AcDbEntity
  8
DIMS
100
AcDbMText
 10
21.7001291369
 20
10.165488173
 30
0.0
 40
0.25
 41
0.0
 71
     1
 72
     1
  1
4
  7
SLDTEXTSTYLE1
 73
     1
 44
1.0
  0
MTEXT
  5
25F
330
254
100
AcDbEntity
  8
DIMS
100
AcDbMText
 10
21.9581152616
 20
10.3481444226
 30
0.0
 40
0.25
 41
0.0
 71
     1
 72
     1
  1
3
  7
SLDTEXTSTYLE1
 73
     1
 44
1.0
  0
MTEXT
  5
260
330
254
100
AcDbEntity
  8
DIMS
100
AcDbMText
 10
21.9581152616
 20
10.0175541333
 30
0.0
 40
0.25
 41
0.0
 71
     1
 72
     1
  1
8
  7
SLDTEXTSTYLE1
 73
     1
 44
1.0
  0
MTEXT
  5
261
330
254
100
AcDbEntity
  8
DIMS
100
AcDbMText
 10
22.2161013863
 20
10.165488173
 30
0.0
 40
0.25
 41
0.0
 71
     1
 72
     1
  1
"
  7
SLDTEXTSTYLE1
 73
     1
 44
1.0
  0
ENDBLK
  5
256
330
254
100
AcDbEntity
  8
0
100
AcDbBlockEnd
  0
BLOCK
  5
363
330
362
100
AcDbEntity
  8
0
100
AcDbBlockBegin
  2
_D_2
 70
     0
 10
0.0
 20
0.0
 30
0.0
  3
_D_2
  1

  0
INSERT
  5
365
330
362
100
AcDbEntity
  8
DIMS
100
AcDbBlockReference
  2
_Open90
 10
37.2030064872
 20
10.2196990542
 30
0.0
 41
0.3
 42
0.3
 50
0.0
  0
INSERT
  5
366
330
362
100
AcDbEntity
  8
DIMS
100
AcDbBlockReference
  2
_Open90
 10
27.4485064872
 20
10.2196990542
 30
0.0
 41
0.3
 42
0.3
 50
180.0
  0
LINE
  5
367
330
362
100
AcDbEntity
  8
DIMS
100
AcDbLine
 10
31.7191085617
 20
10.2453414034
 30
0.0
 11
31.9770946864
 21
10.2453414034
 31
0.0
  0
LINE
  5
368
330
362
100
AcDbEntity
  8
DIMS
100
AcDbLine
 10
37.2030064872
 20
8.3181305345
 30
0.0
 11
37.2030064872
 21
10.5946990542
 31
0.0
  0
LINE
  5
369
330
362
100
AcDbEntity
  8
DIMS
100
AcDbLine
 10
27.4485064872
 20
8.3181305345
 30
0.0
 11
27.4485064872
 21
10.5946990542
 31
0.0
  0
LINE
  5
36A
330
362
100
AcDbEntity
  8
DIMS
100
AcDbLine
 10
37.2030064872
 20
10.2196990542
 30
0.0
 11
32.1168516561
 21
10.2196990542
 31
0.0
  0
LINE
  5
36B
330
362
100
AcDbEntity
  8
DIMS
100
AcDbLine
 10
27.4485064872
 20
10.2196990542
 30
0.0
 11
31.497754388
 21
10.2196990542
 31
0.0
  0
MTEXT
  5
36C
330
362
100
AcDbEntity
  8
DIMS
100
AcDbMText
 10
31.497754388
 20
10.3600419336
 30
0.0
 40
0.25
 41
0.0
 71
     1
 72
     1
  1
9
  7
SLDTEXTSTYLE1
 73
     1
 44
1.0
  0
MTEXT
  5
36D
330
362
100
AcDbEntity
  8
DIMS
100
AcDbMText
 10
31.7557405127
 20
10.5426981831
 30
0.0
 40
0.25
 41
0.0
 71
     1
 72
     1
  1
3
  7
SLDTEXTSTYLE1
 73
     1
 44
1.0
  0
MTEXT
  5
36E
330
362
100
AcDbEntity
  8
DIMS
100
AcDbMText
 10
31.7557405127
 20
10.2121078938
 30
0.0
 40
0.25
 41
0.0
 71
     1
 72
     1
  1
4
  7
SLDTEXTSTYLE1
 73
     1
 44
1.0
  0
MTEXT
  5
36F
330
362
100
AcDbEntity
  8
DIMS
100
AcDbMText
 10
32.0137266374
 20
10.3600419336
 30
0.0
 40
0.25
 41
0.0
 71
     1
 72
     1
  1
"
  7
SLDTEXTSTYLE1
 73
     1
 44
1.0
  0
ENDBLK
  5
364
330
362
100
AcDbEntity
  8
0
100
AcDbBlockEnd
  0
BLOCK
  5
373
330
372
100
AcDbEntity
  8
0
100
AcDbBlockBegin
  2
_D_3
 70
     0
 10
0.0
 20
0.0
 30
0.0
  3
_D_3
  1

  0
INSERT
  5
375
330
372
100
AcDbEntity
  8
DIMS
100
AcDbBlockReference
  2
_Open90
 10
25.6195556998
 20
9.4014638679
 30
2.1986
 41
0.3
 42
0.3
 50
270.0
  0
INSERT
  5
376
330
372
100
AcDbEntity
  8
DIMS
100
AcDbBlockReference
  2
_Open90
 10
25.6195556998
 20
8.0514638679
 30
2.1986
 41
0.3
 42
0.3
 50
90.0
  0
LINE
  5
377
330
372
100
AcDbEntity
  8
DIMS
100
AcDbLine
 10
25.5313612394
 20
8.7521062171
 30
0.0
 11
25.7893473641
 21
8.7521062171
 31
0.0
  0
LINE
  5
378
330
372
100
AcDbEntity
  8
DIMS
100
AcDbLine
 10
26.0156268401
 20
9.4014638679
 30
0.0
 11
25.2445556998
 21
9.4014638679
 31
0.0
  0
LINE
  5
379
330
372
100
AcDbEntity
  8
DIMS
100
AcDbLine
 10
27.0358398205
 20
8.0514638679
 30
0.0
 11
25.2445556998
 21
8.0514638679
 31
0.0
  0
LINE
  5
37A
330
372
100
AcDbEntity
  8
DIMS
100
AcDbLine
 10
25.6195556998
 20
9.4014638679
 30
0.0
 11
25.6195556998
 21
9.8014638679
 31
0.0
  0
LINE
  5
37B
330
372
100
AcDbEntity
  8
DIMS
100
AcDbLine
 10
25.6195556998
 20
8.0514638679
 30
0.0
 11
25.6195556998
 21
7.6514638679
 31
0.0
  0
MTEXT
  5
37C
330
372
100
AcDbEntity
  8
DIMS
100
AcDbMText
 10
25.3100070657
 20
8.8668067473
 30
0.0
 40
0.25
 41
0.0
 71
     1
 72
     1
  1
1
  7
SLDTEXTSTYLE1
 73
     1
 44
1.0
  0
MTEXT
  5
37D
330
372
100
AcDbEntity
  8
DIMS
100
AcDbMText
 10
25.5679931904
 20
9.0494629968
 30
0.0
 40
0.25
 41
0.0
 71
     1
 72
     1
  1
3
  7
SLDTEXTSTYLE1
 73
     1
 44
1.0
  0
MTEXT
  5
37E
330
372
100
AcDbEntity
  8
DIMS
100
AcDbMText
 10
25.5679931904
 20
8.7188727075
 30
0.0
 40
0.25
 41
0.0
 71
     1
 72
     1
  1
8
  7
SLDTEXTSTYLE1
 73
     1
 44
1.0
  0
MTEXT
  5
37F
330
372
100
AcDbEntity
  8
DIMS
100
AcDbMText
 10
25.8259793151
 20
8.8668067473
 30
0.0
 40
0.25
 41
0.0
 71
     1
 72
     1
  1
"
  7
SLDTEXTSTYLE1
 73
     1
 44
1.0
  0
ENDBLK
  5
374
330
372
100
AcDbEntity
  8
0
100
AcDbBlockEnd
  0
BLOCK
  5
383
330
382
100
AcDbEntity
  8
0
100
AcDbBlockBegin
  2
_D_4
 70
     0
 10
0.0
 20
0.0
 30
0.0
  3
_D_4
  1

  0
INSERT
  5
385
330
382
100
AcDbEntity
  8
DIMS
100
AcDbBlockReference
  2
_Open90
 10
27.1548460342
 20
8.1393756488
 30
2.1986
 41
0.3
 42
0.3
 50
298.4638723167
  0
LINE
  5
386
330
382
100
AcDbEntity
  8
DIMS
100
AcDbLine
 10
25.2106005155
 20
10.5564733103
 30
0.0
 11
25.4685866403
 21
10.5564733103
 31
0.0
  0
LINE
  5
387
330
382
100
AcDbEntity
  8
DIMS
100
AcDbLine
 10
27.1548460342
 20
8.1393756488
 30
0.0
 11
25.8583435366
 21
10.5308309611
 31
0.0
  0
LINE
  5
388
330
382
100
AcDbEntity
  8
DIMS
100
AcDbLine
 10
25.8583435366
 20
10.5308309611
 30
0.0
 11
25.6083435366
 21
10.5308309611
 31
0.0
  0
MTEXT
  5
389
330
382
100
AcDbEntity
  8
DIMS
100
AcDbMText
 10
24.7969373234
 20
10.6673543959
 30
0.0
 40
0.25
 41
0.0
 71
     1
 72
     1
  1
%%c
  7
SLDTEXTSTYLE1
 73
     1
 44
1.0
  0
MTEXT
  5
38A
330
382
100
AcDbEntity
  8
DIMS
100
AcDbMText
 10
25.2472324665
 20
10.8538300901
 30
0.0
 40
0.25
 41
0.0
 71
     1
 72
     1
  1
1
  7
SLDTEXTSTYLE1
 73
     1
 44
1.0
  0
MTEXT
  5
38B
330
382
100
AcDbEntity
  8
DIMS
100
AcDbMText
 10
25.2472324665
 20
10.5232398008
 30
0.0
 40
0.25
 41
0.0
 71
     1
 72
     1
  1
4
  7
SLDTEXTSTYLE1
 73
     1
 44
1.0
  0
MTEXT
  5
38C
330
382
100
AcDbEntity
  8
DIMS
100
AcDbMText
 10
25.5052185546
 20
10.6711738405
 30
0.0
 40
0.25
 41
0.0
 71
     1
 72
     1
  1
"
  7
SLDTEXTSTYLE1
 73
     1
 44
1.0
  0
ENDBLK
  5
384
330
382
100
AcDbEntity
  8
0
100
AcDbBlockEnd
  0
BLOCK
  5
420
330
41F
100
AcDbEntity
  8
0
100
AcDbBlockBegin
  2
_D_5
 70
     0
 10
0.0
 20
0.0
 30
0.0
  3
_D_5
  1

  0
INSERT
  5
422
330
41F
100
AcDbEntity
  8
DIMS
100
AcDbBlockReference
  2
_Open90
 10
4.2803352119
 20
18.4500939755
 30
-1.3475
 41
0.3
 42
0.3
 50
180.0
  0
INSERT
  5
423
330
41F
100
AcDbEntity
  8
DIMS
100
AcDbBlockReference
  2
_Open90
 10
16.9053352119
 20
18.4500939755
 30
-1.3475
 41
0.3
 42
0.3
 50
0.0
  0
LINE
  5
424
330
41F
100
AcDbEntity
  8
DIMS
100
AcDbLine
 10
9.4061147304
 20
18.4757363247
 30
0.0
 11
9.6641008551
 21
18.4757363247
 31
0.0
  0
LINE
  5
425
330
41F
100
AcDbEntity
  8
DIMS
100
AcDbLine
 10
4.2803352119
 20
17.7506189099
 30
0.0
 11
4.2803352119
 21
18.8250939755
 31
0.0
  0
LINE
  5
426
330
41F
100
AcDbEntity
  8
DIMS
100
AcDbLine
 10
16.9053352119
 20
17.7506189099
 30
0.0
 11
16.9053352119
 21
18.8250939755
 31
0.0
  0
LINE
  5
427
330
41F
100
AcDbEntity
  8
DIMS
100
AcDbLine
 10
4.2803352119
 20
18.4500939755
 30
0.0
 11
9.0000383339
 21
18.4500939755
 31
0.0
  0
LINE
  5
428
330
41F
100
AcDbEntity
  8
DIMS
100
AcDbLine
 10
16.9053352119
 20
18.4500939755
 30
0.0
 11
9.8038577881
 21
18.4500939755
 31
0.0
  0
MTEXT
  5
429
330
41F
100
AcDbEntity
  8
DIMS
100
AcDbMText
 10
9.0000383339
 20
18.5904368549
 30
0.0
 40
0.25
 41
0.0
 71
     1
 72
     1
  1
12
  7
SLDTEXTSTYLE1
 73
     1
 44
1.0
  0
MTEXT
  5
42A
330
41F
100
AcDbEntity
  8
DIMS
100
AcDbMText
 10
9.4427466814
 20
18.7730931045
 30
0.0
 40
0.25
 41
0.0
 71
     1
 72
     1
  1
5
  7
SLDTEXTSTYLE1
 73
     1
 44
1.0
  0
MTEXT
  5
42B
330
41F
100
AcDbEntity
  8
DIMS
100
AcDbMText
 10
9.4427466814
 20
18.4425028152
 30
0.0
 40
0.25
 41
0.0
 71
     1
 72
     1
  1
8
  7
SLDTEXTSTYLE1
 73
     1
 44
1.0
  0
MTEXT
  5
42C
330
41F
100
AcDbEntity
  8
DIMS
100
AcDbMText
 10
9.7007328061
 20
18.5904368549
 30
0.0
 40
0.25
 41
0.0
 71
     1
 72
     1
  1
"
  7
SLDTEXTSTYLE1
 73
     1
 44
1.0
  0
ENDBLK
  5
421
330
41F
100
AcDbEntity
  8
0
100
AcDbBlockEnd
  0
ENDSEC
  0
SECTION
  2
ENTITIES
  0
LINE
  5
7A
330
1F
100
AcDbEntity
  8
OBJECT
370
    25
100
AcDbLine
 10
35.8742466099
 20
14.4306954356
 30
0.0
 11
35.8742466099
 21
14.1755264319
 31
0.0
  0
LINE
  5
7B
330
1F
100
AcDbEntity
  8
TITLE
370
    50
100
AcDbLine
 10
24.518223024
 20
1.4876117645
 30
0.0
 11
41.4999864512
 21
1.4876117645
 31
0.0
  0
LINE
  5
7C
330
1F
100
AcDbEntity
  8
TITLE
370
    50
100
AcDbLine
 10
41.4999317442
 20
5.4753603936
 30
0.0
 11
31.3105350723
 21
5.4753603936
 31
0.0
  0
LINE
  5
7D
330
1F
100
AcDbEntity
  8
TITLE
  6
SLD-Solid
370
    18
100
AcDbLine
 10
0.5
 20
0.5
 30
0.0
 11
0.5
 21
23.5
 31
0.0
  0
LINE
  5
7E
330
1F
100
AcDbEntity
  8
TITLE
  6
SLD-Solid
370
    18
100
AcDbLine
 10
0.5
 20
23.5
 30
0.0
 11
41.5
 21
23.5
 31
0.0
  0
LINE
  5
7F
330
1F
100
AcDbEntity
  8
TITLE
370
    50
100
AcDbLine
 10
24.518223024
 20
2.5427877231
 30
0.0
 11
17.5059791203
 21
2.5427877231
 31
0.0
  0
LINE
  5
80
330
1F
100
AcDbEntity
  8
TITLE
370
    50
100
AcDbLine
 10
24.518223024
 20
1.4876117645
 30
0.0
 11
17.5059791203
 21
1.4876117645
 31
0.0
  0
LINE
  5
81
330
1F
100
AcDbEntity
  8
TITLE
  6
SLD-Solid
370
    18
100
AcDbLine
 10
41.5
 20
23.5
 30
0.0
 11
41.5
 21
0.5
 31
0.0
  0
LINE
  5
82
330
1F
100
AcDbEntity
  8
TITLE
  6
SLD-Solid
370
    18
100
AcDbLine
 10
41.5
 20
0.5
 30
0.0
 11
0.5
 21
0.5
 31
0.0
  0
LINE
  5
83
330
1F
100
AcDbEntity
  8
TITLE
370
    50
100
AcDbLine
 10
24.518223024
 20
1.4876117645
 30
0.0
 11
24.518223024
 21
3.5979636817
 31
0.0
  0
LINE
  5
84
330
1F
100
AcDbEntity
  8
TITLE
370
    50
100
AcDbLine
 10
17.5059791203
 20
3.5979636817
 30
0.0
 11
17.5059791203
 21
0.5
 31
0.0
  0
LINE
  5
85
330
1F
100
AcDbEntity
  8
TITLE
370
    50
100
AcDbLine
 10
17.5059791203
 20
0.5
 30
0.0
 11
41.5
 21
0.5
 31
0.0
  0
LINE
  5
86
330
1F
100
AcDbEntity
  8
TITLE
370
    50
100
AcDbLine
 10
41.4999317442
 20
5.4753603936
 30
0.0
 11
41.5
 21
0.5
 31
0.0
  0
LINE
  5
87
330
1F
100
AcDbEntity
  8
TITLE
  6
SLD-Solid
370
    18
100
AcDbLine
 10
0.4999606299
 20
12.0
 30
0.0
 11
0.5000393701
 21
12.0
 31
0.0
  0
LINE
  5
88
330
1F
100
AcDbEntity
  8
TITLE
370
    50
100
AcDbLine
 10
24.518223024
 20
3.5979636817
 30
0.0
 11
17.5059791203
 21
3.5979636817
 31
0.0
  0
LINE
  5
89
330
1F
100
AcDbEntity
  8
TITLE
370
    50
100
AcDbLine
 10
24.518223024
 20
3.5979636817
 30
0.0
 11
41.4997615643
 21
3.5979648343
 31
0.0
  0
LINE
  5
8A
330
1F
100
AcDbEntity
  8
TITLE
370
    50
100
AcDbLine
 10
31.3105350723
 20
5.4753603936
 30
0.0
 11
31.3105350723
 21
0.4636772425
 31
0.0
  0
LINE
  5
8B
330
1F
100
AcDbEntity
  8
TITLE
  6
SLD-Solid
370
    18
100
AcDbLine
 10
21.0
 20
23.5000393701
 30
0.0
 11
21.0
 21
23.4999606299
 31
0.0
  0
LINE
  5
8C
330
1F
100
AcDbEntity
  8
TITLE
  6
SLD-Solid
370
    18
100
AcDbLine
 10
41.5000393701
 20
12.0
 30
0.0
 11
41.4999606299
 21
12.0
 31
0.0
  0
LINE
  5
8D
330
1F
100
AcDbEntity
  8
TITLE
  6
SLD-Solid
370
    18
100
AcDbLine
 10
21.0
 20
0.4999606299
 30
0.0
 11
21.0
 21
0.5000393701
 31
0.0
  0
LINE
  5
8E
330
1F
100
AcDbEntity
  8
TITLE
  6
SLD-Solid
370
    18
100
AcDbLine
 10
0.5
 20
2.157480315
 30
0.0
 11
0.1653543307
 21
2.157480315
 31
0.0
  0
LINE
  5
8F
330
1F
100
AcDbEntity
  8
TITLE
  6
SLD-Solid
370
    18
100
AcDbLine
 10
41.5
 20
2.157480315
 30
0.0
 11
41.8346456693
 21
2.157480315
 31
0.0
  0
LINE
  5
90
330
1F
100
AcDbEntity
  8
TITLE
  6
SLD-Solid
370
    18
100
AcDbLine
 10
0.5
 20
4.125984252
 30
0.0
 11
0.1653543307
 21
4.125984252
 31
0.0
  0
LINE
  5
91
330
1F
100
AcDbEntity
  8
TITLE
  6
SLD-Solid
370
    18
100
AcDbLine
 10
41.5
 20
4.125984252
 30
0.0
 11
41.8346456693
 21
4.125984252
 31
0.0
  0
LINE
  5
92
330
1F
100
AcDbEntity
  8
TITLE
  6
SLD-Solid
370
    18
100
AcDbLine
 10
0.5
 20
6.094488189
 30
0.0
 11
0.1653543307
 21
6.094488189
 31
0.0
  0
LINE
  5
93
330
1F
100
AcDbEntity
  8
TITLE
  6
SLD-Solid
370
    18
100
AcDbLine
 10
41.5
 20
6.094488189
 30
0.0
 11
41.8346456693
 21
6.094488189
 31
0.0
  0
LINE
  5
94
330
1F
100
AcDbEntity
  8
TITLE
  6
SLD-Solid
370
    18
100
AcDbLine
 10
0.5
 20
8.062992126
 30
0.0
 11
0.1653543307
 21
8.062992126
 31
0.0
  0
LINE
  5
95
330
1F
100
AcDbEntity
  8
TITLE
  6
SLD-Solid
370
    18
100
AcDbLine
 10
41.5
 20
8.062992126
 30
0.0
 11
41.8346456693
 21
8.062992126
 31
0.0
  0
LINE
  5
96
330
1F
100
AcDbEntity
  8
TITLE
  6
SLD-Solid
370
    18
100
AcDbLine
 10
0.5
 20
10.031496063
 30
0.0
 11
0.1653543307
 21
10.031496063
 31
0.0
  0
LINE
  5
97
330
1F
100
AcDbEntity
  8
TITLE
  6
SLD-Solid
370
    18
100
AcDbLine
 10
41.5
 20
10.031496063
 30
0.0
 11
41.8346456693
 21
10.031496063
 31
0.0
  0
LINE
  5
98
330
1F
100
AcDbEntity
  8
TITLE
  6
SLD-Solid
370
    18
100
AcDbLine
 10
0.5
 20
12.0
 30
0.0
 11
0.1653543307
 21
12.0
 31
0.0
  0
LINE
  5
99
330
1F
100
AcDbEntity
  8
TITLE
  6
SLD-Solid
370
    18
100
AcDbLine
 10
41.5
 20
12.0
 30
0.0
 11
41.8346456693
 21
12.0
 31
0.0
  0
LINE
  5
9A
330
1F
100
AcDbEntity
  8
TITLE
  6
SLD-Solid
370
    18
100
AcDbLine
 10
0.5
 20
13.968503937
 30
0.0
 11
0.1653543307
 21
13.968503937
 31
0.0
  0
LINE
  5
9B
330
1F
100
AcDbEntity
  8
TITLE
  6
SLD-Solid
370
    18
100
AcDbLine
 10
41.5
 20
13.968503937
 30
0.0
 11
41.8346456693
 21
13.968503937
 31
0.0
  0
LINE
  5
9C
330
1F
100
AcDbEntity
  8
TITLE
  6
SLD-Solid
370
    18
100
AcDbLine
 10
0.5
 20
15.937007874
 30
0.0
 11
0.1653543307
 21
15.937007874
 31
0.0
  0
LINE
  5
9D
330
1F
100
AcDbEntity
  8
TITLE
  6
SLD-Solid
370
    18
100
AcDbLine
 10
41.5
 20
15.937007874
 30
0.0
 11
41.8346456693
 21
15.937007874
 31
0.0
  0
LINE
  5
9E
330
1F
100
AcDbEntity
  8
TITLE
  6
SLD-Solid
370
    18
100
AcDbLine
 10
0.5
 20
17.905511811
 30
0.0
 11
0.1653543307
 21
17.905511811
 31
0.0
  0
LINE
  5
9F
330
1F
100
AcDbEntity
  8
TITLE
  6
SLD-Solid
370
    18
100
AcDbLine
 10
41.5
 20
17.905511811
 30
0.0
 11
41.8346456693
 21
17.905511811
 31
0.0
  0
LINE
  5
A0
330
1F
100
AcDbEntity
  8
TITLE
  6
SLD-Solid
370
    18
100
AcDbLine
 10
0.5
 20
19.874015748
 30
0.0
 11
0.1653543307
 21
19.874015748
 31
0.0
  0
LINE
  5
A1
330
1F
100
AcDbEntity
  8
TITLE
  6
SLD-Solid
370
    18
100
AcDbLine
 10
41.5
 20
19.874015748
 30
0.0
 11
41.8346456693
 21
19.874015748
 31
0.0
  0
LINE
  5
A2
330
1F
100
AcDbEntity
  8
TITLE
  6
SLD-Solid
370
    18
100
AcDbLine
 10
0.5
 20
21.842519685
 30
0.0
 11
0.1653543307
 21
21.842519685
 31
0.0
  0
LINE
  5
A3
330
1F
100
AcDbEntity
  8
TITLE
  6
SLD-Solid
370
    18
100
AcDbLine
 10
41.5
 20
21.842519685
 30
0.0
 11
41.8346456693
 21
21.842519685
 31
0.0
  0
LINE
  5
A4
330
1F
100
AcDbEntity
  8
TITLE
  6
SLD-Solid
370
    18
100
AcDbLine
 10
3.2834645669
 20
23.5
 30
0.0
 11
3.2834645669
 21
23.8346456693
 31
0.0
  0
LINE
  5
A5
330
1F
100
AcDbEntity
  8
TITLE
  6
SLD-Solid
370
    18
100
AcDbLine
 10
3.2834645669
 20
0.5
 30
0.0
 11
3.2834645669
 21
0.1653543307
 31
0.0
  0
LINE
  5
A6
330
1F
100
AcDbEntity
  8
TITLE
  6
SLD-Solid
370
    18
100
AcDbLine
 10
5.2519685039
 20
23.5
 30
0.0
 11
5.2519685039
 21
23.8346456693
 31
0.0
  0
LINE
  5
A7
330
1F
100
AcDbEntity
  8
TITLE
  6
SLD-Solid
370
    18
100
AcDbLine
 10
5.2519685039
 20
0.5
 30
0.0
 11
5.2519685039
 21
0.1653543307
 31
0.0
  0
LINE
  5
A8
330
1F
100
AcDbEntity
  8
TITLE
  6
SLD-Solid
370
    18
100
AcDbLine
 10
7.2204724409
 20
23.5
 30
0.0
 11
7.2204724409
 21
23.8346456693
 31
0.0
  0
LINE
  5
A9
330
1F
100
AcDbEntity
  8
TITLE
  6
SLD-Solid
370
    18
100
AcDbLine
 10
7.2204724409
 20
0.5
 30
0.0
 11
7.2204724409
 21
0.1653543307
 31
0.0
  0
LINE
  5
AA
330
1F
100
AcDbEntity
  8
TITLE
  6
SLD-Solid
370
    18
100
AcDbLine
 10
9.188976378
 20
23.5
 30
0.0
 11
9.188976378
 21
23.8346456693
 31
0.0
  0
LINE
  5
AB
330
1F
100
AcDbEntity
  8
TITLE
  6
SLD-Solid
370
    18
100
AcDbLine
 10
9.188976378
 20
0.5
 30
0.0
 11
9.188976378
 21
0.1653543307
 31
0.0
  0
LINE
  5
AC
330
1F
100
AcDbEntity
  8
TITLE
  6
SLD-Solid
370
    18
100
AcDbLine
 10
11.157480315
 20
23.5
 30
0.0
 11
11.157480315
 21
23.8346456693
 31
0.0
  0
LINE
  5
AD
330
1F
100
AcDbEntity
  8
TITLE
  6
SLD-Solid
370
    18
100
AcDbLine
 10
11.157480315
 20
0.5
 30
0.0
 11
11.157480315
 21
0.1653543307
 31
0.0
  0
LINE
  5
AE
330
1F
100
AcDbEntity
  8
TITLE
  6
SLD-Solid
370
    18
100
AcDbLine
 10
13.125984252
 20
23.5
 30
0.0
 11
13.125984252
 21
23.8346456693
 31
0.0
  0
LINE
  5
AF
330
1F
100
AcDbEntity
  8
TITLE
  6
SLD-Solid
370
    18
100
AcDbLine
 10
13.125984252
 20
0.5
 30
0.0
 11
13.125984252
 21
0.1653543307
 31
0.0
  0
LINE
  5
B0
330
1F
100
AcDbEntity
  8
TITLE
  6
SLD-Solid
370
    18
100
AcDbLine
 10
15.094488189
 20
23.5
 30
0.0
 11
15.094488189
 21
23.8346456693
 31
0.0
  0
LINE
  5
B1
330
1F
100
AcDbEntity
  8
TITLE
  6
SLD-Solid
370
    18
100
AcDbLine
 10
15.094488189
 20
0.5
 30
0.0
 11
15.094488189
 21
0.1653543307
 31
0.0
  0
LINE
  5
B2
330
1F
100
AcDbEntity
  8
TITLE
  6
SLD-Solid
370
    18
100
AcDbLine
 10
17.062992126
 20
23.5
 30
0.0
 11
17.062992126
 21
23.8346456693
 31
0.0
  0
LINE
  5
B3
330
1F
100
AcDbEntity
  8
TITLE
  6
SLD-Solid
370
    18
100
AcDbLine
 10
17.062992126
 20
0.5
 30
0.0
 11
17.062992126
 21
0.1653543307
 31
0.0
  0
LINE
  5
B4
330
1F
100
AcDbEntity
  8
TITLE
  6
SLD-Solid
370
    18
100
AcDbLine
 10
19.031496063
 20
23.5
 30
0.0
 11
19.031496063
 21
23.8346456693
 31
0.0
  0
LINE
  5
B5
330
1F
100
AcDbEntity
  8
TITLE
  6
SLD-Solid
370
    18
100
AcDbLine
 10
19.031496063
 20
0.5
 30
0.0
 11
19.031496063
 21
0.1653543307
 31
0.0
  0
LINE
  5
B6
330
1F
100
AcDbEntity
  8
TITLE
  6
SLD-Solid
370
    18
100
AcDbLine
 10
21.0
 20
23.5
 30
0.0
 11
21.0
 21
23.8346456693
 31
0.0
  0
LINE
  5
B7
330
1F
100
AcDbEntity
  8
TITLE
  6
SLD-Solid
370
    18
100
AcDbLine
 10
21.0
 20
0.5
 30
0.0
 11
21.0
 21
0.1653543307
 31
0.0
  0
LINE
  5
B8
330
1F
100
AcDbEntity
  8
TITLE
  6
SLD-Solid
370
    18
100
AcDbLine
 10
22.968503937
 20
23.5
 30
0.0
 11
22.968503937
 21
23.8346456693
 31
0.0
  0
LINE
  5
B9
330
1F
100
AcDbEntity
  8
TITLE
  6
SLD-Solid
370
    18
100
AcDbLine
 10
22.968503937
 20
0.5
 30
0.0
 11
22.968503937
 21
0.1653543307
 31
0.0
  0
LINE
  5
BA
330
1F
100
AcDbEntity
  8
TITLE
  6
SLD-Solid
370
    18
100
AcDbLine
 10
24.937007874
 20
23.5
 30
0.0
 11
24.937007874
 21
23.8346456693
 31
0.0
  0
LINE
  5
BB
330
1F
100
AcDbEntity
  8
TITLE
  6
SLD-Solid
370
    18
100
AcDbLine
 10
24.937007874
 20
0.5
 30
0.0
 11
24.937007874
 21
0.1653543307
 31
0.0
  0
LINE
  5
BC
330
1F
100
AcDbEntity
  8
TITLE
  6
SLD-Solid
370
    18
100
AcDbLine
 10
26.905511811
 20
23.5
 30
0.0
 11
26.905511811
 21
23.8346456693
 31
0.0
  0
LINE
  5
BD
330
1F
100
AcDbEntity
  8
TITLE
  6
SLD-Solid
370
    18
100
AcDbLine
 10
26.905511811
 20
0.5
 30
0.0
 11
26.905511811
 21
0.1653543307
 31
0.0
  0
LINE
  5
BE
330
1F
100
AcDbEntity
  8
TITLE
  6
SLD-Solid
370
    18
100
AcDbLine
 10
28.874015748
 20
23.5
 30
0.0
 11
28.874015748
 21
23.8346456693
 31
0.0
  0
LINE
  5
BF
330
1F
100
AcDbEntity
  8
TITLE
  6
SLD-Solid
370
    18
100
AcDbLine
 10
28.874015748
 20
0.5
 30
0.0
 11
28.874015748
 21
0.1653543307
 31
0.0
  0
LINE
  5
C0
330
1F
100
AcDbEntity
  8
TITLE
  6
SLD-Solid
370
    18
100
AcDbLine
 10
30.842519685
 20
23.5
 30
0.0
 11
30.842519685
 21
23.8346456693
 31
0.0
  0
LINE
  5
C1
330
1F
100
AcDbEntity
  8
TITLE
  6
SLD-Solid
370
    18
100
AcDbLine
 10
30.842519685
 20
0.5
 30
0.0
 11
30.842519685
 21
0.1653543307
 31
0.0
  0
LINE
  5
C2
330
1F
100
AcDbEntity
  8
TITLE
  6
SLD-Solid
370
    18
100
AcDbLine
 10
32.811023622
 20
23.5
 30
0.0
 11
32.811023622
 21
23.8346456693
 31
0.0
  0
LINE
  5
C3
330
1F
100
AcDbEntity
  8
TITLE
  6
SLD-Solid
370
    18
100
AcDbLine
 10
32.811023622
 20
0.5
 30
0.0
 11
32.811023622
 21
0.1653543307
 31
0.0
  0
LINE
  5
C4
330
1F
100
AcDbEntity
  8
TITLE
  6
SLD-Solid
370
    18
100
AcDbLine
 10
34.7795275591
 20
23.5
 30
0.0
 11
34.7795275591
 21
23.8346456693
 31
0.0
  0
LINE
  5
C5
330
1F
100
AcDbEntity
  8
TITLE
  6
SLD-Solid
370
    18
100
AcDbLine
 10
34.7795275591
 20
0.5
 30
0.0
 11
34.7795275591
 21
0.1653543307
 31
0.0
  0
LINE
  5
C6
330
1F
100
AcDbEntity
  8
TITLE
  6
SLD-Solid
370
    18
100
AcDbLine
 10
36.7480314961
 20
23.5
 30
0.0
 11
36.7480314961
 21
23.8346456693
 31
0.0
  0
LINE
  5
C7
330
1F
100
AcDbEntity
  8
TITLE
  6
SLD-Solid
370
    18
100
AcDbLine
 10
36.7480314961
 20
0.5
 30
0.0
 11
36.7480314961
 21
0.1653543307
 31
0.0
  0
LINE
  5
C8
330
1F
100
AcDbEntity
  8
TITLE
  6
SLD-Solid
370
    18
100
AcDbLine
 10
38.7165354331
 20
23.5
 30
0.0
 11
38.7165354331
 21
23.8346456693
 31
0.0
  0
LINE
  5
C9
330
1F
100
AcDbEntity
  8
TITLE
  6
SLD-Solid
370
    18
100
AcDbLine
 10
38.7165354331
 20
0.5
 30
0.0
 11
38.7165354331
 21
0.1653543307
 31
0.0
  0
CIRCLE
  5
CA
330
1F
100
AcDbEntity
  8
OBJECT
370
    25
100
AcDbCircle
 10
6.1605852119
 20
8.0514638679
 30
0.0
 40
0.0951197777956165
  0
ELLIPSE
  5
CB
330
1F
100
AcDbEntity
  8
OBJECT
100
AcDbEllipse
 10
26.2285991076
 20
17.1887031534
 30
0.0
 11
-0.04755602383100666
 21
0.08237837534979775
 31
0.0
210
0.0
220
0.0
230
1.0
 40
0.5773815452
 41
0.0
 42
6.283185307179586
  0
MTEXT
  5
CD
330
1F
100
AcDbEntity
  8
NOTES
100
AcDbMText
 10
18.408297803
 20
1.0702903347
 30
0.0
 40
0.25
 41
0.0
 71
     1
 72
     1
  1
UNLESS OTHERWISE SPECIFIED DIMENSIONS ARE IN INCHES.
  7
SLDTEXTSTYLE0
 73
     1
 44
1.0
  0
MTEXT
  5
CE
330
1F
100
AcDbEntity
  8
NOTES
100
AcDbMText
 10
18.4300699279
 20
3.0830627776
 30
0.0
 40
0.25
 41
0.0
 71
     1
 72
     1
  1
DATE:
  7
SLDTEXTSTYLE0
 73
     1
 44
1.0
  0
MTEXT
  5
CF
330
1F
100
AcDbEntity
  8
NOTES
100
AcDbMText
 10
20.538701188
 20
2.1930329637
 30
0.0
 40
0.25
 41
0.0
 71
     2
 72
     1
  1
DO NOT SCALE DRAWING
  7
SLDTEXTSTYLE0
 73
     1
 44
1.0
  0
MTEXT
  5
D1
330
1F
100
AcDbEntity
  8
NOTES
100
AcDbMText
 10
24.8307373075
 20
3.2682755553
 30
0.0
 40
0.25
 41
0.0
 71
     1
 72
     1
  1
TITLE:
  7
SLDTEXTSTYLE1
 73
     1
 44
1.0
  0
MTEXT
  5
D2
330
1F
100
AcDbEntity
  8
NOTES
100
AcDbMText
 10
32.1561831052
 20
3.2682755553
 30
0.0
 40
0.25
 41
0.0
 71
     1
 72
     1
  1
DWG NO.
  7
SLDTEXTSTYLE1
 73
     1
 44
1.0
  0
MTEXT
  5
D3
330
1F
100
AcDbEntity
  8
NOTES
100
AcDbMText
 10
32.1831753203
 20
1.0645815577
 30
0.0
 40
0.25
 41
0.0
 71
     1
 72
     1
  1
SCALE:     1:1
  7
SLDTEXTSTYLE1
 73
     1
 44
1.0
  0
MTEXT
  5
D4
330
1F
100
AcDbEntity
  8
NOTES
100
AcDbMText
 10
36.1810602905
 20
2.6510344295
 30
0.0
 40
0.25
 41
0.0
 71
     2
 72
     1
  1
126 CAD
  7
SLDTEXTSTYLE1
 73
     1
 44
1.0
  0
MTEXT
  5
D5
330
1F
100
AcDbEntity
  8
NOTES
100
AcDbMText
 10
28.4553234014
 20
2.6510344295
 30
0.0
 40
0.25
 41
0.0
 71
     2
 72
     1
  1
paper towel holder
  7
SLDTEXTSTYLE1
 73
     1
 44
1.0
  0
INSERT
  5
DB
330
1F
100
AcDbEntity
  8
NOTES
100
AcDbBlockReference
  2
SW_NOTE_0
 10
32.266131557
 20
4.6105227838
 30
0.0
  0
INSERT
  5
E5
330
1F
100
AcDbEntity
  8
NOTES
100
AcDbBlockReference
  2
SW_NOTE_0_1
 10
18.6159726246
 20
5.1481526848
 30
0.0
  0
MTEXT
  5
E6
330
1F
100
AcDbEntity
  8
NOTES
100
AcDbMText
 10
21.5045602264
 20
3.0864733268
 30
0.0
 40
0.25
 41
0.0
 71
     2
 72
     1
  1
September 15, 2021
  7
SLDTEXTSTYLE1
 73
     1
 44
1.0
  0
MTEXT
  5
E7
330
1F
100
AcDbEntity
  8
TITLE
100
AcDbMText
 10
0.3276279776
 20
1.408618102
 30
0.0
 40
0.125
 41
0.0
 71
     2
 72
     1
  1
A
  7
SLDTEXTSTYLE1
 73
     1
 44
1.0
  0
MTEXT
  5
E8
330
1F
100
AcDbEntity
  8
TITLE
100
AcDbMText
 10
41.6622736469
 20
1.408618102
 30
0.0
 40
0.125
 41
0.0
 71
     2
 72
     1
  1
A
  7
SLDTEXTSTYLE1
 73
     1
 44
1.0
  0
MTEXT
  5
E9
330
1F
100
AcDbEntity
  8
TITLE
100
AcDbMText
 10
0.3317512413
 20
3.221610228
 30
0.0
 40
0.125
 41
0.0
 71
     2
 72
     1
  1
B
  7
SLDTEXTSTYLE1
 73
     1
 44
1.0
  0
MTEXT
  5
EA
330
1F
100
AcDbEntity
  8
TITLE
100
AcDbMText
 10
41.6663969106
 20
3.221610228
 30
0.0
 40
0.125
 41
0.0
 71
     2
 72
     1
  1
B
  7
SLDTEXTSTYLE1
 73
     1
 44
1.0
  0
MTEXT
  5
EB
330
1F
100
AcDbEntity
  8
TITLE
100
AcDbMText
 10
0.3313750817
 20
5.190114165
 30
0.0
 40
0.125
 41
0.0
 71
     2
 72
     1
  1
C
  7
SLDTEXTSTYLE1
 73
     1
 44
1.0
  0
MTEXT
  5
EC
330
1F
100
AcDbEntity
  8
TITLE
100
AcDbMText
 10
41.666020751
 20
5.190114165
 30
0.0
 40
0.125
 41
0.0
 71
     2
 72
     1
  1
C
  7
SLDTEXTSTYLE1
 73
     1
 44
1.0
  0
MTEXT
  5
ED
330
1F
100
AcDbEntity
  8
TITLE
100
AcDbMText
 10
0.3311870028
 20
7.158618102
 30
0.0
 40
0.125
 41
0.0
 71
     2
 72
     1
  1
D
  7
SLDTEXTSTYLE1
 73
     1
 44
1.0
  0
MTEXT
  5
EE
330
1F
100
AcDbEntity
  8
TITLE
100
AcDbMText
 10
41.6658326721
 20
7.158618102
 30
0.0
 40
0.125
 41
0.0
 71
     2
 72
     1
  1
D
  7
SLDTEXTSTYLE1
 73
     1
 44
1.0
  0
MTEXT
  5
EF
330
1F
100
AcDbEntity
  8
TITLE
100
AcDbMText
 10
0.332923116
 20
9.127122039
 30
0.0
 40
0.125
 41
0.0
 71
     2
 72
     1
  1
E
  7
SLDTEXTSTYLE1
 73
     1
 44
1.0
  0
MTEXT
  5
F0
330
1F
100
AcDbEntity
  8
TITLE
100
AcDbMText
 10
41.6675687853
 20
9.127122039
 30
0.0
 40
0.125
 41
0.0
 71
     2
 72
     1
  1
E
  7
SLDTEXTSTYLE1
 73
     1
 44
1.0
  0
MTEXT
  5
F1
330
1F
100
AcDbEntity
  8
TITLE
100
AcDbMText
 10
0.3313461474
 20
11.095625976
 30
0.0
 40
0.125
 41
0.0
 71
     2
 72
     1
  1
F
  7
SLDTEXTSTYLE1
 73
     1
 44
1.0
  0
MTEXT
  5
F2
330
1F
100
AcDbEntity
  8
TITLE
100
AcDbMText
 10
41.6659918167
 20
11.095625976
 30
0.0
 40
0.125
 41
0.0
 71
     2
 72
     1
  1
F
  7
SLDTEXTSTYLE1
 73
     1
 44
1.0
  0
MTEXT
  5
F3
330
1F
100
AcDbEntity
  8
TITLE
100
AcDbMText
 10
0.3322576054
 20
13.064129913
 30
0.0
 40
0.125
 41
0.0
 71
     2
 72
     1
  1
G
  7
SLDTEXTSTYLE1
 73
     1
 44
1.0
  0
MTEXT
  5
F4
330
1F
100
AcDbEntity
  8
TITLE
100
AcDbMText
 10
41.6669032747
 20
13.064129913
 30
0.0
 40
0.125
 41
0.0
 71
     2
 72
     1
  1
G
  7
SLDTEXTSTYLE1
 73
     1
 44
1.0
  0
MTEXT
  5
F5
330
1F
100
AcDbEntity
  8
TITLE
100
AcDbMText
 10
0.3323733457
 20
15.03263385
 30
0.0
 40
0.125
 41
0.0
 71
     2
 72
     1
  1
H
  7
SLDTEXTSTYLE1
 73
     1
 44
1.0
  0
MTEXT
  5
F6
330
1F
100
AcDbEntity
  8
TITLE
100
AcDbMText
 10
41.667019015
 20
15.03263385
 30
0.0
 40
0.125
 41
0.0
 71
     2
 72
     1
  1
H
  7
SLDTEXTSTYLE1
 73
     1
 44
1.0
  0
MTEXT
  5
F7
330
1F
100
AcDbEntity
  8
TITLE
100
AcDbMText
 10
0.3315776306
 20
17.001137787
 30
0.0
 40
0.125
 41
0.0
 71
     2
 72
     1
  1
J
  7
SLDTEXTSTYLE1
 73
     1
 44
1.0
  0
MTEXT
  5
F8
330
1F
100
AcDbEntity
  8
TITLE
100
AcDbMText
 10
41.6662232999
 20
17.001137787
 30
0.0
 40
0.125
 41
0.0
 71
     2
 72
     1
  1
J
  7
SLDTEXTSTYLE1
 73
     1
 44
1.0
  0
MTEXT
  5
F9
330
1F
100
AcDbEntity
  8
TITLE
100
AcDbMText
 10
0.3323154765
 20
18.969641724
 30
0.0
 40
0.125
 41
0.0
 71
     2
 72
     1
  1
K
  7
SLDTEXTSTYLE1
 73
     1
 44
1.0
  0
MTEXT
  5
FA
330
1F
100
AcDbEntity
  8
TITLE
100
AcDbMText
 10
41.6669611458
 20
18.969641724
 30
0.0
 40
0.125
 41
0.0
 71
     2
 72
     1
  1
K
  7
SLDTEXTSTYLE1
 73
     1
 44
1.0
  0
MTEXT
  5
FB
330
1F
100
AcDbEntity
  8
TITLE
100
AcDbMText
 10
0.3312448739
 20
20.9381456611
 30
0.0
 40
0.125
 41
0.0
 71
     2
 72
     1
  1
L
  7
SLDTEXTSTYLE1
 73
     1
 44
1.0
  0
MTEXT
  5
FC
330
1F
100
AcDbEntity
  8
TITLE
100
AcDbMText
 10
41.6658905432
 20
20.9381456611
 30
0.0
 40
0.125
 41
0.0
 71
     2
 72
     1
  1
L
  7
SLDTEXTSTYLE1
 73
     1
 44
1.0
  0
MTEXT
  5
FD
330
1F
100
AcDbEntity
  8
TITLE
100
AcDbMText
 10
0.3283224192
 20
22.751137787
 30
0.0
 40
0.125
 41
0.0
 71
     2
 72
     1
  1
M
  7
SLDTEXTSTYLE1
 73
     1
 44
1.0
  0
MTEXT
  5
FE
330
1F
100
AcDbEntity
  8
TITLE
100
AcDbMText
 10
41.6629680885
 20
22.751137787
 30
0.0
 40
0.125
 41
0.0
 71
     2
 72
     1
  1
M
  7
SLDTEXTSTYLE1
 73
     1
 44
1.0
  0
MTEXT
  5
FF
330
1F
100
AcDbEntity
  8
TITLE
100
AcDbMText
 10
1.8892149221
 20
0.4125551099
 30
0.0
 40
0.125
 41
0.0
 71
     2
 72
     1
  1
20
  7
SLDTEXTSTYLE1
 73
     1
 44
1.0
  0
MTEXT
  5
100
330
1F
100
AcDbEntity
  8
TITLE
100
AcDbMText
 10
1.8892149221
 20
23.7472007792
 30
0.0
 40
0.125
 41
0.0
 71
     2
 72
     1
  1
20
  7
SLDTEXTSTYLE1
 73
     1
 44
1.0
  0
MTEXT
  5
101
330
1F
100
AcDbEntity
  8
TITLE
100
AcDbMText
 10
4.2651991741
 20
0.4125551099
 30
0.0
 40
0.125
 41
0.0
 71
     2
 72
     1
  1
19
  7
SLDTEXTSTYLE1
 73
     1
 44
1.0
  0
MTEXT
  5
102
330
1F
100
AcDbEntity
  8
TITLE
100
AcDbMText
 10
4.2651991741
 20
23.7472007792
 30
0.0
 40
0.125
 41
0.0
 71
     2
 72
     1
  1
19
  7
SLDTEXTSTYLE1
 73
     1
 44
1.0
  0
MTEXT
  5
103
330
1F
100
AcDbEntity
  8
TITLE
100
AcDbMText
 10
6.2337031111
 20
0.4125551099
 30
0.0
 40
0.125
 41
0.0
 71
     2
 72
     1
  1
18
  7
SLDTEXTSTYLE1
 73
     1
 44
1.0
  0
MTEXT
  5
104
330
1F
100
AcDbEntity
  8
TITLE
100
AcDbMText
 10
6.2337031111
 20
23.7472007792
 30
0.0
 40
0.125
 41
0.0
 71
     2
 72
     1
  1
18
  7
SLDTEXTSTYLE1
 73
     1
 44
1.0
  0
MTEXT
  5
105
330
1F
100
AcDbEntity
  8
TITLE
100
AcDbMText
 10
8.2022070481
 20
0.4125551099
 30
0.0
 40
0.125
 41
0.0
 71
     2
 72
     1
  1
17
  7
SLDTEXTSTYLE1
 73
     1
 44
1.0
  0
MTEXT
  5
106
330
1F
100
AcDbEntity
  8
TITLE
100
AcDbMText
 10
8.2022070481
 20
23.7472007792
 30
0.0
 40
0.125
 41
0.0
 71
     2
 72
     1
  1
17
  7
SLDTEXTSTYLE1
 73
     1
 44
1.0
  0
MTEXT
  5
107
330
1F
100
AcDbEntity
  8
TITLE
100
AcDbMText
 10
10.1707109851
 20
0.4125551099
 30
0.0
 40
0.125
 41
0.0
 71
     2
 72
     1
  1
16
  7
SLDTEXTSTYLE1
 73
     1
 44
1.0
  0
MTEXT
  5
108
330
1F
100
AcDbEntity
  8
TITLE
100
AcDbMText
 10
10.1707109851
 20
23.7472007792
 30
0.0
 40
0.125
 41
0.0
 71
     2
 72
     1
  1
16
  7
SLDTEXTSTYLE1
 73
     1
 44
1.0
  0
MTEXT
  5
109
330
1F
100
AcDbEntity
  8
TITLE
100
AcDbMText
 10
12.1392149221
 20
0.4125551099
 30
0.0
 40
0.125
 41
0.0
 71
     2
 72
     1
  1
15
  7
SLDTEXTSTYLE1
 73
     1
 44
1.0
  0
MTEXT
  5
10A
330
1F
100
AcDbEntity
  8
TITLE
100
AcDbMText
 10
12.1392149221
 20
23.7472007792
 30
0.0
 40
0.125
 41
0.0
 71
     2
 72
     1
  1
15
  7
SLDTEXTSTYLE1
 73
     1
 44
1.0
  0
MTEXT
  5
10B
330
1F
100
AcDbEntity
  8
TITLE
100
AcDbMText
 10
14.1077188591
 20
0.4125551099
 30
0.0
 40
0.125
 41
0.0
 71
     2
 72
     1
  1
14
  7
SLDTEXTSTYLE1
 73
     1
 44
1.0
  0
MTEXT
  5
10C
330
1F
100
AcDbEntity
  8
TITLE
100
AcDbMText
 10
14.1077188591
 20
23.7472007792
 30
0.0
 40
0.125
 41
0.0
 71
     2
 72
     1
  1
14
  7
SLDTEXTSTYLE1
 73
     1
 44
1.0
  0
MTEXT
  5
10D
330
1F
100
AcDbEntity
  8
TITLE
100
AcDbMText
 10
16.0762227961
 20
0.4125551099
 30
0.0
 40
0.125
 41
0.0
 71
     2
 72
     1
  1
13
  7
SLDTEXTSTYLE1
 73
     1
 44
1.0
  0
MTEXT
  5
10E
330
1F
100
AcDbEntity
  8
TITLE
100
AcDbMText
 10
16.0762227961
 20
23.7472007792
 30
0.0
 40
0.125
 41
0.0
 71
     2
 72
     1
  1
13
  7
SLDTEXTSTYLE1
 73
     1
 44
1.0
  0
MTEXT
  5
10F
330
1F
100
AcDbEntity
  8
TITLE
100
AcDbMText
 10
18.0447267331
 20
0.4125551099
 30
0.0
 40
0.125
 41
0.0
 71
     2
 72
     1
  1
12
  7
SLDTEXTSTYLE1
 73
     1
 44
1.0
  0
MTEXT
  5
110
330
1F
100
AcDbEntity
  8
TITLE
100
AcDbMText
 10
18.0447267331
 20
23.7472007792
 30
0.0
 40
0.125
 41
0.0
 71
     2
 72
     1
  1
12
  7
SLDTEXTSTYLE1
 73
     1
 44
1.0
  0
MTEXT
  5
111
330
1F
100
AcDbEntity
  8
TITLE
100
AcDbMText
 10
20.0132306701
 20
0.4125551099
 30
0.0
 40
0.125
 41
0.0
 71
     2
 72
     1
  1
11
  7
SLDTEXTSTYLE1
 73
     1
 44
1.0
  0
MTEXT
  5
112
330
1F
100
AcDbEntity
  8
TITLE
100
AcDbMText
 10
20.0132306701
 20
23.7472007792
 30
0.0
 40
0.125
 41
0.0
 71
     2
 72
     1
  1
11
  7
SLDTEXTSTYLE1
 73
     1
 44
1.0
  0
MTEXT
  5
113
330
1F
100
AcDbEntity
  8
TITLE
100
AcDbMText
 10
21.9817346071
 20
0.4125551099
 30
0.0
 40
0.125
 41
0.0
 71
     2
 72
     1
  1
10
  7
SLDTEXTSTYLE1
 73
     1
 44
1.0
  0
MTEXT
  5
114
330
1F
100
AcDbEntity
  8
TITLE
100
AcDbMText
 10
21.9817346071
 20
23.7472007792
 30
0.0
 40
0.125
 41
0.0
 71
     2
 72
     1
  1
10
  7
SLDTEXTSTYLE1
 73
     1
 44
1.0
  0
MTEXT
  5
115
330
1F
100
AcDbEntity
  8
TITLE
100
AcDbMText
 10
23.9514972248
 20
0.4125551099
 30
0.0
 40
0.125
 41
0.0
 71
     2
 72
     1
  1
9
  7
SLDTEXTSTYLE1
 73
     1
 44
1.0
  0
MTEXT
  5
116
330
1F
100
AcDbEntity
  8
TITLE
100
AcDbMText
 10
23.9514972248
 20
23.7472007792
 30
0.0
 40
0.125
 41
0.0
 71
     2
 72
     1
  1
9
  7
SLDTEXTSTYLE1
 73
     1
 44
1.0
  0
MTEXT
  5
117
330
1F
100
AcDbEntity
  8
TITLE
100
AcDbMText
 10
25.9200011618
 20
0.4125551099
 30
0.0
 40
0.125
 41
0.0
 71
     2
 72
     1
  1
8
  7
SLDTEXTSTYLE1
 73
     1
 44
1.0
  0
MTEXT
  5
118
330
1F
100
AcDbEntity
  8
TITLE
100
AcDbMText
 10
25.9200011618
 20
23.7472007792
 30
0.0
 40
0.125
 41
0.0
 71
     2
 72
     1
  1
8
  7
SLDTEXTSTYLE1
 73
     1
 44
1.0
  0
MTEXT
  5
119
330
1F
100
AcDbEntity
  8
TITLE
100
AcDbMText
 10
27.8885050988
 20
0.4125551099
 30
0.0
 40
0.125
 41
0.0
 71
     2
 72
     1
  1
7
  7
SLDTEXTSTYLE1
 73
     1
 44
1.0
  0
MTEXT
  5
11A
330
1F
100
AcDbEntity
  8
TITLE
100
AcDbMText
 10
27.8885050988
 20
23.7472007792
 30
0.0
 40
0.125
 41
0.0
 71
     2
 72
     1
  1
7
  7
SLDTEXTSTYLE1
 73
     1
 44
1.0
  0
MTEXT
  5
11B
330
1F
100
AcDbEntity
  8
TITLE
100
AcDbMText
 10
29.8570090359
 20
0.4125551099
 30
0.0
 40
0.125
 41
0.0
 71
     2
 72
     1
  1
6
  7
SLDTEXTSTYLE1
 73
     1
 44
1.0
  0
MTEXT
  5
11C
330
1F
100
AcDbEntity
  8
TITLE
100
AcDbMText
 10
29.8570090359
 20
23.7472007792
 30
0.0
 40
0.125
 41
0.0
 71
     2
 72
     1
  1
6
  7
SLDTEXTSTYLE1
 73
     1
 44
1.0
  0
MTEXT
  5
11D
330
1F
100
AcDbEntity
  8
TITLE
100
AcDbMText
 10
31.8255129729
 20
0.4125551099
 30
0.0
 40
0.125
 41
0.0
 71
     2
 72
     1
  1
5
  7
SLDTEXTSTYLE1
 73
     1
 44
1.0
  0
MTEXT
  5
11E
330
1F
100
AcDbEntity
  8
TITLE
100
AcDbMText
 10
31.8255129729
 20
23.7472007792
 30
0.0
 40
0.125
 41
0.0
 71
     2
 72
     1
  1
5
  7
SLDTEXTSTYLE1
 73
     1
 44
1.0
  0
MTEXT
  5
11F
330
1F
100
AcDbEntity
  8
TITLE
100
AcDbMText
 10
33.7940169099
 20
0.4125551099
 30
0.0
 40
0.125
 41
0.0
 71
     2
 72
     1
  1
4
  7
SLDTEXTSTYLE1
 73
     1
 44
1.0
  0
MTEXT
  5
120
330
1F
100
AcDbEntity
  8
TITLE
100
AcDbMText
 10
33.7940169099
 20
23.7472007792
 30
0.0
 40
0.125
 41
0.0
 71
     2
 72
     1
  1
4
  7
SLDTEXTSTYLE1
 73
     1
 44
1.0
  0
MTEXT
  5
121
330
1F
100
AcDbEntity
  8
TITLE
100
AcDbMText
 10
35.7625208469
 20
0.4125551099
 30
0.0
 40
0.125
 41
0.0
 71
     2
 72
     1
  1
3
  7
SLDTEXTSTYLE1
 73
     1
 44
1.0
  0
MTEXT
  5
122
330
1F
100
AcDbEntity
  8
TITLE
100
AcDbMText
 10
35.7625208469
 20
23.7472007792
 30
0.0
 40
0.125
 41
0.0
 71
     2
 72
     1
  1
3
  7
SLDTEXTSTYLE1
 73
     1
 44
1.0
  0
MTEXT
  5
123
330
1F
100
AcDbEntity
  8
TITLE
100
AcDbMText
 10
37.7310247839
 20
0.4125551099
 30
0.0
 40
0.125
 41
0.0
 71
     2
 72
     1
  1
2
  7
SLDTEXTSTYLE1
 73
     1
 44
1.0
  0
MTEXT
  5
124
330
1F
100
AcDbEntity
  8
TITLE
100
AcDbMText
 10
37.7310247839
 20
23.7472007792
 30
0.0
 40
0.125
 41
0.0
 71
     2
 72
     1
  1
2
  7
SLDTEXTSTYLE1
 73
     1
 44
1.0
  0
MTEXT
  5
125
330
1F
100
AcDbEntity
  8
TITLE
100
AcDbMText
 10
40.1070090359
 20
0.4125551099
 30
0.0
 40
0.125
 41
0.0
 71
     2
 72
     1
  1
1
  7
SLDTEXTSTYLE1
 73
     1
 44
1.0
  0
MTEXT
  5
126
330
1F
100
AcDbEntity
  8
TITLE
100
AcDbMText
 10
40.1070090359
 20
23.7472007792
 30
0.0
 40
0.125
 41
0.0
 71
     2
 72
     1
  1
1
  7
SLDTEXTSTYLE1
 73
     1
 44
1.0
  0
LINE
  5
127
330
1F
100
AcDbEntity
  8
0
  6
SLD-Solid
 62
     7
370
    25
100
AcDbLine
 10
5.0440593683
 20
9.2814638679
 30
0.0
 11
5.0440593683
 21
9.2999349034
 31
0.0
  0
LINE
  5
128
330
1F
100
AcDbEntity
  8
0
  6
SLD-Solid
 62
     7
370
    25
100
AcDbLine
 10
4.7316110556
 20
9.2999349034
 30
0.0
 11
4.7316110556
 21
9.2814638679
 31
0.0
  0
ARC
  5
129
330
1F
100
AcDbEntity
  8
0
  6
SLD-Solid
 62
     7
370
    25
100
AcDbCircle
 10
4.8878352119
 20
9.026856434
 30
0.0
 40
0.3146074338901318
100
AcDbArc
 50
60.2267646167
 51
119.7732353833
  0
LINE
  5
12A
330
1F
100
AcDbEntity
  8
0
  6
SLD-Solid
 62
     7
370
    25
100
AcDbLine
 10
4.7940852119
 20
9.2814638679
 30
0.0
 11
4.7940852119
 21
9.2314638679
 31
0.0
  0
LINE
  5
12B
330
1F
100
AcDbEntity
  8
0
  6
SLD-Solid
 62
     7
370
    25
100
AcDbLine
 10
4.7940852119
 20
9.1814638679
 30
0.0
 11
4.7940852119
 21
9.1319638679
 31
0.0
  0
LINE
  5
12C
330
1F
100
AcDbEntity
  8
0
  6
SLD-Solid
 62
     7
370
    25
100
AcDbLine
 10
4.9815852119
 20
8.9814638679
 30
0.0
 11
4.9815852119
 21
9.066408764
 31
0.0
  0
LINE
  5
12D
330
1F
100
AcDbEntity
  8
0
  6
SLD-Solid
 62
     7
370
    25
100
AcDbLine
 10
4.9815852119
 20
9.1319638679
 30
0.0
 11
4.9815852119
 21
9.1814638679
 31
0.0
  0
LINE
  5
12E
330
1F
100
AcDbEntity
  8
0
  6
SLD-Solid
 62
     7
370
    25
100
AcDbLine
 10
4.9815852119
 20
9.2314638679
 30
0.0
 11
4.9815852119
 21
9.2814638679
 31
0.0
  0
LINE
  5
12F
330
1F
100
AcDbEntity
  8
0
  6
SLD-Solid
 62
     7
370
    25
100
AcDbLine
 10
4.7316110556
 20
6.8264638679
 30
0.0
 11
4.7316110556
 21
6.8079928324
 31
0.0
  0
LINE
  5
130
330
1F
100
AcDbEntity
  8
0
  6
SLD-Solid
 62
     7
370
    25
100
AcDbLine
 10
5.0440593683
 20
6.8079928324
 30
0.0
 11
5.0440593683
 21
6.8264638679
 31
0.0
  0
ARC
  5
131
330
1F
100
AcDbEntity
  8
0
  6
SLD-Solid
 62
     7
370
    25
100
AcDbCircle
 10
4.8878352119
 20
7.0810713018
 30
0.0
 40
0.3146074338901326
100
AcDbArc
 50
240.2267646167
 51
299.7732353833
  0
LINE
  5
132
330
1F
100
AcDbEntity
  8
0
  6
SLD-Solid
 62
     7
370
    25
100
AcDbLine
 10
4.9815852119
 20
6.8264638679
 30
0.0
 11
4.9815852119
 21
6.8764638679
 31
0.0
  0
LINE
  5
133
330
1F
100
AcDbEntity
  8
0
  6
SLD-Solid
 62
     7
370
    25
100
AcDbLine
 10
4.9815852119
 20
6.9264638679
 30
0.0
 11
4.9815852119
 21
6.9759638679
 31
0.0
  0
LINE
  5
134
330
1F
100
AcDbEntity
  8
0
  6
SLD-Solid
 62
     7
370
    25
100
AcDbLine
 10
4.9815852119
 20
7.0415189717
 30
0.0
 11
4.9815852119
 21
7.1264638679
 31
0.0
  0
LINE
  5
135
330
1F
100
AcDbEntity
  8
0
  6
SLD-Solid
 62
     7
370
    25
100
AcDbLine
 10
4.7940852119
 20
6.9759638679
 30
0.0
 11
4.7940852119
 21
6.9264638679
 31
0.0
  0
LINE
  5
136
330
1F
100
AcDbEntity
  8
0
  6
SLD-Solid
 62
     7
370
    25
100
AcDbLine
 10
4.7940852119
 20
6.8764638679
 30
0.0
 11
4.7940852119
 21
6.8264638679
 31
0.0
  0
LINE
  5
137
330
1F
100
AcDbEntity
  8
0
  6
SLD-Solid
 62
     7
370
    25
100
AcDbLine
 10
16.1566985009
 20
7.1764638679
 30
0.0
 11
16.2022734016
 21
7.1764638679
 31
0.0
  0
LINE
  5
138
330
1F
100
AcDbEntity
  8
0
  6
SLD-Solid
 62
     7
370
    25
100
AcDbLine
 10
16.2022734016
 20
8.9264638679
 30
0.0
 11
16.1566985009
 21
8.9264638679
 31
0.0
  0
CIRCLE
  5
139
330
1F
100
AcDbEntity
  8
0
  6
SLD-Solid
 62
     7
370
    25
100
AcDbCircle
 10
6.5730852119
 20
8.0514638679
 30
0.0
 40
0.0952500000000001
  0
LINE
  5
13A
330
1F
100
AcDbEntity
  8
0
  6
SLD-Solid
 62
     7
370
    25
100
AcDbLine
 10
6.1605852119
 20
8.1467138679
 30
0.0
 11
6.1557221256
 21
8.1465896419
 31
0.0
  0
ARC
  5
13B
330
1F
100
AcDbEntity
  8
0
  6
SLD-Solid
 62
     7
370
    25
100
AcDbCircle
 10
6.1605852119
 20
8.0514638679
 30
0.0
 40
0.0952500000000001
100
AcDbArc
 50
267.0734328875
 51
90.0
  0
ARC
  5
13C
330
1F
100
AcDbEntity
  8
0
  6
SLD-Solid
 62
     7
370
    25
100
AcDbCircle
 10
16.4255852119
 20
8.8364638679
 30
0.0
 40
0.0500000000000006
100
AcDbArc
 50
90.0
 51
168.9173680777
  0
ARC
  5
13D
330
1F
100
AcDbEntity
  8
0
  6
SLD-Solid
 62
     7
370
    25
100
AcDbCircle
 10
16.4255852119
 20
7.2664638679
 30
0.0
 40
0.0500000000000006
100
AcDbArc
 50
191.0826319223
 51
270.0
  0
LINE
  5
13E
330
1F
100
AcDbEntity
  8
0
  6
SLD-Solid
 62
     7
370
    25
100
AcDbLine
 10
16.4655852119
 20
8.8864638679
 30
0.0
 11
16.4255852119
 21
8.8864638679
 31
0.0
  0
LINE
  5
13F
330
1F
100
AcDbEntity
  8
0
  6
SLD-Solid
 62
     7
370
    25
100
AcDbLine
 10
16.4255852119
 20
7.2164638679
 30
0.0
 11
16.4655852119
 21
7.2164638679
 31
0.0
  0
ARC
  5
140
330
1F
100
AcDbEntity
  8
0
  6
SLD-Solid
 62
     7
370
    25
100
AcDbCircle
 10
16.4655852119
 20
8.8364638679
 30
0.0
 40
0.0500000000000007
100
AcDbArc
 50
0.0
 51
90.0
  0
ARC
  5
141
330
1F
100
AcDbEntity
  8
0
  6
SLD-Solid
 62
     7
370
    25
100
AcDbCircle
 10
16.4655852119
 20
7.2664638679
 30
0.0
 40
0.0500000000000007
100
AcDbArc
 50
270.0
 51
0.0
  0
ARC
  5
142
330
1F
100
AcDbEntity
  8
0
  6
SLD-Solid
 62
     7
370
    25
100
AcDbCircle
 10
16.3887845503
 20
8.8436722866
 30
0.0
 40
0.0124999999999993
100
AcDbArc
 50
168.9173680777
 51
180.0
  0
ARC
  5
143
330
1F
100
AcDbEntity
  8
0
  6
SLD-Solid
 62
     7
370
    25
100
AcDbCircle
 10
16.3887845503
 20
7.2592554492
 30
0.0
 40
0.0124999999999994
100
AcDbArc
 50
180.0
 51
191.0826319223
  0
LINE
  5
144
330
1F
100
AcDbEntity
  8
0
  6
SLD-Solid
 62
     7
370
    25
100
AcDbLine
 10
16.3762845503
 20
8.8436722866
 30
0.0
 11
16.3762845503
 21
7.2592554492
 31
0.0
  0
LWPOLYLINE
  5
145
330
1F
100
AcDbEntity
  8
0
  6
SLD-Solid
 62
     7
370
    25
100
AcDbPolyline
 90
        3
 70
   128
 43
0.0
 10
16.3730852119
 20
7.3854638679
 10
16.375523841
 20
7.3852236839
 10
16.3762845503
 20
7.3850475028
  0
LWPOLYLINE
  5
146
330
1F
100
AcDbEntity
  8
0
  6
SLD-Solid
 62
     7
370
    25
100
AcDbPolyline
 90
        3
 70
   128
 43
0.0
 10
16.3762845503
 20
8.7178802329
 10
16.375523841
 20
8.7177040519
 10
16.3730852119
 20
8.7174638679
  0
ARC
  5
147
330
1F
100
AcDbEntity
  8
0
  6
SLD-Solid
 62
     7
370
    25
100
AcDbCircle
 10
15.9605852119
 20
7.4604638679
 30
0.0
 40
0.0750000000000002
100
AcDbArc
 50
180.0
 51
270.0
  0
ARC
  5
148
330
1F
100
AcDbEntity
  8
0
  6
SLD-Solid
 62
     7
370
    25
100
AcDbCircle
 10
15.9605852119
 20
8.6424638679
 30
0.0
 40
0.0749999999999993
100
AcDbArc
 50
90.0
 51
180.0
  0
LINE
  5
149
330
1F
100
AcDbEntity
  8
0
  6
SLD-Solid
 62
     7
370
    25
100
AcDbLine
 10
16.3730852119
 20
8.7174638679
 30
0.0
 11
16.1651665541
 21
8.7174638679
 31
0.0
  0
LINE
  5
14A
330
1F
100
AcDbEntity
  8
0
  6
SLD-Solid
 62
     7
370
    25
100
AcDbLine
 10
16.0797234425
 20
8.7174638679
 30
0.0
 11
15.9605852119
 21
8.7174638679
 31
0.0
  0
LINE
  5
14B
330
1F
100
AcDbEntity
  8
0
  6
SLD-Solid
 62
     7
370
    25
100
AcDbLine
 10
15.9605852119
 20
7.3854638679
 30
0.0
 11
16.0797234425
 21
7.3854638679
 31
0.0
  0
LINE
  5
14C
330
1F
100
AcDbEntity
  8
0
  6
SLD-Solid
 62
     7
370
    25
100
AcDbLine
 10
16.1651665541
 20
7.3854638679
 30
0.0
 11
16.3730852119
 21
7.3854638679
 31
0.0
  0
LINE
  5
14D
330
1F
100
AcDbEntity
  8
0
  6
SLD-Solid
 62
     7
370
    25
100
AcDbLine
 10
16.3398078334
 20
8.7643596804
 30
0.0
 11
16.3762845503
 21
8.7643596804
 31
0.0
  0
LINE
  5
14E
330
1F
100
AcDbEntity
  8
0
  6
SLD-Solid
 62
     7
370
    25
100
AcDbLine
 10
16.3762845503
 20
7.3385680553
 30
0.0
 11
16.3398078334
 21
7.3385680553
 31
0.0
  0
ARC
  5
14F
330
1F
100
AcDbEntity
  8
0
  6
SLD-Solid
 62
     7
370
    25
100
AcDbCircle
 10
15.8308573495
 20
8.0514638679
 30
0.0
 40
0.7000000000000021
100
AcDbArc
 50
357.3912504071
 51
2.6087495929
  0
LINE
  5
150
330
1F
100
AcDbEntity
  8
0
  6
SLD-Solid
 62
     7
370
    25
100
AcDbLine
 10
16.5301318911
 20
8.0833247456
 30
0.0
 11
16.5161475815
 21
8.3902488603
 31
0.0
  0
LINE
  5
151
330
1F
100
AcDbEntity
  8
0
  6
SLD-Solid
 62
     7
370
    25
100
AcDbLine
 10
16.5161475815
 20
7.7126788754
 30
0.0
 11
16.5301318911
 21
8.0196029901
 31
0.0
  0
LINE
  5
152
330
1F
100
AcDbEntity
  8
0
  6
SLD-Solid
 62
     7
370
    25
100
AcDbLine
 10
5.026721923
 20
8.9289638679
 30
0.0
 11
4.9811470223
 21
8.9289638679
 31
0.0
  0
LINE
  5
153
330
1F
100
AcDbEntity
  8
0
  6
SLD-Solid
 62
     7
370
    25
100
AcDbLine
 10
4.9811470223
 20
7.1789638679
 30
0.0
 11
5.026721923
 21
7.1789638679
 31
0.0
  0
ARC
  5
154
330
1F
100
AcDbEntity
  8
0
  6
SLD-Solid
 62
     7
370
    25
100
AcDbCircle
 10
4.7578352119
 20
7.2689638679
 30
0.0
 40
0.0500000000000006
100
AcDbArc
 50
270.0
 51
348.9173680777
  0
ARC
  5
155
330
1F
100
AcDbEntity
  8
0
  6
SLD-Solid
 62
     7
370
    25
100
AcDbCircle
 10
4.7578352119
 20
8.8389638679
 30
0.0
 40
0.0500000000000006
100
AcDbArc
 50
11.0826319223
 51
90.0
  0
LINE
  5
156
330
1F
100
AcDbEntity
  8
0
  6
SLD-Solid
 62
     7
370
    25
100
AcDbLine
 10
4.7178352119
 20
7.2189638679
 30
0.0
 11
4.7578352119
 21
7.2189638679
 31
0.0
  0
LINE
  5
157
330
1F
100
AcDbEntity
  8
0
  6
SLD-Solid
 62
     7
370
    25
100
AcDbLine
 10
4.7578352119
 20
8.8889638679
 30
0.0
 11
4.7178352119
 21
8.8889638679
 31
0.0
  0
ARC
  5
158
330
1F
100
AcDbEntity
  8
0
  6
SLD-Solid
 62
     7
370
    25
100
AcDbCircle
 10
4.7178352119
 20
7.2689638679
 30
0.0
 40
0.0500000000000007
100
AcDbArc
 50
180.0
 51
270.0
  0
ARC
  5
159
330
1F
100
AcDbEntity
  8
0
  6
SLD-Solid
 62
     7
370
    25
100
AcDbCircle
 10
4.7178352119
 20
8.8389638679
 30
0.0
 40
0.0499999999999998
100
AcDbArc
 50
90.0
 51
180.0
  0
ARC
  5
15A
330
1F
100
AcDbEntity
  8
0
  6
SLD-Solid
 62
     7
370
    25
100
AcDbCircle
 10
4.7946358736
 20
7.2617554492
 30
0.0
 40
0.0125000000000002
100
AcDbArc
 50
348.9173680777
 51
0.0
  0
ARC
  5
15B
330
1F
100
AcDbEntity
  8
0
  6
SLD-Solid
 62
     7
370
    25
100
AcDbCircle
 10
4.7946358736
 20
8.8461722866
 30
0.0
 40
0.0125000000000002
100
AcDbArc
 50
0.0
 51
11.0826319223
  0
LINE
  5
15C
330
1F
100
AcDbEntity
  8
0
  6
SLD-Solid
 62
     7
370
    25
100
AcDbLine
 10
4.8071358736
 20
7.2617554492
 30
0.0
 11
4.8071358736
 21
8.8461722866
 31
0.0
  0
LWPOLYLINE
  5
15D
330
1F
100
AcDbEntity
  8
0
  6
SLD-Solid
 62
     7
370
    25
100
AcDbPolyline
 90
        3
 70
   128
 43
0.0
 10
4.8103352119
 20
8.7139638679
 10
4.8078965829
 20
8.7142040519
 10
4.8071358736
 20
8.7143802329
  0
LWPOLYLINE
  5
15E
330
1F
100
AcDbEntity
  8
0
  6
SLD-Solid
 62
     7
370
    25
100
AcDbPolyline
 90
        3
 70
   128
 43
0.0
 10
4.8071358736
 20
7.3935475028
 10
4.8078965829
 20
7.3937236839
 10
4.8103352119
 20
7.3939638679
  0
LINE
  5
15F
330
1F
100
AcDbEntity
  8
0
  6
SLD-Solid
 62
     7
370
    25
100
AcDbLine
 10
4.8103352119
 20
7.3939638679
 30
0.0
 11
5.0201763196
 21
7.3939638679
 31
0.0
  0
LINE
  5
160
330
1F
100
AcDbEntity
  8
0
  6
SLD-Solid
 62
     7
370
    25
100
AcDbLine
 10
5.1046419303
 20
7.3939638679
 30
0.0
 11
5.2228352119
 21
7.3939638679
 31
0.0
  0
LINE
  5
161
330
1F
100
AcDbEntity
  8
0
  6
SLD-Solid
 62
     7
370
    25
100
AcDbLine
 10
5.2228352119
 20
8.7139638679
 30
0.0
 11
5.1046419303
 21
8.7139638679
 31
0.0
  0
LINE
  5
162
330
1F
100
AcDbEntity
  8
0
  6
SLD-Solid
 62
     7
370
    25
100
AcDbLine
 10
5.0201763196
 20
8.7139638679
 30
0.0
 11
4.8103352119
 21
8.7139638679
 31
0.0
  0
ARC
  5
163
330
1F
100
AcDbEntity
  8
0
  6
SLD-Solid
 62
     7
370
    25
100
AcDbCircle
 10
5.2228352119
 20
8.6389638679
 30
0.0
 40
0.0750000000000011
100
AcDbArc
 50
0.0
 51
90.0
  0
ARC
  5
164
330
1F
100
AcDbEntity
  8
0
  6
SLD-Solid
 62
     7
370
    25
100
AcDbCircle
 10
5.2228352119
 20
7.4689638679
 30
0.0
 40
0.0750000000000011
100
AcDbArc
 50
270.0
 51
0.0
  0
SPLINE
  5
165
330
1F
100
AcDbEntity
  8
0
  6
SLD-Solid
 62
     7
370
    25
100
AcDbSpline
210
0.0
220
0.0
230
1.0
 70
     8
 71
     3
 72
     9
 73
     5
 74
     0
 42
0.00000001
 43
0.00000001
 40
0.0
 40
0.0
 40
0.0
 40
0.0
 40
0.641606560077323
 40
1.0
 40
1.0
 40
1.0
 40
1.0
 10
4.806902760854205
 20
7.28896300816114
 30
0.0
 10
4.810011644064724
 20
7.289905948876931
 30
0.0
 10
4.814857110747836
 20
7.291375604542041
 30
0.0
 10
4.819508212601579
 20
7.29069462276007
 30
0.0
 10
4.821175136994374
 20
7.290450563356705
 30
0.0
  0
SPLINE
  5
166
330
1F
100
AcDbEntity
  8
0
  6
SLD-Solid
 62
     7
370
    25
100
AcDbSpline
210
0.0
220
0.0
230
1.0
 70
     8
 71
     3
 72
     9
 73
     5
 74
     0
 42
0.00000001
 43
0.00000001
 40
0.0
 40
0.0
 40
0.0
 40
0.0
 40
0.5740720309856739
 40
1.0
 40
1.0
 40
1.0
 40
1.0
 10
4.821965382623096
 20
8.817675550949422
 30
0.0
 10
4.819173045032425
 20
8.81728403782911
 30
0.0
 10
4.814308955789343
 20
8.816602044805268
 30
0.0
 10
4.809115008341734
 20
8.818180627334165
 30
0.0
 10
4.806902760854205
 20
8.81885298978462
 30
0.0
  0
LINE
  5
167
330
1F
100
AcDbEntity
  8
0
  6
SLD-Solid
 62
     7
370
    25
100
AcDbLine
 10
4.8472581091
 20
7.3410680553
 30
0.0
 11
4.8071358736
 21
7.3410680553
 31
0.0
  0
LINE
  5
168
330
1F
100
AcDbEntity
  8
0
  6
SLD-Solid
 62
     7
370
    25
100
AcDbLine
 10
4.8071358736
 20
8.7668596804
 30
0.0
 11
4.8472581091
 21
8.7668596804
 31
0.0
  0
ARC
  5
169
330
1F
100
AcDbEntity
  8
0
  6
SLD-Solid
 62
     7
370
    25
100
AcDbCircle
 10
5.3525630745
 20
8.0539638679
 30
0.0
 40
0.7000000000000004
100
AcDbArc
 50
177.3912504243
 51
182.6087495757
  0
LINE
  5
16A
330
1F
100
AcDbEntity
  8
0
  6
SLD-Solid
 62
     7
370
    25
100
AcDbLine
 10
4.6532885329
 20
8.0221029904
 30
0.0
 11
4.6672728424
 21
7.7151788753
 31
0.0
  0
LINE
  5
16B
330
1F
100
AcDbEntity
  8
0
  6
SLD-Solid
 62
     7
370
    25
100
AcDbLine
 10
4.6672728424
 20
8.3927488604
 30
0.0
 11
4.6532885329
 21
8.0858247454
 31
0.0
  0
LINE
  5
16C
330
1F
100
AcDbEntity
  8
0
  6
SLD-Solid
 62
     7
370
    25
100
AcDbLine
 10
4.7463589366
 20
9.2999349034
 30
0.0
 11
4.7316110556
 21
9.2999349034
 31
0.0
  0
LINE
  5
16D
330
1F
100
AcDbEntity
  8
0
  6
SLD-Solid
 62
     7
370
    25
100
AcDbLine
 10
5.0440593683
 20
9.2999349034
 30
0.0
 11
4.7463589366
 21
9.2999349034
 31
0.0
  0
LINE
  5
16E
330
1F
100
AcDbEntity
  8
0
  6
SLD-Solid
 62
     7
370
    25
100
AcDbLine
 10
4.7463589366
 20
9.2814638679
 30
0.0
 11
4.7316110556
 21
9.2814638679
 31
0.0
  0
LINE
  5
16F
330
1F
100
AcDbEntity
  8
0
  6
SLD-Solid
 62
     7
370
    25
100
AcDbLine
 10
5.0440593683
 20
9.2814638679
 30
0.0
 11
4.7463589366
 21
9.2814638679
 31
0.0
  0
LINE
  5
170
330
1F
100
AcDbEntity
  8
0
  6
SLD-Solid
 62
     7
370
    25
100
AcDbLine
 10
4.9502449173
 20
8.9814638679
 30
0.0
 11
4.9815852119
 21
8.9814638679
 31
0.0
  0
LINE
  5
171
330
1F
100
AcDbEntity
  8
0
  6
SLD-Solid
 62
     7
370
    25
100
AcDbLine
 10
4.7316110556
 20
6.8079928324
 30
0.0
 11
5.0440593683
 21
6.8079928324
 31
0.0
  0
LINE
  5
172
330
1F
100
AcDbEntity
  8
0
  6
SLD-Solid
 62
     7
370
    25
100
AcDbLine
 10
4.7316110556
 20
6.8264638679
 30
0.0
 11
5.0440593683
 21
6.8264638679
 31
0.0
  0
LINE
  5
173
330
1F
100
AcDbEntity
  8
0
  6
SLD-Solid
 62
     7
370
    25
100
AcDbLine
 10
4.9815852119
 20
7.1264638679
 30
0.0
 11
4.9502449173
 21
7.1264638679
 31
0.0
  0
LWPOLYLINE
  5
174
330
1F
100
AcDbEntity
  8
0
  6
SLD-Solid
 62
     7
370
    25
100
AcDbPolyline
 90
       31
 70
   128
 43
0.0
 10
16.1566985009
 20
7.1764638679
 10
16.1482881838
 20
7.1786636609
 10
16.1356778058
 20
7.1902979962
 10
16.123308465
 20
7.2118070319
 10
16.1113219966
 20
7.2429441309
 10
16.0998558454
 20
7.2833522546
 10
16.0890414898
 20
7.3325680567
 10
16.0790029345
 20
7.390027196
 10
16.0698552882
 20
7.4550708078
 10
16.0617034439
 20
7.5269530589
 10
16.054640876
 20
7.6048496995
 10
16.0487485688
 20
7.6878675151
 10
16.0440940872
 20
7.7750545681
 10
16.0407308026
 20
7.8654111139
 10
16.0386972808
 20
7.9579010642
 10
16.0380168394
 20
8.0514638679
 10
16.0386972808
 20
8.1450266715
 10
16.0407308026
 20
8.2375166218
 10
16.0440940872
 20
8.3278731676
 10
16.0487485688
 20
8.4150602206
 10
16.054640876
 20
8.4980780362
 10
16.0617034439
 20
8.5759746768
 10
16.0698552882
 20
8.6478569279
 10
16.0790029345
 20
8.7129005397
 10
16.0890414898
 20
8.770359679
 10
16.0998558454
 20
8.8195754811
 10
16.1113219966
 20
8.8599836048
 10
16.123308465
 20
8.8911207039
 10
16.1356778058
 20
8.9126297395
 10
16.1482881838
 20
8.9242640748
 10
16.1566985009
 20
8.9264638679
  0
LWPOLYLINE
  5
175
330
1F
100
AcDbEntity
  8
0
  6
SLD-Solid
 62
     7
370
    25
100
AcDbPolyline
 90
       45
 70
   128
 43
0.0
 10
16.27924846
 20
7.3854638679
 10
16.2768084119
 20
7.3705446111
 10
16.2665054128
 20
7.3156887994
 10
16.2554658868
 20
7.2692698737
 10
16.2438164203
 20
7.2318201043
 10
16.231690594
 20
7.203768915
 10
16.2192274506
 20
7.1854379596
 10
16.2065699009
 20
7.1770374329
 10
16.1938630846
 20
7.1786636609
 10
16.1812527065
 20
7.1902979962
 10
16.1688833658
 20
7.2118070319
 10
16.1568968974
 20
7.2429441309
 10
16.1454307461
 20
7.2833522546
 10
16.1346163906
 20
7.3325680567
 10
16.1245778353
 20
7.390027196
 10
16.1154301889
 20
7.4550708078
 10
16.1072783446
 20
7.5269530589
 10
16.1002157768
 20
7.6048496995
 10
16.0943234695
 20
7.6878675151
 10
16.0896689879
 20
7.7750545681
 10
16.0863057034
 20
7.8654111139
 10
16.0842721815
 20
7.9579010642
 10
16.0835917401
 20
8.0514638679
 10
16.0842721815
 20
8.1450266715
 10
16.0863057034
 20
8.2375166218
 10
16.0896689879
 20
8.3278731676
 10
16.0943234695
 20
8.4150602206
 10
16.1002157768
 20
8.4980780362
 10
16.1072783446
 20
8.5759746768
 10
16.1154301889
 20
8.6478569279
 10
16.1245778353
 20
8.7129005397
 10
16.1346163906
 20
8.770359679
 10
16.1454307461
 20
8.8195754811
 10
16.1568968974
 20
8.8599836048
 10
16.1688833658
 20
8.8911207039
 10
16.1812527065
 20
8.9126297395
 10
16.1938630846
 20
8.9242640748
 10
16.2065699009
 20
8.9258903028
 10
16.2192274506
 20
8.9174897761
 10
16.231690594
 20
8.8991588207
 10
16.2438164203
 20
8.8711076315
 10
16.2554658868
 20
8.833657862
 10
16.2665054128
 20
8.7872389364
 10
16.2768084119
 20
8.7323831247
 10
16.27924846
 20
8.7174638679
  0
LWPOLYLINE
  5
176
330
1F
100
AcDbEntity
  8
0
  6
SLD-Solid
 62
     7
370
    25
100
AcDbPolyline
 90
       36
 70
   128
 43
0.0
 10
16.2393802492
 20
7.3854638679
 10
16.2389759915
 20
7.3842473505
 10
16.228014811
 20
7.3569262489
 10
16.2166922776
 20
7.339354933
 10
16.2051673347
 20
7.3317800656
 10
16.1936017674
 20
7.3343079812
 10
16.1821579308
 20
7.3469031934
 10
16.1709964713
 20
7.3693888931
 10
16.1602740714
 20
7.4014494303
 10
16.15014125
 20
7.4426347453
 10
16.1407402497
 20
7.4923666867
 10
16.13220304
 20
7.5499471269
 10
16.1246494646
 20
7.6145677629
 10
16.1181855591
 20
7.6853214624
 10
16.1129020625
 20
7.7612149988
 10
16.1088731437
 20
7.841182993
 10
16.1061553598
 20
7.9241028698
 10
16.1047868625
 20
8.0088106158
 10
16.1047868625
 20
8.0941171199
 10
16.1061553598
 20
8.178824866
 10
16.1088731437
 20
8.2617447427
 10
16.1129020625
 20
8.341712737
 10
16.1181855591
 20
8.4176062733
 10
16.1246494646
 20
8.4883599729
 10
16.13220304
 20
8.5529806088
 10
16.1407402497
 20
8.610561049
 10
16.15014125
 20
8.6602929904
 10
16.1602740714
 20
8.7014783054
 10
16.1709964713
 20
8.7335388426
 10
16.1821579308
 20
8.7560245423
 10
16.1936017674
 20
8.7686197545
 10
16.2051673347
 20
8.7711476702
 10
16.2166922776
 20
8.7635728027
 10
16.228014811
 20
8.7460014868
 10
16.2389759915
 20
8.7186803852
 10
16.2393802492
 20
8.7174638679
  0
ARC
  5
177
330
1F
100
AcDbEntity
  8
0
  6
SLD-Solid
 62
     7
370
    25
100
AcDbCircle
 10
16.0000125636
 20
7.4467164636
 30
0.0
 40
0.2032425248700919
100
AcDbArc
 50
332.0125463292
 51
342.4596801669
  0
ARC
  5
178
330
1F
100
AcDbEntity
  8
0
  6
SLD-Solid
 62
     7
370
    25
100
AcDbCircle
 10
16.0000125636
 20
8.6562112721
 30
0.0
 40
0.2032425248784538
100
AcDbArc
 50
17.5403198332
 51
27.9874536697
  0
LINE
  5
179
330
1F
100
AcDbEntity
  8
0
  6
SLD-Solid
 62
     7
370
    25
100
AcDbLine
 10
5.4163125934
 20
7.7514638679
 30
0.0
 11
5.4087761357
 21
7.7514638679
 31
0.0
  0
LINE
  5
17A
330
1F
100
AcDbEntity
  8
0
  6
SLD-Solid
 62
     7
370
    25
100
AcDbLine
 10
5.4163125934
 20
8.3514638679
 30
0.0
 11
5.4087761357
 21
8.3514638679
 31
0.0
  0
LINE
  5
17B
330
1F
100
AcDbEntity
  8
0
  6
SLD-Solid
 62
     7
370
    25
100
AcDbLine
 10
5.4087761357
 20
7.7514638679
 30
0.0
 11
5.2978352119
 21
7.7514638679
 31
0.0
  0
LINE
  5
17C
330
1F
100
AcDbEntity
  8
0
  6
SLD-Solid
 62
     7
370
    25
100
AcDbLine
 10
5.4087761357
 20
8.3514638679
 30
0.0
 11
5.2978352119
 21
8.3514638679
 31
0.0
  0
LINE
  5
17D
330
1F
100
AcDbEntity
  8
0
  6
SLD-Solid
 62
     7
370
    25
100
AcDbLine
 10
6.1625751958
 20
7.7514638679
 30
0.0
 11
5.4163125934
 21
7.7514638679
 31
0.0
  0
LINE
  5
17E
330
1F
100
AcDbEntity
  8
0
  6
SLD-Solid
 62
     7
370
    25
100
AcDbLine
 10
6.1625751958
 20
8.3514638679
 30
0.0
 11
5.4163125934
 21
8.3514638679
 31
0.0
  0
LINE
  5
17F
330
1F
100
AcDbEntity
  8
0
  6
SLD-Solid
 62
     7
370
    25
100
AcDbLine
 10
6.9105852119
 20
7.8514638679
 30
0.0
 11
6.9105852119
 21
8.2514638679
 31
0.0
  0
ARC
  5
180
330
1F
100
AcDbEntity
  8
0
  6
SLD-Solid
 62
     7
370
    25
100
AcDbCircle
 10
6.8105852119
 20
7.8514638679
 30
0.0
 40
0.0999999999999996
100
AcDbArc
 50
270.0
 51
0.0
  0
ARC
  5
181
330
1F
100
AcDbEntity
  8
0
  6
SLD-Solid
 62
     7
370
    25
100
AcDbCircle
 10
6.8105852119
 20
8.2514638679
 30
0.0
 40
0.0999999999999996
100
AcDbArc
 50
0.0
 51
90.0
  0
LINE
  5
182
330
1F
100
AcDbEntity
  8
0
  6
SLD-Solid
 62
     7
370
    25
100
AcDbLine
 10
6.8105852119
 20
7.7514638679
 30
0.0
 11
6.1625751958
 21
7.7514638679
 31
0.0
  0
LINE
  5
183
330
1F
100
AcDbEntity
  8
0
  6
SLD-Solid
 62
     7
370
    25
100
AcDbLine
 10
6.8105852119
 20
8.3514638679
 30
0.0
 11
6.1625751958
 21
8.3514638679
 31
0.0
  0
CIRCLE
  5
184
330
1F
100
AcDbEntity
  8
0
  6
SLD-Solid
 62
     7
370
    25
100
AcDbCircle
 10
6.5730852119
 20
8.0514638679
 30
0.0
 40
0.0449925411675292
  0
CIRCLE
  5
185
330
1F
100
AcDbEntity
  8
0
  6
SLD-Solid
 62
     7
370
    25
100
AcDbCircle
 10
6.1605852119
 20
8.0514638679
 30
0.0
 40
0.0449925411675292
  0
LINE
  5
186
330
1F
100
AcDbEntity
  8
0
  6
SLD-Solid
 62
     7
370
    25
100
AcDbLine
 10
16.5155852119
 20
8.8364638679
 30
0.0
 11
16.5155852119
 21
7.2664638679
 31
0.0
  0
LINE
  5
187
330
1F
100
AcDbEntity
  8
0
  6
SLD-Solid
 62
     7
370
    25
100
AcDbLine
 10
15.8855852119
 20
7.4604638679
 30
0.0
 11
15.8855852119
 21
8.6424638623
 31
0.0
  0
ARC
  5
188
330
1F
100
AcDbEntity
  8
0
  6
SLD-Solid
 62
     7
370
    25
100
AcDbCircle
 10
15.8355852119
 20
7.6229638679
 30
0.0
 40
0.0500000000000025
100
AcDbArc
 50
0.0
 51
90.0
  0
ARC
  5
189
330
1F
100
AcDbEntity
  8
0
  6
SLD-Solid
 62
     7
370
    25
100
AcDbCircle
 10
15.8355852119
 20
8.4799638679
 30
0.0
 40
0.0500000000000025
100
AcDbArc
 50
270.0
 51
0.0
  0
LINE
  5
18A
330
1F
100
AcDbEntity
  8
0
  6
SLD-Solid
 62
     7
370
    25
100
AcDbLine
 10
5.2978352119
 20
8.4299638679
 30
0.0
 11
15.8355852119
 21
8.4299638679
 31
0.0
  0
LINE
  5
18B
330
1F
100
AcDbEntity
  8
0
  6
SLD-Solid
 62
     7
370
    25
100
AcDbLine
 10
5.2978352119
 20
7.6729638679
 30
0.0
 11
15.8355852119
 21
7.6729638679
 31
0.0
  0
LINE
  5
18C
330
1F
100
AcDbEntity
  8
0
  6
SLD-Solid
 62
     7
370
    25
100
AcDbLine
 10
16.376517663
 20
7.2763944029
 30
0.0
 11
16.376517663
 21
7.3160987994
 31
0.0
  0
ELLIPSE
  5
18D
330
1F
100
AcDbEntity
  8
0
  6
SLD-Solid
 62
     7
370
    25
100
AcDbEllipse
 10
16.3398078334
 20
5.1916521559
 30
0.0
 11
0.0
 21
2.096915899364234
 31
0.0
210
0.0
220
0.0
230
1.0
 40
0.0911379658
 41
0.0994478318355335
 42
0.2421727617137955
  0
ELLIPSE
  5
18E
330
1F
100
AcDbEntity
  8
0
  6
SLD-Solid
 62
     7
370
    25
100
AcDbEllipse
 10
16.3719908551
 20
5.1916521559
 30
0.0
 11
0.0
 21
2.096915899364234
 31
0.0
210
0.0
220
0.0
230
1.0
 40
0.2457226902
 41
0.0
 42
0.0071361463205064
  0
ELLIPSE
  5
18F
330
1F
100
AcDbEntity
  8
0
  6
SLD-Solid
 62
     7
370
    25
100
AcDbEllipse
 10
16.3719908551
 20
10.9112755798
 30
0.0
 11
0.0
 21
2.096915899364234
 31
0.0
210
0.0
220
0.0
230
1.0
 40
0.2457226902
 41
3.141592653589793
 42
3.148443309392995
  0
ELLIPSE
  5
190
330
1F
100
AcDbEntity
  8
0
  6
SLD-Solid
 62
     7
370
    25
100
AcDbEllipse
 10
16.3398078334
 20
10.9112755798
 30
0.0
 11
0.0
 21
2.096915899364234
 31
0.0
210
0.0
220
0.0
230
1.0
 40
0.0911379658
 41
2.899419891875996
 42
3.04214482175426
  0
SPLINE
  5
191
330
1F
100
AcDbEntity
  8
0
  6
SLD-Solid
 62
     7
370
    25
100
AcDbSpline
210
0.0
220
0.0
230
1.0
 70
     8
 71
     3
 72
    10
 73
     6
 74
     0
 42
0.00000001
 43
0.00000001
 40
0.0
 40
0.0
 40
0.0
 40
0.0
 40
0.0060510312211251
 40
0.2723624912663214
 40
1.0
 40
1.0
 40
1.0
 40
1.0
 10
16.34966650588578
 20
8.783767472226463
 30
0.0
 10
16.34961099354341
 20
8.78397742173678
 30
0.0
 10
16.34711233185883
 20
8.7934274426639
 30
0.0
 10
16.33740848684362
 20
8.806998619860007
 30
0.0
 10
16.32783918008163
 20
8.817230111474151
 30
0.0
 10
16.32083380379841
 20
8.824720251614739
 30
0.0
  0
SPLINE
  5
192
330
1F
100
AcDbEntity
  8
0
  6
SLD-Solid
 62
     7
370
    25
100
AcDbSpline
210
0.0
220
0.0
230
1.0
 70
     8
 71
     3
 72
    14
 73
    10
 74
     0
 42
0.00000001
 43
0.00000001
 40
0.0
 40
0.0
 40
0.0
 40
0.0
 40
0.3118380049357917
 40
0.5636662416007507
 40
0.7321562944816985
 40
0.8453439042829162
 40
0.9217830621683242
 40
0.9737705533117339
 40
1.0
 40
1.0
 40
1.0
 40
1.0
 10
16.32083380379841
 20
7.278207484116544
 30
0.0
 10
16.3238446801369
 20
7.281467519406595
 30
0.0
 10
16.32928702302898
 20
7.287360232322737
 30
0.0
 10
16.33635554708211
 20
7.29510608771346
 30
0.0
 10
16.34149752369938
 20
7.301650032823089
 30
0.0
 10
16.34493771224163
 20
7.307088110461776
 30
0.0
 10
16.34724178791774
 20
7.311854619351803
 30
0.0
 10
16.34870319586731
 20
7.315687983539979
 30
0.0
 10
16.34942459144435
 20
7.318288275617136
 30
0.0
 10
16.34966650588582
 20
7.319160263504958
 30
0.0
  0
SPLINE
  5
193
330
1F
100
AcDbEntity
  8
0
  6
SLD-Solid
 62
     7
370
    25
100
AcDbSpline
210
0.0
220
0.0
230
1.0
 70
     8
 71
     3
 72
    18
 73
    14
 74
     0
 42
0.00000001
 43
0.00000001
 40
0.0
 40
0.0
 40
0.0
 40
0.0
 40
0.2614293421500354
 40
0.562038723372597
 40
0.8582901019345784
 40
0.8953846361273105
 40
0.9140397544485438
 40
0.9215561722601019
 40
0.9291408581904406
 40
0.9358581230432672
 40
0.9452797171026389
 40
0.962954105950874
 40
1.0
 40
1.0
 40
1.0
 40
1.0
 10
16.34236816567531
 20
8.764543489761284
 30
0.0
 10
16.34312465547342
 20
8.764843723241825
 30
0.0
 10
16.34475100910639
 20
8.765489185762327
 30
0.0
 10
16.34722462197519
 20
8.76718490453255
 30
0.0
 10
16.34905191705043
 20
8.771547378309386
 30
0.0
 10
16.34995848350261
 20
8.776765553343234
 30
0.0
 10
16.35009448518387
 20
8.778182311778153
 30
0.0
 10
16.35013820371672
 20
8.779160041255656
 30
0.0
 10
16.35014543059294
 20
8.7798703793173
 30
0.0
 10
16.35012619107526
 20
8.780612011665818
 30
0.0
 10
16.35006783841401
 20
8.781500196314596
 30
0.0
 10
16.34991572988194
 20
8.78272344737558
 30
0.0
 10
16.34976711730998
 20
8.783346000663657
 30
0.0
 10
16.34966650588578
 20
8.783767472226463
 30
0.0
  0
SPLINE
  5
194
330
1F
100
AcDbEntity
  8
0
  6
SLD-Solid
 62
     7
370
    25
100
AcDbSpline
210
0.0
220
0.0
230
1.0
 70
     8
 71
     3
 72
    18
 73
    14
 74
     0
 42
0.00000001
 43
0.00000001
 40
0.0
 40
0.0
 40
0.0
 40
0.0
 40
0.0233884179248419
 40
0.0480710271310204
 40
0.0574397355264137
 40
0.066897474019695
 40
0.0734535196257876
 40
0.0800047162080074
 40
0.0898039629992792
 40
0.108616317875344
 40
0.1753027871911778
 40
0.4968081840738771
 40
1.0
 40
1.0
 40
1.0
 40
1.0
 10
16.34966650588582
 20
7.319160263504958
 30
0.0
 10
16.34972975534948
 20
7.31942192368995
 30
0.0
 10
16.3498597541674
 20
7.319959722949923
 30
0.0
 10
16.35000662998763
 20
7.320866972110463
 30
0.0
 10
16.35009762744941
 20
7.321833517808638
 30
0.0
 10
16.35013576962031
 20
7.322547751069116
 30
0.0
 10
16.3501451587391
 20
7.323274248920351
 30
0.0
 10
16.35013104059914
 20
7.32400023085592
 30
0.0
 10
16.35007695149508
 20
7.32497150699126
 30
0.0
 10
16.34986387444899
 20
7.326956505985214
 30
0.0
 10
16.34876109353927
 20
7.33191368350902
 30
0.0
 10
16.34620341553512
 20
7.336551437696185
 30
0.0
 10
16.34382149972637
 20
7.337689719466964
 30
0.0
 10
16.34236816567531
 20
7.338384245969998
 30
0.0
  0
ELLIPSE
  5
195
330
1F
100
AcDbEntity
  8
0
  6
SLD-Solid
 62
     7
370
    25
100
AcDbEllipse
 10
16.3398078334
 20
10.9112755798
 30
0.0
 11
0.0
 21
2.146915899364233
 31
0.0
210
0.0
220
0.0
230
1.0
 40
0.0911379658
 41
2.899419891876005
 42
3.154678275393713
  0
ELLIPSE
  5
196
330
1F
100
AcDbEntity
  8
0
  6
SLD-Solid
 62
     7
370
    25
100
AcDbEllipse
 10
16.3398078334
 20
5.1916521559
 30
0.0
 11
0.0
 21
2.146915899364234
 31
0.0
210
0.0
220
0.0
230
1.0
 40
0.0911379658
 41
6.270099685375975
 42
6.525358068893371
  0
LINE
  5
197
330
1F
100
AcDbEntity
  8
0
  6
SLD-Solid
 62
     7
370
    25
100
AcDbLine
 10
16.1997416978
 20
9.0794638679
 30
0.0
 11
16.2928847795
 21
8.8270083796
 31
0.0
  0
LINE
  5
198
330
1F
100
AcDbEntity
  8
0
  6
SLD-Solid
 62
     7
370
    25
100
AcDbLine
 10
16.1425147185
 20
9.0794638679
 30
0.0
 11
16.1997416978
 21
9.0794638679
 31
0.0
  0
LINE
  5
199
330
1F
100
AcDbEntity
  8
0
  6
SLD-Solid
 62
     7
370
    25
100
AcDbLine
 10
16.1425147185
 20
9.1294638679
 30
0.0
 11
16.1997416978
 21
9.1294638679
 31
0.0
  0
ELLIPSE
  5
19A
330
1F
100
AcDbEntity
  8
0
  6
SLD-Solid
 62
     7
370
    25
100
AcDbEllipse
 10
16.1997416978
 20
9.0794638679
 30
0.0
 11
0.0
 21
0.04999999999999893
 31
0.0
210
0.0
220
0.0
230
1.0
 40
0.0911379658
 41
6.041012545466404
 42
6.283185307179586
  0
LINE
  5
19B
330
1F
100
AcDbEntity
  8
0
  6
SLD-Solid
 62
     7
370
    25
100
AcDbLine
 10
16.2008344992
 20
9.1280048284
 30
0.0
 11
16.2939775809
 21
8.8755493402
 31
0.0
  0
LINE
  5
19C
330
1F
100
AcDbEntity
  8
0
  6
SLD-Solid
 62
     7
370
    25
100
AcDbLine
 10
16.2939775809
 20
7.2273783955
 30
0.0
 11
16.2008344992
 21
6.9749229073
 31
0.0
  0
ELLIPSE
  5
19D
330
1F
100
AcDbEntity
  8
0
  6
SLD-Solid
 62
     7
370
    25
100
AcDbEllipse
 10
16.1997416978
 20
7.0234638679
 30
0.0
 11
0.0
 21
0.04999999999999982
 31
0.0
210
0.0
220
0.0
230
1.0
 40
0.0911379658
 41
3.141592653589792
 42
3.383765415303261
  0
LINE
  5
19E
330
1F
100
AcDbEntity
  8
0
  6
SLD-Solid
 62
     7
370
    25
100
AcDbLine
 10
16.1425147185
 20
6.9734638679
 30
0.0
 11
16.1997416978
 21
6.9734638679
 31
0.0
  0
LINE
  5
19F
330
1F
100
AcDbEntity
  8
0
  6
SLD-Solid
 62
     7
370
    25
100
AcDbLine
 10
16.1997416978
 20
7.0234638679
 30
0.0
 11
16.1425147185
 21
7.0234638679
 31
0.0
  0
LINE
  5
1A0
330
1F
100
AcDbEntity
  8
0
  6
SLD-Solid
 62
     7
370
    25
100
AcDbLine
 10
16.2928847795
 20
7.2759193561
 30
0.0
 11
16.1997416978
 21
7.0234638679
 31
0.0
  0
LINE
  5
1A1
330
1F
100
AcDbEntity
  8
0
  6
SLD-Solid
 62
     7
370
    25
100
AcDbLine
 10
16.5155852119
 20
9.0794638679
 30
0.0
 11
16.5155852119
 21
8.8364638679
 31
0.0
  0
LINE
  5
1A2
330
1F
100
AcDbEntity
  8
0
  6
SLD-Solid
 62
     7
370
    25
100
AcDbLine
 10
16.5155852119
 20
7.2664638679
 30
0.0
 11
16.5155852119
 21
7.0234638679
 31
0.0
  0
LINE
  5
1A3
330
1F
100
AcDbEntity
  8
0
  6
SLD-Solid
 62
     7
370
    25
100
AcDbLine
 10
16.1997416978
 20
9.1294638679
 30
0.0
 11
16.4655852119
 21
9.1294638679
 31
0.0
  0
ARC
  5
1A4
330
1F
100
AcDbEntity
  8
0
  6
SLD-Solid
 62
     7
370
    25
100
AcDbCircle
 10
16.4655852119
 20
9.0794638679
 30
0.0
 40
0.0500000000000007
100
AcDbArc
 50
0.0
 51
90.0
  0
ARC
  5
1A5
330
1F
100
AcDbEntity
  8
0
  6
SLD-Solid
 62
     7
370
    25
100
AcDbCircle
 10
16.4655852119
 20
7.0234638679
 30
0.0
 40
0.0500000000000007
100
AcDbArc
 50
270.0
 51
0.0
  0
LINE
  5
1A6
330
1F
100
AcDbEntity
  8
0
  6
SLD-Solid
 62
     7
370
    25
100
AcDbLine
 10
16.4655852119
 20
6.9734638679
 30
0.0
 11
16.1997416978
 21
6.9734638679
 31
0.0
  0
LINE
  5
1A7
330
1F
100
AcDbEntity
  8
0
  6
SLD-Solid
 62
     7
370
    25
100
AcDbLine
 10
15.8485852119
 20
9.0794638679
 30
0.0
 11
15.8485852119
 21
9.1294638679
 31
0.0
  0
LINE
  5
1A8
330
1F
100
AcDbEntity
  8
0
  6
SLD-Solid
 62
     7
370
    25
100
AcDbLine
 10
15.8485852119
 20
9.0794638679
 30
0.0
 11
16.1425147185
 21
9.0794638679
 31
0.0
  0
LINE
  5
1A9
330
1F
100
AcDbEntity
  8
0
  6
SLD-Solid
 62
     7
370
    25
100
AcDbLine
 10
15.8485852119
 20
9.1294638679
 30
0.0
 11
16.1425147185
 21
9.1294638679
 31
0.0
  0
LINE
  5
1AA
330
1F
100
AcDbEntity
  8
0
  6
SLD-Solid
 62
     7
370
    25
100
AcDbLine
 10
15.8485852119
 20
6.9734638679
 30
0.0
 11
15.8485852119
 21
7.0234638679
 31
0.0
  0
LINE
  5
1AB
330
1F
100
AcDbEntity
  8
0
  6
SLD-Solid
 62
     7
370
    25
100
AcDbLine
 10
15.8485852119
 20
6.9734638679
 30
0.0
 11
16.1425147185
 21
6.9734638679
 31
0.0
  0
LINE
  5
1AC
330
1F
100
AcDbEntity
  8
0
  6
SLD-Solid
 62
     7
370
    25
100
AcDbLine
 10
16.1425147185
 20
7.0234638679
 30
0.0
 11
15.8485852119
 21
7.0234638679
 31
0.0
  0
LWPOLYLINE
  5
1AD
330
1F
100
AcDbEntity
  8
0
  6
SLD-Solid
 62
     7
370
    25
100
AcDbPolyline
 90
       45
 70
   128
 43
0.0
 10
4.903227015
 20
8.7139638679
 10
4.906612012
 20
8.7348831247
 10
4.9169150111
 20
8.7897389364
 10
4.9279545371
 20
8.836157862
 10
4.9396040036
 20
8.8736076315
 10
4.9517298299
 20
8.9016588207
 10
4.9641929733
 20
8.9199897761
 10
4.976850523
 20
8.9283903028
 10
4.9895573393
 20
8.9267640748
 10
5.0021677173
 20
8.9151297395
 10
5.0145370581
 20
8.8936207039
 10
5.0265235265
 20
8.8624836048
 10
5.0379896778
 20
8.8220754811
 10
5.0488040333
 20
8.772859679
 10
5.0588425886
 20
8.7154005397
 10
5.067990235
 20
8.6503569279
 10
5.0761420793
 20
8.5784746768
 10
5.0832046471
 20
8.5005780362
 10
5.0890969544
 20
8.4175602206
 10
5.093751436
 20
8.3303731676
 10
5.0971147205
 20
8.2400166218
 10
5.0991482424
 20
8.1475266715
 10
5.0998286838
 20
8.0539638679
 10
5.0991482424
 20
7.9604010642
 10
5.0971147205
 20
7.8679111139
 10
5.093751436
 20
7.7775545681
 10
5.0890969544
 20
7.6903675151
 10
5.0832046471
 20
7.6073496995
 10
5.0761420793
 20
7.5294530589
 10
5.067990235
 20
7.4575708078
 10
5.0588425886
 20
7.392527196
 10
5.0488040333
 20
7.3350680567
 10
5.0379896778
 20
7.2858522546
 10
5.0265235265
 20
7.2454441309
 10
5.0145370581
 20
7.2143070319
 10
5.0021677173
 20
7.1927979962
 10
4.9895573393
 20
7.1811636609
 10
4.976850523
 20
7.1795374329
 10
4.9641929733
 20
7.1879379596
 10
4.9517298299
 20
7.206268915
 10
4.9396040036
 20
7.2343201043
 10
4.9279545371
 20
7.2717698737
 10
4.9169150111
 20
7.3181887994
 10
4.906612012
 20
7.3730446111
 10
4.903227015
 20
7.3939638679
  0
LWPOLYLINE
  5
1AE
330
1F
100
AcDbEntity
  8
0
  6
SLD-Solid
 62
     7
370
    25
100
AcDbPolyline
 90
       36
 70
   128
 43
0.0
 10
4.9421177249
 20
8.7139638679
 10
4.9444444324
 20
8.7211803852
 10
4.9554056129
 20
8.7485014868
 10
4.9667281463
 20
8.7660728027
 10
4.9782530892
 20
8.7736476702
 10
4.9898186565
 20
8.7711197545
 10
5.0012624931
 20
8.7585245423
 10
5.0124239526
 20
8.7360388426
 10
5.0231463525
 20
8.7039783054
 10
5.0332791739
 20
8.6627929904
 10
5.0426801742
 20
8.613061049
 10
5.0512173839
 20
8.5554806088
 10
5.0587709593
 20
8.4908599729
 10
5.0652348648
 20
8.4201062733
 10
5.0705183614
 20
8.344212737
 10
5.0745472802
 20
8.2642447427
 10
5.0772650641
 20
8.181324866
 10
5.0786335614
 20
8.0966171199
 10
5.0786335614
 20
8.0113106158
 10
5.0772650641
 20
7.9266028698
 10
5.0745472802
 20
7.843682993
 10
5.0705183614
 20
7.7637149988
 10
5.0652348648
 20
7.6878214624
 10
5.0587709593
 20
7.6170677629
 10
5.0512173839
 20
7.5524471269
 10
5.0426801742
 20
7.4948666867
 10
5.0332791739
 20
7.4451347453
 10
5.0231463525
 20
7.4039494303
 10
5.0124239526
 20
7.3718888931
 10
5.0012624931
 20
7.3494031934
 10
4.9898186565
 20
7.3368079812
 10
4.9782530892
 20
7.3342800656
 10
4.9667281463
 20
7.341854933
 10
4.9554056129
 20
7.3594262489
 10
4.9444444324
 20
7.3867473505
 10
4.9421177249
 20
7.3939638679
  0
LWPOLYLINE
  5
1AF
330
1F
100
AcDbEntity
  8
0
  6
SLD-Solid
 62
     7
370
    25
100
AcDbPolyline
 90
       31
 70
   128
 43
0.0
 10
5.026721923
 20
8.9289638679
 10
5.0351322401
 20
8.9267640748
 10
5.0477426181
 20
8.9151297395
 10
5.0601119589
 20
8.8936207039
 10
5.0720984273
 20
8.8624836048
 10
5.0835645785
 20
8.8220754811
 10
5.0943789341
 20
8.772859679
 10
5.1044174894
 20
8.7154005397
 10
5.1135651357
 20
8.6503569279
 10
5.12171698
 20
8.5784746768
 10
5.1287795479
 20
8.5005780362
 10
5.1346718551
 20
8.4175602206
 10
5.1393263367
 20
8.3303731676
 10
5.1426896213
 20
8.2400166218
 10
5.1447231431
 20
8.1475266715
 10
5.1454035845
 20
8.0539638679
 10
5.1447231431
 20
7.9604010642
 10
5.1426896213
 20
7.8679111139
 10
5.1393263367
 20
7.7775545681
 10
5.1346718551
 20
7.6903675151
 10
5.1287795479
 20
7.6073496995
 10
5.12171698
 20
7.5294530589
 10
5.1135651357
 20
7.4575708078
 10
5.1044174894
 20
7.392527196
 10
5.0943789341
 20
7.3350680567
 10
5.0835645785
 20
7.2858522546
 10
5.0720984273
 20
7.2454441309
 10
5.0601119589
 20
7.2143070319
 10
5.0477426181
 20
7.1927979962
 10
5.0351322401
 20
7.1811636609
 10
5.026721923
 20
7.1789638679
  0
ARC
  5
1B0
330
1F
100
AcDbEntity
  8
0
  6
SLD-Solid
 62
     7
370
    25
100
AcDbCircle
 10
5.1931538869
 20
8.6541459357
 30
0.0
 40
0.2139918570664207
100
AcDbArc
 50
152.1577127189
 51
163.7676245103
  0
ARC
  5
1B1
330
1F
100
AcDbEntity
  8
0
  6
SLD-Solid
 62
     7
370
    25
100
AcDbCircle
 10
5.1931538869
 20
7.4537818
 30
0.0
 40
0.213991857058677
100
AcDbArc
 50
196.2323754895
 51
207.8422872821
  0
LINE
  5
1B2
330
1F
100
AcDbEntity
  8
0
  6
SLD-Solid
 62
     7
370
    25
100
AcDbLine
 10
4.6678352119
 20
7.2689638679
 30
0.0
 11
4.6678352119
 21
8.8389638679
 31
0.0
  0
LINE
  5
1B3
330
1F
100
AcDbEntity
  8
0
  6
SLD-Solid
 62
     7
370
    25
100
AcDbLine
 10
5.2978352119
 20
8.6389638679
 30
0.0
 11
5.2978352119
 21
7.4689638726
 31
0.0
  0
LINE
  5
1B4
330
1F
100
AcDbEntity
  8
0
  6
SLD-Solid
 62
     7
370
    25
100
AcDbLine
 10
4.8069027609
 20
8.8290333328
 30
0.0
 11
4.8069027609
 21
8.7940952881
 31
0.0
  0
ELLIPSE
  5
1B5
330
1F
100
AcDbEntity
  8
0
  6
SLD-Solid
 62
     7
370
    25
100
AcDbEllipse
 10
4.8472581091
 20
10.9137755798
 30
0.0
 11
0.0
 21
2.096915899364234
 31
0.0
210
0.0
220
0.0
230
1.0
 40
0.0911379658
 41
3.22259574158623
 42
3.383765415303734
  0
ELLIPSE
  5
1B6
330
1F
100
AcDbEntity
  8
0
  6
SLD-Solid
 62
     7
370
    25
100
AcDbEllipse
 10
4.8210295688
 20
10.9137755798
 30
0.0
 11
0.0
 21
2.096915899364234
 31
0.0
210
0.0
220
0.0
230
1.0
 40
0.2457226902
 41
3.141592653589793
 42
3.144460851124851
  0
ELLIPSE
  5
1B7
330
1F
100
AcDbEntity
  8
0
  6
SLD-Solid
 62
     7
370
    25
100
AcDbEllipse
 10
4.8472581091
 20
5.1941521559
 30
0.0
 11
0.0
 21
2.096915899364234
 31
0.0
210
0.0
220
0.0
230
1.0
 40
0.0911379658
 41
6.041012545465935
 42
6.202182219183663
  0
SPLINE
  5
1B8
330
1F
100
AcDbEntity
  8
0
  6
SLD-Solid
 62
     7
370
    25
100
AcDbSpline
210
0.0
220
0.0
230
1.0
 70
     8
 71
     3
 72
     9
 73
     5
 74
     0
 42
0.00000001
 43
0.00000001
 40
0.0
 40
0.0
 40
0.0
 40
0.0
 40
0.2455713974033409
 40
1.0
 40
1.0
 40
1.0
 40
1.0
 10
4.833801027018656
 20
7.319285036009481
 30
0.0
 10
4.836142318058172
 20
7.314274824005844
 30
0.0
 10
4.845676372366909
 20
7.293872561948403
 30
0.0
 10
4.855391902511048
 20
7.288354980363988
 30
0.0
 10
4.862721576341179
 20
7.284192358999547
 30
0.0
  0
SPLINE
  5
1B9
330
1F
100
AcDbEntity
  8
0
  6
SLD-Solid
 62
     7
370
    25
100
AcDbSpline
210
0.0
220
0.0
230
1.0
 70
     8
 71
     3
 72
    14
 73
    10
 74
     0
 42
0.00000001
 43
0.00000001
 40
0.0
 40
0.0
 40
0.0
 40
0.0
 40
0.3115850422017675
 40
0.5633233396504165
 40
0.7318561573153722
 40
0.8451228514151953
 40
0.9216456205996666
 40
0.9737125749665464
 40
1.0
 40
1.0
 40
1.0
 40
1.0
 10
4.86272157634122
 20
8.823735376731765
 30
0.0
 10
4.859705782092562
 20
8.821083951099128
 30
0.0
 10
4.85425344305906
 20
8.816290364309284
 30
0.0
 10
4.847170394627119
 20
8.809968833893512
 30
0.0
 10
4.842013848908361
 20
8.80446615416363
 30
0.0
 10
4.838560292868938
 20
8.799729201500787
 30
0.0
 10
4.836244226670138
 20
8.795437525823925
 30
0.0
 10
4.834773101862811
 20
8.79190869733977
 30
0.0
 10
4.834045225259797
 20
8.789463162136487
 30
0.0
 10
4.833801027018656
 20
8.788642699721816
 30
0.0
  0
SPLINE
  5
1BA
330
1F
100
AcDbEntity
  8
0
  6
SLD-Solid
 62
     7
370
    25
100
AcDbSpline
210
0.0
220
0.0
230
1.0
 70
     8
 71
     3
 72
    18
 73
    14
 74
     0
 42
0.00000001
 43
0.00000001
 40
0.0
 40
0.0
 40
0.0
 40
0.0
 40
0.261538153614653
 40
0.5614432218703787
 40
0.8570742739453469
 40
0.8940835034039544
 40
0.9126848222523362
 40
0.9203148079294019
 40
0.9280163816756393
 40
0.9348287082711948
 40
0.9440109334957567
 40
0.9609360601375415
 40
1.0
 40
1.0
 40
1.0
 40
1.0
 10
4.841052723172006
 20
7.339988106539777
 30
0.0
 10
4.840296871567108
 20
7.339534115984557
 30
0.0
 10
4.838674287043799
 20
7.338559535731163
 30
0.0
 10
4.836208421584399
 20
7.336349183859113
 30
0.0
 10
4.834393976017521
 20
7.331638056667042
 30
0.0
 10
4.833497348911792
 20
7.326275718056767
 30
0.0
 10
4.833362778070452
 20
7.324850193751874
 30
0.0
 10
4.833318305528663
 20
7.323871765057402
 30
0.0
 10
4.83331016013471
 20
7.323152103352649
 30
0.0
 10
4.833329045625039
 20
7.322409648213846
 30
0.0
 10
4.833385838364045
 20
7.321545152159501
 30
0.0
 10
4.833540663313507
 20
7.320307106234116
 30
0.0
 10
4.833694025330766
 20
7.31970507627245
 30
0.0
 10
4.833801027018658
 20
7.319285036009481
 30
0.0
  0
SPLINE
  5
1BB
330
1F
100
AcDbEntity
  8
0
  6
SLD-Solid
 62
     7
370
    25
100
AcDbSpline
210
0.0
220
0.0
230
1.0
 70
     8
 71
     3
 72
    18
 73
    14
 74
     0
 42
0.00000001
 43
0.00000001
 40
0.0
 40
0.0
 40
0.0
 40
0.0
 40
0.0241410239423725
 40
0.0494125206690886
 40
0.0585012190587451
 40
0.0676730033143481
 40
0.0742182754275483
 40
0.0807574045756819
 40
0.0906377170292496
 40
0.1097155615641032
 40
0.1928045595360085
 40
0.5215185057075216
 40
1.0
 40
1.0
 40
1.0
 40
1.0
 10
4.833801027018656
 20
8.788642699721816
 30
0.0
 10
4.833735301115456
 20
8.788387197917295
 30
0.0
 10
4.833600771504861
 20
8.787864229702402
 30
0.0
 10
4.83344965228337
 20
8.786967017220043
 30
0.0
 10
4.83335815109024
 20
8.786005421593737
 30
0.0
 10
4.833320565017453
 20
8.785310551840078
 30
0.0
 10
4.833310653384222
 20
8.7845952981266
 30
0.0
 10
4.833324055742142
 20
8.783866235788398
 30
0.0
 10
4.833377508095515
 20
8.782878414409693
 30
0.0
 10
4.83362552354733
 20
8.78051546024259
 30
0.0
 10
4.834805423263155
 20
8.775486870568114
 30
0.0
 10
4.837339291450311
 20
8.770357855508413
 30
0.0
 10
4.839670720966696
 20
8.768839603757717
 30
0.0
 10
4.841052723172005
 20
8.767939629191499
 30
0.0
  0
ELLIPSE
  5
1BC
330
1F
100
AcDbEntity
  8
0
  6
SLD-Solid
 62
     7
370
    25
100
AcDbEllipse
 10
4.8472581091
 20
5.1941521559
 30
0.0
 11
0.0
 21
2.146915899364235
 31
0.0
210
0.0
220
0.0
230
1.0
 40
0.0911379658
 41
6.041012545465935
 42
6.31490487525316
  0
ELLIPSE
  5
1BD
330
1F
100
AcDbEntity
  8
0
  6
SLD-Solid
 62
     7
370
    25
100
AcDbEllipse
 10
4.8472581091
 20
10.9137755798
 30
0.0
 11
0.0
 21
2.146915899364233
 31
0.0
210
0.0
220
0.0
230
1.0
 40
0.0911379658
 41
3.109873085516215
 42
3.38376541530373
  0
LINE
  5
1BE
330
1F
100
AcDbEntity
  8
0
  6
SLD-Solid
 62
     7
370
    25
100
AcDbLine
 10
4.9873242447
 20
7.0259638679
 30
0.0
 11
4.894181163
 21
7.2784193561
 31
0.0
  0
LINE
  5
1BF
330
1F
100
AcDbEntity
  8
0
  6
SLD-Solid
 62
     7
370
    25
100
AcDbLine
 10
5.044551224
 20
7.0259638679
 30
0.0
 11
4.9873242447
 21
7.0259638679
 31
0.0
  0
LINE
  5
1C0
330
1F
100
AcDbEntity
  8
0
  6
SLD-Solid
 62
     7
370
    25
100
AcDbLine
 10
5.044551224
 20
6.9759638679
 30
0.0
 11
4.9873242447
 21
6.9759638679
 31
0.0
  0
ELLIPSE
  5
1C1
330
1F
100
AcDbEntity
  8
0
  6
SLD-Solid
 62
     7
370
    25
100
AcDbEllipse
 10
4.9873242447
 20
7.0259638679
 30
0.0
 11
0.0
 21
0.04999999999999982
 31
0.0
210
0.0
220
0.0
230
1.0
 40
0.0911379658
 41
2.899419891875962
 42
3.141592653589792
  0
LINE
  5
1C2
330
1F
100
AcDbEntity
  8
0
  6
SLD-Solid
 62
     7
370
    25
100
AcDbLine
 10
4.9862314433
 20
6.9774229073
 30
0.0
 11
4.8930883616
 21
7.2298783955
 31
0.0
  0
LINE
  5
1C3
330
1F
100
AcDbEntity
  8
0
  6
SLD-Solid
 62
     7
370
    25
100
AcDbLine
 10
4.8930883616
 20
8.8780493402
 30
0.0
 11
4.9862314433
 21
9.1305048284
 31
0.0
  0
ELLIPSE
  5
1C4
330
1F
100
AcDbEntity
  8
0
  6
SLD-Solid
 62
     7
370
    25
100
AcDbEllipse
 10
4.9873242447
 20
9.0819638679
 30
0.0
 11
0.0
 21
0.04999999999999893
 31
0.0
210
0.0
220
0.0
230
1.0
 40
0.0911379658
 41
0.0
 42
0.2421727617138379
  0
LINE
  5
1C5
330
1F
100
AcDbEntity
  8
0
  6
SLD-Solid
 62
     7
370
    25
100
AcDbLine
 10
5.044551224
 20
9.1319638679
 30
0.0
 11
4.9873242447
 21
9.1319638679
 31
0.0
  0
LINE
  5
1C6
330
1F
100
AcDbEntity
  8
0
  6
SLD-Solid
 62
     7
370
    25
100
AcDbLine
 10
4.9873242447
 20
9.0819638679
 30
0.0
 11
5.044551224
 21
9.0819638679
 31
0.0
  0
LINE
  5
1C7
330
1F
100
AcDbEntity
  8
0
  6
SLD-Solid
 62
     7
370
    25
100
AcDbLine
 10
4.894181163
 20
8.8295083796
 30
0.0
 11
4.9873242447
 21
9.0819638679
 31
0.0
  0
LINE
  5
1C8
330
1F
100
AcDbEntity
  8
0
  6
SLD-Solid
 62
     7
370
    25
100
AcDbLine
 10
4.6678352119
 20
7.0259638679
 30
0.0
 11
4.6678352119
 21
7.2689638679
 31
0.0
  0
LINE
  5
1C9
330
1F
100
AcDbEntity
  8
0
  6
SLD-Solid
 62
     7
370
    25
100
AcDbLine
 10
4.6678352119
 20
8.8389638679
 30
0.0
 11
4.6678352119
 21
9.0819638679
 31
0.0
  0
ARC
  5
1CA
330
1F
100
AcDbEntity
  8
0
  6
SLD-Solid
 62
     7
370
    25
100
AcDbCircle
 10
4.7178352119
 20
9.0819638679
 30
0.0
 40
0.0499999999999998
100
AcDbArc
 50
90.0
 51
180.0
  0
LINE
  5
1CB
330
1F
100
AcDbEntity
  8
0
  6
SLD-Solid
 62
     7
370
    25
100
AcDbLine
 10
4.7178352119
 20
9.1319638679
 30
0.0
 11
4.9873242447
 21
9.1319638679
 31
0.0
  0
ARC
  5
1CC
330
1F
100
AcDbEntity
  8
0
  6
SLD-Solid
 62
     7
370
    25
100
AcDbCircle
 10
4.7178352119
 20
7.0259638679
 30
0.0
 40
0.0500000000000007
100
AcDbArc
 50
180.0
 51
270.0
  0
LINE
  5
1CD
330
1F
100
AcDbEntity
  8
0
  6
SLD-Solid
 62
     7
370
    25
100
AcDbLine
 10
4.9873242447
 20
6.9759638679
 30
0.0
 11
4.7178352119
 21
6.9759638679
 31
0.0
  0
LINE
  5
1CE
330
1F
100
AcDbEntity
  8
0
  6
SLD-Solid
 62
     7
370
    25
100
AcDbLine
 10
5.3348352119
 20
7.0259638679
 30
0.0
 11
5.3348352119
 21
6.9759638679
 31
0.0
  0
LINE
  5
1CF
330
1F
100
AcDbEntity
  8
0
  6
SLD-Solid
 62
     7
370
    25
100
AcDbLine
 10
5.3348352119
 20
6.9759638679
 30
0.0
 11
5.044551224
 21
6.9759638679
 31
0.0
  0
LINE
  5
1D0
330
1F
100
AcDbEntity
  8
0
  6
SLD-Solid
 62
     7
370
    25
100
AcDbLine
 10
5.3348352119
 20
7.0259638679
 30
0.0
 11
5.044551224
 21
7.0259638679
 31
0.0
  0
LINE
  5
1D1
330
1F
100
AcDbEntity
  8
0
  6
SLD-Solid
 62
     7
370
    25
100
AcDbLine
 10
5.3348352119
 20
9.1319638679
 30
0.0
 11
5.3348352119
 21
9.0819638679
 31
0.0
  0
LINE
  5
1D2
330
1F
100
AcDbEntity
  8
0
  6
SLD-Solid
 62
     7
370
    25
100
AcDbLine
 10
5.044551224
 20
9.0819638679
 30
0.0
 11
5.3348352119
 21
9.0819638679
 31
0.0
  0
LINE
  5
1D3
330
1F
100
AcDbEntity
  8
0
  6
SLD-Solid
 62
     7
370
    25
100
AcDbLine
 10
5.3348352119
 20
9.1319638679
 30
0.0
 11
5.044551224
 21
9.1319638679
 31
0.0
  0
LINE
  5
1D4
330
1F
100
AcDbEntity
  8
0
  6
SLD-Solid
 62
     7
370
    25
100
AcDbLine
 10
5.0833352119
 20
6.8764638679
 30
0.0
 11
5.0833352119
 21
6.9264638679
 31
0.0
  0
LINE
  5
1D5
330
1F
100
AcDbEntity
  8
0
  6
SLD-Solid
 62
     7
370
    25
100
AcDbLine
 10
5.0833352119
 20
6.8764638679
 30
0.0
 11
4.6923352119
 21
6.8764638679
 31
0.0
  0
LINE
  5
1D6
330
1F
100
AcDbEntity
  8
0
  6
SLD-Solid
 62
     7
370
    25
100
AcDbLine
 10
4.6923352119
 20
6.8764638679
 30
0.0
 11
4.6923352119
 21
6.9264638679
 31
0.0
  0
LINE
  5
1D7
330
1F
100
AcDbEntity
  8
0
  6
SLD-Solid
 62
     7
370
    25
100
AcDbLine
 10
5.0833352119
 20
6.9264638679
 30
0.0
 11
4.6923352119
 21
6.9264638679
 31
0.0
  0
LINE
  5
1D8
330
1F
100
AcDbEntity
  8
0
  6
SLD-Solid
 62
     7
370
    25
100
AcDbLine
 10
4.6923352119
 20
9.2314638679
 30
0.0
 11
4.6923352119
 21
9.1814638679
 31
0.0
  0
LINE
  5
1D9
330
1F
100
AcDbEntity
  8
0
  6
SLD-Solid
 62
     7
370
    25
100
AcDbLine
 10
5.0833352119
 20
9.2314638679
 30
0.0
 11
5.0833352119
 21
9.1814638679
 31
0.0
  0
LINE
  5
1DA
330
1F
100
AcDbEntity
  8
0
  6
SLD-Solid
 62
     7
370
    25
100
AcDbLine
 10
5.0833352119
 20
9.2314638679
 30
0.0
 11
4.6923352119
 21
9.2314638679
 31
0.0
  0
LINE
  5
1DB
330
1F
100
AcDbEntity
  8
0
  6
SLD-Solid
 62
     7
370
    25
100
AcDbLine
 10
5.0833352119
 20
9.1814638679
 30
0.0
 11
4.6923352119
 21
9.1814638679
 31
0.0
  0
LINE
  5
1DC
330
1F
100
AcDbEntity
  8
0
  6
SLD-Solid
 62
     7
370
    25
100
AcDbLine
 10
4.6923352119
 20
6.8614638679
 30
0.0
 11
4.6923352119
 21
6.8764638679
 31
0.0
  0
LINE
  5
1DD
330
1F
100
AcDbEntity
  8
0
  6
SLD-Solid
 62
     7
370
    25
100
AcDbLine
 10
5.0833352119
 20
6.8764638679
 30
0.0
 11
5.0833352119
 21
6.8614638679
 31
0.0
  0
LINE
  5
1DE
330
1F
100
AcDbEntity
  8
0
  6
SLD-Solid
 62
     7
370
    25
100
AcDbLine
 10
5.0833352119
 20
9.2464638679
 30
0.0
 11
5.0833352119
 21
9.2314638679
 31
0.0
  0
LINE
  5
1DF
330
1F
100
AcDbEntity
  8
0
  6
SLD-Solid
 62
     7
370
    25
100
AcDbLine
 10
4.6923352119
 20
9.2314638679
 30
0.0
 11
4.6923352119
 21
9.2464638679
 31
0.0
  0
LINE
  5
1E0
330
1F
100
AcDbEntity
  8
0
  6
SLD-Solid
 62
     7
370
    25
100
AcDbLine
 10
5.0833352119
 20
6.9264638679
 30
0.0
 11
5.0833352119
 21
6.9759638679
 31
0.0
  0
LINE
  5
1E1
330
1F
100
AcDbEntity
  8
0
  6
SLD-Solid
 62
     7
370
    25
100
AcDbLine
 10
5.0833352119
 20
7.0259638679
 30
0.0
 11
5.0833352119
 21
7.1359638679
 31
0.0
  0
ARC
  5
1E2
330
1F
100
AcDbEntity
  8
0
  6
SLD-Solid
 62
     7
370
    25
100
AcDbCircle
 10
4.8878352119
 20
7.1359638679
 30
0.0
 40
0.1955000000000009
100
AcDbArc
 50
0.0
 51
26.0736835251
  0
LWPOLYLINE
  5
1E3
330
1F
100
AcDbEntity
  8
0
  6
SLD-Solid
 62
     7
370
    25
100
AcDbPolyline
 90
        3
 70
   128
 43
0.0
 10
4.9145660618
 20
7.3296277821
 10
4.8878352119
 20
7.3314638679
 10
4.8668039472
 20
7.3303293378
  0
LINE
  5
1E4
330
1F
100
AcDbEntity
  8
0
  6
SLD-Solid
 62
     7
370
    25
100
AcDbLine
 10
4.6923352119
 20
6.9829551478
 30
0.0
 11
4.6923352119
 21
6.9264638679
 31
0.0
  0
LINE
  5
1E5
330
1F
100
AcDbEntity
  8
0
  6
SLD-Solid
 62
     7
370
    25
100
AcDbLine
 10
4.6923352119
 20
9.1814638679
 30
0.0
 11
4.6923352119
 21
9.1249725879
 31
0.0
  0
LWPOLYLINE
  5
1E6
330
1F
100
AcDbEntity
  8
0
  6
SLD-Solid
 62
     7
370
    25
100
AcDbPolyline
 90
        3
 70
   128
 43
0.0
 10
4.8668039472
 20
8.7775983979
 10
4.8878352119
 20
8.7764638679
 10
4.9145660618
 20
8.7782999537
  0
ARC
  5
1E7
330
1F
100
AcDbEntity
  8
0
  6
SLD-Solid
 62
     7
370
    25
100
AcDbCircle
 10
4.8878352119
 20
8.9719638679
 30
0.0
 40
0.195500000000001
100
AcDbArc
 50
333.9263164748
 51
0.0
  0
LINE
  5
1E8
330
1F
100
AcDbEntity
  8
0
  6
SLD-Solid
 62
     7
370
    25
100
AcDbLine
 10
5.0833352119
 20
8.9719638679
 30
0.0
 11
5.0833352119
 21
9.0819638679
 31
0.0
  0
LINE
  5
1E9
330
1F
100
AcDbEntity
  8
0
  6
SLD-Solid
 62
     7
370
    25
100
AcDbLine
 10
5.0833352119
 20
9.1319638679
 30
0.0
 11
5.0833352119
 21
9.1814638679
 31
0.0
  0
LINE
  5
1EA
330
1F
100
AcDbEntity
  8
0
  6
SLD-Solid
 62
     7
370
    25
100
AcDbLine
 10
16.4103352119
 20
6.9164638679
 30
0.0
 11
16.4103352119
 21
6.9734638679
 31
0.0
  0
LINE
  5
1EB
330
1F
100
AcDbEntity
  8
0
  6
SLD-Solid
 62
     7
370
    25
100
AcDbLine
 10
16.0463352119
 20
6.9734638679
 30
0.0
 11
16.0463352119
 21
6.9164638679
 31
0.0
  0
LINE
  5
1EC
330
1F
100
AcDbEntity
  8
0
  6
SLD-Solid
 62
     7
370
    25
100
AcDbLine
 10
16.0463352119
 20
6.9164638679
 30
0.0
 11
16.4103352119
 21
6.9164638679
 31
0.0
  0
LINE
  5
1ED
330
1F
100
AcDbEntity
  8
0
  6
SLD-Solid
 62
     7
370
    25
100
AcDbLine
 10
16.4103352119
 20
9.1294638679
 30
0.0
 11
16.4103352119
 21
9.1864638679
 31
0.0
  0
LINE
  5
1EE
330
1F
100
AcDbEntity
  8
0
  6
SLD-Solid
 62
     7
370
    25
100
AcDbLine
 10
16.4103352119
 20
9.1864638679
 30
0.0
 11
16.0463352119
 21
9.1864638679
 31
0.0
  0
LINE
  5
1EF
330
1F
100
AcDbEntity
  8
0
  6
SLD-Solid
 62
     7
370
    25
100
AcDbLine
 10
16.0463352119
 20
9.1864638679
 30
0.0
 11
16.0463352119
 21
9.1294638679
 31
0.0
  0
ELLIPSE
  5
1F0
330
1F
100
AcDbEntity
  8
0
  6
SLD-Solid
 62
     7
370
    25
100
AcDbEllipse
 10
16.7241618804
 20
6.8876371994
 30
0.0
 11
0.1323301782391795
 21
-0.1323301782391777
 31
0.0
210
0.0
220
0.0
230
1.0
 40
0.9351131265
 41
5.531305892884619
 42
7.035064721474565
  0
ELLIPSE
  5
1F1
330
1F
100
AcDbEntity
  8
0
  6
SLD-Solid
 62
     7
370
    25
100
AcDbEllipse
 10
4.4615085435
 20
6.8876371994
 30
0.0
 11
-0.1323301782391768
 21
-0.1323301782391777
 31
0.0
210
0.0
220
0.0
230
1.0
 40
0.9351131265
 41
5.531305892884613
 42
7.035064721474567
  0
ELLIPSE
  5
1F2
330
1F
100
AcDbEntity
  8
0
  6
SLD-Solid
 62
     7
370
    25
100
AcDbEllipse
 10
16.7241618804
 20
9.2202905363
 30
0.0
 11
0.1323301782391795
 21
0.1323301782391777
 31
0.0
210
0.0
220
0.0
230
1.0
 40
0.9351131265
 41
5.531305892884617
 42
7.035064721474572
  0
ELLIPSE
  5
1F3
330
1F
100
AcDbEntity
  8
0
  6
SLD-Solid
 62
     7
370
    25
100
AcDbEllipse
 10
4.4615085435
 20
9.2202905363
 30
0.0
 11
-0.1323301782391768
 21
0.1323301782391777
 31
0.0
210
0.0
220
0.0
230
1.0
 40
0.9351131265
 41
5.531305892884616
 42
7.035064721474571
  0
LINE
  5
1F4
330
1F
100
AcDbEntity
  8
0
  6
SLD-Solid
 62
     7
370
    25
100
AcDbLine
 10
4.2803352119
 20
9.2324268483
 30
0.0
 11
4.2803352119
 21
6.8755008875
 31
0.0
  0
LINE
  5
1F5
330
1F
100
AcDbEntity
  8
0
  6
SLD-Solid
 62
     7
370
    25
100
AcDbLine
 10
4.4493722315
 20
9.4014638679
 30
0.0
 11
16.7362981923
 21
9.4014638679
 31
0.0
  0
LINE
  5
1F6
330
1F
100
AcDbEntity
  8
0
  6
SLD-Solid
 62
     7
370
    25
100
AcDbLine
 10
16.9053352119
 20
9.2324268483
 30
0.0
 11
16.9053352119
 21
6.8755008875
 31
0.0
  0
LINE
  5
1F7
330
1F
100
AcDbEntity
  8
0
  6
SLD-Solid
 62
     7
370
    25
100
AcDbLine
 10
4.4493722315
 20
6.7064638679
 30
0.0
 11
16.7362981923
 21
6.7064638679
 31
0.0
  0
DIMENSION
  5
1F8
330
1F
100
AcDbEntity
  8
DIMS
100
AcDbDimension
  2
_D
 10
17.5352564718
 20
6.7064638679
 30
0.0
 11
17.5352564718
 21
8.032887679
 31
0.0
 70
   160
  1
<>
 71
     2
 42
-1.0
  3
SLDDIMSTYLE0
100
AcDbAlignedDimension
 13
16.7362981923
 23
9.4014638679
 33
0.0
 14
16.7362981923
 24
6.7064638679
 34
0.0
 50
90.0
100
AcDbRotatedDimension
  0
MTEXT
  5
20E
330
1F
100
AcDbEntity
  8
NOTES
100
AcDbMText
 10
9.8696008105
 20
6.5112123289
 30
0.0
 40
0.25
 41
0.0
 71
     1
 72
     1
  1
Front view
  7
SLDTEXTSTYLE1
 73
     1
 44
1.0
  0
ARC
  5
20F
330
1F
100
AcDbEntity
  8
0
  6
SLD-Solid
 62
     7
370
    25
100
AcDbCircle
 10
23.4160072698
 20
9.026856434
 30
0.0
 40
0.3146074338901318
100
AcDbArc
 50
60.2267646167
 51
119.7732353833
  0
LINE
  5
210
330
1F
100
AcDbEntity
  8
0
  6
SLD-Solid
 62
     7
370
    25
100
AcDbLine
 10
23.5722314262
 20
9.2814638679
 30
0.0
 11
23.5722314262
 21
9.2999349034
 31
0.0
  0
LINE
  5
211
330
1F
100
AcDbEntity
  8
0
  6
SLD-Solid
 62
     7
370
    25
100
AcDbLine
 10
23.2597831135
 20
9.2999349034
 30
0.0
 11
23.2597831135
 21
9.2814638679
 31
0.0
  0
LINE
  5
212
330
1F
100
AcDbEntity
  8
0
  6
SLD-Solid
 62
     7
370
    25
100
AcDbLine
 10
23.3222572698
 20
9.2814638679
 30
0.0
 11
23.3222572698
 21
9.2314638679
 31
0.0
  0
LINE
  5
213
330
1F
100
AcDbEntity
  8
0
  6
SLD-Solid
 62
     7
370
    25
100
AcDbLine
 10
23.3222572698
 20
9.1814638679
 30
0.0
 11
23.3222572698
 21
9.1319638679
 31
0.0
  0
LINE
  5
214
330
1F
100
AcDbEntity
  8
0
  6
SLD-Solid
 62
     7
370
    25
100
AcDbLine
 10
23.5097572698
 20
9.1319638679
 30
0.0
 11
23.5097572698
 21
9.1814638679
 31
0.0
  0
LINE
  5
215
330
1F
100
AcDbEntity
  8
0
  6
SLD-Solid
 62
     7
370
    25
100
AcDbLine
 10
23.5097572698
 20
9.2314638679
 30
0.0
 11
23.5097572698
 21
9.2814638679
 31
0.0
  0
LINE
  5
216
330
1F
100
AcDbEntity
  8
0
  6
SLD-Solid
 62
     7
370
    25
100
AcDbLine
 10
23.2597831135
 20
6.8264638679
 30
0.0
 11
23.2597831135
 21
6.8079928324
 31
0.0
  0
LINE
  5
217
330
1F
100
AcDbEntity
  8
0
  6
SLD-Solid
 62
     7
370
    25
100
AcDbLine
 10
23.5722314262
 20
6.8079928324
 30
0.0
 11
23.5722314262
 21
6.8264638679
 31
0.0
  0
ARC
  5
218
330
1F
100
AcDbEntity
  8
0
  6
SLD-Solid
 62
     7
370
    25
100
AcDbCircle
 10
23.4160072698
 20
7.0810713018
 30
0.0
 40
0.3146074338901326
100
AcDbArc
 50
240.2267646167
 51
299.7732353833
  0
LINE
  5
219
330
1F
100
AcDbEntity
  8
0
  6
SLD-Solid
 62
     7
370
    25
100
AcDbLine
 10
23.5097572698
 20
6.8264638679
 30
0.0
 11
23.5097572698
 21
6.8764638679
 31
0.0
  0
LINE
  5
21A
330
1F
100
AcDbEntity
  8
0
  6
SLD-Solid
 62
     7
370
    25
100
AcDbLine
 10
23.5097572698
 20
6.9264638679
 30
0.0
 11
23.5097572698
 21
6.9734638679
 31
0.0
  0
LINE
  5
21B
330
1F
100
AcDbEntity
  8
0
  6
SLD-Solid
 62
     7
370
    25
100
AcDbLine
 10
23.3222572698
 20
6.9734638679
 30
0.0
 11
23.3222572698
 21
6.9264638679
 31
0.0
  0
LINE
  5
21C
330
1F
100
AcDbEntity
  8
0
  6
SLD-Solid
 62
     7
370
    25
100
AcDbLine
 10
23.3222572698
 20
6.8764638679
 30
0.0
 11
23.3222572698
 21
6.8264638679
 31
0.0
  0
LINE
  5
21D
330
1F
100
AcDbEntity
  8
0
  6
SLD-Solid
 62
     7
370
    25
100
AcDbLine
 10
20.4594379945
 20
8.9264638679
 30
0.0
 11
20.45319873
 21
8.9264638679
 31
0.0
  0
LINE
  5
21E
330
1F
100
AcDbEntity
  8
0
  6
SLD-Solid
 62
     7
370
    25
100
AcDbLine
 10
20.45319873
 20
7.1764638679
 30
0.0
 11
20.4594379945
 21
7.1764638679
 31
0.0
  0
LINE
  5
21F
330
1F
100
AcDbEntity
  8
0
  6
SLD-Solid
 62
     7
370
    25
100
AcDbLine
 10
20.4656379945
 20
8.9289638679
 30
0.0
 11
20.45939873
 21
8.9289638679
 31
0.0
  0
LINE
  5
220
330
1F
100
AcDbEntity
  8
0
  6
SLD-Solid
 62
     7
370
    25
100
AcDbLine
 10
23.2205072698
 20
6.9264638679
 30
0.0
 11
23.2205072698
 21
6.8764638679
 31
0.0
  0
LINE
  5
221
330
1F
100
AcDbEntity
  8
0
  6
SLD-Solid
 62
     7
370
    25
100
AcDbLine
 10
23.2205072698
 20
9.2314638679
 30
0.0
 11
23.2205072698
 21
9.1814638679
 31
0.0
  0
LINE
  5
222
330
1F
100
AcDbEntity
  8
0
  6
SLD-Solid
 62
     7
370
    25
100
AcDbLine
 10
23.5722314262
 20
9.2999349034
 30
0.0
 11
23.2597831135
 21
9.2999349034
 31
0.0
  0
LINE
  5
223
330
1F
100
AcDbEntity
  8
0
  6
SLD-Solid
 62
     7
370
    25
100
AcDbLine
 10
23.5722314262
 20
9.2814638679
 30
0.0
 11
23.2597831135
 21
9.2814638679
 31
0.0
  0
LINE
  5
224
330
1F
100
AcDbEntity
  8
0
  6
SLD-Solid
 62
     7
370
    25
100
AcDbLine
 10
23.2597831135
 20
6.8079928324
 30
0.0
 11
23.5722314262
 21
6.8079928324
 31
0.0
  0
LINE
  5
225
330
1F
100
AcDbEntity
  8
0
  6
SLD-Solid
 62
     7
370
    25
100
AcDbLine
 10
23.2597831135
 20
6.8264638679
 30
0.0
 11
23.5722314262
 21
6.8264638679
 31
0.0
  0
ARC
  5
226
330
1F
100
AcDbEntity
  8
0
  6
SLD-Solid
 62
     7
370
    25
100
AcDbCircle
 10
20.4530432054
 20
8.0396013553
 30
0.0
 40
0.8628193599257022
100
AcDbArc
 50
210.9790282015
 51
298.1963083397
  0
ARC
  5
227
330
1F
100
AcDbEntity
  8
0
  6
SLD-Solid
 62
     7
370
    25
100
AcDbCircle
 10
20.4529402734
 20
8.0636997591
 30
0.0
 40
0.8625389647989298
100
AcDbArc
 50
61.7859465992
 51
149.0387168585
  0
ARC
  5
228
330
1F
100
AcDbEntity
  8
0
  6
SLD-Solid
 62
     7
370
    25
100
AcDbCircle
 10
20.4592327544
 20
8.0371289707
 30
0.0
 40
0.860665127340072
100
AcDbArc
 50
270.0136631445
 51
298.3756688467
  0
ARC
  5
229
330
1F
100
AcDbEntity
  8
0
  6
SLD-Solid
 62
     7
370
    25
100
AcDbCircle
 10
20.4592327544
 20
8.065798765
 30
0.0
 40
0.8606651273400664
100
AcDbArc
 50
61.6243311533
 51
89.9863368555
  0
LINE
  5
22A
330
1F
100
AcDbEntity
  8
0
  6
SLD-Solid
 62
     7
370
    25
100
AcDbLine
 10
23.6350072698
 20
6.9734638679
 30
0.0
 11
22.5958913528
 21
6.9734638679
 31
0.0
  0
LINE
  5
22B
330
1F
100
AcDbEntity
  8
0
  6
SLD-Solid
 62
     7
370
    25
100
AcDbLine
 10
22.5958913528
 20
9.1294638679
 30
0.0
 11
23.6350072698
 21
9.1294638679
 31
0.0
  0
LINE
  5
22C
330
1F
100
AcDbEntity
  8
0
  6
SLD-Solid
 62
     7
370
    25
100
AcDbLine
 10
22.5839007253
 20
6.9749229073
 30
0.0
 11
21.5618998403
 21
7.2273783955
 31
0.0
  0
LINE
  5
22D
330
1F
100
AcDbEntity
  8
0
  6
SLD-Solid
 62
     7
370
    25
100
AcDbLine
 10
21.5618998403
 20
8.8755493402
 30
0.0
 11
22.5839007253
 21
9.1280048284
 31
0.0
  0
ARC
  5
22E
330
1F
100
AcDbEntity
  8
0
  6
SLD-Solid
 62
     7
370
    25
100
AcDbCircle
 10
22.5958913528
 20
9.0794638679
 30
0.0
 40
0.0499999999999989
100
AcDbArc
 50
90.0
 51
103.8754771592
  0
ARC
  5
22F
330
1F
100
AcDbEntity
  8
0
  6
SLD-Solid
 62
     7
370
    25
100
AcDbCircle
 10
22.5958913528
 20
7.0234638679
 30
0.0
 40
0.0499999999999998
100
AcDbArc
 50
256.1245228408
 51
270.0
  0
ARC
  5
230
330
1F
100
AcDbEntity
  8
0
  6
SLD-Solid
 62
     7
370
    25
100
AcDbCircle
 10
21.0590330921
 20
5.1916521559
 30
0.0
 40
2.096915899364234
100
AcDbArc
 50
76.1245228408
 51
102.7331602547
  0
ARC
  5
231
330
1F
100
AcDbEntity
  8
0
  6
SLD-Solid
 62
     7
370
    25
100
AcDbCircle
 10
21.0590330921
 20
10.9112755798
 30
0.0
 40
2.096915899364233
100
AcDbArc
 50
257.2668397453
 51
283.8754771592
  0
ARC
  5
232
330
1F
100
AcDbEntity
  8
0
  6
SLD-Solid
 62
     7
370
    25
100
AcDbCircle
 10
20.4128072698
 20
8.0514638679
 30
0.0
 40
0.835000000000001
100
AcDbArc
 50
77.2668397453
 51
282.7331602547
  0
ARC
  5
233
330
1F
100
AcDbEntity
  8
0
  6
SLD-Solid
 62
     7
370
    25
100
AcDbCircle
 10
20.4656434124
 20
8.0689460753
 30
0.0
 40
0.8599989109123309
100
AcDbArc
 50
61.1104042041
 51
101.7761675036
  0
LWPOLYLINE
  5
234
330
1F
100
AcDbEntity
  8
0
  6
SLD-Solid
 62
     7
370
    25
100
AcDbPolyline
 90
        3
 70
   128
 43
0.0
 10
20.7841519464
 20
7.240162622
 10
20.85418415
 20
7.2717698737
 10
20.8701148409
 20
7.2800405737
  0
ARC
  5
235
330
1F
100
AcDbEntity
  8
0
  6
SLD-Solid
 62
     7
370
    25
100
AcDbCircle
 10
20.4594806821
 20
8.0690576939
 30
0.0
 40
0.8599061778972308
100
AcDbArc
 50
90.005460491
 51
112.1919608082
  0
LINE
  5
236
330
1F
100
AcDbEntity
  8
0
  6
SLD-Solid
 62
     7
370
    25
100
AcDbLine
 10
23.5460072698
 20
9.1319638679
 30
0.0
 11
23.4040072698
 21
9.1319638679
 31
0.0
  0
LINE
  5
237
330
1F
100
AcDbEntity
  8
0
  6
SLD-Solid
 62
     7
370
    25
100
AcDbLine
 10
23.5460072698
 20
9.1294638679
 30
0.0
 11
23.5460072698
 21
9.1319638679
 31
0.0
  0
LINE
  5
238
330
1F
100
AcDbEntity
  8
0
  6
SLD-Solid
 62
     7
370
    25
100
AcDbLine
 10
23.4040072698
 20
9.1294638679
 30
0.0
 11
23.4040072698
 21
9.1319638679
 31
0.0
  0
LINE
  5
239
330
1F
100
AcDbEntity
  8
0
  6
SLD-Solid
 62
     7
370
    25
100
AcDbLine
 10
23.2300072698
 20
9.1319638679
 30
0.0
 11
23.2300072698
 21
9.1294638679
 31
0.0
  0
LINE
  5
23A
330
1F
100
AcDbEntity
  8
0
  6
SLD-Solid
 62
     7
370
    25
100
AcDbLine
 10
23.4040072698
 20
9.1319638679
 30
0.0
 11
23.2300072698
 21
9.1319638679
 31
0.0
  0
ARC
  5
23B
330
1F
100
AcDbEntity
  8
0
  6
SLD-Solid
 62
     7
370
    25
100
AcDbCircle
 10
21.0652330921
 20
10.9137755798
 30
0.0
 40
2.096915899364233
100
AcDbArc
 50
274.6411350697
 51
283.8754771592
  0
LINE
  5
23C
330
1F
100
AcDbEntity
  8
0
  6
SLD-Solid
 62
     7
370
    25
100
AcDbLine
 10
21.5680998403
 20
8.8780493402
 30
0.0
 11
22.5901007253
 21
9.1305048284
 31
0.0
  0
ARC
  5
23D
330
1F
100
AcDbEntity
  8
0
  6
SLD-Solid
 62
     7
370
    25
100
AcDbCircle
 10
22.6020913528
 20
9.0819638679
 30
0.0
 40
0.0499999999999998
100
AcDbArc
 50
90.0
 51
103.8754771592
  0
LINE
  5
23E
330
1F
100
AcDbEntity
  8
0
  6
SLD-Solid
 62
     7
370
    25
100
AcDbLine
 10
23.2300072698
 20
9.1319638679
 30
0.0
 11
22.6020913528
 21
9.1319638679
 31
0.0
  0
LINE
  5
23F
330
1F
100
AcDbEntity
  8
0
  6
SLD-Solid
 62
     7
370
    25
100
AcDbLine
 10
23.9250072698
 20
6.7064638679
 30
0.0
 11
23.9250072698
 21
6.8755008875
 31
0.0
  0
LINE
  5
240
330
1F
100
AcDbEntity
  8
0
  6
SLD-Solid
 62
     7
370
    25
100
AcDbLine
 10
23.7091253653
 20
6.7643092498
 30
0.0
 11
23.9250072698
 21
6.7064638679
 31
0.0
  0
LINE
  5
241
330
1F
100
AcDbEntity
  8
0
  6
SLD-Solid
 62
     7
370
    25
100
AcDbLine
 10
23.9250072698
 20
9.2324268483
 30
0.0
 11
23.9250072698
 21
6.8755008875
 31
0.0
  0
LINE
  5
242
330
1F
100
AcDbEntity
  8
0
  6
SLD-Solid
 62
     7
370
    25
100
AcDbLine
 10
23.9250072698
 20
9.4014638679
 30
0.0
 11
23.7091253653
 21
9.3436184859
 31
0.0
  0
LINE
  5
243
330
1F
100
AcDbEntity
  8
0
  6
SLD-Solid
 62
     7
370
    25
100
AcDbLine
 10
23.9250072698
 20
9.2324268483
 30
0.0
 11
23.9250072698
 21
9.4014638679
 31
0.0
  0
LINE
  5
244
330
1F
100
AcDbEntity
  8
0
  6
SLD-Solid
 62
     7
370
    25
100
AcDbLine
 10
23.6350072698
 20
6.9333462694
 30
0.0
 11
23.6350072698
 21
6.8609018325
 31
0.0
  0
ARC
  5
245
330
1F
100
AcDbEntity
  8
0
  6
SLD-Solid
 62
     7
370
    25
100
AcDbCircle
 10
23.7350072698
 20
6.8609018325
 30
0.0
 40
0.1000000000000014
100
AcDbArc
 50
180.0
 51
255.0
  0
LINE
  5
246
330
1F
100
AcDbEntity
  8
0
  6
SLD-Solid
 62
     7
370
    25
100
AcDbLine
 10
23.6350072698
 20
9.1745814663
 30
0.0
 11
23.6350072698
 21
6.9333462694
 31
0.0
  0
LINE
  5
247
330
1F
100
AcDbEntity
  8
0
  6
SLD-Solid
 62
     7
370
    25
100
AcDbLine
 10
23.6350072698
 20
9.2470259033
 30
0.0
 11
23.6350072698
 21
9.1745814663
 31
0.0
  0
ARC
  5
248
330
1F
100
AcDbEntity
  8
0
  6
SLD-Solid
 62
     7
370
    25
100
AcDbCircle
 10
23.7350072698
 20
9.2470259033
 30
0.0
 40
0.1000000000000015
100
AcDbArc
 50
105.0
 51
180.0
  0
ARC
  5
249
330
1F
100
AcDbEntity
  8
0
  6
SLD-Solid
 62
     7
370
    25
100
AcDbCircle
 10
23.6200072698
 20
6.8614638679
 30
0.0
 40
0.0149999999999997
100
AcDbArc
 50
0.0
 51
90.0
  0
LINE
  5
24A
330
1F
100
AcDbEntity
  8
0
  6
SLD-Solid
 62
     7
370
    25
100
AcDbLine
 10
23.6200072698
 20
6.8764638679
 30
0.0
 11
23.4160072698
 21
6.8764638679
 31
0.0
  0
LINE
  5
24B
330
1F
100
AcDbEntity
  8
0
  6
SLD-Solid
 62
     7
370
    25
100
AcDbLine
 10
23.6350072698
 20
6.9264638679
 30
0.0
 11
23.4160072698
 21
6.9264638679
 31
0.0
  0
LINE
  5
24C
330
1F
100
AcDbEntity
  8
0
  6
SLD-Solid
 62
     7
370
    25
100
AcDbLine
 10
23.6200072698
 20
9.2314638679
 30
0.0
 11
23.4160072698
 21
9.2314638679
 31
0.0
  0
LINE
  5
24D
330
1F
100
AcDbEntity
  8
0
  6
SLD-Solid
 62
     7
370
    25
100
AcDbLine
 10
23.6350072698
 20
9.1814638679
 30
0.0
 11
23.4160072698
 21
9.1814638679
 31
0.0
  0
ARC
  5
24E
330
1F
100
AcDbEntity
  8
0
  6
SLD-Solid
 62
     7
370
    25
100
AcDbCircle
 10
23.6200072698
 20
9.2464638679
 30
0.0
 40
0.0150000000000006
100
AcDbArc
 50
270.0
 51
0.0
  0
LINE
  5
24F
330
1F
100
AcDbEntity
  8
0
  6
SLD-Solid
 62
     7
370
    25
100
AcDbLine
 10
23.4160072698
 20
6.8764638679
 30
0.0
 11
23.2205072698
 21
6.8764638679
 31
0.0
  0
LINE
  5
250
330
1F
100
AcDbEntity
  8
0
  6
SLD-Solid
 62
     7
370
    25
100
AcDbLine
 10
23.4160072698
 20
6.9264638679
 30
0.0
 11
23.2205072698
 21
6.9264638679
 31
0.0
  0
LINE
  5
251
330
1F
100
AcDbEntity
  8
0
  6
SLD-Solid
 62
     7
370
    25
100
AcDbLine
 10
23.4160072698
 20
9.1814638679
 30
0.0
 11
23.2205072698
 21
9.1814638679
 31
0.0
  0
LINE
  5
252
330
1F
100
AcDbEntity
  8
0
  6
SLD-Solid
 62
     7
370
    25
100
AcDbLine
 10
23.4160072698
 20
9.2314638679
 30
0.0
 11
23.2205072698
 21
9.2314638679
 31
0.0
  0
DIMENSION
  5
253
330
1F
100
AcDbEntity
  8
DIMS
100
AcDbDimension
  2
_D_1
 10
23.9250072698
 20
10.0251452936
 30
0.0
 11
22.0096777709
 21
10.0251452936
 31
0.0
 70
   160
  1
<>
 71
     2
 42
-1.0
  3
SLDDIMSTYLE0
100
AcDbAlignedDimension
 13
19.5778072698
 23
8.0514638679
 33
0.0
 14
23.9250072698
 24
9.2324268483
 34
0.0
100
AcDbRotatedDimension
  0
MTEXT
  5
262
330
1F
100
AcDbEntity
  8
NOTES
100
AcDbMText
 10
19.7523286423
 20
6.5741114711
 30
0.0
 40
0.25
 41
0.0
 71
     1
 72
     1
  1
Side view
  7
SLDTEXTSTYLE1
 73
     1
 44
1.0
  0
LINE
  5
263
330
1F
100
AcDbEntity
  8
0
  6
SLD-Solid
 62
     7
370
    25
100
AcDbLine
 10
27.6535535062
 20
19.9645541552
 30
0.0
 11
27.6535535062
 21
19.9796365096
 31
0.0
  0
LINE
  5
264
330
1F
100
AcDbEntity
  8
0
  6
SLD-Solid
 62
     7
370
    25
100
AcDbLine
 10
27.3411051936
 20
19.9796365096
 30
0.0
 11
27.3411051936
 21
19.9645541552
 31
0.0
  0
LINE
  5
265
330
1F
100
AcDbEntity
  8
0
  6
SLD-Solid
 62
     7
370
    25
100
AcDbLine
 10
27.4035793499
 20
18.2049087056
 30
0.0
 11
27.4035793499
 21
18.122846354
 31
0.0
  0
LINE
  5
266
330
1F
100
AcDbEntity
  8
0
  6
SLD-Solid
 62
     7
370
    25
100
AcDbLine
 10
32.8453746894
 20
12.4568293681
 30
0.0
 11
32.8731891845
 21
12.4356786157
 31
0.0
  0
LINE
  5
267
330
1F
100
AcDbEntity
  8
0
  6
SLD-Solid
 62
     7
370
    25
100
AcDbLine
 10
26.7394911444
 20
16.6741944873
 30
0.0
 11
26.7550474936
 21
16.6831749765
 31
0.0
  0
SPLINE
  5
268
330
1F
100
AcDbEntity
  8
0
  6
SLD-Solid
 62
     7
370
    25
100
AcDbSpline
210
0.0
220
0.0
230
1.0
 70
     8
 71
     3
 72
     9
 73
     5
 74
     0
 42
0.00000001
 43
0.00000001
 40
0.0
 40
0.0
 40
0.0
 40
0.0
 40
0.6510524703311868
 40
0.9999999999999999
 40
0.9999999999999999
 40
0.9999999999999999
 40
0.9999999999999999
 10
26.45806771648629
 20
17.08522851260008
 30
0.0
 10
26.45538251178159
 20
17.07813904614349
 30
0.0
 10
26.45125810579732
 20
17.06724980636687
 30
0.0
 10
26.45091980586355
 20
17.05544855416115
 30
0.0
 10
26.45080175693737
 20
17.05133053635696
 30
0.0
  0
SPLINE
  5
269
330
1F
100
AcDbEntity
  8
0
  6
SLD-Solid
 62
     7
370
    25
100
AcDbSpline
210
0.0
220
0.0
230
1.0
 70
     8
 71
     3
 72
    13
 73
     9
 74
     0
 42
0.00000001
 43
0.00000001
 40
0.0
 40
0.0
 40
0.0
 40
0.0
 40
0.1211073547637146
 40
0.3225727212460821
 40
0.5278842759404255
 40
0.7426557160588018
 40
0.929227251743119
 40
1.0
 40
1.0
 40
1.0
 40
1.0
 10
26.45080175693737
 20
17.05133053635696
 30
0.0
 10
26.45118492207866
 20
17.04485014635132
 30
0.0
 10
26.45220549281568
 20
17.02758945196215
 30
0.0
 10
26.46218215169893
 20
16.99900768423235
 30
0.0
 10
26.48163837605425
 20
16.96848334196761
 30
0.0
 10
26.50691878659568
 20
16.94650762753928
 30
0.0
 10
26.5297384209229
 20
16.93473485559486
 30
0.0
 10
26.54316993147415
 20
16.93482345468435
 30
0.0
 10
26.54686375711658
 20
16.93484782049096
 30
0.0
  0
SPLINE
  5
26A
330
1F
100
AcDbEntity
  8
0
  6
SLD-Solid
 62
     7
370
    25
100
AcDbSpline
210
0.0
220
0.0
230
1.0
 70
     8
 71
     3
 72
    13
 73
     9
 74
     0
 42
0.00000001
 43
0.00000001
 40
0.0
 40
0.0
 40
0.0
 40
0.0
 40
0.0370872225972394
 40
0.2679840682189308
 40
0.4971781811005869
 40
0.7199290907819603
 40
0.9381701023502366
 40
0.9999999999999999
 40
0.9999999999999999
 40
0.9999999999999999
 40
0.9999999999999999
 10
26.52759402188615
 20
17.02701455277024
 30
0.0
 10
26.52812642826236
 20
17.02628667336905
 30
0.0
 10
26.53197347898904
 20
17.02102717779499
 30
0.0
 10
26.53641075044612
 20
17.00926266132021
 30
0.0
 10
26.53945248045537
 20
16.99437953871218
 30
0.0
 10
26.53789774300805
 20
16.98270424519047
 30
0.0
 10
26.53514621310018
 20
16.97691847847937
 30
0.0
 10
26.53265461897377
 20
16.97598030674064
 30
0.0
 10
26.53210456181057
 20
16.97577319111144
 30
0.0
  0
SPLINE
  5
26B
330
1F
100
AcDbEntity
  8
0
  6
SLD-Solid
 62
     7
370
    25
100
AcDbSpline
210
0.0
220
0.0
230
1.0
 70
     8
 71
     3
 72
    12
 73
     8
 74
     0
 42
0.00000001
 43
0.00000001
 40
0.0
 40
0.0
 40
0.0
 40
0.0
 40
0.1257525708472948
 40
0.3594206325892048
 40
0.5754693468051306
 40
0.8043939407153325
 40
1.0
 40
1.0
 40
1.0
 40
1.0
 10
26.48685129445841
 20
17.05230500285898
 30
0.0
 10
26.48776496398674
 20
17.05298419572977
 30
0.0
 10
26.49037637524963
 20
17.05492543581436
 30
0.0
 10
26.49784579731298
 20
17.05415755282327
 30
0.0
 10
26.50867723049123
 20
17.04884468369247
 30
0.0
 10
26.51940610682531
 20
17.03952587618688
 30
0.0
 10
26.52501135621489
 20
17.03096092559532
 30
0.0
 10
26.52759402188615
 20
17.02701455277024
 30
0.0
  0
SPLINE
  5
26C
330
1F
100
AcDbEntity
  8
0
  6
SLD-Solid
 62
     7
370
    25
100
AcDbSpline
210
0.0
220
0.0
230
1.0
 70
     8
 71
     3
 72
     9
 73
     5
 74
     0
 42
0.00000001
 43
0.00000001
 40
0.0
 40
0.0
 40
0.0
 40
0.0
 40
0.6510524703311786
 40
1.0
 40
1.0
 40
1.0
 40
1.0
 10
26.16638616924684
 20
17.25361268566352
 30
0.0
 10
26.16370096454214
 20
17.24652321920692
 30
0.0
 10
26.15957655855787
 20
17.2356339794303
 30
0.0
 10
26.1592382586241
 20
17.22383272722458
 30
0.0
 10
26.15912020969792
 20
17.21971470942039
 30
0.0
  0
SPLINE
  5
26D
330
1F
100
AcDbEntity
  8
0
  6
SLD-Solid
 62
     7
370
    25
100
AcDbSpline
210
0.0
220
0.0
230
1.0
 70
     8
 71
     3
 72
    13
 73
     9
 74
     0
 42
0.00000001
 43
0.00000001
 40
0.0
 40
0.0
 40
0.0
 40
0.0
 40
0.1211073547637146
 40
0.3225727212460821
 40
0.5278842759404255
 40
0.7426557160588018
 40
0.929227251743119
 40
1.0
 40
1.0
 40
1.0
 40
1.0
 10
26.15912020969792
 20
17.21971470942039
 30
0.0
 10
26.15950337483921
 20
17.21323431941475
 30
0.0
 10
26.16052394557623
 20
17.19597362502559
 30
0.0
 10
26.17050060445948
 20
17.16739185729578
 30
0.0
 10
26.1899568288148
 20
17.13686751503104
 30
0.0
 10
26.21523723935623
 20
17.11489180060272
 30
0.0
 10
26.23805687368344
 20
17.1031190286583
 30
0.0
 10
26.2514883842347
 20
17.10320762774778
 30
0.0
 10
26.25518220987713
 20
17.10323199355439
 30
0.0
  0
SPLINE
  5
26E
330
1F
100
AcDbEntity
  8
0
  6
SLD-Solid
 62
     7
370
    25
100
AcDbSpline
210
0.0
220
0.0
230
1.0
 70
     8
 71
     3
 72
    13
 73
     9
 74
     0
 42
0.00000001
 43
0.00000001
 40
0.0
 40
0.0
 40
0.0
 40
0.0
 40
0.0370872225972394
 40
0.2679840682189308
 40
0.4971781811005869
 40
0.7199290907819603
 40
0.9381701023502366
 40
0.9999999999999999
 40
0.9999999999999999
 40
0.9999999999999999
 40
0.9999999999999999
 10
26.2359124746467
 20
17.19539872583367
 30
0.0
 10
26.23644488102291
 20
17.19467084643248
 30
0.0
 10
26.24029193174959
 20
17.18941135085842
 30
0.0
 10
26.24472920320667
 20
17.17764683438365
 30
0.0
 10
26.24777093321591
 20
17.16276371177562
 30
0.0
 10
26.2462161957686
 20
17.15108841825391
 30
0.0
 10
26.24346466586073
 20
17.1453026515428
 30
0.0
 10
26.24097307173433
 20
17.14436447980407
 30
0.0
 10
26.24042301457112
 20
17.14415736417487
 30
0.0
  0
SPLINE
  5
26F
330
1F
100
AcDbEntity
  8
0
  6
SLD-Solid
 62
     7
370
    25
100
AcDbSpline
210
0.0
220
0.0
230
1.0
 70
     8
 71
     3
 72
    12
 73
     8
 74
     0
 42
0.00000001
 43
0.00000001
 40
0.0
 40
0.0
 40
0.0
 40
0.0
 40
0.1257525708473131
 40
0.3594206325892182
 40
0.5754693468051395
 40
0.8043939407153368
 40
1.0
 40
1.0
 40
1.0
 40
1.0
 10
26.19516974721896
 20
17.22068917592241
 30
0.0
 10
26.19608341674729
 20
17.2213683687932
 30
0.0
 10
26.19869482801018
 20
17.22330960887779
 30
0.0
 10
26.20616425007353
 20
17.22254172588671
 30
0.0
 10
26.21699568325178
 20
17.2172288567559
 30
0.0
 10
26.22772455958586
 20
17.20791004925031
 30
0.0
 10
26.23332980897544
 20
17.19934509865875
 30
0.0
 10
26.2359124746467
 20
17.19539872583367
 30
0.0
  0
SPLINE
  5
270
330
1F
100
AcDbEntity
  8
0
  6
SLD-Solid
 62
     7
370
    25
100
AcDbSpline
210
0.0
220
0.0
230
1.0
 70
     8
 71
     3
 72
    16
 73
    12
 74
     0
 42
0.00000001
 43
0.00000001
 40
0.0
 40
0.0
 40
0.0
 40
0.0
 40
0.093965350168532
 40
0.209063914879381
 40
0.3247650349407143
 40
0.4420909163005237
 40
0.5613208804549152
 40
0.6820785151291935
 40
0.8037235007628135
 40
0.9257055975309056
 40
1.0
 40
1.0
 40
1.0
 40
1.0
 10
33.14048756630818
 20
12.28761590545245
 30
0.0
 10
33.15528183256637
 20
12.27934194551805
 30
0.0
 10
33.18819765968942
 20
12.26093317619683
 30
0.0
 10
33.24590892218121
 20
12.24570212046821
 30
0.0
 10
33.31091716285449
 20
12.23964318513014
 30
0.0
 10
33.37959097362373
 20
12.24526747639466
 30
0.0
 10
33.45098927314223
 20
12.26220742035427
 30
0.0
 10
33.52422988520879
 20
12.29043060196482
 30
0.0
 10
33.59808380102327
 20
12.32969218466658
 30
0.0
 10
33.66194230536657
 20
12.37234698904507
 30
0.0
 10
33.70037093549777
 20
12.40350210976925
 30
0.0
 10
33.71491690572039
 20
12.41529491780817
 30
0.0
  0
LINE
  5
271
330
1F
100
AcDbEntity
  8
0
  6
SLD-Solid
 62
     7
370
    25
100
AcDbLine
 10
33.1147014584
 20
12.3013833897
 30
0.0
 11
33.1429857297
 21
12.2850552275
 31
0.0
  0
SPLINE
  5
272
330
1F
100
AcDbEntity
  8
0
  6
SLD-Solid
 62
     7
370
    25
100
AcDbSpline
210
0.0
220
0.0
230
1.0
 70
     8
 71
     3
 72
    29
 73
    25
 74
     0
 42
0.00000001
 43
0.00000001
 40
0.0
 40
0.0
 40
0.0
 40
0.0
 40
0.025742674940193
 40
0.0739112928942787
 40
0.1221885953049243
 40
0.170498035263666
 40
0.2187556088307703
 40
0.2669452545546778
 40
0.3150751197308413
 40
0.3631643752871869
 40
0.4112368146550711
 40
0.4593181537216971
 40
0.5074265644515039
 40
0.5555888585956794
 40
0.6038316911415497
 40
0.6521786273080834
 40
0.7006436840226218
 40
0.7492174554347979
 40
0.7978232006303033
 40
0.8462651822534044
 40
0.8942595636895727
 40
0.941508258371925
 40
0.9879009726560406
 40
0.9999999999999999
 40
0.9999999999999999
 40
0.9999999999999999
 40
0.9999999999999999
 10
33.63943208790096
 20
13.76805502989419
 30
0.0
 10
33.62633104045295
 20
13.7635947396878
 30
0.0
 10
33.5887158603133
 20
13.75078854077472
 30
0.0
 10
33.52606019153348
 20
13.72106035144193
 30
0.0
 10
33.45231767804794
 20
13.67600933531269
 30
0.0
 10
33.37986536749462
 20
13.62105067404648
 30
0.0
 10
33.30977922117506
 20
13.55728331057788
 30
0.0
 10
33.24306133569285
 20
13.48567306044802
 30
0.0
 10
33.18064729434167
 20
13.40732471789274
 30
0.0
 10
33.12341026070521
 20
13.32339647974852
 30
0.0
 10
33.07215936116571
 20
13.23511334564411
 30
0.0
 10
33.02763366247667
 20
13.14375290481677
 30
0.0
 10
32.99048970291461
 20
13.0506256179537
 30
0.0
 10
32.96129467261049
 20
12.9570546530942
 30
0.0
 10
32.9405229885241
 20
12.8643516268374
 30
0.0
 10
32.92856085475012
 20
12.77380791442456
 30
0.0
 10
32.92570952450443
 20
12.68668605138421
 30
0.0
 10
32.932192370186
 20
12.60424850747038
 30
0.0
 10
32.9481111286123
 20
12.52776262312144
 30
0.0
 10
32.97345291682191
 20
12.45864934242378
 30
0.0
 10
33.00770499454857
 20
12.3979413707333
 30
0.0
 10
33.05078943125452
 20
12.34800525915
 30
0.0
 10
33.08761948008708
 20
12.31582670024788
 30
0.0
 10
33.11156553227221
 20
12.30415607661319
 30
0.0
 10
33.11651877750143
 20
12.30174200600173
 30
0.0
  0
LINE
  5
273
330
1F
100
AcDbEntity
  8
0
  6
SLD-Solid
 62
     7
370
    25
100
AcDbLine
 10
32.9112539772
 20
12.6139702258
 30
0.0
 11
32.9347812482
 21
12.6003882213
 31
0.0
  0
SPLINE
  5
274
330
1F
100
AcDbEntity
  8
0
  6
SLD-Solid
 62
     7
370
    25
100
AcDbSpline
210
0.0
220
0.0
230
1.0
 70
     8
 71
     3
 72
    19
 73
    15
 74
     0
 42
0.00000001
 43
0.00000001
 40
0.0
 40
0.0
 40
0.0
 40
0.0
 40
0.0262350903242058
 40
0.1204279439201025
 40
0.215752147024561
 40
0.3113460531782464
 40
0.4067618091250222
 40
0.5019289649469415
 40
0.5968993076658957
 40
0.6917754364423877
 40
0.7866796382563372
 40
0.8817078051328292
 40
0.976986364690374
 40
1.0
 40
1.0
 40
1.0
 40
1.0
 10
33.26538143797683
 20
13.8062052016021
 30
0.0
 10
33.25914316881607
 20
13.80443649124059
 30
0.0
 10
33.23050740201039
 20
13.79631751205682
 30
0.0
 10
33.17924246941048
 20
13.77066926114895
 30
0.0
 10
33.11257539954841
 20
13.7296004943812
 30
0.0
 10
33.04757914428183
 20
13.67788192986816
 30
0.0
 10
32.98557939829686
 20
13.61779127041145
 30
0.0
 10
32.92769163008146
 20
13.5503002301902
 30
0.0
 10
32.87487160719941
 20
13.47677307808302
 30
0.0
 10
32.82807356380948
 20
13.39853741645374
 30
0.0
 10
32.7878661259786
 20
13.3169353660092
 30
0.0
 10
32.75590370613852
 20
13.23355908244088
 30
0.0
 10
32.73611397531751
 20
13.1705878666263
 30
0.0
 10
32.73000568217046
 20
13.13649065409586
 30
0.0
 10
32.72881731948087
 20
13.12985707345149
 30
0.0
  0
SPLINE
  5
275
330
1F
100
AcDbEntity
  8
0
  6
SLD-Solid
 62
     7
370
    25
100
AcDbSpline
210
0.0
220
0.0
230
1.0
 70
     8
 71
     3
 72
     9
 73
     5
 74
     0
 42
0.00000001
 43
0.00000001
 40
0.0
 40
0.0
 40
0.0
 40
0.0
 40
0.3559709650812109
 40
0.9999999999999999
 40
0.9999999999999999
 40
0.9999999999999999
 40
0.9999999999999999
 10
33.80232782093624
 20
13.83059047561997
 30
0.0
 10
33.78281547178518
 20
13.82203817415659
 30
0.0
 10
33.72800103166192
 20
13.79801289596733
 30
0.0
 10
33.67412792973989
 20
13.77979067151944
 30
0.0
 10
33.63943208790096
 20
13.76805502989419
 30
0.0
  0
SPLINE
  5
276
330
1F
100
AcDbEntity
  8
0
  6
SLD-Solid
 62
     7
370
    25
100
AcDbSpline
210
0.0
220
0.0
230
1.0
 70
     8
 71
     3
 72
     9
 73
     5
 74
     0
 42
0.00000001
 43
0.00000001
 40
0.0
 40
0.0
 40
0.0
 40
0.0
 40
0.2969522822646783
 40
1.0
 40
1.0
 40
1.0
 40
1.0
 10
33.80591174563087
 20
13.83247025759527
 30
0.0
 10
33.80600223331624
 20
13.83254053334237
 30
0.0
 10
33.80630695461585
 20
13.83277719004212
 30
0.0
 10
33.80370614178273
 20
13.83144932232207
 30
0.0
 10
33.80187764625614
 20
13.83051576795203
 30
0.0
  0
SPLINE
  5
277
330
1F
100
AcDbEntity
  8
0
  6
SLD-Solid
 62
     7
370
    25
100
AcDbSpline
210
0.0
220
0.0
230
1.0
 70
     8
 71
     3
 72
     9
 73
     5
 74
     0
 42
0.00000001
 43
0.00000001
 40
0.0
 40
0.0
 40
0.0
 40
0.0
 40
0.8500388058588189
 40
1.0
 40
1.0
 40
1.0
 40
1.0
 10
33.89394351638202
 20
13.9077027034898
 30
0.0
 10
33.8690513096187
 20
13.88552238692781
 30
0.0
 10
33.839767697398
 20
13.85942908811707
 30
0.0
 10
33.81072698260486
 20
13.836328629021
 30
0.0
 10
33.80637200233576
 20
13.83286445658975
 30
0.0
  0
SPLINE
  5
278
330
1F
100
AcDbEntity
  8
0
  6
SLD-Solid
 62
     7
370
    25
100
AcDbSpline
210
0.0
220
0.0
230
1.0
 70
     8
 71
     3
 72
    14
 73
    10
 74
     0
 42
0.00000001
 43
0.00000001
 40
0.0
 40
0.0
 40
0.0
 40
0.0
 40
0.0863338110805963
 40
0.2506881778528628
 40
0.4149767495208246
 40
0.579181484121733
 40
0.7433246153168495
 40
0.9074460825638396
 40
0.9999999999999999
 40
0.9999999999999999
 40
0.9999999999999999
 40
0.9999999999999999
 10
33.71491690572039
 20
12.41529491780817
 30
0.0
 10
33.73435475413777
 20
12.43130396487924
 30
0.0
 10
33.79079659007832
 20
12.4777895629222
 30
0.0
 10
33.88538221441152
 20
12.54790301407966
 30
0.0
 10
33.99833855415953
 20
12.62207007675411
 30
0.0
 10
34.11130406156641
 20
12.68618433799938
 30
0.0
 10
34.22349387796896
 20
12.73985014025583
 30
0.0
 10
34.3182829335928
 20
12.77714294679483
 30
0.0
 10
34.37501949940147
 20
12.79460818910468
 30
0.0
 10
34.39547799188195
 20
12.8009059359523
 30
0.0
  0
LINE
  5
279
330
1F
100
AcDbEntity
  8
0
  6
SLD-Solid
 62
     7
370
    25
100
AcDbLine
 10
34.3954779919
 20
12.800905936
 30
0.0
 11
35.118141748
 21
13.011950633
 31
0.0
  0
ARC
  5
27A
330
1F
100
AcDbEntity
  8
0
  6
SLD-Solid
 62
     7
370
    25
100
AcDbCircle
 10
35.1041253595
 20
13.05994585
 30
0.0
 40
0.0499999999999995
100
AcDbArc
 50
286.279768118
 51
299.9973117337
  0
LINE
  5
27B
330
1F
100
AcDbEntity
  8
0
  6
SLD-Solid
 62
     7
370
    25
100
AcDbLine
 10
35.1291233278
 20
13.0166434069
 30
0.0
 11
35.8638892392
 21
13.4408147388
 31
0.0
  0
LINE
  5
27C
330
1F
100
AcDbEntity
  8
0
  6
SLD-Solid
 62
     7
370
    25
100
AcDbLine
 10
25.8605373418
 20
18.5026178794
 30
0.0
 11
25.8238991942
 21
18.5186748457
 31
0.0
  0
LINE
  5
27D
330
1F
100
AcDbEntity
  8
0
  6
SLD-Solid
 62
     7
370
    25
100
AcDbLine
 10
25.1214464376
 20
16.9158460573
 30
0.0
 11
25.1580845852
 21
16.899789091
 31
0.0
  0
LINE
  5
27E
330
1F
100
AcDbEntity
  8
0
  6
SLD-Solid
 62
     7
370
    25
100
AcDbLine
 10
27.1598402901
 20
19.0986040086
 30
0.0
 11
27.1276139687
 21
19.117207868
 31
0.0
  0
SPLINE
  5
27F
330
1F
100
AcDbEntity
  8
0
  6
SLD-Solid
 62
     7
370
    25
100
AcDbSpline
210
0.0
220
0.0
230
1.0
 70
     8
 71
     3
 72
    15
 73
    11
 74
     0
 42
0.00000001
 43
0.00000001
 40
0.0
 40
0.0
 40
0.0
 40
0.0
 40
0.101710071866643
 40
0.2291218270398003
 40
0.3578773964857958
 40
0.4899046709134033
 40
0.6257377681534828
 40
0.764546512542948
 40
0.9049075135382312
 40
1.0
 40
1.0
 40
1.0
 40
1.0
 10
25.29121312831013
 20
17.02823019293282
 30
0.0
 10
25.30490301276738
 20
17.02116325747734
 30
0.0
 10
25.33574215466594
 20
17.00524360337214
 30
0.0
 10
25.38975600511179
 20
16.99388263967858
 30
0.0
 10
25.45037872745446
 20
16.99178286435649
 30
0.0
 10
25.51391419913794
 20
17.00131643715755
 30
0.0
 10
25.57952748203548
 20
17.02200016668661
 30
0.0
 10
25.64609552501178
 20
17.05426249418559
 30
0.0
 10
25.70544733366677
 20
17.09138829324994
 30
0.0
 10
25.74113916076139
 20
17.12143295907607
 30
0.0
 10
25.75555400176225
 20
17.13356708377805
 30
0.0
  0
SPLINE
  5
280
330
1F
100
AcDbEntity
  8
0
  6
SLD-Solid
 62
     7
370
    25
100
AcDbSpline
210
0.0
220
0.0
230
1.0
 70
     8
 71
     3
 72
    16
 73
    12
 74
     0
 42
0.00000001
 43
0.00000001
 40
0.0
 40
0.0
 40
0.0
 40
0.0
 40
0.0168756437039694
 40
0.147811945914069
 40
0.2794416106809474
 40
0.4117663495029786
 40
0.5443333008245764
 40
0.6758462691641132
 40
0.8045467922499032
 40
0.9291177506717903
 40
1.0
 40
1.0
 40
1.0
 40
1.0
 10
26.08165063939324
 20
17.66734306079533
 30
0.0
 10
26.08265974143986
 20
17.67093936006214
 30
0.0
 10
26.09149835759897
 20
17.70243895806514
 30
0.0
 10
26.09982113188189
 20
17.76093656161906
 30
0.0
 10
26.10543828843447
 20
17.84108567594108
 30
0.0
 10
26.10044581956674
 20
17.91733148261349
 30
0.0
 10
26.08556000136721
 20
17.98816457537476
 30
0.0
 10
26.06053192433007
 20
18.05196032637206
 30
0.0
 10
26.025505862355
 20
18.10616316460484
 30
0.0
 10
25.98884321630758
 20
18.14557737072564
 30
0.0
 10
25.96154878886613
 20
18.16195912195601
 30
0.0
 10
25.95165030506305
 20
18.16790005988438
 30
0.0
  0
LINE
  5
281
330
1F
100
AcDbEntity
  8
0
  6
SLD-Solid
 62
     7
370
    25
100
AcDbLine
 10
25.1341607029
 20
17.1176217067
 30
0.0
 11
25.2850379166
 21
17.0305221452
 31
0.0
  0
LINE
  5
282
330
1F
100
AcDbEntity
  8
0
  6
SLD-Solid
 62
     7
370
    25
100
AcDbLine
 10
25.9449842802
 20
18.1737066435
 30
0.0
 11
25.6533027329
 21
18.3420908166
 31
0.0
  0
SPLINE
  5
283
330
1F
100
AcDbEntity
  8
0
  6
SLD-Solid
 62
     7
370
    25
100
AcDbSpline
210
0.0
220
0.0
230
1.0
 70
     8
 71
     3
 72
    10
 73
     6
 74
     0
 42
0.00000001
 43
0.00000001
 40
0.0
 40
0.0
 40
0.0
 40
0.0
 40
0.336933508136481
 40
0.7496997727230501
 40
1.0
 40
1.0
 40
1.0
 40
1.0
 10
24.86624823332911
 20
17.07133608516697
 30
0.0
 10
24.88105893390184
 20
17.06313106927644
 30
0.0
 10
24.91401374126028
 20
17.04487435571199
 30
0.0
 10
24.96325569182757
 20
17.03065492612241
 30
0.0
 10
24.99802067350937
 20
17.02845663095193
 30
0.0
 10
25.0111440675023
 20
17.02762679897045
 30
0.0
  0
LINE
  5
284
330
1F
100
AcDbEntity
  8
0
  6
SLD-Solid
 62
     7
370
    25
100
AcDbLine
 10
25.199496812
 20
17.0564919286
 30
0.0
 11
25.2238226364
 21
17.0658609743
 31
0.0
  0
LINE
  5
285
330
1F
100
AcDbEntity
  8
0
  6
SLD-Solid
 62
     7
370
    25
100
AcDbLine
 10
24.840456103
 20
17.0851066425
 30
0.0
 11
24.8687403743
 21
17.0687784803
 31
0.0
  0
SPLINE
  5
286
330
1F
100
AcDbEntity
  8
0
  6
SLD-Solid
 62
     7
370
    25
100
AcDbSpline
210
0.0
220
0.0
230
1.0
 70
     8
 71
     3
 72
    29
 73
    25
 74
     0
 42
0.00000001
 43
0.00000001
 40
0.0
 40
0.0
 40
0.0
 40
0.0
 40
0.025742674940193
 40
0.0739112928942787
 40
0.1221885953049243
 40
0.1704980352636656
 40
0.2187556088307691
 40
0.2669452545546765
 40
0.3150751197308408
 40
0.3631643752871866
 40
0.4112368146550712
 40
0.4593181537216974
 40
0.5074265644515046
 40
0.5555888585956802
 40
0.6038316911415492
 40
0.6521786273080851
 40
0.7006436840226216
 40
0.7492174554347977
 40
0.7978232006303011
 40
0.8462651822534035
 40
0.8942595636895698
 40
0.9415082583719224
 40
0.9879009726560386
 40
1.0
 40
1.0
 40
1.0
 40
1.0
 10
25.36518673250754
 20
18.55177828266673
 30
0.0
 10
25.35208568505952
 20
18.54731799246033
 30
0.0
 10
25.31447050491987
 20
18.53451179354726
 30
0.0
 10
25.25181483614006
 20
18.50478360421447
 30
0.0
 10
25.17807232265451
 20
18.45973258808523
 30
0.0
 10
25.1056200121012
 20
18.40477392681901
 30
0.0
 10
25.03553386578163
 20
18.34100656335042
 30
0.0
 10
24.96881598029942
 20
18.26939631322055
 30
0.0
 10
24.90640193894825
 20
18.19104797066528
 30
0.0
 10
24.84916490531178
 20
18.10711973252105
 30
0.0
 10
24.79791400577228
 20
18.01883659841665
 30
0.0
 10
24.75338830708325
 20
17.92747615758931
 30
0.0
 10
24.71624434752118
 20
17.83434887072623
 30
0.0
 10
24.68704931721706
 20
17.74077790586674
 30
0.0
 10
24.66627763313068
 20
17.64807487960993
 30
0.0
 10
24.65431549935669
 20
17.55753116719709
 30
0.0
 10
24.651464169111
 20
17.47040930415674
 30
0.0
 10
24.65794701479258
 20
17.38797176024292
 30
0.0
 10
24.67386577321887
 20
17.31148587589398
 30
0.0
 10
24.69920756142848
 20
17.24237259519631
 30
0.0
 10
24.73345963915514
 20
17.18166462350584
 30
0.0
 10
24.7765440758611
 20
17.13172851192254
 30
0.0
 10
24.81337412469365
 20
17.09954995302042
 30
0.0
 10
24.83732017687878
 20
17.08787932938572
 30
0.0
 10
24.842273422108
 20
17.08546525877426
 30
0.0
  0
SPLINE
  5
287
330
1F
100
AcDbEntity
  8
0
  6
SLD-Solid
 62
     7
370
    25
100
AcDbSpline
210
0.0
220
0.0
230
1.0
 70
     8
 71
     3
 72
    14
 73
    10
 74
     0
 42
0.00000001
 43
0.00000001
 40
0.0
 40
0.0
 40
0.0
 40
0.0
 40
0.086329672022033
 40
0.2506812442595521
 40
0.4149671936416169
 40
0.5791661077468406
 40
0.7432958683911373
 40
0.9073937511990983
 40
0.9999999999999999
 40
0.9999999999999999
 40
0.9999999999999999
 40
0.9999999999999999
 10
26.04627480429309
 20
18.95334176863332
 30
0.0
 10
26.02691531146402
 20
18.93692921441669
 30
0.0
 10
25.97069985695162
 20
18.88927098270868
 30
0.0
 10
25.87635204528201
 20
18.81711115963113
 30
0.0
 10
25.76350396542486
 20
18.74040093154257
 30
0.0
 10
25.65046212235086
 20
18.67364039824896
 30
0.0
 10
25.53801233873255
 20
18.6172455430995
 30
0.0
 10
25.44283792759019
 20
18.57755889772775
 30
0.0
 10
25.38577296840203
 20
18.5586130238782
 30
0.0
 10
25.36518673250754
 20
18.55177828266673
 30
0.0
  0
SPLINE
  5
288
330
1F
100
AcDbEntity
  8
0
  6
SLD-Solid
 62
     7
370
    25
100
AcDbSpline
210
0.0
220
0.0
230
1.0
 70
     8
 71
     3
 72
     9
 73
     5
 74
     0
 42
0.00000001
 43
0.00000001
 40
0.0
 40
0.0
 40
0.0
 40
0.0
 40
0.2387335327152943
 40
1.0
 40
1.0
 40
1.0
 40
1.0
 10
25.59789474847661
 20
18.52648629059931
 30
0.0
 10
25.60166451828744
 20
18.52799122697238
 30
0.0
 10
25.61745521919129
 20
18.53429506018741
 30
0.0
 10
25.63354693724192
 20
18.53838718387889
 30
0.0
 10
25.64579702259488
 20
18.54150238042519
 30
0.0
  0
SPLINE
  5
289
330
1F
100
AcDbEntity
  8
0
  6
SLD-Solid
 62
     7
370
    25
100
AcDbSpline
210
0.0
220
0.0
230
1.0
 70
     8
 71
     3
 72
     9
 73
     5
 74
     0
 42
0.00000001
 43
0.00000001
 40
0.0
 40
0.0
 40
0.0
 40
0.0
 40
0.2999940509439684
 40
1.0
 40
1.0
 40
1.0
 40
1.0
 10
25.58903910451911
 20
18.52324131696096
 30
0.0
 10
25.58928382305003
 20
18.52333663040828
 30
0.0
 10
25.59009956766283
 20
18.52365434819974
 30
0.0
 10
25.59093957030093
 20
18.52398408680909
 30
0.0
 10
25.59152757714482
 20
18.52421490579727
 30
0.0
  0
LINE
  5
28A
330
1F
100
AcDbEntity
  8
0
  6
SLD-Solid
 62
     7
370
    25
100
AcDbLine
 10
25.5915144839
 20
18.5242134104
 30
0.0
 11
25.5928741416
 21
18.5247468099
 31
0.0
  0
SPLINE
  5
28B
330
1F
100
AcDbEntity
  8
0
  6
SLD-Solid
 62
     7
370
    25
100
AcDbSpline
210
0.0
220
0.0
230
1.0
 70
     8
 71
     3
 72
     9
 73
     5
 74
     0
 42
0.00000001
 43
0.00000001
 40
0.0
 40
0.0
 40
0.0
 40
0.0
 40
0.5204454830024303
 40
1.0
 40
1.0
 40
1.0
 40
1.0
 10
25.66384309092342
 20
18.54750636784008
 30
0.0
 10
25.67219947608857
 20
18.54964554050653
 30
0.0
 10
25.68825569223045
 20
18.55375581283344
 30
0.0
 10
25.70438484789718
 20
18.55919973158897
 30
0.0
 10
25.71211965735252
 20
18.56181038741835
 30
0.0
  0
LINE
  5
28C
330
1F
100
AcDbEntity
  8
0
  6
SLD-Solid
 62
     7
370
    25
100
AcDbLine
 10
25.6457203733
 20
18.5426098045
 30
0.0
 11
25.6638430909
 21
18.5475063678
 31
0.0
  0
LINE
  5
28D
330
1F
100
AcDbEntity
  8
0
  6
SLD-Solid
 62
     7
370
    25
100
AcDbLine
 10
26.7689385605
 20
19.5766668844
 30
0.0
 11
26.0462748043
 21
18.9533417686
 31
0.0
  0
ARC
  5
28E
330
1F
100
AcDbEntity
  8
0
  6
SLD-Solid
 62
     7
370
    25
100
AcDbCircle
 10
26.8015957328
 20
19.5388051742
 30
0.0
 40
0.0500000000000017
100
AcDbArc
 50
119.9973117337
 51
130.7790257474
  0
LINE
  5
28F
330
1F
100
AcDbEntity
  8
0
  6
SLD-Solid
 62
     7
370
    25
100
AcDbLine
 10
27.3018293499
 20
19.8853173576
 30
0.0
 11
26.7765977645
 21
19.5821076174
 31
0.0
  0
SPLINE
  5
290
330
1F
100
AcDbEntity
  8
0
  6
SLD-Solid
 62
     7
370
    25
100
AcDbSpline
210
0.0
220
0.0
230
1.0
 70
     8
 71
     3
 72
    10
 73
     6
 74
     0
 42
0.00000001
 43
0.00000001
 40
0.0
 40
0.0
 40
0.0
 40
0.0
 40
0.3698321431123122
 40
0.7993548868343386
 40
1.0
 40
1.0
 40
1.0
 40
1.0
 10
36.01012613469716
 20
13.21870074784638
 30
0.0
 10
36.01981223853243
 20
13.21388541540104
 30
0.0
 10
36.04074777531394
 20
13.20347755985467
 30
0.0
 10
36.07008382779647
 20
13.19669541933087
 30
0.0
 10
36.08856644213514
 20
13.1991029607642
 30
0.0
 10
36.09445129678941
 20
13.19986952068639
 30
0.0
  0
LINE
  5
291
330
1F
100
AcDbEntity
  8
0
  6
SLD-Solid
 62
     7
370
    25
100
AcDbLine
 10
36.0951166244
 20
13.198586013
 30
0.0
 11
36.296282694
 21
13.2165435169
 31
0.0
  0
LINE
  5
292
330
1F
100
AcDbEntity
  8
0
  6
SLD-Solid
 62
     7
370
    25
100
AcDbLine
 10
27.7681062104
 20
17.9767175729
 30
0.0
 11
34.2602440341
 21
14.2288861821
 31
0.0
  0
LINE
  5
293
330
1F
100
AcDbEntity
  8
0
  6
SLD-Solid
 62
     7
370
    25
100
AcDbLine
 10
35.7446304838
 20
13.3719681247
 30
0.0
 11
36.0101261347
 21
13.2187007478
 31
0.0
  0
LINE
  5
294
330
1F
100
AcDbEntity
  8
0
  6
SLD-Solid
 62
     7
370
    25
100
AcDbLine
 10
27.3018293499
 20
19.9237271146
 30
0.0
 11
27.3018293499
 21
19.882900074
 31
0.0
  0
SPLINE
  5
295
330
1F
100
AcDbEntity
  8
0
  6
SLD-Solid
 62
     7
370
    25
100
AcDbSpline
210
0.0
220
0.0
230
1.0
 70
     8
 71
     3
 72
    10
 73
     6
 74
     0
 42
0.00000001
 43
0.00000001
 40
0.0
 40
0.0
 40
0.0
 40
0.0
 40
0.2481396762740791
 40
0.6444935239476518
 40
1.0
 40
1.0
 40
1.0
 40
1.0
 10
27.32832904309052
 20
20.27507591243651
 30
0.0
 10
27.32405224269448
 20
20.26910044489114
 30
0.0
 10
27.31294410311821
 20
20.25358035478152
 30
0.0
 10
27.30442884765701
 20
20.22485053817371
 30
0.0
 10
27.30314175775719
 20
20.2028444383181
 30
0.0
 10
27.30253317557748
 20
20.19243916653497
 30
0.0
  0
LINE
  5
296
330
1F
100
AcDbEntity
  8
0
  6
SLD-Solid
 62
     7
370
    25
100
AcDbLine
 10
27.4437589316
 20
20.4413421734
 30
0.0
 11
27.3276150096
 21
20.2761199792
 31
0.0
  0
LINE
  5
297
330
1F
100
AcDbEntity
  8
0
  6
SLD-Solid
 62
     7
370
    25
100
AcDbLine
 10
27.3025331756
 20
20.1924391665
 30
0.0
 11
27.3025331756
 21
19.9332951333
 31
0.0
  0
LINE
  5
298
330
1F
100
AcDbEntity
  8
0
  6
SLD-Solid
 62
     7
370
    25
100
AcDbLine
 10
27.7904251107
 20
18.0776653543
 30
0.0
 11
27.5910793499
 21
18.1927452124
 31
0.0
  0
LWPOLYLINE
  5
299
330
1F
100
AcDbEntity
  8
0
  6
SLD-Solid
 62
     7
370
    25
100
AcDbPolyline
 90
       22
 70
   128
 43
0.0
 10
27.3504372851
 20
20.0103399044
 10
27.372640019
 20
20.033970778
 10
27.4059219471
 20
20.0527738134
 10
27.447325824
 20
20.0650782785
 10
27.4931727337
 20
20.0697908674
 10
27.539388977
 20
20.066492846
 10
27.5818680378
 20
20.0554772579
 10
27.6168354652
 20
20.0377228865
 10
27.6411842498
 20
20.0148072856
 10
27.6527508953
 20
19.9887666069
 10
27.6505076544
 20
19.961914679
 10
27.634653849
 20
19.9366374135
 10
27.6065981591
 20
19.9151808064
 10
27.568833456
 20
19.8994513714
 10
27.5247152994
 20
19.8908467378
 10
27.4781637809
 20
19.890131465
 10
27.4333152073
 20
19.8973691083
 10
27.3941545713
 20
19.9119165712
 10
27.3641614671
 20
19.9324812477
 10
27.3460009136
 20
19.9572358763
 10
27.3412865559
 20
19.9839808994
 10
27.3504372851
 20
20.0103399044
  0
LWPOLYLINE
  5
29A
330
1F
100
AcDbEntity
  8
0
  6
SLD-Solid
 62
     7
370
    25
100
AcDbPolyline
 90
       12
 70
   128
 43
0.0
 10
27.6535535062
 20
19.9645541552
 10
27.6505076544
 20
19.9468323247
 10
27.634653849
 20
19.9215550592
 10
27.6065981591
 20
19.9000984521
 10
27.568833456
 20
19.8843690171
 10
27.5247152994
 20
19.8757643835
 10
27.4781637809
 20
19.8750491107
 10
27.4333152073
 20
19.882286754
 10
27.3941545713
 20
19.8968342168
 10
27.3641614671
 20
19.9173988934
 10
27.3460009136
 20
19.9421535219
 10
27.3411051936
 20
19.9645541552
  0
LWPOLYLINE
  5
29B
330
1F
100
AcDbEntity
  8
0
  6
SLD-Solid
 62
     7
370
    25
100
AcDbPolyline
 90
       17
 70
   128
 43
0.0
 10
27.4459438021
 20
18.1596418832
 10
27.4198479639
 20
18.1744396301
 10
27.4055479643
 20
18.1938760176
 10
27.4052208487
 20
18.2149920318
 10
27.4189164175
 20
18.2345729509
 10
27.4445496443
 20
18.2496377577
 10
27.478218103
 20
18.2578929717
 10
27.5147960757
 20
18.2580818115
 10
27.5487148977
 20
18.250175528
 10
27.5748107359
 20
18.2353777811
 10
27.5891107355
 20
18.2159413936
 10
27.5894378511
 20
18.1948253795
 10
27.5757422824
 20
18.1752444603
 10
27.5501090555
 20
18.1601796535
 10
27.5164405969
 20
18.1519244395
 10
27.4798626241
 20
18.1517355997
 10
27.4459438021
 20
18.1596418832
  0
LWPOLYLINE
  5
29C
330
1F
100
AcDbEntity
  8
0
  6
SLD-Solid
 62
     7
370
    25
100
AcDbPolyline
 90
       17
 70
   128
 43
0.0
 10
27.5339649126
 20
18.2371818949
 10
27.5097823324
 20
18.2428187161
 10
27.4837038985
 20
18.2426840819
 10
27.459699816
 20
18.2367984891
 10
27.441424489
 20
18.2260579658
 10
27.4316601702
 20
18.2120976594
 10
27.4318933888
 20
18.1970428999
 10
27.4420886393
 20
18.1831856381
 10
27.4606937872
 20
18.1726355163
 10
27.4848763674
 20
18.1669986951
 10
27.5109548013
 20
18.1671333293
 10
27.5349588838
 20
18.1730189222
 10
27.5532342108
 20
18.1837594454
 10
27.5629985296
 20
18.1977197518
 10
27.562765311
 20
18.2127745113
 10
27.5525700605
 20
18.2266317731
 10
27.5339649126
 20
18.2371818949
  0
ARC
  5
29D
330
1F
100
AcDbEntity
  8
0
  6
SLD-Solid
 62
     7
370
    25
100
AcDbCircle
 10
27.497843417
 20
18.1059512233
 30
0.0
 40
0.237200796082448
100
AcDbArc
 50
241.3909775586
 51
289.994913236
  0
ARC
  5
29E
330
1F
100
AcDbEntity
  8
0
  6
SLD-Solid
 62
     7
370
    25
100
AcDbCircle
 10
27.4984372155
 20
18.0831937262
 30
0.0
 40
0.2299716864890462
100
AcDbArc
 50
236.4600226919
 51
294.6442789758
  0
LWPOLYLINE
  5
29F
330
1F
100
AcDbEntity
  8
0
  6
SLD-Solid
 62
     7
370
    25
100
AcDbPolyline
 90
       27
 70
   128
 43
0.0
 10
33.0313478773
 20
12.3648607147
 10
32.965680533
 20
12.384152069
 10
32.9001929251
 20
12.4169737429
 10
32.8428702745
 20
12.4614135365
 10
32.7946437567
 20
12.5167495494
 10
32.7562967852
 20
12.5820828782
 10
32.7284522857
 20
12.6563522184
 10
32.7115625771
 20
12.7383511051
 10
32.7059020233
 20
12.8267475109
 10
32.7115625771
 20
12.9201054841
 10
32.7284522857
 20
13.0169084752
 10
32.7562967852
 20
13.1155839724
 10
32.7946437567
 20
13.2145290456
 10
32.8428702745
 20
13.3121363861
 10
32.9001929251
 20
13.4068204156
 10
32.965680533
 20
13.4970430434
 10
33.0382692878
 20
13.5813386521
 10
33.1167800246
 20
13.6583379053
 10
33.1999373791
 20
13.7267899919
 10
33.2863905052
 20
13.7855829451
 10
33.374735019
 20
13.8337617052
 10
33.4635358118
 20
13.8705436345
 10
33.5513503629
 20
13.8953312304
 10
33.6367521728
 20
13.9077218321
 10
33.7183539355
 20
13.9075141609
 10
33.7948300746
 20
13.8947115903
 10
33.8531098936
 20
13.8748393672
  0
LWPOLYLINE
  5
2A0
330
1F
100
AcDbEntity
  8
0
  6
SLD-Solid
 62
     7
370
    25
100
AcDbPolyline
 90
       21
 70
   128
 43
0.0
 10
32.9352715464
 20
12.5868545833
 10
32.8964823038
 20
12.6342641318
 10
32.8639409223
 20
12.6949324921
 10
32.8418882735
 20
12.7641113571
 10
32.830753587
 20
12.8404542389
 10
32.830753587
 20
12.92247521
 10
32.8418882735
 20
13.0085778255
 10
32.8639409223
 20
13.0970861961
 10
32.8964823038
 20
13.1862776069
 10
32.9388790371
 20
13.2744160485
 10
32.9903059179
 20
13.3597860065
 10
33.0497619804
 20
13.4407258518
 10
33.1160899802
 20
13.5156601823
 10
33.187998918
 20
13.5831304865
 10
33.2640891682
 20
13.6418235316
 10
33.3428797207
 20
13.6905969244
 10
33.422837007
 20
13.7285013463
 10
33.5024047494
 20
13.7547990306
 10
33.5800342523
 20
13.7689781231
 10
33.6542145458
 20
13.7707626436
 10
33.6578649776
 20
13.7705207384
  0
LWPOLYLINE
  5
2A1
330
1F
100
AcDbEntity
  8
0
  6
SLD-Solid
 62
     7
370
    25
100
AcDbPolyline
 90
       26
 70
   128
 43
0.0
 10
32.8453746894
 20
12.4568293681
 10
32.8150557794
 20
12.4825642889
 10
32.7668292616
 20
12.5379003018
 10
32.7284822901
 20
12.6032336306
 10
32.7006377906
 20
12.6775029708
 10
32.6837480819
 20
12.7595018575
 10
32.6780875281
 20
12.8478982633
 10
32.6837480819
 20
12.9412562365
 10
32.7006377906
 20
13.0380592276
 10
32.7284822901
 20
13.1367347248
 10
32.7668292616
 20
13.235679798
 10
32.8150557794
 20
13.3332871385
 10
32.8723784299
 20
13.427971168
 10
32.9378660379
 20
13.5181937958
 10
33.0104547927
 20
13.6024894045
 10
33.0889655295
 20
13.6794886577
 10
33.1721228839
 20
13.7479407443
 10
33.2585760101
 20
13.8067336975
 10
33.3469205238
 20
13.8549124576
 10
33.4357213166
 20
13.8916943869
 10
33.5235358678
 20
13.9164819829
 10
33.6089376777
 20
13.9288725845
 10
33.6905394403
 20
13.9286649133
 10
33.7670155794
 20
13.9158623427
 10
33.8371237817
 20
13.8906728435
 10
33.8603096917
 20
13.8787961124
  0
LINE
  5
2A2
330
1F
100
AcDbEntity
  8
0
  6
SLD-Solid
 62
     7
370
    25
100
AcDbLine
 10
26.231282931
 20
17.4335900964
 30
0.0
 11
25.6073454123
 21
17.6826534758
 31
0.0
  0
ARC
  5
2A3
330
1F
100
AcDbEntity
  8
0
  6
SLD-Solid
 62
     7
370
    25
100
AcDbCircle
 10
25.6239090333
 20
17.7244857201
 30
0.0
 40
0.0449921126521726
100
AcDbArc
 50
240.1782364711
 51
248.3987403746
  0
LINE
  5
2A4
330
1F
100
AcDbEntity
  8
0
  6
SLD-Solid
 62
     7
370
    25
100
AcDbLine
 10
25.6015342963
 20
17.6854516152
 30
0.0
 11
25.516016149
 21
17.7348201908
 31
0.0
  0
LINE
  5
2A5
330
1F
100
AcDbEntity
  8
0
  6
SLD-Solid
 62
     7
370
    25
100
AcDbLine
 10
25.6170906455
 20
17.6944321044
 30
0.0
 11
25.516016149
 21
17.7527811692
 31
0.0
  0
ARC
  5
2A6
330
1F
100
AcDbEntity
  8
0
  6
SLD-Solid
 62
     7
370
    25
100
AcDbCircle
 10
25.6277452822
 20
17.7130197734
 30
0.0
 40
0.0214248155497736
100
AcDbArc
 50
240.1782364714
 51
248.3987403744
  0
LINE
  5
2A7
330
1F
100
AcDbEntity
  8
0
  6
SLD-Solid
 62
     7
370
    25
100
AcDbLine
 10
26.2439441611
 20
17.4439768801
 30
0.0
 11
25.6198578436
 21
17.6930996571
 31
0.0
  0
ARC
  5
2A8
330
1F
100
AcDbEntity
  8
0
  6
SLD-Solid
 62
     7
370
    25
100
AcDbCircle
 10
26.2360567226
 20
17.4240567638
 30
0.0
 40
0.0214248155488373
100
AcDbArc
 50
60.1782364712
 51
68.3987403746
  0
LINE
  5
2A9
330
1F
100
AcDbEntity
  8
0
  6
SLD-Solid
 62
     7
370
    25
100
AcDbLine
 10
26.7050515569
 20
17.1780502687
 30
0.0
 11
26.2467113592
 21
17.4426444328
 31
0.0
  0
LINE
  5
2AA
330
1F
100
AcDbEntity
  8
0
  6
SLD-Solid
 62
     7
370
    25
100
AcDbLine
 10
26.6894952077
 20
17.1690697795
 30
0.0
 11
26.231282931
 21
17.4335900964
 31
0.0
  0
ARC
  5
2AB
330
1F
100
AcDbEntity
  8
0
  6
SLD-Solid
 62
     7
370
    25
100
AcDbCircle
 10
26.6066842757
 20
17.0396092075
 30
0.0
 40
0.1536804807572308
100
AcDbArc
 50
2.6054784857
 51
57.39452166
  0
LINE
  5
2AC
330
1F
100
AcDbEntity
  8
0
  6
SLD-Solid
 62
     7
370
    25
100
AcDbLine
 10
26.7602058859
 20
16.719978968
 30
0.0
 11
26.7602058859
 21
17.0465952927
 31
0.0
  0
ARC
  5
2AD
330
1F
100
AcDbEntity
  8
0
  6
SLD-Solid
 62
     7
370
    25
100
AcDbCircle
 10
26.7170984491
 20
16.7129862483
 30
0.0
 40
0.0436709197428502
100
AcDbArc
 50
230.7967147643
 51
9.2140369905
  0
LINE
  5
2AE
330
1F
100
AcDbEntity
  8
0
  6
SLD-Solid
 62
     7
370
    25
100
AcDbLine
 10
26.6894952077
 20
16.6791452924
 30
0.0
 11
26.231282931
 21
16.9436656092
 31
0.0
  0
ARC
  5
2AF
330
1F
100
AcDbEntity
  8
0
  6
SLD-Solid
 62
     7
370
    25
100
AcDbCircle
 10
26.6222406249
 20
17.0485896967
 30
0.0
 40
0.1536804807572126
100
AcDbArc
 50
2.6054784857
 51
57.39452166
  0
LINE
  5
2B0
330
1F
100
AcDbEntity
  8
0
  6
SLD-Solid
 62
     7
370
    25
100
AcDbLine
 10
26.775762235
 20
16.7289594572
 30
0.0
 11
26.775762235
 21
17.0555757819
 31
0.0
  0
ARC
  5
2B1
330
1F
100
AcDbEntity
  8
0
  6
SLD-Solid
 62
     7
370
    25
100
AcDbCircle
 10
26.7281936795
 20
16.7229030543
 30
0.0
 40
0.0479525546383296
100
AcDbArc
 50
304.0563508292
 51
7.2558295642
  0
LINE
  5
2B2
330
1F
100
AcDbEntity
  8
0
  6
SLD-Solid
 62
     7
370
    25
100
AcDbLine
 10
26.231282931
 20
16.9436656092
 30
0.0
 11
25.6073454123
 21
17.1927289887
 31
0.0
  0
ELLIPSE
  5
2B3
330
1F
100
AcDbEntity
  8
0
  6
SLD-Solid
 62
     7
370
    25
100
AcDbEllipse
 10
26.2454321492
 20
17.1984206615
 30
0.0
 11
-0.03311396203000783
 21
0.03813777230863024
 31
0.0
210
0.0
220
0.0
230
1.0
 40
0.6690410368
 41
0.4649356905258232
 42
2.19171411826194
  0
ARC
  5
2B4
330
1F
100
AcDbEntity
  8
0
  6
SLD-Solid
 62
     7
370
    25
100
AcDbCircle
 10
25.6239090333
 20
17.234561233
 30
0.0
 40
0.0449921126521519
100
AcDbArc
 50
240.1782364711
 51
248.3987403746
  0
LINE
  5
2B5
330
1F
100
AcDbEntity
  8
0
  6
SLD-Solid
 62
     7
370
    25
100
AcDbLine
 10
25.6015342963
 20
17.195527128
 30
0.0
 11
25.516016149
 21
17.2448957037
 31
0.0
  0
LWPOLYLINE
  5
2B6
330
1F
100
AcDbEntity
  8
0
  6
SLD-Solid
 62
     7
370
    25
100
AcDbPolyline
 90
       11
 70
   128
 43
0.0
 10
26.5471053957
 20
16.9336085644
 10
26.5678405437
 20
16.9379428366
 10
26.5824206443
 20
16.9547236194
 10
26.5875404947
 20
16.9814907013
 10
26.5824206443
 20
17.0141690367
 10
26.5678405437
 20
17.0477836452
 10
26.5460198812
 20
17.0772170075
 10
26.5202806548
 20
17.097988161
 10
26.4945414284
 20
17.1069348857
 10
26.4727207659
 20
17.1026951241
 10
26.4582788397
 20
17.0862168964
  0
ARC
  5
2B7
330
1F
100
AcDbEntity
  8
0
  6
SLD-Solid
 62
     7
370
    25
100
AcDbCircle
 10
26.4636419723
 20
16.9876221491
 30
0.0
 40
0.1238343144647168
100
AcDbArc
 50
346.6687640393
 51
73.3259359536
  0
LWPOLYLINE
  5
2B8
330
1F
100
AcDbEntity
  8
0
  6
SLD-Solid
 62
     7
370
    25
100
AcDbPolyline
 90
        3
 70
   128
 43
0.0
 10
26.5316306827
 20
16.9749197077
 10
26.5316325109
 20
16.9749207633
 10
26.5327589662
 20
16.9756399268
  0
LWPOLYLINE
  5
2B9
330
1F
100
AcDbEntity
  8
0
  6
SLD-Solid
 62
     7
370
    25
100
AcDbPolyline
 90
        9
 70
   128
 43
0.0
 10
26.2554238485
 20
17.1019927375
 10
26.2761589965
 20
17.1063270097
 10
26.290739097
 20
17.1231077925
 10
26.2958589475
 20
17.1498748743
 10
26.290739097
 20
17.1825532097
 10
26.2761589965
 20
17.2161678183
 10
26.254338334
 20
17.2456011806
 10
26.2285991076
 20
17.266372334
 10
26.2230068286
 20
17.2693317592
  0
ARC
  5
2BA
330
1F
100
AcDbEntity
  8
0
  6
SLD-Solid
 62
     7
370
    25
100
AcDbCircle
 10
26.1631765779
 20
17.1526309536
 30
0.0
 40
0.131710100163837
100
AcDbArc
 50
348.9788510325
 51
58.8625520957
  0
LWPOLYLINE
  5
2BB
330
1F
100
AcDbEntity
  8
0
  6
SLD-Solid
 62
     7
370
    25
100
AcDbPolyline
 90
        3
 70
   128
 43
0.0
 10
26.2399491355
 20
17.1433038808
 10
26.2399509637
 20
17.1433049364
 10
26.241077419
 20
17.1440240999
  0
LINE
  5
2BC
330
1F
100
AcDbEntity
  8
0
  6
SLD-Solid
 62
     7
370
    25
100
AcDbLine
 10
35.8742466099
 20
15.1425148883
 30
0.0
 11
35.8742466099
 21
14.4306954356
 31
0.0
  0
LINE
  5
2BD
330
1F
100
AcDbEntity
  8
0
  6
SLD-Solid
 62
     7
370
    25
100
AcDbLine
 10
35.8742466099
 20
14.1755264319
 30
0.0
 11
35.8742466099
 21
13.4637069791
 31
0.0
  0
ELLIPSE
  5
2BE
330
1F
100
AcDbEntity
  8
0
  6
SLD-Solid
 62
     7
370
    25
100
AcDbEllipse
 10
33.9284644243
 20
15.6584938424
 30
0.0
 11
0.9160489137486678
 21
1.890683322219875
 31
0.0
210
0.0
220
0.0
230
1.0
 40
0.5227660535
 41
3.988473883679561
 42
4.131198813557805
  0
SPLINE
  5
2BF
330
1F
100
AcDbEntity
  8
0
  6
SLD-Solid
 62
     7
370
    25
100
AcDbSpline
210
0.0
220
0.0
230
1.0
 70
     8
 71
     3
 72
     9
 73
     5
 74
     0
 42
0.00000001
 43
0.00000001
 40
0.0
 40
0.0
 40
0.0
 40
0.0
 40
0.1149030392550315
 40
0.9999999999999999
 40
0.9999999999999999
 40
0.9999999999999999
 40
0.9999999999999999
 10
33.89474545357826
 20
13.9069274740266
 30
0.0
 10
33.90108496075002
 20
13.91291662875681
 30
0.0
 10
33.95625762818213
 20
13.96504018239852
 30
0.0
 10
34.01248965343505
 20
14.00876495206874
 30
0.0
 10
34.06226044808295
 20
14.04746561281313
 30
0.0
  0
LINE
  5
2C0
330
1F
100
AcDbEntity
  8
0
  6
SLD-Solid
 62
     7
370
    25
100
AcDbLine
 10
34.9084396812
 20
14.8815671265
 30
0.0
 11
34.2516380297
 21
14.2202206271
 31
0.0
  0
LINE
  5
2C1
330
1F
100
AcDbEntity
  8
0
  6
SLD-Solid
 62
     7
370
    25
100
AcDbLine
 10
25.6095621811
 20
17.8745612779
 30
0.0
 11
32.9859871469
 21
13.616241786
 31
0.0
  0
LINE
  5
2C2
330
1F
100
AcDbEntity
  8
0
  6
SLD-Solid
 62
     7
370
    25
100
AcDbLine
 10
25.9722403829
 20
17.0470702139
 30
0.0
 11
32.7313316105
 21
13.1451299033
 31
0.0
  0
LINE
  5
2C3
330
1F
100
AcDbEntity
  8
0
  6
SLD-Solid
 62
     7
370
    25
100
AcDbLine
 10
25.6661307236
 20
17.9072176023
 30
0.0
 11
33.0281818378
 21
13.6571959583
 31
0.0
  0
ARC
  5
2C4
330
1F
100
AcDbEntity
  8
0
  6
SLD-Solid
 62
     7
370
    25
100
AcDbCircle
 10
35.7974858049
 20
15.1390218457
 30
0.0
 40
0.0768402403786126
100
AcDbArc
 50
2.6054784857
 51
57.39452166
  0
ELLIPSE
  5
2C5
330
1F
100
AcDbEntity
  8
0
  6
SLD-Solid
 62
     7
370
    25
100
AcDbEllipse
 10
34.9161456079
 20
14.8472721599
 30
0.0
 11
0.02184276713306588
 21
0.04508247857706493
 31
0.0
210
0.0
220
0.0
230
1.0
 40
0.5227660535
 41
0.7474333982542581
 42
0.9896061599680299
  0
LINE
  5
2C6
330
1F
100
AcDbEntity
  8
0
  6
SLD-Solid
 62
     7
370
    25
100
AcDbLine
 10
35.1118440785
 20
15.2877605264
 30
0.0
 11
35.3196836257
 21
15.1677773097
 31
0.0
  0
LINE
  5
2C7
330
1F
100
AcDbEntity
  8
0
  6
SLD-Solid
 62
     7
370
    25
100
AcDbLine
 10
35.1118440785
 20
15.2877605264
 30
0.0
 11
35.4026063869
 21
15.4556140342
 31
0.0
  0
LINE
  5
2C8
330
1F
100
AcDbEntity
  8
0
  6
SLD-Solid
 62
     7
370
    25
100
AcDbLine
 10
35.4026063869
 20
15.4556140342
 30
0.0
 11
35.5606447525
 21
15.3643804277
 31
0.0
  0
LINE
  5
2C9
330
1F
100
AcDbEntity
  8
0
  6
SLD-Solid
 62
     7
370
    25
100
AcDbLine
 10
35.6009563902
 20
15.3876518409
 30
0.0
 11
35.5606447525
 21
15.3643804277
 31
0.0
  0
LINE
  5
2CA
330
1F
100
AcDbEntity
  8
0
  6
SLD-Solid
 62
     7
370
    25
100
AcDbLine
 10
35.7816156216
 20
15.2368166603
 30
0.0
 11
35.7998236212
 21
15.2473279147
 31
0.0
  0
LINE
  5
2CB
330
1F
100
AcDbEntity
  8
0
  6
SLD-Solid
 62
     7
370
    25
100
AcDbLine
 10
35.8388912709
 20
15.2037521317
 30
0.0
 11
35.7816156216
 21
15.2368166603
 31
0.0
  0
LINE
  5
2CC
330
1F
100
AcDbEntity
  8
0
  6
SLD-Solid
 62
     7
370
    25
100
AcDbLine
 10
35.3196836257
 20
15.1677773097
 30
0.0
 11
34.9161456079
 21
14.8880992005
 31
0.0
  0
LINE
  5
2CD
330
1F
100
AcDbEntity
  8
0
  6
SLD-Solid
 62
     7
370
    25
100
AcDbLine
 10
35.1118440785
 20
15.2469334859
 30
0.0
 11
35.1118440785
 21
15.2877605264
 31
0.0
  0
LINE
  5
2CE
330
1F
100
AcDbEntity
  8
0
  6
SLD-Solid
 62
     7
370
    25
100
AcDbLine
 10
35.1118440785
 20
15.2469334859
 30
0.0
 11
35.2875452774
 21
15.1455033427
 31
0.0
  0
ARC
  5
2CF
330
1F
100
AcDbEntity
  8
0
  6
SLD-Solid
 62
     7
370
    25
100
AcDbCircle
 10
35.8504623321
 20
13.4606787777
 30
0.0
 40
0.023976277323145
100
AcDbArc
 50
304.0563508351
 51
7.2558295583
  0
LWPOLYLINE
  5
2D0
330
1F
100
AcDbEntity
  8
0
  6
SLD-Solid
 62
     7
370
    25
100
AcDbPolyline
 90
       35
 70
   128
 43
0.0
 10
25.9826288139
 20
18.3803922216
 10
25.9487126446
 20
18.433307677
 10
25.9076586337
 20
18.4743304977
 10
25.8601336814
 20
18.5027942902
 10
25.8069098047
 20
18.5182366757
 10
25.7488515965
 20
18.5204068011
 10
25.686902181
 20
18.5092694138
 10
25.6220678926
 20
18.4850054347
 10
25.5554019292
 20
18.4480090188
 10
25.4879872431
 20
18.398881153
 10
25.4209189493
 20
18.3384198925
 10
25.3552865357
 20
18.2676073979
 10
25.2921561652
 20
18.1875939794
 10
25.2325533564
 20
18.0996794118
 10
25.1774463246
 20
18.0052918193
 10
25.1277302534
 20
17.905964477
 10
25.0842127535
 20
17.8033109037
 10
25.047600743
 20
17.6989986509
 10
25.0184889641
 20
17.5947222145
 10
24.9973503218
 20
17.4921755084
 10
24.9845282019
 20
17.3930243482
 10
24.9802308928
 20
17.2988793905
 10
24.9845282019
 20
17.2112699692
 10
24.9973503218
 20
17.1316192516
 10
25.0184889641
 20
17.0612211203
 10
25.047600743
 20
17.0012191547
 10
25.0842127535
 20
16.9525880541
 10
25.1277302534
 20
16.9161178044
 10
25.1774463246
 20
16.8924008449
 10
25.2325533564
 20
16.8818224448
 10
25.2921561652
 20
16.8845544443
 10
25.3552865357
 20
16.9005524637
 10
25.4209189493
 20
16.9295566238
 10
25.4879872431
 20
16.9710957678
 10
25.5358409403
 20
17.0078030453
  0
LWPOLYLINE
  5
2D1
330
1F
100
AcDbEntity
  8
0
  6
SLD-Solid
 62
     7
370
    25
100
AcDbPolyline
 90
       27
 70
   128
 43
0.0
 10
25.8238991942
 20
18.5186748457
 10
25.8234955338
 20
18.5188512565
 10
25.7702716571
 20
18.534293642
 10
25.7122134489
 20
18.5364637674
 10
25.6502640334
 20
18.5253263801
 10
25.585429745
 20
18.5010624009
 10
25.5187637816
 20
18.4640659851
 10
25.4513490955
 20
18.4149381192
 10
25.3842808017
 20
18.3544768588
 10
25.3186483881
 20
18.2836643641
 10
25.2555180176
 20
18.2036509457
 10
25.1959152088
 20
18.1157363781
 10
25.140808177
 20
18.0213487855
 10
25.0910921058
 20
17.9220214433
 10
25.0475746059
 20
17.81936787
 10
25.0109625954
 20
17.7150556172
 10
24.9818508165
 20
17.6107791807
 10
24.9607121742
 20
17.5082324746
 10
24.9478900543
 20
17.4090813144
 10
24.9435927452
 20
17.3149363568
 10
24.9478900543
 20
17.2273269355
 10
24.9607121742
 20
17.1476762178
 10
24.9818508165
 20
17.0772780865
 10
25.0109625954
 20
17.0172761209
 10
25.0475746059
 20
16.9686450204
 10
25.0910921058
 20
16.9321747707
 10
25.1214464376
 20
16.9158460573
  0
LINE
  5
2D2
330
1F
100
AcDbEntity
  8
0
  6
SLD-Solid
 62
     7
370
    25
100
AcDbLine
 10
26.6831488542
 20
18.9130830308
 30
0.0
 11
25.9826288139
 21
18.3803922216
 31
0.0
  0
LINE
  5
2D3
330
1F
100
AcDbEntity
  8
0
  6
SLD-Solid
 62
     7
370
    25
100
AcDbLine
 10
26.6831488542
 20
18.2745481159
 30
0.0
 11
26.1032612934
 21
17.8335888909
 31
0.0
  0
LWPOLYLINE
  5
2D4
330
1F
100
AcDbEntity
  8
0
  6
SLD-Solid
 62
     7
370
    25
100
AcDbPolyline
 90
       30
 70
   128
 43
0.0
 10
25.9271593405
 20
18.1839967622
 10
25.9070296613
 20
18.2427617992
 10
25.8785149059
 20
18.2934987725
 10
25.8428140156
 20
18.3327073917
 10
25.8006218678
 20
18.3596245058
 10
25.7527596847
 20
18.3737262036
 10
25.7001590491
 20
18.3747380116
 10
25.6438437725
 20
18.3626402363
 10
25.5849099679
 20
18.3376683469
 10
25.5245047147
 20
18.300308393
 10
25.4638037323
 20
18.2512875436
 10
25.4039884965
 20
18.1915599336
 10
25.3462232427
 20
18.1222880932
 10
25.2916323058
 20
18.0448203198
 10
25.2412782365
 20
17.9606644357
 10
25.1961411192
 20
17.8714584392
 10
25.1570994968
 20
17.7789386237
 10
25.1249132699
 20
17.6849057822
 10
25.1002089069
 20
17.5911901569
 10
25.0834672501
 20
17.499615816
 10
25.0750141567
 20
17.4119651497
 10
25.0750141567
 20
17.3299441786
 10
25.0834672501
 20
17.2551493476
 10
25.1002089069
 20
17.189036453
 10
25.1249132699
 20
17.1328923071
 10
25.1570994968
 20
17.0878096919
 10
25.1961411192
 20
17.0546660891
 10
25.2412782365
 20
17.0341066013
 10
25.2916323058
 20
17.0265313955
 10
25.2931457254
 20
17.0265077404
  0
ARC
  5
2D5
330
1F
100
AcDbEntity
  8
0
  6
SLD-Solid
 62
     7
370
    25
100
AcDbCircle
 10
25.6385807834
 20
18.1544090739
 30
0.0
 40
0.255610086610844
100
AcDbArc
 50
11.6613760655
 51
56.5317756291
  0
ARC
  5
2D6
330
1F
100
AcDbEntity
  8
0
  6
SLD-Solid
 62
     7
370
    25
100
AcDbCircle
 10
25.2583877278
 20
17.2348954135
 30
0.0
 40
0.1923717447353248
100
AcDbArc
 50
252.3926181996
 51
271.7020038423
  0
LINE
  5
2D7
330
1F
100
AcDbEntity
  8
0
  6
SLD-Solid
 62
     7
370
    25
100
AcDbLine
 10
26.6465107066
 20
18.9291399971
 30
0.0
 11
26.9401292063
 21
19.098642349
 31
0.0
  0
LINE
  5
2D8
330
1F
100
AcDbEntity
  8
0
  6
SLD-Solid
 62
     7
370
    25
100
AcDbLine
 10
26.6831488542
 20
18.9130830308
 30
0.0
 11
26.9723555277
 21
19.0800384897
 31
0.0
  0
LINE
  5
2D9
330
1F
100
AcDbEntity
  8
0
  6
SLD-Solid
 62
     7
370
    25
100
AcDbLine
 10
26.6465107066
 20
18.9291399971
 30
0.0
 11
25.964936245
 21
18.4108558216
 31
0.0
  0
LWPOLYLINE
  5
2DA
330
1F
100
AcDbEntity
  8
0
  6
SLD-Solid
 62
     7
370
    25
100
AcDbPolyline
 90
        9
 70
   128
 43
0.0
 10
26.9723555277
 20
19.0800384897
 10
27.0240866613
 20
19.1040186364
 10
27.0738297965
 20
19.1153100375
 10
27.1196733324
 20
19.1134787708
 10
27.1598555277
 20
19.0985952107
 10
27.1928322032
 20
19.0712313242
 10
27.2173360836
 20
19.0324386901
 10
27.2324254987
 20
18.9837080875
 10
27.2375205707
 20
18.9269122062
  0
LINE
  5
2DB
330
1F
100
AcDbEntity
  8
0
  6
SLD-Solid
 62
     7
370
    25
100
AcDbLine
 10
27.2375205707
 20
18.9269122062
 30
0.0
 11
27.2375205707
 21
18.9007829002
 31
0.0
  0
ARC
  5
2DC
330
1F
100
AcDbEntity
  8
0
  6
SLD-Solid
 62
     7
370
    25
100
AcDbCircle
 10
26.6618145326
 20
18.9269807198
 30
0.0
 40
0.5763018028394923
100
AcDbArc
 50
302.60547834
 51
357.3945215143
  0
LINE
  5
2DD
330
1F
100
AcDbEntity
  8
0
  6
SLD-Solid
 62
     7
370
    25
100
AcDbLine
 10
26.9723555277
 20
18.4415035748
 30
0.0
 11
26.6831488542
 21
18.2745481159
 31
0.0
  0
ARC
  5
2DE
330
1F
100
AcDbEntity
  8
0
  6
SLD-Solid
 62
     7
370
    25
100
AcDbCircle
 10
27.0499742269
 20
18.9453118506
 30
0.0
 40
0.1886164634631754
100
AcDbArc
 50
65.6928809539
 51
125.6175774752
  0
LWPOLYLINE
  5
2DF
330
1F
100
AcDbEntity
  8
0
  6
SLD-Solid
 62
     7
370
    25
100
AcDbPolyline
 90
       17
 70
   128
 43
0.0
 10
25.3233295511
 20
18.3094155033
 10
25.2553788729
 20
18.2644453723
 10
25.1888764455
 20
18.2089476227
 10
25.1252396525
 20
18.1441050927
 10
25.0658248018
 20
18.0712997883
 10
25.0118982178
 20
17.9920834281
 10
24.9646092519
 20
17.9081443713
 10
24.9249657865
 20
17.8212716332
 10
24.893812753
 20
17.7333167553
 10
24.8718141244
 20
17.6461543432
 10
24.8594387633
 20
17.5616421123
 10
24.8569504289
 20
17.4815812942
 10
24.8644021558
 20
17.4076782461
 10
24.8816351233
 20
17.3415080833
 10
24.9082820407
 20
17.2844811079
 10
24.9437749753
 20
17.2378127508
 10
24.9472057788
 20
17.2343284256
  0
LWPOLYLINE
  5
2E0
330
1F
100
AcDbEntity
  8
0
  6
SLD-Solid
 62
     7
370
    25
100
AcDbPolyline
 90
        3
 70
   128
 43
0.0
 10
25.6533027329
 20
18.3420908166
 10
25.6347608845
 20
18.3516543919
 10
25.62486375
 20
18.3558950395
  0
LINE
  5
2E1
330
1F
100
AcDbEntity
  8
0
  6
SLD-Solid
 62
     7
370
    25
100
AcDbLine
 10
25.3586867292
 20
18.3282779023
 30
0.0
 11
25.3233295511
 21
18.3094155033
 31
0.0
  0
LINE
  5
2E2
330
1F
100
AcDbEntity
  8
0
  6
SLD-Solid
 62
     7
370
    25
100
AcDbLine
 10
25.2121976619
 20
17.0725719291
 30
0.0
 11
25.1835555262
 21
17.0634618756
 31
0.0
  0
LWPOLYLINE
  5
2E3
330
1F
100
AcDbEntity
  8
0
  6
SLD-Solid
 62
     7
370
    25
100
AcDbPolyline
 90
       20
 70
   128
 43
0.0
 10
24.8701538497
 20
17.1243184964
 10
24.85643136
 20
17.1386526792
 10
24.8186512239
 20
17.1910860905
 10
24.7897179848
 20
17.2537502352
 10
24.7701412869
 20
17.3255413164
 10
24.7602659635
 20
17.4051947712
 10
24.7602659635
 20
17.4913075449
 10
24.7701412869
 20
17.5823628054
 10
24.7897179848
 20
17.676756661
 10
24.8186512239
 20
17.7728264124
 10
24.85643136
 20
17.8688798404
 10
24.9023929155
 20
17.9632250132
 10
24.9557263011
 20
18.0542000891
 10
25.0154920766
 20
18.140202589
 10
25.0806374988
 20
18.2197176229
 10
25.1500150644
 20
18.2913445745
 10
25.2224027233
 20
18.3538217717
 10
25.2965254041
 20
18.406048711
 10
25.3710774739
 20
18.4471054416
 10
25.4447457363
 20
18.4762687703
  0
LINE
  5
2E4
330
1F
100
AcDbEntity
  8
0
  6
SLD-Solid
 62
     7
370
    25
100
AcDbLine
 10
25.516016149
 20
17.820558303
 30
0.0
 11
25.516016149
 21
17.1469121332
 31
0.0
  0
LINE
  5
2E5
330
1F
100
AcDbEntity
  8
0
  6
SLD-Solid
 62
     7
370
    25
100
AcDbLine
 10
25.516016149
 20
17.1469121332
 30
0.0
 11
25.6008816055
 21
17.1959039184
 31
0.0
  0
LINE
  5
2E6
330
1F
100
AcDbEntity
  8
0
  6
SLD-Solid
 62
     7
370
    25
100
AcDbLine
 10
25.8200720649
 20
17.8183491576
 30
0.0
 11
25.8200720649
 21
17.9960860471
 31
0.0
  0
LINE
  5
2E7
330
1F
100
AcDbEntity
  8
0
  6
SLD-Solid
 62
     7
370
    25
100
AcDbLine
 10
25.8200720649
 20
17.9960860471
 30
0.0
 11
25.516016149
 21
17.820558303
 31
0.0
  0
LINE
  5
2E8
330
1F
100
AcDbEntity
  8
0
  6
SLD-Solid
 62
     7
370
    25
100
AcDbLine
 10
25.6712125438
 20
17.90428393
 30
0.0
 11
25.6726964003
 21
17.9110078868
 31
0.0
  0
LWPOLYLINE
  5
2E9
330
1F
100
AcDbEntity
  8
0
  6
SLD-Solid
 62
     7
370
    25
100
AcDbPolyline
 90
       22
 70
   128
 43
0.0
 10
25.4397316678
 20
18.4673188168
 10
25.3671880441
 20
18.438600703
 10
25.2937741054
 20
18.3981707551
 10
25.2207830006
 20
18.3467411257
 10
25.1495004303
 20
18.2852177215
 10
25.0811820005
 20
18.2146842454
 10
25.0170311052
 20
18.1363831085
 10
24.9581777294
 20
18.051693545
 10
24.905658545
 20
17.9621073181
 10
24.8603986505
 20
17.869202443
 10
24.8231952757
 20
17.7746153914
 10
24.7947037389
 20
17.6800122656
 10
24.7754259039
 20
17.587059451
 10
24.7657013398
 20
17.4973942636
 10
24.7657013398
 20
17.4125961097
 10
24.7754259039
 20
17.334158665
 10
24.7947037389
 20
17.263463565
 10
24.8231952757
 20
17.2017560674
 10
24.8603986505
 20
17.150123118
 10
24.905658545
 20
17.1094742048
 10
24.9581777294
 20
17.0805253374
 10
24.9841689184
 20
17.0713906677
  0
LWPOLYLINE
  5
2EA
330
1F
100
AcDbEntity
  8
0
  6
SLD-Solid
 62
     7
370
    25
100
AcDbPolyline
 90
       19
 70
   128
 43
0.0
 10
25.4349272505
 20
18.460593946
 10
25.3605047299
 20
18.4309071916
 10
25.2852082508
 20
18.3887740035
 10
25.2104679427
 20
18.3349946307
 10
25.1377033718
 20
18.2705905215
 10
25.0682965783
 20
18.1967849234
 10
25.0035658273
 20
18.1149796492
 10
24.9447405701
 20
18.0267284523
 10
24.8929380934
 20
17.9337075151
 10
24.8491422978
 20
17.8376836137
 10
24.8141850105
 20
17.7404805599
 10
24.7887301864
 20
17.6439445619
 10
24.7732612968
 20
17.5499091581
 10
24.7680721472
 20
17.4601603925
 10
24.7732612968
 20
17.3764028914
 10
24.7887301864
 20
17.3002274874
 10
24.8141850105
 20
17.2330810038
 10
24.8491422978
 20
17.1762387747
 10
24.8673716465
 20
17.1547755614
  0
LINE
  5
2EB
330
1F
100
AcDbEntity
  8
0
  6
SLD-Solid
 62
     7
370
    25
100
AcDbLine
 10
25.162752868
 20
17.081837823
 30
0.0
 11
25.1854981067
 21
17.0879852543
 31
0.0
  0
LWPOLYLINE
  5
2EC
330
1F
100
AcDbEntity
  8
0
  6
SLD-Solid
 62
     7
370
    25
100
AcDbPolyline
 90
        3
 70
   128
 43
0.0
 10
25.8452015643
 20
18.2313099793
 10
25.8281985857
 20
18.2865912107
 10
25.8075985639
 20
18.3316300805
  0
LINE
  5
2ED
330
1F
100
AcDbEntity
  8
0
  6
SLD-Solid
 62
     7
370
    25
100
AcDbLine
 10
25.6886512377
 20
18.3305022493
 30
0.0
 11
25.7089986894
 21
18.3099382253
 31
0.0
  0
LWPOLYLINE
  5
2EE
330
1F
100
AcDbEntity
  8
0
  6
SLD-Solid
 62
     7
370
    25
100
AcDbPolyline
 90
       15
 70
   128
 43
0.0
 10
24.8827871454
 20
17.2961247939
 10
24.8644308638
 20
17.3384858143
 10
24.8468715143
 20
17.4059091998
 10
24.8392786562
 20
17.4812119268
 10
24.8418141181
 20
17.5627890483
 10
24.8544238611
 20
17.6489018896
 10
24.8768391304
 20
17.737715105
 10
24.9085821834
 20
17.827335795
 10
24.9489764721
 20
17.9158538501
 10
24.9971610623
 20
18.0013826618
 10
25.0521089831
 20
18.0820993318
 10
25.1126491151
 20
18.1562835246
 10
25.1774911504
 20
18.2223541328
 10
25.2452530935
 20
18.2789029761
 10
25.3144907164
 20
18.3247248141
  0
ELLIPSE
  5
2EF
330
1F
100
AcDbEntity
  8
0
  6
SLD-Solid
 62
     7
370
    25
100
AcDbEllipse
 10
25.8063886432
 20
20.3543714698
 30
0.0
 11
1.204535332042585
 21
1.72228695141769
 31
0.0
210
0.0
220
0.0
230
1.0
 40
0.6271330937
 41
4.062404862792052
 42
4.223574536509556
  0
LINE
  5
2F0
330
1F
100
AcDbEntity
  8
0
  6
SLD-Solid
 62
     7
370
    25
100
AcDbLine
 10
26.1943760132
 20
18.8786820646
 30
0.0
 11
26.982901874
 21
19.4639857966
 31
0.0
  0
ELLIPSE
  5
2F1
330
1F
100
AcDbEntity
  8
0
  6
SLD-Solid
 62
     7
370
    25
100
AcDbEllipse
 10
26.9921532553
 20
19.4287986581
 30
0.0
 11
0.0287215937560461
 21
0.04106714417921609
 31
0.0
210
0.0
220
0.0
230
1.0
 40
0.6271330937
 41
0.8398091212060376
 42
1.081981882919732
  0
LINE
  5
2F2
330
1F
100
AcDbEntity
  8
0
  6
SLD-Solid
 62
     7
370
    25
100
AcDbLine
 10
27.4766224435
 20
19.7025832377
 30
0.0
 11
26.9921532553
 21
19.4696256986
 31
0.0
  0
LINE
  5
2F3
330
1F
100
AcDbEntity
  8
0
  6
SLD-Solid
 62
     7
370
    25
100
AcDbLine
 10
27.4766224435
 20
19.6617561971
 30
0.0
 11
27.4766224435
 21
19.7025832377
 31
0.0
  0
LINE
  5
2F4
330
1F
100
AcDbEntity
  8
0
  6
SLD-Solid
 62
     7
370
    25
100
AcDbLine
 10
26.9921532553
 20
19.4287986581
 30
0.0
 11
27.4766224435
 21
19.6617561971
 31
0.0
  0
LINE
  5
2F5
330
1F
100
AcDbEntity
  8
0
  6
SLD-Solid
 62
     7
370
    25
100
AcDbLine
 10
26.2036273945
 20
18.843494926
 30
0.0
 11
26.9921532553
 21
19.4287986581
 31
0.0
  0
ELLIPSE
  5
2F6
330
1F
100
AcDbEntity
  8
0
  6
SLD-Solid
 62
     7
370
    25
100
AcDbEllipse
 10
25.8063886432
 20
20.3543714698
 30
0.0
 11
1.233256925798628
 21
1.76335409559691
 31
0.0
210
0.0
220
0.0
230
1.0
 40
0.6271330937
 41
3.949682206722188
 42
4.223574536509553
  0
SPLINE
  5
2F7
330
1F
100
AcDbEntity
  8
0
  6
SLD-Solid
 62
     7
370
    25
100
AcDbSpline
210
0.0
220
0.0
230
1.0
 70
     8
 71
     3
 72
    18
 73
    14
 74
     0
 42
0.00000001
 43
0.00000001
 40
0.0
 40
0.0
 40
0.0
 40
0.0
 40
0.0241410239423725
 40
0.0494125206690886
 40
0.0585012190587451
 40
0.0676730033143481
 40
0.0742182754275483
 40
0.0807574045756819
 40
0.0906377170292496
 40
0.1097155615641032
 40
0.1928045595360085
 40
0.5215185057075216
 40
1.0
 40
1.0
 40
1.0
 40
1.0
 10
25.69246437664414
 20
18.56433313433249
 30
0.0
 10
25.6919079577081
 20
18.56385695202756
 30
0.0
 10
25.69076906392116
 20
18.56288228881359
 30
0.0
 10
25.68948972666842
 20
18.56153450748746
 30
0.0
 10
25.68871510062219
 20
18.56037684563242
 30
0.0
 10
25.68839690640024
 20
18.55965645207994
 30
0.0
 10
25.68831299701068
 20
18.55903207031028
 30
0.0
 10
25.68842645799593
 20
18.55849131899559
 30
0.0
 10
25.68887897215161
 20
18.55790231445175
 30
0.0
 10
25.69097860847615
 20
18.55698247836098
 30
0.0
 10
25.70096734218012
 20
18.557679523193
 30
0.0
 10
25.72241843181345
 20
18.56380625298587
 30
0.0
 10
25.7421557266669
 20
18.5720572382881
 30
0.0
 10
25.75385540912466
 20
18.57694817743231
 30
0.0
  0
SPLINE
  5
2F8
330
1F
100
AcDbEntity
  8
0
  6
SLD-Solid
 62
     7
370
    25
100
AcDbSpline
210
0.0
220
0.0
230
1.0
 70
     8
 71
     3
 72
    14
 73
    10
 74
     0
 42
0.00000001
 43
0.00000001
 40
0.0
 40
0.0
 40
0.0
 40
0.0
 40
0.3115850422017675
 40
0.5633233396504165
 40
0.7318561573153722
 40
0.8451228514151953
 40
0.9216456205996666
 40
0.9737125749665464
 40
1.0
 40
1.0
 40
1.0
 40
1.0
 10
25.93729846032205
 20
18.7107164742511
 30
0.0
 10
25.91176750607924
 20
18.69627488973838
 30
0.0
 10
25.86560937760527
 20
18.67016554392362
 30
0.0
 10
25.80564607424132
 20
18.63617033633377
 30
0.0
 10
25.76199205744124
 20
18.6106860920315
 30
0.0
 10
25.73275512217725
 20
18.59275956455659
 30
0.0
 10
25.71314788929951
 20
18.57982707683896
 30
0.0
 10
25.70069371734857
 20
18.57095704215823
 30
0.0
 10
25.69453169742491
 20
18.5659971488374
 30
0.0
 10
25.69246437664414
 20
18.56433313433249
 30
0.0
  0
LINE
  5
2F9
330
1F
100
AcDbEntity
  8
0
  6
SLD-Solid
 62
     7
370
    25
100
AcDbLine
 10
25.7847167259
 20
17.8387593604
 30
0.0
 11
25.7847167259
 21
17.9756758443
 31
0.0
  0
ARC
  5
2FA
330
1F
100
AcDbEntity
  8
0
  6
SLD-Solid
 62
     7
370
    25
100
AcDbCircle
 10
24.9772116461
 20
19.9226602243
 30
0.0
 40
1.527070195812493
100
AcDbArc
 50
287.6307043963
 51
293.2472829452
  0
LINE
  5
2FB
330
1F
100
AcDbEntity
  8
0
  6
SLD-Solid
 62
     7
370
    25
100
AcDbLine
 10
27.3686359157
 20
19.6098307571
 30
0.0
 11
27.3686359157
 21
18.2551154822
 31
0.0
  0
LINE
  5
2FC
330
1F
100
AcDbEntity
  8
0
  6
SLD-Solid
 62
     7
370
    25
100
AcDbLine
 10
27.4018699344
 20
18.2065281855
 30
0.0
 11
27.3686359157
 21
18.2551154822
 31
0.0
  0
LINE
  5
2FD
330
1F
100
AcDbEntity
  8
0
  6
SLD-Solid
 62
     7
370
    25
100
AcDbLine
 10
26.8015957328
 20
17.859997265
 30
0.0
 11
27.4018699344
 21
18.2065281855
 31
0.0
  0
LINE
  5
2FE
330
1F
100
AcDbEntity
  8
0
  6
SLD-Solid
 62
     7
370
    25
100
AcDbLine
 10
26.1018922568
 20
17.6556578238
 30
0.0
 11
26.8015957328
 21
17.859997265
 31
0.0
  0
LINE
  5
2FF
330
1F
100
AcDbEntity
  8
0
  6
SLD-Solid
 62
     7
370
    25
100
AcDbLine
 10
25.5886633043
 20
18.5231225732
 30
0.0
 11
25.5799466883
 21
18.5195729669
 31
0.0
  0
LINE
  5
300
330
1F
100
AcDbEntity
  8
0
  6
SLD-Solid
 62
     7
370
    25
100
AcDbLine
 10
25.516016149
 20
17.1877325388
 30
0.0
 11
25.5655262665
 21
17.2163141212
 31
0.0
  0
LWPOLYLINE
  5
301
330
1F
100
AcDbEntity
  8
0
  6
SLD-Solid
 62
     7
370
    25
100
AcDbPolyline
 90
        3
 70
   128
 43
0.0
 10
25.8041105758
 20
18.3504929542
 10
25.827672176
 20
18.2999622095
 10
25.8481423313
 20
18.2296123106
  0
LINE
  5
302
330
1F
100
AcDbEntity
  8
0
  6
SLD-Solid
 62
     7
370
    25
100
AcDbLine
 10
27.6601441937
 20
19.8172832968
 30
0.0
 11
27.8049207997
 21
19.6551156422
 31
0.0
  0
LINE
  5
303
330
1F
100
AcDbEntity
  8
0
  6
SLD-Solid
 62
     7
370
    25
100
AcDbLine
 10
27.8049207997
 20
19.6551156422
 30
0.0
 11
27.6818842198
 21
19.5840881365
 31
0.0
  0
LINE
  5
304
330
1F
100
AcDbEntity
  8
0
  6
SLD-Solid
 62
     7
370
    25
100
AcDbLine
 10
27.6818842198
 20
19.5840881365
 30
0.0
 11
27.4766224435
 21
19.7025832377
 31
0.0
  0
LINE
  5
305
330
1F
100
AcDbEntity
  8
0
  6
SLD-Solid
 62
     7
370
    25
100
AcDbLine
 10
26.9921532553
 20
17.7499907488
 30
0.0
 11
26.2286802279
 21
17.582464686
 31
0.0
  0
LINE
  5
306
330
1F
100
AcDbEntity
  8
0
  6
SLD-Solid
 62
     7
370
    25
100
AcDbLine
 10
27.4766224435
 20
17.9829482879
 30
0.0
 11
26.9921532553
 21
17.7499907488
 31
0.0
  0
LINE
  5
307
330
1F
100
AcDbEntity
  8
0
  6
SLD-Solid
 62
     7
370
    25
100
AcDbLine
 10
27.4766224435
 20
17.9421212473
 30
0.0
 11
27.4766224435
 21
17.9829482879
 31
0.0
  0
LINE
  5
308
330
1F
100
AcDbEntity
  8
0
  6
SLD-Solid
 62
     7
370
    25
100
AcDbLine
 10
27.4766224435
 20
17.9421212473
 30
0.0
 11
26.9921532553
 21
17.7091637082
 31
0.0
  0
ELLIPSE
  5
309
330
1F
100
AcDbEntity
  8
0
  6
SLD-Solid
 62
     7
370
    25
100
AcDbEllipse
 10
26.9921532553
 20
17.7499907488
 30
0.0
 11
0.0287215937560461
 21
0.04106714417921609
 31
0.0
210
0.0
220
0.0
230
1.0
 40
0.6271330937
 41
3.73922901308219
 42
3.981401774795877
  0
LINE
  5
30A
330
1F
100
AcDbEntity
  8
0
  6
SLD-Solid
 62
     7
370
    25
100
AcDbLine
 10
26.982901874
 20
17.7059065367
 30
0.0
 11
26.2814648094
 21
17.5519927958
 31
0.0
  0
LINE
  5
30B
330
1F
100
AcDbEntity
  8
0
  6
SLD-Solid
 62
     7
370
    25
100
AcDbLine
 10
27.6818842198
 20
19.5840881365
 30
0.0
 11
27.6818842198
 21
19.5432610959
 31
0.0
  0
LINE
  5
30C
330
1F
100
AcDbEntity
  8
0
  6
SLD-Solid
 62
     7
370
    25
100
AcDbLine
 10
27.4766224435
 20
19.6617561971
 30
0.0
 11
27.6818842198
 21
19.5432610959
 31
0.0
  0
LINE
  5
30D
330
1F
100
AcDbEntity
  8
0
  6
SLD-Solid
 62
     7
370
    25
100
AcDbLine
 10
27.8049207997
 20
19.6142886016
 30
0.0
 11
27.8049207997
 21
19.6551156422
 31
0.0
  0
LINE
  5
30E
330
1F
100
AcDbEntity
  8
0
  6
SLD-Solid
 62
     7
370
    25
100
AcDbLine
 10
27.8049207997
 20
19.6142886016
 30
0.0
 11
27.6818842198
 21
19.5432610959
 31
0.0
  0
LINE
  5
30F
330
1F
100
AcDbEntity
  8
0
  6
SLD-Solid
 62
     7
370
    25
100
AcDbLine
 10
27.3917188995
 20
18.2213687425
 30
0.0
 11
27.4048498218
 21
18.2137884224
 31
0.0
  0
LINE
  5
310
330
1F
100
AcDbEntity
  8
0
  6
SLD-Solid
 62
     7
370
    25
100
AcDbLine
 10
27.5913571588
 20
18.1746983099
 30
0.0
 11
27.8049207997
 21
17.9354806924
 31
0.0
  0
LINE
  5
311
330
1F
100
AcDbEntity
  8
0
  6
SLD-Solid
 62
     7
370
    25
100
AcDbLine
 10
27.6818842198
 20
17.8644531866
 30
0.0
 11
27.8049207997
 21
17.9354806924
 31
0.0
  0
LINE
  5
312
330
1F
100
AcDbEntity
  8
0
  6
SLD-Solid
 62
     7
370
    25
100
AcDbLine
 10
27.6818842198
 20
17.8644531866
 30
0.0
 11
27.4766224435
 21
17.9829482879
 31
0.0
  0
LINE
  5
313
330
1F
100
AcDbEntity
  8
0
  6
SLD-Solid
 62
     7
370
    25
100
AcDbLine
 10
27.6818842198
 20
17.8644531866
 30
0.0
 11
27.6818842198
 21
17.823626146
 31
0.0
  0
LINE
  5
314
330
1F
100
AcDbEntity
  8
0
  6
SLD-Solid
 62
     7
370
    25
100
AcDbLine
 10
27.8049207997
 20
17.8946536518
 30
0.0
 11
27.8049207997
 21
17.9354806924
 31
0.0
  0
LINE
  5
315
330
1F
100
AcDbEntity
  8
0
  6
SLD-Solid
 62
     7
370
    25
100
AcDbLine
 10
27.6818842198
 20
17.823626146
 30
0.0
 11
27.8049207997
 21
17.8946536518
 31
0.0
  0
LINE
  5
316
330
1F
100
AcDbEntity
  8
0
  6
SLD-Solid
 62
     7
370
    25
100
AcDbLine
 10
27.6818842198
 20
17.823626146
 30
0.0
 11
27.4766224435
 21
17.9421212473
 31
0.0
  0
ELLIPSE
  5
317
330
1F
100
AcDbEntity
  8
0
  6
SLD-Solid
 62
     7
370
    25
100
AcDbEllipse
 10
36.2267935531
 20
15.2907429447
 30
0.0
 11
-0.08749123887920973
 21
0.1515595036633073
 31
0.0
210
0.0
220
0.0
230
1.0
 40
0.6174456632
 41
3.960603192151927
 42
5.464362020741877
  0
LINE
  5
318
330
1F
100
AcDbEntity
  8
0
  6
SLD-Solid
 62
     7
370
    25
100
AcDbLine
 10
36.3549024444
 20
15.22669705
 30
0.0
 11
36.3549024444
 21
13.3021708124
 31
0.0
  0
LINE
  5
319
330
1F
100
AcDbEntity
  8
0
  6
SLD-Solid
 62
     7
370
    25
100
AcDbLine
 10
27.5472065548
 20
20.4492972841
 30
0.0
 11
36.2353752216
 21
15.4337242722
 31
0.0
  0
LINE
  5
31A
330
1F
100
AcDbEntity
  8
0
  6
SLD-Solid
 62
     7
370
    25
100
AcDbLine
 10
27.7904251107
 20
18.0511933386
 30
0.0
 11
27.7904251107
 21
18.2222586386
 31
0.0
  0
LWPOLYLINE
  5
31B
330
1F
100
AcDbEntity
  8
0
  6
SLD-Solid
 62
     7
370
    25
100
AcDbPolyline
 90
       12
 70
   128
 43
0.0
 10
27.7904251107
 20
18.2222586386
 10
27.7848254447
 20
18.2704652756
 10
27.7684800982
 20
18.3212317343
 10
27.742713274
 20
18.3704452182
 10
27.709612447
 20
18.4141187435
 10
27.6718592494
 20
18.448714141
 10
27.6325122206
 20
18.4714286972
 10
27.5947590229
 20
18.480422214
 10
27.5616581959
 20
18.47496609
 10
27.5358913718
 20
18.455502348
 10
27.5195460253
 20
18.4236078247
 10
27.5139463593
 20
18.3818664245
  0
LINE
  5
31C
330
1F
100
AcDbEntity
  8
0
  6
SLD-Solid
 62
     7
370
    25
100
AcDbLine
 10
27.5139463593
 20
18.3818664245
 30
0.0
 11
27.5139463593
 21
18.258172492
 31
0.0
  0
LINE
  5
31D
330
1F
100
AcDbEntity
  8
0
  6
SLD-Solid
 62
     7
370
    25
100
AcDbLine
 10
27.7904251107
 20
17.9981181858
 30
0.0
 11
27.7904251107
 21
18.0511933386
 31
0.0
  0
LWPOLYLINE
  5
31E
330
1F
100
AcDbEntity
  8
0
  6
SLD-Solid
 62
     7
370
    25
100
AcDbPolyline
 90
        3
 70
   128
 43
0.0
 10
27.7843560556
 20
19.6781506919
 10
27.7848254447
 20
19.6796861691
 10
27.7904251107
 20
19.7214275693
  0
LINE
  5
31F
330
1F
100
AcDbEntity
  8
0
  6
SLD-Solid
 62
     7
370
    25
100
AcDbLine
 10
27.7904251107
 20
19.7214275693
 30
0.0
 11
27.7904251107
 21
19.8924928694
 31
0.0
  0
LINE
  5
320
330
1F
100
AcDbEntity
  8
0
  6
SLD-Solid
 62
     7
370
    25
100
AcDbLine
 10
27.7904251107
 20
19.9455680221
 30
0.0
 11
27.7904251107
 21
19.8924928694
 31
0.0
  0
LINE
  5
321
330
1F
100
AcDbEntity
  8
0
  6
SLD-Solid
 62
     7
370
    25
100
AcDbLine
 10
35.7998236212
 20
15.2263054058
 30
0.0
 11
35.7998236212
 21
15.2728482321
 31
0.0
  0
LINE
  5
322
330
1F
100
AcDbEntity
  8
0
  6
SLD-Solid
 62
     7
370
    25
100
AcDbLine
 10
35.7998236212
 20
15.2728482321
 30
0.0
 11
35.5424367529
 21
15.4214345085
 31
0.0
  0
LINE
  5
323
330
1F
100
AcDbEntity
  8
0
  6
SLD-Solid
 62
     7
370
    25
100
AcDbLine
 10
35.5424367529
 20
15.4214345085
 30
0.0
 11
35.5424367529
 21
15.3748916822
 31
0.0
  0
LINE
  5
324
330
1F
100
AcDbEntity
  8
0
  6
SLD-Solid
 62
     7
370
    25
100
AcDbLine
 10
35.5777920919
 20
15.4010243057
 30
0.0
 11
35.5777920919
 21
15.3742793761
 31
0.0
  0
ARC
  5
325
330
1F
100
AcDbEntity
  8
0
  6
SLD-Solid
 62
     7
370
    25
100
AcDbCircle
 10
35.0280878291
 20
14.9371779303
 30
0.0
 40
0.0402528728420768
100
AcDbArc
 50
70.317056771
 51
179.1318998128
  0
ELLIPSE
  5
326
330
1F
100
AcDbEntity
  8
0
  6
SLD-Solid
 62
     7
370
    25
100
AcDbEllipse
 10
36.2267935531
 20
13.3860362952
 30
0.0
 11
-0.09356530977844814
 21
0.1620743191389789
 31
0.0
210
0.0
220
0.0
230
1.0
 40
0.5399170624
 41
2.896065202313869
 42
3.893543569266669
  0
LWPOLYLINE
  5
327
330
1F
100
AcDbEntity
  8
0
  6
SLD-Solid
 62
     7
370
    25
100
AcDbPolyline
 90
        3
 70
   128
 43
0.0
 10
35.0239330197
 20
14.9628028919
 10
35.0279190219
 20
14.9756014317
 10
35.0288020413
 20
14.9774479224
  0
LWPOLYLINE
  5
328
330
1F
100
AcDbEntity
  8
0
  6
SLD-Solid
 62
     7
370
    25
100
AcDbPolyline
 90
       12
 70
   128
 43
0.0
 10
27.6355687256
 20
19.8439232217
 10
27.5910225268
 20
19.8246724853
 10
27.538885864
 20
19.8134465659
 10
27.4833825396
 20
19.8111549206
 10
27.4290091028
 20
19.8179832051
 10
27.3801705661
 20
19.8333782322
 10
27.3408235373
 20
19.8560927884
 10
27.3141556787
 20
19.8842866755
 10
27.3023274615
 20
19.9156757924
 10
27.3062971376
 20
19.9477171796
 10
27.3257431074
 20
19.9778150344
 10
27.3427919263
 20
19.9928533944
  0
LINE
  5
329
330
1F
100
AcDbEntity
  8
0
  6
SLD-Solid
 62
     7
370
    25
100
AcDbLine
 10
27.4718276929
 20
20.0686131073
 30
0.0
 11
27.5033397575
 21
20.086804635
 31
0.0
  0
LINE
  5
32A
330
1F
100
AcDbEntity
  8
0
  6
SLD-Solid
 62
     7
370
    25
100
AcDbLine
 10
27.779818509
 20
19.9271968491
 30
0.0
 11
27.6355687256
 21
19.8439232217
 31
0.0
  0
LWPOLYLINE
  5
32B
330
1F
100
AcDbEntity
  8
0
  6
SLD-Solid
 62
     7
370
    25
100
AcDbPolyline
 90
       10
 70
   128
 43
0.0
 10
27.6355687256
 20
19.8030961811
 10
27.5910225268
 20
19.7838454447
 10
27.538885864
 20
19.7726195253
 10
27.4833825396
 20
19.77032788
 10
27.4290091028
 20
19.7771561645
 10
27.3801705661
 20
19.7925511916
 10
27.3408235373
 20
19.8152657478
 10
27.3141556787
 20
19.8434596349
 10
27.3023274615
 20
19.8748487518
 10
27.3018293499
 20
19.882900074
  0
ARC
  5
32C
330
1F
100
AcDbEntity
  8
0
  6
SLD-Solid
 62
     7
370
    25
100
AcDbCircle
 10
27.7673968692
 20
19.9466159349
 30
0.0
 40
0.0230520721136004
100
AcDbArc
 50
302.60547834
 51
357.3945215143
  0
LINE
  5
32D
330
1F
100
AcDbEntity
  8
0
  6
SLD-Solid
 62
     7
370
    25
100
AcDbLine
 10
27.7904251107
 20
19.8924928694
 30
0.0
 11
27.6355687256
 21
19.8030961811
 31
0.0
  0
ARC
  5
32E
330
1F
100
AcDbEntity
  8
0
  6
SLD-Solid
 62
     7
370
    25
100
AcDbCircle
 10
27.4909181177
 20
20.1062237208
 30
0.0
 40
0.0230520721135659
100
AcDbArc
 50
302.60547834
 51
357.3945215144
  0
LINE
  5
32F
330
1F
100
AcDbEntity
  8
0
  6
SLD-Solid
 62
     7
370
    25
100
AcDbLine
 10
28.160418734
 20
18.7864028098
 30
0.0
 11
28.5083152703
 21
18.5855664143
 31
0.0
  0
LWPOLYLINE
  5
330
330
1F
100
AcDbEntity
  8
0
  6
SLD-Solid
 62
     7
370
    25
100
AcDbPolyline
 90
        9
 70
   128
 43
0.0
 10
28.5083152703
 20
18.5855664143
 10
28.5353750753
 20
18.5761606682
 10
28.5583152703
 20
18.5806179554
 10
28.5736434186
 20
18.5982596942
 10
28.5790259484
 20
18.6264000899
 10
28.5736434186
 20
18.6607550223
 10
28.5583152703
 20
18.6960942644
 10
28.5353750753
 20
18.7270377369
 10
28.5083152703
 20
18.7488745767
  0
LINE
  5
331
330
1F
100
AcDbEntity
  8
0
  6
SLD-Solid
 62
     7
370
    25
100
AcDbLine
 10
28.5083152703
 20
18.7488745767
 30
0.0
 11
28.160418734
 21
18.9497109722
 31
0.0
  0
LWPOLYLINE
  5
332
330
1F
100
AcDbEntity
  8
0
  6
SLD-Solid
 62
     7
370
    25
100
AcDbPolyline
 90
        9
 70
   128
 43
0.0
 10
28.160418734
 20
18.9497109722
 10
28.133358929
 20
18.9591167183
 10
28.110418734
 20
18.9546594311
 10
28.0950905857
 20
18.9370176923
 10
28.0897080558
 20
18.9088772966
 10
28.0950905857
 20
18.8745223642
 10
28.110418734
 20
18.8391831221
 10
28.133358929
 20
18.8082396496
 10
28.160418734
 20
18.7864028098
  0
LWPOLYLINE
  5
333
330
1F
100
AcDbEntity
  8
0
  6
SLD-Solid
 62
     7
370
    25
100
AcDbPolyline
 90
        3
 70
   128
 43
0.0
 10
28.5436706094
 20
18.6059766171
 10
28.5707304144
 20
18.596570871
 10
28.5727603991
 20
18.5964132035
  0
ELLIPSE
  5
334
330
1F
100
AcDbEntity
  8
0
  6
SLD-Solid
 62
     7
370
    25
100
AcDbEllipse
 10
27.5557882233
 20
20.2964077731
 30
0.0
 11
-0.09356530977844459
 21
0.1620743191389806
 31
0.0
210
0.0
220
0.0
230
1.0
 40
0.5399170624
 41
5.531377394266523
 42
6.528712758455488
  0
LINE
  5
335
330
1F
100
AcDbEntity
  8
0
  6
SLD-Solid
 62
     7
370
    25
100
AcDbLine
 10
28.195774073
 20
18.8068130126
 30
0.0
 11
28.5436706094
 21
18.6059766171
 31
0.0
  0
ARC
  5
336
330
1F
100
AcDbEntity
  8
0
  6
SLD-Solid
 62
     7
370
    25
100
AcDbCircle
 10
28.2550659948
 20
18.9217266962
 30
0.0
 40
0.1293084941493652
100
AcDbArc
 50
163.1197143705
 51
242.7076594846
  0
LINE
  5
337
330
1F
100
AcDbEntity
  8
0
  6
SLD-Solid
 62
     7
370
    25
100
AcDbLine
 10
27.7904251107
 20
18.0511933386
 30
0.0
 11
27.7318207515
 21
18.0173617621
 31
0.0
  0
LWPOLYLINE
  5
338
330
1F
100
AcDbEntity
  8
0
  6
SLD-Solid
 62
     7
370
    25
100
AcDbPolyline
 90
        3
 70
   128
 43
0.0
 10
27.499785152
 20
17.9287497002
 10
27.4833825396
 20
17.9290283492
 10
27.4544979691
 20
17.9314826696
  0
ARC
  5
339
330
1F
100
AcDbEntity
  8
0
  6
SLD-Solid
 62
     7
370
    25
100
AcDbCircle
 10
27.4976727148
 20
18.2102202212
 30
0.0
 40
0.3224320734346697
100
AcDbArc
 50
251.8232109546
 51
281.1734380072
  0
ARC
  5
33A
330
1F
100
AcDbEntity
  8
0
  6
SLD-Solid
 62
     7
370
    25
100
AcDbCircle
 10
27.7839589952
 20
17.9991670937
 30
0.0
 40
0.0065506379614317
100
AcDbArc
 50
350.7859630096
 51
129.2032852357
  0
LINE
  5
33B
330
1F
100
AcDbEntity
  8
0
  6
SLD-Solid
 62
     7
370
    25
100
AcDbLine
 10
27.779818509
 20
18.0042432371
 30
0.0
 11
27.7558732877
 21
17.9904199551
 31
0.0
  0
LWPOLYLINE
  5
33C
330
1F
100
AcDbEntity
  8
0
  6
SLD-Solid
 62
     7
370
    25
100
AcDbPolyline
 90
       13
 70
   128
 43
0.0
 10
34.7702180368
 20
14.7423890345
 10
34.7476955456
 20
14.7888578122
 10
34.7239867662
 20
14.8537652785
 10
34.7093869719
 20
14.9177712359
 10
34.7044572246
 20
14.9784159716
 10
34.7093869719
 20
15.0333689422
 10
34.7239867662
 20
15.080518336
 10
34.7476955456
 20
15.1180522282
 10
34.7796021951
 20
15.1445282123
 10
34.81848056
 20
15.1589288311
 10
34.8628365666
 20
15.160700677
 10
34.9109656383
 20
15.1497756589
 10
34.961018202
 20
15.1265736191
  0
LINE
  5
33D
330
1F
100
AcDbEntity
  8
0
  6
SLD-Solid
 62
     7
370
    25
100
AcDbLine
 10
34.961018202
 20
15.1265736191
 30
0.0
 11
35.1242600916
 21
15.0323360821
 31
0.0
  0
LINE
  5
33E
330
1F
100
AcDbEntity
  8
0
  6
SLD-Solid
 62
     7
370
    25
100
AcDbLine
 10
28.0635451049
 20
19.1084000825
 30
0.0
 11
28.4114416413
 21
18.9075636869
 31
0.0
  0
LWPOLYLINE
  5
33F
330
1F
100
AcDbEntity
  8
0
  6
SLD-Solid
 62
     7
370
    25
100
AcDbPolyline
 90
       17
 70
   128
 43
0.0
 10
28.4114416413
 20
18.9075636869
 10
28.461494205
 20
18.8729762668
 10
28.5096232767
 20
18.8283326415
 10
28.5539792833
 20
18.7753484405
 10
28.5928576482
 20
18.716059817
 10
28.6247642977
 20
18.6527451995
 10
28.6484730771
 20
18.5878377333
 10
28.6630728714
 20
18.5238317758
 10
28.6680026187
 20
18.4631870402
 10
28.6630728714
 20
18.4082340695
 10
28.6484730771
 20
18.3610846758
 10
28.6247642977
 20
18.3235507836
 10
28.5928576482
 20
18.2970747995
 10
28.5539792833
 20
18.2826741806
 10
28.5096232767
 20
18.2809023347
 10
28.461494205
 20
18.2918273529
 10
28.4114416413
 20
18.3150293927
  0
LINE
  5
340
330
1F
100
AcDbEntity
  8
0
  6
SLD-Solid
 62
     7
370
    25
100
AcDbLine
 10
28.4114416413
 20
18.3150293927
 30
0.0
 11
28.0635451049
 21
18.5158657882
 31
0.0
  0
LWPOLYLINE
  5
341
330
1F
100
AcDbEntity
  8
0
  6
SLD-Solid
 62
     7
370
    25
100
AcDbPolyline
 90
       17
 70
   128
 43
0.0
 10
28.0635451049
 20
18.5158657882
 10
28.0134925412
 20
18.5504532083
 10
27.9653634695
 20
18.5950968336
 10
27.921007463
 20
18.6480810346
 10
27.882129098
 20
18.7073696581
 10
27.8502224485
 20
18.7706842756
 10
27.8265136691
 20
18.8355917419
 10
27.8119138748
 20
18.8995976993
 10
27.8069841276
 20
18.960242435
 10
27.8119138748
 20
19.0151954056
 10
27.8265136691
 20
19.0623447994
 10
27.8502224485
 20
19.0998786915
 10
27.882129098
 20
19.1263546757
 10
27.921007463
 20
19.1407552945
 10
27.9653634695
 20
19.1425271404
 10
28.0134925412
 20
19.1316021223
 10
28.0635451049
 20
19.1084000825
  0
LINE
  5
342
330
1F
100
AcDbEntity
  8
0
  6
SLD-Solid
 62
     7
370
    25
100
AcDbLine
 10
35.9894113932
 20
15.2128529145
 30
0.0
 11
27.3830484501
 21
20.1812004873
 31
0.0
  0
ELLIPSE
  5
343
330
1F
100
AcDbEntity
  8
0
  6
SLD-Solid
 62
     7
370
    25
100
AcDbEllipse
 10
35.9857335353
 20
15.1515752027
 30
0.0
 11
-0.03749624523395312
 21
0.06495407299856026
 31
0.0
210
0.0
220
0.0
230
1.0
 40
0.6174456632
 41
3.960603192151904
 42
5.464362020741764
  0
LINE
  5
344
330
1F
100
AcDbEntity
  8
0
  6
SLD-Solid
 62
     7
370
    25
100
AcDbLine
 10
36.0406373459
 20
15.1241269621
 30
0.0
 11
36.0406373459
 21
13.2940669549
 31
0.0
  0
ELLIPSE
  5
345
330
1F
100
AcDbEntity
  8
0
  6
SLD-Solid
 62
     7
370
    25
100
AcDbEllipse
 10
35.9857335353
 20
13.3300093046
 30
0.0
 11
-0.0400994184764798
 21
0.06946042248813455
 31
0.0
210
0.0
220
0.0
230
1.0
 40
0.5399170624
 41
2.389784740676707
 42
3.893543569266686
  0
LINE
  5
346
330
1F
100
AcDbEntity
  8
0
  6
SLD-Solid
 62
     7
370
    25
100
AcDbLine
 10
35.7739279331
 20
13.3888811822
 30
0.0
 11
35.9894113932
 21
13.2644852285
 31
0.0
  0
LINE
  5
347
330
1F
100
AcDbEntity
  8
0
  6
SLD-Solid
 62
     7
370
    25
100
AcDbLine
 10
27.7794193013
 20
18.0040127794
 30
0.0
 11
34.2815961092
 21
14.2503860065
 31
0.0
  0
LINE
  5
348
330
1F
100
AcDbEntity
  8
0
  6
SLD-Solid
 62
     7
370
    25
100
AcDbLine
 10
27.3844183349
 20
18.2320419836
 30
0.0
 11
27.4068548575
 21
18.2190896548
 31
0.0
  0
ELLIPSE
  5
349
330
1F
100
AcDbEntity
  8
0
  6
SLD-Solid
 62
     7
370
    25
100
AcDbEllipse
 10
27.386726308
 20
20.1156764112
 30
0.0
 11
-0.0400994184764798
 21
0.069460422488131
 31
0.0
210
0.0
220
0.0
230
1.0
 40
0.5399170624
 41
5.531377394266555
 42
7.035136222856398
  0
LINE
  5
34A
330
1F
100
AcDbEntity
  8
0
  6
SLD-Solid
 62
     7
370
    25
100
AcDbLine
 10
27.3318224975
 20
20.1516187609
 30
0.0
 11
27.3318224975
 21
19.9837975885
 31
0.0
  0
MTEXT
  5
34B
330
1F
100
AcDbEntity
  8
NOTES
100
AcDbMText
 10
29.4616900354
 20
12.385321117
 30
0.0
 40
0.25
 41
0.0
 71
     1
 72
     1
  1
3D view Code 126
  7
SLDTEXTSTYLE1
 73
     1
 44
1.0
  0
ELLIPSE
  5
34C
330
1F
100
AcDbEntity
  8
0
  6
SLD-Solid
 62
     7
370
    25
100
AcDbEllipse
 10
26.1944298187
 20
6.8876371994
 30
0.0
 11
-0.1323301782391759
 21
-0.1323301782391777
 31
0.0
210
0.0
220
0.0
230
1.0
 40
0.9351131265
 41
5.53130589288461
 42
7.035064721474573
  0
LINE
  5
34D
330
1F
100
AcDbEntity
  8
0
  6
SLD-Solid
 62
     7
370
    25
100
AcDbLine
 10
26.0132564872
 20
9.2324268483
 30
0.0
 11
26.0132564872
 21
6.8755008875
 31
0.0
  0
ELLIPSE
  5
34E
330
1F
100
AcDbEntity
  8
0
  6
SLD-Solid
 62
     7
370
    25
100
AcDbEllipse
 10
26.1944298187
 20
9.2202905363
 30
0.0
 11
-0.1323301782391759
 21
0.1323301782391777
 31
0.0
210
0.0
220
0.0
230
1.0
 40
0.9351131265
 41
5.531305892884622
 42
7.035064721474567
  0
LINE
  5
34F
330
1F
100
AcDbEntity
  8
0
  6
SLD-Solid
 62
     7
370
    25
100
AcDbLine
 10
38.4692194676
 20
9.4014638679
 30
0.0
 11
26.1822935068
 21
9.4014638679
 31
0.0
  0
ELLIPSE
  5
350
330
1F
100
AcDbEntity
  8
0
  6
SLD-Solid
 62
     7
370
    25
100
AcDbEllipse
 10
38.4570831556
 20
9.2202905363
 30
0.0
 11
0.1323301782391795
 21
0.1323301782391777
 31
0.0
210
0.0
220
0.0
230
1.0
 40
0.9351131265
 41
5.531305892884609
 42
7.035064721474559
  0
LINE
  5
351
330
1F
100
AcDbEntity
  8
0
  6
SLD-Solid
 62
     7
370
    25
100
AcDbLine
 10
38.6382564872
 20
9.2324268483
 30
0.0
 11
38.6382564872
 21
6.8755008875
 31
0.0
  0
ELLIPSE
  5
352
330
1F
100
AcDbEntity
  8
0
  6
SLD-Solid
 62
     7
370
    25
100
AcDbEllipse
 10
38.4570831556
 20
6.8876371994
 30
0.0
 11
0.1323301782391795
 21
-0.1323301782391777
 31
0.0
210
0.0
220
0.0
230
1.0
 40
0.9351131265
 41
5.531305892884639
 42
7.035064721474565
  0
LINE
  5
353
330
1F
100
AcDbEntity
  8
0
  6
SLD-Solid
 62
     7
370
    25
100
AcDbLine
 10
38.4692194676
 20
6.7064638679
 30
0.0
 11
26.1822935068
 21
6.7064638679
 31
0.0
  0
LINE
  5
354
330
1F
100
AcDbEntity
  8
0
  6
SLD-Solid
 62
     7
370
    25
100
AcDbLine
 10
38.4657519498
 20
9.3497000588
 30
0.0
 11
26.1857610245
 21
9.3497000588
 31
0.0
  0
ELLIPSE
  5
355
330
1F
100
AcDbEntity
  8
0
  6
SLD-Solid
 62
     7
370
    25
100
AcDbEllipse
 10
26.1944298187
 20
9.2202905363
 30
0.0
 11
-0.09452155588512667
 21
0.09452155588512667
 31
0.0
210
0.0
220
0.0
230
1.0
 40
0.9351131265
 41
5.531305892884601
 42
7.035064721474541
  0
LINE
  5
356
330
1F
100
AcDbEntity
  8
0
  6
SLD-Solid
 62
     7
370
    25
100
AcDbLine
 10
26.0650202962
 20
9.2289593306
 30
0.0
 11
26.0650202962
 21
6.8789684052
 31
0.0
  0
ELLIPSE
  5
357
330
1F
100
AcDbEntity
  8
0
  6
SLD-Solid
 62
     7
370
    25
100
AcDbEllipse
 10
26.1944298187
 20
6.8876371994
 30
0.0
 11
-0.09452155588512667
 21
-0.09452155588512667
 31
0.0
210
0.0
220
0.0
230
1.0
 40
0.9351131265
 41
5.531305892884602
 42
7.035064721474607
  0
LINE
  5
358
330
1F
100
AcDbEntity
  8
0
  6
SLD-Solid
 62
     7
370
    25
100
AcDbLine
 10
38.4657519498
 20
6.7582276769
 30
0.0
 11
26.1857610245
 21
6.7582276769
 31
0.0
  0
ARC
  5
359
330
1F
100
AcDbEntity
  8
0
  6
SLD-Solid
 62
     7
370
    25
100
AcDbCircle
 10
36.9570064872
 20
8.0514638679
 30
0.0
 40
0.1000000000000005
100
AcDbArc
 50
90.0
 51
270.0
  0
LINE
  5
35A
330
1F
100
AcDbEntity
  8
0
  6
SLD-Solid
 62
     7
370
    25
100
AcDbLine
 10
37.4490064872
 20
7.9514638679
 30
0.0
 11
36.9570064872
 21
7.9514638679
 31
0.0
  0
ARC
  5
35B
330
1F
100
AcDbEntity
  8
0
  6
SLD-Solid
 62
     7
370
    25
100
AcDbCircle
 10
37.4490064872
 20
8.0514638679
 30
0.0
 40
0.1000000000000005
100
AcDbArc
 50
270.0
 51
90.0
  0
LINE
  5
35C
330
1F
100
AcDbEntity
  8
0
  6
SLD-Solid
 62
     7
370
    25
100
AcDbLine
 10
36.9570064872
 20
8.1514638679
 30
0.0
 11
37.4490064872
 21
8.1514638679
 31
0.0
  0
LINE
  5
35D
330
1F
100
AcDbEntity
  8
0
  6
SLD-Solid
 62
     7
370
    25
100
AcDbLine
 10
27.2025064872
 20
7.9514638679
 30
0.0
 11
27.6945064872
 21
7.9514638679
 31
0.0
  0
ARC
  5
35E
330
1F
100
AcDbEntity
  8
0
  6
SLD-Solid
 62
     7
370
    25
100
AcDbCircle
 10
27.6945064872
 20
8.0514638679
 30
0.0
 40
0.1000000000000005
100
AcDbArc
 50
270.0
 51
90.0
  0
LINE
  5
35F
330
1F
100
AcDbEntity
  8
0
  6
SLD-Solid
 62
     7
370
    25
100
AcDbLine
 10
27.6945064872
 20
8.1514638679
 30
0.0
 11
27.2025064872
 21
8.1514638679
 31
0.0
  0
ARC
  5
360
330
1F
100
AcDbEntity
  8
0
  6
SLD-Solid
 62
     7
370
    25
100
AcDbCircle
 10
27.2025064872
 20
8.0514638679
 30
0.0
 40
0.1000000000000005
100
AcDbArc
 50
90.0
 51
270.0
  0
DIMENSION
  5
361
330
1F
100
AcDbEntity
  8
DIMS
100
AcDbDimension
  2
_D_2
 10
27.4485064872
 20
10.2196990542
 30
0.0
 11
31.807303022
 21
10.2196990542
 31
0.0
 70
   160
  1
<>
 71
     2
 42
-1.0
  3
SLDDIMSTYLE0
100
AcDbAlignedDimension
 13
37.2030064872
 23
8.1514638679
 33
0.0
 14
27.4485064872
 24
8.1514638679
 34
0.0
 50
0.0
100
AcDbRotatedDimension
  0
DIMENSION
  5
370
330
1F
100
AcDbEntity
  8
DIMS
100
AcDbDimension
  2
_D_3
 10
25.6195556998
 20
8.0514638679
 30
0.0
 11
25.6195556998
 21
8.7264638679
 31
0.0
 70
   160
  1
<>
 71
     2
 42
-1.0
  3
SLDDIMSTYLE1
100
AcDbAlignedDimension
 13
26.1822935068
 23
9.4014638679
 33
0.0
 14
27.2025064872
 24
8.0514638679
 34
0.0
 50
90.0
100
AcDbRotatedDimension
  0
DIMENSION
  5
380
330
1F
100
AcDbEntity
  8
DIMS
100
AcDbDimension
  2
_D_4
 10
27.2501669401
 20
7.963552087
 30
0.0
 11
25.20264043
 21
10.5308309611
 31
0.0
 70
   163
  1
<>
 71
     1
 42
-1.0
  3
SLDDIMSTYLE2
100
AcDbDiametricDimension
 15
27.1548460342
 25
8.1393756488
 35
0.0
 40
0.0
  0
MTEXT
  5
38D
330
1F
100
AcDbEntity
  8
NOTES
100
AcDbMText
 10
31.2837718033
 20
6.5145574418
 30
0.0
 40
0.25
 41
0.0
 71
     1
 72
     1
  1
Back view
  7
SLDTEXTSTYLE1
 73
     1
 44
1.0
  0
MTEXT
  5
38E
330
1F
100
AcDbEntity
  8
NOTES
100
AcDbMText
 10
34.896680145
 20
11.1909684274
 30
0.0
 40
0.25
 41
0.0
 71
     1
 72
     1
  1
mounting hole (2)
  7
SLDTEXTSTYLE1
 73
     1
 44
1.0
  0
LEADER
  5
390
330
1F
100
AcDbEntity
  8
NOTES
100
AcDbLeader
  3
SLDDIMSTYLE3
 76
     3
 10
37.5191423413
 20
8.1227447346
 30
0.0
 10
38.2777667355
 20
11.0659448834
 30
0.0
 10
37.7777667355
 20
11.0659448834
 30
0.0
  0
LINE
  5
391
330
1F
100
AcDbEntity
  8
0
  6
SLD-Solid
 62
     7
370
    25
100
AcDbLine
 10
16.0380168394
 20
13.2514690949
 30
0.0
 11
16.0835917401
 21
13.2452298304
 31
0.0
  0
ARC
  5
392
330
1F
100
AcDbEntity
  8
0
  6
SLD-Solid
 62
     7
370
    25
100
AcDbCircle
 10
6.6670852119
 20
14.0085022433
 30
0.0
 40
0.0012500000000003
100
AcDbArc
 50
333.6142395573
 51
90.0
  0
ARC
  5
393
330
1F
100
AcDbEntity
  8
0
  6
SLD-Solid
 62
     7
370
    25
100
AcDbCircle
 10
6.4790852119
 20
14.0085022433
 30
0.0
 40
0.0012500000000003
100
AcDbArc
 50
90.0
 51
206.3857604427
  0
ARC
  5
394
330
1F
100
AcDbEntity
  8
0
  6
SLD-Solid
 62
     7
370
    25
100
AcDbCircle
 10
6.6302036959
 20
14.0267989635
 30
0.0
 40
0.0424205744449022
100
AcDbArc
 50
270.0
 51
333.6142395574
  0
ARC
  5
395
330
1F
100
AcDbEntity
  8
0
  6
SLD-Solid
 62
     7
370
    25
100
AcDbCircle
 10
6.515966728
 20
14.0267989635
 30
0.0
 40
0.0424205744449022
100
AcDbArc
 50
206.3857604426
 51
270.0
  0
LINE
  5
396
330
1F
100
AcDbEntity
  8
0
  6
SLD-Solid
 62
     7
370
    25
100
AcDbLine
 10
6.515966728
 20
13.9843783891
 30
0.0
 11
6.6302036959
 21
13.9843783891
 31
0.0
  0
LINE
  5
397
330
1F
100
AcDbEntity
  8
0
  6
SLD-Solid
 62
     7
370
    25
100
AcDbLine
 10
6.6550852119
 20
14.1117522433
 30
0.0
 11
6.6550852119
 21
14.1147522433
 31
0.0
  0
LINE
  5
398
330
1F
100
AcDbEntity
  8
0
  6
SLD-Solid
 62
     7
370
    25
100
AcDbLine
 10
6.4910852119
 20
14.1147522433
 30
0.0
 11
6.4910852119
 21
14.1117522433
 31
0.0
  0
ARC
  5
399
330
1F
100
AcDbEntity
  8
0
  6
SLD-Solid
 62
     7
370
    25
100
AcDbCircle
 10
6.2545852119
 20
14.0085022433
 30
0.0
 40
0.0012500000000003
100
AcDbArc
 50
333.6142395573
 51
90.0
  0
ARC
  5
39A
330
1F
100
AcDbEntity
  8
0
  6
SLD-Solid
 62
     7
370
    25
100
AcDbCircle
 10
6.2177036959
 20
14.0267989635
 30
0.0
 40
0.0424205744449014
100
AcDbArc
 50
270.0
 51
333.6142395574
  0
ARC
  5
39B
330
1F
100
AcDbEntity
  8
0
  6
SLD-Solid
 62
     7
370
    25
100
AcDbCircle
 10
6.103466728
 20
14.0267989635
 30
0.0
 40
0.0424205744449017
100
AcDbArc
 50
230.5295817918
 51
270.0
  0
LINE
  5
39C
330
1F
100
AcDbEntity
  8
0
  6
SLD-Solid
 62
     7
370
    25
100
AcDbLine
 10
6.103466728
 20
13.9843783891
 30
0.0
 11
6.2177036959
 21
13.9843783891
 31
0.0
  0
LINE
  5
39D
330
1F
100
AcDbEntity
  8
0
  6
SLD-Solid
 62
     7
370
    25
100
AcDbLine
 10
6.2425852119
 20
14.1117522433
 30
0.0
 11
6.2425852119
 21
14.1147522433
 31
0.0
  0
LINE
  5
39E
330
1F
100
AcDbEntity
  8
0
  6
SLD-Solid
 62
     7
370
    25
100
AcDbLine
 10
6.0785852119
 20
14.1147522433
 30
0.0
 11
6.0785852119
 21
14.1117522433
 31
0.0
  0
LINE
  5
39F
330
1F
100
AcDbEntity
  8
0
  6
SLD-Solid
 62
     7
370
    25
100
AcDbLine
 10
6.1110398641
 20
14.0317522433
 30
0.0
 11
6.1110398641
 21
14.0227151718
 31
0.0
  0
LINE
  5
3A0
330
1F
100
AcDbEntity
  8
0
  6
SLD-Solid
 62
     7
370
    25
100
AcDbLine
 10
16.4255852119
 20
13.2367522433
 30
0.0
 11
16.4655852119
 21
13.2367522433
 31
0.0
  0
ARC
  5
3A1
330
1F
100
AcDbEntity
  8
0
  6
SLD-Solid
 62
     7
370
    25
100
AcDbCircle
 10
16.4655852119
 20
13.2867522433
 30
0.0
 40
0.0500000000000007
100
AcDbArc
 50
270.0
 51
0.0
  0
ARC
  5
3A2
330
1F
100
AcDbEntity
  8
0
  6
SLD-Solid
 62
     7
370
    25
100
AcDbCircle
 10
16.4255852119
 20
13.2867522433
 30
0.0
 40
0.0500000000000007
100
AcDbArc
 50
191.0826319223
 51
270.0
  0
ARC
  5
3A3
330
1F
100
AcDbEntity
  8
0
  6
SLD-Solid
 62
     7
370
    25
100
AcDbCircle
 10
16.3887845503
 20
13.2795438246
 30
0.0
 40
0.0124999999999995
100
AcDbArc
 50
180.0
 51
191.0826319223
  0
LINE
  5
3A4
330
1F
100
AcDbEntity
  8
0
  6
SLD-Solid
 62
     7
370
    25
100
AcDbLine
 10
16.3762845503
 20
14.2463635057
 30
0.0
 11
16.3762845503
 21
13.2795438246
 31
0.0
  0
SPLINE
  5
3A5
330
1F
100
AcDbEntity
  8
0
  6
SLD-Solid
 62
     7
370
    25
100
AcDbSpline
210
0.0
220
0.0
230
1.0
 70
     8
 71
     3
 72
     9
 73
     5
 74
     0
 42
0.00000001
 43
0.00000001
 40
0.0
 40
0.0
 40
0.0
 40
0.0
 40
0.2647852699923433
 40
1.0
 40
1.0
 40
1.0
 40
1.0
 10
16.36238141183302
 20
14.55386323975627
 30
0.0
 10
16.3626160641627
 20
14.55289053876363
 30
0.0
 10
16.36350226274044
 20
14.54921699229836
 30
0.0
 10
16.3643374024141
 20
14.54552288487072
 30
0.0
 10
16.36495140940379
 20
14.54280692267569
 30
0.0
  0
LINE
  5
3A6
330
1F
100
AcDbEntity
  8
0
  6
SLD-Solid
 62
     7
370
    25
100
AcDbLine
 10
16.3746551553
 20
14.4975566286
 30
0.0
 11
16.3749797704
 21
14.4959812626
 31
0.0
  0
LINE
  5
3A7
330
1F
100
AcDbEntity
  8
0
  6
SLD-Solid
 62
     7
370
    25
100
AcDbLine
 10
16.3748899608
 20
14.4959585521
 30
0.0
 11
16.3754053201
 21
14.4934992569
 31
0.0
  0
LWPOLYLINE
  5
3A8
330
1F
100
AcDbEntity
  8
0
  6
SLD-Solid
 62
     7
370
    25
100
AcDbPolyline
 90
        3
 70
   128
 43
0.0
 10
16.3730852119
 20
13.4057522433
 10
16.375523841
 20
13.4055120593
 10
16.3762845503
 20
13.4053358782
  0
ARC
  5
3A9
330
1F
100
AcDbEntity
  8
0
  6
SLD-Solid
 62
     7
370
    25
100
AcDbCircle
 10
15.9605852119
 20
13.4807522433
 30
0.0
 40
0.0749999999999993
100
AcDbArc
 50
180.0
 51
270.0
  0
ARC
  5
3AA
330
1F
100
AcDbEntity
  8
0
  6
SLD-Solid
 62
     7
370
    25
100
AcDbCircle
 10
15.9605852119
 20
14.6627522433
 30
0.0
 40
0.0749999999999993
100
AcDbArc
 50
90.0
 51
180.0
  0
LINE
  5
3AB
330
1F
100
AcDbEntity
  8
0
  6
SLD-Solid
 62
     7
370
    25
100
AcDbLine
 10
16.3380056551
 20
14.7377522433
 30
0.0
 11
16.2879200423
 21
14.7377522433
 31
0.0
  0
LINE
  5
3AC
330
1F
100
AcDbEntity
  8
0
  6
SLD-Solid
 62
     7
370
    25
100
AcDbLine
 10
16.2414909779
 20
14.7377522433
 30
0.0
 11
15.9605852119
 21
14.7377522433
 31
0.0
  0
LINE
  5
3AD
330
1F
100
AcDbEntity
  8
0
  6
SLD-Solid
 62
     7
370
    25
100
AcDbLine
 10
15.9605852119
 20
13.4057522433
 30
0.0
 11
16.0591384075
 21
13.4057522433
 31
0.0
  0
LINE
  5
3AE
330
1F
100
AcDbEntity
  8
0
  6
SLD-Solid
 62
     7
370
    25
100
AcDbLine
 10
16.1055674718
 20
13.4057522433
 30
0.0
 11
16.3730852119
 21
13.4057522433
 31
0.0
  0
ARC
  5
3AF
330
1F
100
AcDbEntity
  8
0
  6
SLD-Solid
 62
     7
370
    25
100
AcDbCircle
 10
15.8308573495
 20
14.5817522433
 30
0.0
 40
0.6999999999999986
100
AcDbArc
 50
358.7130684014
 51
1.2869315986
  0
LINE
  5
3B0
330
1F
100
AcDbEntity
  8
0
  6
SLD-Solid
 62
     7
370
    25
100
AcDbLine
 10
16.5306807801
 20
14.5974737568
 30
0.0
 11
16.5166964705
 21
15.2199677359
 31
0.0
  0
LINE
  5
3B1
330
1F
100
AcDbEntity
  8
0
  6
SLD-Solid
 62
     7
370
    25
100
AcDbLine
 10
16.5166964705
 20
13.9435367506
 30
0.0
 11
16.5306807801
 21
14.5660307297
 31
0.0
  0
LINE
  5
3B2
330
1F
100
AcDbEntity
  8
0
  6
SLD-Solid
 62
     7
370
    25
100
AcDbLine
 10
5.0998286838
 20
13.2514298304
 30
0.0
 11
5.1454035845
 21
13.2576690949
 31
0.0
  0
LINE
  5
3B3
330
1F
100
AcDbEntity
  8
0
  6
SLD-Solid
 62
     7
370
    25
100
AcDbLine
 10
4.7178352119
 20
13.2429522433
 30
0.0
 11
4.7578352119
 21
13.2429522433
 31
0.0
  0
ARC
  5
3B4
330
1F
100
AcDbEntity
  8
0
  6
SLD-Solid
 62
     7
370
    25
100
AcDbCircle
 10
4.7178352119
 20
13.2929522433
 30
0.0
 40
0.0500000000000007
100
AcDbArc
 50
180.0
 51
270.0
  0
ARC
  5
3B5
330
1F
100
AcDbEntity
  8
0
  6
SLD-Solid
 62
     7
370
    25
100
AcDbCircle
 10
4.7578352119
 20
13.2929522433
 30
0.0
 40
0.050000000000001
100
AcDbArc
 50
270.0
 51
348.9173680777
  0
ARC
  5
3B6
330
1F
100
AcDbEntity
  8
0
  6
SLD-Solid
 62
     7
370
    25
100
AcDbCircle
 10
4.7946358736
 20
13.2857438246
 30
0.0
 40
0.0125000000000002
100
AcDbArc
 50
348.9173680777
 51
0.0
  0
LINE
  5
3B7
330
1F
100
AcDbEntity
  8
0
  6
SLD-Solid
 62
     7
370
    25
100
AcDbLine
 10
4.8071358736
 20
13.2857438246
 30
0.0
 11
4.8071358736
 21
14.2525635057
 31
0.0
  0
LINE
  5
3B8
330
1F
100
AcDbEntity
  8
0
  6
SLD-Solid
 62
     7
370
    25
100
AcDbLine
 10
4.8084438401
 20
14.4623728234
 30
0.0
 11
4.8087677225
 21
14.4639413217
 31
0.0
  0
SPLINE
  5
3B9
330
1F
100
AcDbEntity
  8
0
  6
SLD-Solid
 62
     7
370
    25
100
AcDbSpline
210
0.0
220
0.0
230
1.0
 70
     8
 71
     3
 72
     9
 73
     5
 74
     0
 42
0.00000001
 43
0.00000001
 40
0.0
 40
0.0
 40
0.0
 40
0.0
 40
0.2984160846198854
 40
1.0
 40
1.0
 40
1.0
 40
1.0
 10
4.807985999490819
 20
14.45990736145748
 30
0.0
 10
4.808026693111606
 20
14.46015341512125
 30
0.0
 10
4.808163058484933
 20
14.46097794729783
 30
0.0
 10
4.808342128350525
 20
14.46179461412017
 30
0.0
 10
4.808467760887953
 20
14.46236757442695
 30
0.0
  0
LWPOLYLINE
  5
3BA
330
1F
100
AcDbEntity
  8
0
  6
SLD-Solid
 62
     7
370
    25
100
AcDbPolyline
 90
        3
 70
   128
 43
0.0
 10
4.8071358736
 20
13.4175358782
 10
4.8078965829
 20
13.4177120593
 10
4.8103352119
 20
13.4179522433
  0
ARC
  5
3BB
330
1F
100
AcDbEntity
  8
0
  6
SLD-Solid
 62
     7
370
    25
100
AcDbCircle
 10
5.2228352119
 20
14.6629522433
 30
0.0
 40
0.0749999999999993
100
AcDbArc
 50
0.0
 51
90.0
  0
ARC
  5
3BC
330
1F
100
AcDbEntity
  8
0
  6
SLD-Solid
 62
     7
370
    25
100
AcDbCircle
 10
5.2228352119
 20
13.4929522433
 30
0.0
 40
0.0749999999999993
100
AcDbArc
 50
270.0
 51
0.0
  0
LINE
  5
3BD
330
1F
100
AcDbEntity
  8
0
  6
SLD-Solid
 62
     7
370
    25
100
AcDbLine
 10
4.8103352119
 20
13.4179522433
 30
0.0
 11
5.0770315441
 21
13.4179522433
 31
0.0
  0
LINE
  5
3BE
330
1F
100
AcDbEntity
  8
0
  6
SLD-Solid
 62
     7
370
    25
100
AcDbLine
 10
5.1234606085
 20
13.4179522433
 30
0.0
 11
5.2228352119
 21
13.4179522433
 31
0.0
  0
LINE
  5
3BF
330
1F
100
AcDbEntity
  8
0
  6
SLD-Solid
 62
     7
370
    25
100
AcDbLine
 10
5.2228352119
 20
14.7379522433
 30
0.0
 11
4.9427508539
 21
14.7379522433
 31
0.0
  0
LINE
  5
3C0
330
1F
100
AcDbEntity
  8
0
  6
SLD-Solid
 62
     7
370
    25
100
AcDbLine
 10
4.8963217896
 20
14.7379522433
 30
0.0
 11
4.8485134597
 21
14.7379522433
 31
0.0
  0
ARC
  5
3C1
330
1F
100
AcDbEntity
  8
0
  6
SLD-Solid
 62
     7
370
    25
100
AcDbCircle
 10
5.3525630745
 20
14.5879522433
 30
0.0
 40
0.6999999999999994
100
AcDbArc
 50
178.7130684099
 51
181.2869315901
  0
LINE
  5
3C2
330
1F
100
AcDbEntity
  8
0
  6
SLD-Solid
 62
     7
370
    25
100
AcDbLine
 10
4.6667239534
 20
15.2261677364
 30
0.0
 11
4.6527396439
 21
14.6036737567
 31
0.0
  0
LINE
  5
3C3
330
1F
100
AcDbEntity
  8
0
  6
SLD-Solid
 62
     7
370
    25
100
AcDbLine
 10
4.6527396439
 20
14.5722307298
 30
0.0
 11
4.6667239534
 21
13.9497367501
 31
0.0
  0
CIRCLE
  5
3C4
330
1F
100
AcDbEntity
  8
0
  6
SLD-Solid
 62
     7
370
    25
100
AcDbCircle
 10
4.8878352119
 20
17.0749522433
 30
0.0
 40
0.1562241563062812
  0
LINE
  5
3C5
330
1F
100
AcDbEntity
  8
0
  6
SLD-Solid
 62
     7
370
    25
100
AcDbLine
 10
16.0835917401
 20
13.2452298304
 30
0.0
 11
16.3084466484
 21
14.8876894736
 31
0.0
  0
LINE
  5
3C6
330
1F
100
AcDbEntity
  8
0
  6
SLD-Solid
 62
     7
370
    25
100
AcDbLine
 10
16.0380168394
 20
13.2514690949
 30
0.0
 11
16.2628717477
 21
14.8939287381
 31
0.0
  0
LINE
  5
3C7
330
1F
100
AcDbEntity
  8
0
  6
SLD-Solid
 62
     7
370
    25
100
AcDbLine
 10
16.3179884871
 20
14.95738813
 30
0.0
 11
16.3084466484
 21
14.8876894736
 31
0.0
  0
LINE
  5
3C8
330
1F
100
AcDbEntity
  8
0
  6
SLD-Solid
 62
     7
370
    25
100
AcDbLine
 10
16.2994326918
 20
15.1609892873
 30
0.0
 11
16.2628717477
 21
14.8939287381
 31
0.0
  0
LINE
  5
3C9
330
1F
100
AcDbEntity
  8
0
  6
SLD-Solid
 62
     7
370
    25
100
AcDbLine
 10
6.9105852119
 20
14.0317522433
 30
0.0
 11
6.9105852119
 21
14.0097522433
 31
0.0
  0
LINE
  5
3CA
330
1F
100
AcDbEntity
  8
0
  6
SLD-Solid
 62
     7
370
    25
100
AcDbLine
 10
6.9105852119
 20
14.0097522433
 30
0.0
 11
6.8105852119
 21
14.0097522433
 31
0.0
  0
LINE
  5
3CB
330
1F
100
AcDbEntity
  8
0
  6
SLD-Solid
 62
     7
370
    25
100
AcDbLine
 10
6.1625751958
 20
14.0097522433
 30
0.0
 11
5.4163125934
 21
13.8736339446
 31
0.0
  0
ARC
  5
3CC
330
1F
100
AcDbEntity
  8
0
  6
SLD-Solid
 62
     7
370
    25
100
AcDbCircle
 10
5.4087761357
 20
13.9149522433
 30
0.0
 40
0.0420000000000016
100
AcDbArc
 50
270.0
 51
280.3371121444
  0
LINE
  5
3CD
330
1F
100
AcDbEntity
  8
0
  6
SLD-Solid
 62
     7
370
    25
100
AcDbLine
 10
5.4087761357
 20
13.8729522433
 30
0.0
 11
5.2978352119
 21
13.8729522433
 31
0.0
  0
LINE
  5
3CE
330
1F
100
AcDbEntity
  8
0
  6
SLD-Solid
 62
     7
370
    25
100
AcDbLine
 10
5.4087761357
 20
13.8949522433
 30
0.0
 11
5.2978352119
 21
13.8949522433
 31
0.0
  0
ARC
  5
3CF
330
1F
100
AcDbEntity
  8
0
  6
SLD-Solid
 62
     7
370
    25
100
AcDbCircle
 10
5.4087761357
 20
13.9149522433
 30
0.0
 40
0.0200000000000014
100
AcDbArc
 50
270.0
 51
280.3371121444
  0
LINE
  5
3D0
330
1F
100
AcDbEntity
  8
0
  6
SLD-Solid
 62
     7
370
    25
100
AcDbLine
 10
6.8105852119
 20
14.0097522433
 30
0.0
 11
6.1625751958
 21
14.0097522433
 31
0.0
  0
LINE
  5
3D1
330
1F
100
AcDbEntity
  8
0
  6
SLD-Solid
 62
     7
370
    25
100
AcDbLine
 10
6.1588054988
 20
14.0314276236
 30
0.0
 11
5.4123649251
 21
13.8952768629
 31
0.0
  0
ARC
  5
3D2
330
1F
100
AcDbEntity
  8
0
  6
SLD-Solid
 62
     7
370
    25
100
AcDbCircle
 10
6.1623942882
 20
14.0117522433
 30
0.0
 40
0.0200000000000014
100
AcDbArc
 50
90.0
 51
100.3371121444
  0
LINE
  5
3D3
330
1F
100
AcDbEntity
  8
0
  6
SLD-Solid
 62
     7
370
    25
100
AcDbLine
 10
6.6550852119
 20
14.1147522433
 30
0.0
 11
6.4910852119
 21
14.1147522433
 31
0.0
  0
LINE
  5
3D4
330
1F
100
AcDbEntity
  8
0
  6
SLD-Solid
 62
     7
370
    25
100
AcDbLine
 10
6.2425852119
 20
14.1147522433
 30
0.0
 11
6.0785852119
 21
14.1147522433
 31
0.0
  0
LINE
  5
3D5
330
1F
100
AcDbEntity
  8
0
  6
SLD-Solid
 62
     7
370
    25
100
AcDbLine
 10
16.1425147185
 20
16.8827522433
 30
0.0
 11
16.1997416978
 21
16.2548363262
 31
0.0
  0
LINE
  5
3D6
330
1F
100
AcDbEntity
  8
0
  6
SLD-Solid
 62
     7
370
    25
100
AcDbLine
 10
15.8485852119
 20
16.8827522433
 30
0.0
 11
16.1425147185
 21
16.8827522433
 31
0.0
  0
LINE
  5
3D7
330
1F
100
AcDbEntity
  8
0
  6
SLD-Solid
 62
     7
370
    25
100
AcDbLine
 10
15.8485852119
 20
16.8827522433
 30
0.0
 11
15.8485852119
 21
17.2939522433
 31
0.0
  0
LINE
  5
3D8
330
1F
100
AcDbEntity
  8
0
  6
SLD-Solid
 62
     7
370
    25
100
AcDbLine
 10
16.5155852119
 20
17.2939522433
 30
0.0
 11
16.5155852119
 21
16.2548363262
 31
0.0
  0
LINE
  5
3D9
330
1F
100
AcDbEntity
  8
0
  6
SLD-Solid
 62
     7
370
    25
100
AcDbLine
 10
16.2008344992
 20
16.2428456987
 30
0.0
 11
16.1997416978
 21
16.2548363262
 31
0.0
  0
LINE
  5
3DA
330
1F
100
AcDbEntity
  8
0
  6
SLD-Solid
 62
     7
370
    25
100
AcDbLine
 10
16.5155852119
 20
16.2548363262
 30
0.0
 11
16.5155852119
 21
15.2328354412
 31
0.0
  0
LINE
  5
3DB
330
1F
100
AcDbEntity
  8
0
  6
SLD-Solid
 62
     7
370
    25
100
AcDbLine
 10
16.2008344992
 20
16.2428456987
 30
0.0
 11
16.2939775809
 21
15.2208448137
 31
0.0
  0
LINE
  5
3DC
330
1F
100
AcDbEntity
  8
0
  6
SLD-Solid
 62
     7
370
    25
100
AcDbLine
 10
16.5155852119
 20
14.2447746927
 30
0.0
 11
16.5155852119
 21
13.2867522433
 31
0.0
  0
LINE
  5
3DD
330
1F
100
AcDbEntity
  8
0
  6
SLD-Solid
 62
     7
370
    25
100
AcDbLine
 10
16.2939775809
 20
15.2208448137
 30
0.0
 11
16.3208338038
 21
14.9261682465
 31
0.0
  0
LINE
  5
3DE
330
1F
100
AcDbEntity
  8
0
  6
SLD-Solid
 62
     7
370
    25
100
AcDbLine
 10
16.5155852119
 20
15.2328354412
 30
0.0
 11
16.5155852119
 21
14.2447746927
 31
0.0
  0
LINE
  5
3DF
330
1F
100
AcDbEntity
  8
0
  6
SLD-Solid
 62
     7
370
    25
100
AcDbLine
 10
16.376517663
 20
14.4838889143
 30
0.0
 11
16.376517663
 21
14.2468931101
 31
0.0
  0
LINE
  5
3E0
330
1F
100
AcDbEntity
  8
0
  6
SLD-Solid
 62
     7
370
    25
100
AcDbLine
 10
16.3656297846
 20
14.5431455031
 30
0.0
 11
16.3750455005
 21
14.4975313095
 31
0.0
  0
LINE
  5
3E1
330
1F
100
AcDbEntity
  8
0
  6
SLD-Solid
 62
     7
370
    25
100
AcDbLine
 10
16.3496665059
 20
14.609805007
 30
0.0
 11
16.3630807222
 21
14.554363717
 31
0.0
  0
SPLINE
  5
3E2
330
1F
100
AcDbEntity
  8
0
  6
SLD-Solid
 62
     7
370
    25
100
AcDbSpline
210
0.0
220
0.0
230
1.0
 70
    24
 71
     3
 72
    10
 73
     6
 74
     0
 42
0.00000001
 43
0.00000001
 40
0.0
 40
0.0
 40
0.0
 40
0.0
 40
0.0060510312211251
 40
0.2723624912663214
 40
1.0
 40
1.0
 40
1.0
 40
1.0
 10
16.34966650588578
 20
14.60980500700931
 30
0.0
 10
16.34961099354341
 20
14.61041410928528
 30
0.0
 10
16.34711233185883
 20
14.63783036401224
 30
0.0
 10
16.33740848684362
 20
14.74430459716235
 30
0.0
 10
16.32783918008163
 20
14.84930262605376
 30
0.0
 10
16.32083380379841
 20
14.92616824648732
 30
0.0
  0
SPLINE
  5
3E3
330
1F
100
AcDbEntity
  8
0
  6
SLD-Solid
 62
     7
370
    25
100
AcDbSpline
210
0.0
220
0.0
230
1.0
 70
     8
 71
     3
 72
     9
 73
     5
 74
     0
 42
0.00000001
 43
0.00000001
 40
0.0
 40
0.0
 40
0.0
 40
0.0
 40
0.3703645503001245
 40
1.0
 40
1.0
 40
1.0
 40
1.0
 10
16.37575714339728
 20
14.49357859368794
 30
0.0
 10
16.37592536326349
 20
14.49238742596835
 30
0.0
 10
16.37637956403969
 20
14.48917122258541
 30
0.0
 10
16.37646430630691
 20
14.48592981771972
 30
0.0
 10
16.37651766304244
 20
14.48388891430944
 30
0.0
  0
LWPOLYLINE
  5
3E4
330
1F
100
AcDbEntity
  8
0
  6
SLD-Solid
 62
     7
370
    25
100
AcDbPolyline
 90
        3
 70
   128
 43
0.0
 10
16.3630807222
 20
14.554363717
 10
16.3624489848
 20
14.5539926109
 10
16.3623899717
 20
14.5538646966
  0
LWPOLYLINE
  5
3E5
330
1F
100
AcDbEntity
  8
0
  6
SLD-Solid
 62
     7
370
    25
100
AcDbPolyline
 90
        3
 70
   128
 43
0.0
 10
16.3750455005
 20
14.4975313095
 10
16.3747157975
 20
14.4975287997
 10
16.3746544377
 20
14.4975566644
  0
LWPOLYLINE
  5
3E6
330
1F
100
AcDbEntity
  8
0
  6
SLD-Solid
 62
     7
370
    25
100
AcDbPolyline
 90
        3
 70
   128
 43
0.0
 10
16.3656297846
 20
14.5431455031
 10
16.3650264831
 20
14.5428931325
 10
16.3649380161
 20
14.5428038516
  0
LWPOLYLINE
  5
3E7
330
1F
100
AcDbEntity
  8
0
  6
SLD-Solid
 62
     7
370
    25
100
AcDbPolyline
 90
        3
 70
   128
 43
0.0
 10
16.3757571434
 20
14.4935785937
 10
16.3754830826
 20
14.493527129
 10
16.3754420142
 20
14.4935172732
  0
LINE
  5
3E8
330
1F
100
AcDbEntity
  8
0
  6
SLD-Solid
 62
     7
370
    25
100
AcDbLine
 10
15.8855852119
 20
13.4807522433
 30
0.0
 11
15.8855852119
 21
14.6627522433
 31
0.0
  0
ARC
  5
3E9
330
1F
100
AcDbEntity
  8
0
  6
SLD-Solid
 62
     7
370
    25
100
AcDbCircle
 10
15.8355852119
 20
14.1617522433
 30
0.0
 40
0.0500000000000025
100
AcDbArc
 50
270.0
 51
0.0
  0
ARC
  5
3EA
330
1F
100
AcDbEntity
  8
0
  6
SLD-Solid
 62
     7
370
    25
100
AcDbCircle
 10
15.8355852119
 20
13.9817522433
 30
0.0
 40
0.0500000000000025
100
AcDbArc
 50
0.0
 51
90.0
  0
LINE
  5
3EB
330
1F
100
AcDbEntity
  8
0
  6
SLD-Solid
 62
     7
370
    25
100
AcDbLine
 10
5.2978352119
 20
14.0317522433
 30
0.0
 11
15.8355852119
 21
14.0317522433
 31
0.0
  0
LINE
  5
3EC
330
1F
100
AcDbEntity
  8
0
  6
SLD-Solid
 62
     7
370
    25
100
AcDbLine
 10
5.2978352119
 20
14.1117522433
 30
0.0
 11
15.8355852119
 21
14.1117522433
 31
0.0
  0
ELLIPSE
  5
3ED
330
1F
100
AcDbEntity
  8
0
  6
SLD-Solid
 62
     7
370
    25
100
AcDbEllipse
 10
16.8155852119
 20
15.318972233
 30
0.0
 11
0.0
 21
1.951741503855245
 31
0.0
210
0.0
220
0.0
230
1.0
 40
0.1537088797
 41
1.570796326794897
 42
1.621552695495676
  0
ELLIPSE
  5
3EE
330
1F
100
AcDbEntity
  8
0
  6
SLD-Solid
 62
     7
370
    25
100
AcDbEllipse
 10
16.8155852119
 20
13.8445322535
 30
0.0
 11
0.0
 21
1.951741503855245
 31
0.0
210
0.0
220
0.0
230
1.0
 40
0.1537088797
 41
1.520039958094116
 42
1.570796326794896
  0
LINE
  5
3EF
330
1F
100
AcDbEntity
  8
0
  6
SLD-Solid
 62
     7
370
    25
100
AcDbLine
 10
16.5166964705
 20
15.2199677359
 30
0.0
 11
16.5159715603
 21
15.2199514508
 31
0.0
  0
LINE
  5
3F0
330
1F
100
AcDbEntity
  8
0
  6
SLD-Solid
 62
     7
370
    25
100
AcDbLine
 10
16.5159715603
 20
13.9435530357
 30
0.0
 11
16.5166964705
 21
13.9435367506
 31
0.0
  0
LINE
  5
3F1
330
1F
100
AcDbEntity
  8
0
  6
SLD-Solid
 62
     7
370
    25
100
AcDbLine
 10
4.8749737755
 20
14.8938894736
 30
0.0
 11
5.0998286838
 21
13.2514298304
 31
0.0
  0
LINE
  5
3F2
330
1F
100
AcDbEntity
  8
0
  6
SLD-Solid
 62
     7
370
    25
100
AcDbLine
 10
4.9205486762
 20
14.9001287381
 30
0.0
 11
5.1454035845
 21
13.2576690949
 31
0.0
  0
LINE
  5
3F3
330
1F
100
AcDbEntity
  8
0
  6
SLD-Solid
 62
     7
370
    25
100
AcDbLine
 10
4.8676204909
 20
14.9476017684
 30
0.0
 11
4.8749737755
 21
14.8938894736
 31
0.0
  0
LINE
  5
3F4
330
1F
100
AcDbEntity
  8
0
  6
SLD-Solid
 62
     7
370
    25
100
AcDbLine
 10
4.8861762862
 20
15.1512029257
 30
0.0
 11
4.9205486762
 21
14.9001287381
 31
0.0
  0
LINE
  5
3F5
330
1F
100
AcDbEntity
  8
0
  6
SLD-Solid
 62
     7
370
    25
100
AcDbLine
 10
5.0833352119
 20
17.1433824721
 30
0.0
 11
5.3348352119
 21
17.0629522433
 31
0.0
  0
LINE
  5
3F6
330
1F
100
AcDbEntity
  8
0
  6
SLD-Solid
 62
     7
370
    25
100
AcDbLine
 10
5.3348352119
 20
17.0629522433
 30
0.0
 11
5.3348352119
 21
16.8889522433
 31
0.0
  0
LINE
  5
3F7
330
1F
100
AcDbEntity
  8
0
  6
SLD-Solid
 62
     7
370
    25
100
AcDbLine
 10
5.3348352119
 20
16.8889522433
 30
0.0
 11
5.044551224
 21
16.8889522433
 31
0.0
  0
LINE
  5
3F8
330
1F
100
AcDbEntity
  8
0
  6
SLD-Solid
 62
     7
370
    25
100
AcDbLine
 10
5.044551224
 20
16.8889522433
 30
0.0
 11
4.9873242447
 21
16.2610363262
 31
0.0
  0
LINE
  5
3F9
330
1F
100
AcDbEntity
  8
0
  6
SLD-Solid
 62
     7
370
    25
100
AcDbLine
 10
4.6678352119
 20
16.2610363262
 30
0.0
 11
4.6678352119
 21
17.1099522433
 31
0.0
  0
LINE
  5
3FA
330
1F
100
AcDbEntity
  8
0
  6
SLD-Solid
 62
     7
370
    25
100
AcDbLine
 10
4.6678352119
 20
17.1099522433
 30
0.0
 11
4.6678352119
 21
17.1209522433
 31
0.0
  0
LINE
  5
3FB
330
1F
100
AcDbEntity
  8
0
  6
SLD-Solid
 62
     7
370
    25
100
AcDbLine
 10
4.6678352119
 20
17.1209522433
 30
0.0
 11
4.6923352119
 21
17.1209522433
 31
0.0
  0
LINE
  5
3FC
330
1F
100
AcDbEntity
  8
0
  6
SLD-Solid
 62
     7
370
    25
100
AcDbLine
 10
4.9873242447
 20
16.2610363262
 30
0.0
 11
4.9862314433
 21
16.2490456987
 31
0.0
  0
LINE
  5
3FD
330
1F
100
AcDbEntity
  8
0
  6
SLD-Solid
 62
     7
370
    25
100
AcDbLine
 10
4.6678352119
 20
15.2390354412
 30
0.0
 11
4.6678352119
 21
16.2610363262
 31
0.0
  0
LINE
  5
3FE
330
1F
100
AcDbEntity
  8
0
  6
SLD-Solid
 62
     7
370
    25
100
AcDbLine
 10
4.8930883616
 20
15.2270448137
 30
0.0
 11
4.9862314433
 21
16.2490456987
 31
0.0
  0
LINE
  5
3FF
330
1F
100
AcDbEntity
  8
0
  6
SLD-Solid
 62
     7
370
    25
100
AcDbLine
 10
4.6678352119
 20
13.2929522433
 30
0.0
 11
4.6678352119
 21
14.2509746927
 31
0.0
  0
LINE
  5
400
330
1F
100
AcDbEntity
  8
0
  6
SLD-Solid
 62
     7
370
    25
100
AcDbLine
 10
4.6678352119
 20
14.2509746927
 30
0.0
 11
4.6678352119
 21
15.2390354412
 31
0.0
  0
LINE
  5
401
330
1F
100
AcDbEntity
  8
0
  6
SLD-Solid
 62
     7
370
    25
100
AcDbLine
 10
4.8627215763
 20
14.8938490371
 30
0.0
 11
4.8930883616
 21
15.2270448137
 31
0.0
  0
LINE
  5
402
330
1F
100
AcDbEntity
  8
0
  6
SLD-Solid
 62
     7
370
    25
100
AcDbLine
 10
4.8069027609
 20
14.2530931101
 30
0.0
 11
4.8069027609
 21
14.4502679847
 31
0.0
  0
SPLINE
  5
403
330
1F
100
AcDbEntity
  8
0
  6
SLD-Solid
 62
     7
370
    25
100
AcDbSpline
210
0.0
220
0.0
230
1.0
 70
     8
 71
     3
 72
    10
 73
     6
 74
     0
 42
0.00000001
 43
0.00000001
 40
0.0
 40
0.0
 40
0.0
 40
0.0
 40
0.1912426356738443
 40
0.6287364561699961
 40
1.0
 40
1.0
 40
1.0
 40
1.0
 10
4.806902760854205
 20
14.45026798466648
 30
0.0
 10
4.806908828437395
 20
14.45088915699228
 30
0.0
 10
4.806928776451288
 20
14.45293134641002
 30
0.0
 10
4.807140568450109
 20
14.45619805091452
 30
0.0
 10
4.807502363488383
 20
14.45881977699171
 30
0.0
 10
4.807668447055563
 20
14.46002329161464
 30
0.0
  0
LINE
  5
404
330
1F
100
AcDbEntity
  8
0
  6
SLD-Solid
 62
     7
370
    25
100
AcDbLine
 10
4.8217954797
 20
14.5269070908
 30
0.0
 11
4.833801027
 21
14.5765219047
 31
0.0
  0
SPLINE
  5
405
330
1F
100
AcDbEntity
  8
0
  6
SLD-Solid
 62
     7
370
    25
100
AcDbSpline
210
0.0
220
0.0
230
1.0
 70
     8
 71
     3
 72
     9
 73
     5
 74
     0
 42
0.00000001
 43
0.00000001
 40
0.0
 40
0.0
 40
0.0
 40
0.0
 40
0.7778397036498649
 40
1.0
 40
1.0
 40
1.0
 40
1.0
 10
4.808377437499319
 20
14.4639732701117
 30
0.0
 10
4.811608524406312
 20
14.48037352134958
 30
0.0
 10
4.815762448269844
 20
14.50145787994033
 30
0.0
 10
4.820698814983703
 20
14.52228101657168
 30
0.0
 10
4.821795479675745
 20
14.52690709077664
 30
0.0
  0
SPLINE
  5
406
330
1F
100
AcDbEntity
  8
0
  6
SLD-Solid
 62
     7
370
    25
100
AcDbSpline
210
0.0
220
0.0
230
1.0
 70
    24
 71
     3
 72
    14
 73
    10
 74
     0
 42
0.00000001
 43
0.00000001
 40
0.0
 40
0.0
 40
0.0
 40
0.0
 40
0.3115850422017675
 40
0.5633233396504165
 40
0.7318561573153722
 40
0.8451228514151953
 40
0.9216456205996666
 40
0.9737125749665464
 40
1.0
 40
1.0
 40
1.0
 40
1.0
 10
4.86272157634122
 20
14.89384903708716
 30
0.0
 10
4.859705782092562
 20
14.86075860958532
 30
0.0
 10
4.85425344305906
 20
14.80093349731717
 30
0.0
 10
4.847170394627119
 20
14.72321562888712
 30
0.0
 10
4.842013848908361
 20
14.66663607199515
 30
0.0
 10
4.838560292868938
 20
14.628742357662
 30
0.0
 10
4.836244226670138
 20
14.60332960920449
 30
0.0
 10
4.834773101862811
 20
14.58718787513068
 30
0.0
 10
4.834045225259797
 20
14.57920133958603
 30
0.0
 10
4.833801027018656
 20
14.57652190474125
 30
0.0
  0
LWPOLYLINE
  5
407
330
1F
100
AcDbEntity
  8
0
  6
SLD-Solid
 62
     7
370
    25
100
AcDbPolyline
 90
        3
 70
   128
 43
0.0
 10
4.8083774375
 20
14.4639732701
 10
4.8087069963
 20
14.4639350914
 10
4.8087684723
 20
14.4639414797
  0
LWPOLYLINE
  5
408
330
1F
100
AcDbEntity
  8
0
  6
SLD-Solid
 62
     7
370
    25
100
AcDbPolyline
 90
        3
 70
   128
 43
0.0
 10
4.8076684471
 20
14.4600232916
 10
4.8079426908
 20
14.4599383112
 10
4.807983754
 20
14.4599082683
  0
LINE
  5
409
330
1F
100
AcDbEntity
  8
0
  6
SLD-Solid
 62
     7
370
    25
100
AcDbLine
 10
5.2978352119
 20
14.0779522433
 30
0.0
 11
5.2978352119
 21
13.4929522433
 31
0.0
  0
LINE
  5
40A
330
1F
100
AcDbEntity
  8
0
  6
SLD-Solid
 62
     7
370
    25
100
AcDbLine
 10
5.2978352119
 20
14.6629522433
 30
0.0
 11
5.2978352119
 21
14.0779522433
 31
0.0
  0
ELLIPSE
  5
40B
330
1F
100
AcDbEntity
  8
0
  6
SLD-Solid
 62
     7
370
    25
100
AcDbEllipse
 10
4.3678352119
 20
15.3251722329
 30
0.0
 11
0.0
 21
1.951741503855244
 31
0.0
210
0.0
220
0.0
230
1.0
 40
0.1537088797
 41
4.661632612018328
 42
4.712388980384691
  0
ELLIPSE
  5
40C
330
1F
100
AcDbEntity
  8
0
  6
SLD-Solid
 62
     7
370
    25
100
AcDbEllipse
 10
4.3678352119
 20
13.8507322536
 30
0.0
 11
0.0
 21
1.951741503855245
 31
0.0
210
0.0
220
0.0
230
1.0
 40
0.1537088797
 41
4.712388980384691
 42
4.763145348751052
  0
LINE
  5
40D
330
1F
100
AcDbEntity
  8
0
  6
SLD-Solid
 62
     7
370
    25
100
AcDbLine
 10
4.6674488636
 20
15.2261514514
 30
0.0
 11
4.6667239534
 21
15.2261677364
 31
0.0
  0
LINE
  5
40E
330
1F
100
AcDbEntity
  8
0
  6
SLD-Solid
 62
     7
370
    25
100
AcDbLine
 10
4.6667239534
 20
13.9497367501
 30
0.0
 11
4.6674488636
 21
13.9497530351
 31
0.0
  0
LINE
  5
40F
330
1F
100
AcDbEntity
  8
0
  6
SLD-Solid
 62
     7
370
    25
100
AcDbLine
 10
4.2803352119
 20
17.5839522433
 30
0.0
 11
4.4493722315
 21
17.5839522433
 31
0.0
  0
LINE
  5
410
330
1F
100
AcDbEntity
  8
0
  6
SLD-Solid
 62
     7
370
    25
100
AcDbLine
 10
4.3381805939
 20
17.3680703387
 30
0.0
 11
4.2803352119
 21
17.5839522433
 31
0.0
  0
LINE
  5
411
330
1F
100
AcDbEntity
  8
0
  6
SLD-Solid
 62
     7
370
    25
100
AcDbLine
 10
16.9053352119
 20
17.5839522433
 30
0.0
 11
16.7362981923
 21
17.5839522433
 31
0.0
  0
LINE
  5
412
330
1F
100
AcDbEntity
  8
0
  6
SLD-Solid
 62
     7
370
    25
100
AcDbLine
 10
16.84748983
 20
17.3680703387
 30
0.0
 11
16.9053352119
 21
17.5839522433
 31
0.0
  0
LINE
  5
413
330
1F
100
AcDbEntity
  8
0
  6
SLD-Solid
 62
     7
370
    25
100
AcDbLine
 10
4.4493722315
 20
17.5839522433
 30
0.0
 11
16.7362981923
 21
17.5839522433
 31
0.0
  0
LINE
  5
414
330
1F
100
AcDbEntity
  8
0
  6
SLD-Solid
 62
     7
370
    25
100
AcDbLine
 10
16.6784528104
 20
17.2939522433
 30
0.0
 11
4.5072176135
 21
17.2939522433
 31
0.0
  0
LINE
  5
415
330
1F
100
AcDbEntity
  8
0
  6
SLD-Solid
 62
     7
370
    25
100
AcDbLine
 10
4.5072176135
 20
17.2939522433
 30
0.0
 11
4.4347731766
 21
17.2939522433
 31
0.0
  0
ARC
  5
416
330
1F
100
AcDbEntity
  8
0
  6
SLD-Solid
 62
     7
370
    25
100
AcDbCircle
 10
4.4347731766
 20
17.3939522433
 30
0.0
 40
0.1000000000000014
100
AcDbArc
 50
195.0
 51
270.0
  0
LINE
  5
417
330
1F
100
AcDbEntity
  8
0
  6
SLD-Solid
 62
     7
370
    25
100
AcDbLine
 10
16.6784528104
 20
17.2939522433
 30
0.0
 11
16.7508972473
 21
17.2939522433
 31
0.0
  0
ARC
  5
418
330
1F
100
AcDbEntity
  8
0
  6
SLD-Solid
 62
     7
370
    25
100
AcDbCircle
 10
16.7508972473
 20
17.3939522433
 30
0.0
 40
0.1000000000000014
100
AcDbArc
 50
270.0
 51
345.0
  0
LINE
  5
419
330
1F
100
AcDbEntity
  8
0
  6
SLD-Solid
 62
     7
370
    25
100
AcDbLine
 10
4.6923352119
 20
17.2789522433
 30
0.0
 11
4.6923352119
 21
17.2939522433
 31
0.0
  0
LINE
  5
41A
330
1F
100
AcDbEntity
  8
0
  6
SLD-Solid
 62
     7
370
    25
100
AcDbLine
 10
5.0833352119
 20
17.2939522433
 30
0.0
 11
5.0833352119
 21
17.2789522433
 31
0.0
  0
ARC
  5
41B
330
1F
100
AcDbEntity
  8
0
  6
SLD-Solid
 62
     7
370
    25
100
AcDbCircle
 10
4.8878352119
 20
17.0749522433
 30
0.0
 40
0.1955000000000009
100
AcDbArc
 50
180.0
 51
0.0
  0
LINE
  5
41C
330
1F
100
AcDbEntity
  8
0
  6
SLD-Solid
 62
     7
370
    25
100
AcDbLine
 10
4.6923352119
 20
17.0749522433
 30
0.0
 11
4.6923352119
 21
17.2789522433
 31
0.0
  0
LINE
  5
41D
330
1F
100
AcDbEntity
  8
0
  6
SLD-Solid
 62
     7
370
    25
100
AcDbLine
 10
5.0833352119
 20
17.2789522433
 30
0.0
 11
5.0833352119
 21
17.0749522433
 31
0.0
  0
DIMENSION
  5
41E
330
1F
100
AcDbEntity
  8
DIMS
100
AcDbDimension
  2
_D_5
 10
16.9053352119
 20
18.4500939755
 30
0.0
 11
9.401948061
 21
18.4500939755
 31
0.0
 70
   160
  1
<>
 71
     2
 42
-1.0
  3
SLDDIMSTYLE0
100
AcDbAlignedDimension
 13
4.2803352119
 23
17.5839522433
 33
0.0
 14
16.9053352119
 24
17.5839522433
 34
0.0
100
AcDbRotatedDimension
  0
MTEXT
  5
42D
330
1F
100
AcDbEntity
  8
NOTES
100
AcDbMText
 10
9.9875221384
 20
13.6916152486
 30
0.0
 40
0.25
 41
0.0
 71
     1
 72
     1
  1
Top view
  7
SLDTEXTSTYLE1
 73
     1
 44
1.0
  0
ENDSEC
  0
SECTION
  2
OBJECTS
  0
DICTIONARY
  5
C
330
0
100
AcDbDictionary
281
     1
  3
ACAD_GROUP
350
D
  3
ACAD_LAYOUT
350
1A
  3
ACAD_MLINESTYLE
350
17
  3
ACAD_PLOTSETTINGS
350
19
  3
ACAD_PLOTSTYLENAME
350
E
  3
ACAD_SCALELIST
350
47
  3
DWGPROPS
350
42E
  0
DICTIONARY
  5
D
102
{ACAD_REACTORS
330
C
102
}
330
C
100
AcDbDictionary
281
     1
  0
DICTIONARY
  5
1A
102
{ACAD_REACTORS
330
C
102
}
330
C
100
AcDbDictionary
281
     1
  3
Layout1
350
1E
  3
Layout2
350
26
  3
Model
350
22
  0
DICTIONARY
  5
17
102
{ACAD_REACTORS
330
C
102
}
330
C
100
AcDbDictionary
281
     1
  3
Standard
350
18
  0
DICTIONARY
  5
19
102
{ACAD_REACTORS
330
C
102
}
330
C
100
AcDbDictionary
281
     1
  0
ACDBDICTIONARYWDFLT
  5
E
102
{ACAD_REACTORS
330
C
102
}
330
C
100
AcDbDictionary
281
     1
  3
Normal
350
F
100
AcDbDictionaryWithDefault
340
F
  0
DICTIONARY
  5
47
102
{ACAD_REACTORS
330
C
102
}
330
C
100
AcDbDictionary
281
     1
  3
A0
350
48
  3
A1
350
49
  3
A2
350
4A
  3
A3
350
4B
  3
A4
350
4C
  3
A5
350
4D
  3
A6
350
4E
  3
A7
350
4F
  3
A8
350
50
  3
A9
350
51
  3
B0
350
52
  3
B1
350
53
  3
B2
350
54
  3
B3
350
55
  3
B4
350
56
  3
B5
350
57
  3
B6
350
58
  3
B7
350
59
  3
B8
350
5A
  3
B9
350
5B
  3
C0
350
5C
  3
C1
350
5D
  3
C2
350
5E
  3
C3
350
5F
  3
C4
350
60
  3
C5
350
61
  3
C6
350
62
  3
C7
350
63
  3
C8
350
64
  3
C9
350
65
  3
D0
350
66
  3
D1
350
67
  3
D2
350
68
  0
XRECORD
  5
42E
102
{ACAD_REACTORS
330
C
102
}
330
C
100
AcDbXrecord
280
     1
  1
DWGPROPS COOKIE
  2

  3

  4

  6

  7

  8
carl
  9

300
=
301
=
302
=
303
=
304
=
305
=
306
=
307
=
308
=
309
=
 40
0.0
 41
2459473.784741759
 42
2459473.784745301
  1

 90
        0
  0
LAYOUT
  5
1E
102
{ACAD_REACTORS
330
1A
102
}
330
1A
100
AcDbPlotSettings
  1

  2
none_device
  4

  6

 40
0.0
 41
0.0
 42
0.0
 43
0.0
 44
0.0
 45
0.0
 46
0.0
 47
0.0
 48
0.0
 49
0.0
140
0.0
141
0.0
142
1.0
143
1.0
 70
   688
 72
     0
 73
     0
 74
     5
  7

 75
    16
147
1.0
148
0.0
149
0.0
100
AcDbLayout
  1
Layout1
 70
     1
 71
     1
 10
0.0
 20
0.0
 11
12.0
 21
9.0
 12
0.0
 22
0.0
 32
0.0
 14
1.0000000000E+20
 24
1.0000000000E+20
 34
1.0000000000E+20
 15
-1.0000000000E+20
 25
-1.0000000000E+20
 35
-1.0000000000E+20
146
0.0
 13
0.0
 23
0.0
 33
0.0
 16
1.0
 26
0.0
 36
0.0
 17
0.0
 27
1.0
 37
0.0
 76
     0
330
1B
  0
LAYOUT
  5
26
102
{ACAD_REACTORS
330
1A
102
}
330
1A
100
AcDbPlotSettings
  1

  2
none_device
  4

  6

 40
0.0
 41
0.0
 42
0.0
 43
0.0
 44
0.0
 45
0.0
 46
0.0
 47
0.0
 48
0.0
 49
0.0
140
0.0
141
0.0
142
1.0
143
1.0
 70
   688
 72
     0
 73
     0
 74
     5
  7

 75
    16
147
1.0
148
0.0
149
0.0
100
AcDbLayout
  1
Layout2
 70
     1
 71
     2
 10
0.0
 20
0.0
 11
0.0
 21
0.0
 12
0.0
 22
0.0
 32
0.0
 14
0.0
 24
0.0
 34
0.0
 15
0.0
 25
0.0
 35
0.0
146
0.0
 13
0.0
 23
0.0
 33
0.0
 16
1.0
 26
0.0
 36
0.0
 17
0.0
 27
1.0
 37
0.0
 76
     0
330
23
  0
LAYOUT
  5
22
102
{ACAD_REACTORS
330
1A
102
}
330
1A
100
AcDbPlotSettings
  1

  2
none_device
  4
Letter_(8.50_x_11.00_Inches)
  6

 40
6.35
 41
6.35
 42
6.35000508
 43
6.35000508
 44
215.9
 45
279.4
 46
0.0
 47
0.0
 48
0.0
 49
0.0
140
0.0
141
0.0
142
1.0
143
1.0
 70
  1712
 72
     0
 73
     0
 74
     0
  7

 75
     0
147
1.0
148
0.0
149
0.0
100
AcDbLayout
  1
Model
 70
     1
 71
     0
 10
0.0
 20
0.0
 11
42.0
 21
24.0
 12
0.0
 22
0.0
 32
0.0
 14
0.0
 24
0.0
 34
0.0
 15
42.0
 25
24.0
 35
0.0
146
0.0
 13
0.0
 23
0.0
 33
0.0
 16
1.0
 26
0.0
 36
0.0
 17
0.0
 27
1.0
 37
0.0
 76
     0
330
1F
331
29
  0
MLINESTYLE
  5
18
102
{ACAD_REACTORS
330
17
102
}
330
17
100
AcDbMlineStyle
  2
Standard
 70
     0
  3

 62
   256
 51
90.0
 52
90.0
 71
     2
 49
0.5
 62
   256
  6
BYLAYER
 49
-0.5
 62
   256
  6
BYLAYER
  0
ACDBPLACEHOLDER
  5
F
102
{ACAD_REACTORS
330
E
102
}
330
E
  0
SCALE
  5
48
102
{ACAD_REACTORS
330
47
102
}
330
47
100
AcDbScale
 70
     0
300
1:1
140
1.0
141
1.0
290
     1
  0
SCALE
  5
49
102
{ACAD_REACTORS
330
47
102
}
330
47
100
AcDbScale
 70
     0
300
1:2
140
1.0
141
2.0
290
     0
  0
SCALE
  5
4A
102
{ACAD_REACTORS
330
47
102
}
330
47
100
AcDbScale
 70
     0
300
1:4
140
1.0
141
4.0
290
     0
  0
SCALE
  5
4B
102
{ACAD_REACTORS
330
47
102
}
330
47
100
AcDbScale
 70
     0
300
1:5
140
1.0
141
5.0
290
     0
  0
SCALE
  5
4C
102
{ACAD_REACTORS
330
47
102
}
330
47
100
AcDbScale
 70
     0
300
1:8
140
1.0
141
8.0
290
     0
  0
SCALE
  5
4D
102
{ACAD_REACTORS
330
47
102
}
330
47
100
AcDbScale
 70
     0
300
1:10
140
1.0
141
10.0
290
     0
  0
SCALE
  5
4E
102
{ACAD_REACTORS
330
47
102
}
330
47
100
AcDbScale
 70
     0
300
1:16
140
1.0
141
16.0
290
     0
  0
SCALE
  5
4F
102
{ACAD_REACTORS
330
47
102
}
330
47
100
AcDbScale
 70
     0
300
1:20
140
1.0
141
20.0
290
     0
  0
SCALE
  5
50
102
{ACAD_REACTORS
330
47
102
}
330
47
100
AcDbScale
 70
     0
300
1:30
140
1.0
141
30.0
290
     0
  0
SCALE
  5
51
102
{ACAD_REACTORS
330
47
102
}
330
47
100
AcDbScale
 70
     0
300
1:40
140
1.0
141
40.0
290
     0
  0
SCALE
  5
52
102
{ACAD_REACTORS
330
47
102
}
330
47
100
AcDbScale
 70
     0
300
1:50
140
1.0
141
50.0
290
     0
  0
SCALE
  5
53
102
{ACAD_REACTORS
330
47
102
}
330
47
100
AcDbScale
 70
     0
300
1:100
140
1.0
141
100.0
290
     0
  0
SCALE
  5
54
102
{ACAD_REACTORS
330
47
102
}
330
47
100
AcDbScale
 70
     0
300
2:1
140
2.0
141
1.0
290
     0
  0
SCALE
  5
55
102
{ACAD_REACTORS
330
47
102
}
330
47
100
AcDbScale
 70
     0
300
4:1
140
4.0
141
1.0
290
     0
  0
SCALE
  5
56
102
{ACAD_REACTORS
330
47
102
}
330
47
100
AcDbScale
 70
     0
300
8:1
140
8.0
141
1.0
290
     0
  0
SCALE
  5
57
102
{ACAD_REACTORS
330
47
102
}
330
47
100
AcDbScale
 70
     0
300
10:1
140
10.0
141
1.0
290
     0
  0
SCALE
  5
58
102
{ACAD_REACTORS
330
47
102
}
330
47
100
AcDbScale
 70
     0
300
100:1
140
100.0
141
1.0
290
     0
  0
SCALE
  5
59
102
{ACAD_REACTORS
330
47
102
}
330
47
100
AcDbScale
 70
     0
300
1/128" = 1'-0"
140
0.0078125
141
12.0
290
     0
  0
SCALE
  5
5A
102
{ACAD_REACTORS
330
47
102
}
330
47
100
AcDbScale
 70
     0
300
1/64" = 1'-0"
140
0.015625
141
12.0
290
     0
  0
SCALE
  5
5B
102
{ACAD_REACTORS
330
47
102
}
330
47
100
AcDbScale
 70
     0
300
1/32" = 1'-0"
140
0.03125
141
12.0
290
     0
  0
SCALE
  5
5C
102
{ACAD_REACTORS
330
47
102
}
330
47
100
AcDbScale
 70
     0
300
1/16" = 1'-0"
140
0.0625
141
12.0
290
     0
  0
SCALE
  5
5D
102
{ACAD_REACTORS
330
47
102
}
330
47
100
AcDbScale
 70
     0
300
3/32" = 1'-0"
140
0.09375
141
12.0
290
     0
  0
SCALE
  5
5E
102
{ACAD_REACTORS
330
47
102
}
330
47
100
AcDbScale
 70
     0
300
1/8" = 1'-0"
140
0.125
141
12.0
290
     0
  0
SCALE
  5
5F
102
{ACAD_REACTORS
330
47
102
}
330
47
100
AcDbScale
 70
     0
300
3/16" = 1'-0"
140
0.1875
141
12.0
290
     0
  0
SCALE
  5
60
102
{ACAD_REACTORS
330
47
102
}
330
47
100
AcDbScale
 70
     0
300
1/4" = 1'-0"
140
0.25
141
12.0
290
     0
  0
SCALE
  5
61
102
{ACAD_REACTORS
330
47
102
}
330
47
100
AcDbScale
 70
     0
300
3/8" = 1'-0"
140
0.375
141
12.0
290
     0
  0
SCALE
  5
62
102
{ACAD_REACTORS
330
47
102
}
330
47
100
AcDbScale
 70
     0
300
1/2" = 1'-0"
140
0.5
141
12.0
290
     0
  0
SCALE
  5
63
102
{ACAD_REACTORS
330
47
102
}
330
47
100
AcDbScale
 70
     0
300
3/4" = 1'-0"
140
0.75
141
12.0
290
     0
  0
SCALE
  5
64
102
{ACAD_REACTORS
330
47
102
}
330
47
100
AcDbScale
 70
     0
300
1" = 1'-0"
140
1.0
141
12.0
290
     0
  0
SCALE
  5
65
102
{ACAD_REACTORS
330
47
102
}
330
47
100
AcDbScale
 70
     0
300
1-1/2" = 1'-0"
140
1.5
141
12.0
290
     0
  0
SCALE
  5
66
102
{ACAD_REACTORS
330
47
102
}
330
47
100
AcDbScale
 70
     0
300
3" = 1'-0"
140
3.0
141
12.0
290
     0
  0
SCALE
  5
67
102
{ACAD_REACTORS
330
47
102
}
330
47
100
AcDbScale
 70
     0
300
6" = 1'-0"
140
6.0
141
12.0
290
     0
  0
SCALE
  5
68
102
{ACAD_REACTORS
330
47
102
}
330
47
100
AcDbScale
 70
     0
300
1'-0" = 1'-0"
140
12.0
141
12.0
290
     0
  0
ENDSEC
  0
EOF
