  0
SECTION
  2
HEADER
  9
$ACADVER
  1
AC1015
  9
$ACADMAINTVER
 70
     6
  9
$DWGCODEPAGE
  3
ANSI_1252
  9
$INSBASE
 10
0.0
 20
0.0
 30
0.0
  9
$EXTMIN
 10
0.0
 20
0.0
 30
0.0
  9
$EXTMAX
 10
90.0
 20
36.0
 30
0.0
  9
$LIMMIN
 10
0.0
 20
0.0
  9
$LIMMAX
 10
90.0
 20
36.0
  9
$ORTHOMODE
 70
     0
  9
$REGENMODE
 70
     1
  9
$FILLMODE
 70
     1
  9
$QTEXTMODE
 70
     0
  9
$MIRRTEXT
 70
     1
  9
$LTSCALE
 40
1.0
  9
$ATTMODE
 70
     1
  9
$TEXTSIZE
 40
0.5
  9
$TRACEWID
 40
0.05
  9
$TEXTSTYLE
  7
STANDARD
  9
$CLAYER
  8
0
  9
$CELTYPE
  6
ByLayer
  9
$CECOLOR
 62
   256
  9
$CELTSCALE
 40
1.0
  9
$DISPSILH
 70
     0
  9
$DIMSCALE
 40
1.0
  9
$DIMASZ
 40
0.3
  9
$DIMEXO
 40
0.1666666667
  9
$DIMDLI
 40
0.38
  9
$DIMRND
 40
0.0
  9
$DIMDLE
 40
0.0
  9
$DIMEXE
 40
0.375
  9
$DIMTP
 40
0.0
  9
$DIMTM
 40
0.0
  9
$DIMTXT
 40
0.5
  9
$DIMCEN
 40
0.09
  9
$DIMTSZ
 40
0.0
  9
$DIMTOL
 70
     0
  9
$DIMLIM
 70
     0
  9
$DIMTIH
 70
     1
  9
$DIMTOH
 70
     1
  9
$DIMSE1
 70
     0
  9
$DIMSE2
 70
     0
  9
$DIMTAD
 70
     0
  9
$DIMZIN
 70
     1
  9
$DIMBLK
  1

  9
$DIMASO
 70
     1
  9
$DIMSHO
 70
     1
  9
$DIMPOST
  1

  9
$DIMAPOST
  1

  9
$DIMALT
 70
     0
  9
$DIMALTD
 70
     2
  9
$DIMALTF
 40
25.4
  9
$DIMLFAC
 40
1.0
  9
$DIMTOFL
 70
     0
  9
$DIMTVP
 40
0.0
  9
$DIMTIX
 70
     0
  9
$DIMSOXD
 70
     0
  9
$DIMSAH
 70
     0
  9
$DIMBLK1
  1

  9
$DIMBLK2
  1

  9
$DIMSTYLE
  2
Standard
  9
$DIMCLRD
 70
     0
  9
$DIMCLRE
 70
     0
  9
$DIMCLRT
 70
     0
  9
$DIMTFAC
 40
1.0
  9
$DIMGAP
 40
0.125
  9
$DIMJUST
 70
     0
  9
$DIMSD1
 70
     0
  9
$DIMSD2
 70
     0
  9
$DIMTOLJ
 70
     1
  9
$DIMTZIN
 70
     1
  9
$DIMALTZ
 70
     0
  9
$DIMALTTZ
 70
     0
  9
$DIMUPT
 70
     0
  9
$DIMDEC
 70
     2
  9
$DIMTDEC
 70
     2
  9
$DIMALTU
 70
     2
  9
$DIMALTTD
 70
     2
  9
$DIMTXSTY
  7
STANDARD
  9
$DIMAUNIT
 70
     0
  9
$DIMADEC
 70
     2
  9
$DIMALTRND
 40
0.0
  9
$DIMAZIN
 70
     0
  9
$DIMDSEP
 70
    46
  9
$DIMATFIT
 70
     3
  9
$DIMFRAC
 70
     0
  9
$DIMLDRBLK
  1

  9
$DIMLUNIT
 70
     2
  9
$DIMLWD
 70
    -2
  9
$DIMLWE
 70
    -2
  9
$DIMTMOVE
 70
     0
  9
$LUNITS
 70
     2
  9
$LUPREC
 70
     4
  9
$SKETCHINC
 40
0.1
  9
$FILLETRAD
 40
0.5
  9
$AUNITS
 70
     0
  9
$AUPREC
 70
     2
  9
$MENU
  1
.
  9
$ELEVATION
 40
0.0
  9
$PELEVATION
 40
0.0
  9
$THICKNESS
 40
0.0
  9
$LIMCHECK
 70
     0
  9
$CHAMFERA
 40
0.0
  9
$CHAMFERB
 40
0.0
  9
$CHAMFERC
 40
0.0
  9
$CHAMFERD
 40
0.0
  9
$SKPOLY
 70
     0
  9
$TDCREATE
 40
2459503.6257239
  9
$TDUCREATE
 40
2459503.792390567
  9
$TDUPDATE
 40
2459503.625728947
  9
$TDUUPDATE
 40
2459503.792395614
  9
$TDINDWG
 40
0.0000000116
  9
$TDUSRTIMER
 40
0.0000000116
  9
$USRTIMER
 70
     1
  9
$ANGBASE
 50
0.0
  9
$ANGDIR
 70
     0
  9
$PDMODE
 70
     0
  9
$PDSIZE
 40
-1.0
  9
$PLINEWID
 40
0.0
  9
$SPLFRAME
 70
     0
  9
$SPLINETYPE
 70
     6
  9
$SPLINESEGS
 70
     8
  9
$HANDSEED
  5
2DC
  9
$SURFTAB1
 70
     6
  9
$SURFTAB2
 70
     6
  9
$SURFTYPE
 70
     6
  9
$SURFU
 70
     6
  9
$SURFV
 70
     6
  9
$UCSBASE
  2

  9
$UCSNAME
  2

  9
$UCSORG
 10
0.0
 20
0.0
 30
0.0
  9
$UCSXDIR
 10
1.0
 20
0.0
 30
0.0
  9
$UCSYDIR
 10
0.0
 20
1.0
 30
0.0
  9
$UCSORTHOREF
  2

  9
$UCSORTHOVIEW
 70
     0
  9
$UCSORGTOP
 10
0.0
 20
0.0
 30
0.0
  9
$UCSORGBOTTOM
 10
0.0
 20
0.0
 30
0.0
  9
$UCSORGLEFT
 10
0.0
 20
0.0
 30
0.0
  9
$UCSORGRIGHT
 10
0.0
 20
0.0
 30
0.0
  9
$UCSORGFRONT
 10
0.0
 20
0.0
 30
0.0
  9
$UCSORGBACK
 10
0.0
 20
0.0
 30
0.0
  9
$PUCSBASE
  2

  9
$PUCSNAME
  2

  9
$PUCSORG
 10
0.0
 20
0.0
 30
0.0
  9
$PUCSXDIR
 10
1.0
 20
0.0
 30
0.0
  9
$PUCSYDIR
 10
0.0
 20
1.0
 30
0.0
  9
$PUCSORTHOREF
  2

  9
$PUCSORTHOVIEW
 70
     0
  9
$PUCSORGTOP
 10
0.0
 20
0.0
 30
0.0
  9
$PUCSORGBOTTOM
 10
0.0
 20
0.0
 30
0.0
  9
$PUCSORGLEFT
 10
0.0
 20
0.0
 30
0.0
  9
$PUCSORGRIGHT
 10
0.0
 20
0.0
 30
0.0
  9
$PUCSORGFRONT
 10
0.0
 20
0.0
 30
0.0
  9
$PUCSORGBACK
 10
0.0
 20
0.0
 30
0.0
  9
$USERI1
 70
     0
  9
$USERI2
 70
     0
  9
$USERI3
 70
     0
  9
$USERI4
 70
     0
  9
$USERI5
 70
     0
  9
$USERR1
 40
0.0
  9
$USERR2
 40
0.0
  9
$USERR3
 40
0.0
  9
$USERR4
 40
0.0
  9
$USERR5
 40
0.0
  9
$WORLDVIEW
 70
     1
  9
$SHADEDGE
 70
     3
  9
$SHADEDIF
 70
    70
  9
$TILEMODE
 70
     1
  9
$MAXACTVP
 70
    64
  9
$PINSBASE
 10
0.0
 20
0.0
 30
0.0
  9
$PLIMCHECK
 70
     0
  9
$PEXTMIN
 10
1.0000000000E+20
 20
1.0000000000E+20
 30
1.0000000000E+20
  9
$PEXTMAX
 10
-1.0000000000E+20
 20
-1.0000000000E+20
 30
-1.0000000000E+20
  9
$PLIMMIN
 10
0.0
 20
0.0
  9
$PLIMMAX
 10
12.0
 20
9.0
  9
$UNITMODE
 70
     0
  9
$VISRETAIN
 70
     1
  9
$PLINEGEN
 70
     0
  9
$PSLTSCALE
 70
     1
  9
$TREEDEPTH
 70
  3020
  9
$CMLSTYLE
  2
Standard
  9
$CMLJUST
 70
     0
  9
$CMLSCALE
 40
1.0
  9
$PROXYGRAPHICS
 70
     1
  9
$MEASUREMENT
 70
     0
  9
$CELWEIGHT
370
    -1
  9
$ENDCAPS
280
     0
  9
$JOINSTYLE
280
     0
  9
$LWDISPLAY
290
     1
  9
$INSUNITS
 70
     1
  9
$HYPERLINKBASE
  1

  9
$STYLESHEET
  1

  9
$XEDIT
290
     1
  9
$CEPSNTYPE
380
     0
  9
$PSTYLEMODE
290
     1
  9
$FINGERPRINTGUID
  2
{13eecb95-f149-42a0-849c-2c205050d423}
  9
$VERSIONGUID
  2
{FAEB1C32-E019-11D5-929B-00C0DF256EC4}
  9
$EXTNAMES
290
     1
  9
$PSVPSCALE
 40
0.0
  9
$OLESTARTUP
290
     0
  0
ENDSEC
  0
SECTION
  2
CLASSES
  0
CLASS
  1
ACDBDICTIONARYWDFLT
  2
AcDbDictionaryWithDefault
  3
ObjectDBX Classes
 90
        0
280
     0
281
     0
  0
CLASS
  1
VISUALSTYLE
  2
AcDbVisualStyle
  3
ObjectDBX Classes
 90
     4095
280
     0
281
     0
  0
CLASS
  1
MATERIAL
  2
AcDbMaterial
  3
ObjectDBX Classes
 90
     1153
280
     0
281
     0
  0
CLASS
  1
SCALE
  2
AcDbScale
  3
ObjectDBX Classes
 90
     1153
280
     0
281
     0
  0
CLASS
  1
TABLESTYLE
  2
AcDbTableStyle
  3
ObjectDBX Classes
 90
     4095
280
     0
281
     0
  0
CLASS
  1
MLEADERSTYLE
  2
AcDbMLeaderStyle
  3
ACDB_MLEADERSTYLE_CLASS
 90
     4095
280
     0
281
     0
  0
CLASS
  1
SUN
  2
AcDbSun
  3
SCENEOE
 90
     1153
280
     0
281
     0
  0
CLASS
  1
ACDBPLACEHOLDER
  2
AcDbPlaceHolder
  3
ObjectDBX Classes
 90
        0
280
     0
281
     0
  0
CLASS
  1
LAYOUT
  2
AcDbLayout
  3
ObjectDBX Classes
 90
        0
280
     0
281
     0
  0
ENDSEC
  0
SECTION
  2
TABLES
  0
TABLE
  2
VPORT
  5
8
330
0
100
AcDbSymbolTable
 70
     1
  0
VPORT
  5
29
330
8
100
AcDbSymbolTableRecord
100
AcDbViewportTableRecord
  2
*Active
 70
     0
 10
0.0
 20
0.0
 11
1.0
 21
1.0
 12
45.0
 22
18.0
 13
0.0
 23
0.0
 14
0.5
 24
0.5
 15
0.5
 25
0.5
 16
0.0
 26
0.0
 36
1.0
 17
0.0
 27
0.0
 37
0.0
 40
36.0
 41
2.5
 42
50.0
 43
0.0
 44
0.0
 50
0.0
 51
0.0
 71
     0
 72
  2000
 73
     1
 74
     3
 75
     0
 76
     0
 77
     0
 78
     0
281
     0
 65
     1
110
0.0
120
0.0
130
0.0
111
1.0
121
0.0
131
0.0
112
0.0
122
1.0
132
0.0
 79
     0
146
0.0
  0
ENDTAB
  0
TABLE
  2
LTYPE
  5
5
330
0
100
AcDbSymbolTable
 70
     8
  0
LTYPE
  5
14
330
5
100
AcDbSymbolTableRecord
100
AcDbLinetypeTableRecord
  2
ByBlock
 70
     0
  3

 72
    65
 73
     0
 40
0.0
  0
LTYPE
  5
15
330
5
100
AcDbSymbolTableRecord
100
AcDbLinetypeTableRecord
  2
ByLayer
 70
     0
  3

 72
    65
 73
     0
 40
0.0
  0
LTYPE
  5
16
330
5
100
AcDbSymbolTableRecord
100
AcDbLinetypeTableRecord
  2
Continuous
 70
     0
  3
Solid line
 72
    65
 73
     0
 40
0.0
  0
LTYPE
  5
6E
330
5
100
AcDbSymbolTableRecord
100
AcDbLinetypeTableRecord
  2
SLD-Solid
 70
     0
  3
SolidWorks Line Style
 72
    65
 73
     0
 40
0.0
  0
LTYPE
  5
6F
330
5
100
AcDbSymbolTableRecord
100
AcDbLinetypeTableRecord
  2
SLD-Dashed
 70
     0
  3
SolidWorks Line Style
 72
    65
 73
     2
 40
0.075
 49
0.05
 74
     0
 49
-0.025
 74
     0
  0
LTYPE
  5
70
330
5
100
AcDbSymbolTableRecord
100
AcDbLinetypeTableRecord
  2
SLD-Phantom
 70
     0
  3
SolidWorks Line Style
 72
    65
 73
     6
 40
0.5
 49
0.25
 74
     0
 49
-0.05
 74
     0
 49
0.05
 74
     0
 49
-0.05
 74
     0
 49
0.05
 74
     0
 49
-0.05
 74
     0
  0
LTYPE
  5
71
330
5
100
AcDbSymbolTableRecord
100
AcDbLinetypeTableRecord
  2
SLD-Chain
 70
     0
  3
SolidWorks Line Style
 72
    65
 73
     4
 40
0.4
 49
0.25
 74
     0
 49
-0.05
 74
     0
 49
0.05
 74
     0
 49
-0.05
 74
     0
  0
LTYPE
  5
72
330
5
100
AcDbSymbolTableRecord
100
AcDbLinetypeTableRecord
  2
SLD-Center
 70
     0
  3
SolidWorks Line Style
 72
    65
 73
     4
 40
0.75
 49
0.6
 74
     0
 49
-0.05
 74
     0
 49
0.05
 74
     0
 49
-0.05
 74
     0
  0
LTYPE
  5
73
330
5
100
AcDbSymbolTableRecord
100
AcDbLinetypeTableRecord
  2
SLD-Stitch
 70
     0
  3
SolidWorks Line Style
 72
    65
 73
     2
 40
0.025
 49
0.0
 74
     0
 49
-0.025
 74
     0
  0
LTYPE
  5
74
330
5
100
AcDbSymbolTableRecord
100
AcDbLinetypeTableRecord
  2
SLD-Thin-Thick-Chain
 70
     0
  3
SolidWorks Line Style
 72
    65
 73
     4
 40
0.4
 49
0.25
 74
     0
 49
-0.05
 74
     0
 49
0.05
 74
     0
 49
-0.05
 74
     0
  0
ENDTAB
  0
TABLE
  2
LAYER
  5
2
330
0
100
AcDbSymbolTable
 70
     6
  0
LAYER
  5
10
330
2
100
AcDbSymbolTableRecord
100
AcDbLayerTableRecord
  2
0
 70
     0
 62
     7
  6
Continuous
370
    -3
390
F
  0
LAYER
  5
75
330
2
100
AcDbSymbolTableRecord
100
AcDbLayerTableRecord
  2
FORMAT
 70
     0
 62
     7
  6
SLD-Solid
370
    -3
390
F
  0
LAYER
  5
76
330
2
100
AcDbSymbolTableRecord
100
AcDbLayerTableRecord
  2
NOTES
 70
     0
 62
     1
  6
SLD-Solid
370
    -3
390
F
  0
LAYER
  5
77
330
2
100
AcDbSymbolTableRecord
100
AcDbLayerTableRecord
  2
OBJECT
 70
     0
 62
     7
  6
SLD-Solid
370
    25
390
F
  0
LAYER
  5
78
330
2
100
AcDbSymbolTableRecord
100
AcDbLayerTableRecord
  2
DIMS
 70
     0
 62
     5
  6
SLD-Solid
370
    -3
390
F
  0
LAYER
  5
79
330
2
100
AcDbSymbolTableRecord
100
AcDbLayerTableRecord
  2
TITLE
 70
     0
 62
     8
  6
SLD-Solid
370
    -3
390
F
  0
ENDTAB
  0
TABLE
  2
STYLE
  5
3
330
0
100
AcDbSymbolTable
 70
     5
  0
STYLE
  5
11
330
3
100
AcDbSymbolTableRecord
100
AcDbTextStyleTableRecord
  2
STANDARD
 70
     0
 40
0.0
 41
1.0
 50
0.0
 71
     0
 42
0.5
  3
GOTHIC.TTF
  4

1001
ACAD
1000
CENTURY GOTHIC
1071
       34
  0
STYLE
  5
109
330
3
100
AcDbSymbolTableRecord
100
AcDbTextStyleTableRecord
  2
SLDTEXTSTYLE0
 70
     0
 40
0.0
 41
0.948
 50
0.0
 71
     0
 42
0.5
  3
ARIAL.TTF
  4

1001
ACAD
1000
Arial
1071
      290
  0
STYLE
  5
10D
330
3
100
AcDbSymbolTableRecord
100
AcDbTextStyleTableRecord
  2
SLDTEXTSTYLE1
 70
     0
 40
0.0
 41
0.913
 50
0.0
 71
     0
 42
0.5
  3
GOTHIC.TTF
  4

1001
ACAD
1000
Century Gothic
1071
      290
  0
STYLE
  5
11C
330
3
100
AcDbSymbolTableRecord
100
AcDbTextStyleTableRecord
  2
SLDTEXTSTYLE2
 70
     0
 40
0.0
 41
0.87
 50
0.0
 71
     0
 42
0.5
  3
ARIALNB.TTF
  4

1001
ACAD
1000
Arial Narrow
1071
 33554722
  0
STYLE
  5
11E
330
3
100
AcDbSymbolTableRecord
100
AcDbTextStyleTableRecord
  2
SLDTEXTSTYLE3
 70
     0
 40
0.0
 41
0.87
 50
0.0
 71
     0
 42
0.5
  3
ARIALN.TTF
  4

1001
ACAD
1000
Arial Narrow
1071
      290
  0
ENDTAB
  0
TABLE
  2
VIEW
  5
6
330
0
100
AcDbSymbolTable
 70
     0
  0
ENDTAB
  0
TABLE
  2
UCS
  5
7
330
0
100
AcDbSymbolTable
 70
     0
  0
ENDTAB
  0
TABLE
  2
APPID
  5
9
330
0
100
AcDbSymbolTable
 70
     1
  0
APPID
  5
12
330
9
100
AcDbSymbolTableRecord
100
AcDbRegAppTableRecord
  2
ACAD
 70
     0
  0
ENDTAB
  0
TABLE
  2
DIMSTYLE
  5
A
330
0
100
AcDbSymbolTable
 70
     5
100
AcDbDimStyleTable
  0
DIMSTYLE
105
27
330
A
100
AcDbSymbolTableRecord
100
AcDbDimStyleTableRecord
  2
Standard
 70
     0
178
     0
340
11
  0
DIMSTYLE
105
1E1
102
{ACAD_REACTORS
330
1E0
102
}
330
A
100
AcDbSymbolTableRecord
100
AcDbDimStyleTableRecord
  2
SLDDIMSTYLE0
 70
     0
 41
0.3
 44
0.0
 45
0.000000001
 78
    12
 79
     3
140
0.5
147
0.125
173
     1
178
     0
271
     2
272
     2
276
     2
277
     5
284
    12
340
10D
341
1E2
343
1E2
344
1E2
  0
DIMSTYLE
105
1F2
102
{ACAD_REACTORS
330
1F1
330
224
330
27B
330
28A
330
2A8
330
2CB
102
}
330
A
100
AcDbSymbolTableRecord
100
AcDbDimStyleTableRecord
  2
SLDDIMSTYLE1
 70
     0
 41
0.3
 44
0.0
 45
0.000000001
 78
    12
 79
     3
140
0.5
147
0.125
173
     1
178
     0
271
     6
272
     2
276
     2
277
     5
284
    12
340
10D
341
1E2
343
1E2
344
1E2
  0
DIMSTYLE
105
204
330
A
100
AcDbSymbolTableRecord
100
AcDbDimStyleTableRecord
  2
SLDDIMSTYLE2
 70
     0
 41
0.3
 44
0.0
 45
0.000000001
146
0.3
147
0.0
173
     1
178
     0
271
     0
272
     0
276
     2
277
     5
340
11
341
1E2
343
1E2
344
1E2
  0
DIMSTYLE
105
29A
102
{ACAD_REACTORS
330
299
102
}
330
A
100
AcDbSymbolTableRecord
100
AcDbDimStyleTableRecord
  2
SLDDIMSTYLE3
 70
     0
 41
0.3
 44
0.0
 45
0.000000001
 78
    12
 79
     3
140
0.5
147
0.125
172
     1
173
     1
178
     0
271
     6
272
     2
276
     2
277
     5
284
    12
289
     0
340
10D
341
1E2
343
1E2
344
1E2
  0
ENDTAB
  0
TABLE
  2
BLOCK_RECORD
  5
1
330
0
100
AcDbSymbolTable
 70
    13
  0
BLOCK_RECORD
  5
1F
330
1
100
AcDbSymbolTableRecord
100
AcDbBlockTableRecord
  2
*Model_Space
340
22
  0
BLOCK_RECORD
  5
1B
330
1
100
AcDbSymbolTableRecord
100
AcDbBlockTableRecord
  2
*Paper_Space
340
1E
  0
BLOCK_RECORD
  5
23
330
1
100
AcDbSymbolTableRecord
100
AcDbBlockTableRecord
  2
*Paper_Space0
340
26
  0
BLOCK_RECORD
  5
113
330
1
100
AcDbSymbolTableRecord
100
AcDbBlockTableRecord
  2
SW_NOTE_0
340
0
102
{BLKREFS
331
118
102
}
  0
BLOCK_RECORD
  5
119
330
1
100
AcDbSymbolTableRecord
100
AcDbBlockTableRecord
  2
SW_NOTE_0_1
340
0
102
{BLKREFS
331
122
102
}
  0
BLOCK_RECORD
  5
1E2
330
1
100
AcDbSymbolTableRecord
100
AcDbBlockTableRecord
  2
_Open90
340
0
102
{BLKREFS
331
1EB
331
1EC
331
1F6
331
1F7
331
228
331
229
331
27F
331
280
331
28E
331
28F
331
29E
331
29F
331
2AC
331
2AD
331
2CF
331
2D0
102
}
  0
BLOCK_RECORD
  5
1E8
330
1
100
AcDbSymbolTableRecord
100
AcDbBlockTableRecord
  2
_D
340
0
  0
BLOCK_RECORD
  5
1F3
330
1
100
AcDbSymbolTableRecord
100
AcDbBlockTableRecord
  2
_D_1
340
0
  0
BLOCK_RECORD
  5
225
330
1
100
AcDbSymbolTableRecord
100
AcDbBlockTableRecord
  2
_D_2
340
0
  0
BLOCK_RECORD
  5
255
330
1
100
AcDbSymbolTableRecord
100
AcDbBlockTableRecord
  2
SW_NOTE_0_2
340
0
102
{BLKREFS
331
25A
102
}
  0
BLOCK_RECORD
  5
27C
330
1
100
AcDbSymbolTableRecord
100
AcDbBlockTableRecord
  2
_D_3
340
0
  0
BLOCK_RECORD
  5
28B
330
1
100
AcDbSymbolTableRecord
100
AcDbBlockTableRecord
  2
_D_4
340
0
  0
BLOCK_RECORD
  5
29B
330
1
100
AcDbSymbolTableRecord
100
AcDbBlockTableRecord
  2
_D_5
340
0
  0
BLOCK_RECORD
  5
2A9
330
1
100
AcDbSymbolTableRecord
100
AcDbBlockTableRecord
  2
_D_6
340
0
  0
BLOCK_RECORD
  5
2CC
330
1
100
AcDbSymbolTableRecord
100
AcDbBlockTableRecord
  2
_D_7
340
0
  0
ENDTAB
  0
ENDSEC
  0
SECTION
  2
BLOCKS
  0
BLOCK
  5
20
330
1F
100
AcDbEntity
  8
0
100
AcDbBlockBegin
  2
*Model_Space
 70
     0
 10
0.0
 20
0.0
 30
0.0
  3
*Model_Space
  1

  0
ENDBLK
  5
21
330
1F
100
AcDbEntity
  8
0
100
AcDbBlockEnd
  0
BLOCK
  5
1C
330
1B
100
AcDbEntity
 67
     1
  8
0
100
AcDbBlockBegin
  2
*Paper_Space
 70
     0
 10
0.0
 20
0.0
 30
0.0
  3
*Paper_Space
  1

  0
ENDBLK
  5
1D
330
1B
100
AcDbEntity
 67
     1
  8
0
100
AcDbBlockEnd
  0
BLOCK
  5
24
330
23
100
AcDbEntity
  8
0
100
AcDbBlockBegin
  2
*Paper_Space0
 70
     0
 10
0.0
 20
0.0
 30
0.0
  3
*Paper_Space0
  1

  0
ENDBLK
  5
25
330
23
100
AcDbEntity
  8
0
100
AcDbBlockEnd
  0
BLOCK
  5
114
330
113
100
AcDbEntity
  8
0
100
AcDbBlockBegin
  2
SW_NOTE_0
 70
     0
 10
0.0
 20
0.0
 30
0.0
  3
SW_NOTE_0
  1

  0
MTEXT
  5
116
330
113
100
AcDbEntity
  8
NOTES
 62
     0
100
AcDbMText
 10
0.0
 20
0.3759780908
 30
0.0
 40
0.2916666667
 41
0.0
 71
     1
 72
     1
  1
FROST PRODUCTS LTD.
  7
SLDTEXTSTYLE0
 73
     1
 44
1.0
  0
MTEXT
  5
117
330
113
100
AcDbEntity
  8
NOTES
 62
     0
100
AcDbMText
 10
0.0
 20
-0.0495142709
 30
0.0
 40
0.2291666667
 41
0.0
 71
     1
 72
     1
  1
5280 JOHN LUCAS DRIVE, BURLINGTON, ON, L7L 5Z9
  7
SLDTEXTSTYLE0
 73
     1
 44
1.0
  0
ENDBLK
  5
115
330
113
100
AcDbEntity
  8
0
100
AcDbBlockEnd
  0
BLOCK
  5
11A
330
119
100
AcDbEntity
  8
0
100
AcDbBlockBegin
  2
SW_NOTE_0_1
 70
     0
 10
0.0
 20
0.0
 30
0.0
  3
SW_NOTE_0_1
  1

  0
MTEXT
  5
11D
330
119
100
AcDbEntity
  8
NOTES
 62
     0
100
AcDbMText
 10
0.0
 20
0.2381282771
 30
0.0
 40
0.184729064
 41
0.0
 71
     1
 72
     1
  1
PROPRIETARY AND CONFIDENTIAL
  7
SLDTEXTSTYLE2
 73
     1
 44
1.0
  0
MTEXT
  5
11F
330
119
100
AcDbEntity
  8
NOTES
 62
     0
100
AcDbMText
 10
0.0
 20
-0.0504364796
 30
0.0
 40
0.25
 41
0.0
 71
     1
 72
     1
  1
THE INFORMATION CONTAINED IN THIS DRAWING IS THE SOLE PROPERTY OF 
  7
SLDTEXTSTYLE3
 73
     1
 44
1.0
  0
MTEXT
  5
120
330
119
100
AcDbEntity
  8
NOTES
 62
     0
100
AcDbMText
 10
0.0
 20
-0.4231398941
 30
0.0
 40
0.25
 41
0.0
 71
     1
 72
     1
  1
FROST PRODUCTS LTD.  ANY REPRODUCTION IN PART OR AS A WHOLE WITHOUT 
  7
SLDTEXTSTYLE3
 73
     1
 44
1.0
  0
MTEXT
  5
121
330
119
100
AcDbEntity
  8
NOTES
 62
     0
100
AcDbMText
 10
0.0
 20
-0.7958433086
 30
0.0
 40
0.25
 41
0.0
 71
     1
 72
     1
  1
THE WRITTEN PERMISSION OF FROST PRODUCTS LTD. IS PROHIBITED.
  7
SLDTEXTSTYLE3
 73
     1
 44
1.0
  0
ENDBLK
  5
11B
330
119
100
AcDbEntity
  8
0
100
AcDbBlockEnd
  0
BLOCK
  5
1E3
330
1E2
100
AcDbEntity
  8
0
100
AcDbBlockBegin
  2
_Open90
 70
     0
 10
0.0
 20
0.0
 30
0.0
  3
_Open90
  1

  0
LINE
  5
1E5
330
1E2
100
AcDbEntity
  8
0
  6
ByBlock
 62
     0
370
    -2
100
AcDbLine
 10
-0.5
 20
0.5
 30
0.0
 11
0.0
 21
0.0
 31
0.0
  0
LINE
  5
1E6
330
1E2
100
AcDbEntity
  8
0
  6
ByBlock
 62
     0
370
    -2
100
AcDbLine
 10
0.0
 20
0.0
 30
0.0
 11
-0.5
 21
-0.5
 31
0.0
  0
LINE
  5
1E7
330
1E2
100
AcDbEntity
  8
0
  6
ByBlock
 62
     0
370
    -2
100
AcDbLine
 10
0.0
 20
0.0
 30
0.0
 11
-1.0
 21
0.0
 31
0.0
  0
ENDBLK
  5
1E4
330
1E2
100
AcDbEntity
  8
0
100
AcDbBlockEnd
  0
BLOCK
  5
1E9
330
1E8
100
AcDbEntity
  8
0
100
AcDbBlockBegin
  2
_D
 70
     0
 10
0.0
 20
0.0
 30
0.0
  3
_D
  1

  0
INSERT
  5
1EB
330
1E8
100
AcDbEntity
  8
DIMS
100
AcDbBlockReference
  2
_Open90
 10
17.9131351642
 20
10.8327532424
 30
0.0
 41
0.3
 42
0.3
 50
90.0
  0
INSERT
  5
1EC
330
1E8
100
AcDbEntity
  8
DIMS
100
AcDbBlockReference
  2
_Open90
 10
17.9131351642
 20
2.8785271661
 30
0.0
 41
0.3
 42
0.3
 50
270.0
  0
LINE
  5
1ED
330
1E8
100
AcDbEntity
  8
DIMS
100
AcDbLine
 10
21.641534442
 20
10.8327532424
 30
0.0
 11
17.5381351642
 21
10.8327532424
 31
0.0
  0
LINE
  5
1EE
330
1E8
100
AcDbEntity
  8
DIMS
100
AcDbLine
 10
17.9131351642
 20
10.8327532424
 30
0.0
 11
17.9131351642
 21
5.258743409
 31
0.0
  0
MTEXT
  5
1EF
330
1E8
100
AcDbEntity
  8
DIMS
100
AcDbMText
 10
2.9082665818
 20
5.1036653151
 30
0.0
 40
0.5
 41
0.0
 71
     1
 72
     1
  1
                                                                               48" [1220] Max. height for barrier free installation
  7
SLDTEXTSTYLE1
 73
     1
 44
1.0
  0
MTEXT
  5
1F0
330
1E8
100
AcDbEntity
  8
DIMS
100
AcDbMText
 10
17.8207740529
 20
2.7224152436
 30
0.0
 40
0.5
 41
0.0
 71
     1
 72
     1
  1
 
  7
SLDTEXTSTYLE1
 73
     1
 44
1.0
  0
ENDBLK
  5
1EA
330
1E8
100
AcDbEntity
  8
0
100
AcDbBlockEnd
  0
BLOCK
  5
1F4
330
1F3
100
AcDbEntity
  8
0
100
AcDbBlockBegin
  2
_D_1
 70
     0
 10
0.0
 20
0.0
 30
0.0
  3
_D_1
  1

  0
INSERT
  5
1F6
330
1F3
100
AcDbEntity
  8
DIMS
100
AcDbBlockReference
  2
_Open90
 10
29.1081361485
 20
9.2401028428
 30
-3.5511609252
 41
0.3
 42
0.3
 50
0.0
  0
INSERT
  5
1F7
330
1F3
100
AcDbEntity
  8
DIMS
100
AcDbBlockReference
  2
_Open90
 10
20.9081361485
 20
9.2401028428
 30
-3.5511609252
 41
0.3
 42
0.3
 50
180.0
  0
LINE
  5
1F8
330
1F3
100
AcDbEntity
  8
DIMS
100
AcDbLine
 10
27.2550720099
 20
9.2913875412
 30
0.0
 11
28.1404887048
 21
9.2913875412
 31
0.0
  0
LINE
  5
1F9
330
1F3
100
AcDbEntity
  8
DIMS
100
AcDbLine
 10
29.1081361485
 20
11.5661514638
 30
0.0
 11
29.1081361485
 21
8.8651028428
 31
0.0
  0
LINE
  5
1FA
330
1F3
100
AcDbEntity
  8
DIMS
100
AcDbLine
 10
20.9081361485
 20
11.5661514638
 30
0.0
 11
20.9081361485
 21
8.8651028428
 31
0.0
  0
LINE
  5
1FB
330
1F3
100
AcDbEntity
  8
DIMS
100
AcDbLine
 10
29.1081361485
 20
9.2401028428
 30
0.0
 11
28.4200025709
 21
9.2401028428
 31
0.0
  0
LINE
  5
1FC
330
1F3
100
AcDbEntity
  8
DIMS
100
AcDbLine
 10
20.9081361485
 20
9.2401028428
 30
0.0
 11
26.8123636624
 21
9.2401028428
 31
0.0
  0
MTEXT
  5
1FD
330
1F3
100
AcDbEntity
  8
DIMS
100
AcDbMText
 10
26.8123636624
 20
9.5207886016
 30
0.0
 40
0.5
 41
0.0
 71
     1
 72
     1
  1
8
  7
SLDTEXTSTYLE1
 73
     1
 44
1.0
  0
MTEXT
  5
1FE
330
1F3
100
AcDbEntity
  8
DIMS
100
AcDbMText
 10
27.5130581346
 20
9.8861011007
 30
0.0
 40
0.5
 41
0.0
 71
     1
 72
     1
  1
3
  7
SLDTEXTSTYLE1
 73
     1
 44
1.0
  0
MTEXT
  5
1FF
330
1F3
100
AcDbEntity
  8
DIMS
100
AcDbMText
 10
27.3283359119
 20
9.2249205221
 30
0.0
 40
0.5
 41
0.0
 71
     1
 72
     1
  1
16
  7
SLDTEXTSTYLE1
 73
     1
 44
1.0
  0
MTEXT
  5
200
330
1F3
100
AcDbEntity
  8
DIMS
100
AcDbMText
 10
28.2137526068
 20
9.5207886016
 30
0.0
 40
0.5
 41
0.0
 71
     1
 72
     1
  1
"
  7
SLDTEXTSTYLE1
 73
     1
 44
1.0
  0
ENDBLK
  5
1F5
330
1F3
100
AcDbEntity
  8
0
100
AcDbBlockEnd
  0
BLOCK
  5
226
330
225
100
AcDbEntity
  8
0
100
AcDbBlockBegin
  2
_D_2
 70
     0
 10
0.0
 20
0.0
 30
0.0
  3
_D_2
  1

  0
INSERT
  5
228
330
225
100
AcDbEntity
  8
DIMS
100
AcDbBlockReference
  2
_Open90
 10
44.6826809598
 20
22.2327532424
 30
0.0
 41
0.3
 42
0.3
 50
90.0
  0
INSERT
  5
229
330
225
100
AcDbEntity
  8
DIMS
100
AcDbBlockReference
  2
_Open90
 10
44.6826809598
 20
10.8327532424
 30
0.0
 41
0.3
 42
0.3
 50
270.0
  0
LINE
  5
22A
330
225
100
AcDbEntity
  8
DIMS
100
AcDbLine
 10
44.6910142985
 20
16.8126625674
 30
0.0
 11
45.206986548
 21
16.8126625674
 31
0.0
  0
LINE
  5
22B
330
225
100
AcDbEntity
  8
DIMS
100
AcDbLine
 10
43.7441104217
 20
22.2327532424
 30
0.0
 11
45.0576809598
 21
22.2327532424
 31
0.0
  0
LINE
  5
22C
330
225
100
AcDbEntity
  8
DIMS
100
AcDbLine
 10
43.7441104217
 20
10.8327532424
 30
0.0
 11
45.0576809598
 21
10.8327532424
 31
0.0
  0
LINE
  5
22D
330
225
100
AcDbEntity
  8
DIMS
100
AcDbLine
 10
44.6826809598
 20
22.2327532424
 30
0.0
 11
44.6826809598
 21
17.4152320223
 31
0.0
  0
LINE
  5
22E
330
225
100
AcDbEntity
  8
DIMS
100
AcDbLine
 10
44.6826809598
 20
10.8327532424
 30
0.0
 11
44.6826809598
 21
16.1075237157
 31
0.0
  0
MTEXT
  5
22F
330
225
100
AcDbEntity
  8
DIMS
100
AcDbMText
 10
43.8788615056
 20
17.0420636278
 30
0.0
 40
0.5
 41
0.0
 71
     1
 72
     1
  1
11
  7
SLDTEXTSTYLE1
 73
     1
 44
1.0
  0
MTEXT
  5
230
330
225
100
AcDbEntity
  8
DIMS
100
AcDbMText
 10
44.7642782005
 20
17.4073761268
 30
0.0
 40
0.5
 41
0.0
 71
     1
 72
     1
  1
3
  7
SLDTEXTSTYLE1
 73
     1
 44
1.0
  0
MTEXT
  5
231
330
225
100
AcDbEntity
  8
DIMS
100
AcDbMText
 10
44.7642782005
 20
16.7461955483
 30
0.0
 40
0.5
 41
0.0
 71
     1
 72
     1
  1
8
  7
SLDTEXTSTYLE1
 73
     1
 44
1.0
  0
MTEXT
  5
232
330
225
100
AcDbEntity
  8
DIMS
100
AcDbMText
 10
45.28025045
 20
17.0420636278
 30
0.0
 40
0.5
 41
0.0
 71
     1
 72
     1
  1
"
  7
SLDTEXTSTYLE1
 73
     1
 44
1.0
  0
ENDBLK
  5
227
330
225
100
AcDbEntity
  8
0
100
AcDbBlockEnd
  0
BLOCK
  5
256
330
255
100
AcDbEntity
  8
0
100
AcDbBlockBegin
  2
SW_NOTE_0_2
 70
     0
 10
0.0
 20
0.0
 30
0.0
  3
SW_NOTE_0_2
  1

  0
MTEXT
  5
258
330
255
100
AcDbEntity
  8
NOTES
 62
     0
100
AcDbMText
 10
0.0
 20
0.638671875
 30
0.0
 40
0.5
 41
0.0
 71
     1
 72
     1
  1
3D view 
  7
SLDTEXTSTYLE1
 73
     1
 44
1.0
  0
MTEXT
  5
259
330
255
100
AcDbEntity
  8
NOTES
 62
     0
100
AcDbMText
 10
0.0
 20
-0.3613281862
 30
0.0
 40
0.5
 41
0.0
 71
     1
 72
     1
  1
code 1192
  7
SLDTEXTSTYLE1
 73
     1
 44
1.0
  0
ENDBLK
  5
257
330
255
100
AcDbEntity
  8
0
100
AcDbBlockEnd
  0
BLOCK
  5
27D
330
27C
100
AcDbEntity
  8
0
100
AcDbBlockBegin
  2
_D_3
 70
     0
 10
0.0
 20
0.0
 30
0.0
  3
_D_3
  1

  0
INSERT
  5
27F
330
27C
100
AcDbEntity
  8
DIMS
100
AcDbBlockReference
  2
_Open90
 10
53.5804081081
 20
23.810431392
 30
3.5511609252
 41
0.3
 42
0.3
 50
180.0
  0
INSERT
  5
280
330
27C
100
AcDbEntity
  8
DIMS
100
AcDbBlockReference
  2
_Open90
 10
59.7204081081
 20
23.810431392
 30
3.5511609252
 41
0.3
 42
0.3
 50
360.0
  0
LINE
  5
281
330
27C
100
AcDbEntity
  8
DIMS
100
AcDbLine
 10
56.7320657154
 20
23.8617160904
 30
0.0
 11
57.2480379648
 21
23.8617160904
 31
0.0
  0
LINE
  5
282
330
27C
100
AcDbEntity
  8
DIMS
100
AcDbLine
 10
53.5804081081
 20
21.0994199091
 30
0.0
 11
53.5804081081
 21
24.185431392
 31
0.0
  0
LINE
  5
283
330
27C
100
AcDbEntity
  8
DIMS
100
AcDbLine
 10
59.7204081081
 20
21.0994199091
 30
0.0
 11
59.7204081081
 21
24.185431392
 31
0.0
  0
LINE
  5
284
330
27C
100
AcDbEntity
  8
DIMS
100
AcDbLine
 10
53.5804081081
 20
23.810431392
 30
0.0
 11
56.2893573679
 21
23.810431392
 31
0.0
  0
LINE
  5
285
330
27C
100
AcDbEntity
  8
DIMS
100
AcDbLine
 10
59.7204081081
 20
23.810431392
 30
0.0
 11
57.5275519042
 21
23.810431392
 31
0.0
  0
MTEXT
  5
286
330
27C
100
AcDbEntity
  8
DIMS
100
AcDbMText
 10
56.2893573679
 20
24.0911171508
 30
0.0
 40
0.5
 41
0.0
 71
     1
 72
     1
  1
6
  7
SLDTEXTSTYLE1
 73
     1
 44
1.0
  0
MTEXT
  5
287
330
27C
100
AcDbEntity
  8
DIMS
100
AcDbMText
 10
56.8053296174
 20
24.4564296499
 30
0.0
 40
0.5
 41
0.0
 71
     1
 72
     1
  1
1
  7
SLDTEXTSTYLE1
 73
     1
 44
1.0
  0
MTEXT
  5
288
330
27C
100
AcDbEntity
  8
DIMS
100
AcDbMText
 10
56.8053296174
 20
23.7952490713
 30
0.0
 40
0.5
 41
0.0
 71
     1
 72
     1
  1
8
  7
SLDTEXTSTYLE1
 73
     1
 44
1.0
  0
MTEXT
  5
289
330
27C
100
AcDbEntity
  8
DIMS
100
AcDbMText
 10
57.3213018668
 20
24.0911171508
 30
0.0
 40
0.5
 41
0.0
 71
     1
 72
     1
  1
"
  7
SLDTEXTSTYLE1
 73
     1
 44
1.0
  0
ENDBLK
  5
27E
330
27C
100
AcDbEntity
  8
0
100
AcDbBlockEnd
  0
BLOCK
  5
28C
330
28B
100
AcDbEntity
  8
0
100
AcDbBlockBegin
  2
_D_4
 70
     0
 10
0.0
 20
0.0
 30
0.0
  3
_D_4
  1

  0
INSERT
  5
28E
330
28B
100
AcDbEntity
  8
DIMS
100
AcDbBlockReference
  2
_Open90
 10
50.9727299585
 20
20.9327532424
 30
3.5511609252
 41
0.3
 42
0.3
 50
90.0
  0
INSERT
  5
28F
330
28B
100
AcDbEntity
  8
DIMS
100
AcDbBlockReference
  2
_Open90
 10
50.9727299585
 20
12.1327532424
 30
3.5511609252
 41
0.3
 42
0.3
 50
270.0
  0
LINE
  5
290
330
28B
100
AcDbEntity
  8
DIMS
100
AcDbLine
 10
50.6116188517
 20
15.3724240247
 30
0.0
 11
51.4970355466
 21
15.3724240247
 31
0.0
  0
LINE
  5
291
330
28B
100
AcDbEntity
  8
DIMS
100
AcDbLine
 10
53.4137414414
 20
20.9327532424
 30
0.0
 11
50.5977299585
 21
20.9327532424
 31
0.0
  0
LINE
  5
292
330
28B
100
AcDbEntity
  8
DIMS
100
AcDbLine
 10
53.4137414414
 20
12.1327532424
 30
0.0
 11
50.5977299585
 21
12.1327532424
 31
0.0
  0
LINE
  5
293
330
28B
100
AcDbEntity
  8
DIMS
100
AcDbLine
 10
50.9727299585
 20
20.9327532424
 30
0.0
 11
50.9727299585
 21
15.9749934796
 31
0.0
  0
LINE
  5
294
330
28B
100
AcDbEntity
  8
DIMS
100
AcDbLine
 10
50.9727299585
 20
12.1327532424
 30
0.0
 11
50.9727299585
 21
14.667285173
 31
0.0
  0
MTEXT
  5
295
330
28B
100
AcDbEntity
  8
DIMS
100
AcDbMText
 10
50.1689105042
 20
15.6018250851
 30
0.0
 40
0.5
 41
0.0
 71
     1
 72
     1
  1
8
  7
SLDTEXTSTYLE1
 73
     1
 44
1.0
  0
MTEXT
  5
296
330
28B
100
AcDbEntity
  8
DIMS
100
AcDbMText
 10
50.6848827537
 20
15.9671375842
 30
0.0
 40
0.5
 41
0.0
 71
     1
 72
     1
  1
13
  7
SLDTEXTSTYLE1
 73
     1
 44
1.0
  0
MTEXT
  5
297
330
28B
100
AcDbEntity
  8
DIMS
100
AcDbMText
 10
50.6848827537
 20
15.3059570056
 30
0.0
 40
0.5
 41
0.0
 71
     1
 72
     1
  1
16
  7
SLDTEXTSTYLE1
 73
     1
 44
1.0
  0
MTEXT
  5
298
330
28B
100
AcDbEntity
  8
DIMS
100
AcDbMText
 10
51.5702994486
 20
15.6018250851
 30
0.0
 40
0.5
 41
0.0
 71
     1
 72
     1
  1
"
  7
SLDTEXTSTYLE1
 73
     1
 44
1.0
  0
ENDBLK
  5
28D
330
28B
100
AcDbEntity
  8
0
100
AcDbBlockEnd
  0
BLOCK
  5
29C
330
29B
100
AcDbEntity
  8
0
100
AcDbBlockBegin
  2
_D_5
 70
     0
 10
0.0
 20
0.0
 30
0.0
  3
_D_5
  1

  0
INSERT
  5
29E
330
29B
100
AcDbEntity
  8
DIMS
100
AcDbBlockReference
  2
_Open90
 10
53.5804081081
 20
23.1017699747
 30
3.5511609252
 41
0.3
 42
0.3
 50
0.0
  0
INSERT
  5
29F
330
29B
100
AcDbEntity
  8
DIMS
100
AcDbBlockReference
  2
_Open90
 10
53.6904081081
 20
23.1017699747
 30
3.5511609252
 41
0.3
 42
0.3
 50
180.0
  0
LINE
  5
2A0
330
29B
100
AcDbEntity
  8
DIMS
100
AcDbLine
 10
54.3450511714
 20
23.1530546731
 30
0.0
 11
54.8610234208
 21
23.1530546731
 31
0.0
  0
LINE
  5
2A1
330
29B
100
AcDbEntity
  8
DIMS
100
AcDbLine
 10
53.5804081081
 20
21.0994199091
 30
0.0
 11
53.5804081081
 21
23.4767699747
 31
0.0
  0
LINE
  5
2A2
330
29B
100
AcDbEntity
  8
DIMS
100
AcDbLine
 10
53.6904081081
 20
16.2994199091
 30
0.0
 11
53.6904081081
 21
23.4767699747
 31
0.0
  0
LINE
  5
2A3
330
29B
100
AcDbEntity
  8
DIMS
100
AcDbLine
 10
53.5804081081
 20
23.1017699747
 30
0.0
 11
53.2804081081
 21
23.1017699747
 31
0.0
  0
LINE
  5
2A4
330
29B
100
AcDbEntity
  8
DIMS
100
AcDbLine
 10
53.6904081081
 20
23.1017699747
 30
0.0
 11
54.2717872694
 21
23.1017699747
 31
0.0
  0
MTEXT
  5
2A5
330
29B
100
AcDbEntity
  8
DIMS
100
AcDbMText
 10
54.4183150734
 20
23.7477682326
 30
0.0
 40
0.5
 41
0.0
 71
     1
 72
     1
  1
1
  7
SLDTEXTSTYLE1
 73
     1
 44
1.0
  0
MTEXT
  5
2A6
330
29B
100
AcDbEntity
  8
DIMS
100
AcDbMText
 10
54.4183150734
 20
23.086587654
 30
0.0
 40
0.5
 41
0.0
 71
     1
 72
     1
  1
8
  7
SLDTEXTSTYLE1
 73
     1
 44
1.0
  0
MTEXT
  5
2A7
330
29B
100
AcDbEntity
  8
DIMS
100
AcDbMText
 10
54.9342873228
 20
23.3824557335
 30
0.0
 40
0.5
 41
0.0
 71
     1
 72
     1
  1
"
  7
SLDTEXTSTYLE1
 73
     1
 44
1.0
  0
ENDBLK
  5
29D
330
29B
100
AcDbEntity
  8
0
100
AcDbBlockEnd
  0
BLOCK
  5
2AA
330
2A9
100
AcDbEntity
  8
0
100
AcDbBlockBegin
  2
_D_6
 70
     0
 10
0.0
 20
0.0
 30
0.0
  3
_D_6
  1

  0
INSERT
  5
2AC
330
2A9
100
AcDbEntity
  8
DIMS
100
AcDbBlockReference
  2
_Open90
 10
50.9727299585
 20
12.1327532424
 30
3.5511609252
 41
0.3
 42
0.3
 50
90.0
  0
INSERT
  5
2AD
330
2A9
100
AcDbEntity
  8
DIMS
100
AcDbBlockReference
  2
_Open90
 10
50.9727299585
 20
10.8327532424
 30
3.5511609252
 41
0.3
 42
0.3
 50
270.0
  0
LINE
  5
2AE
330
2A9
100
AcDbEntity
  8
DIMS
100
AcDbLine
 10
49.5077993975
 20
10.0000489585
 30
0.0
 11
50.3932160924
 21
10.0000489585
 31
0.0
  0
LINE
  5
2AF
330
2A9
100
AcDbEntity
  8
DIMS
100
AcDbLine
 10
53.4137414414
 20
12.1327532424
 30
0.0
 11
50.5977299585
 21
12.1327532424
 31
0.0
  0
LINE
  5
2B0
330
2A9
100
AcDbEntity
  8
DIMS
100
AcDbLine
 10
53.2838064015
 20
10.8327532424
 30
0.0
 11
50.5977299585
 21
10.8327532424
 31
0.0
  0
LINE
  5
2B1
330
2A9
100
AcDbEntity
  8
DIMS
100
AcDbLine
 10
50.6727299585
 20
9.9487642601
 30
0.0
 11
50.9727299585
 21
9.9487642601
 31
0.0
  0
LINE
  5
2B2
330
2A9
100
AcDbEntity
  8
DIMS
100
AcDbLine
 10
50.9727299585
 20
9.9487642601
 30
0.0
 11
50.9727299585
 21
10.8327532424
 31
0.0
  0
LINE
  5
2B3
330
2A9
100
AcDbEntity
  8
DIMS
100
AcDbLine
 10
50.9727299585
 20
12.1327532424
 30
0.0
 11
50.9727299585
 21
10.8327532424
 31
0.0
  0
MTEXT
  5
2B4
330
2A9
100
AcDbEntity
  8
DIMS
100
AcDbMText
 10
49.06509105
 20
10.229450019
 30
0.0
 40
0.5
 41
0.0
 71
     1
 72
     1
  1
1
  7
SLDTEXTSTYLE1
 73
     1
 44
1.0
  0
MTEXT
  5
2B5
330
2A9
100
AcDbEntity
  8
DIMS
100
AcDbMText
 10
49.7657855222
 20
10.594762518
 30
0.0
 40
0.5
 41
0.0
 71
     1
 72
     1
  1
5
  7
SLDTEXTSTYLE1
 73
     1
 44
1.0
  0
MTEXT
  5
2B6
330
2A9
100
AcDbEntity
  8
DIMS
100
AcDbMText
 10
49.5810632995
 20
9.9335819394
 30
0.0
 40
0.5
 41
0.0
 71
     1
 72
     1
  1
16
  7
SLDTEXTSTYLE1
 73
     1
 44
1.0
  0
MTEXT
  5
2B7
330
2A9
100
AcDbEntity
  8
DIMS
100
AcDbMText
 10
50.4664799944
 20
10.229450019
 30
0.0
 40
0.5
 41
0.0
 71
     1
 72
     1
  1
"
  7
SLDTEXTSTYLE1
 73
     1
 44
1.0
  0
ENDBLK
  5
2AB
330
2A9
100
AcDbEntity
  8
0
100
AcDbBlockEnd
  0
BLOCK
  5
2CD
330
2CC
100
AcDbEntity
  8
0
100
AcDbBlockBegin
  2
_D_7
 70
     0
 10
0.0
 20
0.0
 30
0.0
  3
_D_7
  1

  0
INSERT
  5
2CF
330
2CC
100
AcDbEntity
  8
DIMS
100
AcDbBlockReference
  2
_Open90
 10
29.5047119359
 20
24.9187591551
 30
5.707486125
 41
0.3
 42
0.3
 50
270.0
  0
INSERT
  5
2D0
330
2CC
100
AcDbEntity
  8
DIMS
100
AcDbBlockReference
  2
_Open90
 10
29.5047119359
 20
32.0187591551
 30
5.707486125
 41
0.3
 42
0.3
 50
90.0
  0
LINE
  5
2D1
330
2CC
100
AcDbEntity
  8
DIMS
100
AcDbLine
 10
29.3283230152
 20
26.1638049205
 30
0.0
 11
29.8442952647
 21
26.1638049205
 31
0.0
  0
LINE
  5
2D2
330
2CC
100
AcDbEntity
  8
DIMS
100
AcDbLine
 10
25.1748028152
 20
24.9187591551
 30
0.0
 11
29.8797119359
 21
24.9187591551
 31
0.0
  0
LINE
  5
2D3
330
2CC
100
AcDbEntity
  8
DIMS
100
AcDbLine
 10
28.374737855
 20
32.0187591551
 30
0.0
 11
29.8797119359
 21
32.0187591551
 31
0.0
  0
LINE
  5
2D4
330
2CC
100
AcDbEntity
  8
DIMS
100
AcDbLine
 10
29.5047119359
 20
24.9187591551
 30
0.0
 11
29.5047119359
 21
25.4586660688
 31
0.0
  0
LINE
  5
2D5
330
2CC
100
AcDbEntity
  8
DIMS
100
AcDbLine
 10
29.5047119359
 20
32.0187591551
 30
0.0
 11
29.5047119359
 21
26.7663743754
 31
0.0
  0
MTEXT
  5
2D6
330
2CC
100
AcDbEntity
  8
DIMS
100
AcDbMText
 10
28.8856146678
 20
26.3932059809
 30
0.0
 40
0.5
 41
0.0
 71
     1
 72
     1
  1
7
  7
SLDTEXTSTYLE1
 73
     1
 44
1.0
  0
MTEXT
  5
2D7
330
2CC
100
AcDbEntity
  8
DIMS
100
AcDbMText
 10
29.4015869172
 20
26.7585184799
 30
0.0
 40
0.5
 41
0.0
 71
     1
 72
     1
  1
1
  7
SLDTEXTSTYLE1
 73
     1
 44
1.0
  0
MTEXT
  5
2D8
330
2CC
100
AcDbEntity
  8
DIMS
100
AcDbMText
 10
29.4015869172
 20
26.0973379014
 30
0.0
 40
0.5
 41
0.0
 71
     1
 72
     1
  1
8
  7
SLDTEXTSTYLE1
 73
     1
 44
1.0
  0
MTEXT
  5
2D9
330
2CC
100
AcDbEntity
  8
DIMS
100
AcDbMText
 10
29.9175591666
 20
26.3932059809
 30
0.0
 40
0.5
 41
0.0
 71
     1
 72
     1
  1
"
  7
SLDTEXTSTYLE1
 73
     1
 44
1.0
  0
ENDBLK
  5
2CE
330
2CC
100
AcDbEntity
  8
0
100
AcDbBlockEnd
  0
ENDSEC
  0
SECTION
  2
ENTITIES
  0
LINE
  5
7A
330
1F
100
AcDbEntity
  8
TITLE
370
    35
100
AcDbLine
 10
72.5182230965
 20
1.4876117645
 30
0.0
 11
89.4999864512
 21
1.4876117645
 31
0.0
  0
LINE
  5
7B
330
1F
100
AcDbEntity
  8
TITLE
370
    35
100
AcDbLine
 10
89.4999317442
 20
5.4753603936
 30
0.0
 11
79.3105350723
 21
5.4753603936
 31
0.0
  0
LINE
  5
7C
330
1F
100
AcDbEntity
  8
TITLE
  6
SLD-Solid
370
    18
100
AcDbLine
 10
0.5
 20
0.5
 30
0.0
 11
0.5
 21
35.5
 31
0.0
  0
LINE
  5
7D
330
1F
100
AcDbEntity
  8
TITLE
  6
SLD-Solid
370
    18
100
AcDbLine
 10
0.5
 20
35.5
 30
0.0
 11
89.5
 21
35.5
 31
0.0
  0
LINE
  5
7E
330
1F
100
AcDbEntity
  8
TITLE
370
    35
100
AcDbLine
 10
72.5182230965
 20
2.5427877231
 30
0.0
 11
65.5059791203
 21
2.5427877231
 31
0.0
  0
LINE
  5
7F
330
1F
100
AcDbEntity
  8
TITLE
370
    35
100
AcDbLine
 10
72.5182230965
 20
1.4876117645
 30
0.0
 11
65.5059791203
 21
1.4876117645
 31
0.0
  0
LINE
  5
80
330
1F
100
AcDbEntity
  8
TITLE
  6
SLD-Solid
370
    18
100
AcDbLine
 10
89.5
 20
35.5
 30
0.0
 11
89.5
 21
0.5
 31
0.0
  0
LINE
  5
81
330
1F
100
AcDbEntity
  8
TITLE
  6
SLD-Solid
370
    18
100
AcDbLine
 10
89.5
 20
0.5
 30
0.0
 11
0.5
 21
0.5
 31
0.0
  0
LINE
  5
82
330
1F
100
AcDbEntity
  8
TITLE
370
    35
100
AcDbLine
 10
72.5182230965
 20
1.4876117645
 30
0.0
 11
72.5182230965
 21
3.5979636817
 31
0.0
  0
LINE
  5
83
330
1F
100
AcDbEntity
  8
TITLE
370
    35
100
AcDbLine
 10
65.5059791203
 20
3.5979636817
 30
0.0
 11
65.5059791203
 21
0.5
 31
0.0
  0
LINE
  5
84
330
1F
100
AcDbEntity
  8
TITLE
370
    35
100
AcDbLine
 10
65.5059791203
 20
0.5
 30
0.0
 11
89.5
 21
0.5
 31
0.0
  0
LINE
  5
85
330
1F
100
AcDbEntity
  8
TITLE
370
    35
100
AcDbLine
 10
89.4999317442
 20
5.4753603936
 30
0.0
 11
89.5
 21
0.5
 31
0.0
  0
LINE
  5
86
330
1F
100
AcDbEntity
  8
TITLE
  6
SLD-Solid
370
    18
100
AcDbLine
 10
0.4999606299
 20
18.0
 30
0.0
 11
0.5000393701
 21
18.0
 31
0.0
  0
LINE
  5
87
330
1F
100
AcDbEntity
  8
TITLE
370
    35
100
AcDbLine
 10
72.5182230965
 20
3.5979636817
 30
0.0
 11
65.5059791203
 21
3.5979636817
 31
0.0
  0
LINE
  5
88
330
1F
100
AcDbEntity
  8
TITLE
370
    35
100
AcDbLine
 10
72.5182230965
 20
3.5979636817
 30
0.0
 11
89.4997615643
 21
3.5979648343
 31
0.0
  0
LINE
  5
89
330
1F
100
AcDbEntity
  8
TITLE
370
    35
100
AcDbLine
 10
79.3105350723
 20
5.4753603936
 30
0.0
 11
79.3105350723
 21
0.4636772425
 31
0.0
  0
LINE
  5
8A
330
1F
100
AcDbEntity
  8
TITLE
  6
SLD-Solid
370
    18
100
AcDbLine
 10
45.0
 20
35.5000393701
 30
0.0
 11
45.0
 21
35.4999606299
 31
0.0
  0
LINE
  5
8B
330
1F
100
AcDbEntity
  8
TITLE
  6
SLD-Solid
370
    18
100
AcDbLine
 10
89.5000393701
 20
18.0
 30
0.0
 11
89.4999606299
 21
18.0
 31
0.0
  0
LINE
  5
8C
330
1F
100
AcDbEntity
  8
TITLE
  6
SLD-Solid
370
    18
100
AcDbLine
 10
45.0
 20
0.4999606299
 30
0.0
 11
45.0
 21
0.5000393701
 31
0.0
  0
LINE
  5
8D
330
1F
100
AcDbEntity
  8
TITLE
  6
SLD-Solid
370
    18
100
AcDbLine
 10
0.5
 20
2.2519685039
 30
0.0
 11
0.1653543307
 21
2.2519685039
 31
0.0
  0
LINE
  5
8E
330
1F
100
AcDbEntity
  8
TITLE
  6
SLD-Solid
370
    18
100
AcDbLine
 10
89.5
 20
2.2519685039
 30
0.0
 11
89.8346456693
 21
2.2519685039
 31
0.0
  0
LINE
  5
8F
330
1F
100
AcDbEntity
  8
TITLE
  6
SLD-Solid
370
    18
100
AcDbLine
 10
0.5
 20
4.2204724409
 30
0.0
 11
0.1653543307
 21
4.2204724409
 31
0.0
  0
LINE
  5
90
330
1F
100
AcDbEntity
  8
TITLE
  6
SLD-Solid
370
    18
100
AcDbLine
 10
89.5
 20
4.2204724409
 30
0.0
 11
89.8346456693
 21
4.2204724409
 31
0.0
  0
LINE
  5
91
330
1F
100
AcDbEntity
  8
TITLE
  6
SLD-Solid
370
    18
100
AcDbLine
 10
0.5
 20
6.188976378
 30
0.0
 11
0.1653543307
 21
6.188976378
 31
0.0
  0
LINE
  5
92
330
1F
100
AcDbEntity
  8
TITLE
  6
SLD-Solid
370
    18
100
AcDbLine
 10
89.5
 20
6.188976378
 30
0.0
 11
89.8346456693
 21
6.188976378
 31
0.0
  0
LINE
  5
93
330
1F
100
AcDbEntity
  8
TITLE
  6
SLD-Solid
370
    18
100
AcDbLine
 10
0.5
 20
8.157480315
 30
0.0
 11
0.1653543307
 21
8.157480315
 31
0.0
  0
LINE
  5
94
330
1F
100
AcDbEntity
  8
TITLE
  6
SLD-Solid
370
    18
100
AcDbLine
 10
89.5
 20
8.157480315
 30
0.0
 11
89.8346456693
 21
8.157480315
 31
0.0
  0
LINE
  5
95
330
1F
100
AcDbEntity
  8
TITLE
  6
SLD-Solid
370
    18
100
AcDbLine
 10
0.5
 20
10.125984252
 30
0.0
 11
0.1653543307
 21
10.125984252
 31
0.0
  0
LINE
  5
96
330
1F
100
AcDbEntity
  8
TITLE
  6
SLD-Solid
370
    18
100
AcDbLine
 10
89.5
 20
10.125984252
 30
0.0
 11
89.8346456693
 21
10.125984252
 31
0.0
  0
LINE
  5
97
330
1F
100
AcDbEntity
  8
TITLE
  6
SLD-Solid
370
    18
100
AcDbLine
 10
0.5
 20
12.094488189
 30
0.0
 11
0.1653543307
 21
12.094488189
 31
0.0
  0
LINE
  5
98
330
1F
100
AcDbEntity
  8
TITLE
  6
SLD-Solid
370
    18
100
AcDbLine
 10
89.5
 20
12.094488189
 30
0.0
 11
89.8346456693
 21
12.094488189
 31
0.0
  0
LINE
  5
99
330
1F
100
AcDbEntity
  8
TITLE
  6
SLD-Solid
370
    18
100
AcDbLine
 10
0.5
 20
14.062992126
 30
0.0
 11
0.1653543307
 21
14.062992126
 31
0.0
  0
LINE
  5
9A
330
1F
100
AcDbEntity
  8
TITLE
  6
SLD-Solid
370
    18
100
AcDbLine
 10
89.5
 20
14.062992126
 30
0.0
 11
89.8346456693
 21
14.062992126
 31
0.0
  0
LINE
  5
9B
330
1F
100
AcDbEntity
  8
TITLE
  6
SLD-Solid
370
    18
100
AcDbLine
 10
0.5
 20
16.031496063
 30
0.0
 11
0.1653543307
 21
16.031496063
 31
0.0
  0
LINE
  5
9C
330
1F
100
AcDbEntity
  8
TITLE
  6
SLD-Solid
370
    18
100
AcDbLine
 10
89.5
 20
16.031496063
 30
0.0
 11
89.8346456693
 21
16.031496063
 31
0.0
  0
LINE
  5
9D
330
1F
100
AcDbEntity
  8
TITLE
  6
SLD-Solid
370
    18
100
AcDbLine
 10
0.5
 20
18.0
 30
0.0
 11
0.1653543307
 21
18.0
 31
0.0
  0
LINE
  5
9E
330
1F
100
AcDbEntity
  8
TITLE
  6
SLD-Solid
370
    18
100
AcDbLine
 10
89.5
 20
18.0
 30
0.0
 11
89.8346456693
 21
18.0
 31
0.0
  0
LINE
  5
9F
330
1F
100
AcDbEntity
  8
TITLE
  6
SLD-Solid
370
    18
100
AcDbLine
 10
0.5
 20
19.968503937
 30
0.0
 11
0.1653543307
 21
19.968503937
 31
0.0
  0
LINE
  5
A0
330
1F
100
AcDbEntity
  8
TITLE
  6
SLD-Solid
370
    18
100
AcDbLine
 10
89.5
 20
19.968503937
 30
0.0
 11
89.8346456693
 21
19.968503937
 31
0.0
  0
LINE
  5
A1
330
1F
100
AcDbEntity
  8
TITLE
  6
SLD-Solid
370
    18
100
AcDbLine
 10
0.5
 20
21.937007874
 30
0.0
 11
0.1653543307
 21
21.937007874
 31
0.0
  0
LINE
  5
A2
330
1F
100
AcDbEntity
  8
TITLE
  6
SLD-Solid
370
    18
100
AcDbLine
 10
89.5
 20
21.937007874
 30
0.0
 11
89.8346456693
 21
21.937007874
 31
0.0
  0
LINE
  5
A3
330
1F
100
AcDbEntity
  8
TITLE
  6
SLD-Solid
370
    18
100
AcDbLine
 10
0.5
 20
23.905511811
 30
0.0
 11
0.1653543307
 21
23.905511811
 31
0.0
  0
LINE
  5
A4
330
1F
100
AcDbEntity
  8
TITLE
  6
SLD-Solid
370
    18
100
AcDbLine
 10
89.5
 20
23.905511811
 30
0.0
 11
89.8346456693
 21
23.905511811
 31
0.0
  0
LINE
  5
A5
330
1F
100
AcDbEntity
  8
TITLE
  6
SLD-Solid
370
    18
100
AcDbLine
 10
0.5
 20
25.874015748
 30
0.0
 11
0.1653543307
 21
25.874015748
 31
0.0
  0
LINE
  5
A6
330
1F
100
AcDbEntity
  8
TITLE
  6
SLD-Solid
370
    18
100
AcDbLine
 10
89.5
 20
25.874015748
 30
0.0
 11
89.8346456693
 21
25.874015748
 31
0.0
  0
LINE
  5
A7
330
1F
100
AcDbEntity
  8
TITLE
  6
SLD-Solid
370
    18
100
AcDbLine
 10
0.5
 20
27.842519685
 30
0.0
 11
0.1653543307
 21
27.842519685
 31
0.0
  0
LINE
  5
A8
330
1F
100
AcDbEntity
  8
TITLE
  6
SLD-Solid
370
    18
100
AcDbLine
 10
89.5
 20
27.842519685
 30
0.0
 11
89.8346456693
 21
27.842519685
 31
0.0
  0
LINE
  5
A9
330
1F
100
AcDbEntity
  8
TITLE
  6
SLD-Solid
370
    18
100
AcDbLine
 10
0.5
 20
29.811023622
 30
0.0
 11
0.1653543307
 21
29.811023622
 31
0.0
  0
LINE
  5
AA
330
1F
100
AcDbEntity
  8
TITLE
  6
SLD-Solid
370
    18
100
AcDbLine
 10
89.5
 20
29.811023622
 30
0.0
 11
89.8346456693
 21
29.811023622
 31
0.0
  0
LINE
  5
AB
330
1F
100
AcDbEntity
  8
TITLE
  6
SLD-Solid
370
    18
100
AcDbLine
 10
0.5
 20
31.7795275591
 30
0.0
 11
0.1653543307
 21
31.7795275591
 31
0.0
  0
LINE
  5
AC
330
1F
100
AcDbEntity
  8
TITLE
  6
SLD-Solid
370
    18
100
AcDbLine
 10
89.5
 20
31.7795275591
 30
0.0
 11
89.8346456693
 21
31.7795275591
 31
0.0
  0
LINE
  5
AD
330
1F
100
AcDbEntity
  8
TITLE
  6
SLD-Solid
370
    18
100
AcDbLine
 10
0.5
 20
33.7480314961
 30
0.0
 11
0.1653543307
 21
33.7480314961
 31
0.0
  0
LINE
  5
AE
330
1F
100
AcDbEntity
  8
TITLE
  6
SLD-Solid
370
    18
100
AcDbLine
 10
89.5
 20
33.7480314961
 30
0.0
 11
89.8346456693
 21
33.7480314961
 31
0.0
  0
LINE
  5
AF
330
1F
100
AcDbEntity
  8
TITLE
  6
SLD-Solid
370
    18
100
AcDbLine
 10
1.6929133858
 20
35.5
 30
0.0
 11
1.6929133858
 21
35.8346456693
 31
0.0
  0
LINE
  5
B0
330
1F
100
AcDbEntity
  8
TITLE
  6
SLD-Solid
370
    18
100
AcDbLine
 10
1.6929133858
 20
0.5
 30
0.0
 11
1.6929133858
 21
0.1653543307
 31
0.0
  0
LINE
  5
B1
330
1F
100
AcDbEntity
  8
TITLE
  6
SLD-Solid
370
    18
100
AcDbLine
 10
3.6614173228
 20
35.5
 30
0.0
 11
3.6614173228
 21
35.8346456693
 31
0.0
  0
LINE
  5
B2
330
1F
100
AcDbEntity
  8
TITLE
  6
SLD-Solid
370
    18
100
AcDbLine
 10
3.6614173228
 20
0.5
 30
0.0
 11
3.6614173228
 21
0.1653543307
 31
0.0
  0
LINE
  5
B3
330
1F
100
AcDbEntity
  8
TITLE
  6
SLD-Solid
370
    18
100
AcDbLine
 10
5.6299212598
 20
35.5
 30
0.0
 11
5.6299212598
 21
35.8346456693
 31
0.0
  0
LINE
  5
B4
330
1F
100
AcDbEntity
  8
TITLE
  6
SLD-Solid
370
    18
100
AcDbLine
 10
5.6299212598
 20
0.5
 30
0.0
 11
5.6299212598
 21
0.1653543307
 31
0.0
  0
LINE
  5
B5
330
1F
100
AcDbEntity
  8
TITLE
  6
SLD-Solid
370
    18
100
AcDbLine
 10
7.5984251969
 20
35.5
 30
0.0
 11
7.5984251969
 21
35.8346456693
 31
0.0
  0
LINE
  5
B6
330
1F
100
AcDbEntity
  8
TITLE
  6
SLD-Solid
370
    18
100
AcDbLine
 10
7.5984251969
 20
0.5
 30
0.0
 11
7.5984251969
 21
0.1653543307
 31
0.0
  0
LINE
  5
B7
330
1F
100
AcDbEntity
  8
TITLE
  6
SLD-Solid
370
    18
100
AcDbLine
 10
9.5669291339
 20
35.5
 30
0.0
 11
9.5669291339
 21
35.8346456693
 31
0.0
  0
LINE
  5
B8
330
1F
100
AcDbEntity
  8
TITLE
  6
SLD-Solid
370
    18
100
AcDbLine
 10
9.5669291339
 20
0.5
 30
0.0
 11
9.5669291339
 21
0.1653543307
 31
0.0
  0
LINE
  5
B9
330
1F
100
AcDbEntity
  8
TITLE
  6
SLD-Solid
370
    18
100
AcDbLine
 10
11.5354330709
 20
35.5
 30
0.0
 11
11.5354330709
 21
35.8346456693
 31
0.0
  0
LINE
  5
BA
330
1F
100
AcDbEntity
  8
TITLE
  6
SLD-Solid
370
    18
100
AcDbLine
 10
11.5354330709
 20
0.5
 30
0.0
 11
11.5354330709
 21
0.1653543307
 31
0.0
  0
LINE
  5
BB
330
1F
100
AcDbEntity
  8
TITLE
  6
SLD-Solid
370
    18
100
AcDbLine
 10
13.5039370079
 20
35.5
 30
0.0
 11
13.5039370079
 21
35.8346456693
 31
0.0
  0
LINE
  5
BC
330
1F
100
AcDbEntity
  8
TITLE
  6
SLD-Solid
370
    18
100
AcDbLine
 10
13.5039370079
 20
0.5
 30
0.0
 11
13.5039370079
 21
0.1653543307
 31
0.0
  0
LINE
  5
BD
330
1F
100
AcDbEntity
  8
TITLE
  6
SLD-Solid
370
    18
100
AcDbLine
 10
15.4724409449
 20
35.5
 30
0.0
 11
15.4724409449
 21
35.8346456693
 31
0.0
  0
LINE
  5
BE
330
1F
100
AcDbEntity
  8
TITLE
  6
SLD-Solid
370
    18
100
AcDbLine
 10
15.4724409449
 20
0.5
 30
0.0
 11
15.4724409449
 21
0.1653543307
 31
0.0
  0
LINE
  5
BF
330
1F
100
AcDbEntity
  8
TITLE
  6
SLD-Solid
370
    18
100
AcDbLine
 10
17.4409448819
 20
35.5
 30
0.0
 11
17.4409448819
 21
35.8346456693
 31
0.0
  0
LINE
  5
C0
330
1F
100
AcDbEntity
  8
TITLE
  6
SLD-Solid
370
    18
100
AcDbLine
 10
17.4409448819
 20
0.5
 30
0.0
 11
17.4409448819
 21
0.1653543307
 31
0.0
  0
LINE
  5
C1
330
1F
100
AcDbEntity
  8
TITLE
  6
SLD-Solid
370
    18
100
AcDbLine
 10
19.4094488189
 20
35.5
 30
0.0
 11
19.4094488189
 21
35.8346456693
 31
0.0
  0
LINE
  5
C2
330
1F
100
AcDbEntity
  8
TITLE
  6
SLD-Solid
370
    18
100
AcDbLine
 10
19.4094488189
 20
0.5
 30
0.0
 11
19.4094488189
 21
0.1653543307
 31
0.0
  0
LINE
  5
C3
330
1F
100
AcDbEntity
  8
TITLE
  6
SLD-Solid
370
    18
100
AcDbLine
 10
21.3779527559
 20
35.5
 30
0.0
 11
21.3779527559
 21
35.8346456693
 31
0.0
  0
LINE
  5
C4
330
1F
100
AcDbEntity
  8
TITLE
  6
SLD-Solid
370
    18
100
AcDbLine
 10
21.3779527559
 20
0.5
 30
0.0
 11
21.3779527559
 21
0.1653543307
 31
0.0
  0
LINE
  5
C5
330
1F
100
AcDbEntity
  8
TITLE
  6
SLD-Solid
370
    18
100
AcDbLine
 10
23.3464566929
 20
35.5
 30
0.0
 11
23.3464566929
 21
35.8346456693
 31
0.0
  0
LINE
  5
C6
330
1F
100
AcDbEntity
  8
TITLE
  6
SLD-Solid
370
    18
100
AcDbLine
 10
23.3464566929
 20
0.5
 30
0.0
 11
23.3464566929
 21
0.1653543307
 31
0.0
  0
LINE
  5
C7
330
1F
100
AcDbEntity
  8
TITLE
  6
SLD-Solid
370
    18
100
AcDbLine
 10
25.3149606299
 20
35.5
 30
0.0
 11
25.3149606299
 21
35.8346456693
 31
0.0
  0
LINE
  5
C8
330
1F
100
AcDbEntity
  8
TITLE
  6
SLD-Solid
370
    18
100
AcDbLine
 10
25.3149606299
 20
0.5
 30
0.0
 11
25.3149606299
 21
0.1653543307
 31
0.0
  0
LINE
  5
C9
330
1F
100
AcDbEntity
  8
TITLE
  6
SLD-Solid
370
    18
100
AcDbLine
 10
27.2834645669
 20
35.5
 30
0.0
 11
27.2834645669
 21
35.8346456693
 31
0.0
  0
LINE
  5
CA
330
1F
100
AcDbEntity
  8
TITLE
  6
SLD-Solid
370
    18
100
AcDbLine
 10
27.2834645669
 20
0.5
 30
0.0
 11
27.2834645669
 21
0.1653543307
 31
0.0
  0
LINE
  5
CB
330
1F
100
AcDbEntity
  8
TITLE
  6
SLD-Solid
370
    18
100
AcDbLine
 10
29.2519685039
 20
35.5
 30
0.0
 11
29.2519685039
 21
35.8346456693
 31
0.0
  0
LINE
  5
CC
330
1F
100
AcDbEntity
  8
TITLE
  6
SLD-Solid
370
    18
100
AcDbLine
 10
29.2519685039
 20
0.5
 30
0.0
 11
29.2519685039
 21
0.1653543307
 31
0.0
  0
LINE
  5
CD
330
1F
100
AcDbEntity
  8
TITLE
  6
SLD-Solid
370
    18
100
AcDbLine
 10
31.2204724409
 20
35.5
 30
0.0
 11
31.2204724409
 21
35.8346456693
 31
0.0
  0
LINE
  5
CE
330
1F
100
AcDbEntity
  8
TITLE
  6
SLD-Solid
370
    18
100
AcDbLine
 10
31.2204724409
 20
0.5
 30
0.0
 11
31.2204724409
 21
0.1653543307
 31
0.0
  0
LINE
  5
CF
330
1F
100
AcDbEntity
  8
TITLE
  6
SLD-Solid
370
    18
100
AcDbLine
 10
33.188976378
 20
35.5
 30
0.0
 11
33.188976378
 21
35.8346456693
 31
0.0
  0
LINE
  5
D0
330
1F
100
AcDbEntity
  8
TITLE
  6
SLD-Solid
370
    18
100
AcDbLine
 10
33.188976378
 20
0.5
 30
0.0
 11
33.188976378
 21
0.1653543307
 31
0.0
  0
LINE
  5
D1
330
1F
100
AcDbEntity
  8
TITLE
  6
SLD-Solid
370
    18
100
AcDbLine
 10
35.157480315
 20
35.5
 30
0.0
 11
35.157480315
 21
35.8346456693
 31
0.0
  0
LINE
  5
D2
330
1F
100
AcDbEntity
  8
TITLE
  6
SLD-Solid
370
    18
100
AcDbLine
 10
35.157480315
 20
0.5
 30
0.0
 11
35.157480315
 21
0.1653543307
 31
0.0
  0
LINE
  5
D3
330
1F
100
AcDbEntity
  8
TITLE
  6
SLD-Solid
370
    18
100
AcDbLine
 10
37.125984252
 20
35.5
 30
0.0
 11
37.125984252
 21
35.8346456693
 31
0.0
  0
LINE
  5
D4
330
1F
100
AcDbEntity
  8
TITLE
  6
SLD-Solid
370
    18
100
AcDbLine
 10
37.125984252
 20
0.5
 30
0.0
 11
37.125984252
 21
0.1653543307
 31
0.0
  0
LINE
  5
D5
330
1F
100
AcDbEntity
  8
TITLE
  6
SLD-Solid
370
    18
100
AcDbLine
 10
39.094488189
 20
35.5
 30
0.0
 11
39.094488189
 21
35.8346456693
 31
0.0
  0
LINE
  5
D6
330
1F
100
AcDbEntity
  8
TITLE
  6
SLD-Solid
370
    18
100
AcDbLine
 10
39.094488189
 20
0.5
 30
0.0
 11
39.094488189
 21
0.1653543307
 31
0.0
  0
LINE
  5
D7
330
1F
100
AcDbEntity
  8
TITLE
  6
SLD-Solid
370
    18
100
AcDbLine
 10
41.062992126
 20
35.5
 30
0.0
 11
41.062992126
 21
35.8346456693
 31
0.0
  0
LINE
  5
D8
330
1F
100
AcDbEntity
  8
TITLE
  6
SLD-Solid
370
    18
100
AcDbLine
 10
41.062992126
 20
0.5
 30
0.0
 11
41.062992126
 21
0.1653543307
 31
0.0
  0
LINE
  5
D9
330
1F
100
AcDbEntity
  8
TITLE
  6
SLD-Solid
370
    18
100
AcDbLine
 10
43.031496063
 20
35.5
 30
0.0
 11
43.031496063
 21
35.8346456693
 31
0.0
  0
LINE
  5
DA
330
1F
100
AcDbEntity
  8
TITLE
  6
SLD-Solid
370
    18
100
AcDbLine
 10
43.031496063
 20
0.5
 30
0.0
 11
43.031496063
 21
0.1653543307
 31
0.0
  0
LINE
  5
DB
330
1F
100
AcDbEntity
  8
TITLE
  6
SLD-Solid
370
    18
100
AcDbLine
 10
45.0
 20
35.5
 30
0.0
 11
45.0
 21
35.8346456693
 31
0.0
  0
LINE
  5
DC
330
1F
100
AcDbEntity
  8
TITLE
  6
SLD-Solid
370
    18
100
AcDbLine
 10
45.0
 20
0.5
 30
0.0
 11
45.0
 21
0.1653543307
 31
0.0
  0
LINE
  5
DD
330
1F
100
AcDbEntity
  8
TITLE
  6
SLD-Solid
370
    18
100
AcDbLine
 10
46.968503937
 20
35.5
 30
0.0
 11
46.968503937
 21
35.8346456693
 31
0.0
  0
LINE
  5
DE
330
1F
100
AcDbEntity
  8
TITLE
  6
SLD-Solid
370
    18
100
AcDbLine
 10
46.968503937
 20
0.5
 30
0.0
 11
46.968503937
 21
0.1653543307
 31
0.0
  0
LINE
  5
DF
330
1F
100
AcDbEntity
  8
TITLE
  6
SLD-Solid
370
    18
100
AcDbLine
 10
48.937007874
 20
35.5
 30
0.0
 11
48.937007874
 21
35.8346456693
 31
0.0
  0
LINE
  5
E0
330
1F
100
AcDbEntity
  8
TITLE
  6
SLD-Solid
370
    18
100
AcDbLine
 10
48.937007874
 20
0.5
 30
0.0
 11
48.937007874
 21
0.1653543307
 31
0.0
  0
LINE
  5
E1
330
1F
100
AcDbEntity
  8
TITLE
  6
SLD-Solid
370
    18
100
AcDbLine
 10
50.905511811
 20
35.5
 30
0.0
 11
50.905511811
 21
35.8346456693
 31
0.0
  0
LINE
  5
E2
330
1F
100
AcDbEntity
  8
TITLE
  6
SLD-Solid
370
    18
100
AcDbLine
 10
50.905511811
 20
0.5
 30
0.0
 11
50.905511811
 21
0.1653543307
 31
0.0
  0
LINE
  5
E3
330
1F
100
AcDbEntity
  8
TITLE
  6
SLD-Solid
370
    18
100
AcDbLine
 10
52.874015748
 20
35.5
 30
0.0
 11
52.874015748
 21
35.8346456693
 31
0.0
  0
LINE
  5
E4
330
1F
100
AcDbEntity
  8
TITLE
  6
SLD-Solid
370
    18
100
AcDbLine
 10
52.874015748
 20
0.5
 30
0.0
 11
52.874015748
 21
0.1653543307
 31
0.0
  0
LINE
  5
E5
330
1F
100
AcDbEntity
  8
TITLE
  6
SLD-Solid
370
    18
100
AcDbLine
 10
54.842519685
 20
35.5
 30
0.0
 11
54.842519685
 21
35.8346456693
 31
0.0
  0
LINE
  5
E6
330
1F
100
AcDbEntity
  8
TITLE
  6
SLD-Solid
370
    18
100
AcDbLine
 10
54.842519685
 20
0.5
 30
0.0
 11
54.842519685
 21
0.1653543307
 31
0.0
  0
LINE
  5
E7
330
1F
100
AcDbEntity
  8
TITLE
  6
SLD-Solid
370
    18
100
AcDbLine
 10
56.811023622
 20
35.5
 30
0.0
 11
56.811023622
 21
35.8346456693
 31
0.0
  0
LINE
  5
E8
330
1F
100
AcDbEntity
  8
TITLE
  6
SLD-Solid
370
    18
100
AcDbLine
 10
56.811023622
 20
0.5
 30
0.0
 11
56.811023622
 21
0.1653543307
 31
0.0
  0
LINE
  5
E9
330
1F
100
AcDbEntity
  8
TITLE
  6
SLD-Solid
370
    18
100
AcDbLine
 10
58.7795275591
 20
35.5
 30
0.0
 11
58.7795275591
 21
35.8346456693
 31
0.0
  0
LINE
  5
EA
330
1F
100
AcDbEntity
  8
TITLE
  6
SLD-Solid
370
    18
100
AcDbLine
 10
58.7795275591
 20
0.5
 30
0.0
 11
58.7795275591
 21
0.1653543307
 31
0.0
  0
LINE
  5
EB
330
1F
100
AcDbEntity
  8
TITLE
  6
SLD-Solid
370
    18
100
AcDbLine
 10
60.7480314961
 20
35.5
 30
0.0
 11
60.7480314961
 21
35.8346456693
 31
0.0
  0
LINE
  5
EC
330
1F
100
AcDbEntity
  8
TITLE
  6
SLD-Solid
370
    18
100
AcDbLine
 10
60.7480314961
 20
0.5
 30
0.0
 11
60.7480314961
 21
0.1653543307
 31
0.0
  0
LINE
  5
ED
330
1F
100
AcDbEntity
  8
TITLE
  6
SLD-Solid
370
    18
100
AcDbLine
 10
62.7165354331
 20
35.5
 30
0.0
 11
62.7165354331
 21
35.8346456693
 31
0.0
  0
LINE
  5
EE
330
1F
100
AcDbEntity
  8
TITLE
  6
SLD-Solid
370
    18
100
AcDbLine
 10
62.7165354331
 20
0.5
 30
0.0
 11
62.7165354331
 21
0.1653543307
 31
0.0
  0
LINE
  5
EF
330
1F
100
AcDbEntity
  8
TITLE
  6
SLD-Solid
370
    18
100
AcDbLine
 10
64.6850393701
 20
35.5
 30
0.0
 11
64.6850393701
 21
35.8346456693
 31
0.0
  0
LINE
  5
F0
330
1F
100
AcDbEntity
  8
TITLE
  6
SLD-Solid
370
    18
100
AcDbLine
 10
64.6850393701
 20
0.5
 30
0.0
 11
64.6850393701
 21
0.1653543307
 31
0.0
  0
LINE
  5
F1
330
1F
100
AcDbEntity
  8
TITLE
  6
SLD-Solid
370
    18
100
AcDbLine
 10
66.6535433071
 20
35.5
 30
0.0
 11
66.6535433071
 21
35.8346456693
 31
0.0
  0
LINE
  5
F2
330
1F
100
AcDbEntity
  8
TITLE
  6
SLD-Solid
370
    18
100
AcDbLine
 10
66.6535433071
 20
0.5
 30
0.0
 11
66.6535433071
 21
0.1653543307
 31
0.0
  0
LINE
  5
F3
330
1F
100
AcDbEntity
  8
TITLE
  6
SLD-Solid
370
    18
100
AcDbLine
 10
68.6220472441
 20
35.5
 30
0.0
 11
68.6220472441
 21
35.8346456693
 31
0.0
  0
LINE
  5
F4
330
1F
100
AcDbEntity
  8
TITLE
  6
SLD-Solid
370
    18
100
AcDbLine
 10
68.6220472441
 20
0.5
 30
0.0
 11
68.6220472441
 21
0.1653543307
 31
0.0
  0
LINE
  5
F5
330
1F
100
AcDbEntity
  8
TITLE
  6
SLD-Solid
370
    18
100
AcDbLine
 10
70.5905511811
 20
35.5
 30
0.0
 11
70.5905511811
 21
35.8346456693
 31
0.0
  0
LINE
  5
F6
330
1F
100
AcDbEntity
  8
TITLE
  6
SLD-Solid
370
    18
100
AcDbLine
 10
70.5905511811
 20
0.5
 30
0.0
 11
70.5905511811
 21
0.1653543307
 31
0.0
  0
LINE
  5
F7
330
1F
100
AcDbEntity
  8
TITLE
  6
SLD-Solid
370
    18
100
AcDbLine
 10
72.5590551181
 20
35.5
 30
0.0
 11
72.5590551181
 21
35.8346456693
 31
0.0
  0
LINE
  5
F8
330
1F
100
AcDbEntity
  8
TITLE
  6
SLD-Solid
370
    18
100
AcDbLine
 10
72.5590551181
 20
0.5
 30
0.0
 11
72.5590551181
 21
0.1653543307
 31
0.0
  0
LINE
  5
F9
330
1F
100
AcDbEntity
  8
TITLE
  6
SLD-Solid
370
    18
100
AcDbLine
 10
74.5275590551
 20
35.5
 30
0.0
 11
74.5275590551
 21
35.8346456693
 31
0.0
  0
LINE
  5
FA
330
1F
100
AcDbEntity
  8
TITLE
  6
SLD-Solid
370
    18
100
AcDbLine
 10
74.5275590551
 20
0.5
 30
0.0
 11
74.5275590551
 21
0.1653543307
 31
0.0
  0
LINE
  5
FB
330
1F
100
AcDbEntity
  8
TITLE
  6
SLD-Solid
370
    18
100
AcDbLine
 10
76.4960629921
 20
35.5
 30
0.0
 11
76.4960629921
 21
35.8346456693
 31
0.0
  0
LINE
  5
FC
330
1F
100
AcDbEntity
  8
TITLE
  6
SLD-Solid
370
    18
100
AcDbLine
 10
76.4960629921
 20
0.5
 30
0.0
 11
76.4960629921
 21
0.1653543307
 31
0.0
  0
LINE
  5
FD
330
1F
100
AcDbEntity
  8
TITLE
  6
SLD-Solid
370
    18
100
AcDbLine
 10
78.4645669291
 20
35.5
 30
0.0
 11
78.4645669291
 21
35.8346456693
 31
0.0
  0
LINE
  5
FE
330
1F
100
AcDbEntity
  8
TITLE
  6
SLD-Solid
370
    18
100
AcDbLine
 10
78.4645669291
 20
0.5
 30
0.0
 11
78.4645669291
 21
0.1653543307
 31
0.0
  0
LINE
  5
FF
330
1F
100
AcDbEntity
  8
TITLE
  6
SLD-Solid
370
    18
100
AcDbLine
 10
80.4330708661
 20
35.5
 30
0.0
 11
80.4330708661
 21
35.8346456693
 31
0.0
  0
LINE
  5
100
330
1F
100
AcDbEntity
  8
TITLE
  6
SLD-Solid
370
    18
100
AcDbLine
 10
80.4330708661
 20
0.5
 30
0.0
 11
80.4330708661
 21
0.1653543307
 31
0.0
  0
LINE
  5
101
330
1F
100
AcDbEntity
  8
TITLE
  6
SLD-Solid
370
    18
100
AcDbLine
 10
82.4015748031
 20
35.5
 30
0.0
 11
82.4015748031
 21
35.8346456693
 31
0.0
  0
LINE
  5
102
330
1F
100
AcDbEntity
  8
TITLE
  6
SLD-Solid
370
    18
100
AcDbLine
 10
82.4015748031
 20
0.5
 30
0.0
 11
82.4015748031
 21
0.1653543307
 31
0.0
  0
LINE
  5
103
330
1F
100
AcDbEntity
  8
TITLE
  6
SLD-Solid
370
    18
100
AcDbLine
 10
84.3700787402
 20
35.5
 30
0.0
 11
84.3700787402
 21
35.8346456693
 31
0.0
  0
LINE
  5
104
330
1F
100
AcDbEntity
  8
TITLE
  6
SLD-Solid
370
    18
100
AcDbLine
 10
84.3700787402
 20
0.5
 30
0.0
 11
84.3700787402
 21
0.1653543307
 31
0.0
  0
LINE
  5
105
330
1F
100
AcDbEntity
  8
TITLE
  6
SLD-Solid
370
    18
100
AcDbLine
 10
86.3385826772
 20
35.5
 30
0.0
 11
86.3385826772
 21
35.8346456693
 31
0.0
  0
LINE
  5
106
330
1F
100
AcDbEntity
  8
TITLE
  6
SLD-Solid
370
    18
100
AcDbLine
 10
86.3385826772
 20
0.5
 30
0.0
 11
86.3385826772
 21
0.1653543307
 31
0.0
  0
LINE
  5
107
330
1F
100
AcDbEntity
  8
TITLE
  6
SLD-Solid
370
    18
100
AcDbLine
 10
88.3070866142
 20
35.5
 30
0.0
 11
88.3070866142
 21
35.8346456693
 31
0.0
  0
LINE
  5
108
330
1F
100
AcDbEntity
  8
TITLE
  6
SLD-Solid
370
    18
100
AcDbLine
 10
88.3070866142
 20
0.5
 30
0.0
 11
88.3070866142
 21
0.1653543307
 31
0.0
  0
MTEXT
  5
10A
330
1F
100
AcDbEntity
  8
NOTES
100
AcDbMText
 10
66.408297803
 20
1.0702903347
 30
0.0
 40
0.25
 41
0.0
 71
     1
 72
     1
  1
UNLESS OTHERWISE SPECIFIED DIMENSIONS ARE IN INCHES.
  7
SLDTEXTSTYLE0
 73
     1
 44
1.0
  0
MTEXT
  5
10B
330
1F
100
AcDbEntity
  8
NOTES
100
AcDbMText
 10
66.4368251132
 20
3.2193045501
 30
0.0
 40
0.25
 41
0.0
 71
     1
 72
     1
  1
DATE:
  7
SLDTEXTSTYLE0
 73
     1
 44
1.0
  0
MTEXT
  5
10C
330
1F
100
AcDbEntity
  8
NOTES
100
AcDbMText
 10
68.7130669976
 20
2.1722148141
 30
0.0
 40
0.25
 41
0.0
 71
     2
 72
     1
  1
DO NOT SCALE DRAWING
  7
SLDTEXTSTYLE0
 73
     1
 44
1.0
  0
MTEXT
  5
10E
330
1F
100
AcDbEntity
  8
NOTES
100
AcDbMText
 10
72.8307373075
 20
3.2682755553
 30
0.0
 40
0.25
 41
0.0
 71
     1
 72
     1
  1
TITLE:
  7
SLDTEXTSTYLE1
 73
     1
 44
1.0
  0
MTEXT
  5
10F
330
1F
100
AcDbEntity
  8
NOTES
100
AcDbMText
 10
80.1561831052
 20
3.2682755553
 30
0.0
 40
0.25
 41
0.0
 71
     1
 72
     1
  1
DWG NO.
  7
SLDTEXTSTYLE1
 73
     1
 44
1.0
  0
MTEXT
  5
110
330
1F
100
AcDbEntity
  8
NOTES
100
AcDbMText
 10
80.1831753203
 20
1.0645815577
 30
0.0
 40
0.25
 41
0.0
 71
     1
 72
     1
  1
SCALE:     1:1
  7
SLDTEXTSTYLE1
 73
     1
 44
1.0
  0
MTEXT
  5
111
330
1F
100
AcDbEntity
  8
NOTES
100
AcDbMText
 10
84.1862686715
 20
2.6510344295
 30
0.0
 40
0.25
 41
0.0
 71
     2
 72
     1
  1
1192 CAD
  7
SLDTEXTSTYLE1
 73
     1
 44
1.0
  0
MTEXT
  5
112
330
1F
100
AcDbEntity
  8
NOTES
100
AcDbMText
 10
75.9569498326
 20
2.6388861441
 30
0.0
 40
0.25
 41
0.0
 71
     2
 72
     1
  1
1192
  7
SLDTEXTSTYLE1
 73
     1
 44
1.0
  0
INSERT
  5
118
330
1F
100
AcDbEntity
  8
NOTES
100
AcDbBlockReference
  2
SW_NOTE_0
 10
80.266131557
 20
4.6105227838
 30
0.0
  0
INSERT
  5
122
330
1F
100
AcDbEntity
  8
NOTES
100
AcDbBlockReference
  2
SW_NOTE_0_1
 10
66.6159726246
 20
5.1481526848
 30
0.0
  0
MTEXT
  5
123
330
1F
100
AcDbEntity
  8
NOTES
100
AcDbMText
 10
69.5293220071
 20
3.2135957731
 30
0.0
 40
0.25
 41
0.0
 71
     2
 72
     1
  1
October 15, 2021
  7
SLDTEXTSTYLE1
 73
     1
 44
1.0
  0
MTEXT
  5
124
330
1F
100
AcDbEntity
  8
TITLE
100
AcDbMText
 10
0.3276279776
 20
1.4558621965
 30
0.0
 40
0.125
 41
0.0
 71
     2
 72
     1
  1
A
  7
SLDTEXTSTYLE1
 73
     1
 44
1.0
  0
MTEXT
  5
125
330
1F
100
AcDbEntity
  8
TITLE
100
AcDbMText
 10
89.6622736469
 20
1.4558621965
 30
0.0
 40
0.125
 41
0.0
 71
     2
 72
     1
  1
A
  7
SLDTEXTSTYLE1
 73
     1
 44
1.0
  0
MTEXT
  5
126
330
1F
100
AcDbEntity
  8
TITLE
100
AcDbMText
 10
0.3317512413
 20
3.316098417
 30
0.0
 40
0.125
 41
0.0
 71
     2
 72
     1
  1
B
  7
SLDTEXTSTYLE1
 73
     1
 44
1.0
  0
MTEXT
  5
127
330
1F
100
AcDbEntity
  8
TITLE
100
AcDbMText
 10
89.6663969106
 20
3.316098417
 30
0.0
 40
0.125
 41
0.0
 71
     2
 72
     1
  1
B
  7
SLDTEXTSTYLE1
 73
     1
 44
1.0
  0
MTEXT
  5
128
330
1F
100
AcDbEntity
  8
TITLE
100
AcDbMText
 10
0.3313750817
 20
5.284602354
 30
0.0
 40
0.125
 41
0.0
 71
     2
 72
     1
  1
C
  7
SLDTEXTSTYLE1
 73
     1
 44
1.0
  0
MTEXT
  5
129
330
1F
100
AcDbEntity
  8
TITLE
100
AcDbMText
 10
89.666020751
 20
5.284602354
 30
0.0
 40
0.125
 41
0.0
 71
     2
 72
     1
  1
C
  7
SLDTEXTSTYLE1
 73
     1
 44
1.0
  0
MTEXT
  5
12A
330
1F
100
AcDbEntity
  8
TITLE
100
AcDbMText
 10
0.3311870028
 20
7.253106291
 30
0.0
 40
0.125
 41
0.0
 71
     2
 72
     1
  1
D
  7
SLDTEXTSTYLE1
 73
     1
 44
1.0
  0
MTEXT
  5
12B
330
1F
100
AcDbEntity
  8
TITLE
100
AcDbMText
 10
89.6658326721
 20
7.253106291
 30
0.0
 40
0.125
 41
0.0
 71
     2
 72
     1
  1
D
  7
SLDTEXTSTYLE1
 73
     1
 44
1.0
  0
MTEXT
  5
12C
330
1F
100
AcDbEntity
  8
TITLE
100
AcDbMText
 10
0.332923116
 20
9.221610228
 30
0.0
 40
0.125
 41
0.0
 71
     2
 72
     1
  1
E
  7
SLDTEXTSTYLE1
 73
     1
 44
1.0
  0
MTEXT
  5
12D
330
1F
100
AcDbEntity
  8
TITLE
100
AcDbMText
 10
89.6675687853
 20
9.221610228
 30
0.0
 40
0.125
 41
0.0
 71
     2
 72
     1
  1
E
  7
SLDTEXTSTYLE1
 73
     1
 44
1.0
  0
MTEXT
  5
12E
330
1F
100
AcDbEntity
  8
TITLE
100
AcDbMText
 10
0.3313461474
 20
11.190114165
 30
0.0
 40
0.125
 41
0.0
 71
     2
 72
     1
  1
F
  7
SLDTEXTSTYLE1
 73
     1
 44
1.0
  0
MTEXT
  5
12F
330
1F
100
AcDbEntity
  8
TITLE
100
AcDbMText
 10
89.6659918167
 20
11.190114165
 30
0.0
 40
0.125
 41
0.0
 71
     2
 72
     1
  1
F
  7
SLDTEXTSTYLE1
 73
     1
 44
1.0
  0
MTEXT
  5
130
330
1F
100
AcDbEntity
  8
TITLE
100
AcDbMText
 10
0.3322576054
 20
13.158618102
 30
0.0
 40
0.125
 41
0.0
 71
     2
 72
     1
  1
G
  7
SLDTEXTSTYLE1
 73
     1
 44
1.0
  0
MTEXT
  5
131
330
1F
100
AcDbEntity
  8
TITLE
100
AcDbMText
 10
89.6669032747
 20
13.158618102
 30
0.0
 40
0.125
 41
0.0
 71
     2
 72
     1
  1
G
  7
SLDTEXTSTYLE1
 73
     1
 44
1.0
  0
MTEXT
  5
132
330
1F
100
AcDbEntity
  8
TITLE
100
AcDbMText
 10
0.3323733457
 20
15.127122039
 30
0.0
 40
0.125
 41
0.0
 71
     2
 72
     1
  1
H
  7
SLDTEXTSTYLE1
 73
     1
 44
1.0
  0
MTEXT
  5
133
330
1F
100
AcDbEntity
  8
TITLE
100
AcDbMText
 10
89.667019015
 20
15.127122039
 30
0.0
 40
0.125
 41
0.0
 71
     2
 72
     1
  1
H
  7
SLDTEXTSTYLE1
 73
     1
 44
1.0
  0
MTEXT
  5
134
330
1F
100
AcDbEntity
  8
TITLE
100
AcDbMText
 10
0.3315776306
 20
17.095625976
 30
0.0
 40
0.125
 41
0.0
 71
     2
 72
     1
  1
J
  7
SLDTEXTSTYLE1
 73
     1
 44
1.0
  0
MTEXT
  5
135
330
1F
100
AcDbEntity
  8
TITLE
100
AcDbMText
 10
89.6662232999
 20
17.095625976
 30
0.0
 40
0.125
 41
0.0
 71
     2
 72
     1
  1
J
  7
SLDTEXTSTYLE1
 73
     1
 44
1.0
  0
MTEXT
  5
136
330
1F
100
AcDbEntity
  8
TITLE
100
AcDbMText
 10
0.3323154765
 20
19.064129913
 30
0.0
 40
0.125
 41
0.0
 71
     2
 72
     1
  1
K
  7
SLDTEXTSTYLE1
 73
     1
 44
1.0
  0
MTEXT
  5
137
330
1F
100
AcDbEntity
  8
TITLE
100
AcDbMText
 10
89.6669611458
 20
19.064129913
 30
0.0
 40
0.125
 41
0.0
 71
     2
 72
     1
  1
K
  7
SLDTEXTSTYLE1
 73
     1
 44
1.0
  0
MTEXT
  5
138
330
1F
100
AcDbEntity
  8
TITLE
100
AcDbMText
 10
0.3312448739
 20
21.03263385
 30
0.0
 40
0.125
 41
0.0
 71
     2
 72
     1
  1
L
  7
SLDTEXTSTYLE1
 73
     1
 44
1.0
  0
MTEXT
  5
139
330
1F
100
AcDbEntity
  8
TITLE
100
AcDbMText
 10
89.6658905432
 20
21.03263385
 30
0.0
 40
0.125
 41
0.0
 71
     2
 72
     1
  1
L
  7
SLDTEXTSTYLE1
 73
     1
 44
1.0
  0
MTEXT
  5
13A
330
1F
100
AcDbEntity
  8
TITLE
100
AcDbMText
 10
0.3283224192
 20
23.001137787
 30
0.0
 40
0.125
 41
0.0
 71
     2
 72
     1
  1
M
  7
SLDTEXTSTYLE1
 73
     1
 44
1.0
  0
MTEXT
  5
13B
330
1F
100
AcDbEntity
  8
TITLE
100
AcDbMText
 10
89.6629680885
 20
23.001137787
 30
0.0
 40
0.125
 41
0.0
 71
     2
 72
     1
  1
M
  7
SLDTEXTSTYLE1
 73
     1
 44
1.0
  0
MTEXT
  5
13C
330
1F
100
AcDbEntity
  8
TITLE
100
AcDbMText
 10
0.3315342276
 20
24.969641724
 30
0.0
 40
0.125
 41
0.0
 71
     2
 72
     1
  1
N
  7
SLDTEXTSTYLE1
 73
     1
 44
1.0
  0
MTEXT
  5
13D
330
1F
100
AcDbEntity
  8
TITLE
100
AcDbMText
 10
89.6661798969
 20
24.969641724
 30
0.0
 40
0.125
 41
0.0
 71
     2
 72
     1
  1
N
  7
SLDTEXTSTYLE1
 73
     1
 44
1.0
  0
MTEXT
  5
13E
330
1F
100
AcDbEntity
  8
TITLE
100
AcDbMText
 10
0.3321997349
 20
26.9381456611
 30
0.0
 40
0.125
 41
0.0
 71
     2
 72
     1
  1
P
  7
SLDTEXTSTYLE1
 73
     1
 44
1.0
  0
MTEXT
  5
13F
330
1F
100
AcDbEntity
  8
TITLE
100
AcDbMText
 10
89.6668454042
 20
26.9381456611
 30
0.0
 40
0.125
 41
0.0
 71
     2
 72
     1
  1
P
  7
SLDTEXTSTYLE1
 73
     1
 44
1.0
  0
MTEXT
  5
140
330
1F
100
AcDbEntity
  8
TITLE
100
AcDbMText
 10
0.3309265867
 20
28.9066495981
 30
0.0
 40
0.125
 41
0.0
 71
     2
 72
     1
  1
R
  7
SLDTEXTSTYLE1
 73
     1
 44
1.0
  0
MTEXT
  5
141
330
1F
100
AcDbEntity
  8
TITLE
100
AcDbMText
 10
89.665572256
 20
28.9066495981
 30
0.0
 40
0.125
 41
0.0
 71
     2
 72
     1
  1
R
  7
SLDTEXTSTYLE1
 73
     1
 44
1.0
  0
MTEXT
  5
142
330
1F
100
AcDbEntity
  8
TITLE
100
AcDbMText
 10
0.3323010071
 20
30.8751535351
 30
0.0
 40
0.125
 41
0.0
 71
     2
 72
     1
  1
T
  7
SLDTEXTSTYLE1
 73
     1
 44
1.0
  0
MTEXT
  5
143
330
1F
100
AcDbEntity
  8
TITLE
100
AcDbMText
 10
89.6669466764
 20
30.8751535351
 30
0.0
 40
0.125
 41
0.0
 71
     2
 72
     1
  1
T
  7
SLDTEXTSTYLE1
 73
     1
 44
1.0
  0
MTEXT
  5
144
330
1F
100
AcDbEntity
  8
TITLE
100
AcDbMText
 10
0.3328507755
 20
32.8436574721
 30
0.0
 40
0.125
 41
0.0
 71
     2
 72
     1
  1
U
  7
SLDTEXTSTYLE1
 73
     1
 44
1.0
  0
MTEXT
  5
145
330
1F
100
AcDbEntity
  8
TITLE
100
AcDbMText
 10
89.6674964448
 20
32.8436574721
 30
0.0
 40
0.125
 41
0.0
 71
     2
 72
     1
  1
U
  7
SLDTEXTSTYLE1
 73
     1
 44
1.0
  0
MTEXT
  5
146
330
1F
100
AcDbEntity
  8
TITLE
100
AcDbMText
 10
0.3307529773
 20
34.7038936925
 30
0.0
 40
0.125
 41
0.0
 71
     2
 72
     1
  1
V
  7
SLDTEXTSTYLE1
 73
     1
 44
1.0
  0
MTEXT
  5
147
330
1F
100
AcDbEntity
  8
TITLE
100
AcDbMText
 10
89.6653986466
 20
34.7038936925
 30
0.0
 40
0.125
 41
0.0
 71
     2
 72
     1
  1
V
  7
SLDTEXTSTYLE1
 73
     1
 44
1.0
  0
MTEXT
  5
148
330
1F
100
AcDbEntity
  8
TITLE
100
AcDbMText
 10
1.0939393315
 20
0.4125551099
 30
0.0
 40
0.125
 41
0.0
 71
     2
 72
     1
  1
46
  7
SLDTEXTSTYLE1
 73
     1
 44
1.0
  0
MTEXT
  5
149
330
1F
100
AcDbEntity
  8
TITLE
100
AcDbMText
 10
1.0939393315
 20
35.7472007792
 30
0.0
 40
0.125
 41
0.0
 71
     2
 72
     1
  1
46
  7
SLDTEXTSTYLE1
 73
     1
 44
1.0
  0
MTEXT
  5
14A
330
1F
100
AcDbEntity
  8
TITLE
100
AcDbMText
 10
2.674647993
 20
0.4125551099
 30
0.0
 40
0.125
 41
0.0
 71
     2
 72
     1
  1
45
  7
SLDTEXTSTYLE1
 73
     1
 44
1.0
  0
MTEXT
  5
14B
330
1F
100
AcDbEntity
  8
TITLE
100
AcDbMText
 10
2.674647993
 20
35.7472007792
 30
0.0
 40
0.125
 41
0.0
 71
     2
 72
     1
  1
45
  7
SLDTEXTSTYLE1
 73
     1
 44
1.0
  0
MTEXT
  5
14C
330
1F
100
AcDbEntity
  8
TITLE
100
AcDbMText
 10
4.64315193
 20
0.4125551099
 30
0.0
 40
0.125
 41
0.0
 71
     2
 72
     1
  1
44
  7
SLDTEXTSTYLE1
 73
     1
 44
1.0
  0
MTEXT
  5
14D
330
1F
100
AcDbEntity
  8
TITLE
100
AcDbMText
 10
4.64315193
 20
35.7472007792
 30
0.0
 40
0.125
 41
0.0
 71
     2
 72
     1
  1
44
  7
SLDTEXTSTYLE1
 73
     1
 44
1.0
  0
MTEXT
  5
14E
330
1F
100
AcDbEntity
  8
TITLE
100
AcDbMText
 10
6.611655867
 20
0.4125551099
 30
0.0
 40
0.125
 41
0.0
 71
     2
 72
     1
  1
43
  7
SLDTEXTSTYLE1
 73
     1
 44
1.0
  0
MTEXT
  5
14F
330
1F
100
AcDbEntity
  8
TITLE
100
AcDbMText
 10
6.611655867
 20
35.7472007792
 30
0.0
 40
0.125
 41
0.0
 71
     2
 72
     1
  1
43
  7
SLDTEXTSTYLE1
 73
     1
 44
1.0
  0
MTEXT
  5
150
330
1F
100
AcDbEntity
  8
TITLE
100
AcDbMText
 10
8.580159804
 20
0.4125551099
 30
0.0
 40
0.125
 41
0.0
 71
     2
 72
     1
  1
42
  7
SLDTEXTSTYLE1
 73
     1
 44
1.0
  0
MTEXT
  5
151
330
1F
100
AcDbEntity
  8
TITLE
100
AcDbMText
 10
8.580159804
 20
35.7472007792
 30
0.0
 40
0.125
 41
0.0
 71
     2
 72
     1
  1
42
  7
SLDTEXTSTYLE1
 73
     1
 44
1.0
  0
MTEXT
  5
152
330
1F
100
AcDbEntity
  8
TITLE
100
AcDbMText
 10
10.548663741
 20
0.4125551099
 30
0.0
 40
0.125
 41
0.0
 71
     2
 72
     1
  1
41
  7
SLDTEXTSTYLE1
 73
     1
 44
1.0
  0
MTEXT
  5
153
330
1F
100
AcDbEntity
  8
TITLE
100
AcDbMText
 10
10.548663741
 20
35.7472007792
 30
0.0
 40
0.125
 41
0.0
 71
     2
 72
     1
  1
41
  7
SLDTEXTSTYLE1
 73
     1
 44
1.0
  0
MTEXT
  5
154
330
1F
100
AcDbEntity
  8
TITLE
100
AcDbMText
 10
12.517167678
 20
0.4125551099
 30
0.0
 40
0.125
 41
0.0
 71
     2
 72
     1
  1
40
  7
SLDTEXTSTYLE1
 73
     1
 44
1.0
  0
MTEXT
  5
155
330
1F
100
AcDbEntity
  8
TITLE
100
AcDbMText
 10
12.517167678
 20
35.7472007792
 30
0.0
 40
0.125
 41
0.0
 71
     2
 72
     1
  1
40
  7
SLDTEXTSTYLE1
 73
     1
 44
1.0
  0
MTEXT
  5
156
330
1F
100
AcDbEntity
  8
TITLE
100
AcDbMText
 10
14.485671615
 20
0.4125551099
 30
0.0
 40
0.125
 41
0.0
 71
     2
 72
     1
  1
39
  7
SLDTEXTSTYLE1
 73
     1
 44
1.0
  0
MTEXT
  5
157
330
1F
100
AcDbEntity
  8
TITLE
100
AcDbMText
 10
14.485671615
 20
35.7472007792
 30
0.0
 40
0.125
 41
0.0
 71
     2
 72
     1
  1
39
  7
SLDTEXTSTYLE1
 73
     1
 44
1.0
  0
MTEXT
  5
158
330
1F
100
AcDbEntity
  8
TITLE
100
AcDbMText
 10
16.454175552
 20
0.4125551099
 30
0.0
 40
0.125
 41
0.0
 71
     2
 72
     1
  1
38
  7
SLDTEXTSTYLE1
 73
     1
 44
1.0
  0
MTEXT
  5
159
330
1F
100
AcDbEntity
  8
TITLE
100
AcDbMText
 10
16.454175552
 20
35.7472007792
 30
0.0
 40
0.125
 41
0.0
 71
     2
 72
     1
  1
38
  7
SLDTEXTSTYLE1
 73
     1
 44
1.0
  0
MTEXT
  5
15A
330
1F
100
AcDbEntity
  8
TITLE
100
AcDbMText
 10
18.422679489
 20
0.4125551099
 30
0.0
 40
0.125
 41
0.0
 71
     2
 72
     1
  1
37
  7
SLDTEXTSTYLE1
 73
     1
 44
1.0
  0
MTEXT
  5
15B
330
1F
100
AcDbEntity
  8
TITLE
100
AcDbMText
 10
18.422679489
 20
35.7472007792
 30
0.0
 40
0.125
 41
0.0
 71
     2
 72
     1
  1
37
  7
SLDTEXTSTYLE1
 73
     1
 44
1.0
  0
MTEXT
  5
15C
330
1F
100
AcDbEntity
  8
TITLE
100
AcDbMText
 10
20.391183426
 20
0.4125551099
 30
0.0
 40
0.125
 41
0.0
 71
     2
 72
     1
  1
36
  7
SLDTEXTSTYLE1
 73
     1
 44
1.0
  0
MTEXT
  5
15D
330
1F
100
AcDbEntity
  8
TITLE
100
AcDbMText
 10
20.391183426
 20
35.7472007792
 30
0.0
 40
0.125
 41
0.0
 71
     2
 72
     1
  1
36
  7
SLDTEXTSTYLE1
 73
     1
 44
1.0
  0
MTEXT
  5
15E
330
1F
100
AcDbEntity
  8
TITLE
100
AcDbMText
 10
22.359687363
 20
0.4125551099
 30
0.0
 40
0.125
 41
0.0
 71
     2
 72
     1
  1
35
  7
SLDTEXTSTYLE1
 73
     1
 44
1.0
  0
MTEXT
  5
15F
330
1F
100
AcDbEntity
  8
TITLE
100
AcDbMText
 10
22.359687363
 20
35.7472007792
 30
0.0
 40
0.125
 41
0.0
 71
     2
 72
     1
  1
35
  7
SLDTEXTSTYLE1
 73
     1
 44
1.0
  0
MTEXT
  5
160
330
1F
100
AcDbEntity
  8
TITLE
100
AcDbMText
 10
24.3281913
 20
0.4125551099
 30
0.0
 40
0.125
 41
0.0
 71
     2
 72
     1
  1
34
  7
SLDTEXTSTYLE1
 73
     1
 44
1.0
  0
MTEXT
  5
161
330
1F
100
AcDbEntity
  8
TITLE
100
AcDbMText
 10
24.3281913
 20
35.7472007792
 30
0.0
 40
0.125
 41
0.0
 71
     2
 72
     1
  1
34
  7
SLDTEXTSTYLE1
 73
     1
 44
1.0
  0
MTEXT
  5
162
330
1F
100
AcDbEntity
  8
TITLE
100
AcDbMText
 10
26.2966952371
 20
0.4125551099
 30
0.0
 40
0.125
 41
0.0
 71
     2
 72
     1
  1
33
  7
SLDTEXTSTYLE1
 73
     1
 44
1.0
  0
MTEXT
  5
163
330
1F
100
AcDbEntity
  8
TITLE
100
AcDbMText
 10
26.2966952371
 20
35.7472007792
 30
0.0
 40
0.125
 41
0.0
 71
     2
 72
     1
  1
33
  7
SLDTEXTSTYLE1
 73
     1
 44
1.0
  0
MTEXT
  5
164
330
1F
100
AcDbEntity
  8
TITLE
100
AcDbMText
 10
28.2651991741
 20
0.4125551099
 30
0.0
 40
0.125
 41
0.0
 71
     2
 72
     1
  1
32
  7
SLDTEXTSTYLE1
 73
     1
 44
1.0
  0
MTEXT
  5
165
330
1F
100
AcDbEntity
  8
TITLE
100
AcDbMText
 10
28.2651991741
 20
35.7472007792
 30
0.0
 40
0.125
 41
0.0
 71
     2
 72
     1
  1
32
  7
SLDTEXTSTYLE1
 73
     1
 44
1.0
  0
MTEXT
  5
166
330
1F
100
AcDbEntity
  8
TITLE
100
AcDbMText
 10
30.2337031111
 20
0.4125551099
 30
0.0
 40
0.125
 41
0.0
 71
     2
 72
     1
  1
31
  7
SLDTEXTSTYLE1
 73
     1
 44
1.0
  0
MTEXT
  5
167
330
1F
100
AcDbEntity
  8
TITLE
100
AcDbMText
 10
30.2337031111
 20
35.7472007792
 30
0.0
 40
0.125
 41
0.0
 71
     2
 72
     1
  1
31
  7
SLDTEXTSTYLE1
 73
     1
 44
1.0
  0
MTEXT
  5
168
330
1F
100
AcDbEntity
  8
TITLE
100
AcDbMText
 10
32.2022070481
 20
0.4125551099
 30
0.0
 40
0.125
 41
0.0
 71
     2
 72
     1
  1
30
  7
SLDTEXTSTYLE1
 73
     1
 44
1.0
  0
MTEXT
  5
169
330
1F
100
AcDbEntity
  8
TITLE
100
AcDbMText
 10
32.2022070481
 20
35.7472007792
 30
0.0
 40
0.125
 41
0.0
 71
     2
 72
     1
  1
30
  7
SLDTEXTSTYLE1
 73
     1
 44
1.0
  0
MTEXT
  5
16A
330
1F
100
AcDbEntity
  8
TITLE
100
AcDbMText
 10
34.1707109851
 20
0.4125551099
 30
0.0
 40
0.125
 41
0.0
 71
     2
 72
     1
  1
29
  7
SLDTEXTSTYLE1
 73
     1
 44
1.0
  0
MTEXT
  5
16B
330
1F
100
AcDbEntity
  8
TITLE
100
AcDbMText
 10
34.1707109851
 20
35.7472007792
 30
0.0
 40
0.125
 41
0.0
 71
     2
 72
     1
  1
29
  7
SLDTEXTSTYLE1
 73
     1
 44
1.0
  0
MTEXT
  5
16C
330
1F
100
AcDbEntity
  8
TITLE
100
AcDbMText
 10
36.1392149221
 20
0.4125551099
 30
0.0
 40
0.125
 41
0.0
 71
     2
 72
     1
  1
28
  7
SLDTEXTSTYLE1
 73
     1
 44
1.0
  0
MTEXT
  5
16D
330
1F
100
AcDbEntity
  8
TITLE
100
AcDbMText
 10
36.1392149221
 20
35.7472007792
 30
0.0
 40
0.125
 41
0.0
 71
     2
 72
     1
  1
28
  7
SLDTEXTSTYLE1
 73
     1
 44
1.0
  0
MTEXT
  5
16E
330
1F
100
AcDbEntity
  8
TITLE
100
AcDbMText
 10
38.1077188591
 20
0.4125551099
 30
0.0
 40
0.125
 41
0.0
 71
     2
 72
     1
  1
27
  7
SLDTEXTSTYLE1
 73
     1
 44
1.0
  0
MTEXT
  5
16F
330
1F
100
AcDbEntity
  8
TITLE
100
AcDbMText
 10
38.1077188591
 20
35.7472007792
 30
0.0
 40
0.125
 41
0.0
 71
     2
 72
     1
  1
27
  7
SLDTEXTSTYLE1
 73
     1
 44
1.0
  0
MTEXT
  5
170
330
1F
100
AcDbEntity
  8
TITLE
100
AcDbMText
 10
40.0762227961
 20
0.4125551099
 30
0.0
 40
0.125
 41
0.0
 71
     2
 72
     1
  1
26
  7
SLDTEXTSTYLE1
 73
     1
 44
1.0
  0
MTEXT
  5
171
330
1F
100
AcDbEntity
  8
TITLE
100
AcDbMText
 10
40.0762227961
 20
35.7472007792
 30
0.0
 40
0.125
 41
0.0
 71
     2
 72
     1
  1
26
  7
SLDTEXTSTYLE1
 73
     1
 44
1.0
  0
MTEXT
  5
172
330
1F
100
AcDbEntity
  8
TITLE
100
AcDbMText
 10
42.0447267331
 20
0.4125551099
 30
0.0
 40
0.125
 41
0.0
 71
     2
 72
     1
  1
25
  7
SLDTEXTSTYLE1
 73
     1
 44
1.0
  0
MTEXT
  5
173
330
1F
100
AcDbEntity
  8
TITLE
100
AcDbMText
 10
42.0447267331
 20
35.7472007792
 30
0.0
 40
0.125
 41
0.0
 71
     2
 72
     1
  1
25
  7
SLDTEXTSTYLE1
 73
     1
 44
1.0
  0
MTEXT
  5
174
330
1F
100
AcDbEntity
  8
TITLE
100
AcDbMText
 10
44.0132306701
 20
0.4125551099
 30
0.0
 40
0.125
 41
0.0
 71
     2
 72
     1
  1
24
  7
SLDTEXTSTYLE1
 73
     1
 44
1.0
  0
MTEXT
  5
175
330
1F
100
AcDbEntity
  8
TITLE
100
AcDbMText
 10
44.0132306701
 20
35.7472007792
 30
0.0
 40
0.125
 41
0.0
 71
     2
 72
     1
  1
24
  7
SLDTEXTSTYLE1
 73
     1
 44
1.0
  0
MTEXT
  5
176
330
1F
100
AcDbEntity
  8
TITLE
100
AcDbMText
 10
45.9817346071
 20
0.4125551099
 30
0.0
 40
0.125
 41
0.0
 71
     2
 72
     1
  1
23
  7
SLDTEXTSTYLE1
 73
     1
 44
1.0
  0
MTEXT
  5
177
330
1F
100
AcDbEntity
  8
TITLE
100
AcDbMText
 10
45.9817346071
 20
35.7472007792
 30
0.0
 40
0.125
 41
0.0
 71
     2
 72
     1
  1
23
  7
SLDTEXTSTYLE1
 73
     1
 44
1.0
  0
MTEXT
  5
178
330
1F
100
AcDbEntity
  8
TITLE
100
AcDbMText
 10
47.9502385441
 20
0.4125551099
 30
0.0
 40
0.125
 41
0.0
 71
     2
 72
     1
  1
22
  7
SLDTEXTSTYLE1
 73
     1
 44
1.0
  0
MTEXT
  5
179
330
1F
100
AcDbEntity
  8
TITLE
100
AcDbMText
 10
47.9502385441
 20
35.7472007792
 30
0.0
 40
0.125
 41
0.0
 71
     2
 72
     1
  1
22
  7
SLDTEXTSTYLE1
 73
     1
 44
1.0
  0
MTEXT
  5
17A
330
1F
100
AcDbEntity
  8
TITLE
100
AcDbMText
 10
49.9187424811
 20
0.4125551099
 30
0.0
 40
0.125
 41
0.0
 71
     2
 72
     1
  1
21
  7
SLDTEXTSTYLE1
 73
     1
 44
1.0
  0
MTEXT
  5
17B
330
1F
100
AcDbEntity
  8
TITLE
100
AcDbMText
 10
49.9187424811
 20
35.7472007792
 30
0.0
 40
0.125
 41
0.0
 71
     2
 72
     1
  1
21
  7
SLDTEXTSTYLE1
 73
     1
 44
1.0
  0
MTEXT
  5
17C
330
1F
100
AcDbEntity
  8
TITLE
100
AcDbMText
 10
51.8872464182
 20
0.4125551099
 30
0.0
 40
0.125
 41
0.0
 71
     2
 72
     1
  1
20
  7
SLDTEXTSTYLE1
 73
     1
 44
1.0
  0
MTEXT
  5
17D
330
1F
100
AcDbEntity
  8
TITLE
100
AcDbMText
 10
51.8872464182
 20
35.7472007792
 30
0.0
 40
0.125
 41
0.0
 71
     2
 72
     1
  1
20
  7
SLDTEXTSTYLE1
 73
     1
 44
1.0
  0
MTEXT
  5
17E
330
1F
100
AcDbEntity
  8
TITLE
100
AcDbMText
 10
53.8557503552
 20
0.4125551099
 30
0.0
 40
0.125
 41
0.0
 71
     2
 72
     1
  1
19
  7
SLDTEXTSTYLE1
 73
     1
 44
1.0
  0
MTEXT
  5
17F
330
1F
100
AcDbEntity
  8
TITLE
100
AcDbMText
 10
53.8557503552
 20
35.7472007792
 30
0.0
 40
0.125
 41
0.0
 71
     2
 72
     1
  1
19
  7
SLDTEXTSTYLE1
 73
     1
 44
1.0
  0
MTEXT
  5
180
330
1F
100
AcDbEntity
  8
TITLE
100
AcDbMText
 10
55.8242542922
 20
0.4125551099
 30
0.0
 40
0.125
 41
0.0
 71
     2
 72
     1
  1
18
  7
SLDTEXTSTYLE1
 73
     1
 44
1.0
  0
MTEXT
  5
181
330
1F
100
AcDbEntity
  8
TITLE
100
AcDbMText
 10
55.8242542922
 20
35.7472007792
 30
0.0
 40
0.125
 41
0.0
 71
     2
 72
     1
  1
18
  7
SLDTEXTSTYLE1
 73
     1
 44
1.0
  0
MTEXT
  5
182
330
1F
100
AcDbEntity
  8
TITLE
100
AcDbMText
 10
57.7927582292
 20
0.4125551099
 30
0.0
 40
0.125
 41
0.0
 71
     2
 72
     1
  1
17
  7
SLDTEXTSTYLE1
 73
     1
 44
1.0
  0
MTEXT
  5
183
330
1F
100
AcDbEntity
  8
TITLE
100
AcDbMText
 10
57.7927582292
 20
35.7472007792
 30
0.0
 40
0.125
 41
0.0
 71
     2
 72
     1
  1
17
  7
SLDTEXTSTYLE1
 73
     1
 44
1.0
  0
MTEXT
  5
184
330
1F
100
AcDbEntity
  8
TITLE
100
AcDbMText
 10
59.7612621662
 20
0.4125551099
 30
0.0
 40
0.125
 41
0.0
 71
     2
 72
     1
  1
16
  7
SLDTEXTSTYLE1
 73
     1
 44
1.0
  0
MTEXT
  5
185
330
1F
100
AcDbEntity
  8
TITLE
100
AcDbMText
 10
59.7612621662
 20
35.7472007792
 30
0.0
 40
0.125
 41
0.0
 71
     2
 72
     1
  1
16
  7
SLDTEXTSTYLE1
 73
     1
 44
1.0
  0
MTEXT
  5
186
330
1F
100
AcDbEntity
  8
TITLE
100
AcDbMText
 10
61.7297661032
 20
0.4125551099
 30
0.0
 40
0.125
 41
0.0
 71
     2
 72
     1
  1
15
  7
SLDTEXTSTYLE1
 73
     1
 44
1.0
  0
MTEXT
  5
187
330
1F
100
AcDbEntity
  8
TITLE
100
AcDbMText
 10
61.7297661032
 20
35.7472007792
 30
0.0
 40
0.125
 41
0.0
 71
     2
 72
     1
  1
15
  7
SLDTEXTSTYLE1
 73
     1
 44
1.0
  0
MTEXT
  5
188
330
1F
100
AcDbEntity
  8
TITLE
100
AcDbMText
 10
63.6982700402
 20
0.4125551099
 30
0.0
 40
0.125
 41
0.0
 71
     2
 72
     1
  1
14
  7
SLDTEXTSTYLE1
 73
     1
 44
1.0
  0
MTEXT
  5
189
330
1F
100
AcDbEntity
  8
TITLE
100
AcDbMText
 10
63.6982700402
 20
35.7472007792
 30
0.0
 40
0.125
 41
0.0
 71
     2
 72
     1
  1
14
  7
SLDTEXTSTYLE1
 73
     1
 44
1.0
  0
MTEXT
  5
18A
330
1F
100
AcDbEntity
  8
TITLE
100
AcDbMText
 10
65.6667739772
 20
0.4125551099
 30
0.0
 40
0.125
 41
0.0
 71
     2
 72
     1
  1
13
  7
SLDTEXTSTYLE1
 73
     1
 44
1.0
  0
MTEXT
  5
18B
330
1F
100
AcDbEntity
  8
TITLE
100
AcDbMText
 10
65.6667739772
 20
35.7472007792
 30
0.0
 40
0.125
 41
0.0
 71
     2
 72
     1
  1
13
  7
SLDTEXTSTYLE1
 73
     1
 44
1.0
  0
MTEXT
  5
18C
330
1F
100
AcDbEntity
  8
TITLE
100
AcDbMText
 10
67.6352779142
 20
0.4125551099
 30
0.0
 40
0.125
 41
0.0
 71
     2
 72
     1
  1
12
  7
SLDTEXTSTYLE1
 73
     1
 44
1.0
  0
MTEXT
  5
18D
330
1F
100
AcDbEntity
  8
TITLE
100
AcDbMText
 10
67.6352779142
 20
35.7472007792
 30
0.0
 40
0.125
 41
0.0
 71
     2
 72
     1
  1
12
  7
SLDTEXTSTYLE1
 73
     1
 44
1.0
  0
MTEXT
  5
18E
330
1F
100
AcDbEntity
  8
TITLE
100
AcDbMText
 10
69.6037818512
 20
0.4125551099
 30
0.0
 40
0.125
 41
0.0
 71
     2
 72
     1
  1
11
  7
SLDTEXTSTYLE1
 73
     1
 44
1.0
  0
MTEXT
  5
18F
330
1F
100
AcDbEntity
  8
TITLE
100
AcDbMText
 10
69.6037818512
 20
35.7472007792
 30
0.0
 40
0.125
 41
0.0
 71
     2
 72
     1
  1
11
  7
SLDTEXTSTYLE1
 73
     1
 44
1.0
  0
MTEXT
  5
190
330
1F
100
AcDbEntity
  8
TITLE
100
AcDbMText
 10
71.5722857882
 20
0.4125551099
 30
0.0
 40
0.125
 41
0.0
 71
     2
 72
     1
  1
10
  7
SLDTEXTSTYLE1
 73
     1
 44
1.0
  0
MTEXT
  5
191
330
1F
100
AcDbEntity
  8
TITLE
100
AcDbMText
 10
71.5722857882
 20
35.7472007792
 30
0.0
 40
0.125
 41
0.0
 71
     2
 72
     1
  1
10
  7
SLDTEXTSTYLE1
 73
     1
 44
1.0
  0
MTEXT
  5
192
330
1F
100
AcDbEntity
  8
TITLE
100
AcDbMText
 10
73.5420484059
 20
0.4125551099
 30
0.0
 40
0.125
 41
0.0
 71
     2
 72
     1
  1
9
  7
SLDTEXTSTYLE1
 73
     1
 44
1.0
  0
MTEXT
  5
193
330
1F
100
AcDbEntity
  8
TITLE
100
AcDbMText
 10
73.5420484059
 20
35.7472007792
 30
0.0
 40
0.125
 41
0.0
 71
     2
 72
     1
  1
9
  7
SLDTEXTSTYLE1
 73
     1
 44
1.0
  0
MTEXT
  5
194
330
1F
100
AcDbEntity
  8
TITLE
100
AcDbMText
 10
75.5105523429
 20
0.4125551099
 30
0.0
 40
0.125
 41
0.0
 71
     2
 72
     1
  1
8
  7
SLDTEXTSTYLE1
 73
     1
 44
1.0
  0
MTEXT
  5
195
330
1F
100
AcDbEntity
  8
TITLE
100
AcDbMText
 10
75.5105523429
 20
35.7472007792
 30
0.0
 40
0.125
 41
0.0
 71
     2
 72
     1
  1
8
  7
SLDTEXTSTYLE1
 73
     1
 44
1.0
  0
MTEXT
  5
196
330
1F
100
AcDbEntity
  8
TITLE
100
AcDbMText
 10
77.4790562799
 20
0.4125551099
 30
0.0
 40
0.125
 41
0.0
 71
     2
 72
     1
  1
7
  7
SLDTEXTSTYLE1
 73
     1
 44
1.0
  0
MTEXT
  5
197
330
1F
100
AcDbEntity
  8
TITLE
100
AcDbMText
 10
77.4790562799
 20
35.7472007792
 30
0.0
 40
0.125
 41
0.0
 71
     2
 72
     1
  1
7
  7
SLDTEXTSTYLE1
 73
     1
 44
1.0
  0
MTEXT
  5
198
330
1F
100
AcDbEntity
  8
TITLE
100
AcDbMText
 10
79.447560217
 20
0.4125551099
 30
0.0
 40
0.125
 41
0.0
 71
     2
 72
     1
  1
6
  7
SLDTEXTSTYLE1
 73
     1
 44
1.0
  0
MTEXT
  5
199
330
1F
100
AcDbEntity
  8
TITLE
100
AcDbMText
 10
79.447560217
 20
35.7472007792
 30
0.0
 40
0.125
 41
0.0
 71
     2
 72
     1
  1
6
  7
SLDTEXTSTYLE1
 73
     1
 44
1.0
  0
MTEXT
  5
19A
330
1F
100
AcDbEntity
  8
TITLE
100
AcDbMText
 10
81.416064154
 20
0.4125551099
 30
0.0
 40
0.125
 41
0.0
 71
     2
 72
     1
  1
5
  7
SLDTEXTSTYLE1
 73
     1
 44
1.0
  0
MTEXT
  5
19B
330
1F
100
AcDbEntity
  8
TITLE
100
AcDbMText
 10
81.416064154
 20
35.7472007792
 30
0.0
 40
0.125
 41
0.0
 71
     2
 72
     1
  1
5
  7
SLDTEXTSTYLE1
 73
     1
 44
1.0
  0
MTEXT
  5
19C
330
1F
100
AcDbEntity
  8
TITLE
100
AcDbMText
 10
83.384568091
 20
0.4125551099
 30
0.0
 40
0.125
 41
0.0
 71
     2
 72
     1
  1
4
  7
SLDTEXTSTYLE1
 73
     1
 44
1.0
  0
MTEXT
  5
19D
330
1F
100
AcDbEntity
  8
TITLE
100
AcDbMText
 10
83.384568091
 20
35.7472007792
 30
0.0
 40
0.125
 41
0.0
 71
     2
 72
     1
  1
4
  7
SLDTEXTSTYLE1
 73
     1
 44
1.0
  0
MTEXT
  5
19E
330
1F
100
AcDbEntity
  8
TITLE
100
AcDbMText
 10
85.353072028
 20
0.4125551099
 30
0.0
 40
0.125
 41
0.0
 71
     2
 72
     1
  1
3
  7
SLDTEXTSTYLE1
 73
     1
 44
1.0
  0
MTEXT
  5
19F
330
1F
100
AcDbEntity
  8
TITLE
100
AcDbMText
 10
85.353072028
 20
35.7472007792
 30
0.0
 40
0.125
 41
0.0
 71
     2
 72
     1
  1
3
  7
SLDTEXTSTYLE1
 73
     1
 44
1.0
  0
MTEXT
  5
1A0
330
1F
100
AcDbEntity
  8
TITLE
100
AcDbMText
 10
87.321575965
 20
0.4125551099
 30
0.0
 40
0.125
 41
0.0
 71
     2
 72
     1
  1
2
  7
SLDTEXTSTYLE1
 73
     1
 44
1.0
  0
MTEXT
  5
1A1
330
1F
100
AcDbEntity
  8
TITLE
100
AcDbMText
 10
87.321575965
 20
35.7472007792
 30
0.0
 40
0.125
 41
0.0
 71
     2
 72
     1
  1
2
  7
SLDTEXTSTYLE1
 73
     1
 44
1.0
  0
MTEXT
  5
1A2
330
1F
100
AcDbEntity
  8
TITLE
100
AcDbMText
 10
88.9022846264
 20
0.4125551099
 30
0.0
 40
0.125
 41
0.0
 71
     2
 72
     1
  1
1
  7
SLDTEXTSTYLE1
 73
     1
 44
1.0
  0
MTEXT
  5
1A3
330
1F
100
AcDbEntity
  8
TITLE
100
AcDbMText
 10
88.9022846264
 20
35.7472007792
 30
0.0
 40
0.125
 41
0.0
 71
     2
 72
     1
  1
1
  7
SLDTEXTSTYLE1
 73
     1
 44
1.0
  0
SPLINE
  5
1A4
330
1F
100
AcDbEntity
  8
0
  6
SLD-Solid
 62
     7
370
    25
100
AcDbSpline
210
0.0
220
0.0
230
1.0
 70
     8
 71
     3
 72
    15
 73
    11
 74
     0
 42
0.00000001
 43
0.00000001
 40
0.0
 40
0.0
 40
0.0
 40
0.0
 40
0.1163803319015312
 40
0.2399454105944779
 40
0.3687407902266959
 40
0.4998567878400769
 40
0.6308212123173872
 40
0.7592999896992314
 40
0.8830028876474381
 40
1.0
 40
1.0
 40
1.0
 40
1.0
 10
20.90813631730477
 20
11.73281798712108
 30
0.0
 10
20.91106120324686
 20
11.67789686742193
 30
0.0
 10
20.91709154314066
 20
11.56466406939493
 30
0.0
 10
20.96720739046314
 20
11.39697950908136
 30
0.0
 10
21.05002163683939
 20
11.23602964840095
 30
0.0
 10
21.16717804327607
 20
11.09191856247474
 30
0.0
 10
21.3112887714563
 20
10.97470089414594
 30
0.0
 10
21.47267613463036
 20
10.89167458280309
 30
0.0
 10
21.64040644377679
 20
10.84166281396533
 30
0.0
 10
21.75331801291846
 20
10.83566748202309
 30
0.0
 10
21.8082009667009
 20
10.83275332957265
 30
0.0
  0
SPLINE
  5
1A5
330
1F
100
AcDbEntity
  8
0
  6
SLD-Solid
 62
     7
370
    25
100
AcDbSpline
210
0.0
220
0.0
230
1.0
 70
     8
 71
     3
 72
    15
 73
    11
 74
     0
 42
0.00000001
 43
0.00000001
 40
0.0
 40
0.0
 40
0.0
 40
0.0
 40
0.1174661597146795
 40
0.2413314903096585
 40
0.36964947236164
 40
0.5005333701482159
 40
0.6317138697903371
 40
0.7602674267227449
 40
0.8836264630024244
 40
1.0
 40
1.0
 40
1.0
 40
1.0
 10
28.20807133026956
 20
10.83275332957265
 30
0.0
 10
28.26292927934226
 20
10.83566096797132
 30
0.0
 10
28.37563365852008
 20
10.84163464336631
 30
0.0
 10
28.54337117177128
 20
10.8915763355845
 30
0.0
 10
28.70505085001026
 20
10.97473322078102
 30
0.0
 10
28.84918134943388
 20
11.09202865941352
 30
0.0
 10
28.96609761585478
 20
11.23580016079385
 30
0.0
 10
29.0490951084095
 20
11.39700631258998
 30
0.0
 10
29.09920014204971
 20
11.56481259104847
 30
0.0
 10
29.10521579660956
 20
11.6779147388714
 30
0.0
 10
29.10813597966569
 20
11.73281798712108
 30
0.0
  0
SPLINE
  5
1A6
330
1F
100
AcDbEntity
  8
0
  6
SLD-Solid
 62
     7
370
    25
100
AcDbSpline
210
0.0
220
0.0
230
1.0
 70
     8
 71
     3
 72
    15
 73
    11
 74
     0
 42
0.00000001
 43
0.00000001
 40
0.0
 40
0.0
 40
0.0
 40
0.0
 40
0.11638033190154
 40
0.2399454105944958
 40
0.3687407902267198
 40
0.4998567878401023
 40
0.6308212123174104
 40
0.759299989699249
 40
0.8830028876474477
 40
1.0
 40
1.0
 40
1.0
 40
1.0
 10
29.10813597966569
 20
21.33268849770906
 30
0.0
 10
29.10521109372359
 20
21.38760961740822
 30
0.0
 10
29.0991807538298
 20
21.50084241543522
 30
0.0
 10
29.04906490650731
 20
21.66852697574879
 30
0.0
 10
28.96625066013107
 20
21.8294768364292
 30
0.0
 10
28.84909425369439
 20
21.9735879223554
 30
0.0
 10
28.70498352551415
 20
22.09080559068421
 30
0.0
 10
28.5435961623401
 20
22.17383190202706
 30
0.0
 10
28.37586585319366
 20
22.22384367086482
 30
0.0
 10
28.262954284052
 20
22.22983900280706
 30
0.0
 10
28.20807133026956
 20
22.23275315525749
 30
0.0
  0
SPLINE
  5
1A7
330
1F
100
AcDbEntity
  8
0
  6
SLD-Solid
 62
     7
370
    25
100
AcDbSpline
210
0.0
220
0.0
230
1.0
 70
     8
 71
     3
 72
    15
 73
    11
 74
     0
 42
0.00000001
 43
0.00000001
 40
0.0
 40
0.0
 40
0.0
 40
0.0
 40
0.1174661597147085
 40
0.2413314903096913
 40
0.3696494723616538
 40
0.5005333701482176
 40
0.631713869790352
 40
0.7602674267227671
 40
0.8836264630024375
 40
1.0
 40
1.0
 40
1.0
 40
1.0
 10
21.80820096670089
 20
22.23275315525749
 30
0.0
 10
21.7533430176282
 20
22.22984551685883
 30
0.0
 10
21.64063863845039
 20
22.22387184146383
 30
0.0
 10
21.47290112519919
 20
22.17393014924566
 30
0.0
 10
21.3112214469602
 20
22.09077326404912
 30
0.0
 10
21.16709094753656
 20
21.97347782541663
 30
0.0
 10
21.05017468111568
 20
21.8297063240363
 30
0.0
 10
20.96717718856096
 20
21.66850017224018
 30
0.0
 10
20.91707215492075
 20
21.50069389378168
 30
0.0
 10
20.91105650036089
 20
21.38759174595875
 30
0.0
 10
20.90813631730477
 20
21.33268849770906
 30
0.0
  0
LINE
  5
1A8
330
1F
100
AcDbEntity
  8
0
  6
SLD-Solid
 62
     7
370
    25
100
AcDbLine
 10
22.4681361485
 20
10.846303794
 30
0.0
 11
22.4681361485
 21
10.8149059924
 31
0.0
  0
LINE
  5
1A9
330
1F
100
AcDbEntity
  8
0
  6
SLD-Solid
 62
     7
370
    25
100
AcDbLine
 10
22.9681361485
 20
10.8149059924
 30
0.0
 11
22.9681361485
 21
10.846315911
 31
0.0
  0
LINE
  5
1AA
330
1F
100
AcDbEntity
  8
0
  6
SLD-Solid
 62
     7
370
    25
100
AcDbLine
 10
27.0481361485
 20
10.8463050021
 30
0.0
 11
27.0481361485
 21
10.8149059924
 31
0.0
  0
LINE
  5
1AB
330
1F
100
AcDbEntity
  8
0
  6
SLD-Solid
 62
     7
370
    25
100
AcDbLine
 10
27.5481361485
 20
10.8149059924
 30
0.0
 11
27.5481361485
 21
10.846303794
 31
0.0
  0
SPLINE
  5
1AC
330
1F
100
AcDbEntity
  8
0
  6
SLD-Solid
 62
     7
370
    25
100
AcDbSpline
210
0.0
220
0.0
230
1.0
 70
     8
 71
     3
 72
    25
 73
    21
 74
     0
 42
0.00000001
 43
0.00000001
 40
0.0
 40
0.0
 40
0.0
 40
0.0
 40
0.0311687569684269
 40
0.0621971305592579
 40
0.093062013077746
 40
0.1239587061668257
 40
0.1863302954798318
 40
0.2494239587613673
 40
0.3125379881861727
 40
0.3752818740630917
 40
0.4378676046630944
 40
0.4999534858132162
 40
0.5623542307972452
 40
0.6251713599031001
 40
0.688523353344945
 40
0.7516477877530333
 40
0.8135854267266578
 40
0.874619319690525
 40
0.9366979015144111
 40
1.0
 40
1.0
 40
1.0
 40
1.0
 10
24.40837429421578
 20
13.05871794095925
 30
0.0
 10
24.40555161155031
 20
13.06032515292839
 30
0.0
 10
24.39991895951835
 20
13.06353233802024
 30
0.0
 10
24.39132591197862
 20
13.06803091319977
 30
0.0
 10
24.38245602899665
 20
13.07190606248823
 30
0.0
 10
24.37008234014989
 20
13.07573167988569
 30
0.0
 10
24.35379571509737
 20
13.07776985013748
 30
0.0
 10
24.33411786611924
 20
13.07621584292018
 30
0.0
 10
24.31506836289613
 20
13.07087081802363
 30
0.0
 10
24.29746281349806
 20
13.06196010510833
 30
0.0
 10
24.28192967356724
 20
13.04992974281713
 30
0.0
 10
24.26914522223135
 20
13.0350259301555
 30
0.0
 10
24.25950130117305
 20
13.01788397835113
 30
0.0
 10
24.25325297473
 20
12.99908002341032
 30
0.0
 10
24.25069341868699
 20
12.97934199092617
 30
0.0
 10
24.25194851775397
 20
12.95957234677756
 30
0.0
 10
24.2572077353539
 20
12.94065914437983
 30
0.0
 10
24.26701432149994
 20
12.92382209425868
 30
0.0
 10
24.27968522406767
 20
12.90902325802759
 30
0.0
 10
24.28896450595055
 20
12.89982131147402
 30
0.0
 10
24.2936494224319
 20
12.89517543999243
 30
0.0
  0
SPLINE
  5
1AD
330
1F
100
AcDbEntity
  8
0
  6
SLD-Solid
 62
     7
370
    25
100
AcDbSpline
210
0.0
220
0.0
230
1.0
 70
     8
 71
     3
 72
    23
 73
    19
 74
     0
 42
0.00000001
 43
0.00000001
 40
0.0
 40
0.0
 40
0.0
 40
0.0
 40
0.0156144014608188
 40
0.0312349815557715
 40
0.0624914432434012
 40
0.1250342660347524
 40
0.2500103774991241
 40
0.3749612460206233
 40
0.4999509561797221
 40
0.6248761196161547
 40
0.6874028669015498
 40
0.750008161984675
 40
0.8125797878348139
 40
0.8749934735635431
 40
0.9044519880676316
 40
0.9374218167184745
 40
0.9686976639817689
 40
1.0
 40
1.0
 40
1.0
 40
1.0
 10
25.6079078291716
 20
13.05870389607928
 30
0.0
 10
25.60246366506519
 20
13.05490266074825
 30
0.0
 10
25.59157318259123
 20
13.04729868593361
 30
0.0
 10
25.56942668168955
 20
13.03260478785723
 30
0.0
 10
25.52992080507708
 20
13.00798497165479
 30
0.0
 10
25.44810156131599
 20
12.96344847165757
 30
0.0
 10
25.32423061560803
 20
12.91344371553462
 30
0.0
 10
25.16809593058774
 20
12.87693275224954
 30
0.0
 10
25.00816800513432
 20
12.86457524126655
 30
0.0
 10
24.87480734253946
 20
12.87491077608518
 30
0.0
 10
24.77015338092204
 20
12.89532332944205
 30
0.0
 10
24.69290772243774
 20
12.91622668380331
 30
0.0
 10
24.6175249198846
 20
12.94289382662632
 30
0.0
 10
24.55770097641121
 20
12.97038810110963
 30
0.0
 10
24.51106053953443
 20
12.99583024201455
 30
0.0
 10
24.47667353528136
 20
13.01600420706161
 30
0.0
 10
24.44210293430596
 20
13.03737040061242
 30
0.0
 10
24.41962034646832
 20
13.05160008641303
 30
0.0
 10
24.40837429421578
 20
13.05871794095925
 30
0.0
  0
SPLINE
  5
1AE
330
1F
100
AcDbEntity
  8
0
  6
SLD-Solid
 62
     7
370
    25
100
AcDbSpline
210
0.0
220
0.0
230
1.0
 70
     8
 71
     3
 72
    25
 73
    21
 74
     0
 42
0.00000001
 43
0.00000001
 40
0.0
 40
0.0
 40
0.0
 40
0.0
 40
0.0311647362143121
 40
0.0621874718259185
 40
0.0930437273167678
 40
0.1239280188419958
 40
0.186265328216152
 40
0.2493184034981004
 40
0.3123911575569828
 40
0.3750993449900011
 40
0.4376544464266287
 40
0.4997396176472647
 40
0.562149356932787
 40
0.6249894275385478
 40
0.6883752173042021
 40
0.7515397448081275
 40
0.8135177371999126
 40
0.8745840943461624
 40
0.9366839432340007
 40
1.0
 40
1.0
 40
1.0
 40
1.0
 10
25.72262478849812
 20
12.89515775219946
 30
0.0
 10
25.72508216287703
 20
12.89728017839144
 30
0.0
 10
25.72998571472818
 20
12.90151536004381
 30
0.0
 10
25.73709629451563
 20
12.90811080078388
 30
0.0
 10
25.74371528226415
 20
12.91517925316667
 30
0.0
 10
25.75146685236384
 20
12.92557490721009
 30
0.0
 10
25.7588611809151
 20
12.94027333536971
 30
0.0
 10
25.76403242081261
 20
12.959392924117
 30
0.0
 10
25.76544192066479
 20
12.97920177862248
 30
0.0
 10
25.76302624160448
 20
12.99885123988097
 30
0.0
 10
25.75699189461995
 20
13.01759761253854
 30
0.0
 10
25.74733820283837
 20
13.0347152087369
 30
0.0
 10
25.73452843660335
 20
13.04961953249712
 30
0.0
 10
25.719013602002
 20
13.06187172621801
 30
0.0
 10
25.70137468577656
 20
13.0709478272109
 30
0.0
 10
25.68241419392254
 20
13.07642467284547
 30
0.0
 10
25.66290077257318
 20
13.07782492203305
 30
0.0
 10
25.64379339628367
 20
13.07422650647609
 30
0.0
 10
25.62562501471998
 20
13.06723522083365
 30
0.0
 10
25.61385161480034
 20
13.06156599657095
 30
0.0
 10
25.6079078291716
 20
13.05870389607928
 30
0.0
  0
SPLINE
  5
1AF
330
1F
100
AcDbEntity
  8
0
  6
SLD-Solid
 62
     7
370
    25
100
AcDbSpline
210
0.0
220
0.0
230
1.0
 70
     8
 71
     3
 72
    26
 73
    22
 74
     0
 42
0.00000001
 43
0.00000001
 40
0.0
 40
0.0
 40
0.0
 40
0.0
 40
0.0312500480009986
 40
0.0624789515485774
 40
0.0936897165597692
 40
0.1249175655477749
 40
0.1874435937668393
 40
0.2500028565434126
 40
0.3217723511850219
 40
0.3928431277151818
 40
0.4999727378190276
 40
0.5626081003823554
 40
0.6249884235186928
 40
0.687083119810898
 40
0.750025256247162
 40
0.8140597673990702
 40
0.8750387025461391
 40
0.90449474225366
 40
0.9374523816130157
 40
0.9687131713228962
 40
1.0
 40
1.0
 40
1.0
 40
1.0
 10
24.2936494224319
 20
12.89517543999243
 30
0.0
 10
24.30686938755042
 20
12.88647446981921
 30
0.0
 10
24.33330037287524
 20
12.86907841673602
 30
0.0
 10
24.37337503047436
 20
12.84362992383107
 30
0.0
 10
24.41426822239882
 20
12.8194984563986
 30
0.0
 10
24.47031127897679
 20
12.7899302501879
 30
0.0
 10
24.54280955656134
 20
12.75763422796969
 30
0.0
 10
24.63698308955243
 20
12.72409539182851
 30
0.0
 10
24.73779193014127
 20
12.6968623364067
 30
0.0
 10
24.86296256426175
 20
12.67465053992285
 30
0.0
 10
24.9855016308994
 20
12.66665372299833
 30
0.0
 10
25.10348976608982
 20
12.67112169634185
 30
0.0
 10
25.1980304296663
 20
12.68208463335263
 30
0.0
 10
25.2915541432529
 20
12.70032835251765
 30
0.0
 10
25.38422717501579
 20
12.72566767995856
 30
0.0
 10
25.47421664198831
 20
12.75753840676247
 30
0.0
 10
25.54563969865813
 20
12.78999897503654
 30
0.0
 10
25.60061514354483
 20
12.81986535483905
 30
0.0
 10
25.64152750674969
 20
12.84395936869598
 30
0.0
 10
25.6825949228984
 20
12.86955194279804
 30
0.0
 10
25.70927779721537
 20
12.88662011386997
 30
0.0
 10
25.72262478849812
 20
12.89515775219946
 30
0.0
  0
LINE
  5
1B0
330
1F
100
AcDbEntity
  8
0
  6
SLD-Solid
 62
     7
370
    25
100
AcDbLine
 10
25.6074836131
 20
13.0587038961
 30
0.0
 11
25.6079078292
 21
13.0587038961
 31
0.0
  0
LINE
  5
1B1
330
1F
100
AcDbEntity
  8
0
  6
SLD-Solid
 62
     7
370
    25
100
AcDbLine
 10
24.4087985165
 20
13.0587179326
 30
0.0
 11
24.4083743074
 21
13.0587179326
 31
0.0
  0
SPLINE
  5
1B2
330
1F
100
AcDbEntity
  8
0
  6
SLD-Solid
 62
     7
370
    25
100
AcDbSpline
210
0.0
220
0.0
230
1.0
 70
     8
 71
     3
 72
   130
 73
   126
 74
     0
 42
0.00000001
 43
0.00000001
 40
0.0
 40
0.0
 40
0.0
 40
0.0
 40
0.0156249998570748
 40
0.0156249998570748
 40
0.0158691404798416
 40
0.0158691404798416
 40
0.0161132811026084
 40
0.0161132811026084
 40
0.016601562348142
 40
0.016601562348142
 40
0.0175781248392092
 40
0.0175781248392092
 40
0.0195312498213435
 40
0.0195312498213435
 40
0.0234374997856123
 40
0.0234374997856123
 40
0.0312499997141497
 40
0.0312499997141497
 40
0.0624999994282994
 40
0.0624999994282994
 40
0.0781249992853742
 40
0.0781249992853742
 40
0.093749999142449
 40
0.093749999142449
 40
0.1249999988565987
 40
0.1249999988565987
 40
0.1874999982848981
 40
0.1874999982848981
 40
0.2499999977131974
 40
0.2499999977131974
 40
0.3124999971414968
 40
0.3124999971414968
 40
0.3749999965697961
 40
0.3749999965697961
 40
0.4999999954263948
 40
0.4999999954263948
 40
0.5624999948546943
 40
0.5624999948546943
 40
0.6249999942829936
 40
0.6249999942829936
 40
0.632812494211531
 40
0.632812494211531
 40
0.6406249941400683
 40
0.6406249941400683
 40
0.6562499939971432
 40
0.6562499939971432
 40
0.6874999937112929
 40
0.6874999937112929
 40
0.7031249935683677
 40
0.7031249935683677
 40
0.7187499934254425
 40
0.7187499934254425
 40
0.7499999931395922
 40
0.7499999931395922
 40
0.7519531181217265
 40
0.7519531181217265
 40
0.7539062431038609
 40
0.7539062431038609
 40
0.7578124930681296
 40
0.7578124930681296
 40
0.765624992996667
 40
0.765624992996667
 40
0.7812499928537419
 40
0.7812499928537419
 40
0.8124999925678915
 40
0.8124999925678915
 40
0.8164062425321602
 40
0.8164062425321602
 40
0.8203124924964289
 40
0.8203124924964289
 40
0.8281249924249664
 40
0.8281249924249664
 40
0.8437499922820413
 40
0.8437499922820413
 40
0.8749999919961909
 40
0.8749999919961909
 40
0.8754882732417246
 40
0.8754882732417246
 40
0.8759765544872582
 40
0.8759765544872582
 40
0.8769531169783253
 40
0.8769531169783253
 40
0.8789062419604596
 40
0.8789062419604596
 40
0.8828124919247284
 40
0.8828124919247284
 40
0.8906249918532658
 40
0.8906249918532658
 40
0.9062499917103406
 40
0.9062499917103406
 40
0.9374999914244904
 40
0.9374999914244904
 40
0.9377441320472572
 40
0.9377441320472572
 40
0.9379882726700239
 40
0.9379882726700239
 40
0.9384765539155575
 40
0.9384765539155575
 40
0.9394531164066247
 40
0.9394531164066247
 40
0.9414062413887591
 40
0.9414062413887591
 40
0.9453124913530278
 40
0.9453124913530278
 40
0.9531249912815651
 40
0.9531249912815651
 40
0.96874999113864
 40
0.96874999113864
 40
0.9688720614500235
 40
0.9688720614500235
 40
0.9689941317614068
 40
0.9689941317614068
 40
0.9692382723841737
 40
0.9692382723841737
 40
0.9697265536297073
 40
0.9697265536297073
 40
0.9707031161207744
 40
0.9707031161207744
 40
0.9726562411029087
 40
0.9726562411029087
 40
0.9765624910671775
 40
0.9765624910671775
 40
0.9843749909957149
 40
0.9843749909957149
 40
0.9999999908527897
 40
0.9999999908527897
 40
0.9999999908527897
 40
0.9999999908527897
 10
25.60748361313155
 20
13.05870389607928
 30
0.0
 10
25.6008518954388
 20
13.05405171537257
 30
0.0
 10
25.595396450948
 20
13.05027210128042
 30
0.0
 10
25.59105113063898
 20
13.04731962964111
 30
0.0
 10
25.59094662153748
 20
13.04724863926876
 30
0.0
 10
25.59077522810092
 20
13.04713226182852
 30
0.0
 10
25.59068952030917
 20
13.04707408497346
 30
0.0
 10
25.59043236371344
 20
13.04689959000348
 30
0.0
 10
25.59026088168894
 20
13.04678330748373
 30
0.0
 10
25.58974630273244
 20
13.04643460230524
 30
0.0
 10
25.5894030729174
 20
13.04620232202724
 30
0.0
 10
25.58837285193218
 20
13.04550605071618
 30
0.0
 10
25.58768532922186
 20
13.0450426292061
 30
0.0
 10
25.58562063486676
 20
13.04365464276767
 30
0.0
 10
25.5842413369976
 20
13.04273235593119
 30
0.0
 10
25.58009493799335
 20
13.03997460778912
 30
0.0
 10
25.57731933145721
 20
13.03814825885092
 30
0.0
 10
25.5633845897034
 20
13.02907726327582
 30
0.0
 10
25.55214238032976
 20
13.02207033915638
 30
0.0
 10
25.53498628487608
 20
13.01183641171383
 30
0.0
 10
25.52927209049507
 20
13.00850288303996
 30
0.0
 10
25.51773546879635
 20
13.00192145187849
 30
0.0
 10
25.51193258117877
 20
12.99868520518398
 30
0.0
 10
25.49442018669275
 20
12.98913987175908
 30
0.0
 10
25.48260694709027
 20
12.98299419168734
 30
0.0
 10
25.44675232624096
 20
12.96521077810671
 30
0.0
 10
25.42250696426603
 20
12.95432304177768
 30
0.0
 10
25.37320349477081
 20
12.9344191556874
 30
0.0
 10
25.34816694531539
 20
12.92541369907288
 30
0.0
 10
25.29732584995602
 20
12.90929575870512
 30
0.0
 10
25.27170266718852
 20
12.90224498232452
 30
0.0
 10
25.21990760000777
 20
12.89011357851716
 30
0.0
 10
25.19376002360016
 20
12.88504065753223
 30
0.0
 10
25.11457131660942
 20
12.87280023733372
 30
0.0
 10
25.06147090265389
 20
12.86871128490377
 30
0.0
 10
24.98145589143541
 20
12.86869684110162
 30
0.0
 10
24.95489621465672
 20
12.86972072562571
 30
0.0
 10
24.90184538943113
 20
12.87382586426254
 30
0.0
 10
24.87538071185967
 20
12.87690712315212
 30
0.0
 10
24.84567811943961
 20
12.88153081517044
 30
0.0
 10
24.84244131885924
 20
12.88205042289139
 30
0.0
 10
24.83590486761359
 20
12.88313091698716
 30
0.0
 10
24.83263685547302
 20
12.88368687831107
 30
0.0
 10
24.82283346889676
 20
12.88540190511081
 30
0.0
 10
24.81629874430849
 20
12.88660811341471
 30
0.0
 10
24.79669724505067
 20
12.89041530963856
 30
0.0
 10
24.78363314491968
 20
12.89320486887069
 30
0.0
 10
24.76404264369604
 20
12.89776635034324
 30
0.0
 10
24.75748718094517
 20
12.89935490224945
 30
0.0
 10
24.74449871156577
 20
12.90262783692425
 30
0.0
 10
24.73803686895154
 20
12.90431893390708
 30
0.0
 10
24.71874856047659
 20
12.90955611379189
 30
0.0
 10
24.70601931527699
 20
12.91326608563018
 30
0.0
 10
24.69263232639694
 20
12.91744010670145
 30
0.0
 10
24.69179363554681
 20
12.91770271114399
 30
0.0
 10
24.69017027952261
 20
12.91821328154004
 30
0.0
 10
24.68935953652392
 20
12.91846937847693
 30
0.0
 10
24.68693011258259
 20
12.91924010450419
 30
0.0
 10
24.68531423669525
 20
12.91975716881114
 30
0.0
 10
24.6804778293496
 20
12.92131810259836
 30
0.0
 10
24.67726851821642
 20
12.92237171294497
 30
0.0
 10
24.66768546655717
 20
12.92557150745022
 30
0.0
 10
24.66135660790476
 20
12.92775665507425
 30
0.0
 10
24.64254955797202
 20
12.93446795180799
 30
0.0
 10
24.63025089465836
 20
12.9391499547793
 30
0.0
 10
24.61668415796755
 20
12.94465098891446
 30
0.0
 10
24.61509990375101
 20
12.94529854506519
 30
0.0
 10
24.61201571218733
 20
12.94656981562275
 30
0.0
 10
24.6104761091156
 20
12.94720961366821
 30
0.0
 10
24.60586477820378
 20
12.94914149610456
 30
0.0
 10
24.60280052867247
 20
12.95044606879546
 30
0.0
 10
24.59363769449701
 20
12.9544097400682
 30
0.0
 10
24.58756902435502
 20
12.95711879185004
 30
0.0
 10
24.56948267829712
 20
12.96544575999565
 30
0.0
 10
24.55758466800742
 20
12.97126348915947
 30
0.0
 10
24.54566279964112
 20
12.9774427001749
 30
0.0
 10
24.54551904008342
 20
12.9775172776467
 30
0.0
 10
24.54519146870853
 20
12.97768732324911
 30
0.0
 10
24.54502754987649
 20
12.97777248066792
 30
0.0
 10
24.54453539395331
 20
12.9780283567772
 30
0.0
 10
24.5442067574351
 20
12.97819947932048
 30
0.0
 10
24.54321925022602
 20
12.97871446236166
 30
0.0
 10
24.54255878188062
 20
12.97905993827086
 30
0.0
 10
24.54057098666139
 20
12.9801028276437
 30
0.0
 10
24.53923726960272
 20
12.98080670275259
 30
0.0
 10
24.53521056123367
 20
12.98294417466027
 30
0.0
 10
24.53249201270048
 20
12.98440361804004
 30
0.0
 10
24.52423416765161
 20
12.98888533450334
 30
0.0
 10
24.51859267118167
 20
12.99201099391085
 30
0.0
 10
24.50125963536615
 20
13.00180151742927
 30
0.0
 10
24.48915954058594
 20
13.00887992683609
 30
0.0
 10
24.47641670289257
 20
13.01656933780778
 30
0.0
 10
24.47635742608866
 20
13.01660511572929
 30
0.0
 10
24.47619914802601
 20
13.01670065953667
 30
0.0
 10
24.47611993510935
 20
13.01674848454279
 30
0.0
 10
24.47588207470518
 20
13.01689211886843
 30
0.0
 10
24.47572320556349
 20
13.01698808749524
 30
0.0
 10
24.47524571153641
 20
13.01727663060481
 30
0.0
 10
24.47492620004898
 20
13.01746984231671
 30
0.0
 10
24.47396411929714
 20
13.01805202636899
 30
0.0
 10
24.47331800374277
 20
13.01844354762595
 30
0.0
 10
24.47136547288345
 20
13.01962830706311
 30
0.0
 10
24.47004487337567
 20
13.02043174090961
 30
0.0
 10
24.46602634598962
 20
13.0228828251143
 30
0.0
 10
24.46327168913829
 20
13.02457125813767
 30
0.0
 10
24.45478087022567
 20
13.02979968786853
 30
0.0
 10
24.44881785789664
 20
13.03350281523675
 30
0.0
 10
24.44250363343759
 20
13.03745408011291
 30
0.0
 10
24.44249367722341
 20
13.03746031129672
 30
0.0
 10
24.4424346074639
 20
13.03749727895334
 30
0.0
 10
24.44240501581046
 20
13.03751579917284
 30
0.0
 10
24.44231607052962
 20
13.03757146900484
 30
0.0
 10
24.44225654658167
 20
13.03760872779088
 30
0.0
 10
24.44207729345993
 20
13.03772094084313
 30
0.0
 10
24.4419568830082
 20
13.03779633180346
 30
0.0
 10
24.44159292657552
 20
13.03802425146095
 30
0.0
 10
24.44134665551689
 20
13.0381785269346
 30
0.0
 10
24.44059694231077
 20
13.03864834046153
 30
0.0
 10
24.44008260013003
 20
13.03897086562079
 30
0.0
 10
24.43849597580698
 20
13.03996638952248
 30
0.0
 10
24.43738009583503
 20
13.04066733668882
 30
0.0
 10
24.43385808517917
 20
13.0428819718835
 30
0.0
 10
24.43127758293884
 20
13.04450745360749
 30
0.0
 10
24.42283878371397
 20
13.04983107356204
 30
0.0
 10
24.41628318068424
 20
13.05397638599763
 30
0.0
 10
24.4087985164507
 20
13.05871793263184
 30
0.0
  0
SPLINE
  5
1B3
330
1F
100
AcDbEntity
  8
0
  6
SLD-Solid
 62
     7
370
    25
100
AcDbSpline
210
0.0
220
0.0
230
1.0
 70
     8
 71
     3
 72
    36
 73
    32
 74
     0
 42
0.00000001
 43
0.00000001
 40
0.8125
 40
0.8125
 40
0.8125
 40
0.8125
 40
0.84375
 40
0.84375
 40
0.859375
 40
0.859375
 40
0.8671875
 40
0.8671875
 40
0.87109375
 40
0.87109375
 40
0.873046875
 40
0.873046875
 40
0.875
 40
0.875
 40
0.90625
 40
0.90625
 40
0.921875
 40
0.921875
 40
0.9296875
 40
0.9296875
 40
0.93359375
 40
0.93359375
 40
0.935546875
 40
0.935546875
 40
0.9365234375
 40
0.9365234375
 40
0.93701171875
 40
0.93701171875
 40
0.9375
 40
0.9375
 40
1.0
 40
1.0
 40
1.0
 40
1.0
 10
25.66239181307501
 20
13.07699026382607
 30
0.0
 10
25.65940330114504
 20
13.07682401183112
 30
0.0
 10
25.65634517017367
 20
13.07646669337519
 30
0.0
 10
25.65165351141162
 20
13.0756441159998
 30
0.0
 10
25.65007221476652
 20
13.07532215692607
 30
0.0
 10
25.647674149938
 20
13.0747675683926
 30
0.0
 10
25.64687044168464
 20
13.0745707638943
 30
0.0
 10
25.64565834880144
 20
13.07425764466612
 30
0.0
 10
25.64525322942315
 20
13.07415028617661
 30
0.0
 10
25.64464391766254
 20
13.07398477032216
 30
0.0
 10
25.6444405416268
 20
13.07392885201732
 30
0.0
 10
25.64403324531303
 20
13.0738155227009
 30
0.0
 10
25.64379578374664
 20
13.07374855857716
 30
0.0
 10
25.6408947147666
 20
13.07292228628008
 30
0.0
 10
25.63801209532049
 20
13.07197876023288
 30
0.0
 10
25.63345979159376
 20
13.07031468415777
 30
0.0
 10
25.63190429452993
 20
13.06971852763201
 30
0.0
 10
25.62951394564473
 20
13.0687620960923
 30
0.0
 10
25.6287076454645
 20
13.06843291945388
 30
0.0
 10
25.62748391814037
 20
13.06792360530849
 30
0.0
 10
25.62707362952315
 20
13.06775124239539
 30
0.0
 10
25.62645462717838
 20
13.06748881072881
 30
0.0
 10
25.62624769816029
 20
13.06740068562379
 30
0.0
 10
25.62593641225889
 20
13.06726752614203
 30
0.0
 10
25.62583250156271
 20
13.0672229776774
 30
0.0
 10
25.62567641242243
 20
13.0671559120244
 30
0.0
 10
25.62562434552634
 20
13.06713351631406
 30
0.0
 10
25.6255201373684
 20
13.06708864390802
 30
0.0
 10
25.62544709298029
 20
13.06705714663625
 30
0.0
 10
25.62141257687466
 20
13.06531608364974
 30
0.0
 10
25.61543560521609
 20
13.06253616646466
 30
0.0
 10
25.60748361313155
 20
13.05870389607928
 30
0.0
  0
SPLINE
  5
1B4
330
1F
100
AcDbEntity
  8
0
  6
SLD-Solid
 62
     7
370
    25
100
AcDbSpline
210
0.0
220
0.0
230
1.0
 70
     8
 71
     3
 72
    42
 73
    38
 74
     0
 42
0.00000001
 43
0.00000001
 40
0.0
 40
0.0
 40
0.0
 40
0.0
 40
0.0312499972788406
 40
0.0312499972788406
 40
0.0317382784863225
 40
0.0317382784863225
 40
0.0322265596938044
 40
0.0322265596938044
 40
0.0332031221087682
 40
0.0332031221087682
 40
0.0351562469386957
 40
0.0351562469386957
 40
0.0390624965985508
 40
0.0390624965985508
 40
0.0468749959182609
 40
0.0468749959182609
 40
0.0624999945576813
 40
0.0624999945576813
 40
0.0644531193876088
 40
0.0644531193876088
 40
0.0664062442175363
 40
0.0664062442175363
 40
0.0703124938773914
 40
0.0703124938773914
 40
0.0781249931971016
 40
0.0781249931971016
 40
0.0937499918365219
 40
0.0937499918365219
 40
0.097656241496377
 40
0.097656241496377
 40
0.101562491156232
 40
0.101562491156232
 40
0.1093749904759422
 40
0.1093749904759422
 40
0.1249999891153625
 40
0.1249999891153625
 40
0.1874999836730438
 40
0.1874999836730438
 40
0.1874999836730438
 40
0.1874999836730438
 10
24.40879850330565
 20
13.05871794095925
 30
0.0
 10
24.40503639368826
 20
13.06086125621692
 30
0.0
 10
24.40220656588047
 20
13.06245167543585
 30
0.0
 10
24.40027907858393
 20
13.0635054101984
 30
0.0
 10
24.40021016762585
 20
13.06354306178624
 30
0.0
 10
24.4001118118671
 20
13.06359674682058
 30
0.0
 10
24.40006270371386
 20
13.06362352999199
 30
0.0
 10
24.39991558843147
 20
13.06370370146897
 30
0.0
 10
24.39981779047962
 20
13.06375691173727
 30
0.0
 10
24.39952523332458
 20
13.06391583039311
 30
0.0
 10
24.39933131082185
 20
13.06402082663159
 30
0.0
 10
24.39875289004579
 20
13.06433296675081
 30
0.0
 10
24.39837173850437
 20
13.06453726203532
 30
0.0
 10
24.39724167025825
 20
13.06513875350389
 30
0.0
 10
24.39650613992795
 20
13.06552455530304
 30
0.0
 10
24.39435309017497
 20
13.06663638316074
 30
0.0
 10
24.392989111928
 20
13.06731683167957
 30
0.0
 10
24.39153493622257
 20
13.06801396995367
 30
0.0
 10
24.39131016592453
 20
13.0681211436765
 30
0.0
 10
24.39092549123663
 20
13.06830322979745
 30
0.0
 10
24.3907337108739
 20
13.06839342367864
 30
0.0
 10
24.39016004069532
 20
13.06866145778436
 30
0.0
 10
24.38977982178907
 20
13.06883675047104
 30
0.0
 10
24.38864584843858
 20
13.06935243837964
 30
0.0
 10
24.38789877736182
 20
13.06968264345016
 30
0.0
 10
24.3856842954686
 20
13.07063249805604
 30
0.0
 10
24.38424361597626
 20
13.07121138698574
 30
0.0
 10
24.38248731190136
 20
13.07186706380509
 30
0.0
 10
24.38208055426905
 20
13.07201580987066
 30
0.0
 10
24.38132054707614
 20
13.07228711039131
 30
0.0
 10
24.38093988063299
 20
13.07241990032732
 30
0.0
 10
24.37979589286521
 20
13.07280968916239
 30
0.0
 10
24.37903058310199
 20
13.0730581070885
 30
0.0
 10
24.37672670087911
 20
13.07376903697498
 30
0.0
 10
24.37518017548284
 20
13.07419722504354
 30
0.0
 10
24.36739454007508
 20
13.07610933944085
 30
0.0
 10
24.36099011171467
 20
13.07694298943727
 30
0.0
 10
24.35432786204193
 20
13.07710076125787
 30
0.0
  0
SPLINE
  5
1B5
330
1F
100
AcDbEntity
  8
0
  6
SLD-Solid
 62
     7
370
    25
100
AcDbSpline
210
0.0
220
0.0
230
1.0
 70
     8
 71
     3
 72
    20
 73
    16
 74
     0
 42
0.00000001
 43
0.00000001
 40
0.0
 40
0.0
 40
0.0
 40
0.0
 40
0.0120778107416044
 40
0.0855948800221798
 40
0.1596260788044217
 40
0.2344535130767733
 40
0.3103716109473567
 40
0.3838952835510862
 40
0.4579331342282845
 40
0.5327673129957542
 40
0.608692298776874
 40
0.7556009694114542
 40
0.8309774555448641
 40
0.9069083100532307
 40
1.0
 40
1.0
 40
1.0
 40
1.0
 10
27.04813614848523
 20
10.83700768238194
 30
0.0
 10
27.0471529880401
 20
10.8370017207079
 30
0.0
 10
27.04018537593357
 20
10.83695947060271
 30
0.0
 10
27.0278679509192
 20
10.83686177080687
 30
0.0
 10
27.01130777191876
 20
10.83671552106176
 30
0.0
 10
26.99560920688593
 20
10.83655035700918
 30
0.0
 10
26.98102616807877
 20
10.83637282024212
 30
0.0
 10
26.96768963691036
 20
10.83618513647254
 30
0.0
 10
26.95567787637989
 20
10.83599035843211
 30
0.0
 10
26.94490735689462
 20
10.8357877400823
 30
0.0
 10
26.93259283118887
 20
10.83551524879393
 30
0.0
 10
26.92323557969817
 20
10.83524019161623
 30
0.0
 10
26.91714842733579
 20
10.83497320683323
 30
0.0
 10
26.91383259994029
 20
10.83475973094505
 30
0.0
 10
26.91338349805427
 20
10.83462066353063
 30
0.0
 10
26.91313614848523
 20
10.8345440700758
 30
0.0
  0
LINE
  5
1B6
330
1F
100
AcDbEntity
  8
0
  6
SLD-Solid
 62
     7
370
    25
100
AcDbLine
 10
26.9131361485
 20
10.8345440701
 30
0.0
 11
26.9131361485
 21
10.8327532424
 31
0.0
  0
LINE
  5
1B7
330
1F
100
AcDbEntity
  8
0
  6
SLD-Solid
 62
     7
370
    25
100
AcDbLine
 10
26.9131361485
 20
10.8327532424
 30
0.0
 11
22.9681361485
 21
10.8327532424
 31
0.0
  0
LINE
  5
1B8
330
1F
100
AcDbEntity
  8
0
  6
SLD-Solid
 62
     7
370
    25
100
AcDbLine
 10
22.4681361485
 20
10.8327532424
 30
0.0
 11
21.8082011086
 21
10.8327532424
 31
0.0
  0
LINE
  5
1B9
330
1F
100
AcDbEntity
  8
0
  6
SLD-Solid
 62
     7
370
    25
100
AcDbLine
 10
28.2080711883
 20
10.8327532424
 30
0.0
 11
27.5481361485
 21
10.8327532424
 31
0.0
  0
LINE
  5
1BA
330
1F
100
AcDbEntity
  8
0
  6
SLD-Solid
 62
     7
370
    25
100
AcDbLine
 10
23.6081361485
 20
10.9410064511
 30
0.0
 11
23.6081361485
 21
10.8341840365
 31
0.0
  0
LINE
  5
1BB
330
1F
100
AcDbEntity
  8
0
  6
SLD-Solid
 62
     7
370
    25
100
AcDbLine
 10
23.6081361485
 20
10.8341840365
 30
0.0
 11
26.4081361485
 21
10.8341840365
 31
0.0
  0
LINE
  5
1BC
330
1F
100
AcDbEntity
  8
0
  6
SLD-Solid
 62
     7
370
    25
100
AcDbLine
 10
26.4081361485
 20
10.9410064511
 30
0.0
 11
26.4081361485
 21
10.8341840365
 31
0.0
  0
LINE
  5
1BD
330
1F
100
AcDbEntity
  8
0
  6
SLD-Solid
 62
     7
370
    25
100
AcDbLine
 10
26.4081361485
 20
10.9410064511
 30
0.0
 11
23.6081361485
 21
10.9410064511
 31
0.0
  0
ELLIPSE
  5
1BE
330
1F
100
AcDbEntity
  8
0
  6
SLD-Solid
 62
     7
370
    25
100
AcDbEllipse
 10
24.2887743104
 20
53.878366901
 30
0.0
 11
-13.11887150494025
 21
41.49530792280678
 31
0.0
210
0.0
220
0.0
230
1.0
 40
0.8726612413
 41
2.762581095997444
 42
2.784655747723737
  0
SPLINE
  5
1BF
330
1F
100
AcDbEntity
  8
0
  6
SLD-Solid
 62
     7
370
    25
100
AcDbSpline
210
0.0
220
0.0
230
1.0
 70
     8
 71
     3
 72
    20
 73
    16
 74
     0
 42
0.00000001
 43
0.00000001
 40
0.0
 40
0.0
 40
0.0
 40
0.0
 40
0.1250000000000011
 40
0.1250000000000011
 40
0.2500000000000021
 40
0.2500000000000021
 40
0.3750000000000032
 40
0.3750000000000032
 40
0.5000000000000042
 40
0.5000000000000042
 40
0.6250000000000053
 40
0.6250000000000053
 40
0.7500000000000063
 40
0.7500000000000063
 40
1.0
 40
1.0
 40
1.0
 40
1.0
 10
23.92832649594423
 20
10.99833313911182
 30
0.0
 10
23.93185030576657
 20
10.99798801725208
 30
0.0
 10
23.93608334036423
 20
10.99771066844863
 30
0.0
 10
23.94553504226613
 20
10.99731359109777
 30
0.0
 10
23.95070793913831
 20
10.99719787603718
 30
0.0
 10
23.96112906129988
 20
10.99714734649629
 30
0.0
 10
23.96644157899843
 20
10.9972131774396
 30
0.0
 10
23.97627548160307
 20
10.99751412030788
 30
0.0
 10
23.98089853935767
 20
10.99775241441072
 30
0.0
 10
23.98867858321401
 20
10.99836111291178
 30
0.0
 10
23.9918961205603
 20
10.99873512459001
 30
0.0
 10
23.99644524904961
 20
10.99956443514557
 30
0.0
 10
23.99777635310348
 20
11.00001549905646
 30
0.0
 10
23.99866618688991
 20
11.00141011641186
 30
0.0
 10
23.99499337020323
 20
11.0023406493745
 30
0.0
 10
23.98794580102623
 20
11.00304062070684
 30
0.0
  0
ELLIPSE
  5
1C0
330
1F
100
AcDbEntity
  8
0
  6
SLD-Solid
 62
     7
370
    25
100
AcDbEllipse
 10
24.3961220896
 20
53.878366901
 30
0.0
 11
-13.11887150494076
 21
41.49530792280664
 31
0.0
210
0.0
220
0.0
230
1.0
 40
0.8726612413
 41
2.761341225017293
 42
2.783416451928112
  0
SPLINE
  5
1C1
330
1F
100
AcDbEntity
  8
0
  6
SLD-Solid
 62
     7
370
    25
100
AcDbSpline
210
0.0
220
0.0
230
1.0
 70
     8
 71
     3
 72
    18
 73
    14
 74
     0
 42
0.00000001
 43
0.00000001
 40
0.0
 40
0.0
 40
0.0
 40
0.0
 40
0.2500000000000027
 40
0.2500000000000027
 40
0.3750000000000044
 40
0.3750000000000044
 40
0.5000000000000061
 40
0.5000000000000061
 40
0.6250000000000078
 40
0.6250000000000078
 40
0.7500000000000095
 40
0.7500000000000095
 40
1.0
 40
1.0
 40
1.0
 40
1.0
 10
23.13794580102623
 20
11.09791979818828
 30
0.0
 10
23.13095718717289
 20
11.09878589739696
 30
0.0
 10
23.12081376400867
 20
11.09932894396353
 30
0.0
 10
23.10509239207085
 20
11.09942509035105
 30
0.0
 10
23.09980814251089
 20
11.09934083064979
 30
0.0
 10
23.08995482205052
 20
11.09895621679621
 30
0.0
 10
23.08533724830212
 20
11.09865258340444
 30
0.0
 10
23.07757311298493
 20
11.09788130075743
 30
0.0
 10
23.07434775603323
 20
11.09740564816413
 30
0.0
 10
23.06982740492651
 20
11.09636534428317
 30
0.0
 10
23.06849039080718
 20
11.09579333696803
 30
0.0
 10
23.06761438396896
 20
11.09406301878831
 30
0.0
 10
23.07132435040987
 20
11.09289590188425
 30
0.0
 10
23.07832649594422
 20
11.09203780899049
 30
0.0
  0
SPLINE
  5
1C2
330
1F
100
AcDbEntity
  8
0
  6
SLD-Solid
 62
     7
370
    25
100
AcDbSpline
210
0.0
220
0.0
230
1.0
 70
     8
 71
     3
 72
    37
 73
    33
 74
     0
 42
0.00000001
 43
0.00000001
 40
0.0
 40
0.0
 40
0.0
 40
0.0
 40
0.0529252592423306
 40
0.0800803561642513
 40
0.1074351600567693
 40
0.1603604241191724
 40
0.1875156304868285
 40
0.2148706118934418
 40
0.2413579042391118
 40
0.2680305404319988
 40
0.2949902965029783
 40
0.3223434026773664
 40
0.3488214048762558
 40
0.4023875784711688
 40
0.4297312328982644
 40
0.4561980132741801
 40
0.5097413188112639
 40
0.5370730626496768
 40
0.5635337476727962
 40
0.6170643708634564
 40
0.6443892148750439
 40
0.6708530685490063
 40
0.724389805009579
 40
0.7517174457413827
 40
0.7781915525774354
 40
0.8317489820554135
 40
0.8590871689412428
 40
0.8855719377280048
 40
0.9122418807971734
 40
0.9391986034915559
 40
0.9665481547835365
 40
1.0
 40
1.0
 40
1.0
 40
1.0
 10
22.46813614848523
 20
10.84630379400787
 30
0.0
 10
22.46877408657435
 20
10.84665547344886
 30
0.0
 10
22.46973934040812
 20
10.84718759393902
 30
0.0
 10
22.47575203159544
 20
10.84791261715908
 30
0.0
 10
22.483871880255
 20
10.84863351195952
 30
0.0
 10
22.49542871119997
 20
10.84934284043022
 30
0.0
 10
22.51004443774834
 20
10.85001880120217
 30
0.0
 10
22.52257835708689
 20
10.8505073898303
 30
0.0
 10
22.5364273619909
 20
10.85096733430437
 30
0.0
 10
22.55148089566322
 20
10.85139540037984
 30
0.0
 10
22.56788633914473
 20
10.8517934973713
 30
0.0
 10
22.58533901857254
 20
10.852151543839
 30
0.0
 10
22.609788416874
 20
10.85257074911503
 30
0.0
 10
22.63591142551319
 20
10.85289953502896
 30
0.0
 10
22.66306244434705
 20
10.85312482916602
 30
0.0
 10
22.69072688680248
 20
10.85327958851628
 30
0.0
 10
22.71893090806994
 20
10.85332648701297
 30
0.0
 10
22.74696889210769
 20
10.85326262303885
 30
0.0
 10
22.77472757788483
 20
10.85312632829124
 30
0.0
 10
22.8018363820507
 20
10.85288345470093
 30
0.0
 10
22.82760605982055
 20
10.85254177067766
 30
0.0
 10
22.85233818611959
 20
10.85213818448674
 30
0.0
 10
22.87530610919673
 20
10.85164745259144
 30
0.0
 10
22.89591236561733
 20
10.85108591839996
 30
0.0
 10
22.91483781081179
 20
10.85048264897117
 30
0.0
 10
22.93107999548414
 20
10.84982466024439
 30
0.0
 10
22.94420583743081
 20
10.84913293268028
 30
0.0
 10
22.9524272999285
 20
10.84860174906652
 30
0.0
 10
22.95902195204288
 20
10.84806505939651
 30
0.0
 10
22.96377401918035
 20
10.84752028437264
 30
0.0
 10
22.96780294440064
 20
10.84692677037359
 30
0.0
 10
22.96677758438301
 20
10.84653271385362
 30
0.0
 10
22.96621344956752
 20
10.84631591097622
 30
0.0
  0
LINE
  5
1C3
330
1F
100
AcDbEntity
  8
0
  6
SLD-Solid
 62
     7
370
    25
100
AcDbLine
 10
24.5331361485
 20
11.1511787686
 30
0.0
 11
24.5331361485
 21
11.1089350468
 31
0.0
  0
LINE
  5
1C4
330
1F
100
AcDbEntity
  8
0
  6
SLD-Solid
 62
     7
370
    25
100
AcDbLine
 10
24.5331361485
 20
11.1089350468
 30
0.0
 11
25.4831361485
 21
11.1089350468
 31
0.0
  0
LINE
  5
1C5
330
1F
100
AcDbEntity
  8
0
  6
SLD-Solid
 62
     7
370
    25
100
AcDbLine
 10
25.4831361485
 20
11.1511787686
 30
0.0
 11
25.4831361485
 21
11.1089350468
 31
0.0
  0
LINE
  5
1C6
330
1F
100
AcDbEntity
  8
0
  6
SLD-Solid
 62
     7
370
    25
100
AcDbLine
 10
25.4831361485
 20
11.1511787686
 30
0.0
 11
24.5331361485
 21
11.1511787686
 31
0.0
  0
ELLIPSE
  5
1C7
330
1F
100
AcDbEntity
  8
0
  6
SLD-Solid
 62
     7
370
    25
100
AcDbEllipse
 10
5.5728636694
 20
53.878366901
 30
0.0
 11
332.6249025794947
 21
3.427515902322938
 31
0.0
210
0.0
220
0.0
230
1.0
 40
0.1290009798
 41
4.763334922739045
 42
4.768453479246691
  0
SPLINE
  5
1C8
330
1F
100
AcDbEntity
  8
0
  6
SLD-Solid
 62
     7
370
    25
100
AcDbSpline
210
0.0
220
0.0
230
1.0
 70
     8
 71
     3
 72
    22
 73
    18
 74
     0
 42
0.00000001
 43
0.00000001
 40
0.0
 40
0.0
 40
0.0
 40
0.0
 40
0.125
 40
0.125
 40
0.25
 40
0.25
 40
0.375
 40
0.375
 40
0.5
 40
0.5
 40
0.625
 40
0.625
 40
0.75
 40
0.75
 40
0.875
 40
0.875
 40
1.0
 40
1.0
 40
1.0
 40
1.0
 10
22.9530024871575
 20
11.19964385239462
 30
0.0
 10
22.94782275068762
 20
11.19955640103735
 30
0.0
 10
22.94276435459409
 20
11.19933468834136
 30
0.0
 10
22.93366174764397
 20
11.19865317194878
 30
0.0
 10
22.92967137343097
 20
11.19820009885817
 30
0.0
 10
22.92323197626603
 20
11.19711282996019
 30
0.0
 10
22.92088730425492
 20
11.19649579119754
 30
0.0
 10
22.91815601482386
 20
11.19518426172023
 30
0.0
 10
22.91779810281464
 20
11.19449371249659
 30
0.0
 10
22.91913050845765
 20
11.19315579227588
 30
0.0
 10
22.92083984135081
 20
11.1924988919619
 30
0.0
 10
22.92601607254323
 20
11.19133259184524
 30
0.0
 10
22.92953645865054
 20
11.19081095857944
 30
0.0
 10
22.93779149918791
 20
11.18998856387718
 30
0.0
 10
22.94256996183718
 20
11.18968163653425
 30
0.0
 10
22.9526916785989
 20
11.18932722487133
 30
0.0
 10
22.95809699158605
 20
11.18928026325096
 30
0.0
 10
22.96326980981296
 20
11.18936636288466
 30
0.0
  0
ELLIPSE
  5
1C9
330
1F
100
AcDbEntity
  8
0
  6
SLD-Solid
 62
     7
370
    25
100
AcDbEllipse
 10
6.1962004646
 20
53.878366901
 30
0.0
 11
332.6249025794943
 21
3.427515902322938
 31
0.0
210
0.0
220
0.0
230
1.0
 40
0.1290009798
 41
4.761489365607003
 42
4.76660741229372
  0
SPLINE
  5
1CA
330
1F
100
AcDbEntity
  8
0
  6
SLD-Solid
 62
     7
370
    25
100
AcDbSpline
210
0.0
220
0.0
230
1.0
 70
     8
 71
     3
 72
    22
 73
    18
 74
     0
 42
0.00000001
 43
0.00000001
 40
0.0
 40
0.0
 40
0.0
 40
0.0
 40
0.125
 40
0.125
 40
0.25
 40
0.25
 40
0.375
 40
0.375
 40
0.5
 40
0.5
 40
0.625
 40
0.625
 40
0.75
 40
0.75
 40
0.875
 40
0.875
 40
1.0
 40
1.0
 40
1.0
 40
1.0
 10
24.66326980981296
 20
11.21822499040253
 30
0.0
 10
24.66844681332964
 20
11.21831458770816
 30
0.0
 10
24.67353982671581
 20
11.21854427428423
 30
0.0
 10
24.6825835315173
 20
11.21923969488045
 30
0.0
 10
24.68662588262356
 20
11.21971200554528
 30
0.0
 10
24.69300554581609
 20
11.22082169036204
 30
0.0
 10
24.69537802800756
 20
11.22146215794517
 30
0.0
 10
24.69811979178615
 20
11.2228248080971
 30
0.0
 10
24.69848181184136
 20
11.22353549839158
 30
0.0
 10
24.69712892008928
 20
11.22494451235371
 30
0.0
 10
24.69542925134899
 20
11.22562238431849
 30
0.0
 10
24.69021355857695
 20
11.22684931816866
 30
0.0
 10
24.68669285718113
 20
11.22739429473441
 30
0.0
 10
24.67842803603792
 20
11.22825709065205
 30
0.0
 10
24.67361425412344
 20
11.22858066575613
 30
0.0
 10
24.66354475802927
 20
11.22894984474963
 30
0.0
 10
24.658186420155
 20
11.22899944669415
 30
0.0
 10
24.6530024871575
 20
11.22890849086173
 30
0.0
  0
ELLIPSE
  5
1CB
330
1F
100
AcDbEntity
  8
0
  6
SLD-Solid
 62
     7
370
    25
100
AcDbEllipse
 10
25.6201502073
 20
53.878366901
 30
0.0
 11
13.11887150494076
 21
41.49530792280664
 31
0.0
210
0.0
220
0.0
230
1.0
 40
0.8726612413
 41
3.499768855251489
 42
3.521844082162308
  0
SPLINE
  5
1CC
330
1F
100
AcDbEntity
  8
0
  6
SLD-Solid
 62
     7
370
    25
100
AcDbSpline
210
0.0
220
0.0
230
1.0
 70
     8
 71
     3
 72
    20
 73
    16
 74
     0
 42
0.00000001
 43
0.00000001
 40
0.0
 40
0.0
 40
0.0
 40
0.0
 40
0.1250000000000011
 40
0.1250000000000011
 40
0.2500000000000021
 40
0.2500000000000021
 40
0.3750000000000032
 40
0.3750000000000032
 40
0.5000000000000042
 40
0.5000000000000042
 40
0.6250000000000053
 40
0.6250000000000053
 40
0.7500000000000063
 40
0.7500000000000063
 40
1.0
 40
1.0
 40
1.0
 40
1.0
 10
26.08794580102623
 20
10.99833313911182
 30
0.0
 10
26.08442199120389
 20
10.99798801725208
 30
0.0
 10
26.08018895660623
 20
10.99771066844863
 30
0.0
 10
26.07073725470433
 20
10.99731359109777
 30
0.0
 10
26.06556435783214
 20
10.99719787603718
 30
0.0
 10
26.05514323567058
 20
10.99714734649629
 30
0.0
 10
26.04983071797203
 20
10.9972131774396
 30
0.0
 10
26.03999681536738
 20
10.99751412030788
 30
0.0
 10
26.03537375761279
 20
10.99775241441072
 30
0.0
 10
26.02759371375645
 20
10.99836111291178
 30
0.0
 10
26.02437617641016
 20
10.99873512459001
 30
0.0
 10
26.01982704792085
 20
10.99956443514557
 30
0.0
 10
26.01849594386698
 20
11.00001549905646
 30
0.0
 10
26.01760611008055
 20
11.00141011641186
 30
0.0
 10
26.02127892676723
 20
11.0023406493745
 30
0.0
 10
26.02832649594422
 20
11.00304062070684
 30
0.0
  0
ELLIPSE
  5
1CD
330
1F
100
AcDbEntity
  8
0
  6
SLD-Solid
 62
     7
370
    25
100
AcDbEllipse
 10
25.7274979866
 20
53.878366901
 30
0.0
 11
13.11887150494025
 21
41.49530792280678
 31
0.0
210
0.0
220
0.0
230
1.0
 40
0.8726612413
 41
3.498529559455866
 42
3.520604211182157
  0
SPLINE
  5
1CE
330
1F
100
AcDbEntity
  8
0
  6
SLD-Solid
 62
     7
370
    25
100
AcDbSpline
210
0.0
220
0.0
230
1.0
 70
     8
 71
     3
 72
    18
 73
    14
 74
     0
 42
0.00000001
 43
0.00000001
 40
0.0
 40
0.0
 40
0.0
 40
0.0
 40
0.2500000000000027
 40
0.2500000000000027
 40
0.3750000000000044
 40
0.3750000000000044
 40
0.5000000000000061
 40
0.5000000000000061
 40
0.6250000000000078
 40
0.6250000000000078
 40
0.7500000000000095
 40
0.7500000000000095
 40
1.0
 40
1.0
 40
1.0
 40
1.0
 10
26.87832649594422
 20
11.09791979818828
 30
0.0
 10
26.88531510979757
 20
11.09878589739696
 30
0.0
 10
26.89545853296179
 20
11.09932894396353
 30
0.0
 10
26.9111799048996
 20
11.09942509035105
 30
0.0
 10
26.91646415445956
 20
11.09934083064979
 30
0.0
 10
26.92631747491994
 20
11.09895621679621
 30
0.0
 10
26.93093504866833
 20
11.09865258340444
 30
0.0
 10
26.93869918398553
 20
11.09788130075743
 30
0.0
 10
26.94192454093722
 20
11.09740564816413
 30
0.0
 10
26.94644489204395
 20
11.09636534428317
 30
0.0
 10
26.94778190616327
 20
11.09579333696803
 30
0.0
 10
26.9486579130015
 20
11.09406301878831
 30
0.0
 10
26.94494794656059
 20
11.09289590188425
 30
0.0
 10
26.93794580102623
 20
11.09203780899049
 30
0.0
  0
SPLINE
  5
1CF
330
1F
100
AcDbEntity
  8
0
  6
SLD-Solid
 62
     7
370
    25
100
AcDbSpline
210
0.0
220
0.0
230
1.0
 70
     8
 71
     3
 72
    37
 73
    33
 74
     0
 42
0.00000001
 43
0.00000001
 40
0.0
 40
0.0
 40
0.0
 40
0.0
 40
0.0263914655569403
 40
0.0529661698966543
 40
0.0801187839292914
 40
0.1074710866725911
 40
0.1338625518218239
 40
0.1875422331505626
 40
0.214894713391727
 40
0.2413795839079148
 40
0.2680497813246576
 40
0.295007072367078
 40
0.3223576775474764
 40
0.3754961032051932
 40
0.402395663026936
 40
0.4297368173242495
 40
0.4828526757699627
 40
0.5097407080688526
 40
0.5370699528665119
 40
0.5901734774333177
 40
0.6170550574340002
 40
0.6443774030357102
 40
0.6974871995695237
 40
0.7243717832640999
 40
0.7516969253303117
 40
0.804827282645259
 40
0.8317222513516842
 40
0.8590579386076487
 40
0.9121615620583463
 40
0.9391158200015226
 40
0.9664628706245492
 40
1.0
 40
1.0
 40
1.0
 40
1.0
 10
27.54813614848523
 20
10.84630379400787
 30
0.0
 10
27.54797074329216
 20
10.84647808108388
 30
0.0
 10
27.54763878447997
 20
10.84682786532981
 30
0.0
 10
27.54493254581989
 20
10.84736606853796
 30
0.0
 10
27.54055485073982
 20
10.84791239864723
 30
0.0
 10
27.5343957827628
 20
10.84845567894361
 30
0.0
 10
27.52399610001549
 20
10.84916783121351
 30
0.0
 10
27.51032894214787
 20
10.84985900531535
 30
0.0
 10
27.49369473691576
 20
10.85050734674958
 30
0.0
 10
27.47984461904091
 20
10.85096734682346
 30
0.0
 10
27.46479188031897
 20
10.85139539300149
 30
0.0
 10
27.44838433329086
 20
10.85179351449175
 30
0.0
 10
27.42518151280606
 20
10.85226963132725
 30
0.0
 10
27.40005271320328
 20
10.85266133882939
 30
0.0
 10
27.3736227162027
 20
10.85295537365603
 30
0.0
 10
27.34647549803323
 20
10.85318083199398
 30
0.0
 10
27.31849691788807
 20
10.85330047310568
 30
0.0
 10
27.29038404232026
 20
10.85331056611747
 30
0.0
 10
27.26234693208987
 20
10.85324689756919
 30
0.0
 10
27.23467237315123
 20
10.85307394379196
 30
0.0
 10
27.20804261613204
 20
10.85279861018309
 30
0.0
 10
27.18226971847766
 20
10.85245707523995
 30
0.0
 10
27.15801013900058
 20
10.85202163863306
 30
0.0
 10
27.13585496557569
 20
10.85150808840167
 30
0.0
 10
27.11524269533888
 20
10.85094659607816
 30
0.0
 10
27.09712571685322
 20
10.85032130061761
 30
0.0
 10
27.08193643772395
 20
10.8496530227291
 30
0.0
 10
27.06881757034725
 20
10.84896154872822
 30
0.0
 10
27.05886113533612
 20
10.84824308903478
 30
0.0
 10
27.05241197562069
 20
10.84751984123425
 30
0.0
 10
27.04882304245167
 20
10.84692812958575
 30
0.0
 10
27.04854511921778
 20
10.84652632829164
 30
0.0
 10
27.04839202940937
 20
10.84630500212802
 30
0.0
  0
ELLIPSE
  5
1D0
330
1F
100
AcDbEntity
  8
0
  6
SLD-Solid
 62
     7
370
    25
100
AcDbEllipse
 10
43.8200718323
 20
53.878366901
 30
0.0
 11
332.6249025794943
 21
-3.427515902322938
 31
0.0
210
0.0
220
0.0
230
1.0
 40
0.1290009798
 41
4.658170548475663
 42
4.66328859516238
  0
SPLINE
  5
1D1
330
1F
100
AcDbEntity
  8
0
  6
SLD-Solid
 62
     7
370
    25
100
AcDbSpline
210
0.0
220
0.0
230
1.0
 70
     8
 71
     3
 72
    22
 73
    18
 74
     0
 42
0.00000001
 43
0.00000001
 40
0.0
 40
0.0
 40
0.0
 40
0.0
 40
0.125
 40
0.125
 40
0.25
 40
0.25
 40
0.375
 40
0.375
 40
0.5
 40
0.5
 40
0.625
 40
0.625
 40
0.75
 40
0.75
 40
0.875
 40
0.875
 40
1.0
 40
1.0
 40
1.0
 40
1.0
 10
27.06326980981296
 20
11.19964385239462
 30
0.0
 10
27.06844954628283
 20
11.19955640103735
 30
0.0
 10
27.07350794237637
 20
11.19933468834136
 30
0.0
 10
27.08261054932648
 20
11.19865317194878
 30
0.0
 10
27.08660092353948
 20
11.19820009885817
 30
0.0
 10
27.09304032070443
 20
11.19711282996019
 30
0.0
 10
27.09538499271553
 20
11.19649579119754
 30
0.0
 10
27.0981162821466
 20
11.19518426172023
 30
0.0
 10
27.09847419415581
 20
11.19449371249659
 30
0.0
 10
27.0971417885128
 20
11.19315579227588
 30
0.0
 10
27.09543245561964
 20
11.1924988919619
 30
0.0
 10
27.09025622442722
 20
11.19133259184524
 30
0.0
 10
27.08673583831992
 20
11.19081095857944
 30
0.0
 10
27.07848079778254
 20
11.18998856387718
 30
0.0
 10
27.07370233513327
 20
11.18968163653425
 30
0.0
 10
27.06358061837155
 20
11.18932722487133
 30
0.0
 10
27.05817530538441
 20
11.18928026325096
 30
0.0
 10
27.0530024871575
 20
11.18936636288466
 30
0.0
  0
ELLIPSE
  5
1D2
330
1F
100
AcDbEntity
  8
0
  6
SLD-Solid
 62
     7
370
    25
100
AcDbEllipse
 10
44.4434086276
 20
53.878366901
 30
0.0
 11
332.6249025794947
 21
-3.427515902322938
 31
0.0
210
0.0
220
0.0
230
1.0
 40
0.1290009798
 41
4.656324481522692
 42
4.661443038030339
  0
SPLINE
  5
1D3
330
1F
100
AcDbEntity
  8
0
  6
SLD-Solid
 62
     7
370
    25
100
AcDbSpline
210
0.0
220
0.0
230
1.0
 70
     8
 71
     3
 72
    22
 73
    18
 74
     0
 42
0.00000001
 43
0.00000001
 40
0.0
 40
0.0
 40
0.0
 40
0.0
 40
0.125
 40
0.125
 40
0.25
 40
0.25
 40
0.375
 40
0.375
 40
0.5
 40
0.5
 40
0.625
 40
0.625
 40
0.75
 40
0.75
 40
0.875
 40
0.875
 40
1.0
 40
1.0
 40
1.0
 40
1.0
 10
25.35300248715749
 20
11.21822499040253
 30
0.0
 10
25.34782548364081
 20
11.21831458770816
 30
0.0
 10
25.34273247025464
 20
11.21854427428423
 30
0.0
 10
25.33368876545316
 20
11.21923969488045
 30
0.0
 10
25.3296464143469
 20
11.21971200554528
 30
0.0
 10
25.32326675115437
 20
11.22082169036204
 30
0.0
 10
25.3208942689629
 20
11.22146215794517
 30
0.0
 10
25.3181525051843
 20
11.2228248080971
 30
0.0
 10
25.3177904851291
 20
11.22353549839158
 30
0.0
 10
25.31914337688118
 20
11.22494451235371
 30
0.0
 10
25.32084304562147
 20
11.22562238431849
 30
0.0
 10
25.3260587383935
 20
11.22684931816866
 30
0.0
 10
25.32957943978932
 20
11.22739429473441
 30
0.0
 10
25.33784426093253
 20
11.22825709065205
 30
0.0
 10
25.34265804284702
 20
11.22858066575613
 30
0.0
 10
25.35272753894119
 20
11.22894984474963
 30
0.0
 10
25.35808587681545
 20
11.22899944669415
 30
0.0
 10
25.36326980981296
 20
11.22890849086173
 30
0.0
  0
LINE
  5
1D4
330
1F
100
AcDbEntity
  8
0
  6
SLD-Solid
 62
     7
370
    25
100
AcDbLine
 10
28.2080711883
 20
22.2327532424
 30
0.0
 11
21.8082011086
 21
22.2327532424
 31
0.0
  0
LINE
  5
1D5
330
1F
100
AcDbEntity
  8
0
  6
SLD-Solid
 62
     7
370
    25
100
AcDbLine
 10
20.9081361485
 20
21.3326883543
 30
0.0
 11
20.9081361485
 21
11.7328181305
 31
0.0
  0
LINE
  5
1D6
330
1F
100
AcDbEntity
  8
0
  6
SLD-Solid
 62
     7
370
    25
100
AcDbLine
 10
29.1081361485
 20
21.3326883543
 30
0.0
 11
29.1081361485
 21
11.7328181305
 31
0.0
  0
LINE
  5
1D7
330
1F
100
AcDbEntity
  8
0
  6
SLD-Solid
 62
     7
370
    25
100
AcDbLine
 10
23.6081361485
 20
10.8601582686
 30
0.0
 11
26.4081361485
 21
10.8601582686
 31
0.0
  0
LINE
  5
1D8
330
1F
100
AcDbEntity
  8
0
  6
SLD-Solid
 62
     7
370
    25
100
AcDbLine
 10
22.4681361485
 20
10.8149059924
 30
0.0
 11
22.9681361485
 21
10.8149059924
 31
0.0
  0
LINE
  5
1D9
330
1F
100
AcDbEntity
  8
0
  6
SLD-Solid
 62
     7
370
    25
100
AcDbLine
 10
27.5481361485
 20
10.8149059924
 30
0.0
 11
27.0481361485
 21
10.8149059924
 31
0.0
  0
LINE
  5
1DA
330
1F
100
AcDbEntity
  8
DIMS
100
AcDbLine
 10
17.9131874095
 20
4.5196959515
 30
0.0
 11
17.9131874095
 21
4.0730844075
 31
0.0
  0
LINE
  5
1DB
330
1F
100
AcDbEntity
  8
DIMS
100
AcDbLine
 10
17.9131874095
 20
4.0730844075
 30
0.0
 11
17.5006568687
 21
3.7819391223
 31
0.0
  0
LINE
  5
1DC
330
1F
100
AcDbEntity
  8
DIMS
100
AcDbLine
 10
17.5006568687
 20
3.7819391223
 30
0.0
 11
18.3257179503
 21
3.624985204
 31
0.0
  0
LINE
  5
1DD
330
1F
100
AcDbEntity
  8
DIMS
100
AcDbLine
 10
18.3257179503
 20
3.624985204
 30
0.0
 11
17.9131874095
 21
3.3338399188
 31
0.0
  0
LINE
  5
1DE
330
1F
100
AcDbEntity
  8
DIMS
100
AcDbLine
 10
17.9131874095
 20
3.3338399188
 30
0.0
 11
17.9131874095
 21
2.8785271661
 31
0.0
  0
LINE
  5
1DF
330
1F
100
AcDbEntity
  8
DIMS
100
AcDbLine
 10
17.4491516214
 20
2.8785271661
 30
0.0
 11
62.3030263905
 21
2.8785271661
 31
0.0
  0
DIMENSION
  5
1E0
330
1F
100
AcDbEntity
  8
DIMS
100
AcDbDimension
  2
_D
 10
17.9131351642
 20
2.8785271661
 30
0.0
 11
17.9131351642
 21
3.6712433613
 31
0.0
 70
   160
  1
                                                                               48" [1220] Max. height for barrier free installation\P^M\P 
 71
     2
 42
-1.0
  3
SLDDIMSTYLE0
100
AcDbAlignedDimension
 13
21.8082011086
 23
10.8327532424
 33
0.0
 14
17.4491516214
 24
2.8785271661
 34
0.0
 50
90.0
100
AcDbRotatedDimension
  0
DIMENSION
  5
1F1
330
1F
100
AcDbEntity
  8
DIMS
100
AcDbDimension
  2
_D_1
 10
20.9081361485
 20
9.2401028428
 30
0.0
 11
27.6161831166
 21
9.2401028428
 31
0.0
 70
   160
  1
<>
 71
     2
 42
-1.0
  3
SLDDIMSTYLE1
100
AcDbAlignedDimension
 13
29.1081361485
 23
11.7328181305
 33
0.0
 14
20.9081361485
 24
11.7328181305
 34
0.0
 50
0.0
100
AcDbRotatedDimension
  0
MTEXT
  5
201
330
1F
100
AcDbEntity
  8
NOTES
100
AcDbMText
 10
23.2909834546
 20
10.2562320262
 30
0.0
 40
0.5
 41
0.0
 71
     1
 72
     1
  1
Front view
  7
SLDTEXTSTYLE1
 73
     1
 44
1.0
  0
MTEXT
  5
202
330
1F
100
AcDbEntity
  8
NOTES
100
AcDbMText
 10
18.5061449828
 20
3.5079027752
 30
0.0
 40
0.5
 41
0.0
 71
     1
 72
     1
  1
Floor
  7
SLDTEXTSTYLE1
 73
     1
 44
1.0
  0
MTEXT
  5
203
330
1F
100
AcDbEntity
  8
NOTES
100
AcDbMText
 10
32.3643414876
 20
9.7322469413
 30
0.0
 40
0.5
 41
0.0
 71
     1
 72
     1
  1
sensor
  7
SLDTEXTSTYLE1
 73
     1
 44
1.0
  0
LEADER
  5
205
330
1F
100
AcDbEntity
  8
NOTES
100
AcDbLeader
  3
SLDDIMSTYLE2
 76
     3
 10
25.3530024872
 20
11.2182249904
 30
0.0
 10
31.842519685
 20
9.4891732314
 30
0.0
 10
32.342519685
 20
9.4891732314
 30
0.0
  0
LINE
  5
206
330
1F
100
AcDbEntity
  8
0
  6
SLD-Solid
 62
     7
370
    25
100
AcDbLine
 10
42.2474437551
 20
10.8532061847
 30
0.0
 11
42.2474437551
 21
10.8149059924
 31
0.0
  0
LINE
  5
207
330
1F
100
AcDbEntity
  8
0
  6
SLD-Solid
 62
     7
370
    25
100
AcDbLine
 10
42.7474437551
 20
10.8149059924
 30
0.0
 11
42.7474437551
 21
10.8407645543
 31
0.0
  0
LINE
  5
208
330
1F
100
AcDbEntity
  8
0
  6
SLD-Solid
 62
     7
370
    25
100
AcDbLine
 10
36.4774437551
 20
12.6687247399
 30
0.0
 11
36.4774437551
 21
11.8050522829
 31
0.0
  0
LINE
  5
209
330
1F
100
AcDbEntity
  8
0
  6
SLD-Solid
 62
     7
370
    25
100
AcDbLine
 10
36.4774437551
 20
21.2604542019
 30
0.0
 11
36.4774437551
 21
12.9033068062
 31
0.0
  0
LINE
  5
20A
330
1F
100
AcDbEntity
  8
0
  6
SLD-Solid
 62
     7
370
    25
100
AcDbLine
 10
36.8035941567
 20
11.3724308815
 30
0.0
 11
36.7865141949
 21
11.3780745539
 31
0.0
  0
LINE
  5
20B
330
1F
100
AcDbEntity
  8
0
  6
SLD-Solid
 62
     7
370
    25
100
AcDbLine
 10
36.8658050002
 20
11.3592010422
 30
0.0
 11
36.8043977986
 21
11.3752172825
 31
0.0
  0
LINE
  5
20C
330
1F
100
AcDbEntity
  8
0
  6
SLD-Solid
 62
     7
370
    25
100
AcDbLine
 10
36.8296827449
 20
11.3664553481
 30
0.0
 11
36.8929903004
 21
11.3549120376
 31
0.0
  0
LINE
  5
20D
330
1F
100
AcDbEntity
  8
0
  6
SLD-Solid
 62
     7
370
    25
100
AcDbLine
 10
36.8929903004
 20
21.7105944472
 30
0.0
 11
36.8296827449
 21
21.6990511367
 31
0.0
  0
LINE
  5
20E
330
1F
100
AcDbEntity
  8
0
  6
SLD-Solid
 62
     7
370
    25
100
AcDbLine
 10
36.4724437551
 20
12.8687023171
 30
0.0
 11
36.4724437551
 21
12.6685167825
 31
0.0
  0
LINE
  5
20F
330
1F
100
AcDbEntity
  8
0
  6
SLD-Solid
 62
     7
370
    25
100
AcDbLine
 10
43.5774437551
 20
21.3326883543
 30
0.0
 11
43.5774437551
 21
11.7328181305
 31
0.0
  0
SPLINE
  5
210
330
1F
100
AcDbEntity
  8
0
  6
SLD-Solid
 62
     7
370
    25
100
AcDbSpline
210
0.0
220
0.0
230
1.0
 70
     8
 71
     3
 72
    34
 73
    30
 74
     0
 42
0.00000001
 43
0.00000001
 40
0.0
 40
0.0
 40
0.0
 40
0.0
 40
0.0205162191297966
 40
0.0411035121843102
 40
0.0617619973662903
 40
0.0824917916606543
 40
0.1032930108491997
 40
0.124165769525132
 40
0.1714118488378695
 40
0.2483442509237755
 40
0.3184903024276534
 40
0.372794415496079
 40
0.4383110686583674
 40
0.4975954973554559
 40
0.565060268890818
 40
0.6293062880641858
 40
0.6903538909563324
 40
0.7482267858941201
 40
0.7723728812705221
 40
0.7962597541361954
 40
0.8198898046324744
 40
0.8432655120101465
 40
0.8663894373292411
 40
0.8892642262187289
 40
0.9118926116924114
 40
0.9342774170164703
 40
0.9564215586232688
 40
0.9783280490650356
 40
1.0
 40
1.0
 40
1.0
 40
1.0
 10
43.57744375507178
 20
10.83275324241507
 30
0.0
 10
43.54485026933921
 20
10.83277462114021
 30
0.0
 10
43.47955038491788
 20
10.83281745265237
 30
0.0
 10
43.38143268929338
 20
10.83316479717155
 30
0.0
 10
43.28297829947839
 20
10.83372205644958
 30
0.0
 10
43.18418778132511
 20
10.83451190651367
 30
0.0
 10
43.08506168720296
 20
10.83553118605126
 30
0.0
 10
42.94382367720225
 20
10.83730978219772
 30
0.0
 10
42.71345573679026
 20
10.84107939912175
 30
0.0
 10
42.40488160388895
 20
10.84825055347037
 30
0.0
 10
42.08516702065933
 20
10.85828517499541
 30
0.0
 10
41.78362816215628
 20
10.86982899460121
 30
0.0
 10
41.49937898780212
 20
10.88259954635752
 30
0.0
 10
41.19433331323155
 20
10.89841699819941
 30
0.0
 10
40.89144651597615
 20
10.916254462419
 30
0.0
 10
40.58602208048854
 20
10.93647677155771
 30
0.0
 10
40.29615628931657
 20
10.95768783746729
 30
0.0
 10
40.07014261039461
 20
10.97572070319873
 30
0.0
 10
39.90313291091116
 20
10.98980636575991
 30
0.0
 10
39.79025190724577
 20
10.99962785278426
 30
0.0
 10
39.67872702592913
 20
11.00962546356243
 30
0.0
 10
39.56855779538262
 20
11.01978876380542
 30
0.0
 10
39.45974410247955
 20
11.03010746007918
 30
0.0
 10
39.35228551691338
 20
11.04057125641825
 30
0.0
 10
39.24618227006476
 20
11.05117047910409
 30
0.0
 10
39.14143206622251
 20
11.06189375693845
 30
0.0
 10
39.03804169453715
 20
11.072736546416
 30
0.0
 10
38.93598442358365
 20
11.08366982458105
 30
0.0
 10
38.86853944036375
 20
11.09109960141408
 30
0.0
 10
38.83499844346313
 20
11.09479449627255
 30
0.0
  0
SPLINE
  5
211
330
1F
100
AcDbEntity
  8
0
  6
SLD-Solid
 62
     7
370
    25
100
AcDbSpline
210
0.0
220
0.0
230
1.0
 70
    24
 71
     3
 72
    43
 73
    39
 74
     0
 42
0.00000001
 43
0.00000001
 40
0.0
 40
0.0
 40
0.0
 40
0.0
 40
0.0140400758398198
 40
0.0280271965600051
 40
0.0419678324906322
 40
0.0558685188735261
 40
0.0697358474315766
 40
0.0835764575487043
 40
0.0973970271153968
 40
0.1112042631001035
 40
0.1250048919112499
 40
0.1388056496181547
 40
0.1526132721014968
 40
0.1664344852051387
 40
0.1802759949611667
 40
0.1941444779586737
 40
0.2080465719244853
 40
0.2219888665803988
 40
0.2359778948370879
 40
0.250020124379321
 40
0.3127531451081722
 40
0.3748822674694829
 40
0.4370165906028737
 40
0.4997650621965338
 40
0.5624684257313646
 40
0.6245687375102923
 40
0.6866742324589438
 40
0.7493929947068702
 40
0.7746871928201526
 40
0.7998254152340953
 40
0.8248461209789009
 40
0.8497883126969434
 40
0.8746913619344835
 40
0.8995948258873435
 40
0.9245382597782845
 40
0.9495610292810455
 40
0.9747021274034677
 40
1.0
 40
1.0
 40
1.0
 40
1.0
 10
43.57744375507178
 20
11.7328181304882
 30
0.0
 10
43.57744375507178
 20
11.72620209638535
 30
0.0
 10
43.57744375507178
 20
11.71299498195351
 30
0.0
 10
43.57744375507178
 20
11.69322769934555
 30
0.0
 10
43.57744375507178
 20
11.67354427465979
 30
0.0
 10
43.57744375507178
 20
11.65394471723858
 30
0.0
 10
43.57744375507178
 20
11.63442904091452
 30
0.0
 10
43.57744375507178
 20
11.61499725887486
 30
0.0
 10
43.57744375507178
 20
11.59564938487866
 30
0.0
 10
43.57744375507178
 20
11.57638543277423
 30
0.0
 10
43.57744375507178
 20
11.55720541644545
 30
0.0
 10
43.57744375507178
 20
11.53810934970945
 30
0.0
 10
43.57744375507178
 20
11.51909724596929
 30
0.0
 10
43.57744375507178
 20
11.50016911890069
 30
0.0
 10
43.57744375507178
 20
11.48132497926315
 30
0.0
 10
43.57744375507178
 20
11.46256484624742
 30
0.0
 10
43.57744375507178
 20
11.44388870445366
 30
0.0
 10
43.57744375507178
 20
11.42529666457603
 30
0.0
 10
43.57744375507178
 20
11.40678836058745
 30
0.0
 10
43.57744375507178
 20
11.36710069063079
 30
0.0
 10
43.57744375507178
 20
11.30777829594645
 30
0.0
 10
43.57744375507178
 20
11.23203286578203
 30
0.0
 10
43.57744375507178
 20
11.1611646728585
 30
0.0
 10
43.57744375507178
 20
11.09563776495083
 30
0.0
 10
43.57744375507178
 20
11.03606406588325
 30
0.0
 10
43.57744375507178
 20
10.98341083929729
 30
0.0
 10
43.57744375507178
 20
10.93806550722008
 30
0.0
 10
43.57744375507178
 20
10.90781417794819
 30
0.0
 10
43.57744375507178
 20
10.88830703982654
 30
0.0
 10
43.57744375507178
 20
10.87659460432243
 30
0.0
 10
43.57744375507178
 20
10.86626092471933
 30
0.0
 10
43.57744375507178
 20
10.8573056575102
 30
0.0
 10
43.57744375507178
 20
10.84972846233786
 30
0.0
 10
43.57744375507178
 20
10.84353170401668
 30
0.0
 10
43.57744375507178
 20
10.83870668190617
 30
0.0
 10
43.57744375507178
 20
10.83528614447526
 30
0.0
 10
43.57744375507178
 20
10.83314699038152
 30
0.0
 10
43.57744375507178
 20
10.83288482150446
 30
0.0
 10
43.57744375507178
 20
10.83275332962911
 30
0.0
  0
SPLINE
  5
212
330
1F
100
AcDbEntity
  8
0
  6
SLD-Solid
 62
     7
370
    25
100
AcDbSpline
210
0.0
220
0.0
230
1.0
 70
     8
 71
     3
 72
    20
 73
    16
 74
     0
 42
0.00000001
 43
0.00000001
 40
0.0
 40
0.0
 40
0.0
 40
0.0
 40
0.25
 40
0.25
 40
0.5
 40
0.5
 40
0.75
 40
0.75
 40
0.875
 40
0.875
 40
0.9375
 40
0.9375
 40
0.96875
 40
0.96875
 40
1.0
 40
1.0
 40
1.0
 40
1.0
 10
38.83499844346314
 20
21.9707119885576
 30
0.0
 10
39.22539173657903
 20
22.01398604770129
 30
0.0
 10
39.62059909637981
 20
22.05234861119423
 30
0.0
 10
40.4133543226725
 20
22.11815211802787
 30
0.0
 10
40.8107725233188
 20
22.14558300194351
 30
0.0
 10
41.60389322852472
 20
22.18932417408222
 30
0.0
 10
41.99942250630657
 20
22.20563195548128
 30
0.0
 10
42.59146690069937
 20
22.22191234191267
 30
0.0
 10
42.78858344709283
 20
22.22597622264625
 30
0.0
 10
43.08428149950204
 20
22.23004112444047
 30
0.0
 10
43.18285009582599
 20
22.23105755848676
 30
0.0
 10
43.33076196809466
 20
22.23207467072477
 30
0.0
 10
43.38007628943319
 20
22.2323290585763
 30
0.0
 10
43.4787367289539
 20
22.23266833836317
 30
0.0
 10
43.52808884452121
 20
22.23275323512575
 30
0.0
 10
43.57744375507178
 20
22.23275315520104
 30
0.0
  0
SPLINE
  5
213
330
1F
100
AcDbEntity
  8
0
  6
SLD-Solid
 62
     7
370
    25
100
AcDbSpline
210
0.0
220
0.0
230
1.0
 70
     8
 71
     3
 72
    22
 73
    18
 74
     0
 42
0.00000001
 43
0.00000001
 40
0.0
 40
0.0
 40
0.0
 40
0.0
 40
0.125
 40
0.125
 40
0.25
 40
0.25
 40
0.375
 40
0.375
 40
0.5
 40
0.5
 40
0.625
 40
0.625
 40
0.75
 40
0.75
 40
0.875
 40
0.875
 40
1.0
 40
1.0
 40
1.0
 40
1.0
 10
43.57744379529446
 20
22.23275315520097
 30
0.0
 10
43.5774437875162
 20
22.23275315461546
 30
0.0
 10
43.57744377980295
 20
22.2280383020675
 30
0.0
 10
43.57744376501557
 20
22.2074155045578
 30
0.0
 10
43.57744375794449
 20
22.19148948483369
 30
0.0
 10
43.57744374500626
 20
22.14762666208089
 30
0.0
 10
43.57744373914318
 20
22.11967950982929
 30
0.0
 10
43.57744372912868
 20
22.05239758769494
 30
0.0
 10
43.57744372498082
 20
22.01306742071294
 30
0.0
 10
43.57744371872607
 20
21.92519312856408
 30
0.0
 10
43.57744371662058
 20
21.87666878605166
 30
0.0
 10
43.57744371452091
 20
21.77375639104172
 30
0.0
 10
43.5774437145254
 20
21.71939505889037
 30
0.0
 10
43.57744371645531
 20
21.6085998274842
 30
0.0
 10
43.57744371837752
 20
21.55218838576338
 30
0.0
 10
43.57744372376466
 20
21.44074539723419
 30
0.0
 10
43.57744372722608
 20
21.38572518091643
 30
0.0
 10
43.57744373122924
 20
21.33268835438958
 30
0.0
  0
SPLINE
  5
214
330
1F
100
AcDbEntity
  8
0
  6
SLD-Solid
 62
     7
370
    25
100
AcDbSpline
210
0.0
220
0.0
230
1.0
 70
     8
 71
     3
 72
    46
 73
    42
 74
     0
 42
0.00000001
 43
0.00000001
 40
0.0
 40
0.0
 40
0.0
 40
0.0
 40
0.0139098976993469
 40
0.0277475931204644
 40
0.0415148504969087
 40
0.0552134612772531
 40
0.068845243974028
 40
0.0824120439730507
 40
0.095915733301336
 40
0.1093582103526546
 40
0.1227413995696144
 40
0.1360672510808307
 40
0.1493377402926526
 40
0.1625548674344847
 40
0.1757206570571155
 40
0.1888371574833367
 40
0.2019064402110124
 40
0.2149305992679897
 40
0.2279117505193122
 40
0.2408520309265028
 40
0.3039288122385347
 40
0.366016052491029
 40
0.4273962491474601
 40
0.4883617292794667
 40
0.5528520664770855
 40
0.6164249746332554
 40
0.6794743540600847
 40
0.7424039369110681
 40
0.7626661019874952
 40
0.7828015283051235
 40
0.8028239954213416
 40
0.8227475172705402
 40
0.842586317470413
 40
0.8623548025138457
 40
0.8820675330580877
 40
0.9017391935668562
 40
0.9213845606009823
 40
0.9410184700873083
 40
0.9606557839212689
 40
0.9803113562762036
 40
1.0
 40
1.0
 40
1.0
 40
1.0
 10
38.83499844346312
 20
11.09479449627255
 30
0.0
 10
38.82312291036332
 20
11.09611376029375
 30
0.0
 10
38.79943348664041
 20
11.09874544041606
 30
0.0
 10
38.76410286472871
 20
11.10270802389637
 30
0.0
 10
38.72904090052833
 20
11.10666755562271
 30
0.0
 10
38.69425518809288
 20
11.11062522727238
 30
0.0
 10
38.65974364361988
 20
11.11457987872996
 30
0.0
 10
38.62550675645278
 20
11.11853098193493
 30
0.0
 10
38.59154433112023
 20
11.12247784736609
 30
0.0
 10
38.55785635391602
 20
11.12641983509804
 30
0.0
 10
38.52444276238545
 20
11.13035629865472
 30
0.0
 10
38.49130350671705
 20
11.1342865999417
 30
0.0
 10
38.45843853330445
 20
11.13821010528854
 30
0.0
 10
38.42584778960902
 20
11.14212618643516
 30
0.0
 10
38.3935312211655
 20
11.14603422051042
 30
0.0
 10
38.36148877878984
 20
11.14993358913651
 30
0.0
 10
38.3297203929661
 20
11.15382368200601
 30
0.0
 10
38.29822606871493
 20
11.15770388353035
 30
0.0
 10
38.26700553349384
 20
11.16157362242807
 30
0.0
 10
38.1960646532666
 20
11.17041903402155
 30
0.0
 10
38.08785891402952
 20
11.18414713733366
 30
0.0
 10
37.94683334676812
 20
11.2025252213743
 30
0.0
 10
37.81323365973127
 20
11.22037292613379
 30
0.0
 10
37.68456491150098
 20
11.23796076586287
 30
0.0
 10
37.56203952814277
 20
11.25507905153142
 30
0.0
 10
37.44721604765151
 20
11.27145172412752
 30
0.0
 10
37.34322666855599
 20
11.28655211336105
 30
0.0
 10
37.27121761381345
 20
11.29717882136356
 30
0.0
 10
37.22438569637946
 20
11.30415223098534
 30
0.0
 10
37.19817219786863
 20
11.30807242487012
 30
0.0
 10
37.17330682415779
 20
11.31180626042415
 30
0.0
 10
37.14978798063694
 20
11.31535156743376
 30
0.0
 10
37.12761577025415
 20
11.3187060508648
 30
0.0
 10
37.10678980621741
 20
11.32186761957196
 30
0.0
 10
37.08731005051516
 20
11.32483425972545
 30
0.0
 10
37.06917563087512
 20
11.32760421504533
 30
0.0
 10
37.05238872355979
 20
11.33017539431073
 30
0.0
 10
37.03694022221146
 20
11.33254755869934
 30
0.0
 10
37.02286315172994
 20
11.33471416938225
 30
0.0
 10
37.01003322459616
 20
11.33669282819774
 30
0.0
 10
37.00262876123752
 20
11.3378373492524
 30
0.0
 10
36.99892341759204
 20
11.33841009080187
 30
0.0
  0
SPLINE
  5
215
330
1F
100
AcDbEntity
  8
0
  6
SLD-Solid
 62
     7
370
    25
100
AcDbSpline
210
0.0
220
0.0
230
1.0
 70
     8
 71
     3
 72
    22
 73
    18
 74
     0
 42
0.00000001
 43
0.00000001
 40
0.0
 40
0.0
 40
0.0
 40
0.0
 40
0.25
 40
0.25
 40
0.375
 40
0.375
 40
0.5
 40
0.5
 40
0.5625
 40
0.5625
 40
0.625
 40
0.625
 40
0.75
 40
0.75
 40
0.875
 40
0.875
 40
1.0
 40
1.0
 40
1.0
 40
1.0
 10
36.99892341759204
 20
21.72709639402828
 30
0.0
 10
37.04636443621403
 20
21.73443283085702
 30
0.0
 10
37.13323366444507
 20
21.74781915854119
 30
0.0
 10
37.31149166164825
 20
21.7743008907825
 30
0.0
 10
37.37930980645177
 20
21.7842457385466
 30
0.0
 10
37.52561593909172
 20
21.80527770936243
 30
0.0
 10
37.60447444174626
 20
21.8164210125486
 30
0.0
 10
37.73005062275548
 20
21.83376470676291
 30
0.0
 10
37.77313099128006
 20
21.83965183743783
 30
0.0
 10
37.86161317079571
 20
21.8515993710573
 30
0.0
 10
37.90717064438652
 20
21.85767995535392
 30
0.0
 10
38.04532290850717
 20
21.87588662795106
 30
0.0
 10
38.13973787933748
 20
21.88802520496015
 30
0.0
 10
38.33237939673843
 20
21.91211562708573
 30
0.0
 10
38.43060002987336
 20
21.92406803814963
 30
0.0
 10
38.63118536212314
 20
21.94774741336669
 30
0.0
 10
38.73311020663738
 20
21.95941794825467
 30
0.0
 10
38.83499844346314
 20
21.9707119885576
 30
0.0
  0
LINE
  5
216
330
1F
100
AcDbEntity
  8
0
  6
SLD-Solid
 62
     7
370
    25
100
AcDbLine
 10
42.4974437551
 20
10.8149059924
 30
0.0
 11
42.2474437551
 21
10.8149059924
 31
0.0
  0
LINE
  5
217
330
1F
100
AcDbEntity
  8
0
  6
SLD-Solid
 62
     7
370
    25
100
AcDbLine
 10
42.7474437551
 20
10.8149059924
 30
0.0
 11
42.4974437551
 21
10.8149059924
 31
0.0
  0
SPLINE
  5
218
330
1F
100
AcDbEntity
  8
0
  6
SLD-Solid
 62
     7
370
    25
100
AcDbSpline
210
0.0
220
0.0
230
1.0
 70
     8
 71
     3
 72
    23
 73
    19
 74
     0
 42
0.00000001
 43
0.00000001
 40
0.0
 40
0.0
 40
0.0
 40
0.0
 40
0.0192531174128419
 40
0.0739273039590666
 40
0.180088155864211
 40
0.2339734057776839
 40
0.2886441740600644
 40
0.3948081844943726
 40
0.4486949409789905
 40
0.5033671356427479
 40
0.6095406827887639
 40
0.6634322963016841
 40
0.718109451273935
 40
0.7708699472117686
 40
0.8239967576802528
 40
0.8782789122460957
 40
0.9329602935649947
 40
1.0
 40
1.0
 40
1.0
 40
1.0
 10
42.94999036040733
 20
10.83732651547445
 30
0.0
 10
42.94993915975687
 20
10.83732726184801
 30
0.0
 10
42.94974256167
 20
10.83733012774158
 30
0.0
 10
42.95170003163161
 20
10.83730159227556
 30
0.0
 10
42.9567924249608
 20
10.83722760999085
 30
0.0
 10
42.96526906384524
 20
10.83710629174506
 30
0.0
 10
42.97580810717712
 20
10.83695724911753
 30
0.0
 10
42.98938996558402
 20
10.83676896240125
 30
0.0
 10
43.00565096083427
 20
10.83655043937128
 30
0.0
 10
43.02362506879602
 20
10.83631431602351
 30
0.0
 10
43.04399175165426
 20
10.83605644024013
 30
0.0
 10
43.06623296430269
 20
10.83578776660267
 30
0.0
 10
43.08380111512223
 20
10.83558260806272
 30
0.0
 10
43.10199801332321
 20
10.83537772107215
 30
0.0
 10
43.12072770825079
 20
10.83517475718354
 30
0.0
 10
43.14014171487744
 20
10.83497319532333
 30
0.0
 10
43.16157309504833
 20
10.83475973460314
 30
0.0
 10
43.17654897577241
 20
10.83462066482983
 30
0.0
 10
43.18479716567833
 20
10.8345440700758
 30
0.0
  0
SPLINE
  5
219
330
1F
100
AcDbEntity
  8
0
  6
SLD-Solid
 62
     7
370
    25
100
AcDbSpline
210
0.0
220
0.0
230
1.0
 70
     8
 71
     3
 72
    86
 73
    82
 74
     0
 42
0.00000001
 43
0.00000001
 40
0.0
 40
0.0
 40
0.0
 40
0.0
 40
0.015625
 40
0.015625
 40
0.0234375
 40
0.0234375
 40
0.02734375
 40
0.02734375
 40
0.029296875
 40
0.029296875
 40
0.0302734375
 40
0.0302734375
 40
0.03076171875
 40
0.03076171875
 40
0.03125
 40
0.03125
 40
0.046875
 40
0.046875
 40
0.0546875
 40
0.0546875
 40
0.05859375
 40
0.05859375
 40
0.060546875
 40
0.060546875
 40
0.0625
 40
0.0625
 40
0.078125
 40
0.078125
 40
0.0859375
 40
0.0859375
 40
0.08984375
 40
0.08984375
 40
0.09375
 40
0.09375
 40
0.125
 40
0.125
 40
0.15625
 40
0.15625
 40
0.171875
 40
0.171875
 40
0.1875
 40
0.1875
 40
0.21875
 40
0.21875
 40
0.25
 40
0.25
 40
0.28125
 40
0.28125
 40
0.3125
 40
0.3125
 40
0.34375
 40
0.34375
 40
0.375
 40
0.375
 40
0.4375
 40
0.4375
 40
0.5
 40
0.5
 40
0.5625
 40
0.5625
 40
0.625
 40
0.625
 40
0.65625
 40
0.65625
 40
0.6875
 40
0.6875
 40
0.71875
 40
0.71875
 40
0.734375
 40
0.734375
 40
0.7421875
 40
0.7421875
 40
0.75
 40
0.75
 40
0.78125
 40
0.78125
 40
0.796875
 40
0.796875
 40
0.8046875
 40
0.8046875
 40
0.8125
 40
0.8125
 40
0.8125
 40
0.8125
 10
36.51361786818787
 20
12.89515775219946
 30
0.0
 10
36.51378423003416
 20
12.89657321260949
 30
0.0
 10
36.51393002415353
 20
12.89781517002758
 30
0.0
 10
36.51411729255264
 20
12.8994178516972
 30
0.0
 10
36.51417447995422
 20
12.8999087031758
 30
0.0
 10
36.51425235214687
 20
12.90057991677679
 30
0.0
 10
36.51427699150103
 20
12.90079281070763
 30
0.0
 10
36.51431196746463
 20
12.90109588569967
 30
0.0
 10
36.51432329561466
 20
12.90119419971298
 30
0.0
 10
36.51433979139348
 20
12.90133760425688
 30
0.0
 10
36.51434520724582
 20
12.90138472802551
 30
0.0
 10
36.51435320683102
 20
12.90145439705943
 30
0.0
 10
36.51435585266056
 20
12.90147745063424
 30
0.0
 10
36.51436110290852
 20
12.90152321891084
 30
0.0
 10
36.51436199376158
 20
12.90153098114435
 30
0.0
 10
36.51450380372534
 20
12.90276840635288
 30
0.0
 10
36.51463338751081
 20
12.90392143369021
 30
0.0
 10
36.51481567402332
 20
12.9055806244898
 30
0.0
 10
36.51487442159579
 20
12.90612196305527
 30
0.0
 10
36.51495949894419
 20
12.90691638335186
 30
0.0
 10
36.51498735074168
 20
12.90717825885879
 30
0.0
 10
36.51502836484353
 20
12.90756667523129
 30
0.0
 10
36.5150419089461
 20
12.9076954145408
 30
0.0
 10
36.51506874219807
 20
12.90795142753053
 30
0.0
 10
36.51507943480048
 20
12.90805373671752
 30
0.0
 10
36.51522125690866
 20
12.90941728494667
 30
0.0
 10
36.51534111510207
 20
12.91061404273503
 30
0.0
 10
36.51551145414488
 20
12.91238625179457
 30
0.0
 10
36.51556665927646
 20
12.91297316687725
 30
0.0
 10
36.5156470891523
 20
12.91384780759551
 30
0.0
 10
36.51567350281723
 20
12.91413839918398
 30
0.0
 10
36.51572553501235
 20
12.91471767172566
 30
0.0
 10
36.51574919710827
 20
12.91498403220513
 30
0.0
 10
36.5159937825754
 20
12.91777444718915
 30
0.0
 10
36.51619676170822
 20
12.92037236948279
 30
0.0
 10
36.5165671204285
 20
12.92571716944533
 30
0.0
 10
36.51673819849455
 20
12.9285025710056
 30
0.0
 10
36.51697322887887
 20
12.93285017571446
 30
0.0
 10
36.51704797533933
 20
12.93432762767883
 30
0.0
 10
36.51719021121247
 20
12.93733903239706
 30
0.0
 10
36.51725910357122
 20
12.9389073201148
 30
0.0
 10
36.51744639224533
 20
12.94349092466896
 30
0.0
 10
36.51755523766992
 20
12.94660750253435
 30
0.0
 10
36.51774050287196
 20
12.95296234125703
 30
0.0
 10
36.51781766526555
 20
12.95624138887135
 30
0.0
 10
36.51793631530662
 20
12.9627580200638
 30
0.0
 10
36.51797857090806
 20
12.96603070474738
 30
0.0
 10
36.51802878285224
 20
12.97260481228923
 30
0.0
 10
36.51803665561353
 20
12.97593633160276
 30
0.0
 10
36.51801840602734
 20
12.98250772258349
 30
0.0
 10
36.517992440131
 20
12.98577649753713
 30
0.0
 10
36.51790692279426
 20
12.99228020637097
 30
0.0
 10
36.51784810974996
 20
12.9954839704979
 30
0.0
 10
36.51761719499186
 20
13.0052315197881
 30
0.0
 10
36.51740137839889
 20
13.01144589002336
 30
0.0
 10
36.51684899298889
 20
13.02330663857746
 30
0.0
 10
36.51650973733257
 20
13.02898953039521
 30
0.0
 10
36.515725940838
 20
13.03964126811869
 30
0.0
 10
36.51528386631409
 20
13.04458189937947
 30
0.0
 10
36.51430617226848
 20
13.05368013641996
 30
0.0
 10
36.51378462311963
 20
13.0577149946431
 30
0.0
 10
36.51294119338557
 20
13.06309781895661
 30
0.0
 10
36.51265422035872
 20
13.06474960020907
 30
0.0
 10
36.51206915698314
 20
13.06776817567657
 30
0.0
 10
36.51177482951063
 20
13.06911978385781
 30
0.0
 10
36.51116057620141
 20
13.07159875731808
 30
0.0
 10
36.51085360117869
 20
13.07266962024759
 30
0.0
 10
36.51039348410335
 20
13.07402297894091
 30
0.0
 10
36.51024016933687
 20
13.0744319425552
 30
0.0
 10
36.51001029846597
 20
13.07498215405139
 30
0.0
 10
36.50993369172312
 20
13.07515501889592
 30
0.0
 10
36.50978051449239
 20
13.07547967060989
 30
0.0
 10
36.50970608267897
 20
13.07562751131532
 30
0.0
 10
36.50931263375792
 20
13.07635348154498
 30
0.0
 10
36.50900359223099
 20
13.07674533284225
 30
0.0
 10
36.50854838433897
 20
13.07704972245846
 30
0.0
 10
36.50839804082484
 20
13.07710395444225
 30
0.0
 10
36.50817458692784
 20
13.07711445558551
 30
0.0
 10
36.50810044586102
 20
13.07710614816119
 30
0.0
 10
36.5079528463459
 20
13.07706591770174
 30
0.0
 10
36.50787576319587
 20
13.0770318268248
 30
0.0
 10
36.50780626851495
 20
13.07699026382607
 30
0.0
  0
SPLINE
  5
21A
330
1F
100
AcDbEntity
  8
0
  6
SLD-Solid
 62
     7
370
    25
100
AcDbSpline
210
0.0
220
0.0
230
1.0
 70
     8
 71
     3
 72
    14
 73
    10
 74
     0
 42
0.00000001
 43
0.00000001
 40
0.0
 40
0.0
 40
0.0
 40
0.0
 40
0.2498619481795513
 40
0.4998325076027814
 40
0.6028531819819282
 40
0.7018448397717395
 40
0.796565889268525
 40
0.8981905862768454
 40
1.0
 40
1.0
 40
1.0
 40
1.0
 10
36.47744419953938
 20
12.66872473985476
 30
0.0
 10
36.47794007570121
 20
12.67151555313246
 30
0.0
 10
36.47893204357479
 20
12.67709839281256
 30
0.0
 10
36.48524318108802
 20
12.7138319679081
 30
0.0
 10
36.49155584398389
 20
12.75118826348079
 30
0.0
 10
36.49632374322489
 20
12.78052684081186
 30
0.0
 10
36.50153953816338
 20
12.81482132619624
 30
0.0
 10
36.50718475809476
 20
12.85353201342423
 30
0.0
 10
36.51147219961528
 20
12.88127410381616
 30
0.0
 10
36.51361786685862
 20
12.89515774382178
 30
0.0
  0
LINE
  5
21B
330
1F
100
AcDbEntity
  8
0
  6
SLD-Solid
 62
     7
370
    25
100
AcDbLine
 10
36.8571900425
 20
11.3605700945
 30
0.0
 11
36.8038867569
 21
11.3736295573
 31
0.0
  0
SPLINE
  5
21C
330
1F
100
AcDbEntity
  8
0
  6
SLD-Solid
 62
     7
370
    25
100
AcDbSpline
210
0.0
220
0.0
230
1.0
 70
     8
 71
     3
 72
    14
 73
    10
 74
     0
 42
0.00000001
 43
0.00000001
 40
0.0
 40
0.0
 40
0.0
 40
0.0
 40
0.25
 40
0.25
 40
0.5
 40
0.5
 40
0.75
 40
0.75
 40
1.0
 40
1.0
 40
1.0
 40
1.0
 10
36.47744375507178
 20
11.80505228292611
 30
0.0
 10
36.47744375507178
 20
11.76242429539954
 30
0.0
 10
36.48361752531702
 20
11.71744968664579
 30
0.0
 10
36.51085609855683
 20
11.6286701366279
 30
0.0
 10
36.53197417339699
 20
11.58496235956809
 30
0.0
 10
36.58772932311829
 20
11.50600401070858
 30
0.0
 10
36.62231402539791
 20
11.47086610758425
 30
0.0
 10
36.69932155083116
 20
11.41422647562461
 30
0.0
 10
36.74162607918707
 20
11.39274704974321
 30
0.0
 10
36.78427537193036
 20
11.37843440464547
 30
0.0
  0
SPLINE
  5
21D
330
1F
100
AcDbEntity
  8
0
  6
SLD-Solid
 62
     7
370
    25
100
AcDbSpline
210
0.0
220
0.0
230
1.0
 70
     8
 71
     3
 72
    10
 73
     6
 74
     0
 42
0.00000001
 43
0.00000001
 40
0.0
 40
0.0
 40
0.0
 40
0.0
 40
0.4473788620068319
 40
0.8934289021073072
 40
1.0
 40
1.0
 40
1.0
 40
1.0
 10
36.99892341759204
 20
11.33841009080187
 30
0.0
 10
36.97094639185348
 20
11.34275505224996
 30
0.0
 10
36.91507543881448
 20
11.3514320695745
 30
0.0
 10
36.87566805468842
 20
11.35765300398954
 30
0.0
 10
36.87022917476508
 20
11.3585116355077
 30
0.0
 10
36.8691803053591
 20
11.35867721966162
 30
0.0
  0
SPLINE
  5
21E
330
1F
100
AcDbEntity
  8
0
  6
SLD-Solid
 62
     7
370
    25
100
AcDbSpline
210
0.0
220
0.0
230
1.0
 70
     8
 71
     3
 72
    22
 73
    18
 74
     0
 42
0.00000001
 43
0.00000001
 40
0.0
 40
0.0
 40
0.0
 40
0.0
 40
0.125
 40
0.125
 40
0.25
 40
0.25
 40
0.375
 40
0.375
 40
0.5
 40
0.5
 40
0.625
 40
0.625
 40
0.75
 40
0.75
 40
0.875
 40
0.875
 40
1.0
 40
1.0
 40
1.0
 40
1.0
 10
36.47744375507178
 20
21.26045420190404
 30
0.0
 10
36.47744375507177
 20
21.28481305191923
 30
0.0
 10
36.4794320442819
 20
21.30991473378021
 30
0.0
 10
36.48797920532527
 20
21.36061280979399
 30
0.0
 10
36.49454306214934
 20
21.38620528779835
 30
0.0
 10
36.51250090089449
 20
21.43663244489542
 30
0.0
 10
36.5238975442269
 20
21.46146049671396
 30
0.0
 10
36.55131288393103
 20
21.50900730008505
 30
0.0
 10
36.56733036956737
 20
21.53171845884639
 30
0.0
 10
36.60328501536561
 20
21.57380234532608
 30
0.0
 10
36.62321705473545
 20
21.59316907930351
 30
0.0
 10
36.66590078322581
 20
21.62767123407773
 30
0.0
 10
36.68864516167565
 20
21.6428042736032
 30
0.0
 10
36.73565042457041
 20
21.66841457242
 30
0.0
 10
36.75990434750562
 20
21.67889342584311
 30
0.0
 10
36.8086463963551
 20
21.69525073452624
 30
0.0
 10
36.8331298758864
 20
21.7011335022655
 30
0.0
 10
36.85719004247157
 20
21.7049363903727
 30
0.0
  0
SPLINE
  5
21F
330
1F
100
AcDbEntity
  8
0
  6
SLD-Solid
 62
     7
370
    25
100
AcDbSpline
210
0.0
220
0.0
230
1.0
 70
     8
 71
     3
 72
     8
 73
     4
 74
     0
 42
0.00000001
 43
0.00000001
 40
0.0
 40
0.0
 40
0.0
 40
0.0
 40
1.0
 40
1.0
 40
1.0
 40
1.0
 10
36.85719004247157
 20
21.7049363903727
 30
0.0
 10
36.85719004250548
 20
21.70493639037806
 30
0.0
 10
36.90453093916424
 20
21.71249922737357
 30
0.0
 10
36.99892341759204
 20
21.72709639402828
 30
0.0
  0
SPLINE
  5
220
330
1F
100
AcDbEntity
  8
0
  6
SLD-Solid
 62
     7
370
    25
100
AcDbSpline
210
0.0
220
0.0
230
1.0
 70
     8
 71
     3
 72
    15
 73
    11
 74
     0
 42
0.00000001
 43
0.00000001
 40
0.0
 40
0.0
 40
0.0
 40
0.0
 40
0.1668122834820718
 40
0.332584022183593
 40
0.5000001428403279
 40
0.6029904852366799
 40
0.7019532676434335
 40
0.7966416338698157
 40
0.8982288267098664
 40
0.9999999999999999
 40
0.9999999999999999
 40
0.9999999999999999
 40
0.9999999999999999
 10
36.47244405252572
 20
12.66872388366218
 30
0.0
 10
36.47266489957227
 20
12.66995578698683
 30
0.0
 10
36.47310521606153
 20
12.67241190924654
 30
0.0
 10
36.47662217520662
 20
12.69271616075934
 30
0.0
 10
36.48137863178857
 20
12.72051552526948
 30
0.0
 10
36.48657040846332
 20
12.75121488886519
 30
0.0
 10
36.49133571347623
 20
12.78051877278516
 30
0.0
 10
36.49655672629985
 20
12.81482180418465
 30
0.0
 10
36.50220557776282
 20
12.85353056715687
 30
0.0
 10
36.50649621339234
 20
12.88127365736355
 30
0.0
 10
36.50864347209866
 20
12.89515775219946
 30
0.0
  0
SPLINE
  5
221
330
1F
100
AcDbEntity
  8
0
  6
SLD-Solid
 62
     7
370
    25
100
AcDbSpline
210
0.0
220
0.0
230
1.0
 70
     8
 71
     3
 72
    13
 73
     9
 74
     0
 42
0.00000001
 43
0.00000001
 40
0.0
 40
0.0
 40
0.0
 40
0.0
 40
0.1249503824455585
 40
0.2500300456473218
 40
0.3751051234362403
 40
0.5001562368014271
 40
0.7500460219743177
 40
1.0
 40
1.0
 40
1.0
 40
1.0
 10
36.49793298487616
 20
13.05870389607927
 30
0.0
 10
36.49611428807063
 20
13.04384609674519
 30
0.0
 10
36.49247501273265
 20
13.0141151253547
 30
0.0
 10
36.48752522160298
 20
12.9762228735588
 30
0.0
 10
36.48309637598657
 20
12.9433837631382
 30
0.0
 10
36.47810209631749
 20
12.90753110815452
 30
0.0
 10
36.47349243726216
 20
12.87579395876462
 30
0.0
 10
36.47279341033072
 20
12.87106640004446
 30
0.0
 10
36.47244385197844
 20
12.86870231711404
 30
0.0
  0
SPLINE
  5
222
330
1F
100
AcDbEntity
  8
0
  6
SLD-Solid
 62
     7
370
    25
100
AcDbSpline
210
0.0
220
0.0
230
1.0
 70
     8
 71
     3
 72
    25
 73
    21
 74
     0
 42
0.00000001
 43
0.00000001
 40
0.0
 40
0.0
 40
0.0
 40
0.0
 40
0.0311647362143121
 40
0.0621874718259185
 40
0.0930437273167678
 40
0.1239280188419958
 40
0.186265328216152
 40
0.2493184034981004
 40
0.3123911575569828
 40
0.3750993449900011
 40
0.4376544464266287
 40
0.4997396176472647
 40
0.562149356932787
 40
0.6249894275385478
 40
0.6883752173042021
 40
0.7515397448081275
 40
0.8135177371999126
 40
0.8745840943461624
 40
0.9366839432340007
 40
1.0
 40
1.0
 40
1.0
 40
1.0
 10
36.50864347209866
 20
12.89515775219946
 30
0.0
 10
36.50889387857418
 20
12.89728017839144
 30
0.0
 10
36.5093935505603
 20
12.90151536004381
 30
0.0
 10
36.51012764567104
 20
12.90811080078388
 30
0.0
 10
36.51081708146442
 20
12.91517925316667
 30
0.0
 10
36.5116316940578
 20
12.92557490721009
 30
0.0
 10
36.51241800570722
 20
12.94027333536971
 30
0.0
 10
36.51297314815246
 20
12.959392924117
 30
0.0
 10
36.51312512770603
 20
12.97920177862248
 30
0.0
 10
36.51286484362786
 20
12.99885123988097
 30
0.0
 10
36.51221830393607
 20
13.01759761253854
 30
0.0
 10
36.51119500516045
 20
13.0347152087369
 30
0.0
 10
36.5098581308275
 20
13.04961953249712
 30
0.0
 10
36.5082708828489
 20
13.06187172621801
 30
0.0
 10
36.50650890066954
 20
13.0709478272109
 30
0.0
 10
36.50466552538872
 20
13.07642467284547
 30
0.0
 10
36.50282291817814
 20
13.07782492203305
 30
0.0
 10
36.50107305476237
 20
13.07422650647609
 30
0.0
 10
36.49945446889823
 20
13.06723522083365
 30
0.0
 10
36.49844341441589
 20
13.06156599657095
 30
0.0
 10
36.49793298487617
 20
13.05870389607928
 30
0.0
  0
LINE
  5
223
330
1F
100
AcDbEntity
  8
0
  6
SLD-Solid
 62
     7
370
    25
100
AcDbLine
 10
36.5136178669
 20
12.8951577438
 30
0.0
 11
36.5086434708
 21
12.8951577438
 31
0.0
  0
DIMENSION
  5
224
330
1F
100
AcDbEntity
  8
DIMS
100
AcDbDimension
  2
_D_2
 10
44.6826809598
 20
10.8327532424
 30
0.0
 11
44.6826809598
 21
16.761377869
 31
0.0
 70
   160
  1
<>
 71
     2
 42
-1.0
  3
SLDDIMSTYLE1
100
AcDbAlignedDimension
 13
43.5774437551
 23
22.2327532424
 33
0.0
 14
43.5774437551
 24
10.8327532424
 34
0.0
 50
90.0
100
AcDbRotatedDimension
  0
MTEXT
  5
233
330
1F
100
AcDbEntity
  8
NOTES
100
AcDbMText
 10
39.0072703635
 20
10.3912660336
 30
0.0
 40
0.5
 41
0.0
 71
     1
 72
     1
  1
Side view
  7
SLDTEXTSTYLE1
 73
     1
 44
1.0
  0
SPLINE
  5
234
330
1F
100
AcDbEntity
  8
0
  6
SLD-Solid
 62
     7
370
    25
100
AcDbSpline
210
0.0
220
0.0
230
1.0
 70
     8
 71
     3
 72
    22
 73
    18
 74
     0
 42
0.00000001
 43
0.00000001
 40
0.0
 40
0.0
 40
0.0
 40
0.0
 40
0.0847079192259398
 40
0.1524806583552367
 40
0.2029236557251698
 40
0.2360477687131875
 40
0.2656906015294634
 40
0.3263861364244297
 40
0.4012402079209987
 40
0.4881326839715915
 40
0.5588481247514154
 40
0.6232704793314539
 40
0.6813796469411785
 40
0.7342521509184203
 40
0.8016276365201496
 40
0.8904288124834079
 40
1.0
 40
1.0
 40
1.0
 40
1.0
 10
71.50504998105662
 20
23.48889999228334
 30
0.0
 10
71.4784514730817
 20
23.46026969671982
 30
0.0
 10
71.43057214793308
 20
23.40873300031265
 30
0.0
 10
71.37215058056817
 20
23.33809619435899
 30
0.0
 10
71.3307807214817
 20
23.28460177435495
 30
0.0
 10
71.30106351625287
 20
23.24394002755802
 30
0.0
 10
71.26936872774459
 20
23.19866119468134
 30
0.0
 10
71.2288738930613
 20
23.13691755452979
 30
0.0
 10
71.17881585376219
 20
23.05206970834444
 30
0.0
 10
71.13256294684645
 20
22.96188082325804
 30
0.0
 10
71.09427320333278
 20
22.87476297283559
 30
0.0
 10
71.06541950104678
 20
22.79831407664944
 30
0.0
 10
71.0429551524617
 20
22.7283776975732
 30
0.0
 10
71.02358276282247
 20
22.65704714772532
 30
0.0
 10
71.00499051749043
 20
22.57074943288719
 30
0.0
 10
70.98841719696863
 20
22.4598814613302
 30
0.0
 10
70.98600266432258
 20
22.37747077035574
 30
0.0
 10
70.98466899462846
 20
22.33195113689606
 30
0.0
  0
LINE
  5
235
330
1F
100
AcDbEntity
  8
0
  6
SLD-Solid
 62
     7
370
    25
100
AcDbLine
 10
70.9846690596
 20
22.3319572165
 30
0.0
 11
70.9846690596
 21
14.5339505331
 31
0.0
  0
SPLINE
  5
236
330
1F
100
AcDbEntity
  8
0
  6
SLD-Solid
 62
     7
370
    25
100
AcDbSpline
210
0.0
220
0.0
230
1.0
 70
     8
 71
     3
 72
    21
 73
    17
 74
     0
 42
0.00000001
 43
0.00000001
 40
0.0
 40
0.0
 40
0.0
 40
0.0
 40
0.0888419573442529
 40
0.1714454384662854
 40
0.2505808636344268
 40
0.3294059741022166
 40
0.4079509977416731
 40
0.4518612721956679
 40
0.499449553776797
 40
0.5532078657049734
 40
0.6131517691596041
 40
0.6793033152655931
 40
0.7503478616472624
 40
0.8274504657656935
 40
0.9106487847805183
 40
1.0
 40
1.0
 40
1.0
 40
1.0
 10
74.66368994659956
 20
25.80544433185682
 30
0.0
 10
74.56153426445937
 20
25.74618495079259
 30
0.0
 10
74.36439626525384
 20
25.63182737838533
 30
0.0
 10
74.07915598321199
 20
25.46156376360986
 30
0.0
 10
73.80783762575281
 20
25.29521958170834
 30
0.0
 10
73.54434563837025
 20
25.1282506013774
 30
0.0
 10
73.32323714416285
 20
24.98275572919734
 30
0.0
 10
73.13889634618306
 20
24.85734732134867
 30
0.0
 10
72.98287054214148
 20
24.74836173079307
 30
0.0
 10
72.81161413722113
 20
24.62494869070622
 30
0.0
 10
72.62350935621778
 20
24.4842629027406
 30
0.0
 10
72.42114551138266
 20
24.32610601662378
 30
0.0
 10
72.2059997526071
 20
24.14926257250998
 30
0.0
 10
71.97991839250228
 20
23.95197662834589
 30
0.0
 10
71.74271962203724
 20
23.73200523425206
 30
0.0
 10
71.58613453802457
 20
23.57183898916956
 30
0.0
 10
71.50505018387743
 20
23.48890020467057
 30
0.0
  0
SPLINE
  5
237
330
1F
100
AcDbEntity
  8
0
  6
SLD-Solid
 62
     7
370
    25
100
AcDbSpline
210
0.0
220
0.0
230
1.0
 70
     8
 71
     3
 72
    22
 73
    18
 74
     0
 42
0.00000001
 43
0.00000001
 40
0.0
 40
0.0
 40
0.0
 40
0.0
 40
0.0883144730320945
 40
0.169664840569309
 40
0.2448145780038573
 40
0.3141539152859785
 40
0.377186002697135
 40
0.4335885602004912
 40
0.4837700630997092
 40
0.5279438838246958
 40
0.5683565989544662
 40
0.6136829111381978
 40
0.6643992351021378
 40
0.7203251569090275
 40
0.8032577407511734
 40
0.8964722352578394
 40
1.0
 40
1.0
 40
1.0
 40
1.0
 10
73.5612260834543
 20
12.29487114566364
 30
0.0
 10
73.63605332911177
 20
12.26598190346506
 30
0.0
 10
73.77980726058915
 20
12.21048150241519
 30
0.0
 10
74.00169114140907
 20
12.14432528659559
 30
0.0
 10
74.21260297634613
 20
12.09252347678955
 30
0.0
 10
74.41096753396491
 20
12.0536762031917
 30
0.0
 10
74.59380512324017
 20
12.02563625574592
 30
0.0
 10
74.75924152596318
 20
12.00659168531903
 30
0.0
 10
74.90661796100936
 20
11.99451968915268
 30
0.0
 10
75.0382902624617
 20
11.98756168849084
 30
0.0
 10
75.16499678580045
 20
11.98415204594169
 30
0.0
 10
75.29758531938329
 20
11.98406439726301
 30
0.0
 10
75.44425737919184
 20
11.98835997098071
 30
0.0
 10
75.62534557251433
 20
11.99972632002672
 30
0.0
 10
75.84294191205096
 20
12.02326985374876
 30
0.0
 10
76.09813930559947
 20
12.06455436313614
 30
0.0
 10
76.26709795162415
 20
12.10661570203679
 30
0.0
 10
76.35600569835627
 20
12.12874880356299
 30
0.0
  0
SPLINE
  5
238
330
1F
100
AcDbEntity
  8
0
  6
SLD-Solid
 62
     7
370
    25
100
AcDbSpline
210
0.0
220
0.0
230
1.0
 70
     8
 71
     3
 72
    25
 73
    21
 74
     0
 42
0.00000001
 43
0.00000001
 40
0.0
 40
0.0
 40
0.0
 40
0.0
 40
0.0874070729808547
 40
0.1692380461151934
 40
0.2455384105348564
 40
0.3163368179181587
 40
0.381665627258128
 40
0.4405310094084967
 40
0.4941643985941599
 40
0.5425771898500124
 40
0.5862994254438494
 40
0.6555043410937376
 40
0.7191046792777112
 40
0.777114258904569
 40
0.8004050106559473
 40
0.8291338417154146
 40
0.8634435974660409
 40
0.9033451926622634
 40
0.9488554839257285
 40
1.0
 40
1.0
 40
1.0
 40
1.0
 10
76.35665849070486
 20
12.12892404068865
 30
0.0
 10
76.47501818231461
 20
12.16225280764748
 30
0.0
 10
76.70418685555482
 20
12.22678414598409
 30
0.0
 10
77.02949485034894
 20
12.33333183604411
 30
0.0
 10
77.32857020357854
 20
12.44010288118402
 30
0.0
 10
77.60218083152954
 20
12.54592520718565
 30
0.0
 10
77.85025673304881
 20
12.64820238634008
 30
0.0
 10
78.07399988681608
 20
12.74546791181047
 30
0.0
 10
78.27446593006238
 20
12.8364840253335
 30
0.0
 10
78.45444636964478
 20
12.9212010044493
 30
0.0
 10
78.65199002676556
 20
13.01700306048699
 30
0.0
 10
78.86622181754478
 20
13.12446077334025
 30
0.0
 10
79.09541489432576
 20
13.24349305407149
 30
0.0
 10
79.26786656113576
 20
13.33558688687006
 30
0.0
 10
79.39797520384433
 20
13.40620847017828
 30
0.0
 10
79.4996264366681
 20
13.46192891336466
 30
0.0
 10
79.62031622347106
 20
13.52881711474306
 30
0.0
 10
79.76000341721917
 20
13.60717192350424
 30
0.0
 10
79.91859235314087
 20
13.69713586994053
 30
0.0
 10
80.03007954807343
 20
13.76133481774269
 30
0.0
 10
80.08907256446193
 20
13.79530544174225
 30
0.0
  0
SPLINE
  5
239
330
1F
100
AcDbEntity
  8
0
  6
SLD-Solid
 62
     7
370
    25
100
AcDbSpline
210
0.0
220
0.0
230
1.0
 70
     8
 71
     3
 72
    10
 73
     6
 74
     0
 42
0.00000001
 43
0.00000001
 40
0.0
 40
0.0
 40
0.0
 40
0.0
 40
0.334053094862575
 40
0.6668866398875288
 40
1.0
 40
1.0
 40
1.0
 40
1.0
 10
72.44914458049723
 20
12.83542688037085
 30
0.0
 10
72.56471180257054
 20
12.77096094407739
 30
0.0
 10
72.79542433777789
 20
12.6422644215691
 30
0.0
 10
73.16736109767284
 20
12.46145060294328
 30
0.0
 10
73.4299009203793
 20
12.35041320881524
 30
0.0
 10
73.56122598823443
 20
12.2948711841121
 30
0.0
  0
SPLINE
  5
23A
330
1F
100
AcDbEntity
  8
0
  6
SLD-Solid
 62
     7
370
    25
100
AcDbSpline
210
0.0
220
0.0
230
1.0
 70
     8
 71
     3
 72
    13
 73
     9
 74
     0
 42
0.00000001
 43
0.00000001
 40
0.0
 40
0.0
 40
0.0
 40
0.0
 40
0.1151414029668929
 40
0.2508500073590434
 40
0.4070784193641379
 40
0.5838685225013891
 40
0.7813926796855758
 40
1.0
 40
1.0
 40
1.0
 40
1.0
 10
71.52632477476052
 20
13.47250444747827
 30
0.0
 10
71.55773619637667
 20
13.44660396914976
 30
0.0
 10
71.62616992343342
 20
13.39017652418301
 30
0.0
 10
71.74202827640507
 20
13.30031807225214
 30
0.0
 10
71.88029800129618
 20
13.19850909315758
 30
0.0
 10
72.04367920807414
 20
13.08572651885089
 30
0.0
 10
72.23378685209877
 20
12.96246667017759
 30
0.0
 10
72.37497426210439
 20
12.8791800426739
 30
0.0
 10
72.4491445737304
 20
12.83542688425855
 30
0.0
  0
SPLINE
  5
23B
330
1F
100
AcDbEntity
  8
0
  6
SLD-Solid
 62
     7
370
    25
100
AcDbSpline
210
0.0
220
0.0
230
1.0
 70
     8
 71
     3
 72
    23
 73
    19
 74
     0
 42
0.00000001
 43
0.00000001
 40
0.0
 40
0.0
 40
0.0
 40
0.0
 40
0.0865947938263978
 40
0.1587233967108964
 40
0.2165320543609476
 40
0.2601338106152156
 40
0.3004300727723088
 40
0.3517329073353065
 40
0.4139655274817254
 40
0.4838787529461818
 40
0.5436145334735656
 40
0.5905082937880654
 40
0.6250740826299779
 40
0.6656857758706839
 40
0.7235574999874343
 40
0.7985528710145522
 40
0.8906382587856246
 40
1.0
 40
1.0
 40
1.0
 40
1.0
 10
70.98466899442361
 20
14.5339514873918
 30
0.0
 10
70.98555229234586
 20
14.49822876877397
 30
0.0
 10
70.9871713278598
 20
14.43275103058412
 30
0.0
 10
70.99853252583117
 20
14.34444029822955
 30
0.0
 10
71.01176516376394
 20
14.2746701213983
 30
0.0
 10
71.02536535590284
 20
14.21882019599099
 30
0.0
 10
71.04026778281296
 20
14.1668957114868
 30
0.0
 10
71.0598415334326
 20
14.10850163534752
 30
0.0
 10
71.08693392972063
 20
14.04003127565098
 30
0.0
 10
71.11984216395341
 20
13.96971253055307
 30
0.0
 10
71.15416375239404
 20
13.90645545619922
 30
0.0
 10
71.18408122840002
 20
13.85699053430656
 30
0.0
 10
71.21140102832229
 20
13.81522419466714
 30
0.0
 10
71.24214681568844
 20
13.77131831251125
 30
0.0
 10
71.28471845554752
 20
13.71538698606109
 30
0.0
 10
71.34455002141421
 20
13.6449816629846
 30
0.0
 10
71.42454517431989
 20
13.56120162122877
 30
0.0
 10
71.49056391978853
 20
13.50367051404773
 30
0.0
 10
71.52640421691066
 20
13.47243799121657
 30
0.0
  0
LINE
  5
23C
330
1F
100
AcDbEntity
  8
0
  6
SLD-Solid
 62
     7
370
    25
100
AcDbLine
 10
79.6388122696
 20
23.1482782149
 30
0.0
 11
75.1134207376
 21
25.7607311387
 31
0.0
  0
SPLINE
  5
23D
330
1F
100
AcDbEntity
  8
0
  6
SLD-Solid
 62
     7
370
    25
100
AcDbSpline
210
0.0
220
0.0
230
1.0
 70
     8
 71
     3
 72
    22
 73
    18
 74
     0
 42
0.00000001
 43
0.00000001
 40
0.0
 40
0.0
 40
0.0
 40
0.0
 40
0.125
 40
0.125
 40
0.25
 40
0.25
 40
0.375
 40
0.375
 40
0.5
 40
0.5
 40
0.625
 40
0.625
 40
0.75
 40
0.75
 40
0.875
 40
0.875
 40
1.0
 40
1.0
 40
1.0
 40
1.0
 10
79.63881229799892
 20
23.14827816009074
 30
0.0
 10
79.67631499185559
 20
23.12662830892885
 30
0.0
 10
79.71522015411105
 20
23.10031896099748
 30
0.0
 10
79.7940222358352
 20
23.03798811963693
 30
0.0
 10
79.83391114343935
 20
23.00195649258001
 30
0.0
 10
79.91225519299324
 20
22.92091363999248
 30
0.0
 10
79.95069445507141
 20
22.87590313115704
 30
0.0
 10
80.02346449964358
 20
22.77895543511688
 30
0.0
 10
80.0577763880023
 20
22.72703291372351
 30
0.0
 10
80.11991289079373
 20
22.61940932322849
 30
0.0
 10
80.14772351677844
 20
22.56373248283185
 30
0.0
 10
80.19529901814141
 20
22.45223555821
 30
0.0
 10
80.21506063877645
 20
22.3964391711601
 30
0.0
 10
80.24607633914448
 20
22.28806536182605
 30
0.0
 10
80.25733773688086
 20
22.23550205243887
 30
0.0
 10
80.27192026039431
 20
22.13608599686886
 30
0.0
 10
80.27525416695585
 20
22.08923512430134
 30
0.0
 10
80.2752541701375
 20
22.04592839234075
 30
0.0
  0
LINE
  5
23E
330
1F
100
AcDbEntity
  8
0
  6
SLD-Solid
 62
     7
370
    25
100
AcDbLine
 10
80.2752543064
 20
22.0459283331
 30
0.0
 11
80.2752543064
 21
14.2072425065
 31
0.0
  0
SPLINE
  5
23F
330
1F
100
AcDbEntity
  8
0
  6
SLD-Solid
 62
     7
370
    25
100
AcDbSpline
210
0.0
220
0.0
230
1.0
 70
     8
 71
     3
 72
   116
 73
   112
 74
     0
 42
0.00000001
 43
0.00000001
 40
0.0
 40
0.0
 40
0.0
 40
0.0
 40
0.015625
 40
0.015625
 40
0.0234375
 40
0.0234375
 40
0.02734375
 40
0.02734375
 40
0.029296875
 40
0.029296875
 40
0.0302734375
 40
0.0302734375
 40
0.03076171875
 40
0.03076171875
 40
0.03125
 40
0.03125
 40
0.046875
 40
0.046875
 40
0.0546875
 40
0.0546875
 40
0.05859375
 40
0.05859375
 40
0.060546875
 40
0.060546875
 40
0.0625
 40
0.0625
 40
0.078125
 40
0.078125
 40
0.0859375
 40
0.0859375
 40
0.08984375
 40
0.08984375
 40
0.09375
 40
0.09375
 40
0.125
 40
0.125
 40
0.15625
 40
0.15625
 40
0.171875
 40
0.171875
 40
0.1875
 40
0.1875
 40
0.21875
 40
0.21875
 40
0.25
 40
0.25
 40
0.28125
 40
0.28125
 40
0.3125
 40
0.3125
 40
0.34375
 40
0.34375
 40
0.375
 40
0.375
 40
0.4375
 40
0.4375
 40
0.5
 40
0.5
 40
0.5625
 40
0.5625
 40
0.625
 40
0.625
 40
0.65625
 40
0.65625
 40
0.6875
 40
0.6875
 40
0.71875
 40
0.71875
 40
0.734375
 40
0.734375
 40
0.7421875
 40
0.7421875
 40
0.75
 40
0.75
 40
0.78125
 40
0.78125
 40
0.796875
 40
0.796875
 40
0.8046875
 40
0.8046875
 40
0.8125
 40
0.8125
 40
0.84375
 40
0.84375
 40
0.859375
 40
0.859375
 40
0.8671875
 40
0.8671875
 40
0.87109375
 40
0.87109375
 40
0.873046875
 40
0.873046875
 40
0.875
 40
0.875
 40
0.90625
 40
0.90625
 40
0.921875
 40
0.921875
 40
0.9296875
 40
0.9296875
 40
0.93359375
 40
0.93359375
 40
0.935546875
 40
0.935546875
 40
0.9365234375
 40
0.9365234375
 40
0.93701171875
 40
0.93701171875
 40
0.9375
 40
0.9375
 40
1.0
 40
1.0
 40
1.0
 40
1.0
 10
72.88609974042296
 20
13.65504362400418
 30
0.0
 10
72.887375306901
 20
13.65559885550366
 30
0.0
 10
72.88848921208506
 20
13.65608894814869
 30
0.0
 10
72.88991721492441
 20
13.65672612208854
 30
0.0
 10
72.89035274115197
 20
13.65692218667247
 30
0.0
 10
72.89094528297099
 20
13.65719176834992
 30
0.0
 10
72.8911326723925
 20
13.65727754309124
 30
0.0
 10
72.89139856593681
 20
13.65740007377586
 30
0.0
 10
72.8914846653579
 20
13.65743989543587
 30
0.0
 10
72.89161001641132
 20
13.65749809476338
 30
0.0
 10
72.89165116708304
 20
13.65751723901232
 30
0.0
 10
72.8917119435192
 20
13.65754557205832
 30
0.0
 10
72.89173204406936
 20
13.6575549525191
 30
0.0
 10
72.8917719286374
 20
13.65757358565883
 30
0.0
 10
72.8917786964692
 20
13.65757674415279
 30
0.0
 10
72.89285588027796
 20
13.65808108216551
 30
0.0
 10
72.89383753722947
 20
13.6585616708017
 30
0.0
 10
72.89521557087028
 20
13.65926976610408
 30
0.0
 10
72.89565917362097
 20
13.65950366671352
 30
0.0
 10
72.89630095101401
 20
13.65985131094195
 30
0.0
 10
72.89651093903335
 20
13.65996665791114
 30
0.0
 10
72.8968200127343
 20
13.66013887552706
 30
0.0
 10
72.89692205258058
 20
13.66019614759317
 30
0.0
 10
72.89712416256289
 20
13.66031042392297
 30
0.0
 10
72.89720468478035
 20
13.66035620859021
 30
0.0
 10
72.89827238238858
 20
13.66096901737839
 30
0.0
 10
72.89917255529596
 20
13.66152441339772
 30
0.0
 10
72.90044938873335
 20
13.66237346034455
 30
0.0
 10
72.9008627623267
 20
13.66265913488396
 30
0.0
 10
72.90146445624114
 20
13.66309162782599
 30
0.0
 10
72.90166195980636
 20
13.66323645566658
 30
0.0
 10
72.90205084317567
 20
13.6635274372537
 30
0.0
 10
72.90222761417441
 20
13.66366220165748
 30
0.0
 10
72.90405394769338
 20
13.66508605103476
 30
0.0
 10
72.90556328420752
 20
13.66650175300118
 30
0.0
 10
72.90830906862959
 20
13.66958325655858
 30
0.0
 10
72.90957297766036
 20
13.67126768097825
 30
0.0
 10
72.91130509111215
 20
13.6740096305576
 30
0.0
 10
72.91185517108126
 20
13.67495949959394
 30
0.0
 10
72.912900708769
 20
13.67693098090844
 30
0.0
 10
72.9134064552779
 20
13.67797583487028
 30
0.0
 10
72.91477997484373
 20
13.68107852307942
 30
0.0
 10
72.91557628878186
 20
13.68325249613605
 30
0.0
 10
72.91692993347294
 20
13.68781129087316
 30
0.0
 10
72.9174926761438
 20
13.69022689864948
 30
0.0
 10
72.91835735472984
 20
13.6951456925075
 30
0.0
 10
72.91866490108522
 20
13.6976749282
 30
0.0
 10
72.91903030667704
 20
13.70287300459009
 30
0.0
 10
72.91908755783204
 20
13.70556670307307
 30
0.0
 10
72.91895478631729
 20
13.71099426025348
 30
0.0
 10
72.91876590072035
 20
13.7137511909737
 30
0.0
 10
72.91814319084504
 20
13.71935140037693
 30
0.0
 10
72.9177147541583
 20
13.72216672032646
 30
0.0
 10
72.91602992074925
 20
13.73091010508007
 30
0.0
 10
72.91445279839274
 20
13.73671865093703
 30
0.0
 10
72.9103926457792
 20
13.74829634047439
 30
0.0
 10
72.90788963376075
 20
13.75410464058475
 30
0.0
 10
72.90206061605392
 20
13.76552734163298
 30
0.0
 10
72.89875308224865
 20
13.77111005408962
 30
0.0
 10
72.89136562299981
 20
13.78200562804756
 30
0.0
 10
72.88739243527718
 20
13.78716812995119
 30
0.0
 10
72.88089289407245
 20
13.79462694808142
 30
0.0
 10
72.87866977865804
 20
13.79702478499065
 30
0.0
 10
72.87411069242665
 20
13.80164382902758
 30
0.0
 10
72.87180439426568
 20
13.8038385785219
 30
0.0
 10
72.86696061880538
 20
13.80815753219275
 30
0.0
 10
72.86452489281535
 20
13.81018743326401
 30
0.0
 10
72.86085062473478
 20
13.81303797237136
 30
0.0
 10
72.85962242220424
 20
13.81395576666282
 30
0.0
 10
72.85777495854997
 20
13.81528388642709
 30
0.0
 10
72.85715827735623
 20
13.81571849773671
 30
0.0
 10
72.85592319667626
 20
13.8165715308771
 30
0.0
 10
72.8553220979298
 20
13.81697848903057
 30
0.0
 10
72.85213930523042
 20
13.81908744557601
 30
0.0
 10
72.84962216415391
 20
13.82060821875601
 30
0.0
 10
72.84588995344654
 20
13.82263968926503
 30
0.0
 10
72.84465313338947
 20
13.82327523124962
 30
0.0
 10
72.84280876148068
 20
13.82416610952699
 30
0.0
 10
72.8421957805423
 20
13.8244526631711
 30
0.0
 10
72.84097343523354
 20
13.82500495684433
 30
0.0
 10
72.84033395279288
 20
13.82528335429814
 30
0.0
 10
72.83744675567803
 20
13.8264967281851
 30
0.0
 10
72.8350845485955
 20
13.82733797289305
 30
0.0
 10
72.83146282848945
 20
13.82840583865266
 30
0.0
 10
72.83024252033924
 20
13.82872946043739
 30
0.0
 10
72.82839249021063
 20
13.82916641618445
 30
0.0
 10
72.82777255219219
 20
13.82930398861689
 30
0.0
 10
72.8268377575597
 20
13.82949823099557
 30
0.0
 10
72.82652534474859
 20
13.82956095907712
 30
0.0
 10
72.82605550418101
 20
13.82965202250464
 30
0.0
 10
72.82589868710002
 20
13.82968187219804
 30
0.0
 10
72.82558464591314
 20
13.8297405620822
 30
0.0
 10
72.82540156225775
 20
13.82977405674674
 30
0.0
 10
72.82316490587046
 20
13.83017663369415
 30
0.0
 10
72.82094360322348
 20
13.83047726934573
 30
0.0
 10
72.81743787172734
 20
13.8308112052917
 30
0.0
 10
72.8162403322521
 20
13.83090301475518
 30
0.0
 10
72.81440065307966
 20
13.83101152540877
 30
0.0
 10
72.81378019840066
 20
13.8310428283948
 30
0.0
 10
72.81283868348444
 20
13.83108248853121
 30
0.0
 10
72.81252303969848
 20
13.83109449285448
 30
0.0
 10
72.81204686701223
 20
13.83111067658328
 30
0.0
 10
72.81188769161575
 20
13.83111576736697
 30
0.0
 10
72.81164825192246
 20
13.8311229479579
 30
0.0
 10
72.81156832592497
 20
13.83112526555745
 30
0.0
 10
72.81144826779828
 20
13.83112862807372
 30
0.0
 10
72.81140822023433
 20
13.83112972993197
 30
0.0
 10
72.81132806873282
 20
13.83113189568965
 30
0.0
 10
72.81127188752752
 20
13.8311333781933
 30
0.0
 10
72.80816881123235
 20
13.83121417306979
 30
0.0
 10
72.8035735723288
 20
13.83117113042759
 30
0.0
 10
72.797471872916
 20
13.83101156000487
 30
0.0
  0
SPLINE
  5
240
330
1F
100
AcDbEntity
  8
0
  6
SLD-Solid
 62
     7
370
    25
100
AcDbSpline
210
0.0
220
0.0
230
1.0
 70
     8
 71
     3
 72
   130
 73
   126
 74
     0
 42
0.00000001
 43
0.00000001
 40
0.0
 40
0.0
 40
0.0
 40
0.0
 40
0.0156249998570748
 40
0.0156249998570748
 40
0.0158691404798416
 40
0.0158691404798416
 40
0.0161132811026084
 40
0.0161132811026084
 40
0.016601562348142
 40
0.016601562348142
 40
0.0175781248392092
 40
0.0175781248392092
 40
0.0195312498213435
 40
0.0195312498213435
 40
0.0234374997856123
 40
0.0234374997856123
 40
0.0312499997141497
 40
0.0312499997141497
 40
0.0624999994282994
 40
0.0624999994282994
 40
0.0781249992853742
 40
0.0781249992853742
 40
0.093749999142449
 40
0.093749999142449
 40
0.1249999988565987
 40
0.1249999988565987
 40
0.1874999982848981
 40
0.1874999982848981
 40
0.2499999977131974
 40
0.2499999977131974
 40
0.3124999971414968
 40
0.3124999971414968
 40
0.3749999965697961
 40
0.3749999965697961
 40
0.4999999954263948
 40
0.4999999954263948
 40
0.5624999948546943
 40
0.5624999948546943
 40
0.6249999942829936
 40
0.6249999942829936
 40
0.632812494211531
 40
0.632812494211531
 40
0.6406249941400683
 40
0.6406249941400683
 40
0.6562499939971432
 40
0.6562499939971432
 40
0.6874999937112929
 40
0.6874999937112929
 40
0.7031249935683677
 40
0.7031249935683677
 40
0.7187499934254425
 40
0.7187499934254425
 40
0.7499999931395922
 40
0.7499999931395922
 40
0.7519531181217265
 40
0.7519531181217265
 40
0.7539062431038609
 40
0.7539062431038609
 40
0.7578124930681296
 40
0.7578124930681296
 40
0.765624992996667
 40
0.765624992996667
 40
0.7812499928537419
 40
0.7812499928537419
 40
0.8124999925678915
 40
0.8124999925678915
 40
0.8164062425321602
 40
0.8164062425321602
 40
0.8203124924964289
 40
0.8203124924964289
 40
0.8281249924249664
 40
0.8281249924249664
 40
0.8437499922820413
 40
0.8437499922820413
 40
0.8749999919961909
 40
0.8749999919961909
 40
0.8754882732417246
 40
0.8754882732417246
 40
0.8759765544872582
 40
0.8759765544872582
 40
0.8769531169783253
 40
0.8769531169783253
 40
0.8789062419604596
 40
0.8789062419604596
 40
0.8828124919247284
 40
0.8828124919247284
 40
0.8906249918532658
 40
0.8906249918532658
 40
0.9062499917103406
 40
0.9062499917103406
 40
0.9374999914244904
 40
0.9374999914244904
 40
0.9377441320472572
 40
0.9377441320472572
 40
0.9379882726700239
 40
0.9379882726700239
 40
0.9384765539155575
 40
0.9384765539155575
 40
0.9394531164066247
 40
0.9394531164066247
 40
0.9414062413887591
 40
0.9414062413887591
 40
0.9453124913530278
 40
0.9453124913530278
 40
0.9531249912815651
 40
0.9531249912815651
 40
0.96874999113864
 40
0.96874999113864
 40
0.9688720614500235
 40
0.9688720614500235
 40
0.9689941317614068
 40
0.9689941317614068
 40
0.9692382723841737
 40
0.9692382723841737
 40
0.9697265536297073
 40
0.9697265536297073
 40
0.9707031161207744
 40
0.9707031161207744
 40
0.9726562411029087
 40
0.9726562411029087
 40
0.9765624910671775
 40
0.9765624910671775
 40
0.9843749909957149
 40
0.9843749909957149
 40
0.9999999908527897
 40
0.9999999908527897
 40
0.9999999908527897
 40
0.9999999908527897
 10
72.797471872916
 20
13.83101156000487
 30
0.0
 10
72.79238324260533
 20
13.82968944896356
 30
0.0
 10
72.78820365187285
 20
13.82864428256861
 30
0.0
 10
72.78487660711419
 20
13.82786036167119
 30
0.0
 10
72.78479658962517
 20
13.82784152409998
 30
0.0
 10
72.78466536471339
 20
13.82781066963328
 30
0.0
 10
72.78459974489328
 20
13.82779525687742
 30
0.0
 10
72.78440286334276
 20
13.82774906204388
 30
0.0
 10
72.78427157952216
 20
13.82771832340019
 30
0.0
 10
72.78387763971928
 20
13.8276262812174
 30
0.0
 10
72.78361489539596
 20
13.82756515142656
 30
0.0
 10
72.78282630921974
 20
13.82738245714479
 30
0.0
 10
72.78230011416052
 20
13.82726158774463
 30
0.0
 10
72.78072011742373
 20
13.82690176068996
 30
0.0
 10
72.7796649041859
 20
13.82666558418088
 30
0.0
 10
72.77649362840035
 20
13.82596818551327
 30
0.0
 10
72.77437192976305
 20
13.82551809420775
 30
0.0
 10
72.7637259992898
 20
13.82334192747429
 30
0.0
 10
72.75515584598121
 20
13.8218512746967
 30
0.0
 10
72.74210747296348
 20
13.81996856536372
 30
0.0
 10
72.73776635948226
 20
13.81940564632963
 30
0.0
 10
72.72901200581424
 20
13.81839644992373
 30
0.0
 10
72.72461362689351
 20
13.8179523168393
 30
0.0
 10
72.7113554212026
 20
13.81680162422096
 30
0.0
 10
72.70243252260022
 20
13.81627677054461
 30
0.0
 10
72.67541594475024
 20
13.81543155247369
 30
0.0
 10
72.65723314807445
 20
13.81583867651013
 30
0.0
 10
72.62044407240111
 20
13.81860021231399
 30
0.0
 10
72.60185403769351
 20
13.82095513292208
 30
0.0
 10
72.56430129105007
 20
13.82762252028128
 30
0.0
 10
72.54547236593177
 20
13.83191454077057
 30
0.0
 10
72.50761481586393
 20
13.84243996899133
 30
0.0
 10
72.48860414568959
 20
13.84867018916519
 30
0.0
 10
72.43134682024966
 20
13.8702717388671
 30
0.0
 10
72.39337167765949
 20
13.88836196784263
 30
0.0
 10
72.33679258940323
 20
13.92101266570371
 30
0.0
 10
72.3181186841442
 20
13.9327520287311
 30
0.0
 10
72.28102968738848
 20
13.95800414393893
 30
0.0
 10
72.26263331356492
 20
13.9715060944651
 30
0.0
 10
72.24210373006161
 20
13.98767948880285
 30
0.0
 10
72.23986815134738
 20
13.98945574784222
 30
0.0
 10
72.2353567635861
 20
13.99307005846886
 30
0.0
 10
72.23310282218367
 20
13.99489088252538
 30
0.0
 10
72.22634626048594
 20
14.00039435618099
 30
0.0
 10
72.22184890270455
 20
14.0041180072671
 30
0.0
 10
72.20837791985274
 20
14.01545292849063
 30
0.0
 10
72.19942538534495
 20
14.02322816660807
 30
0.0
 10
72.18603892517226
 20
14.03521880754071
 30
0.0
 10
72.18156595709134
 20
14.03928566846082
 30
0.0
 10
72.17271625946528
 20
14.04745322326374
 30
0.0
 10
72.16831982589235
 20
14.051571566616
 30
0.0
 10
72.15521523908214
 20
14.06402995229593
 30
0.0
 10
72.14659179881676
 20
14.07247334865006
 30
0.0
 10
72.1375479087223
 20
14.081589926898
 30
0.0
 10
72.13698141138465
 20
14.08216203620412
 30
0.0
 10
72.13588511298583
 20
14.08327137920195
 30
0.0
 10
72.13533769444679
 20
14.0838263719675
 30
0.0
 10
72.13369762877946
 20
14.08549231287953
 30
0.0
 10
72.13260717159974
 20
14.08660422364026
 30
0.0
 10
72.12934454364729
 20
14.08994379694518
 30
0.0
 10
72.12718111644234
 20
14.09217530049409
 30
0.0
 10
72.12072568012348
 20
14.09888510034487
 30
0.0
 10
72.11646851599889
 20
14.10337868556484
 30
0.0
 10
72.10383538288707
 20
14.11692000886256
 30
0.0
 10
72.09559776811304
 20
14.1260283100779
 30
0.0
 10
72.08653498878645
 20
14.1363642916996
 30
0.0
 10
72.08547704472329
 20
14.1375757076105
 30
0.0
 10
72.08341819664774
 20
14.13994316321963
 30
0.0
 10
72.08239079534883
 20
14.14112942272662
 30
0.0
 10
72.07931464948122
 20
14.14469579033242
 30
0.0
 10
72.07727196293442
 20
14.14708348750751
 30
0.0
 10
72.07116805414887
 20
14.15427688747714
 30
0.0
 10
72.06713098264702
 20
14.1591128985796
 30
0.0
 10
72.05511572549396
 20
14.17374178723266
 30
0.0
 10
72.04723349524646
 20
14.18365551797677
 30
0.0
 10
72.03935631994388
 20
14.19388680949032
 30
0.0
 10
72.03926133725909
 20
14.19401023917196
 30
0.0
 10
72.03904491614917
 20
14.19429158302648
 30
0.0
 10
72.03893662168159
 20
14.19443242513311
 30
0.0
 10
72.03861148660494
 20
14.19485546202257
 30
0.0
 10
72.03839439432193
 20
14.19513816737494
 30
0.0
 10
72.03774211129014
 20
14.19598832596241
 30
0.0
 10
72.03730591435807
 20
14.19655782172764
 30
0.0
 10
72.03599330295464
 20
14.19827448117053
 30
0.0
 10
72.0351128678666
 20
14.19942981699137
 30
0.0
 10
72.0324555134894
 20
14.20292852938607
 30
0.0
 10
72.03066254493513
 20
14.20530461082864
 30
0.0
 10
72.02521971457772
 20
14.21256380782799
 30
0.0
 10
72.02150592563021
 20
14.21757787505448
 30
0.0
 10
72.01011111819925
 20
14.23314498580783
 30
0.0
 10
72.00217661933164
 20
14.24422292280628
 30
0.0
 10
71.99384609712628
 20
14.25609588864013
 30
0.0
 10
71.99380734636273
 20
14.25615112649713
 30
0.0
 10
71.99370387721008
 20
14.25629862993906
 30
0.0
 10
71.99365209528204
 20
14.25637245800533
 30
0.0
 10
71.99349660745989
 20
14.25659417124855
 30
0.0
 10
71.99339275952777
 20
14.25674228546985
 30
0.0
 10
71.99308064771706
 20
14.25718754437874
 30
0.0
 10
71.99287181582403
 20
14.25748560531126
 30
0.0
 10
71.99224304919564
 20
14.25838345363168
 30
0.0
 10
71.99182084350825
 20
14.25898690654116
 30
0.0
 10
71.99054515160984
 20
14.26081193174863
 30
0.0
 10
71.98968259051752
 20
14.26204817050506
 30
0.0
 10
71.98705868113505
 20
14.26581558850299
 30
0.0
 10
71.98526110601553
 20
14.26840546914537
 30
0.0
 10
71.979724087065
 20
14.27641021583724
 30
0.0
 10
71.97584033796797
 20
14.28206018147078
 30
0.0
 10
71.97173412880036
 20
14.28807107047326
 30
0.0
 10
71.97172765429673
 20
14.28808054917178
 30
0.0
 10
71.97168924111459
 20
14.28813678434493
 30
0.0
 10
71.97166999773572
 20
14.28816495675974
 30
0.0
 10
71.97161215724066
 20
14.28824963849129
 30
0.0
 10
71.97157344976598
 20
14.28830631229515
 30
0.0
 10
71.97145688594775
 20
14.28847699167465
 30
0.0
 10
71.97137858820982
 20
14.28859165521816
 30
0.0
 10
71.97114192973959
 20
14.2889382778775
 30
0.0
 10
71.97098180374918
 20
14.28917286902134
 30
0.0
 10
71.97049436737204
 20
14.28988717185212
 30
0.0
 10
71.97015999855336
 20
14.29037741292579
 30
0.0
 10
71.96912868032842
 20
14.29189026444997
 30
0.0
 10
71.96840351873705
 20
14.29295500300321
 30
0.0
 10
71.9661153760727
 20
14.29631782444884
 30
0.0
 10
71.96443973042682
 20
14.29878450993587
 30
0.0
 10
71.95896390545784
 20
14.30685984056883
 30
0.0
 10
71.95471473087488
 20
14.31314370856863
 30
0.0
 10
71.94987292052605
 20
14.32033079788282
 30
0.0
  0
SPLINE
  5
241
330
1F
100
AcDbEntity
  8
0
  6
SLD-Solid
 62
     7
370
    25
100
AcDbSpline
210
0.0
220
0.0
230
1.0
 70
     8
 71
     3
 72
    12
 73
     8
 74
     0
 42
0.00000001
 43
0.00000001
 40
0.0
 40
0.0
 40
0.0
 40
0.0
 40
0.2870449773055707
 40
0.431935999569617
 40
0.5785033071437515
 40
0.8695307513822693
 40
0.9999999999999999
 40
0.9999999999999999
 40
0.9999999999999999
 40
0.9999999999999999
 10
71.94987291202254
 20
14.32033081050524
 30
0.0
 10
71.94252346640629
 20
14.33055519680854
 30
0.0
 10
71.93146425830466
 20
14.34594052268797
 30
0.0
 10
71.91469948537554
 20
14.36016612487213
 30
0.0
 10
71.8981277758878
 20
14.36989131599237
 30
0.0
 10
71.88178459619252
 20
14.37477867444969
 30
0.0
 10
71.87350379552464
 20
14.36936530570222
 30
0.0
 10
71.8709405729433
 20
14.36768966229874
 30
0.0
  0
SPLINE
  5
242
330
1F
100
AcDbEntity
  8
0
  6
SLD-Solid
 62
     7
370
    25
100
AcDbSpline
210
0.0
220
0.0
230
1.0
 70
     8
 71
     3
 72
    11
 73
     7
 74
     0
 42
0.00000001
 43
0.00000001
 40
0.0
 40
0.0
 40
0.0
 40
0.0
 40
0.2485353375885483
 40
0.4984421996833458
 40
0.7492107578950339
 40
1.0
 40
1.0
 40
1.0
 40
1.0
 10
74.66373080085212
 20
25.80536348826421
 30
0.0
 10
74.69460501779511
 20
25.81950938761937
 30
0.0
 10
74.75652382884176
 20
25.84787924946476
 30
0.0
 10
74.86814702391548
 20
25.84988276206024
 30
0.0
 10
74.98807349779565
 20
25.82514390835739
 30
0.0
 10
75.0716371755971
 20
25.78220260472523
 30
0.0
 10
75.11342073755168
 20
25.76073106747447
 30
0.0
  0
SPLINE
  5
243
330
1F
100
AcDbEntity
  8
0
  6
SLD-Solid
 62
     7
370
    25
100
AcDbSpline
210
0.0
220
0.0
230
1.0
 70
     8
 71
     3
 72
    26
 73
    22
 74
     0
 42
0.00000001
 43
0.00000001
 40
0.0
 40
0.0
 40
0.0
 40
0.0
 40
0.0312500480009986
 40
0.0624789515485774
 40
0.0936897165597692
 40
0.1249175655477749
 40
0.1874435937668393
 40
0.2500028565434126
 40
0.3217723511850219
 40
0.3928431277151818
 40
0.4999727378190276
 40
0.5626081003823554
 40
0.6249884235186928
 40
0.687083119810898
 40
0.750025256247162
 40
0.8140597673990702
 40
0.8750387025461391
 40
0.90449474225366
 40
0.9374523816130157
 40
0.9687131713228962
 40
1.0
 40
1.0
 40
1.0
 40
1.0
 10
71.87250134208897
 20
14.2361346710948
 30
0.0
 10
71.88091491973711
 20
14.22309414207555
 30
0.0
 10
71.89773638222613
 20
14.19702190753896
 30
0.0
 10
71.9234455258457
 20
14.15836647163847
 30
0.0
 10
71.94983528031963
 20
14.12051109100647
 30
0.0
 10
71.98624040148317
 20
14.07162966700428
 30
0.0
 10
72.033796739862
 20
14.01352415466622
 30
0.0
 10
72.09641261926222
 20
13.94540166768006
 30
0.0
 10
72.16442840093877
 20
13.88012828628539
 30
0.0
 10
72.25021607583119
 20
13.80932529745686
 30
0.0
 10
72.33585644666366
 20
13.75219281579468
 30
0.0
 10
72.41985204523893
 20
13.70800425463457
 30
0.0
 10
72.48805512806736
 20
13.67914497712427
 30
0.0
 10
72.55640458003096
 20
13.65714549870956
 30
0.0
 10
72.62499556716996
 20
13.64177381286754
 30
0.0
 10
72.69243654471282
 20
13.63326227881896
 30
0.0
 10
72.7466007089362
 20
13.63272560119687
 30
0.0
 10
72.7886267256371
 20
13.63649142308167
 30
0.0
 10
72.82007589235545
 20
13.64091920102554
 30
0.0
 10
72.85180557004726
 20
13.6466059636256
 30
0.0
 10
72.87255874417248
 20
13.65073925926021
 30
0.0
 10
72.8829396510736
 20
13.65280676743602
 30
0.0
  0
SPLINE
  5
244
330
1F
100
AcDbEntity
  8
0
  6
SLD-Solid
 62
     7
370
    25
100
AcDbSpline
210
0.0
220
0.0
230
1.0
 70
     8
 71
     3
 72
    25
 73
    21
 74
     0
 42
0.00000001
 43
0.00000001
 40
0.0
 40
0.0
 40
0.0
 40
0.0
 40
0.0311687569684269
 40
0.0621971305592579
 40
0.093062013077746
 40
0.1239587061668257
 40
0.1863302954798318
 40
0.2494239587613673
 40
0.3125379881861727
 40
0.3752818740630917
 40
0.4378676046630944
 40
0.4999534858132162
 40
0.5623542307972452
 40
0.6251713599031001
 40
0.688523353344945
 40
0.7516477877530333
 40
0.8135854267266578
 40
0.874619319690525
 40
0.9366979015144111
 40
1.0
 40
1.0
 40
1.0
 40
1.0
 10
71.94605016459724
 20
14.31847031313229
 30
0.0
 10
71.94422487116765
 20
14.32103340885578
 30
0.0
 10
71.94058250538889
 20
14.32614805617751
 30
0.0
 10
71.93503511384297
 20
14.33363431915007
 30
0.0
 10
71.92931627957094
 20
14.34073856836095
 30
0.0
 10
71.92134985983635
 20
14.3493654048222
 30
0.0
 10
71.91088751606067
 20
14.35828640432014
 30
0.0
 10
71.89828646124845
 20
14.36580821543181
 30
0.0
 10
71.88612572225502
 20
14.36997570822999
 30
0.0
 10
71.87491991760241
 20
14.37060408748333
 30
0.0
 10
71.86505968604637
 20
14.36776999661676
 30
0.0
 10
71.8569629241865
 20
14.36136359397229
 30
0.0
 10
71.8508662295302
 20
14.35172031920101
 30
0.0
 10
71.84692128059702
 20
14.33918993641645
 30
0.0
 10
71.84530643365
 20
14.32423043836359
 30
0.0
 10
71.84609824439065
 20
14.30752014663124
 30
0.0
 10
71.84941746739908
 20
14.28969922373606
 30
0.0
 10
71.85561489915976
 20
14.27152260988338
 30
0.0
 10
71.86363617918418
 20
14.25372471488517
 30
0.0
 10
71.86952712568791
 20
14.24203604000348
 30
0.0
 10
71.87250134208897
 20
14.2361346710948
 30
0.0
  0
SPLINE
  5
245
330
1F
100
AcDbEntity
  8
0
  6
SLD-Solid
 62
     7
370
    25
100
AcDbSpline
210
0.0
220
0.0
230
1.0
 70
     8
 71
     3
 72
    23
 73
    19
 74
     0
 42
0.00000001
 43
0.00000001
 40
0.0
 40
0.0
 40
0.0
 40
0.0
 40
0.0156144014608188
 40
0.0312349815557715
 40
0.0624914432434012
 40
0.1250342660347524
 40
0.2500103774991241
 40
0.3749612460206233
 40
0.4999509561797221
 40
0.6248761196161547
 40
0.6874028669015498
 40
0.750008161984675
 40
0.8125797878348139
 40
0.8749934735635431
 40
0.9044519880676316
 40
0.9374218167184745
 40
0.9686976639817689
 40
1.0
 40
1.0
 40
1.0
 40
1.0
 10
72.79424905307187
 20
13.82880473229432
 30
0.0
 10
72.79007423866925
 20
13.82773545919465
 30
0.0
 10
72.7817229578858
 20
13.82559648988289
 30
0.0
 10
72.76478635614527
 20
13.82190161333315
 30
0.0
 10
72.73466926566151
 20
13.81666522049377
 30
0.0
 10
72.67271723957512
 20
13.81133310153879
 30
0.0
 10
72.58024352991147
 20
13.81824748599134
 30
0.0
 10
72.46609164516751
 20
13.85000593740116
 30
0.0
 10
72.351714937899
 20
13.90445371334246
 30
0.0
 10
72.25849142317475
 20
13.96795303654729
 30
0.0
 10
72.18657561045052
 20
14.02854494764647
 30
0.0
 10
72.13409709436387
 20
14.0783821692921
 30
0.0
 10
72.08346360459647
 20
14.13247001977708
 30
0.0
 10
72.04372774283102
 20
14.18082194499246
 30
0.0
 10
72.01298958294026
 20
14.22192936039118
 30
0.0
 10
71.99044918780774
 20
14.25346376226759
 30
0.0
 10
71.96790228374816
 20
14.28611779970421
 30
0.0
 10
71.95333625953445
 20
14.30768309919362
 30
0.0
 10
71.94605016459724
 20
14.31847031313229
 30
0.0
  0
SPLINE
  5
246
330
1F
100
AcDbEntity
  8
0
  6
SLD-Solid
 62
     7
370
    25
100
AcDbSpline
210
0.0
220
0.0
230
1.0
 70
     8
 71
     3
 72
    25
 73
    21
 74
     0
 42
0.00000001
 43
0.00000001
 40
0.0
 40
0.0
 40
0.0
 40
0.0
 40
0.0311647362143121
 40
0.0621874718259185
 40
0.0930437273167678
 40
0.1239280188419958
 40
0.186265328216152
 40
0.2493184034981004
 40
0.3123911575569828
 40
0.3750993449900011
 40
0.4376544464266287
 40
0.4997396176472647
 40
0.562149356932787
 40
0.6249894275385478
 40
0.6883752173042021
 40
0.7515397448081275
 40
0.8135177371999126
 40
0.8745840943461624
 40
0.9366839432340007
 40
1.0
 40
1.0
 40
1.0
 40
1.0
 10
72.8829396510736
 20
13.65280676743602
 30
0.0
 10
72.88485434127773
 20
13.65363892179255
 30
0.0
 10
72.88867499749334
 20
13.65529943883481
 30
0.0
 10
72.89422202031004
 20
13.65808197846396
 30
0.0
 10
72.8993898561563
 20
13.66143319115356
 30
0.0
 10
72.90544706202746
 20
13.66708997275649
 30
0.0
 10
72.91123164818781
 20
13.67639441991853
 30
0.0
 10
72.91528081197403
 20
13.69012203473467
 30
0.0
 10
72.91638494465052
 20
13.70578344798882
 30
0.0
 10
72.9144927529691
 20
13.72270787601174
 30
0.0
 10
72.90976865269593
 20
13.74021437915083
 30
0.0
 10
72.90221888027027
 20
13.75771455647731
 30
0.0
 10
72.89221569479365
 20
13.77456782610855
 30
0.0
 10
72.88012269622895
 20
13.79025753966525
 30
0.0
 10
72.86640418940581
 20
13.80414957541179
 30
0.0
 10
72.85169363387986
 20
13.8156089198035
 30
0.0
 10
72.83659264126591
 20
13.82396557841467
 30
0.0
 10
72.82184434563348
 20
13.82811273240989
 30
0.0
 10
72.80785284678613
 20
13.82915975608435
 30
0.0
 10
72.79881287238473
 20
13.82892383616075
 30
0.0
 10
72.79424905307187
 20
13.82880473229432
 30
0.0
  0
LINE
  5
247
330
1F
100
AcDbEntity
  8
0
  6
SLD-Solid
 62
     7
370
    25
100
AcDbLine
 10
72.7974718729
 20
13.83101156
 30
0.0
 11
72.7942490531
 21
13.8288047323
 31
0.0
  0
LINE
  5
248
330
1F
100
AcDbEntity
  8
0
  6
SLD-Solid
 62
     7
370
    25
100
AcDbLine
 10
72.8860997302
 20
13.655043622
 30
0.0
 11
72.8829396409
 21
13.6528067654
 31
0.0
  0
LINE
  5
249
330
1F
100
AcDbEntity
  8
0
  6
SLD-Solid
 62
     7
370
    25
100
AcDbLine
 10
71.9498729205
 20
14.3203307979
 30
0.0
 11
71.9460501731
 21
14.3184703005
 31
0.0
  0
SPLINE
  5
24A
330
1F
100
AcDbEntity
  8
0
  6
SLD-Solid
 62
     7
370
    25
100
AcDbSpline
210
0.0
220
0.0
230
1.0
 70
     8
 71
     3
 72
    11
 73
     7
 74
     0
 42
0.00000001
 43
0.00000001
 40
0.0
 40
0.0
 40
0.0
 40
0.0
 40
0.2501204346247965
 40
0.5002616914936023
 40
0.7501923136452868
 40
1.0
 40
1.0
 40
1.0
 40
1.0
 10
80.27525418699669
 20
14.20724257545109
 30
0.0
 10
80.27296939121197
 20
14.16043105723936
 30
0.0
 10
80.26839960943583
 20
14.0668041238098
 30
0.0
 10
80.23002670299982
 20
13.95064456673336
 30
0.0
 10
80.17251263488896
 20
13.85475545324873
 30
0.0
 10
80.11687725969868
 20
13.8151251522043
 30
0.0
 10
80.08906641526436
 20
13.79531487621597
 30
0.0
  0
LINE
  5
24B
330
1F
100
AcDbEntity
  8
OBJECT
100
AcDbLine
 10
76.5275883662
 20
20.3246811694
 30
0.0
 11
76.5275883662
 21
12.4179347893
 31
0.0
  0
SPLINE
  5
24C
330
1F
100
AcDbEntity
  8
OBJECT
100
AcDbSpline
210
0.0
220
0.0
230
1.0
 70
    12
 71
     2
 72
     6
 73
     3
 74
     0
 42
0.00000001
 43
0.00000001
 40
0.0
 40
0.0
 40
0.0
 40
0.6051526618129162
 40
0.6051526618129162
 40
0.6051526618129162
 10
71.8922726324854
 20
23.53452215810547
 30
0.0
 41
1.0
 10
71.63584672378893
 20
23.62591025542257
 30
0.0
 41
0.8275857057581522
 10
71.50502456901557
 20
23.48887337732245
 30
0.0
 41
0.8638453497064034
  0
SPLINE
  5
24D
330
1F
100
AcDbEntity
  8
OBJECT
100
AcDbSpline
210
0.0
220
0.0
230
1.0
 70
    12
 71
     3
 72
    18
 73
    14
 74
     0
 42
0.00000001
 43
0.00000001
 40
-0.0016888379168536
 40
-0.0016888379168536
 40
-0.0016888379168536
 40
-0.0016888379168536
 40
0.0002559990453074
 40
0.0002559990453074
 40
0.0084235570328084
 40
0.0084235570328084
 40
0.0247586730078103
 40
0.0247586730078103
 40
0.0574289049578143
 40
0.0574289049578143
 40
0.0900991369078182
 40
0.0900991369078182
 40
0.1227693688578222
 40
0.1227693688578222
 40
0.1227693688578222
 40
0.1227693688578222
 10
79.63881226961509
 20
23.14827814363831
 30
0.0
 41
1.0
 10
79.62139660816146
 20
23.13818331023652
 30
0.0
 41
1.0
 10
79.60397949141563
 20
23.12807146776337
 30
0.0
 41
1.0
 10
79.51349635301123
 20
23.07537634417612
 30
0.0
 41
1.0
 10
79.4408710341993
 20
23.03231431710484
 30
0.0
 41
1.0
 10
79.22389737466193
 20
22.90176960773909
 30
0.0
 41
1.0
 10
79.08044528738422
 20
22.81292396515052
 30
0.0
 41
1.0
 10
78.65015598894483
 20
22.54225694989942
 30
0.0
 41
1.0
 10
78.36326739781285
 20
22.35623719272652
 30
0.0
 41
1.0
 10
77.77318689933978
 20
21.98172767833317
 30
0.0
 41
1.0
 10
77.46997626397588
 20
21.79324443638216
 30
0.0
 41
1.0
 10
76.83495898378037
 20
21.4245966746103
 30
0.0
 41
1.0
 10
76.50317898528691
 20
21.24446009152465
 30
0.0
 41
1.0
 10
76.15312989619171
 20
21.07478161681742
 30
0.0
 41
1.0
  0
SPLINE
  5
24E
330
1F
100
AcDbEntity
  8
OBJECT
100
AcDbSpline
210
0.0
220
0.0
230
1.0
 70
    12
 71
     3
 72
    22
 73
    18
 74
     0
 42
0.00000001
 43
0.00000001
 40
-0.0003760275173425
 40
-0.0003760275173425
 40
-0.0003760275173425
 40
-0.0003760275173425
 40
0.0096203085363498
 40
0.0096203085363498
 40
0.0196166445900422
 40
0.0196166445900422
 40
0.0296129806437345
 40
0.0296129806437345
 40
0.0346111486705806
 40
0.0346111486705806
 40
0.0396093166974268
 40
0.0396093166974268
 40
0.0496056527511191
 40
0.0496056527511191
 40
0.0596019888048114
 40
0.0596019888048114
 40
0.079594660912196
 40
0.079594660912196
 40
0.079594660912196
 40
0.079594660912196
 10
76.15312989619171
 20
21.07478161681742
 30
0.0
 41
1.0
 10
76.06612133624857
 20
21.03260616143657
 30
0.0
 41
1.0
 10
75.97546255690513
 20
20.99220062285396
 30
0.0
 41
1.0
 10
75.78850812350368
 20
20.91703245135047
 30
0.0
 41
1.0
 10
75.6927078592895
 20
20.88238901362203
 30
0.0
 41
1.0
 10
75.4949779441972
 20
20.81959115359546
 30
0.0
 41
1.0
 10
75.39304907493774
 20
20.79144064573622
 30
0.0
 41
1.0
 10
75.23477991105989
 20
20.75515236892598
 30
0.0
 41
1.0
 10
75.18099566364295
 20
20.74404281783156
 30
0.0
 41
1.0
 10
75.07324395592606
 20
20.72425333674274
 30
0.0
 41
1.0
 10
75.01909446148585
 20
20.71553492971396
 30
0.0
 41
1.0
 10
74.85585212523715
 20
20.69308947753999
 30
0.0
 41
1.0
 10
74.74594656200662
 20
20.68305692559873
 30
0.0
 41
1.0
 10
74.52460143673795
 20
20.67421777052418
 30
0.0
 41
1.0
 10
74.41232732718944
 20
20.67554457673814
 30
0.0
 41
1.0
 10
74.08396289584272
 20
20.69795063798215
 30
0.0
 41
1.0
 10
73.87458947319188
 20
20.73696811664478
 30
0.0
 41
1.0
 10
73.68242640506392
 20
20.80317976207109
 30
0.0
 41
1.0
  0
SPLINE
  5
24F
330
1F
100
AcDbEntity
  8
OBJECT
100
AcDbSpline
210
0.0
220
0.0
230
1.0
 70
    12
 71
     3
 72
     8
 73
     4
 74
     0
 42
0.00000001
 43
0.00000001
 40
0.0
 40
0.0
 40
0.0
 40
0.0
 40
0.0366110061974007
 40
0.0366110061974007
 40
0.0366110061974007
 40
0.0366110061974007
 10
73.68242640506392
 20
20.80317976207109
 30
0.0
 41
1.0
 10
73.3000832598217
 20
20.93491979422458
 30
0.0
 41
1.0
 10
72.94706613835378
 20
21.09388738349018
 30
0.0
 41
1.0
 10
72.62417953210971
 20
21.28028585363983
 30
0.0
 41
1.0
  0
SPLINE
  5
250
330
1F
100
AcDbEntity
  8
OBJECT
100
AcDbSpline
210
0.0
220
0.0
230
1.0
 70
     8
 71
     3
 72
    14
 73
    10
 74
     0
 42
0.00000001
 43
0.00000001
 40
0.0
 40
0.0
 40
0.0
 40
0.0
 40
0.1432726505802729
 40
0.2861904541377243
 40
0.4288828158266043
 40
0.5714797545724748
 40
0.714111550264877
 40
0.8569083873959291
 40
1.0
 40
1.0
 40
1.0
 40
1.0
 10
71.76637392049176
 20
21.90929331712556
 30
0.0
 10
71.8023819196226
 20
21.87630643415881
 30
0.0
 10
71.87430873595571
 20
21.81041436767853
 30
0.0
 10
71.98817118706833
 20
21.71492977925372
 30
0.0
 10
72.1061986250287
 20
21.6221230449437
 30
0.0
 10
72.22880286978696
 20
21.53220747455371
 30
0.0
 10
72.35596414501312
 20
21.44520456789314
 30
0.0
 10
72.48734280125481
 20
21.36085381484736
 30
0.0
 10
72.57853594584435
 20
21.30716029491466
 30
0.0
 10
72.62417953210971
 20
21.28028585363983
 30
0.0
  0
SPLINE
  5
251
330
1F
100
AcDbEntity
  8
OBJECT
100
AcDbSpline
210
0.0
220
0.0
230
1.0
 70
     8
 71
     3
 72
    17
 73
    13
 74
     0
 42
0.00000001
 43
0.00000001
 40
0.0
 40
0.0
 40
0.0
 40
0.0
 40
0.0617638424091824
 40
0.1241694813920516
 40
0.2483513899119368
 40
0.3728047811428639
 40
0.4976077573345492
 40
0.6293173763381495
 40
0.7482348174985285
 40
0.8355077493945244
 40
0.9193845184566528
 40
0.9999999999999999
 40
0.9999999999999999
 40
0.9999999999999999
 40
0.9999999999999999
 10
75.11342073755168
 20
25.76073113868829
 30
0.0
 10
75.04375523133507
 20
25.72068408134163
 30
0.0
 10
74.90370031505378
 20
25.64017383217239
 30
0.0
 10
74.62101231781035
 20
25.47787310898249
 30
0.0
 10
74.26422770598715
 20
25.27233461365438
 30
0.0
 10
73.83686764032278
 20
25.01840342060419
 30
0.0
 10
73.40694680628405
 20
24.74922826563892
 30
0.0
 10
72.99529460063606
 20
24.47054915459448
 30
0.0
 10
72.63966099375558
 20
24.20614677155674
 30
0.0
 10
72.34961085967619
 20
23.96786905263315
 30
0.0
 10
72.10903662958216
 20
23.75340003569196
 30
0.0
 10
71.96356591178761
 20
23.60651068880636
 30
0.0
 10
71.8922726324854
 20
23.53452215810547
 30
0.0
  0
SPLINE
  5
252
330
1F
100
AcDbEntity
  8
OBJECT
100
AcDbSpline
210
0.0
220
0.0
230
1.0
 70
     8
 71
     3
 72
    20
 73
    16
 74
     0
 42
0.00000001
 43
0.00000001
 40
0.0
 40
0.0
 40
0.0
 40
0.0
 40
0.0497605580812182
 40
0.0986453501869614
 40
0.1467416191063802
 40
0.1941409618828599
 40
0.2409390679883786
 40
0.3660881843412287
 40
0.4884128816425776
 40
0.6164349740076607
 40
0.7423670232046815
 40
0.8077872184438067
 40
0.8722000851480146
 40
0.9361016879057389
 40
1.0
 40
1.0
 40
1.0
 40
1.0
 10
71.8922726324854
 20
23.53452215810547
 30
0.0
 10
71.8688831126308
 20
23.50954804560763
 30
0.0
 10
71.8225157191422
 20
23.4600393550311
 30
0.0
 10
71.7592955085803
 20
23.38414800151196
 30
0.0
 10
71.70159311705837
 20
23.30797804906777
 30
0.0
 10
71.64979259902005
 20
23.23138417524824
 30
0.0
 10
71.577972273769
 20
23.11127580843273
 30
0.0
 10
71.50250991037943
 20
22.945338739287
 30
0.0
 10
71.45052286734168
 20
22.72869895880733
 30
0.0
 10
71.44615375752296
 20
22.51107330919653
 30
0.0
 10
71.48751897613265
 20
22.33096856884784
 30
0.0
 10
71.54711762125719
 20
22.19278887438813
 30
0.0
 10
71.60647014173865
 20
22.09221498460824
 30
0.0
 10
71.67823335480954
 20
21.99689456621288
 30
0.0
 10
71.736994236267
 20
21.93849323223797
 30
0.0
 10
71.76637392049176
 20
21.90929331712556
 30
0.0
  0
SPLINE
  5
253
330
1F
100
AcDbEntity
  8
OBJECT
100
AcDbSpline
210
0.0
220
0.0
230
1.0
 70
    12
 71
     2
 72
     6
 73
     3
 74
     0
 42
0.00000001
 43
0.00000001
 40
0.0
 40
0.0
 40
0.0
 40
1.0
 40
1.0
 40
1.0
 10
76.15312989619171
 20
21.07478161681742
 30
0.0
 41
1.0
 10
76.47460789400608
 20
20.78086921987404
 30
0.0
 41
0.7150895879308715
 10
76.52758836615952
 20
20.32468116942661
 30
0.0
 41
1.0
  0
SPLINE
  5
254
330
1F
100
AcDbEntity
  8
OBJECT
100
AcDbSpline
210
0.0
220
0.0
230
1.0
 70
    12
 71
     2
 72
     6
 73
     3
 74
     0
 42
0.00000001
 43
0.00000001
 40
0.3445310499128788
 40
0.3445310499128788
 40
0.3445310499128788
 40
1.0
 40
1.0
 40
1.0
 10
76.32330740844328
 20
12.12370629429481
 30
0.0
 41
0.8713177020098273
 10
76.49705291840802
 20
12.13202123414702
 30
0.0
 41
0.8132500713321593
 10
76.52758836615955
 20
12.41793478930552
 30
0.0
 41
1.0
  0
INSERT
  5
25A
330
1F
100
AcDbEntity
  8
NOTES
100
AcDbBlockReference
  2
SW_NOTE_0_2
 10
71.1639392811
 20
10.9129661611
 30
0.0
  0
SPLINE
  5
25B
330
1F
100
AcDbEntity
  8
0
  6
SLD-Solid
 62
     7
370
    25
100
AcDbSpline
210
0.0
220
0.0
230
1.0
 70
     8
 71
     3
 72
     9
 73
     5
 74
     0
 42
0.00000001
 43
0.00000001
 40
0.0
 40
0.0
 40
0.0
 40
0.0
 40
0.9694375740881835
 40
1.0
 40
1.0
 40
1.0
 40
1.0
 10
60.75040793923981
 20
21.33268849770906
 30
0.0
 10
60.75030178354503
 20
21.3882547007022
 30
0.0
 10
60.75019228119272
 20
21.44557268019706
 30
0.0
 10
60.7344313069896
 20
21.49980069311575
 30
0.0
 10
60.73394961338321
 20
21.50145803274292
 30
0.0
  0
SPLINE
  5
25C
330
1F
100
AcDbEntity
  8
0
  6
SLD-Solid
 62
     7
370
    25
100
AcDbSpline
210
0.0
220
0.0
230
1.0
 70
     8
 71
     3
 72
     9
 73
     5
 74
     0
 42
0.00000001
 43
0.00000001
 40
0.0
 40
0.0
 40
0.0
 40
0.0
 40
0.0315893996930495
 40
1.0
 40
1.0
 40
1.0
 40
1.0
 10
60.01932134167367
 20
22.21623707434985
 30
0.0
 10
60.01759934447938
 20
22.21673772587237
 30
0.0
 10
59.96308747622547
 20
22.23258644498015
 30
0.0
 10
59.9058107137633
 20
22.23267113781675
 30
0.0
 10
59.85034328984367
 20
22.23275315525749
 30
0.0
  0
SPLINE
  5
25D
330
1F
100
AcDbEntity
  8
0
  6
SLD-Solid
 62
     7
370
    25
100
AcDbSpline
210
0.0
220
0.0
230
1.0
 70
     8
 71
     3
 72
     9
 73
     5
 74
     0
 42
0.00000001
 43
0.00000001
 40
0.0
 40
0.0
 40
0.0
 40
0.0
 40
0.9685514350799352
 40
1.0
 40
1.0
 40
1.0
 40
1.0
 10
59.85034328984367
 20
10.83275332957265
 30
0.0
 10
59.90574626419272
 20
10.83281562551684
 30
0.0
 10
59.96294815594818
 20
10.83287994419104
 30
0.0
 10
60.01760033858081
 20
10.84876948530608
 30
0.0
 10
60.01931907129435
 20
10.84926918857138
 30
0.0
  0
SPLINE
  5
25E
330
1F
100
AcDbEntity
  8
0
  6
SLD-Solid
 62
     7
370
    25
100
AcDbSpline
210
0.0
220
0.0
230
1.0
 70
     8
 71
     3
 72
     9
 73
     5
 74
     0
 42
0.00000001
 43
0.00000001
 40
0.0
 40
0.0
 40
0.0
 40
0.0
 40
0.0305018530467858
 40
1.0
 40
1.0
 40
1.0
 40
1.0
 10
60.73394952734449
 20
11.56404756981473
 30
0.0
 10
60.7344309975118
 20
11.56570419972421
 30
0.0
 10
60.75021594561211
 20
11.62001663467493
 30
0.0
 10
60.75031342914008
 20
11.6772907949074
 30
0.0
 10
60.75040793923981
 20
11.73281798712108
 30
0.0
  0
SPLINE
  5
25F
330
1F
100
AcDbEntity
  8
0
  6
SLD-Solid
 62
     7
370
    25
100
AcDbSpline
210
0.0
220
0.0
230
1.0
 70
     8
 71
     3
 72
     9
 73
     5
 74
     0
 42
0.00000001
 43
0.00000001
 40
0.0
 40
0.0
 40
0.0
 40
0.0
 40
0.9685514350799
 40
1.0
 40
1.0
 40
1.0
 40
1.0
 10
53.45047292627501
 20
22.23275315525749
 30
0.0
 10
53.39506995192598
 20
22.2326908593133
 30
0.0
 10
53.33786806017051
 20
22.23262654063912
 30
0.0
 10
53.28321587753788
 20
22.21673699952407
 30
0.0
 10
53.28149714482432
 20
22.21623729625876
 30
0.0
  0
SPLINE
  5
260
330
1F
100
AcDbEntity
  8
0
  6
SLD-Solid
 62
     7
370
    25
100
AcDbSpline
210
0.0
220
0.0
230
1.0
 70
     8
 71
     3
 72
     9
 73
     5
 74
     0
 42
0.00000001
 43
0.00000001
 40
0.0
 40
0.0
 40
0.0
 40
0.0
 40
0.0305018530467854
 40
1.0
 40
1.0
 40
1.0
 40
1.0
 10
52.5668666887742
 20
21.50145891501542
 30
0.0
 10
52.5663852186069
 20
21.49980228510594
 30
0.0
 10
52.55060027050659
 20
21.44548985015522
 30
0.0
 10
52.55050278697861
 20
21.38821568992275
 30
0.0
 10
52.55040827687888
 20
21.33268849770906
 30
0.0
  0
SPLINE
  5
261
330
1F
100
AcDbEntity
  8
0
  6
SLD-Solid
 62
     7
370
    25
100
AcDbSpline
210
0.0
220
0.0
230
1.0
 70
     8
 71
     3
 72
     9
 73
     5
 74
     0
 42
0.00000001
 43
0.00000001
 40
0.0
 40
0.0
 40
0.0
 40
0.0
 40
0.9694375740882114
 40
1.0
 40
1.0
 40
1.0
 40
1.0
 10
52.55040827687888
 20
11.73281798712108
 30
0.0
 10
52.55051443257366
 20
11.67725178412794
 30
0.0
 10
52.55062393492597
 20
11.61993380463308
 30
0.0
 10
52.5663849091291
 20
11.5657057917144
 30
0.0
 10
52.56686660273547
 20
11.56404845208723
 30
0.0
  0
SPLINE
  5
262
330
1F
100
AcDbEntity
  8
0
  6
SLD-Solid
 62
     7
370
    25
100
AcDbSpline
210
0.0
220
0.0
230
1.0
 70
     8
 71
     3
 72
     9
 73
     5
 74
     0
 42
0.00000001
 43
0.00000001
 40
0.0
 40
0.0
 40
0.0
 40
0.0
 40
0.0315893996929731
 40
1.0
 40
1.0
 40
1.0
 40
1.0
 10
53.28149487444504
 20
10.8492694104803
 30
0.0
 10
53.28321687163933
 20
10.84876875895778
 30
0.0
 10
53.33772873989323
 20
10.83292003984999
 30
0.0
 10
53.39500550235539
 20
10.83283534701338
 30
0.0
 10
53.45047292627501
 20
10.83275332957265
 30
0.0
  0
LINE
  5
263
330
1F
100
AcDbEntity
  8
0
  6
SLD-Solid
 62
     7
370
    25
100
AcDbLine
 10
58.6904081081
 20
10.8327532424
 30
0.0
 11
58.6904081081
 21
10.8149059924
 31
0.0
  0
LINE
  5
264
330
1F
100
AcDbEntity
  8
0
  6
SLD-Solid
 62
     7
370
    25
100
AcDbLine
 10
59.1904081081
 20
10.8149059924
 30
0.0
 11
59.1904081081
 21
10.8327532424
 31
0.0
  0
LINE
  5
265
330
1F
100
AcDbEntity
  8
0
  6
SLD-Solid
 62
     7
370
    25
100
AcDbLine
 10
54.1104081081
 20
10.8327532424
 30
0.0
 11
54.1104081081
 21
10.8149059924
 31
0.0
  0
LINE
  5
266
330
1F
100
AcDbEntity
  8
0
  6
SLD-Solid
 62
     7
370
    25
100
AcDbLine
 10
54.6104081081
 20
10.8149059924
 30
0.0
 11
54.6104081081
 21
10.8370019013
 31
0.0
  0
SPLINE
  5
267
330
1F
100
AcDbEntity
  8
0
  6
SLD-Solid
 62
     7
370
    25
100
AcDbSpline
210
0.0
220
0.0
230
1.0
 70
     8
 71
     3
 72
    43
 73
    39
 74
     0
 42
0.00000001
 43
0.00000001
 40
0.0
 40
0.0
 40
0.0
 40
0.0
 40
0.0140400758398198
 40
0.0280271965600051
 40
0.0419678324906322
 40
0.0558685188735261
 40
0.0697358474315766
 40
0.0835764575487043
 40
0.0973970271153968
 40
0.1112042631001035
 40
0.1250048919112499
 40
0.1388056496181547
 40
0.1526132721014968
 40
0.1664344852051387
 40
0.1802759949611667
 40
0.1941444779586737
 40
0.2080465719244853
 40
0.2219888665803988
 40
0.2359778948370879
 40
0.250020124379321
 40
0.3127531451081722
 40
0.3748822674694829
 40
0.4370165906028737
 40
0.4997650621965338
 40
0.5624684257313646
 40
0.6245687375102923
 40
0.6866742324589438
 40
0.7493929947068702
 40
0.7746871928201526
 40
0.7998254152340953
 40
0.8248461209789009
 40
0.8497883126969434
 40
0.8746913619344835
 40
0.8995948258873435
 40
0.9245382597782845
 40
0.9495610292810455
 40
0.9747021274034677
 40
1.0
 40
1.0
 40
1.0
 40
1.0
 10
52.55040827698937
 20
11.7328181304882
 30
0.0
 10
52.55044879130769
 20
11.72620209638535
 30
0.0
 10
52.55052966713601
 20
11.71299498195351
 30
0.0
 10
52.5511870148234
 20
11.69322769934555
 30
0.0
 10
52.55223733118525
 20
11.67354427465979
 30
0.0
 10
52.55371868258013
 20
11.65394471723858
 30
0.0
 10
52.55562092281416
 20
11.63442904091452
 30
0.0
 10
52.55794676321679
 20
11.61499725887486
 30
0.0
 10
52.56069548198739
 20
11.59564938487866
 30
0.0
 10
52.563867272747
 20
11.57638543277423
 30
0.0
 10
52.56746208290409
 20
11.55720541644545
 30
0.0
 10
52.57147992413348
 20
11.53810934970945
 30
0.0
 10
52.57592078950011
 20
11.51909724596929
 30
0.0
 10
52.58078467507711
 20
11.50016911890069
 30
0.0
 10
52.58607157649208
 20
11.48132497926315
 30
0.0
 10
52.59178148142153
 20
11.46256484624742
 30
0.0
 10
52.59791440357634
 20
11.44388870445366
 30
0.0
 10
52.60447025429367
 20
11.42529666457603
 30
0.0
 10
52.61144932478226
 20
11.40678836058745
 30
0.0
 10
52.6273930969228
 20
11.36710069063079
 30
0.0
 10
52.65532986982392
 20
11.30777829594645
 30
0.0
 10
52.70062658869668
 20
11.23203286578203
 30
0.0
 10
52.75325134722961
 20
11.1611646728585
 30
0.0
 10
52.81278182372539
 20
11.09563776495083
 30
0.0
 10
52.87824779582117
 20
11.03606406588325
 30
0.0
 10
52.94903395822687
 20
10.98341083929729
 30
0.0
 10
53.02471196187451
 20
10.93806550722008
 30
0.0
 10
53.08879119837634
 20
10.90781417794819
 30
0.0
 10
53.13842309119543
 20
10.88830703982654
 30
0.0
 10
53.17200364373265
 20
10.87659460432243
 30
0.0
 10
53.20585957104009
 20
10.86626092471933
 30
0.0
 10
53.23999166212965
 20
10.8573056575102
 30
0.0
 10
53.27439940899748
 20
10.84972846233786
 30
0.0
 10
53.30908262595221
 20
10.84353170401668
 30
0.0
 10
53.34404103143216
 20
10.83870668190617
 30
0.0
 10
53.3792743570907
 20
10.83528614447526
 30
0.0
 10
53.41478237850998
 20
10.83314699038152
 30
0.0
 10
53.43855154519385
 20
10.83288482150446
 30
0.0
 10
53.45047306821311
 20
10.83275332962911
 30
0.0
  0
LINE
  5
268
330
1F
100
AcDbEntity
  8
0
  6
SLD-Solid
 62
     7
370
    25
100
AcDbLine
 10
52.5504081081
 20
21.3326883543
 30
0.0
 11
52.5504081081
 21
11.7328181305
 31
0.0
  0
SPLINE
  5
269
330
1F
100
AcDbEntity
  8
0
  6
SLD-Solid
 62
     7
370
    25
100
AcDbSpline
210
0.0
220
0.0
230
1.0
 70
     8
 71
     3
 72
    22
 73
    18
 74
     0
 42
0.00000001
 43
0.00000001
 40
0.0
 40
0.0
 40
0.0
 40
0.0
 40
0.125
 40
0.125
 40
0.25
 40
0.25
 40
0.375
 40
0.375
 40
0.5
 40
0.5
 40
0.625
 40
0.625
 40
0.75
 40
0.75
 40
0.875
 40
0.875
 40
1.0
 40
1.0
 40
1.0
 40
1.0
 10
53.450473068295
 20
22.23275315520097
 30
0.0
 10
53.39743624223911
 20
22.23275315461546
 30
0.0
 10
53.34241602641787
 20
22.2280383020675
 30
0.0
 10
53.23097303891297
 20
22.2074155045578
 30
0.0
 10
53.17456159771986
 20
22.19148948483369
 30
0.0
 10
53.06376636737129
 20
22.14762666208089
 30
0.0
 10
53.00940503574965
 20
22.11967950982929
 30
0.0
 10
52.90649264176669
 20
22.05239758769494
 30
0.0
 10
52.85796829975128
 20
22.01306742071294
 30
0.0
 10
52.77009400853047
 20
21.92519312856408
 30
0.0
 10
52.7307638419793
 20
21.87666878605166
 30
0.0
 10
52.66348192061543
 20
21.77375639104172
 30
0.0
 10
52.63553476870338
 20
21.71939505889037
 30
0.0
 10
52.59167194652633
 20
21.6085998274842
 30
0.0
 10
52.57574592703848
 20
21.55218838576338
 30
0.0
 10
52.55512312989925
 20
21.44074539723419
 30
0.0
 10
52.55040827748565
 20
21.38572518091643
 30
0.0
 10
52.55040827698929
 20
21.33268835438958
 30
0.0
  0
LINE
  5
26A
330
1F
100
AcDbEntity
  8
0
  6
SLD-Solid
 62
     7
370
    25
100
AcDbLine
 10
53.4504730682
 20
22.2327532424
 30
0.0
 11
59.8503431479
 21
22.2327532424
 31
0.0
  0
SPLINE
  5
26B
330
1F
100
AcDbEntity
  8
0
  6
SLD-Solid
 62
     7
370
    25
100
AcDbSpline
210
0.0
220
0.0
230
1.0
 70
     8
 71
     3
 72
    43
 73
    39
 74
     0
 42
0.00000001
 43
0.00000001
 40
0.0
 40
0.0
 40
0.0
 40
0.0
 40
0.0140400758398204
 40
0.0280271965600065
 40
0.041967832490633
 40
0.0558685188735264
 40
0.0697358474315767
 40
0.0835764575487041
 40
0.0973970271153981
 40
0.1112042631001051
 40
0.1250048919112503
 40
0.1388056496181555
 40
0.1526132721014967
 40
0.1664344852051395
 40
0.1802759949611669
 40
0.194144477958675
 40
0.2080465719244849
 40
0.2219888665803984
 40
0.2359778948370889
 40
0.2500201243793208
 40
0.312753145108172
 40
0.374882267469483
 40
0.4370165906028743
 40
0.499765062196534
 40
0.5624684257313645
 40
0.6245687375102925
 40
0.6866742324589438
 40
0.7493929947068705
 40
0.774687192820153
 40
0.7998254152340959
 40
0.8248461209789011
 40
0.8497883126969435
 40
0.8746913619344835
 40
0.8995948258873439
 40
0.9245382597782846
 40
0.9495610292810456
 40
0.9747021274034677
 40
1.0
 40
1.0
 40
1.0
 40
1.0
 10
60.75040793912932
 20
21.33268835434195
 30
0.0
 10
60.750367424811
 20
21.33930438844479
 30
0.0
 10
60.75028654898267
 20
21.35251150287664
 30
0.0
 10
60.74962920129528
 20
21.3722787854846
 30
0.0
 10
60.74857888493344
 20
21.39196221017036
 30
0.0
 10
60.74709753353857
 20
21.41156176759156
 30
0.0
 10
60.74519529330453
 20
21.43107744391563
 30
0.0
 10
60.74286945290191
 20
21.45050922595529
 30
0.0
 10
60.7401207341313
 20
21.46985709995149
 30
0.0
 10
60.73694894337169
 20
21.48912105205592
 30
0.0
 10
60.7333541332146
 20
21.5083010683847
 30
0.0
 10
60.7293362919852
 20
21.5273971351207
 30
0.0
 10
60.72489542661859
 20
21.54640923886086
 30
0.0
 10
60.72003154104159
 20
21.56533736592946
 30
0.0
 10
60.71474463962662
 20
21.584181505567
 30
0.0
 10
60.70903473469716
 20
21.60294163858273
 30
0.0
 10
60.70290181254234
 20
21.62161778037649
 30
0.0
 10
60.69634596182501
 20
21.64020982025412
 30
0.0
 10
60.68936689133644
 20
21.6587181242427
 30
0.0
 10
60.67342311919589
 20
21.69840579419936
 30
0.0
 10
60.64548634629477
 20
21.7577281888837
 30
0.0
 10
60.60018962742201
 20
21.83347361904812
 30
0.0
 10
60.54756486888908
 20
21.90434181197165
 30
0.0
 10
60.4880343923933
 20
21.96986871987932
 30
0.0
 10
60.42256842029752
 20
22.0294424189469
 30
0.0
 10
60.35178225789183
 20
22.08209564553286
 30
0.0
 10
60.27610425424418
 20
22.12744097761007
 30
0.0
 10
60.21202501774235
 20
22.15769230688196
 30
0.0
 10
60.16239312492326
 20
22.17719944500361
 30
0.0
 10
60.12881257238605
 20
22.18891188050772
 30
0.0
 10
60.09495664507861
 20
22.19924556011081
 30
0.0
 10
60.06082455398905
 20
22.20820082731995
 30
0.0
 10
60.0264168071212
 20
22.21577802249228
 30
0.0
 10
59.99173359016648
 20
22.22197478081347
 30
0.0
 10
59.95677518468653
 20
22.22679980292397
 30
0.0
 10
59.921541859028
 20
22.23022034035489
 30
0.0
 10
59.88603383760871
 20
22.23235949444863
 30
0.0
 10
59.86226467092484
 20
22.23262166332569
 30
0.0
 10
59.85034314790558
 20
22.23275315520104
 30
0.0
  0
LINE
  5
26C
330
1F
100
AcDbEntity
  8
0
  6
SLD-Solid
 62
     7
370
    25
100
AcDbLine
 10
60.7504081081
 20
21.3326883543
 30
0.0
 11
60.7504081081
 21
11.7328181305
 31
0.0
  0
SPLINE
  5
26D
330
1F
100
AcDbEntity
  8
0
  6
SLD-Solid
 62
     7
370
    25
100
AcDbSpline
210
0.0
220
0.0
230
1.0
 70
     8
 71
     3
 72
    22
 73
    18
 74
     0
 42
0.00000001
 43
0.00000001
 40
0.0
 40
0.0
 40
0.0
 40
0.0
 40
0.125
 40
0.125
 40
0.25
 40
0.25
 40
0.375
 40
0.375
 40
0.5
 40
0.5
 40
0.625
 40
0.625
 40
0.75
 40
0.75
 40
0.875
 40
0.875
 40
1.0
 40
1.0
 40
1.0
 40
1.0
 10
59.8503431478237
 20
10.83275332962917
 30
0.0
 10
59.90337997387959
 20
10.83275333021469
 30
0.0
 10
59.95840018970082
 20
10.83746818276265
 30
0.0
 10
60.06984317720573
 20
10.85809098027234
 30
0.0
 10
60.12625461839884
 20
10.87401699999646
 30
0.0
 10
60.2370498487474
 20
10.91787982274926
 30
0.0
 10
60.29141118036904
 20
10.94582697500086
 30
0.0
 10
60.39432357435201
 20
11.01310889713521
 30
0.0
 10
60.4428479163674
 20
11.05243906411721
 30
0.0
 10
60.53072220758822
 20
11.14031335626608
 30
0.0
 10
60.57005237413939
 20
11.18883769877849
 30
0.0
 10
60.63733429550327
 20
11.29175009378843
 30
0.0
 10
60.66528144741532
 20
11.34611142593978
 30
0.0
 10
60.70914426959235
 20
11.45690665734595
 30
0.0
 10
60.72507028908022
 20
11.51331809906678
 30
0.0
 10
60.74569308621943
 20
11.62476108759597
 30
0.0
 10
60.75040793863303
 20
11.67978130391371
 30
0.0
 10
60.7504079391294
 20
11.73281813044058
 30
0.0
  0
LINE
  5
26E
330
1F
100
AcDbEntity
  8
0
  6
SLD-Solid
 62
     7
370
    25
100
AcDbLine
 10
54.7454081081
 20
10.8327532424
 30
0.0
 11
59.8503431479
 21
10.8327532424
 31
0.0
  0
LINE
  5
26F
330
1F
100
AcDbEntity
  8
0
  6
SLD-Solid
 62
     7
370
    25
100
AcDbLine
 10
54.7454081081
 20
11.4049059924
 30
0.0
 11
54.7454081081
 21
10.8327532424
 31
0.0
  0
LINE
  5
270
330
1F
100
AcDbEntity
  8
0
  6
SLD-Solid
 62
     7
370
    25
100
AcDbLine
 10
54.7454081081
 20
11.4049059924
 30
0.0
 11
54.2754081081
 21
11.4049059924
 31
0.0
  0
LINE
  5
271
330
1F
100
AcDbEntity
  8
0
  6
SLD-Solid
 62
     7
370
    25
100
AcDbLine
 10
54.2754081081
 20
10.8327532424
 30
0.0
 11
54.2754081081
 21
11.4049059924
 31
0.0
  0
LINE
  5
272
330
1F
100
AcDbEntity
  8
0
  6
SLD-Solid
 62
     7
370
    25
100
AcDbLine
 10
53.4504730682
 20
10.8327532424
 30
0.0
 11
54.2754081081
 21
10.8327532424
 31
0.0
  0
CIRCLE
  5
273
330
1F
100
AcDbEntity
  8
0
  6
SLD-Solid
 62
     7
370
    25
100
AcDbCircle
 10
53.5804081081
 20
12.1327532424
 30
0.0
 40
0.1249999999999982
  0
CIRCLE
  5
274
330
1F
100
AcDbEntity
  8
0
  6
SLD-Solid
 62
     7
370
    25
100
AcDbCircle
 10
53.5804081081
 20
20.9327532424
 30
0.0
 40
0.125
  0
CIRCLE
  5
275
330
1F
100
AcDbEntity
  8
0
  6
SLD-Solid
 62
     7
370
    25
100
AcDbCircle
 10
59.7204081081
 20
12.1327532424
 30
0.0
 40
0.1249999999999982
  0
CIRCLE
  5
276
330
1F
100
AcDbEntity
  8
0
  6
SLD-Solid
 62
     7
370
    25
100
AcDbCircle
 10
59.7204081081
 20
20.9327532424
 30
0.0
 40
0.125
  0
CIRCLE
  5
277
330
1F
100
AcDbEntity
  8
0
  6
SLD-Solid
 62
     7
370
    25
100
AcDbCircle
 10
53.6904081081
 20
16.1327532424
 30
0.0
 40
0.4374999999999982
  0
SPLINE
  5
278
330
1F
100
AcDbEntity
  8
0
  6
SLD-Solid
 62
     7
370
    25
100
AcDbSpline
210
0.0
220
0.0
230
1.0
 70
     8
 71
     3
 72
    47
 73
    43
 74
     0
 42
0.00000001
 43
0.00000001
 40
0.0
 40
0.0
 40
0.0
 40
0.0
 40
0.0624999999999998
 40
0.0624999999999998
 40
0.0937499999999999
 40
0.0937499999999999
 40
0.1250000000000001
 40
0.1250000000000001
 40
0.1874999999999998
 40
0.1874999999999998
 40
0.2499999999999994
 40
0.2499999999999994
 40
0.312499999999999
 40
0.312499999999999
 40
0.3437499999999994
 40
0.3437499999999994
 40
0.3749999999999998
 40
0.4062500000000001
 40
0.4062500000000001
 40
0.4375000000000003
 40
0.4375000000000003
 40
0.5000000000000007
 40
0.5000000000000007
 40
0.5625000000000011
 40
0.5625000000000011
 40
0.6250000000000014
 40
0.6250000000000014
 40
0.6562500000000016
 40
0.6562500000000016
 40
0.6875000000000017
 40
0.6875000000000017
 40
0.750000000000002
 40
0.750000000000002
 40
0.8125000000000023
 40
0.8125000000000023
 40
0.843750000000002
 40
0.843750000000002
 40
0.8750000000000016
 40
0.8750000000000016
 40
0.9375000000000008
 40
0.9375000000000008
 40
1.0
 40
1.0
 40
1.0
 40
1.0
 10
54.27540810805935
 20
10.83454407007581
 30
0.0
 10
54.27540810805935
 20
10.83468567731579
 30
0.0
 10
54.27693119073381
 20
10.83483331029559
 30
0.0
 10
54.28140694329682
 20
10.83506273548041
 30
0.0
 10
54.28326676411813
 20
10.83514053672234
 30
0.0
 10
54.28773898457481
 20
10.83529856446481
 30
0.0
 10
54.29036403528222
 20
10.83537903607918
 30
0.0
 10
54.29920877299059
 20
10.8356183366286
 30
0.0
 10
54.30642539795266
 20
10.83577670223852
 30
0.0
 10
54.32347518581205
 20
10.83608713983167
 30
0.0
 10
54.3333993134999
 20
10.83623994625796
 30
0.0
 10
54.35507807726839
 20
10.83652140098164
 30
0.0
 10
54.36690682706234
 20
10.83665175694358
 30
0.0
 10
54.38616938027871
 20
10.83682777636809
 30
0.0
 10
54.39284378604825
 20
10.83688307857408
 30
0.0
 10
54.40640931848672
 20
10.83698414334952
 30
0.0
 10
54.42026271163957
 20
10.83707635498413
 30
0.0
 10
54.43468310314954
 20
10.83715020673597
 30
0.0
 10
54.44939084863734
 20
10.83721437138435
 30
0.0
 10
54.45692869674033
 20
10.83724171595085
 30
0.0
 10
54.47967796561552
 20
10.83730730199152
 30
0.0
 10
54.49492443461838
 20
10.83732918010489
 30
0.0
 10
54.52557365022858
 20
10.83732948262925
 30
0.0
 10
54.54113901661701
 20
10.83730720654522
 30
0.0
 10
54.57127824473194
 20
10.83722050116938
 30
0.0
 10
54.58592686908933
 20
10.83715657023123
 30
0.0
 10
54.60726490620298
 20
10.8370316449623
 30
0.0
 10
54.61430820619702
 20
10.8369848386886
 30
0.0
 10
54.62792496010716
 20
10.83688347172794
 30
0.0
 10
54.63451033314382
 20
10.83682891249277
 30
0.0
 10
54.6536135572684
 20
10.83665467777943
 30
0.0
 10
54.66548488317534
 20
10.83652451446882
 30
0.0
 10
54.68743212404077
 20
10.83623992127898
 30
0.0
 10
54.69718123004394
 20
10.83608968431409
 30
0.0
 10
54.70995293813846
 20
10.83585768300322
 30
0.0
 10
54.71390469135115
 20
10.83577915337685
 30
0.0
 10
54.72118442454388
 20
10.83562019022423
 30
0.0
 10
54.72452209580462
 20
10.83553941676432
 30
0.0
 10
54.73337997832804
 20
10.83529994536623
 30
0.0
 10
54.7378291758172
 20
10.83514276821506
 30
0.0
 10
54.74385184217397
 20
10.83483595436106
 30
0.0
 10
54.74540810805935
 20
10.83468567729697
 30
0.0
 10
54.74540810805934
 20
10.83454407007581
 30
0.0
  0
LINE
  5
279
330
1F
100
AcDbEntity
  8
0
  6
SLD-Solid
 62
     7
370
    25
100
AcDbLine
 10
58.6904081081
 20
10.8149059924
 30
0.0
 11
59.1904081081
 21
10.8149059924
 31
0.0
  0
LINE
  5
27A
330
1F
100
AcDbEntity
  8
0
  6
SLD-Solid
 62
     7
370
    25
100
AcDbLine
 10
54.6104081081
 20
10.8149059924
 30
0.0
 11
54.1104081081
 21
10.8149059924
 31
0.0
  0
DIMENSION
  5
27B
330
1F
100
AcDbEntity
  8
DIMS
100
AcDbDimension
  2
_D_3
 10
59.7204081081
 20
23.810431392
 30
0.0
 11
56.9084546361
 21
23.810431392
 31
0.0
 70
   160
  1
<>
 71
     2
 42
-1.0
  3
SLDDIMSTYLE1
100
AcDbAlignedDimension
 13
53.5804081081
 23
20.9327532424
 33
0.0
 14
59.7204081081
 24
20.9327532424
 34
0.0
 50
0.0
100
AcDbRotatedDimension
  0
DIMENSION
  5
28A
330
1F
100
AcDbEntity
  8
DIMS
100
AcDbDimension
  2
_D_4
 10
50.9727299585
 20
12.1327532424
 30
0.0
 11
50.9727299585
 21
15.3211393263
 31
0.0
 70
   160
  1
<>
 71
     2
 42
-1.0
  3
SLDDIMSTYLE1
100
AcDbAlignedDimension
 13
53.5804081081
 23
20.9327532424
 33
0.0
 14
53.5804081081
 24
12.1327532424
 34
0.0
 50
90.0
100
AcDbRotatedDimension
  0
DIMENSION
  5
299
330
1F
100
AcDbEntity
  8
DIMS
100
AcDbDimension
  2
_D_5
 10
53.6904081081
 20
23.1017699747
 30
0.0
 11
54.7061622781
 21
23.1017699747
 31
0.0
 70
   160
  1
<>
 71
     2
 42
-1.0
  3
SLDDIMSTYLE3
100
AcDbAlignedDimension
 13
53.5804081081
 23
20.9327532424
 33
0.0
 14
53.6904081081
 24
16.1327532424
 34
0.0
100
AcDbRotatedDimension
  0
DIMENSION
  5
2A8
330
1F
100
AcDbEntity
  8
DIMS
100
AcDbDimension
  2
_D_6
 10
50.9727299585
 20
10.8327532424
 30
0.0
 11
50.9727299585
 21
9.9487642601
 31
0.0
 70
   160
  1
<>
 71
     2
 42
-1.0
  3
SLDDIMSTYLE1
100
AcDbAlignedDimension
 13
53.5804081081
 23
12.1327532424
 33
0.0
 14
53.4504730682
 24
10.8327532424
 34
0.0
 50
90.0
100
AcDbRotatedDimension
  0
MTEXT
  5
2B8
330
1F
100
AcDbEntity
  8
NOTES
100
AcDbMText
 10
55.26887151
 20
10.2171982477
 30
0.0
 40
0.5
 41
0.0
 71
     1
 72
     1
  1
Back view
  7
SLDTEXTSTYLE1
 73
     1
 44
1.0
  0
MTEXT
  5
2B9
330
1F
100
AcDbEntity
  8
NOTES
100
AcDbMText
 10
45.1408070168
 20
24.3025754906
 30
0.0
 40
0.5
 41
0.0
 71
     1
 72
     1
  1
mounting hole (4)
  7
SLDTEXTSTYLE1
 73
     1
 44
1.0
  0
LEADER
  5
2BA
330
1F
100
AcDbEntity
  8
NOTES
100
AcDbLeader
  3
SLDDIMSTYLE2
 76
     3
 10
53.4827604924
 20
21.0107913303
 30
0.0
 10
51.3852578805
 20
24.0561023652
 30
0.0
 10
50.8852578805
 20
24.0561023652
 30
0.0
  0
MTEXT
  5
2BB
330
1F
100
AcDbEntity
  8
NOTES
100
AcDbMText
 10
61.0279076781
 20
10.2171982477
 30
0.0
 40
0.5
 41
0.0
 71
     1
 72
     1
  1
electrical access
  7
SLDTEXTSTYLE1
 73
     1
 44
1.0
  0
LEADER
  5
2BC
330
1F
100
AcDbEntity
  8
NOTES
100
AcDbLeader
  3
SLDDIMSTYLE2
 76
     3
 10
53.6645597961
 20
15.6960174931
 30
0.0
 10
60.5039370079
 20
9.9714566959
 30
0.0
 10
61.0039370079
 20
9.9714566959
 30
0.0
  0
LINE
  5
2BD
330
1F
100
AcDbEntity
  8
0
  6
SLD-Solid
 62
     7
370
    25
100
AcDbLine
 10
28.2080711883
 20
32.0187591551
 30
0.0
 11
21.8082011086
 21
32.0187591551
 31
0.0
  0
SPLINE
  5
2BE
330
1F
100
AcDbEntity
  8
0
  6
SLD-Solid
 62
     7
370
    25
100
AcDbSpline
210
0.0
220
0.0
230
1.0
 70
     8
 71
     3
 72
    20
 73
    16
 74
     0
 42
0.00000001
 43
0.00000001
 40
0.0
 40
0.0
 40
0.0
 40
0.0
 40
0.03125
 40
0.03125
 40
0.0625
 40
0.0625
 40
0.125
 40
0.125
 40
0.25
 40
0.25
 40
0.5
 40
0.5
 40
0.75
 40
0.75
 40
1.0
 40
1.0
 40
1.0
 40
1.0
 10
29.1081359795552
 20
32.01875915506296
 30
0.0
 10
29.10813613436777
 20
31.96849368479393
 30
0.0
 10
29.1079733768462
 20
31.91823126470581
 30
0.0
 10
29.10732297867273
 20
31.81775619490738
 30
0.0
 10
29.10683534115798
 20
31.76753750139765
 30
0.0
 10
29.10488591513936
 20
31.6169282658183
 30
0.0
 10
29.10293794445974
 20
31.51658333147361
 30
0.0
 10
29.09515148973313
 20
31.21566779589258
 30
0.0
 10
29.0873704834648
 20
31.015219415592
 30
0.0
 10
29.05624824682744
 20
30.4139272702186
 30
0.0
 10
29.0251217296204
 20
30.01319018285696
 30
0.0
 10
28.94186578754358
 20
29.21172239760083
 30
0.0
 10
28.88973339574668
 20
28.81109299310565
 30
0.0
 10
28.76447306205079
 20
28.0121272254067
 30
0.0
 10
28.6913508781052
 20
27.61385575673778
 30
0.0
 10
28.60813614848523
 20
27.21875915506295
 30
0.0
  0
SPLINE
  5
2BF
330
1F
100
AcDbEntity
  8
0
  6
SLD-Solid
 62
     7
370
    25
100
AcDbSpline
210
0.0
220
0.0
230
1.0
 70
     8
 71
     3
 72
    22
 73
    18
 74
     0
 42
0.00000001
 43
0.00000001
 40
0.0
 40
0.0
 40
0.0
 40
0.0
 40
0.125
 40
0.125
 40
0.25
 40
0.25
 40
0.375
 40
0.375
 40
0.5
 40
0.5
 40
0.625
 40
0.625
 40
0.75
 40
0.75
 40
0.875
 40
0.875
 40
1.0
 40
1.0
 40
1.0
 40
1.0
 10
28.20807118824958
 20
32.01875919528564
 30
0.0
 10
28.26110801430546
 20
32.01875918750738
 30
0.0
 10
28.31612823012671
 20
32.01875917979412
 30
0.0
 10
28.42757121763161
 20
32.01875916500676
 30
0.0
 10
28.48398265882471
 20
32.01875915793567
 30
0.0
 10
28.59477788917328
 20
32.01875914499744
 30
0.0
 10
28.64913922079491
 20
32.01875913913437
 30
0.0
 10
28.75205161477788
 20
32.01875912911986
 30
0.0
 10
28.80057595679328
 20
32.01875912497201
 30
0.0
 10
28.8884502480141
 20
32.01875911871725
 30
0.0
 10
28.92778041456528
 20
32.01875911661176
 30
0.0
 10
28.99506233592914
 20
32.01875911451209
 30
0.0
 10
29.02300948784119
 20
32.01875911451658
 30
0.0
 10
29.06687231001824
 20
32.0187591164465
 30
0.0
 10
29.0827983295061
 20
32.01875911836871
 30
0.0
 10
29.10342112664532
 20
32.01875912375584
 30
0.0
 10
29.10813597905892
 20
32.01875912721724
 30
0.0
 10
29.10813597955528
 20
32.01875913122042
 30
0.0
  0
SPLINE
  5
2C0
330
1F
100
AcDbEntity
  8
0
  6
SLD-Solid
 62
     7
370
    25
100
AcDbSpline
210
0.0
220
0.0
230
1.0
 70
     8
 71
     3
 72
    40
 73
    36
 74
     0
 42
0.00000001
 43
0.00000001
 40
0.0
 40
0.0
 40
0.0
 40
0.0
 40
0.0129804653526671
 40
0.0260729125277811
 40
0.039277801224022
 40
0.0525955794963545
 40
0.0660266841018442
 40
0.0795715408348008
 40
0.0932305648514309
 40
0.1070041609843742
 40
0.1208927240473438
 40
0.1348966391301598
 40
0.1490162818844616
 40
0.1632520188003913
 40
0.177604207474448
 40
0.1920731968688624
 40
0.2066593275626843
 40
0.2213629319948733
 40
0.2361843346996404
 40
0.2511238525342416
 40
0.3066510244429196
 40
0.366878411694649
 40
0.4318167199825034
 40
0.5014744789544253
 40
0.5561130771180596
 40
0.6263382429391536
 40
0.6817401750615618
 40
0.7232874683866586
 40
0.7509800830741323
 40
0.8171136737768981
 40
0.8754624259224509
 40
0.9067244712469107
 40
0.9379005640287872
 40
0.9689919786667336
 40
1.0
 40
1.0
 40
1.0
 40
1.0
 10
21.40813614848523
 20
27.21875915506295
 30
0.0
 10
21.40385992106811
 20
27.23914059775825
 30
0.0
 10
21.3952705754348
 20
27.28007931283099
 30
0.0
 10
21.38253186473982
 20
27.34184312563765
 30
0.0
 10
21.36983484283024
 20
27.40420093848176
 30
0.0
 10
21.35719865224046
 20
27.46716007994145
 30
0.0
 10
21.34462415155219
 20
27.53071915178473
 30
0.0
 10
21.3321172198477
 20
27.59487910154948
 30
0.0
 10
21.31968243202564
 20
27.65964021675096
 30
0.0
 10
21.30732477516518
 20
27.72500293981185
 30
0.0
 10
21.29504918275242
 20
27.7909676461429
 30
0.0
 10
21.28286066104326
 20
27.85753470356324
 30
0.0
 10
21.27076425474451
 20
27.92470445541415
 30
0.0
 10
21.25876505630507
 20
27.99247722421979
 30
0.0
 10
21.2468682032994
 20
28.06085331033264
 30
0.0
 10
21.23507887930025
 20
28.12983298979253
 30
0.0
 10
21.22340231279949
 20
28.19941652047661
 30
0.0
 10
21.21184378042697
 20
28.26960411545355
 30
0.0
 10
21.200408594739
 20
28.34039604058292
 30
0.0
 10
21.17889298639282
 20
28.47625950280535
 30
0.0
 10
21.14744290154434
 20
28.68472200463389
 30
0.0
 10
21.10743403688554
 20
28.97340985972772
 30
0.0
 10
21.06835552810952
 20
29.28513796428116
 30
0.0
 10
21.03464425684363
 20
29.58832935088765
 30
0.0
 10
21.00402531029497
 20
29.90030645994813
 30
0.0
 10
20.97940262462193
 20
30.18972022307599
 30
0.0
 10
20.96006980594172
 20
30.45837555447671
 30
0.0
 10
20.94767099749509
 20
30.65882140647611
 30
0.0
 10
20.93576876302034
 20
30.87662789155345
 30
0.0
 10
20.92477031248209
 20
31.12164691695352
 30
0.0
 10
20.91675644388674
 20
31.37260328556297
 30
0.0
 10
20.91234535326696
 20
31.56732399284086
 30
0.0
 10
20.90992556137837
 20
31.71814304002463
 30
0.0
 10
20.90841552073784
 20
31.86857913094201
 30
0.0
 10
20.90822918916124
 20
31.9687439841263
 30
0.0
 10
20.90813614848523
 20
32.01875915505025
 30
0.0
  0
SPLINE
  5
2C1
330
1F
100
AcDbEntity
  8
0
  6
SLD-Solid
 62
     7
370
    25
100
AcDbSpline
210
0.0
220
0.0
230
1.0
 70
    24
 71
     3
 72
    43
 73
    39
 74
     0
 42
0.00000001
 43
0.00000001
 40
0.0
 40
0.0
 40
0.0
 40
0.0
 40
0.0140400758398204
 40
0.0280271965600065
 40
0.041967832490633
 40
0.0558685188735264
 40
0.0697358474315767
 40
0.0835764575487041
 40
0.0973970271153981
 40
0.1112042631001051
 40
0.1250048919112503
 40
0.1388056496181555
 40
0.1526132721014967
 40
0.1664344852051395
 40
0.1802759949611669
 40
0.194144477958675
 40
0.2080465719244849
 40
0.2219888665803984
 40
0.2359778948370889
 40
0.2500201243793208
 40
0.312753145108172
 40
0.374882267469483
 40
0.4370165906028743
 40
0.499765062196534
 40
0.5624684257313645
 40
0.6245687375102925
 40
0.6866742324589438
 40
0.7493929947068705
 40
0.774687192820153
 40
0.7998254152340959
 40
0.8248461209789011
 40
0.8497883126969435
 40
0.8746913619344835
 40
0.8995948258873439
 40
0.9245382597782846
 40
0.9495610292810456
 40
0.9747021274034677
 40
1.0
 40
1.0
 40
1.0
 40
1.0
 10
20.90813631741525
 20
32.01875915506296
 30
0.0
 10
20.90817683173358
 20
32.01875915506296
 30
0.0
 10
20.9082577075619
 20
32.01875915506296
 30
0.0
 10
20.90891505524928
 20
32.01875915506296
 30
0.0
 10
20.90996537161113
 20
32.01875915506296
 30
0.0
 10
20.91144672300601
 20
32.01875915506296
 30
0.0
 10
20.91334896324005
 20
32.01875915506296
 30
0.0
 10
20.91567480364267
 20
32.01875915506296
 30
0.0
 10
20.91842352241328
 20
32.01875915506296
 30
0.0
 10
20.92159531317288
 20
32.01875915506296
 30
0.0
 10
20.92519012332997
 20
32.01875915506296
 30
0.0
 10
20.92920796455937
 20
32.01875915506296
 30
0.0
 10
20.93364882992598
 20
32.01875915506296
 30
0.0
 10
20.93851271550299
 20
32.01875915506296
 30
0.0
 10
20.94379961691796
 20
32.01875915506296
 30
0.0
 10
20.94950952184741
 20
32.01875915506296
 30
0.0
 10
20.95564244400223
 20
32.01875915506296
 30
0.0
 10
20.96219829471956
 20
32.01875915506296
 30
0.0
 10
20.96917736520814
 20
32.01875915506296
 30
0.0
 10
20.98512113734868
 20
32.01875915506296
 30
0.0
 10
21.0130579102498
 20
32.01875915506296
 30
0.0
 10
21.05835462912256
 20
32.01875915506296
 30
0.0
 10
21.1109793876555
 20
32.01875915506296
 30
0.0
 10
21.17050986415127
 20
32.01875915506296
 30
0.0
 10
21.23597583624705
 20
32.01875915506296
 30
0.0
 10
21.30676199865275
 20
32.01875915506296
 30
0.0
 10
21.38244000230039
 20
32.01875915506296
 30
0.0
 10
21.44651923880223
 20
32.01875915506296
 30
0.0
 10
21.49615113162131
 20
32.01875915506296
 30
0.0
 10
21.52973168415853
 20
32.01875915506296
 30
0.0
 10
21.56358761146597
 20
32.01875915506296
 30
0.0
 10
21.59771970255552
 20
32.01875915506296
 30
0.0
 10
21.63212744942337
 20
32.01875915506296
 30
0.0
 10
21.66681066637809
 20
32.01875915506296
 30
0.0
 10
21.70176907185804
 20
32.01875915506296
 30
0.0
 10
21.73700239751658
 20
32.01875915506296
 30
0.0
 10
21.77251041893587
 20
32.01875915506296
 30
0.0
 10
21.79627958561973
 20
32.01875915506296
 30
0.0
 10
21.80820110863899
 20
32.01875915506296
 30
0.0
  0
SPLINE
  5
2C2
330
1F
100
AcDbEntity
  8
0
  6
SLD-Solid
 62
     7
370
    25
100
AcDbSpline
210
0.0
220
0.0
230
1.0
 70
     8
 71
     3
 72
    22
 73
    18
 74
     0
 42
0.00000001
 43
0.00000001
 40
0.0
 40
0.0
 40
0.0
 40
0.0
 40
0.125
 40
0.125
 40
0.25
 40
0.25
 40
0.375
 40
0.375
 40
0.4375
 40
0.4375
 40
0.5
 40
0.5
 40
0.625
 40
0.625
 40
0.75
 40
0.75
 40
1.0
 40
1.0
 40
1.0
 40
1.0
 10
28.60813614848523
 20
27.21875915506295
 30
0.0
 10
28.58115625895183
 20
27.09066088788254
 30
0.0
 10
28.54470613827622
 20
26.96286793703606
 30
0.0
 10
28.45380211389077
 20
26.71376534842292
 30
0.0
 10
28.3996929313223
 20
26.593018279351
 30
0.0
 10
28.27433912836313
 20
26.35947367337808
 30
0.0
 10
28.20309627596
 20
26.2466807729593
 30
0.0
 10
28.08296701734369
 20
26.08414123282241
 30
0.0
 10
28.04058696578825
 20
26.03096010619847
 30
0.0
 10
27.95265027194271
 20
25.92852024748171
 30
0.0
 10
27.90696624064731
 20
25.87906883798975
 30
0.0
 10
27.76490267950342
 20
25.73602177148754
 30
0.0
 10
27.66353514862509
 20
25.64771397400241
 30
0.0
 10
27.44767034340031
 20
25.48569175452555
 30
0.0
 10
27.332207064753
 20
25.41153173838212
 30
0.0
 10
26.97529782641121
 20
25.21769226931667
 30
0.0
 10
26.72253760166604
 20
25.12450763436107
 30
0.0
 10
26.45516823616856
 20
25.06855296374475
 30
0.0
  0
SPLINE
  5
2C3
330
1F
100
AcDbEntity
  8
0
  6
SLD-Solid
 62
     7
370
    25
100
AcDbSpline
210
0.0
220
0.0
230
1.0
 70
     8
 71
     3
 72
    50
 73
    46
 74
     0
 42
0.00000001
 43
0.00000001
 40
0.0
 40
0.0
 40
0.0
 40
0.0
 40
0.0102964351164918
 40
0.0209204500284227
 40
0.0318720558217247
 40
0.0431512625712941
 40
0.0547580794537757
 40
0.0666925148448753
 40
0.078954576403682
 40
0.091544271146017
 40
0.104461605508489
 40
0.1177065854046275
 40
0.1312792162742471
 40
0.1451795031269896
 40
0.1594074505808612
 40
0.173963062896427
 40
0.188846344007248
 40
0.2040572975470363
 40
0.2195959268739521
 40
0.2354622350923885
 40
0.2516562250725545
 40
0.3568795166657197
 40
0.4339011041008707
 40
0.4827004209474168
 40
0.5032644399769237
 40
0.5385462391409369
 40
0.5726774137326298
 40
0.6056581090061218
 40
0.6374884881239848
 40
0.6681687347637977
 40
0.6976990562311491
 40
0.7260796872017834
 40
0.7533108942516092
 40
0.7758447569697488
 40
0.798018312566769
 40
0.8198318151244712
 40
0.8412855315829095
 40
0.8623797426067223
 40
0.8831147435248099
 40
0.9034908453508267
 40
0.9235083758928627
 40
0.9431676809616812
 40
0.962469125688035
 40
0.9814130959609063
 40
1.0
 40
1.0
 40
1.0
 40
1.0
 10
23.5611040608019
 20
25.06855296374475
 30
0.0
 10
23.55029539002889
 20
25.07085390935564
 30
0.0
 10
23.52833417197409
 20
25.07552900487425
 30
0.0
 10
23.49498732060148
 20
25.0831628221439
 30
0.0
 10
23.46070574174701
 20
25.09143077740401
 30
0.0
 10
23.42551210741723
 20
25.10040806515709
 30
0.0
 10
23.38942045859341
 20
25.11012269714329
 30
0.0
 10
23.35244897293757
 20
25.12061693843344
 30
0.0
 10
23.31461647782223
 20
25.13193004123159
 30
0.0
 10
23.27594351629288
 20
25.14410301347867
 30
0.0
 10
23.23645214050281
 20
25.15717721981745
 30
0.0
 10
23.19616606120476
 20
25.17119470044365
 30
0.0
 10
23.15511069843574
 20
25.18619800518198
 30
0.0
 10
23.11331325922184
 20
25.20223015766419
 30
0.0
 10
23.07080281010481
 20
25.21933457568511
 30
0.0
 10
23.02761034102284
 20
25.23755500508128
 30
0.0
 10
22.98376886809023
 20
25.25693541571986
 30
0.0
 10
22.93931338075644
 20
25.27752000979538
 30
0.0
 10
22.89428138498164
 20
25.29935277563898
 30
0.0
 10
22.84871114352807
 20
25.3224787671112
 30
0.0
 10
22.71854749000778
 20
25.39159800941604
 30
0.0
 10
22.53733792706172
 20
25.5048158458424
 30
0.0
 10
22.34177055151803
 20
25.65785969219467
 30
0.0
 10
22.22531720418103
 20
25.76351189722281
 30
0.0
 10
22.14520738406252
 20
25.84227933088987
 30
0.0
 10
22.07853878356784
 20
25.91220857099106
 30
0.0
 10
22.00593277371853
 20
25.99476405979292
 30
0.0
 10
21.9389278296227
 20
26.07719588405934
 30
0.0
 10
21.87729256529627
 20
26.15911537170552
 30
0.0
 10
21.82078285963329
 20
26.24016494602547
 30
0.0
 10
21.76914583012145
 20
26.3200164145045
 30
0.0
 10
21.72212251033077
 20
26.39836980707273
 30
0.0
 10
21.68130332970051
 20
26.47162692504969
 30
0.0
 10
21.64568930850438
 20
26.54010595526313
 30
0.0
 10
21.61440946830027
 20
26.60424934809048
 30
0.0
 10
21.58525671642872
 20
26.66810343890013
 30
0.0
 10
21.55816907960202
 20
26.73159093293193
 30
0.0
 10
21.53308315511192
 20
26.79463859850214
 30
0.0
 10
21.50993456905709
 20
26.85717737137194
 30
0.0
 10
21.48865710009684
 20
26.91914203027033
 30
0.0
 10
21.46918691551349
 20
26.98047188336891
 30
0.0
 10
21.45144809926497
 20
27.04110788238816
 30
0.0
 10
21.43540610865805
 20
27.10100264943789
 30
0.0
 10
21.42087454647145
 20
27.16008360479829
 30
0.0
 10
21.41235526385185
 20
27.19932508525022
 30
0.0
 10
21.40813614848523
 20
27.21875915506295
 30
0.0
  0
SPLINE
  5
2C4
330
1F
100
AcDbEntity
  8
0
  6
SLD-Solid
 62
     7
370
    25
100
AcDbSpline
210
0.0
220
0.0
230
1.0
 70
     8
 71
     3
 72
     8
 73
     4
 74
     0
 42
0.00000001
 43
0.00000001
 40
0.0
 40
0.0
 40
0.0
 40
0.0
 40
1.0
 40
1.0
 40
1.0
 40
1.0
 10
26.45516823616856
 20
25.06855296374475
 30
0.0
 10
25.97847846451762
 20
24.96879202400781
 30
0.0
 10
25.49583509770598
 20
24.91875915506296
 30
0.0
 10
25.00813614848523
 20
24.91875915506296
 30
0.0
  0
SPLINE
  5
2C5
330
1F
100
AcDbEntity
  8
0
  6
SLD-Solid
 62
     7
370
    25
100
AcDbSpline
210
0.0
220
0.0
230
1.0
 70
     8
 71
     3
 72
    36
 73
    32
 74
     0
 42
0.00000001
 43
0.00000001
 40
0.0
 40
0.0
 40
0.0
 40
0.0
 40
0.0339903570235274
 40
0.0680155546802854
 40
0.1020756304749062
 40
0.1361706217969149
 40
0.1703005659210928
 40
0.2044655000078097
 40
0.2386654611033777
 40
0.2729004861404042
 40
0.3071706119381201
 40
0.3414758752027419
 40
0.3758163125278117
 40
0.4101919603945355
 40
0.4446028551721281
 40
0.4790490331181642
 40
0.5135305303789137
 40
0.5480473829896821
 40
0.5825996268751572
 40
0.6171872978497486
 40
0.6518104316179197
 40
0.6864690637745391
 40
0.7211632298052102
 40
0.7558929650866181
 40
0.790658304886854
 40
0.8254592843657674
 40
0.8602959385752925
 40
0.8951683024597834
 40
0.9300764108563561
 40
0.9650202984952172
 40
1.0
 40
1.0
 40
1.0
 40
1.0
 10
25.00813614848523
 20
24.91875915506296
 30
0.0
 10
24.99162175380189
 20
24.91879259232543
 30
0.0
 10
24.95857603692935
 20
24.9188595011241
 30
0.0
 10
24.90898454736081
 20
24.91940110148841
 30
0.0
 10
24.85934722606296
 20
24.92026691997384
 30
0.0
 10
24.8096665432689
 20
24.92148967984932
 30
0.0
 10
24.75994498393329
 20
24.92306188469901
 30
0.0
 10
24.71018504762175
 20
24.92498681042717
 30
0.0
 10
24.66038924842767
 20
24.92726482075778
 30
0.0
 10
24.61056011487925
 20
24.92989703940349
 30
0.0
 10
24.5607001898469
 20
24.93288436437673
 30
0.0
 10
24.51081203044818
 20
24.93622773228968
 30
0.0
 10
24.46089820795104
 20
24.93992804720585
 30
0.0
 10
24.41096130767513
 20
24.94398619951323
 30
0.0
 10
24.36100392889139
 20
24.94840306063948
 30
0.0
 10
24.31102868471949
 20
24.95317948424995
 30
0.0
 10
24.26103820202405
 20
24.9583163057084
 30
0.0
 10
24.21103512130691
 20
24.96381434199601
 30
0.0
 10
24.16102209660482
 20
24.96967439153874
 30
0.0
 10
24.11100179535839
 20
24.97589723394364
 30
0.0
 10
24.06097689837902
 20
24.98248363019363
 30
0.0
 10
24.01095009944103
 20
24.98943432109896
 30
0.0
 10
23.96092410626541
 20
24.99675003227446
 30
0.0
 10
23.91090163629291
 20
25.00443145472435
 30
0.0
 10
23.86088543192469
 20
25.01247931660332
 30
0.0
 10
23.81087820298796
 20
25.02089411418124
 30
0.0
 10
23.76088284121038
 20
25.02967711663561
 30
0.0
 10
23.71090161797342
 20
25.03882660954381
 30
0.0
 10
23.66093918234721
 20
25.04835193512314
 30
0.0
 10
23.61099135445898
 20
25.05822101195121
 30
0.0
 10
23.57773883584298
 20
25.06510780404131
 30
0.0
 10
23.5611040608019
 20
25.06855296374475
 30
0.0
  0
SPLINE
  5
2C6
330
1F
100
AcDbEntity
  8
0
  6
SLD-Solid
 62
     7
370
    25
100
AcDbSpline
210
0.0
220
0.0
230
1.0
 70
     8
 71
     3
 72
    14
 73
    10
 74
     0
 42
0.00000001
 43
0.00000001
 40
0.0
 40
0.0
 40
0.0
 40
0.0
 40
0.0793677148031904
 40
0.2626445787223005
 40
0.4468768455897595
 40
0.6329924344821739
 40
0.7245833051391388
 40
0.814826964267658
 40
1.0
 40
1.0
 40
1.0
 40
1.0
 10
25.76283898554848
 20
24.95416052422084
 30
0.0
 10
25.76298189557884
 20
24.9541758266013
 30
0.0
 10
25.76345481513827
 20
24.95422646541935
 30
0.0
 10
25.74838634640097
 20
24.9526105631113
 30
0.0
 10
25.7201311622629
 20
24.94967946215405
 30
0.0
 10
25.68894736932096
 20
24.94659681663546
 30
0.0
 10
25.66291045111688
 20
24.94414004229289
 30
0.0
 10
25.63725663174338
 20
24.94178591314664
 30
0.0
 10
25.61970706503456
 20
24.94026855918632
 30
0.0
 10
25.6079078291716
 20
24.93924838486734
 30
0.0
  0
LINE
  5
2C7
330
1F
100
AcDbEntity
  8
0
  6
SLD-Solid
 62
     7
370
    25
100
AcDbLine
 10
25.6074836131
 20
24.9442303564
 30
0.0
 11
25.6079078292
 21
24.9392483849
 31
0.0
  0
LINE
  5
2C8
330
1F
100
AcDbEntity
  8
0
  6
SLD-Solid
 62
     7
370
    25
100
AcDbLine
 10
24.4087985165
 20
24.9442295192
 30
0.0
 11
24.4083743074
 21
24.939247547
 31
0.0
  0
SPLINE
  5
2C9
330
1F
100
AcDbEntity
  8
0
  6
SLD-Solid
 62
     7
370
    25
100
AcDbSpline
210
0.0
220
0.0
230
1.0
 70
     8
 71
     3
 72
    14
 73
    10
 74
     0
 42
0.00000001
 43
0.00000001
 40
0.0
 40
0.0
 40
0.0
 40
0.0
 40
0.1818445735110073
 40
0.2736436531423744
 40
0.3665054878913658
 40
0.5508778904736769
 40
0.7334591219065785
 40
0.9168974429808645
 40
1.0
 40
1.0
 40
1.0
 40
1.0
 10
24.40837429421578
 20
24.93924754815255
 30
0.0
 10
24.39698300585469
 20
24.94023153769266
 30
0.0
 10
24.37984114838299
 20
24.94171226646674
 30
0.0
 10
24.35376885494126
 20
24.94410169429217
 30
0.0
 10
24.3276836194577
 20
24.94656231178045
 30
0.0
 10
24.29635359859832
 20
24.94965781967354
 30
0.0
 10
24.26804777063017
 20
24.95259349094427
 30
0.0
 10
24.25282374843195
 20
24.95422574851423
 30
0.0
 10
24.25320821936234
 20
24.95418464764334
 30
0.0
 10
24.25332809034665
 20
24.95417183314565
 30
0.0
  0
SPLINE
  5
2CA
330
1F
100
AcDbEntity
  8
0
  6
SLD-Solid
 62
     7
370
    25
100
AcDbSpline
210
0.0
220
0.0
230
1.0
 70
     8
 71
     3
 72
    23
 73
    19
 74
     0
 42
0.00000001
 43
0.00000001
 40
0.0
 40
0.0
 40
0.0
 40
0.0
 40
0.0156144014608188
 40
0.0312349815557715
 40
0.0624914432434012
 40
0.1250342660347524
 40
0.2500103774991241
 40
0.3749612460206233
 40
0.4999509561797221
 40
0.6248761196161547
 40
0.6874028669015498
 40
0.750008161984675
 40
0.8125797878348139
 40
0.8749934735635431
 40
0.9044519880676316
 40
0.9374218167184745
 40
0.9686976639817689
 40
1.0
 40
1.0
 40
1.0
 40
1.0
 10
25.6079078291716
 20
24.93924838486734
 30
0.0
 10
25.60246366506519
 20
24.93878846982518
 30
0.0
 10
25.59157318259123
 20
24.93786845775201
 30
0.0
 10
25.56942668168955
 20
24.9360629867717
 30
0.0
 10
25.52992080507708
 20
24.93297686556281
 30
0.0
 10
25.44810156131599
 20
24.92718271381606
 30
0.0
 10
25.32423061560803
 20
24.92027608515473
 30
0.0
 10
25.16809593058774
 20
24.91497562659966
 30
0.0
 10
25.00816800513432
 20
24.91315046141438
 30
0.0
 10
24.87480734253946
 20
24.91467316515411
 30
0.0
 10
24.77015338092204
 20
24.91762280906784
 30
0.0
 10
24.69290772243774
 20
24.92065263836917
 30
0.0
 10
24.6175249198846
 20
24.924428872983
 30
0.0
 10
24.55770097641121
 20
24.9280578218351
 30
0.0
 10
24.51106053953443
 20
24.93122793611198
 30
0.0
 10
24.47667353528136
 20
24.93373800786738
 30
0.0
 10
24.44210293430596
 20
24.93642247133221
 30
0.0
 10
24.41962034646832
 20
24.93830559017696
 30
0.0
 10
24.40837429421578
 20
24.93924754815255
 30
0.0
  0
DIMENSION
  5
2CB
330
1F
100
AcDbEntity
  8
DIMS
100
AcDbDimension
  2
_D_7
 10
29.5047119359
 20
32.0187591551
 30
0.0
 11
29.5047119359
 21
26.1125202221
 31
0.0
 70
   160
  1
<>
 71
     2
 42
-1.0
  3
SLDDIMSTYLE1
100
AcDbAlignedDimension
 13
25.0081361485
 23
24.9187591551
 33
0.0
 14
28.2080711883
 24
32.0187591551
 34
0.0
 50
90.0
100
AcDbRotatedDimension
  0
MTEXT
  5
2DA
330
1F
100
AcDbEntity
  8
NOTES
100
AcDbMText
 10
23.5733998194
 20
24.4185549157
 30
0.0
 40
0.5
 41
0.0
 71
     1
 72
     1
  1
Top view
  7
SLDTEXTSTYLE1
 73
     1
 44
1.0
  0
ENDSEC
  0
SECTION
  2
OBJECTS
  0
DICTIONARY
  5
C
330
0
100
AcDbDictionary
281
     1
  3
ACAD_GROUP
350
D
  3
ACAD_LAYOUT
350
1A
  3
ACAD_MLINESTYLE
350
17
  3
ACAD_PLOTSETTINGS
350
19
  3
ACAD_PLOTSTYLENAME
350
E
  3
ACAD_SCALELIST
350
47
  3
DWGPROPS
350
2DB
  0
DICTIONARY
  5
D
102
{ACAD_REACTORS
330
C
102
}
330
C
100
AcDbDictionary
281
     1
  0
DICTIONARY
  5
1A
102
{ACAD_REACTORS
330
C
102
}
330
C
100
AcDbDictionary
281
     1
  3
Layout1
350
1E
  3
Layout2
350
26
  3
Model
350
22
  0
DICTIONARY
  5
17
102
{ACAD_REACTORS
330
C
102
}
330
C
100
AcDbDictionary
281
     1
  3
Standard
350
18
  0
DICTIONARY
  5
19
102
{ACAD_REACTORS
330
C
102
}
330
C
100
AcDbDictionary
281
     1
  0
ACDBDICTIONARYWDFLT
  5
E
102
{ACAD_REACTORS
330
C
102
}
330
C
100
AcDbDictionary
281
     1
  3
Normal
350
F
100
AcDbDictionaryWithDefault
340
F
  0
DICTIONARY
  5
47
102
{ACAD_REACTORS
330
C
102
}
330
C
100
AcDbDictionary
281
     1
  3
A0
350
48
  3
A1
350
49
  3
A2
350
4A
  3
A3
350
4B
  3
A4
350
4C
  3
A5
350
4D
  3
A6
350
4E
  3
A7
350
4F
  3
A8
350
50
  3
A9
350
51
  3
B0
350
52
  3
B1
350
53
  3
B2
350
54
  3
B3
350
55
  3
B4
350
56
  3
B5
350
57
  3
B6
350
58
  3
B7
350
59
  3
B8
350
5A
  3
B9
350
5B
  3
C0
350
5C
  3
C1
350
5D
  3
C2
350
5E
  3
C3
350
5F
  3
C4
350
60
  3
C5
350
61
  3
C6
350
62
  3
C7
350
63
  3
C8
350
64
  3
C9
350
65
  3
D0
350
66
  3
D1
350
67
  3
D2
350
68
  0
XRECORD
  5
2DB
102
{ACAD_REACTORS
330
C
102
}
330
C
100
AcDbXrecord
280
     1
  1
DWGPROPS COOKIE
  2

  3

  4

  6

  7

  8
carl
  9

300
=
301
=
302
=
303
=
304
=
305
=
306
=
307
=
308
=
309
=
 40
0.0
 41
2459503.792390567
 42
2459503.792395614
  1

 90
        0
  0
LAYOUT
  5
1E
102
{ACAD_REACTORS
330
1A
102
}
330
1A
100
AcDbPlotSettings
  1

  2
none_device
  4

  6

 40
0.0
 41
0.0
 42
0.0
 43
0.0
 44
0.0
 45
0.0
 46
0.0
 47
0.0
 48
0.0
 49
0.0
140
0.0
141
0.0
142
1.0
143
1.0
 70
   688
 72
     0
 73
     0
 74
     5
  7

 75
    16
147
1.0
148
0.0
149
0.0
100
AcDbLayout
  1
Layout1
 70
     1
 71
     1
 10
0.0
 20
0.0
 11
12.0
 21
9.0
 12
0.0
 22
0.0
 32
0.0
 14
1.0000000000E+20
 24
1.0000000000E+20
 34
1.0000000000E+20
 15
-1.0000000000E+20
 25
-1.0000000000E+20
 35
-1.0000000000E+20
146
0.0
 13
0.0
 23
0.0
 33
0.0
 16
1.0
 26
0.0
 36
0.0
 17
0.0
 27
1.0
 37
0.0
 76
     0
330
1B
  0
LAYOUT
  5
26
102
{ACAD_REACTORS
330
1A
102
}
330
1A
100
AcDbPlotSettings
  1

  2
none_device
  4

  6

 40
0.0
 41
0.0
 42
0.0
 43
0.0
 44
0.0
 45
0.0
 46
0.0
 47
0.0
 48
0.0
 49
0.0
140
0.0
141
0.0
142
1.0
143
1.0
 70
   688
 72
     0
 73
     0
 74
     5
  7

 75
    16
147
1.0
148
0.0
149
0.0
100
AcDbLayout
  1
Layout2
 70
     1
 71
     2
 10
0.0
 20
0.0
 11
0.0
 21
0.0
 12
0.0
 22
0.0
 32
0.0
 14
0.0
 24
0.0
 34
0.0
 15
0.0
 25
0.0
 35
0.0
146
0.0
 13
0.0
 23
0.0
 33
0.0
 16
1.0
 26
0.0
 36
0.0
 17
0.0
 27
1.0
 37
0.0
 76
     0
330
23
  0
LAYOUT
  5
22
102
{ACAD_REACTORS
330
1A
102
}
330
1A
100
AcDbPlotSettings
  1

  2
none_device
  4
Letter_(8.50_x_11.00_Inches)
  6

 40
6.35
 41
6.35
 42
6.35000508
 43
6.35000508
 44
215.9
 45
279.4
 46
0.0
 47
0.0
 48
0.0
 49
0.0
140
0.0
141
0.0
142
1.0
143
1.0
 70
  1712
 72
     0
 73
     0
 74
     0
  7

 75
     0
147
1.0
148
0.0
149
0.0
100
AcDbLayout
  1
Model
 70
     1
 71
     0
 10
0.0
 20
0.0
 11
90.0
 21
36.0
 12
0.0
 22
0.0
 32
0.0
 14
0.0
 24
0.0
 34
0.0
 15
90.0
 25
36.0
 35
0.0
146
0.0
 13
0.0
 23
0.0
 33
0.0
 16
1.0
 26
0.0
 36
0.0
 17
0.0
 27
1.0
 37
0.0
 76
     0
330
1F
331
29
  0
MLINESTYLE
  5
18
102
{ACAD_REACTORS
330
17
102
}
330
17
100
AcDbMlineStyle
  2
Standard
 70
     0
  3

 62
   256
 51
90.0
 52
90.0
 71
     2
 49
0.5
 62
   256
  6
BYLAYER
 49
-0.5
 62
   256
  6
BYLAYER
  0
ACDBPLACEHOLDER
  5
F
102
{ACAD_REACTORS
330
E
102
}
330
E
  0
SCALE
  5
48
102
{ACAD_REACTORS
330
47
102
}
330
47
100
AcDbScale
 70
     0
300
1:1
140
1.0
141
1.0
290
     1
  0
SCALE
  5
49
102
{ACAD_REACTORS
330
47
102
}
330
47
100
AcDbScale
 70
     0
300
1:2
140
1.0
141
2.0
290
     0
  0
SCALE
  5
4A
102
{ACAD_REACTORS
330
47
102
}
330
47
100
AcDbScale
 70
     0
300
1:4
140
1.0
141
4.0
290
     0
  0
SCALE
  5
4B
102
{ACAD_REACTORS
330
47
102
}
330
47
100
AcDbScale
 70
     0
300
1:5
140
1.0
141
5.0
290
     0
  0
SCALE
  5
4C
102
{ACAD_REACTORS
330
47
102
}
330
47
100
AcDbScale
 70
     0
300
1:8
140
1.0
141
8.0
290
     0
  0
SCALE
  5
4D
102
{ACAD_REACTORS
330
47
102
}
330
47
100
AcDbScale
 70
     0
300
1:10
140
1.0
141
10.0
290
     0
  0
SCALE
  5
4E
102
{ACAD_REACTORS
330
47
102
}
330
47
100
AcDbScale
 70
     0
300
1:16
140
1.0
141
16.0
290
     0
  0
SCALE
  5
4F
102
{ACAD_REACTORS
330
47
102
}
330
47
100
AcDbScale
 70
     0
300
1:20
140
1.0
141
20.0
290
     0
  0
SCALE
  5
50
102
{ACAD_REACTORS
330
47
102
}
330
47
100
AcDbScale
 70
     0
300
1:30
140
1.0
141
30.0
290
     0
  0
SCALE
  5
51
102
{ACAD_REACTORS
330
47
102
}
330
47
100
AcDbScale
 70
     0
300
1:40
140
1.0
141
40.0
290
     0
  0
SCALE
  5
52
102
{ACAD_REACTORS
330
47
102
}
330
47
100
AcDbScale
 70
     0
300
1:50
140
1.0
141
50.0
290
     0
  0
SCALE
  5
53
102
{ACAD_REACTORS
330
47
102
}
330
47
100
AcDbScale
 70
     0
300
1:100
140
1.0
141
100.0
290
     0
  0
SCALE
  5
54
102
{ACAD_REACTORS
330
47
102
}
330
47
100
AcDbScale
 70
     0
300
2:1
140
2.0
141
1.0
290
     0
  0
SCALE
  5
55
102
{ACAD_REACTORS
330
47
102
}
330
47
100
AcDbScale
 70
     0
300
4:1
140
4.0
141
1.0
290
     0
  0
SCALE
  5
56
102
{ACAD_REACTORS
330
47
102
}
330
47
100
AcDbScale
 70
     0
300
8:1
140
8.0
141
1.0
290
     0
  0
SCALE
  5
57
102
{ACAD_REACTORS
330
47
102
}
330
47
100
AcDbScale
 70
     0
300
10:1
140
10.0
141
1.0
290
     0
  0
SCALE
  5
58
102
{ACAD_REACTORS
330
47
102
}
330
47
100
AcDbScale
 70
     0
300
100:1
140
100.0
141
1.0
290
     0
  0
SCALE
  5
59
102
{ACAD_REACTORS
330
47
102
}
330
47
100
AcDbScale
 70
     0
300
1/128" = 1'-0"
140
0.0078125
141
12.0
290
     0
  0
SCALE
  5
5A
102
{ACAD_REACTORS
330
47
102
}
330
47
100
AcDbScale
 70
     0
300
1/64" = 1'-0"
140
0.015625
141
12.0
290
     0
  0
SCALE
  5
5B
102
{ACAD_REACTORS
330
47
102
}
330
47
100
AcDbScale
 70
     0
300
1/32" = 1'-0"
140
0.03125
141
12.0
290
     0
  0
SCALE
  5
5C
102
{ACAD_REACTORS
330
47
102
}
330
47
100
AcDbScale
 70
     0
300
1/16" = 1'-0"
140
0.0625
141
12.0
290
     0
  0
SCALE
  5
5D
102
{ACAD_REACTORS
330
47
102
}
330
47
100
AcDbScale
 70
     0
300
3/32" = 1'-0"
140
0.09375
141
12.0
290
     0
  0
SCALE
  5
5E
102
{ACAD_REACTORS
330
47
102
}
330
47
100
AcDbScale
 70
     0
300
1/8" = 1'-0"
140
0.125
141
12.0
290
     0
  0
SCALE
  5
5F
102
{ACAD_REACTORS
330
47
102
}
330
47
100
AcDbScale
 70
     0
300
3/16" = 1'-0"
140
0.1875
141
12.0
290
     0
  0
SCALE
  5
60
102
{ACAD_REACTORS
330
47
102
}
330
47
100
AcDbScale
 70
     0
300
1/4" = 1'-0"
140
0.25
141
12.0
290
     0
  0
SCALE
  5
61
102
{ACAD_REACTORS
330
47
102
}
330
47
100
AcDbScale
 70
     0
300
3/8" = 1'-0"
140
0.375
141
12.0
290
     0
  0
SCALE
  5
62
102
{ACAD_REACTORS
330
47
102
}
330
47
100
AcDbScale
 70
     0
300
1/2" = 1'-0"
140
0.5
141
12.0
290
     0
  0
SCALE
  5
63
102
{ACAD_REACTORS
330
47
102
}
330
47
100
AcDbScale
 70
     0
300
3/4" = 1'-0"
140
0.75
141
12.0
290
     0
  0
SCALE
  5
64
102
{ACAD_REACTORS
330
47
102
}
330
47
100
AcDbScale
 70
     0
300
1" = 1'-0"
140
1.0
141
12.0
290
     0
  0
SCALE
  5
65
102
{ACAD_REACTORS
330
47
102
}
330
47
100
AcDbScale
 70
     0
300
1-1/2" = 1'-0"
140
1.5
141
12.0
290
     0
  0
SCALE
  5
66
102
{ACAD_REACTORS
330
47
102
}
330
47
100
AcDbScale
 70
     0
300
3" = 1'-0"
140
3.0
141
12.0
290
     0
  0
SCALE
  5
67
102
{ACAD_REACTORS
330
47
102
}
330
47
100
AcDbScale
 70
     0
300
6" = 1'-0"
140
6.0
141
12.0
290
     0
  0
SCALE
  5
68
102
{ACAD_REACTORS
330
47
102
}
330
47
100
AcDbScale
 70
     0
300
1'-0" = 1'-0"
140
12.0
141
12.0
290
     0
  0
ENDSEC
  0
EOF
