  0
SECTION
  2
HEADER
  9
$ACADVER
  1
AC1018
  9
$ACADMAINTVER
 70
    39
  9
$DWGCODEPAGE
  3
ANSI_1252
  9
$LASTSAVEDBY
  1
fottrem
  9
$INSBASE
 10
0.0
 20
0.0
 30
0.0
  9
$EXTMIN
 10
1.574419096038061
 20
0.3573773641115478
 30
-2.660653252534332
  9
$EXTMAX
 10
46.41568767877938
 20
23.91269059562548
 30
0.0
  9
$LIMMIN
 10
0.0
 20
0.0
  9
$LIMMAX
 10
46.81102362204724
 20
33.11023622047244
  9
$ORTHOMODE
 70
     0
  9
$REGENMODE
 70
     1
  9
$FILLMODE
 70
     1
  9
$QTEXTMODE
 70
     0
  9
$MIRRTEXT
 70
     1
  9
$LTSCALE
 40
1.0
  9
$ATTMODE
 70
     1
  9
$TEXTSIZE
 40
0.5
  9
$TRACEWID
 40
0.05
  9
$TEXTSTYLE
  7
Standard
  9
$CLAYER
  8
0
  9
$CELTYPE
  6
ByLayer
  9
$CECOLOR
 62
   256
  9
$CELTSCALE
 40
1.0
  9
$DISPSILH
 70
     0
  9
$DIMSCALE
 40
1.0
  9
$DIMASZ
 40
0.5
  9
$DIMEXO
 40
0.1666666666666667
  9
$DIMDLI
 40
0.38
  9
$DIMRND
 40
0.0
  9
$DIMDLE
 40
0.0
  9
$DIMEXE
 40
0.3750000000000001
  9
$DIMTP
 40
0.0
  9
$DIMTM
 40
0.0
  9
$DIMTXT
 40
0.5
  9
$DIMCEN
 40
0.09
  9
$DIMTSZ
 40
0.0
  9
$DIMTOL
 70
     0
  9
$DIMLIM
 70
     0
  9
$DIMTIH
 70
     1
  9
$DIMTOH
 70
     1
  9
$DIMSE1
 70
     0
  9
$DIMSE2
 70
     0
  9
$DIMTAD
 70
     0
  9
$DIMZIN
 70
     1
  9
$DIMBLK
  1

  9
$DIMASO
 70
     1
  9
$DIMSHO
 70
     1
  9
$DIMPOST
  1

  9
$DIMAPOST
  1

  9
$DIMALT
 70
     0
  9
$DIMALTD
 70
     2
  9
$DIMALTF
 40
25.4
  9
$DIMLFAC
 40
1.0
  9
$DIMTOFL
 70
     0
  9
$DIMTVP
 40
0.0
  9
$DIMTIX
 70
     0
  9
$DIMSOXD
 70
     0
  9
$DIMSAH
 70
     0
  9
$DIMBLK1
  1

  9
$DIMBLK2
  1

  9
$DIMSTYLE
  2
Standard
  9
$DIMCLRD
 70
     0
  9
$DIMCLRE
 70
     0
  9
$DIMCLRT
 70
     0
  9
$DIMTFAC
 40
1.0
  9
$DIMGAP
 40
0.125
  9
$DIMJUST
 70
     0
  9
$DIMSD1
 70
     0
  9
$DIMSD2
 70
     0
  9
$DIMTOLJ
 70
     1
  9
$DIMTZIN
 70
     1
  9
$DIMALTZ
 70
     0
  9
$DIMALTTZ
 70
     0
  9
$DIMUPT
 70
     0
  9
$DIMDEC
 70
     2
  9
$DIMTDEC
 70
     2
  9
$DIMALTU
 70
     2
  9
$DIMALTTD
 70
     2
  9
$DIMTXSTY
  7
Standard
  9
$DIMAUNIT
 70
     0
  9
$DIMADEC
 70
     2
  9
$DIMALTRND
 40
0.0
  9
$DIMAZIN
 70
     0
  9
$DIMDSEP
 70
    46
  9
$DIMATFIT
 70
     3
  9
$DIMFRAC
 70
     0
  9
$DIMLDRBLK
  1

  9
$DIMLUNIT
 70
     2
  9
$DIMLWD
 70
    -2
  9
$DIMLWE
 70
    -2
  9
$DIMTMOVE
 70
     0
  9
$LUNITS
 70
     2
  9
$LUPREC
 70
     2
  9
$SKETCHINC
 40
0.1
  9
$FILLETRAD
 40
0.5
  9
$AUNITS
 70
     0
  9
$AUPREC
 70
     2
  9
$MENU
  1
.
  9
$ELEVATION
 40
0.0
  9
$PELEVATION
 40
0.0
  9
$THICKNESS
 40
0.0
  9
$LIMCHECK
 70
     0
  9
$CHAMFERA
 40
0.0
  9
$CHAMFERB
 40
0.0
  9
$CHAMFERC
 40
0.0
  9
$CHAMFERD
 40
0.0
  9
$SKPOLY
 70
     0
  9
$TDCREATE
 40
2453353.550459155
  9
$TDUCREATE
 40
2453353.717125822
  9
$TDUPDATE
 40
2459488.458084977
  9
$TDUUPDATE
 40
2459488.624751644
  9
$TDINDWG
 40
0.0427777662
  9
$TDUSRTIMER
 40
0.0427777662
  9
$USRTIMER
 70
     1
  9
$ANGBASE
 50
0.0
  9
$ANGDIR
 70
     0
  9
$PDMODE
 70
     0
  9
$PDSIZE
 40
-1.0
  9
$PLINEWID
 40
0.0
  9
$SPLFRAME
 70
     0
  9
$SPLINETYPE
 70
     6
  9
$SPLINESEGS
 70
     8
  9
$HANDSEED
  5
2D5
  9
$SURFTAB1
 70
     6
  9
$SURFTAB2
 70
     6
  9
$SURFTYPE
 70
     6
  9
$SURFU
 70
     6
  9
$SURFV
 70
     6
  9
$UCSBASE
  2

  9
$UCSNAME
  2

  9
$UCSORG
 10
0.0
 20
0.0
 30
0.0
  9
$UCSXDIR
 10
1.0
 20
0.0
 30
0.0
  9
$UCSYDIR
 10
0.0
 20
1.0
 30
0.0
  9
$UCSORTHOREF
  2

  9
$UCSORTHOVIEW
 70
     0
  9
$UCSORGTOP
 10
0.0
 20
0.0
 30
0.0
  9
$UCSORGBOTTOM
 10
0.0
 20
0.0
 30
0.0
  9
$UCSORGLEFT
 10
0.0
 20
0.0
 30
0.0
  9
$UCSORGRIGHT
 10
0.0
 20
0.0
 30
0.0
  9
$UCSORGFRONT
 10
0.0
 20
0.0
 30
0.0
  9
$UCSORGBACK
 10
0.0
 20
0.0
 30
0.0
  9
$PUCSBASE
  2

  9
$PUCSNAME
  2

  9
$PUCSORG
 10
0.0
 20
0.0
 30
0.0
  9
$PUCSXDIR
 10
1.0
 20
0.0
 30
0.0
  9
$PUCSYDIR
 10
0.0
 20
1.0
 30
0.0
  9
$PUCSORTHOREF
  2

  9
$PUCSORTHOVIEW
 70
     0
  9
$PUCSORGTOP
 10
0.0
 20
0.0
 30
0.0
  9
$PUCSORGBOTTOM
 10
0.0
 20
0.0
 30
0.0
  9
$PUCSORGLEFT
 10
0.0
 20
0.0
 30
0.0
  9
$PUCSORGRIGHT
 10
0.0
 20
0.0
 30
0.0
  9
$PUCSORGFRONT
 10
0.0
 20
0.0
 30
0.0
  9
$PUCSORGBACK
 10
0.0
 20
0.0
 30
0.0
  9
$USERI1
 70
     0
  9
$USERI2
 70
     0
  9
$USERI3
 70
     0
  9
$USERI4
 70
     0
  9
$USERI5
 70
     0
  9
$USERR1
 40
0.0
  9
$USERR2
 40
0.0
  9
$USERR3
 40
0.0
  9
$USERR4
 40
0.0
  9
$USERR5
 40
0.0
  9
$WORLDVIEW
 70
     1
  9
$SHADEDGE
 70
     3
  9
$SHADEDIF
 70
    70
  9
$TILEMODE
 70
     1
  9
$MAXACTVP
 70
    64
  9
$PINSBASE
 10
0.0
 20
0.0
 30
0.0
  9
$PLIMCHECK
 70
     0
  9
$PEXTMIN
 10
1.000000000000000E+20
 20
1.000000000000000E+20
 30
1.000000000000000E+20
  9
$PEXTMAX
 10
-1.000000000000000E+20
 20
-1.000000000000000E+20
 30
-1.000000000000000E+20
  9
$PLIMMIN
 10
0.0
 20
0.0
  9
$PLIMMAX
 10
12.0
 20
9.0
  9
$UNITMODE
 70
     0
  9
$VISRETAIN
 70
     1
  9
$PLINEGEN
 70
     0
  9
$PSLTSCALE
 70
     1
  9
$TREEDEPTH
 70
  3020
  9
$CMLSTYLE
  2
Standard
  9
$CMLJUST
 70
     0
  9
$CMLSCALE
 40
1.0
  9
$PROXYGRAPHICS
 70
     1
  9
$MEASUREMENT
 70
     0
  9
$CELWEIGHT
370
    -1
  9
$ENDCAPS
280
     0
  9
$JOINSTYLE
280
     0
  9
$LWDISPLAY
290
     1
  9
$INSUNITS
 70
     1
  9
$HYPERLINKBASE
  1

  9
$STYLESHEET
  1

  9
$XEDIT
290
     0
  9
$CEPSNTYPE
380
     0
  9
$PSTYLEMODE
290
     1
  9
$FINGERPRINTGUID
  2
{5ca28124-28c7-4fdf-85df-6c0eff08e7ac}
  9
$VERSIONGUID
  2
{FAEB1C32-E019-11D5-929B-00C0DF256EC4}
  9
$EXTNAMES
290
     1
  9
$PSVPSCALE
 40
0.0
  9
$OLESTARTUP
290
     0
  9
$SORTENTS
280
   127
  9
$INDEXCTL
280
     0
  9
$HIDETEXT
280
     1
  9
$XCLIPFRAME
290
     0
  9
$HALOGAP
280
     0
  9
$OBSCOLOR
 70
   257
  9
$OBSLTYPE
280
     0
  9
$INTERSECTIONDISPLAY
280
     0
  9
$INTERSECTIONCOLOR
 70
   257
  9
$DIMASSOC
280
     2
  9
$PROJECTNAME
  1

  0
ENDSEC
  0
SECTION
  2
CLASSES
  0
CLASS
  1
ACDBDICTIONARYWDFLT
  2
AcDbDictionaryWithDefault
  3
ObjectDBX Classes
 90
        0
 91
        3
280
     0
281
     0
  0
CLASS
  1
ACDBPLACEHOLDER
  2
AcDbPlaceHolder
  3
ObjectDBX Classes
 90
        0
 91
        1
280
     0
281
     0
  0
CLASS
  1
LAYOUT
  2
AcDbLayout
  3
ObjectDBX Classes
 90
        0
 91
        1
280
     0
281
     0
  0
CLASS
  1
DICTIONARYVAR
  2
AcDbDictionaryVar
  3
ObjectDBX Classes
 90
        0
 91
        3
280
     0
281
     0
  0
CLASS
  1
TABLESTYLE
  2
AcDbTableStyle
  3
ObjectDBX Classes
 90
     2047
 91
        3
280
     0
281
     0
  0
CLASS
  1
SCALE
  2
AcDbScale
  3
ObjectDBX Classes
 90
     1153
 91
       67
280
     1
281
     0
  0
ENDSEC
  0
SECTION
  2
TABLES
  0
TABLE
  2
VPORT
  5
8
330
0
100
AcDbSymbolTable
 70
     2
  0
VPORT
  5
97
330
8
100
AcDbSymbolTableRecord
100
AcDbViewportTableRecord
  2
*Active
 70
     0
 10
0.0
 20
0.0
 11
1.0
 21
1.0
 12
25.84143232682709
 22
13.78956840606856
 13
0.0
 23
0.0
 14
0.5
 24
0.5
 15
0.5
 25
0.5
 16
0.0
 26
0.0
 36
1.0
 17
0.0
 27
0.0
 37
0.0
 40
34.23403285474264
 41
1.413793103448276
 42
50.0
 43
0.0
 44
0.0
 50
0.0
 51
0.0
 71
    16
 72
  2000
 73
     1
 74
     1
 75
     0
 76
     0
 77
     0
 78
     0
281
     0
 65
     0
110
0.0
120
0.0
130
0.0
111
1.0
121
0.0
131
0.0
112
0.0
122
1.0
132
0.0
 79
     0
146
0.0
  0
ENDTAB
  0
TABLE
  2
LTYPE
  5
5
330
0
100
AcDbSymbolTable
 70
     8
  0
LTYPE
  5
14
330
5
100
AcDbSymbolTableRecord
100
AcDbLinetypeTableRecord
  2
ByBlock
 70
     0
  3

 72
    65
 73
     0
 40
0.0
  0
LTYPE
  5
15
330
5
100
AcDbSymbolTableRecord
100
AcDbLinetypeTableRecord
  2
ByLayer
 70
     0
  3

 72
    65
 73
     0
 40
0.0
  0
LTYPE
  5
16
330
5
100
AcDbSymbolTableRecord
100
AcDbLinetypeTableRecord
  2
Continuous
 70
     0
  3
Solid line
 72
    65
 73
     0
 40
0.0
  0
LTYPE
  5
2B4
330
5
100
AcDbSymbolTableRecord
100
AcDbLinetypeTableRecord
  2
SLD-Solid
 70
     0
  3
SolidWorks Line Style
 72
    65
 73
     0
 40
0.0
  0
LTYPE
  5
2B5
330
5
100
AcDbSymbolTableRecord
100
AcDbLinetypeTableRecord
  2
SLD-Dashed
 70
     0
  3
SolidWorks Line Style
 72
    65
 73
     2
 40
0.075
 49
0.05
 74
     4
 75
     0
340
0
 46
1.0
 50
0.0
 44
0.0
 45
0.0
 49
-0.025
 74
     4
 75
     0
340
0
 46
1.0
 50
0.0
 44
0.0
 45
0.0
  0
LTYPE
  5
2B6
330
5
100
AcDbSymbolTableRecord
100
AcDbLinetypeTableRecord
  2
SLD-Phantom
 70
     0
  3
SolidWorks Line Style
 72
    65
 73
     6
 40
0.4999999999999999
 49
0.25
 74
     4
 75
     0
340
0
 46
1.0
 50
0.0
 44
0.0
 45
0.0
 49
-0.05
 74
     4
 75
     0
340
0
 46
1.0
 50
0.0
 44
0.0
 45
0.0
 49
0.05
 74
     4
 75
     0
340
0
 46
1.0
 50
0.0
 44
0.0
 45
0.0
 49
-0.05
 74
     4
 75
     0
340
0
 46
1.0
 50
0.0
 44
0.0
 45
0.0
 49
0.05
 74
     4
 75
     0
340
0
 46
1.0
 50
0.0
 44
0.0
 45
0.0
 49
-0.05
 74
     4
 75
     0
340
0
 46
1.0
 50
0.0
 44
0.0
 45
0.0
  0
LTYPE
  5
2B7
330
5
100
AcDbSymbolTableRecord
100
AcDbLinetypeTableRecord
  2
SLD-Chain
 70
     0
  3
SolidWorks Line Style
 72
    65
 73
     4
 40
0.4
 49
0.25
 74
     4
 75
     0
340
0
 46
1.0
 50
0.0
 44
0.0
 45
0.0
 49
-0.05
 74
     4
 75
     0
340
0
 46
1.0
 50
0.0
 44
0.0
 45
0.0
 49
0.05
 74
     4
 75
     0
340
0
 46
1.0
 50
0.0
 44
0.0
 45
0.0
 49
-0.05
 74
     4
 75
     0
340
0
 46
1.0
 50
0.0
 44
0.0
 45
0.0
  0
LTYPE
  5
2B8
330
5
100
AcDbSymbolTableRecord
100
AcDbLinetypeTableRecord
  2
SLD-Center
 70
     0
  3
SolidWorks Line Style
 72
    65
 73
     4
 40
0.7500000000000002
 49
0.6000000000000001
 74
     4
 75
     0
340
0
 46
1.0
 50
0.0
 44
0.0
 45
0.0
 49
-0.05
 74
     4
 75
     0
340
0
 46
1.0
 50
0.0
 44
0.0
 45
0.0
 49
0.05
 74
     4
 75
     0
340
0
 46
1.0
 50
0.0
 44
0.0
 45
0.0
 49
-0.05
 74
     4
 75
     0
340
0
 46
1.0
 50
0.0
 44
0.0
 45
0.0
  0
LTYPE
  5
2B9
330
5
100
AcDbSymbolTableRecord
100
AcDbLinetypeTableRecord
  2
SLD-Stitch
 70
     0
  3
SolidWorks Line Style
 72
    65
 73
     2
 40
0.025
 49
0.0
 74
     4
 75
     0
340
0
 46
1.0
 50
0.0
 44
0.0
 45
0.0
 49
-0.025
 74
     4
 75
     0
340
0
 46
1.0
 50
0.0
 44
0.0
 45
0.0
  0
LTYPE
  5
2BA
330
5
100
AcDbSymbolTableRecord
100
AcDbLinetypeTableRecord
  2
SLD-Thin-Thick-Chain
 70
     0
  3
SolidWorks Line Style
 72
    65
 73
     4
 40
0.4
 49
0.25
 74
     4
 75
     0
340
0
 46
1.0
 50
0.0
 44
0.0
 45
0.0
 49
-0.05
 74
     4
 75
     0
340
0
 46
1.0
 50
0.0
 44
0.0
 45
0.0
 49
0.05
 74
     4
 75
     0
340
0
 46
1.0
 50
0.0
 44
0.0
 45
0.0
 49
-0.05
 74
     4
 75
     0
340
0
 46
1.0
 50
0.0
 44
0.0
 45
0.0
  0
ENDTAB
  0
TABLE
  2
LAYER
  5
2
330
0
100
AcDbSymbolTable
 70
     5
  0
LAYER
  5
10
330
2
100
AcDbSymbolTableRecord
100
AcDbLayerTableRecord
  2
0
 70
     0
 62
     7
  6
Continuous
370
    -3
390
F
  0
LAYER
  5
293
330
2
100
AcDbSymbolTableRecord
100
AcDbLayerTableRecord
  2
FORMAT
 70
     0
 62
     7
  6
SLD-Solid
370
    -3
390
F
  0
LAYER
  5
294
330
2
100
AcDbSymbolTableRecord
100
AcDbLayerTableRecord
  2
OBJECT
 70
     0
 62
     7
  6
SLD-Solid
370
    -3
390
F
  0
LAYER
  5
77
330
2
100
AcDbSymbolTableRecord
100
AcDbLayerTableRecord
  2
NOTES
 70
     0
 62
     1
  6
SLD-Solid
370
    -3
390
F
  0
LAYER
  5
78
330
2
100
AcDbSymbolTableRecord
100
AcDbLayerTableRecord
  2
DIMS
 70
     0
 62
     5
  6
SLD-Solid
370
    -3
390
F
  0
ENDTAB
  0
TABLE
  2
STYLE
  5
3
330
0
100
AcDbSymbolTable
 70
     5
  0
STYLE
  5
11
330
3
100
AcDbSymbolTableRecord
100
AcDbTextStyleTableRecord
  2
Standard
 70
     0
 40
0.0
 41
1.0
 50
0.0
 71
     0
 42
0.5
  3
GOTHIC.TTF
  4

1001
ACAD
1000
CENTURY GOTHIC
1071
       34
  0
STYLE
  5
84
330
3
100
AcDbSymbolTableRecord
100
AcDbTextStyleTableRecord
  2
SLDTEXTSTYLE0
 70
     0
 40
0.0
 41
0.948
 50
0.0
 71
     0
 42
0.5
  3
ARIAL.TTF
  4

1001
ACAD
1000
Arial
1071
      290
  0
STYLE
  5
88
330
3
100
AcDbSymbolTableRecord
100
AcDbTextStyleTableRecord
  2
SLDTEXTSTYLE1
 70
     0
 40
0.0
 41
0.913
 50
0.0
 71
     0
 42
0.5
  3
GOTHIC.TTF
  4

1001
ACAD
1000
Century Gothic
1071
      290
  0
STYLE
  5
96
330
3
100
AcDbSymbolTableRecord
100
AcDbTextStyleTableRecord
  2
SLDTEXTSTYLE2
 70
     0
 40
0.0
 41
0.87
 50
0.0
 71
     0
 42
0.5
  3
ARIALNB.TTF
  4

1001
ACAD
1000
Arial Narrow
1071
 33554722
  0
STYLE
  5
28B
330
3
100
AcDbSymbolTableRecord
100
AcDbTextStyleTableRecord
  2
SLDTEXTSTYLE3
 70
     0
 40
0.0
 41
0.87
 50
0.0
 71
     0
 42
0.5
  3
ARIALN.TTF
  4

1001
ACAD
1000
Arial Narrow
1071
      290
  0
ENDTAB
  0
TABLE
  2
VIEW
  5
6
330
0
100
AcDbSymbolTable
 70
     0
  0
ENDTAB
  0
TABLE
  2
UCS
  5
7
330
0
100
AcDbSymbolTable
 70
     0
  0
ENDTAB
  0
TABLE
  2
APPID
  5
9
330
0
100
AcDbSymbolTable
 70
     1
  0
APPID
  5
12
330
9
100
AcDbSymbolTableRecord
100
AcDbRegAppTableRecord
  2
ACAD
 70
     0
  0
ENDTAB
  0
TABLE
  2
DIMSTYLE
  5
A
330
0
100
AcDbSymbolTable
 70
     6
100
AcDbDimStyleTable
  0
DIMSTYLE
105
27
330
A
100
AcDbSymbolTableRecord
100
AcDbDimStyleTableRecord
  2
Standard
 70
     0
340
11
  0
DIMSTYLE
105
105
102
{ACAD_REACTORS
330
104
102
}
330
A
100
AcDbSymbolTableRecord
100
AcDbDimStyleTableRecord
  2
SLDDIMSTYLE0
 70
     0
 41
0.5
 44
0.0
 45
0.000000001
 78
    12
 79
     3
140
0.5
147
0.125
173
     1
271
     2
272
     2
276
     2
277
     5
284
    12
340
88
341
2BB
343
2BB
344
2BB
  0
DIMSTYLE
105
117
102
{ACAD_REACTORS
330
116
102
}
330
A
100
AcDbSymbolTableRecord
100
AcDbDimStyleTableRecord
  2
SLDDIMSTYLE1
 70
     0
 41
0.5
 44
0.0
 45
0.000000001
 78
    12
 79
     3
140
0.5
141
0.0
147
0.125
173
     1
271
     2
272
     2
276
     2
277
     5
284
    12
340
88
341
2BB
343
2BB
344
2BB
  0
DIMSTYLE
105
124
102
{ACAD_REACTORS
330
123
330
17B
102
}
330
A
100
AcDbSymbolTableRecord
100
AcDbDimStyleTableRecord
  2
SLDDIMSTYLE2
 70
     0
 41
0.5
 44
0.0
 45
0.000000001
 78
    12
 79
     3
140
0.5
147
0.125
173
     1
271
     6
272
     2
276
     2
277
     5
284
    12
340
88
341
2BB
343
2BB
344
2BB
  0
DIMSTYLE
105
134
102
{ACAD_REACTORS
330
133
330
276
102
}
330
A
100
AcDbSymbolTableRecord
100
AcDbDimStyleTableRecord
  2
SLDDIMSTYLE3
 70
     0
 41
0.5
 44
0.0
 45
0.000000001
 78
    12
 79
     3
140
0.5
147
0.125
172
     1
173
     1
271
     6
272
     2
276
     2
277
     5
284
    12
289
     0
340
88
341
2BB
343
2BB
344
2BB
  0
DIMSTYLE
105
144
330
A
100
AcDbSymbolTableRecord
100
AcDbDimStyleTableRecord
  2
SLDDIMSTYLE4
 70
     0
 41
0.5
 44
0.0
 45
0.000000001
146
0.5
147
0.0
173
     1
271
     0
272
     0
276
     2
277
     5
340
11
341
2BB
343
2BB
344
2BB
  0
ENDTAB
  0
TABLE
  2
BLOCK_RECORD
  5
1
330
0
100
AcDbSymbolTable
 70
    10
  0
BLOCK_RECORD
  5
1F
330
1
100
AcDbSymbolTableRecord
100
AcDbBlockTableRecord
  2
*Model_Space
340
22
  0
BLOCK_RECORD
  5
73
330
1
100
AcDbSymbolTableRecord
100
AcDbBlockTableRecord
  2
*Paper_Space
340
74
  0
BLOCK_RECORD
  5
2BB
330
1
100
AcDbSymbolTableRecord
100
AcDbBlockTableRecord
  2
_Open90
340
0
102
{BLKREFS
331
10F
331
110
331
11B
331
128
331
129
331
138
331
139
331
17F
331
180
331
27A
331
27B
331
148
102
}
  0
BLOCK_RECORD
  5
23
330
1
100
AcDbSymbolTableRecord
100
AcDbBlockTableRecord
  2
*Paper_Space1
340
26
  0
BLOCK_RECORD
  5
8D
330
1
100
AcDbSymbolTableRecord
100
AcDbBlockTableRecord
  2
SW_NOTE_0
340
0
  0
BLOCK_RECORD
  5
2A2
330
1
100
AcDbSymbolTableRecord
100
AcDbBlockTableRecord
  2
SW_NOTE_0_1
340
0
102
{BLKREFS
331
9C
102
}
  0
BLOCK_RECORD
  5
10C
330
1
100
AcDbSymbolTableRecord
100
AcDbBlockTableRecord
  2
_D
340
0
  0
BLOCK_RECORD
  5
118
330
1
100
AcDbSymbolTableRecord
100
AcDbBlockTableRecord
  2
_D_1
340
0
  0
BLOCK_RECORD
  5
125
330
1
100
AcDbSymbolTableRecord
100
AcDbBlockTableRecord
  2
_D_2
340
0
  0
BLOCK_RECORD
  5
135
330
1
100
AcDbSymbolTableRecord
100
AcDbBlockTableRecord
  2
_D_3
340
0
  0
BLOCK_RECORD
  5
17C
330
1
100
AcDbSymbolTableRecord
100
AcDbBlockTableRecord
  2
_D_4
340
0
  0
BLOCK_RECORD
  5
277
330
1
100
AcDbSymbolTableRecord
100
AcDbBlockTableRecord
  2
_D_5
340
0
  0
ENDTAB
  0
ENDSEC
  0
SECTION
  2
BLOCKS
  0
BLOCK
  5
20
330
1F
100
AcDbEntity
  8
0
100
AcDbBlockBegin
  2
*Model_Space
 70
     0
 71
     0
 10
0.0
 20
0.0
 30
0.0
  3
*Model_Space
  1

  0
ENDBLK
  5
21
330
1F
100
AcDbEntity
  8
0
100
AcDbBlockEnd
  0
BLOCK
  5
75
330
73
100
AcDbEntity
 67
     1
  8
0
100
AcDbBlockBegin
  2
*Paper_Space
 70
     0
 71
     0
 10
0.0
 20
0.0
 30
0.0
  3
*Paper_Space
  1

  0
ENDBLK
  5
76
330
73
100
AcDbEntity
 67
     1
  8
0
100
AcDbBlockEnd
  0
BLOCK
  5
2BC
330
2BB
100
AcDbEntity
  8
0
100
AcDbBlockBegin
  2
_Open90
 70
     0
 71
     0
 10
0.0
 20
0.0
 30
0.0
  3
_Open90
  1

  0
LINE
  5
109
330
2BB
100
AcDbEntity
  8
0
  6
ByBlock
 62
     0
370
    -2
100
AcDbLine
 10
-0.5
 20
0.5
 30
0.0
 11
0.0
 21
0.0
 31
0.0
  0
LINE
  5
10A
330
2BB
100
AcDbEntity
  8
0
  6
ByBlock
 62
     0
370
    -2
100
AcDbLine
 10
0.0
 20
0.0
 30
0.0
 11
-0.5
 21
-0.5
 31
0.0
  0
LINE
  5
10B
330
2BB
100
AcDbEntity
  8
0
  6
ByBlock
 62
     0
370
    -2
100
AcDbLine
 10
0.0
 20
0.0
 30
0.0
 11
-1.0
 21
0.0
 31
0.0
  0
ENDBLK
  5
2BD
330
2BB
100
AcDbEntity
  8
0
100
AcDbBlockEnd
  0
BLOCK
  5
2C3
330
23
100
AcDbEntity
  8
0
100
AcDbBlockBegin
  2
*Paper_Space1
 70
     0
 71
     0
 10
0.0
 20
0.0
 30
0.0
  3
*Paper_Space1
  1

  0
ENDBLK
  5
2C4
330
23
100
AcDbEntity
  8
0
100
AcDbBlockEnd
  0
BLOCK
  5
2C5
330
8D
100
AcDbEntity
  8
0
100
AcDbBlockBegin
  2
SW_NOTE_0
 70
     0
 71
     0
 10
0.0
 20
0.0
 30
0.0
  3
SW_NOTE_0
  1

  0
MTEXT
  5
90
330
8D
100
AcDbEntity
  8
0
  6
Continuous
 62
     0
370
     0
100
AcDbMText
 10
0.0
 20
0.3759780907668229
 30
0.0
 40
0.2916666666666666
 41
0.0
 71
     1
 72
     1
  1
FROST PRODUCTS LTD.
  7
SLDTEXTSTYLE0
 73
     1
 44
1.0
  0
MTEXT
  5
91
330
8D
100
AcDbEntity
  8
0
  6
Continuous
 62
     0
370
     0
100
AcDbMText
 10
0.0
 20
-0.0495142708586375
 30
0.0
 40
0.2291666666666666
 41
0.0
 71
     1
 72
     1
  1
5280 JOHN LUCUS DRIVE, BURLINGTON, ON, L7L 5Z9
  7
SLDTEXTSTYLE0
 73
     1
 44
1.0
  0
ENDBLK
  5
2C6
330
8D
100
AcDbEntity
  8
0
100
AcDbBlockEnd
  0
BLOCK
  5
2C7
330
2A2
100
AcDbEntity
  8
0
100
AcDbBlockBegin
  2
SW_NOTE_0_1
 70
     0
 71
     0
 10
0.0
 20
0.0
 30
0.0
  3
SW_NOTE_0_1
  1

  0
MTEXT
  5
2B1
330
2A2
100
AcDbEntity
  8
0
  6
Continuous
 62
     0
370
     0
100
AcDbMText
 10
0.0
 20
0.2381282770514712
 30
0.0
 40
0.1847290640394089
 41
0.0
 71
     1
 72
     1
  1
PROPRIETARY AND CONFIDENTIAL
  7
SLDTEXTSTYLE2
 73
     1
 44
1.0
  0
MTEXT
  5
99
330
2A2
100
AcDbEntity
  8
0
  6
Continuous
 62
     0
370
     0
100
AcDbMText
 10
0.0
 20
-0.0504364795553608
 30
0.0
 40
0.25
 41
0.0
 71
     1
 72
     1
  1
THE INFORMATION CONTAINED IN THIS DRAWING IS THE SOLE PROPERTY OF 
  7
SLDTEXTSTYLE3
 73
     1
 44
1.0
  0
MTEXT
  5
9A
330
2A2
100
AcDbEntity
  8
0
  6
Continuous
 62
     0
370
     0
100
AcDbMText
 10
0.0
 20
-0.4231398940537119
 30
0.0
 40
0.25
 41
0.0
 71
     1
 72
     1
  1
FROST PRODUCTS LTD.  ANY REPRODUCTION IN PART OR AS A WHOLE WITHOUT 
  7
SLDTEXTSTYLE3
 73
     1
 44
1.0
  0
MTEXT
  5
9B
330
2A2
100
AcDbEntity
  8
0
  6
Continuous
 62
     0
370
     0
100
AcDbMText
 10
0.0
 20
-0.7958433085520636
 30
0.0
 40
0.25
 41
0.0
 71
     1
 72
     1
  1
THE WRITTEN PERMISSION OF FROST PRODUCTS LTD. IS PROHIBITED.
  7
SLDTEXTSTYLE3
 73
     1
 44
1.0
  0
ENDBLK
  5
2C8
330
2A2
100
AcDbEntity
  8
0
100
AcDbBlockEnd
  0
BLOCK
  5
2C9
330
10C
100
AcDbEntity
  8
0
100
AcDbBlockBegin
  2
_D
 70
     0
 71
     0
 10
0.0
 20
0.0
 30
0.0
  3
_D
  1

  0
INSERT
  5
10F
330
10C
100
AcDbEntity
  8
DIMS
100
AcDbBlockReference
  2
_Open90
 10
10.3327962860929
 20
17.38878587268991
 30
-0.173373597207197
 41
0.5
 42
0.5
 50
180.0000000000006
  0
INSERT
  5
110
330
10C
100
AcDbEntity
  8
DIMS
100
AcDbBlockReference
  2
_Open90
 10
26.3327962860929
 20
17.38878587268997
 30
-0.173373597207197
 41
0.5
 42
0.5
 50
0.0000000000006107
  0
LINE
  5
111
330
10C
100
AcDbEntity
  8
DIMS
100
AcDbLine
 10
10.33279628609292
 20
12.25972462575355
 30
0.0
 11
10.3327962860929
 21
17.76378587268991
 31
0.0
  0
LINE
  5
112
330
10C
100
AcDbEntity
  8
DIMS
100
AcDbLine
 10
26.33279628609292
 20
12.25972462575361
 30
0.0
 11
26.3327962860929
 21
17.76378587268997
 31
0.0
  0
LINE
  5
113
330
10C
100
AcDbEntity
  8
DIMS
100
AcDbLine
 10
10.3327962860929
 20
17.38878587268991
 30
0.0
 11
17.52506192119097
 21
17.38878587268993
 31
0.0
  0
LINE
  5
114
330
10C
100
AcDbEntity
  8
DIMS
100
AcDbLine
 10
26.3327962860929
 20
17.38878587268997
 30
0.0
 11
18.47020077619959
 21
17.38878587268994
 31
0.0
  0
MTEXT
  5
115
330
10C
100
AcDbEntity
  8
DIMS
100
AcDbMText
 10
17.52506192119097
 20
17.63058279075664
 30
0.0
 40
0.5
 41
0.0
 71
     1
 72
     1
  1
16"
  7
SLDTEXTSTYLE1
 73
     1
 44
1.0
  0
ENDBLK
  5
2CA
330
10C
100
AcDbEntity
  8
0
100
AcDbBlockEnd
  0
BLOCK
  5
2CB
330
118
100
AcDbEntity
  8
0
100
AcDbBlockBegin
  2
_D_1
 70
     0
 71
     0
 10
0.0
 20
0.0
 30
0.0
  3
_D_1
  1

  0
INSERT
  5
11B
330
118
100
AcDbEntity
  8
DIMS
100
AcDbBlockReference
  2
_Open90
 10
25.83589057443005
 20
10.50981719825737
 30
-0.1733735972071966
 41
0.5
 42
0.5
 50
122.0691838178468
  0
LINE
  5
11C
330
118
100
AcDbEntity
  8
DIMS
100
AcDbLine
 10
27.73382846054906
 20
9.251370752567192
 30
0.0
 11
28.61924515547317
 21
9.251370752567192
 31
0.0
  0
LINE
  5
11D
330
118
100
AcDbEntity
  8
DIMS
100
AcDbLine
 10
25.83589057443005
 20
10.50981719825737
 30
0.0
 11
26.65650207622738
 21
9.20008605417907
 31
0.0
  0
LINE
  5
11E
330
118
100
AcDbEntity
  8
DIMS
100
AcDbLine
 10
26.65650207622738
 20
9.20008605417907
 30
0.0
 11
26.90650207622738
 21
9.20008605417907
 31
0.0
  0
MTEXT
  5
11F
330
118
100
AcDbEntity
  8
DIMS
100
AcDbMText
 10
26.90650207622738
 20
9.473132923743668
 30
0.0
 40
0.5
 41
0.0
 71
     1
 72
     1
  1
%%c
  7
SLDTEXTSTYLE1
 73
     1
 44
1.0
  0
MTEXT
  5
120
330
118
100
AcDbEntity
  8
DIMS
100
AcDbMText
 10
27.99181458527133
 20
9.846084312044072
 30
0.0
 40
0.5
 41
0.0
 71
     1
 72
     1
  1
3
  7
SLDTEXTSTYLE1
 73
     1
 44
1.0
  0
MTEXT
  5
121
330
118
100
AcDbEntity
  8
DIMS
100
AcDbMText
 10
27.80709236253154
 20
9.184903733496036
 30
0.0
 40
0.5
 41
0.0
 71
     1
 72
     1
  1
16
  7
SLDTEXTSTYLE1
 73
     1
 44
1.0
  0
MTEXT
  5
122
330
118
100
AcDbEntity
  8
DIMS
100
AcDbMText
 10
28.69250905745566
 20
9.480771812998567
 30
0.0
 40
0.5
 41
0.0
 71
     1
 72
     1
  1
"
  7
SLDTEXTSTYLE1
 73
     1
 44
1.0
  0
ENDBLK
  5
2CC
330
118
100
AcDbEntity
  8
0
100
AcDbBlockEnd
  0
BLOCK
  5
2CD
330
125
100
AcDbEntity
  8
0
100
AcDbBlockBegin
  2
_D_2
 70
     0
 71
     0
 10
0.0
 20
0.0
 30
0.0
  3
_D_2
  1

  0
INSERT
  5
128
330
125
100
AcDbEntity
  8
DIMS
100
AcDbBlockReference
  2
_Open90
 10
11.95779628609283
 20
15.98414158589645
 30
-0.173373597207197
 41
0.5
 42
0.5
 50
180.0000000000006
  0
INSERT
  5
129
330
125
100
AcDbEntity
  8
DIMS
100
AcDbBlockReference
  2
_Open90
 10
18.33279628609283
 20
15.98414158589647
 30
-0.173373597207197
 41
0.5
 42
0.5
 50
0.0000000000006107
  0
LINE
  5
12A
330
125
100
AcDbEntity
  8
DIMS
100
AcDbLine
 10
14.96890736541936
 20
16.03542628428459
 30
0.0
 11
15.48487961486391
 21
16.03542628428459
 31
0.0
  0
LINE
  5
12B
330
125
100
AcDbEntity
  8
DIMS
100
AcDbLine
 10
11.95779628609283
 20
15.7021670911352
 30
0.0
 11
11.95779628609283
 21
16.35914158589645
 31
0.0
  0
LINE
  5
12C
330
125
100
AcDbEntity
  8
DIMS
100
AcDbLine
 10
18.33279628609283
 20
15.70216709113523
 30
0.0
 11
18.33279628609283
 21
16.35914158589647
 31
0.0
  0
LINE
  5
12D
330
125
100
AcDbEntity
  8
DIMS
100
AcDbLine
 10
11.95779628609283
 20
15.98414158589645
 30
0.0
 11
14.52619901795731
 21
15.98414158589646
 31
0.0
  0
LINE
  5
12E
330
125
100
AcDbEntity
  8
DIMS
100
AcDbLine
 10
18.33279628609283
 20
15.98414158589647
 30
0.0
 11
15.76439355422836
 21
15.98414158589646
 31
0.0
  0
MTEXT
  5
12F
330
125
100
AcDbEntity
  8
DIMS
100
AcDbMText
 10
14.52619901795731
 20
16.26482734471596
 30
0.0
 40
0.5
 41
0.0
 71
     1
 72
     1
  1
6
  7
SLDTEXTSTYLE1
 73
     1
 44
1.0
  0
MTEXT
  5
130
330
125
100
AcDbEntity
  8
DIMS
100
AcDbMText
 10
15.04217126740185
 20
16.63013984376147
 30
0.0
 40
0.5
 41
0.0
 71
     1
 72
     1
  1
3
  7
SLDTEXTSTYLE1
 73
     1
 44
1.0
  0
MTEXT
  5
131
330
125
100
AcDbEntity
  8
DIMS
100
AcDbMText
 10
15.04217126740185
 20
15.96895926521343
 30
0.0
 40
0.5
 41
0.0
 71
     1
 72
     1
  1
8
  7
SLDTEXTSTYLE1
 73
     1
 44
1.0
  0
MTEXT
  5
132
330
125
100
AcDbEntity
  8
DIMS
100
AcDbMText
 10
15.5581435168464
 20
16.26482734471596
 30
0.0
 40
0.5
 41
0.0
 71
     1
 72
     1
  1
"
  7
SLDTEXTSTYLE1
 73
     1
 44
1.0
  0
ENDBLK
  5
2CE
330
125
100
AcDbEntity
  8
0
100
AcDbBlockEnd
  0
BLOCK
  5
2CF
330
135
100
AcDbEntity
  8
0
100
AcDbBlockBegin
  2
_D_3
 70
     0
 71
     0
 10
0.0
 20
0.0
 30
0.0
  3
_D_3
  1

  0
INSERT
  5
138
330
135
100
AcDbEntity
  8
DIMS
100
AcDbBlockReference
  2
_Open90
 10
11.95779628609283
 20
15.98414158589646
 30
-0.173373597207197
 41
0.5
 42
0.5
 50
180.0000000000006
  0
INSERT
  5
139
330
135
100
AcDbEntity
  8
DIMS
100
AcDbBlockReference
  2
_Open90
 10
10.33279628609291
 20
15.98414158589646
 30
-0.173373597207197
 41
0.5
 42
0.5
 50
0.0000000000006107
  0
LINE
  5
13A
330
135
100
AcDbEntity
  8
DIMS
100
AcDbLine
 10
10.86208406174296
 20
16.03542628428459
 30
0.0
 11
11.3780563111875
 21
16.03542628428459
 31
0.0
  0
LINE
  5
13B
330
135
100
AcDbEntity
  8
DIMS
100
AcDbLine
 10
11.95779628609283
 20
15.7021670911352
 30
0.0
 11
11.95779628609283
 21
16.35914158589646
 31
0.0
  0
LINE
  5
13C
330
135
100
AcDbEntity
  8
DIMS
100
AcDbLine
 10
10.33279628609292
 20
12.25972462575355
 30
0.0
 11
10.33279628609291
 21
16.35914158589646
 31
0.0
  0
LINE
  5
13D
330
135
100
AcDbEntity
  8
DIMS
100
AcDbLine
 10
11.95779628609283
 20
15.98414158589646
 30
0.0
 11
12.91933474763129
 21
15.98414158589647
 31
0.0
  0
LINE
  5
13E
330
135
100
AcDbEntity
  8
DIMS
100
AcDbLine
 10
10.33279628609291
 20
15.98414158589646
 30
0.0
 11
9.371257824554448
 21
15.98414158589645
 31
0.0
  0
MTEXT
  5
13F
330
135
100
AcDbEntity
  8
DIMS
100
AcDbMText
 10
10.4193757142809
 20
16.26482734471596
 30
0.0
 40
0.5
 41
0.0
 71
     1
 72
     1
  1
1
  7
SLDTEXTSTYLE1
 73
     1
 44
1.0
  0
MTEXT
  5
140
330
135
100
AcDbEntity
  8
DIMS
100
AcDbMText
 10
10.93534796372544
 20
16.63013984376147
 30
0.0
 40
0.5
 41
0.0
 71
     1
 72
     1
  1
5
  7
SLDTEXTSTYLE1
 73
     1
 44
1.0
  0
MTEXT
  5
141
330
135
100
AcDbEntity
  8
DIMS
100
AcDbMText
 10
10.93534796372544
 20
15.96895926521343
 30
0.0
 40
0.5
 41
0.0
 71
     1
 72
     1
  1
8
  7
SLDTEXTSTYLE1
 73
     1
 44
1.0
  0
MTEXT
  5
142
330
135
100
AcDbEntity
  8
DIMS
100
AcDbMText
 10
11.45132021316999
 20
16.26482734471596
 30
0.0
 40
0.5
 41
0.0
 71
     1
 72
     1
  1
"
  7
SLDTEXTSTYLE1
 73
     1
 44
1.0
  0
ENDBLK
  5
2D0
330
135
100
AcDbEntity
  8
0
100
AcDbBlockEnd
  0
BLOCK
  5
2D1
330
17C
100
AcDbEntity
  8
0
100
AcDbBlockBegin
  2
_D_4
 70
     0
 71
     0
 10
0.0
 20
0.0
 30
0.0
  3
_D_4
  1

  0
INSERT
  5
17F
330
17C
100
AcDbEntity
  8
DIMS
100
AcDbBlockReference
  2
_Open90
 10
30.05811507345415
 20
7.921481624747688
 30
0.0
 41
0.5
 42
0.5
 50
270.0000000000004
  0
INSERT
  5
180
330
17C
100
AcDbEntity
  8
DIMS
100
AcDbBlockReference
  2
_Open90
 10
30.05811507345415
 20
15.57776225064263
 30
0.0
 41
0.5
 42
0.5
 50
90.00000000000041
  0
LINE
  5
181
330
17C
100
AcDbEntity
  8
DIMS
100
AcDbLine
 10
29.69700396670714
 20
11.84728522616458
 30
0.0
 11
30.58242066163125
 21
11.84728522616458
 31
0.0
  0
LINE
  5
182
330
17C
100
AcDbEntity
  8
DIMS
100
AcDbLine
 10
31.99233733348533
 20
7.921481624747688
 30
0.0
 11
29.68311507345415
 21
7.921481624747688
 31
0.0
  0
LINE
  5
183
330
17C
100
AcDbEntity
  8
DIMS
100
AcDbLine
 10
30.84822091777501
 20
15.57776225064263
 30
0.0
 11
29.68311507345415
 21
15.57776225064263
 31
0.0
  0
LINE
  5
184
330
17C
100
AcDbEntity
  8
DIMS
100
AcDbLine
 10
30.05811507345415
 20
7.921481624747688
 30
0.0
 11
30.05811507345415
 21
11.14214637448876
 31
0.0
  0
LINE
  5
185
330
17C
100
AcDbEntity
  8
DIMS
100
AcDbLine
 10
30.05811507345415
 20
15.57776225064263
 30
0.0
 11
30.05811507345415
 21
12.44985468106415
 31
0.0
  0
MTEXT
  5
186
330
17C
100
AcDbEntity
  8
DIMS
100
AcDbMText
 10
29.25429561924508
 20
12.07668628659595
 30
0.0
 40
0.5
 41
0.0
 71
     1
 72
     1
  1
7
  7
SLDTEXTSTYLE1
 73
     1
 44
1.0
  0
MTEXT
  5
187
330
17C
100
AcDbEntity
  8
DIMS
100
AcDbMText
 10
29.77026786868962
 20
12.44199878564146
 30
0.0
 40
0.5
 41
0.0
 71
     1
 72
     1
  1
11
  7
SLDTEXTSTYLE1
 73
     1
 44
1.0
  0
MTEXT
  5
188
330
17C
100
AcDbEntity
  8
DIMS
100
AcDbMText
 10
29.77026786868962
 20
11.78081820709342
 30
0.0
 40
0.5
 41
0.0
 71
     1
 72
     1
  1
16
  7
SLDTEXTSTYLE1
 73
     1
 44
1.0
  0
MTEXT
  5
189
330
17C
100
AcDbEntity
  8
DIMS
100
AcDbMText
 10
30.65568456361374
 20
12.07668628659595
 30
0.0
 40
0.5
 41
0.0
 71
     1
 72
     1
  1
"
  7
SLDTEXTSTYLE1
 73
     1
 44
1.0
  0
ENDBLK
  5
2D2
330
17C
100
AcDbEntity
  8
0
100
AcDbBlockEnd
  0
BLOCK
  5
2D3
330
277
100
AcDbEntity
  8
0
100
AcDbBlockBegin
  2
_D_5
 70
     0
 71
     0
 10
0.0
 20
0.0
 30
0.0
  3
_D_5
  1

  0
INSERT
  5
27A
330
277
100
AcDbEntity
  8
DIMS
100
AcDbBlockReference
  2
_Open90
 10
27.19893801837631
 20
20.01162772796106
 30
-2.660653252534332
 41
0.5
 42
0.5
 50
90.00000000000101
  0
INSERT
  5
27B
330
277
100
AcDbEntity
  8
DIMS
100
AcDbBlockReference
  2
_Open90
 10
27.19893801837629
 20
22.10537492237514
 30
-2.660653252534332
 41
0.5
 42
0.5
 50
270.000000000001
  0
LINE
  5
27C
330
277
100
AcDbEntity
  8
DIMS
100
AcDbLine
 10
26.83782691162929
 20
21.21062302595517
 30
0.0
 11
27.7232436065534
 21
21.21062302595517
 31
0.0
  0
LINE
  5
27D
330
277
100
AcDbEntity
  8
DIMS
100
AcDbLine
 10
24.8744629527595
 20
20.01162772796103
 30
0.0
 11
27.57393801837631
 21
20.01162772796106
 31
0.0
  0
LINE
  5
27E
330
277
100
AcDbEntity
  8
DIMS
100
AcDbLine
 10
26.49946295275959
 20
22.10537492237513
 30
0.0
 11
27.57393801837629
 21
22.10537492237515
 31
0.0
  0
LINE
  5
27F
330
277
100
AcDbEntity
  8
DIMS
100
AcDbLine
 10
27.19893801837631
 20
20.01162772796106
 30
0.0
 11
27.19893801837632
 21
19.0500892664226
 31
0.0
  0
LINE
  5
280
330
277
100
AcDbEntity
  8
DIMS
100
AcDbLine
 10
27.19893801837629
 20
22.10537492237514
 30
0.0
 11
27.19893801837628
 21
23.0669133839136
 31
0.0
  0
MTEXT
  5
281
330
277
100
AcDbEntity
  8
DIMS
100
AcDbMText
 10
26.39511856416723
 20
21.44002408638654
 30
0.0
 40
0.5
 41
0.0
 71
     1
 72
     1
  1
2
  7
SLDTEXTSTYLE1
 73
     1
 44
1.0
  0
MTEXT
  5
282
330
277
100
AcDbEntity
  8
DIMS
100
AcDbMText
 10
27.09581303635156
 20
21.80533658543204
 30
0.0
 40
0.5
 41
0.0
 71
     1
 72
     1
  1
1
  7
SLDTEXTSTYLE1
 73
     1
 44
1.0
  0
MTEXT
  5
283
330
277
100
AcDbEntity
  8
DIMS
100
AcDbMText
 10
26.91109081361177
 20
21.144156006884
 30
0.0
 40
0.5
 41
0.0
 71
     1
 72
     1
  1
16
  7
SLDTEXTSTYLE1
 73
     1
 44
1.0
  0
MTEXT
  5
284
330
277
100
AcDbEntity
  8
DIMS
100
AcDbMText
 10
27.79650750853589
 20
21.44002408638654
 30
0.0
 40
0.5
 41
0.0
 71
     1
 72
     1
  1
"
  7
SLDTEXTSTYLE1
 73
     1
 44
1.0
  0
ENDBLK
  5
2D4
330
277
100
AcDbEntity
  8
0
100
AcDbBlockEnd
  0
ENDSEC
  0
SECTION
  2
ENTITIES
  0
LINE
  5
79
330
1F
100
AcDbEntity
  8
0
  6
SLD-Solid
 62
     7
370
    50
100
AcDbLine
 10
29.43391070279198
 20
1.381311886050946
 30
0.0
 11
46.41567412997442
 21
1.381311886050946
 31
0.0
  0
LINE
  5
7A
330
1F
100
AcDbEntity
  8
0
  6
SLD-Solid
 62
     7
370
    50
100
AcDbLine
 10
46.4156194230234
 20
5.369060515145104
 30
0.0
 11
36.22622275109721
 21
5.369060515145103
 31
0.0
  0
LINE
  5
7B
330
1F
100
AcDbEntity
  8
0
  6
SLD-Solid
 62
     7
370
    50
100
AcDbLine
 10
29.43391070279198
 20
2.436487844692758
 30
0.0
 11
22.42166679904371
 21
2.436487844692757
 31
0.0
  0
LINE
  5
7C
330
1F
100
AcDbEntity
  8
0
  6
SLD-Solid
 62
     7
370
    50
100
AcDbLine
 10
29.43391070279198
 20
1.381311886050946
 30
0.0
 11
22.42166679904371
 21
1.381311886050945
 31
0.0
  0
LINE
  5
7D
330
1F
100
AcDbEntity
  8
0
  6
SLD-Solid
 62
     7
370
    50
100
AcDbLine
 10
29.43391070279198
 20
1.381311886050946
 30
0.0
 11
29.43391070279198
 21
3.491663803334569
 31
0.0
  0
LINE
  5
7E
330
1F
100
AcDbEntity
  8
0
  6
SLD-Solid
 62
     7
370
    50
100
AcDbLine
 10
22.42166679904371
 20
3.491663803334568
 30
0.0
 11
22.42166679904371
 21
0.3937001215893171
 31
0.0
  0
LINE
  5
7F
330
1F
100
AcDbEntity
  8
0
  6
SLD-Solid
 62
     7
370
    50
100
AcDbLine
 10
22.42166679904371
 20
0.3937001215893171
 30
0.0
 11
46.41568767877938
 21
0.3937001215893171
 31
0.0
  0
LINE
  5
80
330
1F
100
AcDbEntity
  8
0
  6
SLD-Solid
 62
     7
370
    50
100
AcDbLine
 10
46.4156194230234
 20
5.369060515145104
 30
0.0
 11
46.41568767877938
 21
0.3937001215893171
 31
0.0
  0
LINE
  5
81
330
1F
100
AcDbEntity
  8
0
  6
SLD-Solid
 62
     7
370
    50
100
AcDbLine
 10
29.43391070279198
 20
3.491663803334569
 30
0.0
 11
22.42166679904371
 21
3.491663803334568
 31
0.0
  0
LINE
  5
82
330
1F
100
AcDbEntity
  8
0
  6
SLD-Solid
 62
     7
370
    50
100
AcDbLine
 10
29.43391070279198
 20
3.491663803334569
 30
0.0
 11
46.41544924304012
 21
3.491664955913943
 31
0.0
  0
LINE
  5
83
330
1F
100
AcDbEntity
  8
0
  6
SLD-Solid
 62
     7
370
    50
100
AcDbLine
 10
36.22622275109721
 20
5.369060515145103
 30
0.0
 11
36.22622275109721
 21
0.3573773641115478
 31
0.0
  0
MTEXT
  5
85
330
1F
100
AcDbEntity
  8
0
  6
Continuous
 62
     7
370
     0
100
AcDbMText
 10
23.32398548181345
 20
0.9639904562836571
 30
0.0
 40
0.25
 41
0.0
 71
     1
 72
     1
  1
UNLESS OTHERWISE SPECIFIED DIMENSIONS ARE IN INCHES.
  7
SLDTEXTSTYLE0
 73
     1
 44
1.0
  0
MTEXT
  5
86
330
1F
100
AcDbEntity
  8
0
  6
Continuous
 62
     7
370
     0
100
AcDbMText
 10
23.34575760666969
 20
2.976762899169739
 30
0.0
 40
0.25
 41
0.0
 71
     1
 72
     1
  1
DATE:
  7
SLDTEXTSTYLE0
 73
     1
 44
1.0
  0
MTEXT
  5
87
330
1F
100
AcDbEntity
  8
0
  6
Continuous
 62
     7
370
     0
100
AcDbMText
 10
25.4543888667847
 20
2.086733085252027
 30
0.0
 40
0.25
 41
0.0
 71
     2
 72
     1
  1
DO NOT SCALE DRAWING
  7
SLDTEXTSTYLE0
 73
     1
 44
1.0
  0
MTEXT
  5
89
330
1F
100
AcDbEntity
  8
0
  6
Continuous
 62
     7
370
     0
100
AcDbMText
 10
29.74642498628476
 20
3.161975676886921
 30
0.0
 40
0.25
 41
0.0
 71
     1
 72
     1
  1
TITLE:
  7
SLDTEXTSTYLE1
 73
     1
 44
1.0
  0
MTEXT
  5
8A
330
1F
100
AcDbEntity
  8
0
  6
Continuous
 62
     7
370
     0
100
AcDbMText
 10
37.07187078394034
 20
3.161975676886921
 30
0.0
 40
0.25
 41
0.0
 71
     1
 72
     1
  1
DWG NO.
  7
SLDTEXTSTYLE1
 73
     1
 44
1.0
  0
MTEXT
  5
8B
330
1F
100
AcDbEntity
  8
0
  6
Continuous
 62
     7
370
     0
100
AcDbMText
 10
37.09886299906432
 20
0.9582816792631479
 30
0.0
 40
0.25
 41
0.0
 71
     1
 72
     1
  1
SCALE:     1:1
  7
SLDTEXTSTYLE1
 73
     1
 44
1.0
  0
MTEXT
  5
8C
330
1F
100
AcDbEntity
  8
0
  6
Continuous
 62
     7
370
     0
100
AcDbMText
 10
41.15226662495569
 20
2.701206582691213
 30
0.0
 40
0.5
 41
0.0
 71
     2
 72
     1
  1
1147 coat hook strip
  7
SLDTEXTSTYLE1
 73
     1
 44
1.0
  0
INSERT
  5
9C
330
1F
100
AcDbEntity
  8
0
  6
Continuous
 62
     7
370
     0
100
AcDbBlockReference
  2
SW_NOTE_0_1
 10
23.53166030337019
 20
5.041852806368022
 30
0.0
  0
LINE
  5
9D
330
1F
100
AcDbEntity
  8
0
  6
SLD-Solid
 62
     7
370
    25
100
AcDbLine
 10
11.45779628609294
 20
7.949981624747638
 30
0.0
 11
12.45779628609294
 21
7.949981624747641
 31
0.0
  0
LINE
  5
9E
330
1F
100
AcDbEntity
  8
0
  6
SLD-Solid
 62
     7
370
    25
100
AcDbLine
 10
17.83279628609294
 20
7.949981624747661
 30
0.0
 11
18.83279628609294
 21
7.949981624747664
 31
0.0
  0
LINE
  5
9F
330
1F
100
AcDbEntity
  8
OBJECT
  6
SLD-Solid
370
    25
100
AcDbLine
 10
24.20779628609294
 20
7.949981624747683
 30
0.0
 11
25.20779628609294
 21
7.949981624747687
 31
0.0
  0
CIRCLE
  5
A0
330
1F
100
AcDbEntity
  8
0
  6
SLD-Solid
 62
     7
370
    25
100
AcDbCircle
 10
11.95779628609293
 20
9.344557959086892
 30
0.0
 40
0.0828775666847717
  0
CIRCLE
  5
A1
330
1F
100
AcDbEntity
  8
0
  6
SLD-Solid
 62
     7
370
    25
100
AcDbCircle
 10
11.95779628609293
 20
9.344557959086892
 30
0.0
 40
0.0599999999999991
  0
CIRCLE
  5
A2
330
1F
100
AcDbEntity
  8
0
  6
SLD-Solid
 62
     7
370
    25
100
AcDbCircle
 10
11.95779628609293
 20
9.344557959086892
 30
0.0
 40
0.1874999999999999
  0
CIRCLE
  5
A3
330
1F
100
AcDbEntity
  8
0
  6
SLD-Solid
 62
     7
370
    25
100
AcDbCircle
 10
24.70779628609293
 20
9.344557959086936
 30
0.0
 40
0.0828775666847728
  0
CIRCLE
  5
A4
330
1F
100
AcDbEntity
  8
0
  6
SLD-Solid
 62
     7
370
    25
100
AcDbCircle
 10
24.70779628609293
 20
9.344557959086936
 30
0.0
 40
0.1874999999999988
  0
CIRCLE
  5
A5
330
1F
100
AcDbEntity
  8
0
  6
SLD-Solid
 62
     7
370
    25
100
AcDbCircle
 10
24.70779628609293
 20
9.344557959086936
 30
0.0
 40
0.0599999999999996
  0
CIRCLE
  5
A6
330
1F
100
AcDbEntity
  8
0
  6
SLD-Solid
 62
     7
370
    25
100
AcDbCircle
 10
18.33279628609293
 20
11.84455795908691
 30
0.0
 40
0.0828775666847728
  0
CIRCLE
  5
A7
330
1F
100
AcDbEntity
  8
0
  6
SLD-Solid
 62
     7
370
    25
100
AcDbCircle
 10
18.33279628609293
 20
11.84455795908691
 30
0.0
 40
0.1875000000000016
  0
CIRCLE
  5
A8
330
1F
100
AcDbEntity
  8
0
  6
SLD-Solid
 62
     7
370
    25
100
AcDbCircle
 10
18.33279628609293
 20
11.84455795908691
 30
0.0
 40
0.0600000000000013
  0
CIRCLE
  5
A9
330
1F
100
AcDbEntity
  8
0
  6
SLD-Solid
 62
     7
370
    25
100
AcDbCircle
 10
24.70779628609292
 20
11.84455795908694
 30
0.0
 40
0.0828775666847711
  0
CIRCLE
  5
AA
330
1F
100
AcDbEntity
  8
0
  6
SLD-Solid
 62
     7
370
    25
100
AcDbCircle
 10
24.70779628609292
 20
11.84455795908694
 30
0.0
 40
0.1874999999999977
  0
CIRCLE
  5
AB
330
1F
100
AcDbEntity
  8
0
  6
SLD-Solid
 62
     7
370
    25
100
AcDbCircle
 10
24.70779628609292
 20
11.84455795908694
 30
0.0
 40
0.0599999999999985
  0
CIRCLE
  5
AC
330
1F
100
AcDbEntity
  8
0
  6
SLD-Solid
 62
     7
370
    25
100
AcDbCircle
 10
18.33279628609293
 20
9.344557959086913
 30
0.0
 40
0.0828775666847711
  0
CIRCLE
  5
AD
330
1F
100
AcDbEntity
  8
0
  6
SLD-Solid
 62
     7
370
    25
100
AcDbCircle
 10
18.33279628609293
 20
9.344557959086913
 30
0.0
 40
0.1874999999999988
  0
CIRCLE
  5
AE
330
1F
100
AcDbEntity
  8
0
  6
SLD-Solid
 62
     7
370
    25
100
AcDbCircle
 10
18.33279628609293
 20
9.344557959086913
 30
0.0
 40
0.0599999999999996
  0
CIRCLE
  5
AF
330
1F
100
AcDbEntity
  8
0
  6
SLD-Solid
 62
     7
370
    25
100
AcDbCircle
 10
11.95779628609292
 20
11.84455795908689
 30
0.0
 40
0.0828775666847734
  0
CIRCLE
  5
B0
330
1F
100
AcDbEntity
  8
0
  6
SLD-Solid
 62
     7
370
    25
100
AcDbCircle
 10
11.95779628609292
 20
11.84455795908689
 30
0.0
 40
0.1874999999999994
  0
CIRCLE
  5
B1
330
1F
100
AcDbEntity
  8
0
  6
SLD-Solid
 62
     7
370
    25
100
AcDbCircle
 10
11.95779628609292
 20
11.84455795908689
 30
0.0
 40
0.0599999999999991
  0
LINE
  5
B2
330
1F
100
AcDbEntity
  8
0
  6
SLD-Solid
 62
     7
370
    25
100
AcDbLine
 10
11.45779628609293
 20
12.35021252452209
 30
0.0
 11
11.45779628609284
 21
15.08234653095025
 31
0.0
  0
ARC
  5
B3
330
1F
100
AcDbEntity
  8
0
  6
SLD-Solid
 62
     7
370
    25
100
AcDbCircle
 10
11.93547051169829
 20
15.05771276445943
 30
0.0
 40
0.4783089882693997
100
AcDbArc
 50
87.32466329948876
 51
177.0478590625975
  0
ARC
  5
B4
330
1F
100
AcDbEntity
  8
0
  6
SLD-Solid
 62
     7
370
    25
100
AcDbCircle
 10
11.98012206048752
 20
15.05771276445958
 30
0.0
 40
0.4783089882692535
100
AcDbArc
 50
2.952140937380373
 51
92.67533670052846
  0
LINE
  5
B5
330
1F
100
AcDbEntity
  8
0
  6
SLD-Solid
 62
     7
370
    25
100
AcDbLine
 10
12.45779628609284
 20
15.08234653095021
 30
0.0
 11
12.45779628609292
 21
12.35021252452205
 31
0.0
  0
LINE
  5
B6
330
1F
100
AcDbEntity
  8
0
  6
SLD-Solid
 62
     7
370
    25
100
AcDbLine
 10
11.45779628609284
 20
15.08234653095025
 30
0.0
 11
11.45779628609293
 21
15.12460835712431
 31
0.0
  0
ARC
  5
B7
330
1F
100
AcDbEntity
  8
0
  6
SLD-Solid
 62
     7
370
    25
100
AcDbCircle
 10
11.93547051169805
 20
15.09997459063376
 30
0.0
 40
0.4783089882690507
100
AcDbArc
 50
87.32466329945741
 51
177.0478590626273
  0
LINE
  5
B8
330
1F
100
AcDbEntity
  8
0
  6
SLD-Solid
 62
     7
370
    25
100
AcDbLine
 10
12.45779628609293
 20
15.12460835712428
 30
0.0
 11
12.45779628609284
 21
15.08234653095021
 31
0.0
  0
ARC
  5
B9
330
1F
100
AcDbEntity
  8
0
  6
SLD-Solid
 62
     7
370
    25
100
AcDbCircle
 10
11.98012206048737
 20
15.0999745906333
 30
0.0
 40
0.4783089882695024
100
AcDbArc
 50
2.952140937421024
 51
92.67533670051002
  0
LINE
  5
BA
330
1F
100
AcDbEntity
  8
0
  6
SLD-Solid
 62
     7
370
    25
100
AcDbLine
 10
12.45779628609294
 20
8.052494251332359
 30
0.0
 11
12.45779628609294
 21
8.331819286588399
 31
0.0
  0
LINE
  5
BB
330
1F
100
AcDbEntity
  8
0
  6
SLD-Solid
 62
     7
370
    25
100
AcDbLine
 10
11.45779628609295
 20
8.331819286588395
 30
0.0
 11
11.45779628609294
 21
8.052494251332355
 31
0.0
  0
LWPOLYLINE
  5
BC
330
1F
100
AcDbEntity
  8
0
  6
SLD-Solid
 62
     7
370
    25
100
AcDbPolyline
 90
       11
 70
   128
 43
0.0
 10
11.95779628609295
 20
8.685372677181682
 10
11.87957905357284
 20
8.681019848255264
 10
11.80328778890548
 20
8.668068542570387
 10
11.73080103622318
 20
8.646837664255933
 10
11.66390365994672
 20
8.61784998799725
 10
11.60424289549969
 20
8.581819286588406
 10
11.55328778890549
 20
8.539632755477133
 10
11.51229302399878
 20
8.492329167068457
 10
11.48226802794538
 20
8.44107329270061
 10
11.46395211579539
 20
8.387127222109022
 10
11.45779628609295
 20
8.331819286588395
  0
LWPOLYLINE
  5
BD
330
1F
100
AcDbEntity
  8
0
  6
SLD-Solid
 62
     7
370
    25
100
AcDbPolyline
 90
       11
 70
   128
 43
0.0
 10
12.45779628609294
 20
8.331819286588399
 10
12.45164045639051
 20
8.387127222109017
 10
12.43332454424052
 20
8.441073292700604
 10
12.40329954818713
 20
8.492329167068451
 10
12.36230478328042
 20
8.539632755477127
 10
12.31134967668622
 20
8.5818192865884
 10
12.25168891223918
 20
8.617849987997243
 10
12.18479153596272
 20
8.646837664255926
 10
12.11230478328042
 20
8.66806854257038
 10
12.03601351861306
 20
8.681019848255257
 10
11.95779628609295
 20
8.685372677181682
  0
LINE
  5
BE
330
1F
100
AcDbEntity
  8
0
  6
SLD-Solid
 62
     7
370
    25
100
AcDbLine
 10
11.45779628609295
 20
8.331819286588395
 30
0.0
 11
11.45779628609294
 21
8.402529964707048
 31
0.0
  0
LWPOLYLINE
  5
BF
330
1F
100
AcDbEntity
  8
0
  6
SLD-Solid
 62
     7
370
    25
100
AcDbPolyline
 90
       11
 70
   128
 43
0.0
 10
11.45779628609294
 20
8.402529964707048
 10
11.46395211579538
 20
8.457837900227668
 10
11.48226802794537
 20
8.511783970819254
 10
11.51229302399876
 20
8.563039845187102
 10
11.55328778890548
 20
8.610343433595778
 10
11.60424289549967
 20
8.652529964707053
 10
11.66390365994671
 20
8.688560666115896
 10
11.73080103622317
 20
8.71754834237458
 10
11.80328778890547
 20
8.738779220689032
 10
11.87957905357283
 20
8.75173052637391
 10
11.95779628609295
 20
8.756083355300335
  0
LWPOLYLINE
  5
C0
330
1F
100
AcDbEntity
  8
0
  6
SLD-Solid
 62
     7
370
    25
100
AcDbPolyline
 90
       11
 70
   128
 43
0.0
 10
11.95779628609295
 20
8.756083355300335
 10
12.03601351861306
 20
8.751730526373917
 10
12.11230478328042
 20
8.73877922068904
 10
12.18479153596272
 20
8.717548342374585
 10
12.25168891223918
 20
8.688560666115901
 10
12.31134967668622
 20
8.652529964707057
 10
12.36230478328042
 20
8.61034343359578
 10
12.40329954818713
 20
8.563039845187102
 10
12.43332454424052
 20
8.511783970819254
 10
12.45164045639051
 20
8.457837900227664
 10
12.45779628609294
 20
8.40252996470705
  0
LINE
  5
C1
330
1F
100
AcDbEntity
  8
0
  6
SLD-Solid
 62
     7
370
    25
100
AcDbLine
 10
12.45779628609294
 20
8.40252996470705
 30
0.0
 11
12.45779628609294
 21
8.331819286588399
 31
0.0
  0
LINE
  5
C2
330
1F
100
AcDbEntity
  8
0
  6
SLD-Solid
 62
     7
370
    25
100
AcDbLine
 10
11.45779628609285
 20
7.949981624747659
 30
0.0
 11
11.45779628609294
 21
8.052494251332355
 31
0.0
  0
LINE
  5
C3
330
1F
100
AcDbEntity
  8
0
  6
SLD-Solid
 62
     7
370
    25
100
AcDbLine
 10
12.45779628609294
 20
8.052494251332359
 30
0.0
 11
12.45779628609292
 21
7.949981624747649
 31
0.0
  0
LINE
  5
C4
330
1F
100
AcDbEntity
  8
0
  6
SLD-Solid
 62
     7
370
    25
100
AcDbLine
 10
11.45779628609293
 20
12.35021252452209
 30
0.0
 11
11.45779628609292
 21
12.24455795908694
 31
0.0
  0
LINE
  5
C5
330
1F
100
AcDbEntity
  8
0
  6
SLD-Solid
 62
     7
370
    25
100
AcDbLine
 10
12.45779628609292
 20
12.2445579590869
 30
0.0
 11
12.45779628609292
 21
12.35021252452205
 31
0.0
  0
LINE
  5
C6
330
1F
100
AcDbEntity
  8
0
  6
SLD-Solid
 62
     7
370
    25
100
AcDbLine
 10
11.45779628609285
 20
8.402529964707048
 30
0.0
 11
11.45779628609292
 21
12.24455795908694
 31
0.0
  0
LINE
  5
C7
330
1F
100
AcDbEntity
  8
0
  6
SLD-Solid
 62
     7
370
    25
100
AcDbLine
 10
12.45779628609292
 20
12.2445579590869
 30
0.0
 11
12.45779628609285
 21
8.402529964707053
 31
0.0
  0
LINE
  5
C8
330
1F
100
AcDbEntity
  8
0
  6
SLD-Solid
 62
     7
370
    25
100
AcDbLine
 10
17.83279628609293
 20
12.35021252452211
 30
0.0
 11
17.83279628609284
 21
15.08234653095027
 31
0.0
  0
ARC
  5
C9
330
1F
100
AcDbEntity
  8
0
  6
SLD-Solid
 62
     7
370
    25
100
AcDbCircle
 10
18.3104705116983
 20
15.05771276445945
 30
0.0
 40
0.4783089882694015
100
AcDbArc
 50
87.324663299489
 51
177.0478590625973
  0
ARC
  5
CA
330
1F
100
AcDbEntity
  8
0
  6
SLD-Solid
 62
     7
370
    25
100
AcDbCircle
 10
18.35512206048751
 20
15.0577127644596
 30
0.0
 40
0.4783089882692569
100
AcDbArc
 50
2.952140937380776
 51
92.6753367005276
  0
LINE
  5
CB
330
1F
100
AcDbEntity
  8
0
  6
SLD-Solid
 62
     7
370
    25
100
AcDbLine
 10
18.83279628609284
 20
15.08234653095023
 30
0.0
 11
18.83279628609293
 21
12.35021252452207
 31
0.0
  0
LINE
  5
CC
330
1F
100
AcDbEntity
  8
0
  6
SLD-Solid
 62
     7
370
    25
100
AcDbLine
 10
17.83279628609284
 20
15.08234653095027
 30
0.0
 11
17.83279628609293
 21
15.12460835712434
 31
0.0
  0
ARC
  5
CD
330
1F
100
AcDbEntity
  8
0
  6
SLD-Solid
 62
     7
370
    25
100
AcDbCircle
 10
18.31047051169806
 20
15.09997459063378
 30
0.0
 40
0.4783089882690582
100
AcDbArc
 50
87.3246632994581
 51
177.0478590626265
  0
LINE
  5
CE
330
1F
100
AcDbEntity
  8
0
  6
SLD-Solid
 62
     7
370
    25
100
AcDbLine
 10
18.83279628609293
 20
15.1246083571243
 30
0.0
 11
18.83279628609284
 21
15.08234653095023
 31
0.0
  0
ARC
  5
CF
330
1F
100
AcDbEntity
  8
0
  6
SLD-Solid
 62
     7
370
    25
100
AcDbCircle
 10
18.35512206048737
 20
15.09997459063331
 30
0.0
 40
0.4783089882695143
100
AcDbArc
 50
2.952140937422234
 51
92.67533670050868
  0
LINE
  5
D0
330
1F
100
AcDbEntity
  8
0
  6
SLD-Solid
 62
     7
370
    25
100
AcDbLine
 10
18.83279628609295
 20
8.052494251332382
 30
0.0
 11
18.83279628609295
 21
8.331819286588422
 31
0.0
  0
LINE
  5
D1
330
1F
100
AcDbEntity
  8
0
  6
SLD-Solid
 62
     7
370
    25
100
AcDbLine
 10
17.83279628609295
 20
8.331819286588418
 30
0.0
 11
17.83279628609295
 21
8.052494251332378
 31
0.0
  0
LWPOLYLINE
  5
D2
330
1F
100
AcDbEntity
  8
0
  6
SLD-Solid
 62
     7
370
    25
100
AcDbPolyline
 90
       11
 70
   128
 43
0.0
 10
18.33279628609295
 20
8.685372677181705
 10
18.25457905357284
 20
8.681019848255286
 10
18.17828778890548
 20
8.66806854257041
 10
18.10580103622318
 20
8.646837664255955
 10
18.03890365994672
 20
8.617849987997273
 10
17.97924289549969
 20
8.58181928658843
 10
17.92828778890549
 20
8.539632755477156
 10
17.88729302399878
 20
8.49232916706848
 10
17.85726802794538
 20
8.441073292700633
 10
17.83895211579539
 20
8.387127222109045
 10
17.83279628609295
 20
8.331819286588418
  0
LWPOLYLINE
  5
D3
330
1F
100
AcDbEntity
  8
0
  6
SLD-Solid
 62
     7
370
    25
100
AcDbPolyline
 90
       11
 70
   128
 43
0.0
 10
18.83279628609295
 20
8.331819286588422
 10
18.82664045639052
 20
8.38712722210904
 10
18.80832454424052
 20
8.441073292700628
 10
18.77829954818713
 20
8.492329167068474
 10
18.73730478328042
 20
8.539632755477149
 10
18.68634967668622
 20
8.581819286588424
 10
18.62668891223919
 20
8.617849987997266
 10
18.55979153596272
 20
8.64683766425595
 10
18.48730478328042
 20
8.668068542570403
 10
18.41101351861306
 20
8.68101984825528
 10
18.33279628609295
 20
8.685372677181705
  0
LINE
  5
D4
330
1F
100
AcDbEntity
  8
0
  6
SLD-Solid
 62
     7
370
    25
100
AcDbLine
 10
17.83279628609295
 20
8.331819286588418
 30
0.0
 11
17.83279628609295
 21
8.402529964707071
 31
0.0
  0
LWPOLYLINE
  5
D5
330
1F
100
AcDbEntity
  8
0
  6
SLD-Solid
 62
     7
370
    25
100
AcDbPolyline
 90
       11
 70
   128
 43
0.0
 10
17.83279628609295
 20
8.402529964707071
 10
17.83895211579538
 20
8.45783790022769
 10
17.85726802794537
 20
8.511783970819277
 10
17.88729302399877
 20
8.563039845187125
 10
17.92828778890548
 20
8.610343433595801
 10
17.97924289549968
 20
8.652529964707075
 10
18.03890365994671
 20
8.688560666115917
 10
18.10580103622317
 20
8.717548342374602
 10
18.17828778890548
 20
8.738779220689056
 10
18.25457905357283
 20
8.751730526373933
 10
18.33279628609295
 20
8.756083355300358
  0
LWPOLYLINE
  5
D6
330
1F
100
AcDbEntity
  8
0
  6
SLD-Solid
 62
     7
370
    25
100
AcDbPolyline
 90
       11
 70
   128
 43
0.0
 10
18.33279628609295
 20
8.756083355300358
 10
18.41101351861306
 20
8.751730526373938
 10
18.48730478328042
 20
8.738779220689063
 10
18.55979153596272
 20
8.717548342374608
 10
18.62668891223919
 20
8.688560666115924
 10
18.68634967668622
 20
8.652529964707078
 10
18.73730478328042
 20
8.610343433595803
 10
18.77829954818713
 20
8.563039845187125
 10
18.80832454424052
 20
8.511783970819277
 10
18.82664045639051
 20
8.457837900227686
 10
18.83279628609295
 20
8.402529964707073
  0
LINE
  5
D7
330
1F
100
AcDbEntity
  8
0
  6
SLD-Solid
 62
     7
370
    25
100
AcDbLine
 10
18.83279628609295
 20
8.402529964707073
 30
0.0
 11
18.83279628609295
 21
8.331819286588422
 31
0.0
  0
LINE
  5
D8
330
1F
100
AcDbEntity
  8
0
  6
SLD-Solid
 62
     7
370
    25
100
AcDbLine
 10
17.83279628609285
 20
7.94998162474768
 30
0.0
 11
17.83279628609295
 21
8.052494251332378
 31
0.0
  0
LINE
  5
D9
330
1F
100
AcDbEntity
  8
0
  6
SLD-Solid
 62
     7
370
    25
100
AcDbLine
 10
18.83279628609295
 20
8.052494251332382
 30
0.0
 11
18.83279628609292
 21
7.949981624747672
 31
0.0
  0
LINE
  5
DA
330
1F
100
AcDbEntity
  8
0
  6
SLD-Solid
 62
     7
370
    25
100
AcDbLine
 10
18.83279628609293
 20
12.24455795908692
 30
0.0
 11
18.83279628609293
 21
12.35021252452207
 31
0.0
  0
LINE
  5
DB
330
1F
100
AcDbEntity
  8
0
  6
SLD-Solid
 62
     7
370
    25
100
AcDbLine
 10
17.83279628609293
 20
12.35021252452211
 30
0.0
 11
17.83279628609293
 21
12.24455795908696
 31
0.0
  0
LINE
  5
DC
330
1F
100
AcDbEntity
  8
0
  6
SLD-Solid
 62
     7
370
    25
100
AcDbLine
 10
18.83279628609293
 20
12.24455795908692
 30
0.0
 11
18.83279628609285
 21
8.402529964707076
 31
0.0
  0
LINE
  5
DD
330
1F
100
AcDbEntity
  8
0
  6
SLD-Solid
 62
     7
370
    25
100
AcDbLine
 10
17.83279628609285
 20
8.402529964707067
 30
0.0
 11
17.83279628609293
 21
12.24455795908696
 31
0.0
  0
LINE
  5
DE
330
1F
100
AcDbEntity
  8
OBJECT
  6
SLD-Solid
370
    25
100
AcDbLine
 10
24.20779628609293
 20
12.35021252452213
 30
0.0
 11
24.20779628609284
 21
15.08234653095029
 31
0.0
  0
ARC
  5
DF
330
1F
100
AcDbEntity
  8
OBJECT
  6
SLD-Solid
370
    25
100
AcDbCircle
 10
24.68547051169828
 20
15.05771276445948
 30
0.0
 40
0.4783089882693949
100
AcDbArc
 50
87.32466329948726
 51
177.0478590625981
  0
ARC
  5
E0
330
1F
100
AcDbEntity
  8
OBJECT
  6
SLD-Solid
370
    25
100
AcDbCircle
 10
24.73012206048752
 20
15.05771276445963
 30
0.0
 40
0.4783089882692531
100
AcDbArc
 50
2.952140937380161
 51
92.67533670052804
  0
LINE
  5
E1
330
1F
100
AcDbEntity
  8
OBJECT
  6
SLD-Solid
370
    25
100
AcDbLine
 10
25.20779628609284
 20
15.08234653095025
 30
0.0
 11
25.20779628609293
 21
12.35021252452209
 31
0.0
  0
LINE
  5
E2
330
1F
100
AcDbEntity
  8
OBJECT
  6
SLD-Solid
370
    25
100
AcDbLine
 10
24.20779628609284
 20
15.08234653095029
 30
0.0
 11
24.20779628609293
 21
15.12460835712436
 31
0.0
  0
ARC
  5
E3
330
1F
100
AcDbEntity
  8
OBJECT
  6
SLD-Solid
370
    25
100
AcDbCircle
 10
24.68547051169806
 20
15.09997459063379
 30
0.0
 40
0.4783089882690647
100
AcDbArc
 50
87.32466329945856
 51
177.0478590626257
  0
LINE
  5
E4
330
1F
100
AcDbEntity
  8
OBJECT
  6
SLD-Solid
370
    25
100
AcDbLine
 10
25.20779628609293
 20
15.12460835712432
 30
0.0
 11
25.20779628609284
 21
15.08234653095025
 31
0.0
  0
ARC
  5
E5
330
1F
100
AcDbEntity
  8
OBJECT
  6
SLD-Solid
370
    25
100
AcDbCircle
 10
24.73012206048738
 20
15.09997459063334
 30
0.0
 40
0.4783089882695061
100
AcDbArc
 50
2.952140937421237
 51
92.67533670051043
  0
LINE
  5
E6
330
1F
100
AcDbEntity
  8
OBJECT
  6
SLD-Solid
370
    25
100
AcDbLine
 10
25.20779628609295
 20
8.052494251332403
 30
0.0
 11
25.20779628609295
 21
8.331819286588443
 31
0.0
  0
LINE
  5
E7
330
1F
100
AcDbEntity
  8
OBJECT
  6
SLD-Solid
370
    25
100
AcDbLine
 10
24.20779628609295
 20
8.33181928658844
 30
0.0
 11
24.20779628609294
 21
8.0524942513324
 31
0.0
  0
LWPOLYLINE
  5
E8
330
1F
100
AcDbEntity
  8
OBJECT
  6
SLD-Solid
370
    25
100
AcDbPolyline
 90
       11
 70
   128
 43
0.0
 10
24.70779628609295
 20
8.685372677181727
 10
24.62957905357284
 20
8.681019848255309
 10
24.55328778890548
 20
8.668068542570433
 10
24.48080103622318
 20
8.646837664255978
 10
24.41390365994673
 20
8.617849987997294
 10
24.35424289549969
 20
8.581819286588452
 10
24.30328778890549
 20
8.539632755477177
 10
24.26229302399878
 20
8.492329167068501
 10
24.23226802794538
 20
8.441073292700654
 10
24.21395211579539
 20
8.387127222109068
 10
24.20779628609295
 20
8.33181928658844
  0
LWPOLYLINE
  5
E9
330
1F
100
AcDbEntity
  8
OBJECT
  6
SLD-Solid
370
    25
100
AcDbPolyline
 90
       11
 70
   128
 43
0.0
 10
25.20779628609295
 20
8.331819286588443
 10
25.20164045639052
 20
8.387127222109061
 10
25.18332454424052
 20
8.441073292700649
 10
25.15329954818713
 20
8.492329167068496
 10
25.11230478328042
 20
8.539632755477172
 10
25.06134967668622
 20
8.581819286588447
 10
25.00168891223919
 20
8.617849987997289
 10
24.93479153596272
 20
8.64683766425597
 10
24.86230478328042
 20
8.668068542570424
 10
24.78601351861306
 20
8.681019848255302
 10
24.70779628609295
 20
8.685372677181727
  0
LINE
  5
EA
330
1F
100
AcDbEntity
  8
OBJECT
  6
SLD-Solid
370
    25
100
AcDbLine
 10
24.20779628609295
 20
8.33181928658844
 30
0.0
 11
24.20779628609295
 21
8.402529964707092
 31
0.0
  0
LWPOLYLINE
  5
EB
330
1F
100
AcDbEntity
  8
OBJECT
  6
SLD-Solid
370
    25
100
AcDbPolyline
 90
       11
 70
   128
 43
0.0
 10
24.20779628609295
 20
8.402529964707092
 10
24.21395211579538
 20
8.457837900227712
 10
24.23226802794537
 20
8.5117839708193
 10
24.26229302399876
 20
8.563039845187147
 10
24.30328778890548
 20
8.610343433595823
 10
24.35424289549967
 20
8.652529964707096
 10
24.41390365994671
 20
8.688560666115938
 10
24.48080103622318
 20
8.717548342374624
 10
24.55328778890547
 20
8.738779220689077
 10
24.62957905357284
 20
8.751730526373954
 10
24.70779628609295
 20
8.75608335530038
  0
LWPOLYLINE
  5
EC
330
1F
100
AcDbEntity
  8
OBJECT
  6
SLD-Solid
370
    25
100
AcDbPolyline
 90
       11
 70
   128
 43
0.0
 10
24.70779628609295
 20
8.75608335530038
 10
24.78601351861306
 20
8.751730526373962
 10
24.86230478328042
 20
8.738779220689084
 10
24.93479153596272
 20
8.71754834237463
 10
25.00168891223919
 20
8.688560666115945
 10
25.06134967668622
 20
8.652529964707101
 10
25.11230478328042
 20
8.610343433595824
 10
25.15329954818713
 20
8.563039845187147
 10
25.18332454424052
 20
8.511783970819298
 10
25.20164045639051
 20
8.457837900227707
 10
25.20779628609295
 20
8.402529964707094
  0
LINE
  5
ED
330
1F
100
AcDbEntity
  8
OBJECT
  6
SLD-Solid
370
    25
100
AcDbLine
 10
25.20779628609295
 20
8.402529964707094
 30
0.0
 11
25.20779628609295
 21
8.331819286588443
 31
0.0
  0
LINE
  5
EE
330
1F
100
AcDbEntity
  8
OBJECT
  6
SLD-Solid
370
    25
100
AcDbLine
 10
24.20779628609285
 20
7.949981624747703
 30
0.0
 11
24.20779628609294
 21
8.0524942513324
 31
0.0
  0
LINE
  5
EF
330
1F
100
AcDbEntity
  8
OBJECT
  6
SLD-Solid
370
    25
100
AcDbLine
 10
25.20779628609295
 20
8.052494251332403
 30
0.0
 11
25.20779628609292
 21
7.949981624747694
 31
0.0
  0
LINE
  5
F0
330
1F
100
AcDbEntity
  8
OBJECT
  6
SLD-Solid
370
    25
100
AcDbLine
 10
24.20779628609293
 20
12.35021252452213
 30
0.0
 11
24.20779628609293
 21
12.24455795908698
 31
0.0
  0
LINE
  5
F1
330
1F
100
AcDbEntity
  8
OBJECT
  6
SLD-Solid
370
    25
100
AcDbLine
 10
25.20779628609293
 20
12.24455795908694
 30
0.0
 11
25.20779628609293
 21
12.35021252452209
 31
0.0
  0
LINE
  5
F2
330
1F
100
AcDbEntity
  8
OBJECT
  6
SLD-Solid
370
    25
100
AcDbLine
 10
24.20779628609285
 20
8.402529964707089
 30
0.0
 11
24.20779628609293
 21
12.24455795908698
 31
0.0
  0
LINE
  5
F3
330
1F
100
AcDbEntity
  8
OBJECT
  6
SLD-Solid
370
    25
100
AcDbLine
 10
25.20779628609293
 20
12.24455795908694
 30
0.0
 11
25.20779628609285
 21
8.402529964707094
 31
0.0
  0
LINE
  5
F4
330
1F
100
AcDbEntity
  8
OBJECT
  6
SLD-Solid
370
    25
100
AcDbLine
 10
26.33279628609294
 20
9.171057959086944
 30
0.0
 11
26.33279628609294
 21
9.09605795908694
 31
0.0
  0
LINE
  5
F5
330
1F
100
AcDbEntity
  8
OBJECT
  6
SLD-Solid
370
    25
100
AcDbLine
 10
10.33279628609293
 20
9.096057959086885
 30
0.0
 11
11.45779628609286
 21
9.096057959086888
 31
0.0
  0
LINE
  5
F6
330
1F
100
AcDbEntity
  8
OBJECT
  6
SLD-Solid
370
    25
100
AcDbLine
 10
12.45779628609287
 20
9.096057959086892
 30
0.0
 11
17.83279628609287
 21
9.09605795908691
 31
0.0
  0
LINE
  5
F7
330
1F
100
AcDbEntity
  8
OBJECT
  6
SLD-Solid
370
    25
100
AcDbLine
 10
18.83279628609287
 20
9.096057959086915
 30
0.0
 11
24.20779628609287
 21
9.096057959086933
 31
0.0
  0
LINE
  5
F8
330
1F
100
AcDbEntity
  8
OBJECT
  6
SLD-Solid
370
    25
100
AcDbLine
 10
25.20779628609287
 20
9.096057959086936
 30
0.0
 11
26.33279628609294
 21
9.09605795908694
 31
0.0
  0
LINE
  5
F9
330
1F
100
AcDbEntity
  8
OBJECT
  6
SLD-Solid
370
    25
100
AcDbLine
 10
10.33279628609293
 20
9.096057959086885
 30
0.0
 11
10.33279628609293
 21
9.171057959086887
 31
0.0
  0
LINE
  5
FA
330
1F
100
AcDbEntity
  8
OBJECT
  6
SLD-Solid
370
    25
100
AcDbLine
 10
10.33279628609293
 20
9.171057959086887
 30
0.0
 11
10.33279628609292
 21
12.01805795908689
 31
0.0
  0
LINE
  5
FB
330
1F
100
AcDbEntity
  8
OBJECT
  6
SLD-Solid
370
    25
100
AcDbLine
 10
26.33279628609292
 20
12.01805795908694
 30
0.0
 11
26.33279628609294
 21
9.171057959086944
 31
0.0
  0
CIRCLE
  5
FC
330
1F
100
AcDbEntity
  8
OBJECT
  6
SLD-Solid
370
    25
100
AcDbCircle
 10
10.88279628609293
 20
10.59455795908689
 30
0.0
 40
0.1000000000000014
  0
CIRCLE
  5
FD
330
1F
100
AcDbEntity
  8
OBJECT
  6
SLD-Solid
370
    25
100
AcDbCircle
 10
25.78279628609293
 20
10.59455795908694
 30
0.0
 40
0.1000000000000014
  0
LINE
  5
FE
330
1F
100
AcDbEntity
  8
OBJECT
  6
SLD-Solid
370
    25
100
AcDbLine
 10
26.33279628609292
 20
12.09305795908694
 30
0.0
 11
25.20779628609292
 21
12.09305795908694
 31
0.0
  0
LINE
  5
FF
330
1F
100
AcDbEntity
  8
OBJECT
  6
SLD-Solid
370
    25
100
AcDbLine
 10
24.20779628609292
 20
12.09305795908693
 30
0.0
 11
18.83279628609292
 21
12.09305795908691
 31
0.0
  0
LINE
  5
100
330
1F
100
AcDbEntity
  8
OBJECT
  6
SLD-Solid
370
    25
100
AcDbLine
 10
17.83279628609292
 20
12.09305795908691
 30
0.0
 11
12.45779628609292
 21
12.09305795908689
 31
0.0
  0
LINE
  5
101
330
1F
100
AcDbEntity
  8
OBJECT
  6
SLD-Solid
370
    25
100
AcDbLine
 10
11.45779628609292
 20
12.09305795908689
 30
0.0
 11
10.33279628609292
 21
12.09305795908688
 31
0.0
  0
LINE
  5
102
330
1F
100
AcDbEntity
  8
OBJECT
  6
SLD-Solid
370
    25
100
AcDbLine
 10
26.33279628609292
 20
12.09305795908694
 30
0.0
 11
26.33279628609292
 21
12.01805795908694
 31
0.0
  0
LINE
  5
103
330
1F
100
AcDbEntity
  8
OBJECT
  6
SLD-Solid
370
    25
100
AcDbLine
 10
10.33279628609292
 20
12.01805795908689
 30
0.0
 11
10.33279628609292
 21
12.09305795908688
 31
0.0
  0
DIMENSION
  5
104
330
1F
100
AcDbEntity
  8
DIMS
100
AcDbDimension
  2
_D
 10
26.3327962860929
 20
17.38878587268997
 30
0.0
 11
17.99763134869528
 21
17.38878587268994
 31
0.0
 70
    32
  1
<>
 71
     2
 42
-1.0
  3
SLDDIMSTYLE0
100
AcDbAlignedDimension
 13
10.33279628609292
 23
12.09305795908688
 33
0.0
 14
26.33279628609292
 24
12.09305795908694
 34
0.0
 50
0.0000000000002036
100
AcDbRotatedDimension
  0
DIMENSION
  5
116
330
1F
100
AcDbEntity
  8
DIMS
100
AcDbDimension
  2
_D_1
 10
25.72970199775581
 20
10.67929871991651
 30
0.0
 11
27.90263054886626
 21
9.20008605417907
 31
0.0
 70
    35
  1
<>
 71
     1
 42
-1.0
  3
SLDDIMSTYLE1
100
AcDbDiametricDimension
 15
25.83589057443005
 25
10.50981719825737
 35
0.0
 40
0.0
  0
DIMENSION
  5
123
330
1F
100
AcDbEntity
  8
DIMS
100
AcDbDimension
  2
_D_2
 10
18.33279628609283
 20
15.98414158589647
 30
0.0
 11
15.14529628609283
 21
15.98414158589646
 31
0.0
 70
    32
  1
<>
 71
     2
 42
-1.0
  3
SLDDIMSTYLE2
100
AcDbAlignedDimension
 13
11.95779628609283
 23
15.53550042446854
 33
0.0
 14
18.33279628609283
 24
15.53550042446856
 34
0.0
 50
0.0000000000001916
100
AcDbRotatedDimension
  0
DIMENSION
  5
133
330
1F
100
AcDbEntity
  8
DIMS
100
AcDbDimension
  2
_D_3
 10
10.33279628609291
 20
15.98414158589646
 30
0.0
 11
11.03847298241643
 21
15.98414158589646
 31
0.0
 70
    32
  1
<>
 71
     2
 42
-1.0
  3
SLDDIMSTYLE3
100
AcDbAlignedDimension
 13
11.95779628609283
 23
15.53550042446854
 33
0.0
 14
10.33279628609292
 24
12.09305795908688
 34
0.0
 50
0.0000000000002505
100
AcDbRotatedDimension
  0
MTEXT
  5
143
330
1F
100
AcDbEntity
  8
NOTES
100
AcDbMText
 10
2.402016704031343
 20
8.767736891602476
 30
0.0
 40
0.5
 41
0.0
 71
     1
 72
     1
  1
mounting holes (2)
  7
SLDTEXTSTYLE1
 73
     1
 44
1.0
  0
LEADER
  5
145
330
1F
100
AcDbEntity
  8
NOTES
100
AcDbLeader
  3
SLDDIMSTYLE4
 76
     3
 10
10.80299770864276
 20
10.53429033065396
 30
0.0
 10
8.904528014135616
 20
8.524428287000386
 30
0.0
 10
8.404528014135616
 20
8.524428287000386
 30
0.0
1001
ACAD
1000
DSTYLE
1002
{
1070
   176
1070
     0
1070
    77
1070
     0
1070
    40
1040
1.0
1070
   147
1040
0.0
1002
}
  0
MTEXT
  5
146
330
1F
100
AcDbEntity
  8
NOTES
100
AcDbMText
 10
1.555488776527524
 20
10.96712083623127
 30
0.0
 40
0.5
 41
0.0
 71
     1
 72
     1
  1
20 gauge Stainless Steel
  7
SLDTEXTSTYLE1
 73
     1
 44
1.0
  0
LWPOLYLINE
  5
147
330
1F
100
AcDbEntity
  8
NOTES
100
AcDbPolyline
 90
        3
 70
   128
 43
0.0
 10
9.252298631314885
 20
10.72492627026006
 10
9.752298631314885
 20
10.72492627026006
 10
10.33279628609293
 20
11.5226666634336
  0
INSERT
  5
148
330
1F
100
AcDbEntity
  8
NOTES
100
AcDbBlockReference
  2
_Open90
 10
10.33279628609293
 20
11.5226666634336
 30
-0.1383735972072064
 41
0.5
 42
0.5
 50
53.95746462964266
  0
MTEXT
  5
149
330
1F
100
AcDbEntity
  8
NOTES
100
AcDbMText
 10
1.555488776527457
 20
13.57598646152987
 30
0.0
 40
0.5
 41
0.0
 71
     1
 72
     1
  1
12 gauge Stainless Steel
  7
SLDTEXTSTYLE1
 73
     1
 44
1.0
  0
LEADER
  5
14A
330
1F
100
AcDbEntity
  8
NOTES
100
AcDbLeader
  3
SLDDIMSTYLE4
 76
     3
 10
11.45779628609286
 20
14.29951980293644
 30
0.0
 10
9.752298631314885
 20
13.32969110639418
 30
0.0
 10
9.252298631314885
 20
13.32969110639418
 30
0.0
1001
ACAD
1000
DSTYLE
1002
{
1070
   176
1070
     0
1070
    77
1070
     0
1070
    40
1040
1.0
1070
   147
1040
0.0
1002
}
  0
LINE
  5
14B
330
1F
100
AcDbEntity
  8
0
  6
SLD-Solid
 62
     7
370
    25
100
AcDbLine
 10
32.43300400015197
 20
9.532057959086936
 30
0.0
 11
32.40800400015198
 21
9.532057959086936
 31
0.0
  0
LINE
  5
14C
330
1F
100
AcDbEntity
  8
0
  6
SLD-Solid
 62
     7
370
    25
100
AcDbLine
 10
32.40800400015198
 20
9.157057959086936
 30
0.0
 11
32.43300400015197
 21
9.157057959086936
 31
0.0
  0
LINE
  5
14D
330
1F
100
AcDbEntity
  8
0
  6
SLD-Solid
 62
     7
370
    25
100
AcDbLine
 10
32.40800400015198
 20
9.532057959086938
 30
0.0
 11
32.37800400015197
 21
9.427435525771708
 31
0.0
  0
LINE
  5
14E
330
1F
100
AcDbEntity
  8
0
  6
SLD-Solid
 62
     7
370
    25
100
AcDbLine
 10
32.37800400015197
 20
9.261680392402162
 30
0.0
 11
32.40800400015198
 21
9.157057959086934
 31
0.0
  0
LINE
  5
14F
330
1F
100
AcDbEntity
  8
0
  6
SLD-Solid
 62
     7
370
    25
100
AcDbLine
 10
32.56800400015206
 20
9.252557959086937
 30
0.0
 11
32.68800400015197
 21
9.252557959086937
 31
0.0
  0
LINE
  5
150
330
1F
100
AcDbEntity
  8
0
  6
SLD-Solid
 62
     7
370
    25
100
AcDbLine
 10
32.68800400015197
 20
9.436557959086937
 30
0.0
 11
32.56800400015207
 21
9.436557959086937
 31
0.0
  0
LINE
  5
151
330
1F
100
AcDbEntity
  8
0
  6
SLD-Solid
 62
     7
370
    25
100
AcDbLine
 10
32.43300400015197
 20
12.03205795908694
 30
0.0
 11
32.40800400015198
 21
12.03205795908694
 31
0.0
  0
LINE
  5
152
330
1F
100
AcDbEntity
  8
0
  6
SLD-Solid
 62
     7
370
    25
100
AcDbLine
 10
32.40800400015198
 20
11.65705795908694
 30
0.0
 11
32.43300400015197
 21
11.65705795908694
 31
0.0
  0
LINE
  5
153
330
1F
100
AcDbEntity
  8
0
  6
SLD-Solid
 62
     7
370
    25
100
AcDbLine
 10
32.40800400015198
 20
12.03205795908694
 30
0.0
 11
32.37800400015197
 21
11.92743552577171
 31
0.0
  0
LINE
  5
154
330
1F
100
AcDbEntity
  8
0
  6
SLD-Solid
 62
     7
370
    25
100
AcDbLine
 10
32.37800400015197
 20
11.76168039240216
 30
0.0
 11
32.40800400015198
 21
11.65705795908694
 31
0.0
  0
LINE
  5
155
330
1F
100
AcDbEntity
  8
0
  6
SLD-Solid
 62
     7
370
    25
100
AcDbLine
 10
32.56800400015216
 20
11.75255795908694
 30
0.0
 11
32.68800400015197
 21
11.75255795908694
 31
0.0
  0
LINE
  5
156
330
1F
100
AcDbEntity
  8
0
  6
SLD-Solid
 62
     7
370
    25
100
AcDbLine
 10
32.68800400015197
 20
11.93655795908694
 30
0.0
 11
32.56800400015216
 21
11.93655795908694
 31
0.0
  0
LINE
  5
157
330
1F
100
AcDbEntity
  8
0
  6
SLD-Solid
 62
     7
370
    25
100
AcDbLine
 10
32.40800400015198
 20
9.532057959086936
 30
0.0
 11
32.40800400015198
 21
9.157057959086936
 31
0.0
  0
LINE
  5
158
330
1F
100
AcDbEntity
  8
0
  6
SLD-Solid
 62
     7
370
    25
100
AcDbLine
 10
32.37800400015197
 20
9.261680392402162
 30
0.0
 11
32.37800400015197
 21
9.427435525771708
 31
0.0
  0
LINE
  5
159
330
1F
100
AcDbEntity
  8
0
  6
SLD-Solid
 62
     7
370
    25
100
AcDbLine
 10
32.68800400015197
 20
9.436557959086937
 30
0.0
 11
32.68800400015197
 21
9.252557959086937
 31
0.0
  0
LINE
  5
15A
330
1F
100
AcDbEntity
  8
0
  6
SLD-Solid
 62
     7
370
    25
100
AcDbLine
 10
32.40800400015198
 20
12.03205795908694
 30
0.0
 11
32.40800400015198
 21
11.65705795908694
 31
0.0
  0
LINE
  5
15B
330
1F
100
AcDbEntity
  8
0
  6
SLD-Solid
 62
     7
370
    25
100
AcDbLine
 10
32.37800400015197
 20
11.76168039240216
 30
0.0
 11
32.37800400015197
 21
11.92743552577171
 31
0.0
  0
LINE
  5
15C
330
1F
100
AcDbEntity
  8
0
  6
SLD-Solid
 62
     7
370
    25
100
AcDbLine
 10
32.68800400015197
 20
11.93655795908694
 30
0.0
 11
32.68800400015197
 21
11.75255795908694
 31
0.0
  0
LINE
  5
15D
330
1F
100
AcDbEntity
  8
OBJECT
  6
SLD-Solid
370
    25
100
AcDbLine
 10
31.3026382008875
 20
8.685372677181727
 30
0.0
 11
31.37334887900613
 21
8.75608335530038
 31
0.0
  0
LINE
  5
15E
330
1F
100
AcDbEntity
  8
OBJECT
  6
SLD-Solid
370
    25
100
AcDbLine
 10
31.37334887900613
 20
8.75608335530038
 30
0.0
 11
31.7269022695994
 21
8.402529964707094
 31
0.0
  0
LINE
  5
15F
330
1F
100
AcDbEntity
  8
OBJECT
  6
SLD-Solid
370
    25
100
AcDbLine
 10
31.65619159148074
 20
8.331819286588443
 30
0.0
 11
31.3026382008875
 21
8.685372677181727
 31
0.0
  0
LINE
  5
160
330
1F
100
AcDbEntity
  8
OBJECT
  6
SLD-Solid
370
    25
100
AcDbLine
 10
32.00622730485539
 20
8.123204929451056
 30
0.0
 11
31.7269022695994
 21
8.402529964707094
 31
0.0
  0
LINE
  5
161
330
1F
100
AcDbEntity
  8
OBJECT
  6
SLD-Solid
370
    25
100
AcDbLine
 10
31.93551662673674
 20
8.052494251332403
 30
0.0
 11
31.65619159148074
 21
8.331819286588443
 31
0.0
  0
ARC
  5
162
330
1F
100
AcDbEntity
  8
OBJECT
  6
SLD-Solid
370
    25
100
AcDbCircle
 10
32.18300400015203
 20
8.299981624747685
 30
0.0
 40
0.2499999999999957
100
AcDbArc
 50
224.9999999999994
 51
359.9999999999987
  0
ARC
  5
163
330
1F
100
AcDbEntity
  8
OBJECT
  6
SLD-Solid
370
    25
100
AcDbCircle
 10
32.18300400015203
 20
8.299981624747685
 30
0.0
 40
0.3499999999999918
100
AcDbArc
 50
225.0
 51
359.9999999999853
  0
LINE
  5
164
330
1F
100
AcDbEntity
  8
OBJECT
  6
SLD-Solid
370
    25
100
AcDbLine
 10
32.43300400015217
 20
12.24455795908694
 30
0.0
 11
32.43300400015202
 21
8.299981624747677
 31
0.0
  0
LINE
  5
165
330
1F
100
AcDbEntity
  8
OBJECT
  6
SLD-Solid
370
    25
100
AcDbLine
 10
32.53300400015217
 20
12.24455795908694
 30
0.0
 11
32.53300400015216
 21
12.01805795908694
 31
0.0
  0
LINE
  5
166
330
1F
100
AcDbEntity
  8
OBJECT
  6
SLD-Solid
370
    25
100
AcDbLine
 10
32.53300400015205
 20
9.171057959086944
 30
0.0
 11
32.53300400015201
 21
8.299981624747673
 31
0.0
  0
LINE
  5
167
330
1F
100
AcDbEntity
  8
OBJECT
  6
SLD-Solid
370
    25
100
AcDbLine
 10
31.22619671531207
 20
15.12460835712432
 30
0.0
 11
32.500211725615
 21
12.39247435069616
 31
0.0
  0
LINE
  5
168
330
1F
100
AcDbEntity
  8
OBJECT
  6
SLD-Solid
370
    25
100
AcDbLine
 10
31.13556593660844
 20
15.08234653095025
 30
0.0
 11
32.40958094691134
 21
12.35021252452209
 31
0.0
  0
LINE
  5
169
330
1F
100
AcDbEntity
  8
OBJECT
  6
SLD-Solid
370
    25
100
AcDbLine
 10
31.01488758444175
 20
15.57776225064255
 30
0.0
 11
30.92425680573808
 21
15.53550042446858
 31
0.0
  0
LINE
  5
16A
330
1F
100
AcDbEntity
  8
OBJECT
  6
SLD-Solid
370
    25
100
AcDbLine
 10
31.01488758444175
 20
15.57776225064255
 30
0.0
 11
31.22619671531207
 21
15.12460835712432
 31
0.0
  0
LINE
  5
16B
330
1F
100
AcDbEntity
  8
OBJECT
  6
SLD-Solid
370
    25
100
AcDbLine
 10
31.13556593660844
 20
15.08234653095025
 30
0.0
 11
30.92425680573808
 21
15.53550042446858
 31
0.0
  0
ARC
  5
16C
330
1F
100
AcDbEntity
  8
OBJECT
  6
SLD-Solid
370
    25
100
AcDbCircle
 10
32.18300400015218
 20
12.24455795908693
 30
0.0
 40
0.3499999999999872
100
AcDbArc
 50
0.0000000000154018
 51
24.99999999999878
  0
ARC
  5
16D
330
1F
100
AcDbEntity
  8
OBJECT
  6
SLD-Solid
370
    25
100
AcDbCircle
 10
32.18300400015218
 20
12.24455795908693
 30
0.0
 40
0.2499999999999929
100
AcDbArc
 50
0.0000000000218858
 51
24.99999999999783
  0
LINE
  5
16E
330
1F
100
AcDbEntity
  8
OBJECT
  6
SLD-Solid
370
    25
100
AcDbLine
 10
33.01800400015205
 20
9.131057959086924
 30
0.0
 11
32.60800400015206
 21
9.13105795908694
 31
0.0
  0
LINE
  5
16F
330
1F
100
AcDbEntity
  8
OBJECT
  6
SLD-Solid
370
    25
100
AcDbLine
 10
33.01800400015205
 20
9.096057959086924
 30
0.0
 11
33.01800400015205
 21
9.131057959086924
 31
0.0
  0
LINE
  5
170
330
1F
100
AcDbEntity
  8
OBJECT
  6
SLD-Solid
370
    25
100
AcDbLine
 10
33.01800400015205
 20
9.096057959086924
 30
0.0
 11
32.60800400015206
 21
9.096057959086938
 31
0.0
  0
ARC
  5
171
330
1F
100
AcDbEntity
  8
OBJECT
  6
SLD-Solid
370
    25
100
AcDbCircle
 10
32.60800400015206
 20
9.171057959086939
 30
0.0
 40
0.0750000000000028
100
AcDbArc
 50
179.9999999999959
 51
270.0000000000008
  0
ARC
  5
172
330
1F
100
AcDbEntity
  8
OBJECT
  6
SLD-Solid
370
    25
100
AcDbCircle
 10
32.60800400015206
 20
9.171057959086939
 30
0.0
 40
0.0399999999999991
100
AcDbArc
 50
179.9999999999974
 51
270.0000000000008
  0
LINE
  5
173
330
1F
100
AcDbEntity
  8
OBJECT
  6
SLD-Solid
370
    25
100
AcDbLine
 10
32.53300400015217
 20
12.01805795908694
 30
0.0
 11
32.53300400015205
 21
9.171057959086944
 31
0.0
  0
LINE
  5
174
330
1F
100
AcDbEntity
  8
OBJECT
  6
SLD-Solid
370
    25
100
AcDbLine
 10
32.56800400015216
 20
12.01805795908694
 30
0.0
 11
32.56800400015206
 21
9.17105795908694
 31
0.0
  0
LINE
  5
175
330
1F
100
AcDbEntity
  8
OBJECT
  6
SLD-Solid
370
    25
100
AcDbLine
 10
33.01800400015217
 20
12.09305795908693
 30
0.0
 11
33.01800400015217
 21
12.05805795908693
 31
0.0
  0
LINE
  5
176
330
1F
100
AcDbEntity
  8
OBJECT
  6
SLD-Solid
370
    25
100
AcDbLine
 10
33.01800400015217
 20
12.05805795908693
 30
0.0
 11
32.60800400015217
 21
12.05805795908694
 31
0.0
  0
LINE
  5
177
330
1F
100
AcDbEntity
  8
OBJECT
  6
SLD-Solid
370
    25
100
AcDbLine
 10
33.01800400015217
 20
12.09305795908693
 30
0.0
 11
32.60800400015217
 21
12.09305795908694
 31
0.0
  0
ARC
  5
178
330
1F
100
AcDbEntity
  8
OBJECT
  6
SLD-Solid
370
    25
100
AcDbCircle
 10
32.60800400015217
 20
12.01805795908694
 30
0.0
 40
0.0750000000000028
100
AcDbArc
 50
90.0
 51
179.9999999999987
  0
ARC
  5
179
330
1F
100
AcDbEntity
  8
OBJECT
  6
SLD-Solid
370
    25
100
AcDbCircle
 10
32.60800400015217
 20
12.01805795908694
 30
0.0
 40
0.0400000000000063
100
AcDbArc
 50
90.0
 51
179.9999999999974
  0
POINT
  5
17A
330
1F
100
AcDbEntity
  8
0
  6
Continuous
 62
     7
370
     0
100
AcDbPoint
 10
32.159004000152
 20
7.921481624747688
 30
0.0
  0
DIMENSION
  5
17B
330
1F
100
AcDbEntity
  8
DIMS
100
AcDbDimension
  2
_D_4
 10
30.05811507345415
 20
15.57776225064263
 30
0.0
 11
30.05811507345415
 21
11.79600052777646
 31
0.0
 70
    32
  1
<>
 71
     2
 42
-1.0
  3
SLDDIMSTYLE2
100
AcDbAlignedDimension
 13
32.159004000152
 23
7.921481624747688
 33
0.0
 14
31.01488758444167
 24
15.57776225064263
 34
0.0
 50
90.0000000000002
100
AcDbRotatedDimension
  0
LINE
  5
18A
330
1F
100
AcDbEntity
  8
0
  6
SLD-Solid
 62
     7
370
    25
100
AcDbLine
 10
33.432065748738
 20
19.49948323966996
 30
0.0
 11
33.41438807920833
 21
19.48927813827218
 31
0.0
  0
LINE
  5
18B
330
1F
100
AcDbEntity
  8
0
  6
SLD-Solid
 62
     7
370
    25
100
AcDbLine
 10
33.60187284157759
 20
19.16450981487942
 30
0.0
 11
33.61955051110726
 21
19.1747149162772
 31
0.0
  0
LINE
  5
18C
330
1F
100
AcDbEntity
  8
0
  6
SLD-Solid
 62
     7
370
    25
100
AcDbLine
 10
42.44767720886647
 20
14.29488152680022
 30
0.0
 11
42.4299995393368
 21
14.28467642540243
 31
0.0
  0
LINE
  5
18D
330
1F
100
AcDbEntity
  8
0
  6
SLD-Solid
 62
     7
370
    25
100
AcDbLine
 10
42.61748430170606
 20
13.95990810200968
 30
0.0
 11
42.63516197123572
 21
13.97011320340746
 31
0.0
  0
LINE
  5
18E
330
1F
100
AcDbEntity
  8
0
  6
SLD-Solid
 62
     7
370
    25
100
AcDbLine
 10
37.93987147880222
 20
18.93853441294947
 30
0.0
 11
37.92219380927256
 21
18.92832931155168
 31
0.0
  0
LINE
  5
18F
330
1F
100
AcDbEntity
  8
0
  6
SLD-Solid
 62
     7
370
    25
100
AcDbLine
 10
38.10967857164182
 20
18.60356098815893
 30
0.0
 11
38.12735624117148
 21
18.61376608955671
 31
0.0
  0
LINE
  5
190
330
1F
100
AcDbEntity
  8
0
  6
SLD-Solid
 62
     7
370
    25
100
AcDbLine
 10
42.44767720886645
 20
16.33623355651459
 30
0.0
 11
42.42999953933679
 21
16.32602845511681
 31
0.0
  0
LINE
  5
191
330
1F
100
AcDbEntity
  8
0
  6
SLD-Solid
 62
     7
370
    25
100
AcDbLine
 10
42.61748430170606
 20
16.00126013172406
 30
0.0
 11
42.63516197123572
 21
16.01146523312184
 31
0.0
  0
LINE
  5
192
330
1F
100
AcDbEntity
  8
0
  6
SLD-Solid
 62
     7
370
    25
100
AcDbLine
 10
37.93987147880223
 20
16.89718238323509
 30
0.0
 11
37.92219380927256
 21
16.8869772818373
 31
0.0
  0
LINE
  5
193
330
1F
100
AcDbEntity
  8
0
  6
SLD-Solid
 62
     7
370
    25
100
AcDbLine
 10
38.10967857164182
 20
16.56220895844455
 30
0.0
 11
38.12735624117149
 21
16.57241405984233
 31
0.0
  0
LINE
  5
194
330
1F
100
AcDbEntity
  8
0
  6
SLD-Solid
 62
     7
370
    25
100
AcDbLine
 10
33.43206574873799
 20
21.54083526938434
 30
0.0
 11
33.41438807920832
 21
21.53063016798655
 31
0.0
  0
LINE
  5
195
330
1F
100
AcDbEntity
  8
0
  6
SLD-Solid
 62
     7
370
    25
100
AcDbLine
 10
33.60187284157759
 20
21.20586184459379
 30
0.0
 11
33.61955051110725
 21
21.21606694599158
 31
0.0
  0
LINE
  5
196
330
1F
100
AcDbEntity
  8
0
  6
SLD-Solid
 62
     7
370
    25
100
AcDbLine
 10
32.30012559370099
 20
23.89783230565157
 30
0.0
 11
32.23603995549541
 21
23.82632794833838
 31
0.0
  0
LINE
  5
197
330
1F
100
AcDbEntity
  8
0
  6
SLD-Solid
 62
     7
370
    25
100
AcDbLine
 10
32.59350610646675
 20
18.5296611848762
 30
0.0
 11
32.54350610646677
 21
18.44305864475196
 31
0.0
  0
LINE
  5
198
330
1F
100
AcDbEntity
  8
0
  6
SLD-Solid
 62
     7
370
    25
100
AcDbLine
 10
36.80793132376528
 20
21.29553144921673
 30
0.0
 11
36.74384568555969
 21
21.22402709190354
 31
0.0
  0
LINE
  5
199
330
1F
100
AcDbEntity
  8
0
  6
SLD-Solid
 62
     7
370
    25
100
AcDbLine
 10
37.10131183653102
 20
15.92736032844135
 30
0.0
 11
37.05131183653104
 21
15.84075778831711
 31
0.0
  0
LINE
  5
19A
330
1F
100
AcDbEntity
  8
OBJECT
  6
SLD-Solid
370
    25
100
AcDbLine
 10
41.31573705382956
 20
18.69323059278188
 30
0.0
 11
41.25165141562398
 21
18.6217262354687
 31
0.0
  0
LINE
  5
19B
330
1F
100
AcDbEntity
  8
OBJECT
  6
SLD-Solid
370
    25
100
AcDbLine
 10
41.60911756659531
 20
13.32505947200651
 30
0.0
 11
41.55911756659533
 21
13.23845693188227
 31
0.0
  0
LINE
  5
19C
330
1F
100
AcDbEntity
  8
OBJECT
  6
SLD-Solid
370
    25
100
AcDbLine
 10
32.46300634472822
 20
19.86524288307325
 30
0.0
 11
33.17225473932925
 21
19.45580250005369
 31
0.0
  0
LINE
  5
19D
330
1F
100
AcDbEntity
  8
OBJECT
  6
SLD-Solid
370
    25
100
AcDbLine
 10
33.95007219863451
 20
19.00677803855118
 30
0.0
 11
37.68006046939354
 21
16.85350164361884
 31
0.0
  0
LINE
  5
19E
330
1F
100
AcDbEntity
  8
OBJECT
  6
SLD-Solid
370
    25
100
AcDbLine
 10
38.45787792869879
 20
16.40447718211633
 30
0.0
 11
42.18786619945782
 21
14.251200787184
 31
0.0
  0
LINE
  5
19F
330
1F
100
AcDbEntity
  8
OBJECT
  6
SLD-Solid
370
    25
100
AcDbLine
 10
42.96568365876307
 20
13.80217632568149
 30
0.0
 11
43.77671484371309
 21
13.33397798849168
 31
0.0
  0
LWPOLYLINE
  5
1A0
330
1F
100
AcDbEntity
  8
0
  6
SLD-Solid
 62
     7
370
    25
100
AcDbPolyline
 90
       17
 70
   128
 43
0.0
 10
33.46871867026169
 20
19.26082645783467
 10
33.49142171344356
 20
19.24457477400709
 10
33.51343899395841
 20
19.23899108153116
 10
33.531418580435
 20
19.24492544697004
 10
33.54262324381762
 20
19.26147441698082
 10
33.54534717567679
 20
19.28611856089615
 10
33.53917568207947
 20
19.31510603120463
 10
33.5250483169811
 20
19.34402374832388
 10
33.50511584365304
 20
19.36846925196224
 10
33.48241280047117
 20
19.38472093578982
 10
33.46039551995632
 20
19.39030462826575
 10
33.44241593347974
 20
19.38437026282687
 10
33.43121127009712
 20
19.36782129281609
 10
33.42848733823794
 20
19.34317714890076
 10
33.43465883183527
 20
19.31418967859228
 10
33.44878619693363
 20
19.28527196147304
 10
33.46871867026169
 20
19.26082645783467
  0
LWPOLYLINE
  5
1A1
330
1F
100
AcDbEntity
  8
0
  6
SLD-Solid
 62
     7
370
    25
100
AcDbPolyline
 90
       24
 70
   128
 43
0.0
 10
33.46695846244545
 20
19.20512988101731
 10
33.43448335412732
 20
19.24210128183719
 10
33.40747031476782
 20
19.28536136892506
 10
33.38792277791981
 20
19.33170173952335
 10
33.37729049496728
 20
19.37768554033786
 10
33.37636201369736
 20
19.4199023632241
 10
33.38520619531832
 20
19.45522117955768
 10
33.40316710733876
 20
19.48102255430399
 10
33.42891267107986
 20
19.49539291753152
 10
33.46053345585702
 20
19.49726648513973
 10
33.49568429271882
 20
19.48650430319012
 10
33.53175820489957
 20
19.46390455348419
 10
33.56607975536001
 20
19.43114335607063
 10
33.59610347171314
 20
19.39065045908913
 10
33.61960263226638
 20
19.34542903546611
 10
33.63483441178303
 20
19.29883295131745
 10
33.64066913885709
 20
19.25431802504156
 10
33.63667407847358
 20
19.21518572507807
 10
33.62314552598495
 20
19.18433831509692
 10
33.60108683224027
 20
19.1640636063789
 10
33.57213398964279
 20
19.15586528131901
 10
33.5384342980775
 20
19.1603513721821
 10
33.50248710950199
 20
19.17718916613134
 10
33.46695846244545
 20
19.20512988101731
  0
LWPOLYLINE
  5
1A2
330
1F
100
AcDbEntity
  8
0
  6
SLD-Solid
 62
     7
370
    25
100
AcDbPolyline
 90
       13
 70
   128
 43
0.0
 10
33.61955051110726
 20
19.1747149162772
 10
33.64082319551461
 20
19.1945434164947
 10
33.65435174800324
 20
19.22539082647585
 10
33.65834680838676
 20
19.26452312643934
 10
33.6525120813127
 20
19.30903805271524
 10
33.63728030179605
 20
19.3556341368639
 10
33.6137811412428
 20
19.40085556048692
 10
33.58375742488968
 20
19.44134845746842
 10
33.54943587442924
 20
19.47410965488197
 10
33.51336196224848
 20
19.49670940458791
 10
33.47821112538669
 20
19.50747158653752
 10
33.44659034060952
 20
19.50559801892931
 10
33.432065748738
 20
19.49948323966996
  0
LWPOLYLINE
  5
1A3
330
1F
100
AcDbEntity
  8
0
  6
SLD-Solid
 62
     7
370
    25
100
AcDbPolyline
 90
       17
 70
   128
 43
0.0
 10
33.47374221761417
 20
19.27568334431974
 10
33.4901783009284
 20
19.26391778376264
 10
33.50611791985949
 20
19.25987541666673
 10
33.51913441191817
 20
19.2641716567782
 10
33.52724613418331
 20
19.27615244048562
 10
33.52921815047297
 20
19.29399380207558
 10
33.52475023918345
 20
19.31497955597838
 10
33.51452259930684
 20
19.33591481139863
 10
33.50009229630056
 20
19.35361236547717
 10
33.48365621298633
 20
19.36537792603427
 10
33.46771659405524
 20
19.36942029313019
 10
33.45470010199656
 20
19.36512405301871
 10
33.44658837973142
 20
19.3531432693113
 10
33.44461636344175
 20
19.33530190772133
 10
33.44908427473128
 20
19.31431615381854
 10
33.45931191460789
 20
19.29338089839828
 10
33.47374221761417
 20
19.27568334431974
  0
LWPOLYLINE
  5
1A4
330
1F
100
AcDbEntity
  8
0
  6
SLD-Solid
 62
     7
370
    25
100
AcDbPolyline
 90
       17
 70
   128
 43
0.0
 10
42.48433013039016
 20
14.05622474496493
 10
42.50703317357203
 20
14.03997306113735
 10
42.52905045408688
 20
14.03438936866142
 10
42.54703004056346
 20
14.0403237341003
 10
42.55823470394608
 20
14.05687270411108
 10
42.56095863580525
 20
14.0815168480264
 10
42.55478714220793
 20
14.11050431833489
 10
42.54065977710956
 20
14.13942203545413
 10
42.52072730378151
 20
14.1638675390925
 10
42.49802426059964
 20
14.18011922292008
 10
42.47600698008478
 20
14.18570291539601
 10
42.4580273936082
 20
14.17976854995713
 10
42.44682273022558
 20
14.16321957994635
 10
42.4440987983664
 20
14.13857543603102
 10
42.45027029196374
 20
14.10958796572254
 10
42.46439765706209
 20
14.08067024860329
 10
42.48433013039016
 20
14.05622474496493
  0
LWPOLYLINE
  5
1A5
330
1F
100
AcDbEntity
  8
0
  6
SLD-Solid
 62
     7
370
    25
100
AcDbPolyline
 90
       24
 70
   128
 43
0.0
 10
42.48256992257392
 20
14.00052816814757
 10
42.45009481425579
 20
14.03749956896744
 10
42.4230817748963
 20
14.08075965605532
 10
42.40353423804828
 20
14.1271000266536
 10
42.39290195509575
 20
14.17308382746812
 10
42.39197347382582
 20
14.21530065035436
 10
42.40081765544679
 20
14.25061946668794
 10
42.41877856746724
 20
14.27642084143425
 10
42.44452413120832
 20
14.29079120466178
 10
42.47614491598549
 20
14.29266477226999
 10
42.51129575284728
 20
14.28190259032038
 10
42.54736966502804
 20
14.25930284061444
 10
42.58169121548848
 20
14.22654164320089
 10
42.6117149318416
 20
14.18604874621939
 10
42.63521409239485
 20
14.14082732259637
 10
42.6504458719115
 20
14.09423123844771
 10
42.65628059898556
 20
14.04971631217181
 10
42.65228553860204
 20
14.01058401220832
 10
42.63875698611341
 20
13.97973660222717
 10
42.61669829236873
 20
13.95946189350916
 10
42.58774544977125
 20
13.95126356844927
 10
42.55404575820597
 20
13.95574965931235
 10
42.51809856963046
 20
13.9725874532616
 10
42.48256992257392
 20
14.00052816814757
  0
LWPOLYLINE
  5
1A6
330
1F
100
AcDbEntity
  8
0
  6
SLD-Solid
 62
     7
370
    25
100
AcDbPolyline
 90
       13
 70
   128
 43
0.0
 10
42.63516197123572
 20
13.97011320340746
 10
42.65643465564307
 20
13.98994170362496
 10
42.6699632081317
 20
14.02078911360611
 10
42.67395826851522
 20
14.0599214135696
 10
42.66812354144117
 20
14.1044363398455
 10
42.65289176192451
 20
14.15103242399416
 10
42.62939260137126
 20
14.19625384761718
 10
42.59936888501814
 20
14.23674674459868
 10
42.5650473345577
 20
14.26950794201223
 10
42.52897342237694
 20
14.29210769171817
 10
42.49382258551515
 20
14.30286987366777
 10
42.46220180073798
 20
14.30099630605956
 10
42.44767720886647
 20
14.29488152680022
  0
LWPOLYLINE
  5
1A7
330
1F
100
AcDbEntity
  8
0
  6
SLD-Solid
 62
     7
370
    25
100
AcDbPolyline
 90
       17
 70
   128
 43
0.0
 10
42.48935367774263
 20
14.07108163145
 10
42.50578976105687
 20
14.0593160708929
 10
42.52172937998796
 20
14.05527370379698
 10
42.53474587204664
 20
14.05956994390846
 10
42.54285759431178
 20
14.07155072761587
 10
42.54482961060145
 20
14.08939208920584
 10
42.54036169931192
 20
14.11037784310863
 10
42.5301340594353
 20
14.13131309852889
 10
42.51570375642903
 20
14.14901065260743
 10
42.49926767311479
 20
14.16077621316453
 10
42.48332805418371
 20
14.16481858026044
 10
42.47031156212503
 20
14.16052234014896
 10
42.46219983985989
 20
14.14854155644155
 10
42.46022782357022
 20
14.13070019485159
 10
42.46469573485975
 20
14.10971444094879
 10
42.47492337473637
 20
14.08877918552854
 10
42.48935367774263
 20
14.07108163145
  0
LWPOLYLINE
  5
1A8
330
1F
100
AcDbEntity
  8
0
  6
SLD-Solid
 62
     7
370
    25
100
AcDbPolyline
 90
       17
 70
   128
 43
0.0
 10
37.97652440032591
 20
18.69987763111418
 10
37.99922744350778
 20
18.6836259472866
 10
38.02124472402264
 20
18.67804225481067
 10
38.03922431049922
 20
18.68397662024955
 10
38.05042897388184
 20
18.70052559026033
 10
38.05315290574102
 20
18.72516973417565
 10
38.04698141214369
 20
18.75415720448414
 10
38.03285404704533
 20
18.78307492160338
 10
38.01292157371727
 20
18.80752042524175
 10
37.99021853053539
 20
18.82377210906933
 10
37.96820125002055
 20
18.82935580154526
 10
37.95022166354396
 20
18.82342143610638
 10
37.93901700016134
 20
18.8068724660956
 10
37.93629306830216
 20
18.78222832218027
 10
37.9424645618995
 20
18.75324085187179
 10
37.95659192699786
 20
18.72432313475254
 10
37.97652440032591
 20
18.69987763111418
  0
LWPOLYLINE
  5
1A9
330
1F
100
AcDbEntity
  8
0
  6
SLD-Solid
 62
     7
370
    25
100
AcDbPolyline
 90
       24
 70
   128
 43
0.0
 10
37.97476419250968
 20
18.64418105429682
 10
37.94228908419155
 20
18.6811524551167
 10
37.91527604483205
 20
18.72441254220456
 10
37.89572850798405
 20
18.77075291280285
 10
37.88509622503151
 20
18.81673671361737
 10
37.88416774376159
 20
18.85895353650361
 10
37.89301192538255
 20
18.89427235283719
 10
37.91097283740299
 20
18.9200737275835
 10
37.93671840114408
 20
18.93444409081103
 10
37.96833918592125
 20
18.93631765841924
 10
38.00349002278304
 20
18.92555547646963
 10
38.0395639349638
 20
18.90295572676369
 10
38.07388548542424
 20
18.87019452935014
 10
38.10390920177736
 20
18.82970163236864
 10
38.12740836233061
 20
18.78448020874562
 10
38.14264014184726
 20
18.73788412459696
 10
38.14847486892132
 20
18.69336919832107
 10
38.1444798085378
 20
18.65423689835757
 10
38.13095125604917
 20
18.62338948837643
 10
38.1088925623045
 20
18.60311477965841
 10
38.07993971970701
 20
18.59491645459851
 10
38.04624002814173
 20
18.5994025454616
 10
38.01029283956622
 20
18.61624033941085
 10
37.97476419250968
 20
18.64418105429682
  0
LWPOLYLINE
  5
1AA
330
1F
100
AcDbEntity
  8
0
  6
SLD-Solid
 62
     7
370
    25
100
AcDbPolyline
 90
       13
 70
   128
 43
0.0
 10
38.12735624117148
 20
18.61376608955671
 10
38.14862892557883
 20
18.63359458977421
 10
38.16215747806746
 20
18.66444199975536
 10
38.16615253845098
 20
18.70357429971885
 10
38.16031781137692
 20
18.74808922599475
 10
38.14508603186027
 20
18.79468531014341
 10
38.12158687130702
 20
18.83990673376643
 10
38.0915631549539
 20
18.88039963074793
 10
38.05724160449346
 20
18.91316082816148
 10
38.02116769231271
 20
18.93576057786741
 10
37.98601685545091
 20
18.94652275981703
 10
37.95439607067375
 20
18.94464919220881
 10
37.93987147880222
 20
18.93853441294947
  0
LWPOLYLINE
  5
1AB
330
1F
100
AcDbEntity
  8
0
  6
SLD-Solid
 62
     7
370
    25
100
AcDbPolyline
 90
       17
 70
   128
 43
0.0
 10
37.98154794767839
 20
18.71473451759925
 10
37.99798403099263
 20
18.70296895704215
 10
38.01392364992372
 20
18.69892658994624
 10
38.0269401419824
 20
18.70322283005771
 10
38.03505186424754
 20
18.71520361376512
 10
38.03702388053721
 20
18.73304497535509
 10
38.03255596924767
 20
18.75403072925788
 10
38.02232832937106
 20
18.77496598467814
 10
38.0078980263648
 20
18.79266353875668
 10
37.99146194305055
 20
18.80442909931378
 10
37.97552232411947
 20
18.80847146640969
 10
37.96250583206078
 20
18.80417522629822
 10
37.95439410979565
 20
18.79219444259081
 10
37.95242209350598
 20
18.77435308100084
 10
37.95689000479551
 20
18.75336732709804
 10
37.96711764467213
 20
18.73243207167779
 10
37.98154794767839
 20
18.71473451759925
  0
LWPOLYLINE
  5
1AC
330
1F
100
AcDbEntity
  8
0
  6
SLD-Solid
 62
     7
370
    25
100
AcDbPolyline
 90
       17
 70
   128
 43
0.0
 10
42.48433013039015
 20
16.09757677467931
 10
42.50703317357202
 20
16.08132509085173
 10
42.52905045408687
 20
16.07574139837579
 10
42.54703004056346
 20
16.08167576381468
 10
42.55823470394607
 20
16.09822473382546
 10
42.56095863580525
 20
16.12286887774078
 10
42.55478714220793
 20
16.15185634804926
 10
42.54065977710956
 20
16.18077406516851
 10
42.52072730378151
 20
16.20521956880687
 10
42.49802426059963
 20
16.22147125263445
 10
42.47600698008478
 20
16.22705494511039
 10
42.45802739360819
 20
16.22112057967151
 10
42.44682273022558
 20
16.20457160966073
 10
42.4440987983664
 20
16.1799274657454
 10
42.45027029196373
 20
16.15093999543692
 10
42.46439765706209
 20
16.12202227831767
 10
42.48433013039015
 20
16.09757677467931
  0
LWPOLYLINE
  5
1AD
330
1F
100
AcDbEntity
  8
0
  6
SLD-Solid
 62
     7
370
    25
100
AcDbPolyline
 90
       24
 70
   128
 43
0.0
 10
42.48256992257392
 20
16.04188019786195
 10
42.45009481425578
 20
16.07885159868182
 10
42.42308177489628
 20
16.1221116857697
 10
42.40353423804827
 20
16.16845205636798
 10
42.39290195509574
 20
16.2144358571825
 10
42.39197347382581
 20
16.25665268006873
 10
42.40081765544678
 20
16.29197149640232
 10
42.41877856746722
 20
16.31777287114862
 10
42.44452413120832
 20
16.33214323437616
 10
42.47614491598548
 20
16.33401680198437
 10
42.51129575284728
 20
16.32325462003476
 10
42.54736966502804
 20
16.30065487032882
 10
42.58169121548848
 20
16.26789367291527
 10
42.6117149318416
 20
16.22740077593377
 10
42.63521409239484
 20
16.18217935231075
 10
42.65044587191149
 20
16.13558326816209
 10
42.65628059898555
 20
16.09106834188619
 10
42.65228553860204
 20
16.0519360419227
 10
42.63875698611341
 20
16.02108863194155
 10
42.61669829236872
 20
16.00081392322354
 10
42.58774544977124
 20
15.99261559816365
 10
42.55404575820596
 20
15.99710168902673
 10
42.51809856963045
 20
16.01393948297597
 10
42.48256992257392
 20
16.04188019786195
  0
LWPOLYLINE
  5
1AE
330
1F
100
AcDbEntity
  8
0
  6
SLD-Solid
 62
     7
370
    25
100
AcDbPolyline
 90
       13
 70
   128
 43
0.0
 10
42.63516197123572
 20
16.01146523312184
 10
42.65643465564307
 20
16.03129373333934
 10
42.6699632081317
 20
16.06214114332049
 10
42.67395826851521
 20
16.10127344328398
 10
42.66812354144115
 20
16.14578836955987
 10
42.6528917619245
 20
16.19238445370854
 10
42.62939260137126
 20
16.23760587733155
 10
42.59936888501814
 20
16.27809877431306
 10
42.5650473345577
 20
16.31085997172661
 10
42.52897342237694
 20
16.33345972143254
 10
42.49382258551515
 20
16.34422190338215
 10
42.46220180073797
 20
16.34234833577394
 10
42.44767720886645
 20
16.33623355651459
  0
LWPOLYLINE
  5
1AF
330
1F
100
AcDbEntity
  8
0
  6
SLD-Solid
 62
     7
370
    25
100
AcDbPolyline
 90
       17
 70
   128
 43
0.0
 10
42.48935367774262
 20
16.11243366116438
 10
42.50578976105687
 20
16.10066810060728
 10
42.52172937998795
 20
16.09662573351136
 10
42.53474587204663
 20
16.10092197362284
 10
42.54285759431177
 20
16.11290275733025
 10
42.54482961060143
 20
16.13074411892022
 10
42.5403616993119
 20
16.15172987282301
 10
42.5301340594353
 20
16.17266512824326
 10
42.51570375642903
 20
16.19036268232181
 10
42.49926767311479
 20
16.20212824287891
 10
42.4833280541837
 20
16.20617060997482
 10
42.47031156212503
 20
16.20187436986334
 10
42.46219983985988
 20
16.18989358615593
 10
42.46022782357021
 20
16.17205222456597
 10
42.46469573485975
 20
16.15106647066317
 10
42.47492337473636
 20
16.13013121524292
 10
42.48935367774262
 20
16.11243366116438
  0
LWPOLYLINE
  5
1B0
330
1F
100
AcDbEntity
  8
0
  6
SLD-Solid
 62
     7
370
    25
100
AcDbPolyline
 90
       17
 70
   128
 43
0.0
 10
37.97652440032592
 20
16.6585256013998
 10
37.99922744350779
 20
16.64227391757222
 10
38.02124472402264
 20
16.63669022509629
 10
38.03922431049923
 20
16.64262459053517
 10
38.05042897388185
 20
16.65917356054595
 10
38.05315290574102
 20
16.68381770446128
 10
38.0469814121437
 20
16.71280517476976
 10
38.03285404704533
 20
16.741722891889
 10
38.01292157371728
 20
16.76616839552737
 10
37.9902185305354
 20
16.78242007935495
 10
37.96820125002055
 20
16.78800377183088
 10
37.95022166354396
 20
16.782069406392
 10
37.93901700016135
 20
16.76552043638122
 10
37.93629306830218
 20
16.7408762924659
 10
37.9424645618995
 20
16.71188882215741
 10
37.95659192699787
 20
16.68297110503816
 10
37.97652440032592
 20
16.6585256013998
  0
LWPOLYLINE
  5
1B1
330
1F
100
AcDbEntity
  8
0
  6
SLD-Solid
 62
     7
370
    25
100
AcDbPolyline
 90
       24
 70
   128
 43
0.0
 10
37.97476419250969
 20
16.60282902458244
 10
37.94228908419156
 20
16.63980042540232
 10
37.91527604483205
 20
16.68306051249019
 10
37.89572850798405
 20
16.72940088308847
 10
37.88509622503152
 20
16.775384683903
 10
37.88416774376159
 20
16.81760150678923
 10
37.89301192538255
 20
16.85292032312281
 10
37.91097283740299
 20
16.87872169786912
 10
37.93671840114409
 20
16.89309206109665
 10
37.96833918592126
 20
16.89496562870486
 10
38.00349002278305
 20
16.88420344675525
 10
38.03956393496381
 20
16.86160369704931
 10
38.07388548542425
 20
16.82884249963577
 10
38.10390920177737
 20
16.78834960265426
 10
38.12740836233061
 20
16.74312817903124
 10
38.14264014184727
 20
16.69653209488258
 10
38.14847486892133
 20
16.65201716860669
 10
38.14447980853781
 20
16.6128848686432
 10
38.13095125604917
 20
16.58203745866205
 10
38.1088925623045
 20
16.56176274994403
 10
38.07993971970701
 20
16.55356442488414
 10
38.04624002814173
 20
16.55805051574722
 10
38.01029283956623
 20
16.57488830969647
 10
37.97476419250969
 20
16.60282902458244
  0
LWPOLYLINE
  5
1B2
330
1F
100
AcDbEntity
  8
0
  6
SLD-Solid
 62
     7
370
    25
100
AcDbPolyline
 90
       13
 70
   128
 43
0.0
 10
38.12735624117149
 20
16.57241405984233
 10
38.14862892557884
 20
16.59224256005983
 10
38.16215747806747
 20
16.62308997004098
 10
38.16615253845099
 20
16.66222227000447
 10
38.16031781137693
 20
16.70673719628037
 10
38.14508603186028
 20
16.75333328042903
 10
38.12158687130702
 20
16.79855470405205
 10
38.09156315495391
 20
16.83904760103355
 10
38.05724160449347
 20
16.8718087984471
 10
38.02116769231272
 20
16.89440854815304
 10
37.98601685545092
 20
16.90517073010265
 10
37.95439607067375
 20
16.90329716249444
 10
37.93987147880223
 20
16.89718238323509
  0
LWPOLYLINE
  5
1B3
330
1F
100
AcDbEntity
  8
0
  6
SLD-Solid
 62
     7
370
    25
100
AcDbPolyline
 90
       17
 70
   128
 43
0.0
 10
37.9815479476784
 20
16.67338248788487
 10
37.99798403099263
 20
16.66161692732777
 10
38.01392364992373
 20
16.65757456023185
 10
38.0269401419824
 20
16.66187080034333
 10
38.03505186424754
 20
16.67385158405074
 10
38.03702388053721
 20
16.69169294564071
 10
38.03255596924768
 20
16.7126786995435
 10
38.02232832937107
 20
16.73361395496376
 10
38.0078980263648
 20
16.7513115090423
 10
37.99146194305056
 20
16.7630770695994
 10
37.97552232411947
 20
16.76711943669531
 10
37.96250583206079
 20
16.76282319658384
 10
37.95439410979566
 20
16.75084241287642
 10
37.95242209350599
 20
16.73300105128646
 10
37.95689000479552
 20
16.71201529738367
 10
37.96711764467213
 20
16.69108004196341
 10
37.9815479476784
 20
16.67338248788487
  0
LWPOLYLINE
  5
1B4
330
1F
100
AcDbEntity
  8
0
  6
SLD-Solid
 62
     7
370
    25
100
AcDbPolyline
 90
       17
 70
   128
 43
0.0
 10
33.46871867026168
 20
21.30217848754905
 10
33.49142171344355
 20
21.28592680372147
 10
33.5134389939584
 20
21.28034311124554
 10
33.53141858043499
 20
21.28627747668442
 10
33.54262324381761
 20
21.3028264466952
 10
33.54534717567678
 20
21.32747059061052
 10
33.53917568207945
 20
21.35645806091901
 10
33.52504831698109
 20
21.38537577803825
 10
33.50511584365304
 20
21.40982128167662
 10
33.48241280047116
 20
21.4260729655042
 10
33.46039551995631
 20
21.43165665798013
 10
33.44241593347972
 20
21.42572229254125
 10
33.43121127009711
 20
21.40917332253047
 10
33.42848733823794
 20
21.38452917861515
 10
33.43465883183526
 20
21.35554170830666
 10
33.44878619693363
 20
21.32662399118741
 10
33.46871867026168
 20
21.30217848754905
  0
LWPOLYLINE
  5
1B5
330
1F
100
AcDbEntity
  8
0
  6
SLD-Solid
 62
     7
370
    25
100
AcDbPolyline
 90
       24
 70
   128
 43
0.0
 10
33.46695846244545
 20
21.24648191073169
 10
33.43448335412732
 20
21.28345331155157
 10
33.40747031476782
 20
21.32671339863943
 10
33.3879227779198
 20
21.37305376923772
 10
33.37729049496728
 20
21.41903757005224
 10
33.37636201369735
 20
21.46125439293848
 10
33.38520619531831
 20
21.49657320927206
 10
33.40316710733876
 20
21.52237458401837
 10
33.42891267107984
 20
21.5367449472459
 10
33.46053345585702
 20
21.53861851485411
 10
33.49568429271881
 20
21.5278563329045
 10
33.53175820489957
 20
21.50525658319857
 10
33.56607975536001
 20
21.47249538578501
 10
33.59610347171313
 20
21.43200248880351
 10
33.61960263226638
 20
21.38678106518049
 10
33.63483441178303
 20
21.34018498103183
 10
33.64066913885708
 20
21.29567005475593
 10
33.63667407847357
 20
21.25653775479245
 10
33.62314552598494
 20
21.22569034481129
 10
33.60108683224026
 20
21.20541563609327
 10
33.57213398964277
 20
21.19721731103338
 10
33.5384342980775
 20
21.20170340189647
 10
33.50248710950198
 20
21.21854119584572
 10
33.46695846244545
 20
21.24648191073169
  0
LWPOLYLINE
  5
1B6
330
1F
100
AcDbEntity
  8
0
  6
SLD-Solid
 62
     7
370
    25
100
AcDbPolyline
 90
       13
 70
   128
 43
0.0
 10
33.61955051110725
 20
21.21606694599158
 10
33.6408231955146
 20
21.23589544620908
 10
33.65435174800323
 20
21.26674285619023
 10
33.65834680838675
 20
21.30587515615372
 10
33.65251208131269
 20
21.35039008242962
 10
33.63728030179604
 20
21.39698616657828
 10
33.61378114124279
 20
21.4422075902013
 10
33.58375742488968
 20
21.4827004871828
 10
33.54943587442923
 20
21.51546168459635
 10
33.51336196224847
 20
21.53806143430229
 10
33.47821112538668
 20
21.54882361625189
 10
33.44659034060951
 20
21.54695004864368
 10
33.43206574873799
 20
21.54083526938434
  0
LWPOLYLINE
  5
1B7
330
1F
100
AcDbEntity
  8
0
  6
SLD-Solid
 62
     7
370
    25
100
AcDbPolyline
 90
       17
 70
   128
 43
0.0
 10
33.47374221761416
 20
21.31703537403412
 10
33.4901783009284
 20
21.30526981347702
 10
33.50611791985948
 20
21.30122744638111
 10
33.51913441191817
 20
21.30552368649258
 10
33.5272461341833
 20
21.3175044702
 10
33.52921815047297
 20
21.33534583178996
 10
33.52475023918344
 20
21.35633158569275
 10
33.51452259930683
 20
21.37726684111301
 10
33.50009229630056
 20
21.39496439519155
 10
33.48365621298633
 20
21.40672995574865
 10
33.46771659405523
 20
21.41077232284456
 10
33.45470010199655
 20
21.40647608273308
 10
33.44658837973142
 20
21.39449529902567
 10
33.44461636344175
 20
21.37665393743571
 10
33.44908427473128
 20
21.35566818353292
 10
33.45931191460789
 20
21.33473292811266
 10
33.47374221761416
 20
21.31703537403412
  0
ARC
  5
1B8
330
1F
100
AcDbEntity
  8
0
  6
SLD-Solid
 62
     7
370
    25
100
AcDbCircle
 10
31.72290113377542
 20
22.51431823396176
 30
0.0
 40
1.461022058900737
100
AcDbArc
 50
31.99880419517048
 51
59.74833249209198
  0
ARC
  5
1B9
330
1F
100
AcDbEntity
  8
0
  6
SLD-Solid
 62
     7
370
    25
100
AcDbCircle
 10
31.79614527640568
 20
22.59526471482631
 30
0.0
 40
1.448255144523109
100
AcDbArc
 50
31.87401096914179
 51
59.87312571813113
  0
LINE
  5
1BA
330
1F
100
AcDbEntity
  8
0
  6
SLD-Solid
 62
     7
370
    25
100
AcDbLine
 10
33.15569213954669
 20
21.98587933970312
 30
0.0
 11
32.25482748642798
 21
23.69672016499507
 31
0.0
  0
LWPOLYLINE
  5
1BB
330
1F
100
AcDbEntity
  8
0
  6
SLD-Solid
 62
     7
370
    25
100
AcDbPolyline
 90
       10
 70
   128
 43
0.0
 10
32.45896275765622
 20
23.77637954088964
 10
32.39983885264558
 20
23.80751051276937
 10
32.34705139151824
 20
23.82907363915577
 10
32.30220429456882
 20
23.84041373536506
 10
32.26666021814437
 20
23.8411862383123
 10
32.24149915102091
 20
23.83136767588633
 10
32.22748559949086
 20
23.81125638013803
 10
32.22504535822626
 20
23.78146342261191
 10
32.23425257272311
 20
23.74289404724644
 10
32.25482748642798
 20
23.69672016499507
  0
LINE
  5
1BC
330
1F
100
AcDbEntity
  8
0
  6
SLD-Solid
 62
     7
370
    25
100
AcDbLine
 10
32.96193426761455
 20
23.28851610908369
 30
0.0
 11
33.86279892073325
 21
21.57767528379173
 31
0.0
  0
LWPOLYLINE
  5
1BD
330
1F
100
AcDbEntity
  8
0
  6
SLD-Solid
 62
     7
370
    25
100
AcDbPolyline
 90
        7
 70
   128
 43
0.0
 10
32.30012559370098
 20
23.89783230565156
 10
32.30558478922652
 20
23.90287203319951
 10
32.33074585634998
 20
23.91269059562548
 10
32.36628993277441
 20
23.91191809267826
 10
32.41113702972383
 20
23.90057799646896
 10
32.46392449085116
 20
23.87901487008257
 10
32.52304839586179
 20
23.84788389820274
  0
LINE
  5
1BE
330
1F
100
AcDbEntity
  8
0
  6
SLD-Solid
 62
     7
370
    25
100
AcDbLine
 10
33.02601990582018
 20
23.36002046639683
 30
0.0
 11
33.92688455893883
 21
21.64917964110492
 31
0.0
  0
ARC
  5
1BF
330
1F
100
AcDbEntity
  8
0
  6
SLD-Solid
 62
     7
370
    25
100
AcDbCircle
 10
33.71907133692432
 20
21.5481100656838
 30
0.0
 40
0.2310874170521973
100
AcDbArc
 50
358.4317692118764
 51
25.93588576580156
  0
ARC
  5
1C0
330
1F
100
AcDbEntity
  8
0
  6
SLD-Solid
 62
     7
370
    25
100
AcDbCircle
 10
33.71436090500876
 20
21.50548272991953
 30
0.0
 40
0.1650624407514137
100
AcDbArc
 50
358.4317692118682
 51
25.93588576581846
  0
ARC
  5
1C1
330
1F
100
AcDbEntity
  8
0
  6
SLD-Solid
 62
     7
370
    25
100
AcDbCircle
 10
33.00725412382222
 20
21.91368678583092
 30
0.0
 40
0.1650624407513994
100
AcDbArc
 50
358.4317692118656
 51
25.93588576581951
  0
LINE
  5
1C2
330
1F
100
AcDbEntity
  8
0
  6
SLD-Solid
 62
     7
370
    25
100
AcDbLine
 10
33.17225473932922
 20
18.68826189781123
 30
0.0
 11
33.17225473932938
 21
21.909169460398
 31
0.0
  0
LINE
  5
1C3
330
1F
100
AcDbEntity
  8
0
  6
SLD-Solid
 62
     7
370
    25
100
AcDbLine
 10
33.87936152051594
 20
21.50096540448661
 30
0.0
 11
33.87936152051577
 21
18.28005784189988
 31
0.0
  0
LINE
  5
1C4
330
1F
100
AcDbEntity
  8
0
  6
SLD-Solid
 62
     7
370
    25
100
AcDbLine
 10
33.95007219863459
 20
21.54178581007774
 30
0.0
 11
33.95007219863449
 21
18.32087824749098
 31
0.0
  0
LWPOLYLINE
  5
1C5
330
1F
100
AcDbEntity
  8
0
  6
SLD-Solid
 62
     7
370
    25
100
AcDbPolyline
 90
       10
 70
   128
 43
0.0
 10
32.77651880804127
 20
18.42403002890453
 10
32.8417107717727
 20
18.38639479654772
 10
32.91251803416878
 20
18.34551651739337
 10
32.98678915239179
 20
18.30263725726817
 10
33.06226743609754
 20
18.25905988079306
 10
33.13665951582948
 20
18.21610846450105
 10
33.20770502588915
 20
18.17508806544168
 10
33.27324528440418
 20
18.13724506768306
 10
33.33128888378453
 20
18.1037293115626
 10
33.38007219863453
 20
18.07555915637024
  0
LWPOLYLINE
  5
1C6
330
1F
100
AcDbEntity
  8
0
  6
SLD-Solid
 62
     7
370
    25
100
AcDbPolyline
 90
       10
 70
   128
 43
0.0
 10
33.33007219863453
 20
17.98895661624596
 10
33.28128888378453
 20
18.01712677143833
 10
33.22324528440418
 20
18.05064252755879
 10
33.15770502588916
 20
18.08848552531741
 10
33.08665951582947
 20
18.12950592437677
 10
33.01226743609754
 20
18.17245734066879
 10
32.93678915239179
 20
18.21603471714388
 10
32.86251803416877
 20
18.25891397726908
 10
32.7917107717727
 20
18.29979225642344
 10
32.72651880804128
 20
18.33742748878026
  0
LINE
  5
1C7
330
1F
100
AcDbEntity
  8
0
  6
SLD-Solid
 62
     7
370
    25
100
AcDbLine
 10
33.52758482521921
 20
17.87489793748706
 30
0.0
 11
33.33007219863453
 21
17.98895661624596
 31
0.0
  0
LINE
  5
1C8
330
1F
100
AcDbEntity
  8
0
  6
SLD-Solid
 62
     7
370
    25
100
AcDbLine
 10
33.52758482521921
 20
17.87489793748706
 30
0.0
 11
32.82047804403266
 21
18.28310199339841
 31
0.0
  0
LINE
  5
1C9
330
1F
100
AcDbEntity
  8
0
  6
SLD-Solid
 62
     7
370
    25
100
AcDbLine
 10
32.62296541744796
 20
18.39716067215731
 30
0.0
 11
32.82047804403266
 21
18.28310199339841
 31
0.0
  0
LWPOLYLINE
  5
1CA
330
1F
100
AcDbEntity
  8
0
  6
SLD-Solid
 62
     7
370
    25
100
AcDbPolyline
 90
       10
 70
   128
 43
0.0
 10
32.72651880804128
 20
18.33742748878026
 10
32.66892296780374
 20
18.37067614684871
 10
32.62067327152081
 20
18.39852798697802
 10
32.58323576179853
 20
18.42013674509957
 10
32.55774795842551
 20
18.4348458500324
 10
32.54498429540979
 20
18.4422083730663
 10
32.54533259019338
 20
18.44200060766449
 10
32.55878226001551
 20
18.43422886667356
 10
32.58492464346452
 20
18.41912929051086
 10
32.62296541744796
 20
18.39716067215731
  0
LWPOLYLINE
  5
1CB
330
1F
100
AcDbEntity
  8
0
  6
SLD-Solid
 62
     7
370
    25
100
AcDbPolyline
 90
        7
 70
   128
 43
0.0
 10
32.59350610646673
 20
18.5296611848762
 10
32.59498429540976
 20
18.52881091319056
 10
32.60774795842548
 20
18.52144839015666
 10
32.6332357617985
 20
18.50673928522383
 10
32.67067327152078
 20
18.48513052710227
 10
32.71892296780371
 20
18.45727868697297
 10
32.77651880804127
 20
18.42403002890453
  0
LINE
  5
1CC
330
1F
100
AcDbEntity
  8
0
  6
SLD-Solid
 62
     7
370
    25
100
AcDbLine
 10
33.57758482521921
 20
17.96150047761133
 30
0.0
 11
33.38007219863453
 21
18.07555915637024
 31
0.0
  0
LWPOLYLINE
  5
1CD
330
1F
100
AcDbEntity
  8
0
  6
SLD-Solid
 62
     7
370
    25
100
AcDbPolyline
 90
       12
 70
   128
 43
0.0
 10
33.52758482521921
 20
17.87489793748706
 10
33.56878304934603
 20
17.86034346191031
 10
33.6160968533075
 20
17.8603081932926
 10
33.66736369969692
 20
17.87479374363081
 10
33.72024037229076
 20
17.90313803247825
 10
33.77231007571744
 20
17.94404554817092
 10
33.82119289815444
 20
17.99564656083102
 10
33.86465458821607
 20
18.05558258074186
 10
33.90070867424611
 20
18.12111415611107
 10
33.92770725852391
 20
18.18924608318859
 10
33.94441633651929
 20
18.25686430585213
 10
33.95007219863449
 20
18.32087824749098
  0
LWPOLYLINE
  5
1CE
330
1F
100
AcDbEntity
  8
0
  6
SLD-Solid
 62
     7
370
    25
100
AcDbPolyline
 90
       11
 70
   128
 43
0.0
 10
33.57758482521921
 20
17.96150047761133
 10
33.61021925565149
 20
17.95063144657877
 10
33.6479578221631
 20
17.95232721531846
 10
33.68871508556046
 20
17.96649407537986
 10
33.73023879297949
 20
17.99234916382056
 10
33.77023433773744
 20
18.02846372433707
 10
33.80649155966351
 20
18.07284206056564
 10
33.83700687890176
 20
18.12303181858105
 10
33.86009401405288
 20
18.17625950436492
 10
33.87447716635286
 20
18.22958374752674
 10
33.87936152051577
 20
18.28005784189988
  0
LWPOLYLINE
  5
1CF
330
1F
100
AcDbEntity
  8
0
  6
SLD-Solid
 62
     7
370
    25
100
AcDbPolyline
 90
       11
 70
   128
 43
0.0
 10
33.17225473932922
 20
18.68826189781123
 10
33.16737038516634
 20
18.63778780343806
 10
33.15298723286634
 20
18.58446356027626
 10
33.1299000977152
 20
18.5312358744924
 10
33.09938477847694
 20
18.481046116477
 10
33.06312755655086
 20
18.43666778024844
 10
33.0231320117929
 20
18.40055321973194
 10
32.98160830437386
 20
18.37469813129125
 10
32.94085104097649
 20
18.36053127122986
 10
32.90311247446488
 20
18.35883550249018
 10
32.87351200416253
 20
18.36803554047443
  0
ARC
  5
1D0
330
1F
100
AcDbEntity
  8
0
  6
SLD-Solid
 62
     7
370
    25
100
AcDbCircle
 10
36.23070686383965
 20
19.91201737752685
 30
0.0
 40
1.461022058900812
100
AcDbArc
 50
31.99880419517126
 51
59.74833249209129
  0
ARC
  5
1D1
330
1F
100
AcDbEntity
  8
0
  6
SLD-Solid
 62
     7
370
    25
100
AcDbCircle
 10
36.30395100646988
 20
19.99296385839143
 30
0.0
 40
1.44825514452319
100
AcDbArc
 50
31.87401096914154
 51
59.87312571812925
  0
LINE
  5
1D2
330
1F
100
AcDbEntity
  8
0
  6
SLD-Solid
 62
     7
370
    25
100
AcDbLine
 10
37.66349786961098
 20
19.38357848326827
 30
0.0
 11
36.76263321649227
 21
21.09441930856023
 31
0.0
  0
LWPOLYLINE
  5
1D3
330
1F
100
AcDbEntity
  8
0
  6
SLD-Solid
 62
     7
370
    25
100
AcDbPolyline
 90
       10
 70
   128
 43
0.0
 10
36.9667684877205
 20
21.17407868445479
 10
36.90764458270986
 20
21.20520965633452
 10
36.85485712158252
 20
21.22677278272093
 10
36.81001002463309
 20
21.23811287893022
 10
36.77446594820866
 20
21.23888538187746
 10
36.74930488108519
 20
21.22906681945149
 10
36.73529132955514
 20
21.20895552370319
 10
36.73285108829054
 20
21.17916256617707
 10
36.74205830278739
 20
21.14059319081159
 10
36.76263321649227
 20
21.09441930856023
  0
LINE
  5
1D4
330
1F
100
AcDbEntity
  8
0
  6
SLD-Solid
 62
     7
370
    25
100
AcDbLine
 10
37.46973999767884
 20
20.68621525264885
 30
0.0
 11
38.37060465079753
 21
18.97537442735689
 31
0.0
  0
LWPOLYLINE
  5
1D5
330
1F
100
AcDbEntity
  8
0
  6
SLD-Solid
 62
     7
370
    25
100
AcDbPolyline
 90
        7
 70
   128
 43
0.0
 10
36.80793132376527
 20
21.29553144921671
 10
36.81339051929081
 20
21.30057117676466
 10
36.83855158641426
 20
21.31038973919064
 10
36.87409566283869
 20
21.30961723624341
 10
36.91894275978811
 20
21.29827714003412
 10
36.97173022091544
 20
21.27671401364772
 10
37.03085412592608
 20
21.2455830417679
  0
LINE
  5
1D6
330
1F
100
AcDbEntity
  8
0
  6
SLD-Solid
 62
     7
370
    25
100
AcDbLine
 10
37.53382563588445
 20
20.75771960996199
 30
0.0
 11
38.43469028900311
 21
19.04687878467007
 31
0.0
  0
ARC
  5
1D7
330
1F
100
AcDbEntity
  8
0
  6
SLD-Solid
 62
     7
370
    25
100
AcDbCircle
 10
38.22687706698853
 20
18.94580920924893
 30
0.0
 40
0.2310874170522736
100
AcDbArc
 50
358.431769211883
 51
25.93588576580019
  0
ARC
  5
1D8
330
1F
100
AcDbEntity
  8
0
  6
SLD-Solid
 62
     7
370
    25
100
AcDbCircle
 10
38.22216663507283
 20
18.90318187348464
 30
0.0
 40
0.1650624407516256
100
AcDbArc
 50
358.431769211885
 51
25.93588576580051
  0
ARC
  5
1D9
330
1F
100
AcDbEntity
  8
0
  6
SLD-Solid
 62
     7
370
    25
100
AcDbCircle
 10
37.51505985388641
 20
19.31138592939606
 30
0.0
 40
0.1650624407514972
100
AcDbArc
 50
358.4317692118727
 51
25.93588576580995
  0
LINE
  5
1DA
330
1F
100
AcDbEntity
  8
0
  6
SLD-Solid
 62
     7
370
    25
100
AcDbLine
 10
37.6800604693935
 20
16.08596104137639
 30
0.0
 11
37.68006046939367
 21
19.30686860396315
 31
0.0
  0
LINE
  5
1DB
330
1F
100
AcDbEntity
  8
0
  6
SLD-Solid
 62
     7
370
    25
100
AcDbLine
 10
38.38716725058022
 20
18.89866454805177
 30
0.0
 11
38.38716725058006
 21
15.67775698546504
 31
0.0
  0
LINE
  5
1DC
330
1F
100
AcDbEntity
  8
0
  6
SLD-Solid
 62
     7
370
    25
100
AcDbLine
 10
38.45787792869887
 20
18.9394849536429
 30
0.0
 11
38.45787792869877
 21
15.71857739105613
 31
0.0
  0
LWPOLYLINE
  5
1DD
330
1F
100
AcDbEntity
  8
0
  6
SLD-Solid
 62
     7
370
    25
100
AcDbPolyline
 90
       10
 70
   128
 43
0.0
 10
37.28432453810554
 20
15.82172917246969
 10
37.34951650183698
 20
15.78409394011288
 10
37.42032376423305
 20
15.74321566095852
 10
37.49459488245607
 20
15.70033640083332
 10
37.57007316616182
 20
15.65675902435822
 10
37.64446524589376
 20
15.6138076080662
 10
37.71551075595344
 20
15.57278720900684
 10
37.78105101446846
 20
15.53494421124822
 10
37.83909461384881
 20
15.50142845512776
 10
37.88787792869881
 20
15.4732582999354
  0
LWPOLYLINE
  5
1DE
330
1F
100
AcDbEntity
  8
0
  6
SLD-Solid
 62
     7
370
    25
100
AcDbPolyline
 90
       10
 70
   128
 43
0.0
 10
37.83787792869881
 20
15.38665575981112
 10
37.78909461384882
 20
15.41482591500349
 10
37.73105101446846
 20
15.44834167112394
 10
37.66551075595343
 20
15.48618466888256
 10
37.59446524589376
 20
15.52720506794193
 10
37.52007316616181
 20
15.57015648423394
 10
37.44459488245607
 20
15.61373386070904
 10
37.37032376423306
 20
15.65661312083424
 10
37.29951650183698
 20
15.6974913999886
 10
37.23432453810556
 20
15.73512663234542
  0
LINE
  5
1DF
330
1F
100
AcDbEntity
  8
0
  6
SLD-Solid
 62
     7
370
    25
100
AcDbLine
 10
38.0353905552835
 20
15.27259708105222
 30
0.0
 11
37.83787792869881
 21
15.38665575981112
 31
0.0
  0
LINE
  5
1E0
330
1F
100
AcDbEntity
  8
0
  6
SLD-Solid
 62
     7
370
    25
100
AcDbLine
 10
38.0353905552835
 20
15.27259708105222
 30
0.0
 11
37.32828377409695
 21
15.68080113696357
 31
0.0
  0
LINE
  5
1E1
330
1F
100
AcDbEntity
  8
0
  6
SLD-Solid
 62
     7
370
    25
100
AcDbLine
 10
37.13077114751225
 20
15.79485981572246
 30
0.0
 11
37.32828377409695
 21
15.68080113696357
 31
0.0
  0
LWPOLYLINE
  5
1E2
330
1F
100
AcDbEntity
  8
0
  6
SLD-Solid
 62
     7
370
    25
100
AcDbPolyline
 90
       10
 70
   128
 43
0.0
 10
37.23432453810556
 20
15.73512663234542
 10
37.17672869786802
 20
15.76837529041387
 10
37.1284790015851
 20
15.79622713054317
 10
37.09104149186281
 20
15.81783588866473
 10
37.06555368848979
 20
15.83254499359756
 10
37.05279002547407
 20
15.83990751663145
 10
37.05313832025766
 20
15.83969975122964
 10
37.0665879900798
 20
15.83192801023872
 10
37.0927303735288
 20
15.81682843407601
 10
37.13077114751225
 20
15.79485981572246
  0
LWPOLYLINE
  5
1E3
330
1F
100
AcDbEntity
  8
0
  6
SLD-Solid
 62
     7
370
    25
100
AcDbPolyline
 90
        7
 70
   128
 43
0.0
 10
37.10131183653102
 20
15.92736032844135
 10
37.10279002547404
 20
15.92651005675572
 10
37.11555368848976
 20
15.91914753372182
 10
37.14104149186278
 20
15.90443842878898
 10
37.17847900158507
 20
15.88282967066743
 10
37.226728697868
 20
15.85497783053812
 10
37.28432453810554
 20
15.82172917246969
  0
LINE
  5
1E4
330
1F
100
AcDbEntity
  8
0
  6
SLD-Solid
 62
     7
370
    25
100
AcDbLine
 10
38.0853905552835
 20
15.35919962117649
 30
0.0
 11
37.88787792869881
 21
15.4732582999354
 31
0.0
  0
LWPOLYLINE
  5
1E5
330
1F
100
AcDbEntity
  8
0
  6
SLD-Solid
 62
     7
370
    25
100
AcDbPolyline
 90
       12
 70
   128
 43
0.0
 10
38.0353905552835
 20
15.27259708105222
 10
38.07658877941032
 20
15.25804260547547
 10
38.12390258337178
 20
15.25800733685775
 10
38.1751694297612
 20
15.27249288719597
 10
38.22804610235504
 20
15.3008371760434
 10
38.28011580578171
 20
15.34174469173608
 10
38.32899862821873
 20
15.39334570439618
 10
38.37246031828035
 20
15.45328172430701
 10
38.4085144043104
 20
15.51881329967622
 10
38.43551298858819
 20
15.58694522675375
 10
38.45222206658357
 20
15.65456344941729
 10
38.45787792869877
 20
15.71857739105613
  0
LWPOLYLINE
  5
1E6
330
1F
100
AcDbEntity
  8
0
  6
SLD-Solid
 62
     7
370
    25
100
AcDbPolyline
 90
       11
 70
   128
 43
0.0
 10
38.0853905552835
 20
15.35919962117649
 10
38.11802498571577
 20
15.34833059014393
 10
38.15576355222738
 20
15.35002635888361
 10
38.19652081562474
 20
15.36419321894502
 10
38.23804452304377
 20
15.39004830738571
 10
38.27804006780172
 20
15.42616286790222
 10
38.3142972897278
 20
15.4705412041308
 10
38.34481260896604
 20
15.52073096214621
 10
38.36789974411717
 20
15.57395864793008
 10
38.38228289641714
 20
15.62728289109189
 10
38.38716725058006
 20
15.67775698546504
  0
LWPOLYLINE
  5
1E7
330
1F
100
AcDbEntity
  8
0
  6
SLD-Solid
 62
     7
370
    25
100
AcDbPolyline
 90
       11
 70
   128
 43
0.0
 10
37.6800604693935
 20
16.08596104137639
 10
37.67517611523062
 20
16.03548694700322
 10
37.66079296293062
 20
15.98216270384141
 10
37.63770582777948
 20
15.92893501805755
 10
37.60719050854123
 20
15.87874526004216
 10
37.57093328661514
 20
15.8343669238136
 10
37.53093774185718
 20
15.7982523632971
 10
37.48941403443814
 20
15.77239727485641
 10
37.44865677104077
 20
15.75823041479501
 10
37.41091820452915
 20
15.75653464605533
 10
37.38131772704232
 20
15.7657346877997
  0
ARC
  5
1E8
330
1F
100
AcDbEntity
  8
OBJECT
  6
SLD-Solid
370
    25
100
AcDbCircle
 10
40.73851259390401
 20
17.3097165210921
 30
0.0
 40
1.461022058900696
100
AcDbArc
 50
31.99880419517031
 51
59.7483324920925
  0
ARC
  5
1E9
330
1F
100
AcDbEntity
  8
OBJECT
  6
SLD-Solid
370
    25
100
AcDbCircle
 10
40.81175673653409
 20
17.39066300195651
 30
0.0
 40
1.448255144523293
100
AcDbArc
 50
31.87401096914268
 51
59.87312571812838
  0
LINE
  5
1EA
330
1F
100
AcDbEntity
  8
OBJECT
  6
SLD-Solid
370
    25
100
AcDbLine
 10
42.17130359967526
 20
16.78127762683343
 30
0.0
 11
41.27043894655655
 21
18.49211845212539
 31
0.0
  0
LWPOLYLINE
  5
1EB
330
1F
100
AcDbEntity
  8
OBJECT
  6
SLD-Solid
370
    25
100
AcDbPolyline
 90
       10
 70
   128
 43
0.0
 10
41.47457421778478
 20
18.57177782801995
 10
41.41545031277414
 20
18.60290879989968
 10
41.3626628516468
 20
18.62447192628608
 10
41.31781575469738
 20
18.63581202249538
 10
41.28227167827293
 20
18.63658452544261
 10
41.25711061114947
 20
18.62676596301664
 10
41.24309705961943
 20
18.60665466726834
 10
41.24065681835482
 20
18.57686170974223
 10
41.24986403285167
 20
18.53829233437675
 10
41.27043894655655
 20
18.49211845212539
  0
LINE
  5
1EC
330
1F
100
AcDbEntity
  8
OBJECT
  6
SLD-Solid
370
    25
100
AcDbLine
 10
41.97754572774311
 20
18.08391439621401
 30
0.0
 11
42.87841038086182
 21
16.37307357092204
 31
0.0
  0
LWPOLYLINE
  5
1ED
330
1F
100
AcDbEntity
  8
OBJECT
  6
SLD-Solid
370
    25
100
AcDbPolyline
 90
        7
 70
   128
 43
0.0
 10
41.31573705382954
 20
18.69323059278187
 10
41.32119624935509
 20
18.69827032032982
 10
41.34635731647855
 20
18.7080888827558
 10
41.38190139290298
 20
18.70731637980857
 10
41.42674848985239
 20
18.69597628359928
 10
41.47953595097972
 20
18.67441315721288
 10
41.53865985599036
 20
18.64328218533306
  0
LINE
  5
1EE
330
1F
100
AcDbEntity
  8
OBJECT
  6
SLD-Solid
370
    25
100
AcDbLine
 10
42.04163136594874
 20
18.15541875352714
 30
0.0
 11
42.94249601906739
 21
16.44457792823523
 31
0.0
  0
ARC
  5
1EF
330
1F
100
AcDbEntity
  8
OBJECT
  6
SLD-Solid
370
    25
100
AcDbCircle
 10
42.73468279705271
 20
16.34350835281407
 30
0.0
 40
0.2310874170523715
100
AcDbArc
 50
358.4317692118881
 51
25.93588576579337
  0
ARC
  5
1F0
330
1F
100
AcDbEntity
  8
OBJECT
  6
SLD-Solid
370
    25
100
AcDbCircle
 10
42.72997236513705
 20
16.30088101704979
 30
0.0
 40
0.1650624407516878
100
AcDbArc
 50
358.4317692118893
 51
25.93588576579302
  0
ARC
  5
1F1
330
1F
100
AcDbEntity
  8
OBJECT
  6
SLD-Solid
370
    25
100
AcDbCircle
 10
42.02286558395083
 20
16.70908507296126
 30
0.0
 40
0.1650624407513493
100
AcDbArc
 50
358.4317692118553
 51
25.93588576581711
  0
LINE
  5
1F2
330
1F
100
AcDbEntity
  8
OBJECT
  6
SLD-Solid
370
    25
100
AcDbLine
 10
42.18786619945778
 20
13.48366018494154
 30
0.0
 11
42.18786619945794
 21
16.70456774752831
 31
0.0
  0
LINE
  5
1F3
330
1F
100
AcDbEntity
  8
OBJECT
  6
SLD-Solid
370
    25
100
AcDbLine
 10
42.8949729806445
 20
16.29636369161692
 30
0.0
 11
42.89497298064434
 21
13.0754561290302
 31
0.0
  0
LINE
  5
1F4
330
1F
100
AcDbEntity
  8
OBJECT
  6
SLD-Solid
370
    25
100
AcDbLine
 10
42.96568365876315
 20
16.33718409720806
 30
0.0
 11
42.96568365876306
 21
13.11627653462129
 31
0.0
  0
LWPOLYLINE
  5
1F5
330
1F
100
AcDbEntity
  8
OBJECT
  6
SLD-Solid
370
    25
100
AcDbPolyline
 90
       10
 70
   128
 43
0.0
 10
41.79213026816983
 20
13.21942831603484
 10
41.85732223190126
 20
13.18179308367804
 10
41.92812949429733
 20
13.14091480452368
 10
42.00240061252035
 20
13.09803554439848
 10
42.0778788962261
 20
13.05445816792338
 10
42.15227097595804
 20
13.01150675163136
 10
42.22331648601772
 20
12.97048635257199
 10
42.28885674453274
 20
12.93264335481337
 10
42.34690034391309
 20
12.89912759869291
 10
42.3956836587631
 20
12.87095744350055
  0
LWPOLYLINE
  5
1F6
330
1F
100
AcDbEntity
  8
OBJECT
  6
SLD-Solid
370
    25
100
AcDbPolyline
 90
       10
 70
   128
 43
0.0
 10
42.34568365876309
 20
12.78435490337627
 10
42.29690034391309
 20
12.81252505856864
 10
42.23885674453273
 20
12.8460408146891
 10
42.17331648601771
 20
12.88388381244772
 10
42.10227097595804
 20
12.92490421150708
 10
42.0278788962261
 20
12.9678556277991
 10
41.95240061252035
 20
13.0114330042742
 10
41.87812949429733
 20
13.0543122643994
 10
41.80732223190125
 20
13.09519054355376
 10
41.74213026816984
 20
13.13282577591058
  0
LINE
  5
1F7
330
1F
100
AcDbEntity
  8
OBJECT
  6
SLD-Solid
370
    25
100
AcDbLine
 10
42.54319628534778
 20
12.67029622461737
 30
0.0
 11
42.34568365876309
 21
12.78435490337627
 31
0.0
  0
LINE
  5
1F8
330
1F
100
AcDbEntity
  8
OBJECT
  6
SLD-Solid
370
    25
100
AcDbLine
 10
42.54319628534778
 20
12.67029622461737
 30
0.0
 11
41.83608950416123
 21
13.07850028052872
 31
0.0
  0
LINE
  5
1F9
330
1F
100
AcDbEntity
  8
OBJECT
  6
SLD-Solid
370
    25
100
AcDbLine
 10
41.63857687757653
 20
13.19255895928762
 30
0.0
 11
41.83608950416123
 21
13.07850028052872
 31
0.0
  0
LWPOLYLINE
  5
1FA
330
1F
100
AcDbEntity
  8
OBJECT
  6
SLD-Solid
370
    25
100
AcDbPolyline
 90
       10
 70
   128
 43
0.0
 10
41.74213026816984
 20
13.13282577591058
 10
41.68453442793231
 20
13.16607443397902
 10
41.63628473164938
 20
13.19392627410833
 10
41.5988472219271
 20
13.21553503222988
 10
41.57335941855408
 20
13.23024413716272
 10
41.56059575553835
 20
13.23760666019661
 10
41.56094405032194
 20
13.2373988947948
 10
41.57439372014407
 20
13.22962715380388
 10
41.60053610359308
 20
13.21452757764117
 10
41.63857687757653
 20
13.19255895928762
  0
LWPOLYLINE
  5
1FB
330
1F
100
AcDbEntity
  8
OBJECT
  6
SLD-Solid
370
    25
100
AcDbPolyline
 90
        7
 70
   128
 43
0.0
 10
41.6091175665953
 20
13.32505947200651
 10
41.61059575553833
 20
13.32420920032087
 10
41.62335941855404
 20
13.31684667728697
 10
41.64884722192706
 20
13.30213757235414
 10
41.68628473164934
 20
13.28052881423259
 10
41.73453442793227
 20
13.25267697410328
 10
41.79213026816983
 20
13.21942831603484
  0
LINE
  5
1FC
330
1F
100
AcDbEntity
  8
OBJECT
  6
SLD-Solid
370
    25
100
AcDbLine
 10
42.59319628534777
 20
12.75689876474165
 30
0.0
 11
42.3956836587631
 21
12.87095744350055
 31
0.0
  0
LWPOLYLINE
  5
1FD
330
1F
100
AcDbEntity
  8
OBJECT
  6
SLD-Solid
370
    25
100
AcDbPolyline
 90
       12
 70
   128
 43
0.0
 10
42.54319628534778
 20
12.67029622461737
 10
42.5843945094746
 20
12.65574174904062
 10
42.63170831343606
 20
12.65570648042291
 10
42.68297515982548
 20
12.67019203076113
 10
42.73585183241932
 20
12.69853631960856
 10
42.78792153584599
 20
12.73944383530123
 10
42.836804358283
 20
12.79104484796134
 10
42.88026604834463
 20
12.85098086787217
 10
42.91632013437468
 20
12.91651244324138
 10
42.94331871865248
 20
12.9846443703189
 10
42.96002779664785
 20
13.05226259298244
 10
42.96568365876306
 20
13.11627653462129
  0
LWPOLYLINE
  5
1FE
330
1F
100
AcDbEntity
  8
OBJECT
  6
SLD-Solid
370
    25
100
AcDbPolyline
 90
       11
 70
   128
 43
0.0
 10
42.59319628534777
 20
12.75689876474165
 10
42.62583071578005
 20
12.74602973370908
 10
42.66356928229166
 20
12.74772550244877
 10
42.70432654568903
 20
12.76189236251017
 10
42.74585025310805
 20
12.78774745095087
 10
42.785845797866
 20
12.82386201146738
 10
42.82210301979207
 20
12.86824034769595
 10
42.85261833903031
 20
12.91843010571136
 10
42.87570547418144
 20
12.97165779149523
 10
42.89008862648143
 20
13.02498203465705
 10
42.89497298064434
 20
13.0754561290302
  0
LWPOLYLINE
  5
1FF
330
1F
100
AcDbEntity
  8
OBJECT
  6
SLD-Solid
370
    25
100
AcDbPolyline
 90
       11
 70
   128
 43
0.0
 10
42.18786619945778
 20
13.48366018494154
 10
42.1829818452949
 20
13.43318609056838
 10
42.16859869299491
 20
13.37986184740657
 10
42.14551155784376
 20
13.32663416162271
 10
42.11499623860551
 20
13.27644440360731
 10
42.07873901667942
 20
13.23206606737875
 10
42.03874347192146
 20
13.19595150686225
 10
41.99721976450242
 20
13.17009641842156
 10
41.95646250110505
 20
13.15592955836017
 10
41.91872393459344
 20
13.15423378962049
 10
41.88912344629713
 20
13.16343383702217
  0
ARC
  5
200
330
1F
100
AcDbEntity
  8
OBJECT
  6
SLD-Solid
370
    25
100
AcDbCircle
 10
32.56261149621569
 20
22.2190333710777
 30
0.0
 40
0.1152603605678824
100
AcDbArc
 50
122.6054783400176
 51
177.3945215143516
  0
ARC
  5
201
330
1F
100
AcDbEntity
  8
OBJECT
  6
SLD-Solid
370
    25
100
AcDbCircle
 10
43.87631999520053
 20
15.68776847649615
 30
0.0
 40
0.1152603605678553
100
AcDbArc
 50
122.6054783400125
 51
177.3945215143571
  0
ARC
  5
202
330
1F
100
AcDbEntity
  8
OBJECT
  6
SLD-Solid
370
    25
100
AcDbCircle
 10
43.84733616899422
 20
15.70450074828217
 30
0.0
 40
0.0614721923028469
100
AcDbArc
 50
122.6054783400168
 51
177.394521514372
  0
LINE
  5
203
330
1F
100
AcDbEntity
  8
OBJECT
  6
SLD-Solid
370
    25
100
AcDbLine
 10
43.76117878759802
 20
15.69300804041566
 30
0.0
 11
43.76117878759795
 21
13.36831634897688
 31
0.0
  0
LINE
  5
204
330
1F
100
AcDbEntity
  8
OBJECT
  6
SLD-Solid
370
    25
100
AcDbLine
 10
43.78592752493955
 20
15.70729518237256
 30
0.0
 11
43.78592752493948
 21
13.38260349093378
 31
0.0
  0
LINE
  5
205
330
1F
100
AcDbEntity
  8
OBJECT
  6
SLD-Solid
370
    25
100
AcDbLine
 10
32.44747028861308
 20
19.89958124355845
 30
0.0
 11
32.44747028861315
 21
22.22427293499723
 31
0.0
  0
LWPOLYLINE
  5
206
330
1F
100
AcDbEntity
  8
OBJECT
  6
SLD-Solid
370
    25
100
AcDbPolyline
 90
       17
 70
   128
 43
0.0
 10
32.83637901826572
 20
20.75576077733803
 10
32.86343882327303
 20
20.74635503124831
 10
32.88637901826573
 20
20.75081231840232
 10
32.90170716650955
 20
20.76845405723628
 10
32.90708969638438
 20
20.79659445293547
 10
32.90170716650955
 20
20.830949385348
 10
32.88637901826573
 20
20.86628862744232
 10
32.86343882327304
 20
20.89723209996059
 10
32.83637901826573
 20
20.91906893971518
 10
32.80931921325842
 20
20.92847468580489
 10
32.78637901826573
 20
20.92401739865088
 10
32.7710508700219
 20
20.90637565981692
 10
32.76566834014707
 20
20.87823526411773
 10
32.7710508700219
 20
20.8438803317052
 10
32.78637901826573
 20
20.80854108961088
 10
32.80931921325841
 20
20.77759761709261
 10
32.83637901826572
 20
20.75576077733803
  0
LWPOLYLINE
  5
207
330
1F
100
AcDbEntity
  8
OBJECT
  6
SLD-Solid
370
    25
100
AcDbPolyline
 90
       17
 70
   128
 43
0.0
 10
43.37227005794538
 20
14.83682850663609
 10
43.34521025293807
 20
14.84623425272581
 10
43.32227005794538
 20
14.84177696557179
 10
43.30694190970156
 20
14.82413522673784
 10
43.30155937982672
 20
14.79599483103865
 10
43.30694190970156
 20
14.76163989862611
 10
43.32227005794537
 20
14.72630065653179
 10
43.34521025293807
 20
14.69535718401352
 10
43.37227005794538
 20
14.67352034425894
 10
43.39932986295268
 20
14.66411459816922
 10
43.42227005794538
 20
14.66857188532324
 10
43.4375982061892
 20
14.68621362415719
 10
43.44298073606404
 20
14.71435401985638
 10
43.4375982061892
 20
14.74870895226892
 10
43.42227005794538
 20
14.78404819436324
 10
43.39932986295268
 20
14.81499166688151
 10
43.37227005794538
 20
14.83682850663609
  0
LINE
  5
208
330
1F
100
AcDbEntity
  8
OBJECT
  6
SLD-Solid
370
    25
100
AcDbLine
 10
32.50050329720215
 20
22.31612880008202
 30
0.0
 11
32.79041707748863
 21
22.48349246300566
 31
0.0
  0
LINE
  5
209
330
1F
100
AcDbEntity
  8
OBJECT
  6
SLD-Solid
370
    25
100
AcDbLine
 10
32.79041707748863
 20
22.48349246300566
 30
0.0
 11
32.93876102836277
 21
22.3978553230038
 31
0.0
  0
LINE
  5
20A
330
1F
100
AcDbEntity
  8
OBJECT
  6
SLD-Solid
370
    25
100
AcDbLine
 10
33.7920372741403
 20
21.90526943130196
 30
0.0
 11
37.44656675842705
 21
19.79555446656895
 31
0.0
  0
LINE
  5
20B
330
1F
100
AcDbEntity
  8
OBJECT
  6
SLD-Solid
370
    25
100
AcDbLine
 10
38.29984300420458
 20
19.30296857486712
 30
0.0
 11
41.95437248849134
 21
17.19325361013411
 31
0.0
  0
LINE
  5
20C
330
1F
100
AcDbEntity
  8
OBJECT
  6
SLD-Solid
370
    25
100
AcDbLine
 10
42.80764873426886
 20
16.70066771843227
 30
0.0
 11
44.10412557647349
 21
15.95222756842409
 31
0.0
  0
LINE
  5
20D
330
1F
100
AcDbEntity
  8
OBJECT
  6
SLD-Solid
370
    25
100
AcDbLine
 10
44.10412557647349
 20
15.95222756842409
 30
0.0
 11
43.81421179618701
 21
15.78486390550044
 31
0.0
  0
LINE
  5
20E
330
1F
100
AcDbEntity
  8
OBJECT
  6
SLD-Solid
370
    25
100
AcDbLine
 10
44.10412557647349
 20
15.95222756842409
 30
0.0
 11
44.10412557647349
 21
15.92364864000809
 31
0.0
  0
LINE
  5
20F
330
1F
100
AcDbEntity
  8
OBJECT
  6
SLD-Solid
370
    25
100
AcDbLine
 10
44.10412557647349
 20
15.92364864000809
 30
0.0
 11
43.81421179618701
 21
15.75628497708444
 31
0.0
  0
LWPOLYLINE
  5
210
330
1F
100
AcDbEntity
  8
OBJECT
  6
SLD-Solid
370
    25
100
AcDbPolyline
 90
        9
 70
   128
 43
0.0
 10
43.33620355084123
 20
14.8462291463791
 10
43.33169064704309
 20
14.83842236869473
 10
43.32630811716825
 20
14.81028197299555
 10
43.33169064704309
 20
14.77592704058301
 10
43.34701879528691
 20
14.74058779848869
 10
43.36995899027959
 20
14.70964432597042
 10
43.3970187952869
 20
14.68780748621583
 10
43.42407860029422
 20
14.67840174012612
 10
43.43308530239106
 20
14.67840684647282
  0
ARC
  5
211
330
1F
100
AcDbEntity
  8
OBJECT
  6
SLD-Solid
370
    25
100
AcDbCircle
 10
43.79350936515493
 20
13.36307180920933
 30
0.0
 40
0.032753189807133
100
AcDbArc
 50
170.7859630095197
 51
309.2032852357225
  0
ARC
  5
212
330
1F
100
AcDbEntity
  8
OBJECT
  6
SLD-Solid
370
    25
100
AcDbCircle
 10
32.48422043130538
 20
19.89552473826416
 30
0.0
 40
0.0369733447649371
100
AcDbArc
 50
173.7011524951293
 51
234.9866671114831
  0
ARC
  5
213
330
1F
100
AcDbEntity
  8
OBJECT
  6
SLD-Solid
370
    25
100
AcDbCircle
 10
43.80317049963654
 20
13.37980640305775
 30
0.0
 40
0.0174683678971413
100
AcDbArc
 50
170.7859630095151
 51
309.2032852357246
  0
LINE
  5
214
330
1F
100
AcDbEntity
  8
OBJECT
  6
SLD-Solid
370
    25
100
AcDbLine
 10
44.10412557647342
 20
13.53363368361845
 30
0.0
 11
43.81421179618694
 21
13.3662700206948
 31
0.0
  0
LINE
  5
215
330
1F
100
AcDbEntity
  8
OBJECT
  6
SLD-Solid
370
    25
100
AcDbLine
 10
44.10412557647342
 20
13.50505475520244
 30
0.0
 11
44.10412557647342
 21
13.53363368361845
 31
0.0
  0
LINE
  5
216
330
1F
100
AcDbEntity
  8
OBJECT
  6
SLD-Solid
370
    25
100
AcDbLine
 10
44.10412557647342
 20
13.50505475520244
 30
0.0
 11
43.81421179618693
 21
13.3376910922788
 31
0.0
  0
LINE
  5
217
330
1F
100
AcDbEntity
  8
OBJECT
  6
SLD-Solid
370
    25
100
AcDbLine
 10
43.78592752493949
 20
13.71732550877854
 30
0.0
 11
44.10412557647342
 21
13.53363368361845
 31
0.0
  0
LWPOLYLINE
  5
218
330
1F
100
AcDbEntity
  8
OBJECT
  6
SLD-Solid
370
    25
100
AcDbPolyline
 90
        3
 70
   128
 43
0.0
 10
32.86112775560726
 20
20.77004791929492
 10
32.88818756061456
 20
20.76064217320521
 10
32.89719426271106
 20
20.76064727955188
  0
LWPOLYLINE
  5
219
330
1F
100
AcDbEntity
  8
OBJECT
  6
SLD-Solid
370
    25
100
AcDbPolyline
 90
        7
 70
   128
 43
0.0
 10
32.80031251116137
 20
20.9284695794579
 10
32.79579960736343
 20
20.92066280177382
 10
32.7904170774886
 20
20.89252240607463
 10
32.79579960736343
 20
20.85816747366209
 10
32.81112775560725
 20
20.82282823156777
 10
32.83406795059994
 20
20.79188475904951
 10
32.86112775560726
 20
20.77004791929492
  0
LINE
  5
21A
330
1F
100
AcDbEntity
  8
0
  6
SLD-Solid
 62
     8
370
    25
100
AcDbLine
 10
33.02601990582018
 20
23.36002046639683
 30
0.0
 11
32.96193426761455
 21
23.28851610908369
 31
0.0
  0
LINE
  5
21B
330
1F
100
AcDbEntity
  8
0
  6
SLD-Solid
 62
     8
370
    25
100
AcDbLine
 10
32.52304839586179
 20
23.84788389820274
 30
0.0
 11
32.45896275765622
 21
23.77637954088964
 31
0.0
  0
LINE
  5
21C
330
1F
100
AcDbEntity
  8
0
  6
SLD-Solid
 62
     8
370
    25
100
AcDbLine
 10
33.86279892073325
 20
21.57767528379173
 30
0.0
 11
33.15569213954669
 21
21.98587933970312
 31
0.0
  0
LINE
  5
21D
330
1F
100
AcDbEntity
  8
0
  6
SLD-Solid
 62
     8
370
    25
100
AcDbLine
 10
33.86279892073325
 20
21.57767528379173
 30
0.0
 11
33.92688455893883
 21
21.64917964110492
 31
0.0
  0
LINE
  5
21E
330
1F
100
AcDbEntity
  8
0
  6
SLD-Solid
 62
     8
370
    25
100
AcDbLine
 10
33.87936152051594
 20
21.50096540448661
 30
0.0
 11
33.95007219863459
 21
21.54178581007774
 31
0.0
  0
LINE
  5
21F
330
1F
100
AcDbEntity
  8
0
  6
SLD-Solid
 62
     8
370
    25
100
AcDbLine
 10
33.17225473932938
 20
21.909169460398
 30
0.0
 11
33.87936152051594
 21
21.50096540448661
 31
0.0
  0
LINE
  5
220
330
1F
100
AcDbEntity
  8
0
  6
SLD-Solid
 62
     8
370
    25
100
AcDbLine
 10
33.87936152051577
 20
18.28005784189988
 30
0.0
 11
33.17225473932922
 21
18.68826189781123
 31
0.0
  0
LINE
  5
221
330
1F
100
AcDbEntity
  8
0
  6
SLD-Solid
 62
     8
370
    25
100
AcDbLine
 10
33.87936152051577
 20
18.28005784189988
 30
0.0
 11
33.95007219863449
 21
18.32087824749098
 31
0.0
  0
LINE
  5
222
330
1F
100
AcDbEntity
  8
0
  6
SLD-Solid
 62
     8
370
    25
100
AcDbLine
 10
33.38007219863453
 20
18.07555915637024
 30
0.0
 11
33.33007219863453
 21
17.98895661624596
 31
0.0
  0
LINE
  5
223
330
1F
100
AcDbEntity
  8
0
  6
SLD-Solid
 62
     8
370
    25
100
AcDbLine
 10
32.72651880804128
 20
18.33742748878026
 30
0.0
 11
32.77651880804127
 21
18.42403002890453
 31
0.0
  0
LINE
  5
224
330
1F
100
AcDbEntity
  8
0
  6
SLD-Solid
 62
     8
370
    25
100
AcDbLine
 10
33.57758482521921
 20
17.96150047761133
 30
0.0
 11
33.52758482521921
 21
17.87489793748706
 31
0.0
  0
LINE
  5
225
330
1F
100
AcDbEntity
  8
0
  6
SLD-Solid
 62
     8
370
    25
100
AcDbLine
 10
37.53382563588445
 20
20.75771960996199
 30
0.0
 11
37.46973999767884
 21
20.68621525264885
 31
0.0
  0
LINE
  5
226
330
1F
100
AcDbEntity
  8
0
  6
SLD-Solid
 62
     8
370
    25
100
AcDbLine
 10
37.03085412592608
 20
21.2455830417679
 30
0.0
 11
36.9667684877205
 21
21.17407868445479
 31
0.0
  0
LINE
  5
227
330
1F
100
AcDbEntity
  8
0
  6
SLD-Solid
 62
     8
370
    25
100
AcDbLine
 10
38.37060465079753
 20
18.97537442735689
 30
0.0
 11
37.66349786961098
 21
19.38357848326827
 31
0.0
  0
LINE
  5
228
330
1F
100
AcDbEntity
  8
0
  6
SLD-Solid
 62
     8
370
    25
100
AcDbLine
 10
38.37060465079753
 20
18.97537442735689
 30
0.0
 11
38.43469028900311
 21
19.04687878467007
 31
0.0
  0
LINE
  5
229
330
1F
100
AcDbEntity
  8
0
  6
SLD-Solid
 62
     8
370
    25
100
AcDbLine
 10
38.38716725058022
 20
18.89866454805177
 30
0.0
 11
38.45787792869887
 21
18.9394849536429
 31
0.0
  0
LINE
  5
22A
330
1F
100
AcDbEntity
  8
0
  6
SLD-Solid
 62
     8
370
    25
100
AcDbLine
 10
37.68006046939367
 20
19.30686860396315
 30
0.0
 11
38.38716725058022
 21
18.89866454805177
 31
0.0
  0
LINE
  5
22B
330
1F
100
AcDbEntity
  8
0
  6
SLD-Solid
 62
     8
370
    25
100
AcDbLine
 10
38.38716725058006
 20
15.67775698546504
 30
0.0
 11
37.6800604693935
 21
16.08596104137639
 31
0.0
  0
LINE
  5
22C
330
1F
100
AcDbEntity
  8
0
  6
SLD-Solid
 62
     8
370
    25
100
AcDbLine
 10
38.38716725058006
 20
15.67775698546504
 30
0.0
 11
38.45787792869877
 21
15.71857739105613
 31
0.0
  0
LINE
  5
22D
330
1F
100
AcDbEntity
  8
0
  6
SLD-Solid
 62
     8
370
    25
100
AcDbLine
 10
37.88787792869881
 20
15.4732582999354
 30
0.0
 11
37.83787792869881
 21
15.38665575981112
 31
0.0
  0
LINE
  5
22E
330
1F
100
AcDbEntity
  8
0
  6
SLD-Solid
 62
     8
370
    25
100
AcDbLine
 10
37.23432453810556
 20
15.73512663234542
 30
0.0
 11
37.28432453810554
 21
15.82172917246969
 31
0.0
  0
LINE
  5
22F
330
1F
100
AcDbEntity
  8
0
  6
SLD-Solid
 62
     8
370
    25
100
AcDbLine
 10
38.0853905552835
 20
15.35919962117649
 30
0.0
 11
38.0353905552835
 21
15.27259708105222
 31
0.0
  0
LINE
  5
230
330
1F
100
AcDbEntity
  8
OBJECT
  6
SLD-Solid
370
    25
100
AcDbLine
 10
42.04163136594874
 20
18.15541875352714
 30
0.0
 11
41.97754572774311
 21
18.08391439621401
 31
0.0
  0
LINE
  5
231
330
1F
100
AcDbEntity
  8
OBJECT
  6
SLD-Solid
370
    25
100
AcDbLine
 10
41.53865985599036
 20
18.64328218533306
 30
0.0
 11
41.47457421778478
 21
18.57177782801995
 31
0.0
  0
LINE
  5
232
330
1F
100
AcDbEntity
  8
OBJECT
  6
SLD-Solid
370
    25
100
AcDbLine
 10
42.87841038086182
 20
16.37307357092204
 30
0.0
 11
42.17130359967526
 21
16.78127762683343
 31
0.0
  0
LINE
  5
233
330
1F
100
AcDbEntity
  8
OBJECT
  6
SLD-Solid
370
    25
100
AcDbLine
 10
42.87841038086182
 20
16.37307357092204
 30
0.0
 11
42.94249601906739
 21
16.44457792823523
 31
0.0
  0
LINE
  5
234
330
1F
100
AcDbEntity
  8
OBJECT
  6
SLD-Solid
370
    25
100
AcDbLine
 10
42.8949729806445
 20
16.29636369161692
 30
0.0
 11
42.96568365876315
 21
16.33718409720806
 31
0.0
  0
LINE
  5
235
330
1F
100
AcDbEntity
  8
OBJECT
  6
SLD-Solid
370
    25
100
AcDbLine
 10
42.18786619945794
 20
16.70456774752831
 30
0.0
 11
42.8949729806445
 21
16.29636369161692
 31
0.0
  0
LINE
  5
236
330
1F
100
AcDbEntity
  8
OBJECT
  6
SLD-Solid
370
    25
100
AcDbLine
 10
42.89497298064434
 20
13.0754561290302
 30
0.0
 11
42.18786619945778
 21
13.48366018494154
 31
0.0
  0
LINE
  5
237
330
1F
100
AcDbEntity
  8
OBJECT
  6
SLD-Solid
370
    25
100
AcDbLine
 10
42.89497298064434
 20
13.0754561290302
 30
0.0
 11
42.96568365876306
 21
13.11627653462129
 31
0.0
  0
LINE
  5
238
330
1F
100
AcDbEntity
  8
OBJECT
  6
SLD-Solid
370
    25
100
AcDbLine
 10
42.3956836587631
 20
12.87095744350055
 30
0.0
 11
42.34568365876309
 21
12.78435490337627
 31
0.0
  0
LINE
  5
239
330
1F
100
AcDbEntity
  8
OBJECT
  6
SLD-Solid
370
    25
100
AcDbLine
 10
41.74213026816984
 20
13.13282577591058
 30
0.0
 11
41.79213026816983
 21
13.21942831603484
 31
0.0
  0
LINE
  5
23A
330
1F
100
AcDbEntity
  8
OBJECT
  6
SLD-Solid
370
    25
100
AcDbLine
 10
42.59319628534777
 20
12.75689876474165
 30
0.0
 11
42.54319628534778
 21
12.67029622461737
 31
0.0
  0
LINE
  5
23B
330
1F
100
AcDbEntity
  8
OBJECT
  6
SLD-Solid
370
    25
100
AcDbLine
 10
43.81421179618701
 20
15.78486390550044
 30
0.0
 11
42.96568365876315
 21
16.27470877259406
 31
0.0
  0
LINE
  5
23C
330
1F
100
AcDbEntity
  8
OBJECT
  6
SLD-Solid
370
    25
100
AcDbLine
 10
42.18700171205344
 20
16.72423229205242
 30
0.0
 11
38.45787792869886
 21
18.8770096290289
 31
0.0
  0
LINE
  5
23D
330
1F
100
AcDbEntity
  8
OBJECT
  6
SLD-Solid
370
    25
100
AcDbLine
 10
37.67919598198915
 20
19.32653314848726
 30
0.0
 11
33.95007219863459
 21
21.47931048546375
 31
0.0
  0
LINE
  5
23E
330
1F
100
AcDbEntity
  8
OBJECT
  6
SLD-Solid
370
    25
100
AcDbLine
 10
33.17139025192488
 20
21.92883400492211
 30
0.0
 11
32.50050329720215
 21
22.31612880008202
 31
0.0
  0
LINE
  5
23F
330
1F
100
AcDbEntity
  8
OBJECT
  6
SLD-Solid
370
    25
100
AcDbLine
 10
43.76117878759802
 20
15.69300804041566
 30
0.0
 11
42.96568365876314
 21
16.15223760331593
 31
0.0
  0
LINE
  5
240
330
1F
100
AcDbEntity
  8
OBJECT
  6
SLD-Solid
370
    25
100
AcDbLine
 10
42.18786619945794
 20
16.60126206481841
 30
0.0
 11
38.45787792869886
 21
18.75453845975077
 31
0.0
  0
LINE
  5
241
330
1F
100
AcDbEntity
  8
OBJECT
  6
SLD-Solid
370
    25
100
AcDbLine
 10
37.68006046939366
 20
19.20356292125325
 30
0.0
 11
33.95007219863458
 21
21.35683931618562
 31
0.0
  0
LINE
  5
242
330
1F
100
AcDbEntity
  8
OBJECT
  6
SLD-Solid
370
    25
100
AcDbLine
 10
33.17225473932938
 20
21.8058637776881
 30
0.0
 11
32.44747028861315
 21
22.22427293499723
 31
0.0
  0
LINE
  5
243
330
1F
100
AcDbEntity
  8
OBJECT
  6
SLD-Solid
370
    25
100
AcDbLine
 10
43.78592752493955
 20
15.70729518237256
 30
0.0
 11
43.76117878759802
 21
15.69300804041566
 31
0.0
  0
LINE
  5
244
330
1F
100
AcDbEntity
  8
OBJECT
  6
SLD-Solid
370
    25
100
AcDbLine
 10
43.81421179618701
 20
15.75628497708444
 30
0.0
 11
43.81421179618701
 21
15.78486390550044
 31
0.0
  0
LINE
  5
245
330
1F
100
AcDbEntity
  8
OBJECT
  6
SLD-Solid
370
    25
100
AcDbLine
 10
43.78592752493948
 20
13.38260349093378
 30
0.0
 11
43.76117878759795
 21
13.36831634897688
 31
0.0
  0
LINE
  5
246
330
1F
100
AcDbEntity
  8
OBJECT
  6
SLD-Solid
370
    25
100
AcDbLine
 10
32.44747028861308
 20
19.89958124355845
 30
0.0
 11
33.17225473932926
 21
19.48117208624935
 31
0.0
  0
LINE
  5
247
330
1F
100
AcDbEntity
  8
OBJECT
  6
SLD-Solid
370
    25
100
AcDbLine
 10
33.95007219863452
 20
19.03214762474684
 30
0.0
 11
37.68006046939354
 21
16.8788712298145
 31
0.0
  0
LINE
  5
248
330
1F
100
AcDbEntity
  8
OBJECT
  6
SLD-Solid
370
    25
100
AcDbLine
 10
38.45787792869879
 20
16.42984676831199
 30
0.0
 11
42.18786619945782
 21
14.27657037337966
 31
0.0
  0
LINE
  5
249
330
1F
100
AcDbEntity
  8
OBJECT
  6
SLD-Solid
370
    25
100
AcDbLine
 10
42.96568365876307
 20
13.82754591187715
 30
0.0
 11
43.76117878759795
 21
13.36831634897688
 31
0.0
  0
LINE
  5
24A
330
1F
100
AcDbEntity
  8
OBJECT
  6
SLD-Solid
370
    25
100
AcDbLine
 10
43.81421179618694
 20
13.3662700206948
 30
0.0
 11
43.81421179618693
 21
13.3376910922788
 31
0.0
  0
LINE
  5
24B
330
1F
100
AcDbEntity
  8
OBJECT
  6
SLD-Solid
370
    25
100
AcDbLine
 10
43.81421179618694
 20
13.3662700206948
 30
0.0
 11
43.78592752531305
 21
13.3825981827156
 31
0.0
  0
LINE
  5
24C
330
1F
100
AcDbEntity
  8
0
  6
SLD-Solid
 62
     7
370
    25
100
AcDbLine
 10
12.45779628609293
 20
20.31356763753491
 30
0.0
 11
12.45779628609283
 21
20.22293685883128
 31
0.0
  0
LWPOLYLINE
  5
24D
330
1F
100
AcDbEntity
  8
0
  6
SLD-Solid
 62
     7
370
    25
100
AcDbPolyline
 90
       11
 70
   128
 43
0.0
 10
12.45779628609283
 20
20.22293685883128
 10
12.45164045639041
 20
20.18988082798545
 10
12.43332454424042
 20
20.15763874632574
 10
12.40329954818703
 20
20.12700452090792
 10
12.36230478328033
 20
20.09873246803094
 10
12.31134967668613
 20
20.07351873946621
 10
12.25168891223909
 20
20.05198418089055
 10
12.18479153596262
 20
20.03465904460521
 10
12.11230478328032
 20
20.02196993296435
 10
12.03601351861296
 20
20.01422929400932
 10
11.95779628609284
 20
20.01162772796092
  0
LWPOLYLINE
  5
24E
330
1F
100
AcDbEntity
  8
0
  6
SLD-Solid
 62
     7
370
    25
100
AcDbPolyline
 90
       11
 70
   128
 43
0.0
 10
11.95779628609283
 20
20.10225850666458
 10
12.03601351861294
 20
20.104860072713
 10
12.1123047832803
 20
20.11260071166802
 10
12.18479153596259
 20
20.12528982330887
 10
12.25168891223905
 20
20.14261495959421
 10
12.31134967668609
 20
20.16414951816986
 10
12.36230478328029
 20
20.18936324673459
 10
12.40329954818699
 20
20.21763529961156
 10
12.43332454424038
 20
20.24826952502939
 10
12.45164045639037
 20
20.28051160668911
 10
12.45779628609293
 20
20.31356763753491
  0
LWPOLYLINE
  5
24F
330
1F
100
AcDbEntity
  8
0
  6
SLD-Solid
 62
     7
370
    25
100
AcDbPolyline
 90
       11
 70
   128
 43
0.0
 10
11.95779628609284
 20
20.01162772796092
 10
11.87957905357273
 20
20.01422929400933
 10
11.80328778890537
 20
20.02196993296435
 10
11.73080103622308
 20
20.03465904460521
 10
11.66390365994662
 20
20.05198418089055
 10
11.60424289549959
 20
20.07351873946619
 10
11.5532877889054
 20
20.09873246803092
 10
11.51229302399869
 20
20.12700452090789
 10
11.4822680279453
 20
20.15763874632571
 10
11.46395211579531
 20
20.18988082798542
 10
11.45779628609283
 20
20.22293685883124
  0
LINE
  5
250
330
1F
100
AcDbEntity
  8
0
  6
SLD-Solid
 62
     7
370
    25
100
AcDbLine
 10
11.45779628609283
 20
20.22293685883124
 30
0.0
 11
11.45779628609293
 21
20.31356763753491
 31
0.0
  0
LWPOLYLINE
  5
251
330
1F
100
AcDbEntity
  8
0
  6
SLD-Solid
 62
     7
370
    25
100
AcDbPolyline
 90
       11
 70
   128
 43
0.0
 10
11.45779628609293
 20
20.31356763753491
 10
11.46395211579536
 20
20.2805116066891
 10
11.48226802794535
 20
20.24826952502939
 10
11.51229302399873
 20
20.21763529961157
 10
11.55328778890543
 20
20.1893632467346
 10
11.60424289549962
 20
20.16414951816987
 10
11.66390365994665
 20
20.14261495959422
 10
11.7308010362231
 20
20.12528982330888
 10
11.80328778890538
 20
20.11260071166802
 10
11.87957905357273
 20
20.10486007271299
 10
11.95779628609283
 20
20.10225850666458
  0
LINE
  5
252
330
1F
100
AcDbEntity
  8
0
  6
SLD-Solid
 62
     7
370
    25
100
AcDbLine
 10
11.45779628609292
 20
21.58758264783783
 30
0.0
 11
11.45779628609293
 21
20.31356763753491
 31
0.0
  0
LINE
  5
253
330
1F
100
AcDbEntity
  8
0
  6
SLD-Solid
 62
     7
370
    25
100
AcDbLine
 10
12.45779628609293
 20
20.31356763753491
 30
0.0
 11
12.45779628609292
 21
21.58758264783784
 31
0.0
  0
LINE
  5
254
330
1F
100
AcDbEntity
  8
0
  6
SLD-Solid
 62
     7
370
    25
100
AcDbLine
 10
12.45779628609292
 20
21.620374922375
 30
0.0
 11
12.45779628609292
 21
21.58758264783784
 31
0.0
  0
LINE
  5
255
330
1F
100
AcDbEntity
  8
0
  6
SLD-Solid
 62
     7
370
    25
100
AcDbLine
 10
11.45779628609292
 20
21.58758264783783
 30
0.0
 11
11.45779628609292
 21
21.620374922375
 31
0.0
  0
LINE
  5
256
330
1F
100
AcDbEntity
  8
0
  6
SLD-Solid
 62
     7
370
    25
100
AcDbLine
 10
11.45779628609292
 20
21.620374922375
 30
0.0
 11
12.45779628609292
 21
21.620374922375
 31
0.0
  0
LINE
  5
257
330
1F
100
AcDbEntity
  8
0
  6
SLD-Solid
 62
     7
370
    25
100
AcDbLine
 10
18.83279628609293
 20
20.31356763753497
 30
0.0
 11
18.83279628609284
 21
20.22293685883134
 31
0.0
  0
LWPOLYLINE
  5
258
330
1F
100
AcDbEntity
  8
0
  6
SLD-Solid
 62
     7
370
    25
100
AcDbPolyline
 90
       11
 70
   128
 43
0.0
 10
18.83279628609284
 20
20.22293685883134
 10
18.82664045639041
 20
20.18988082798552
 10
18.80832454424042
 20
20.15763874632581
 10
18.77829954818704
 20
20.12700452090798
 10
18.73730478328033
 20
20.09873246803101
 10
18.68634967668613
 20
20.07351873946627
 10
18.62668891223909
 20
20.05198418089062
 10
18.55979153596262
 20
20.03465904460527
 10
18.48730478328032
 20
20.02196993296441
 10
18.41101351861296
 20
20.01422929400939
 10
18.33279628609284
 20
20.01162772796099
  0
LWPOLYLINE
  5
259
330
1F
100
AcDbEntity
  8
0
  6
SLD-Solid
 62
     7
370
    25
100
AcDbPolyline
 90
       11
 70
   128
 43
0.0
 10
18.33279628609284
 20
20.10225850666465
 10
18.41101351861295
 20
20.10486007271306
 10
18.4873047832803
 20
20.11260071166808
 10
18.5597915359626
 20
20.12528982330894
 10
18.62668891223905
 20
20.14261495959428
 10
18.68634967668609
 20
20.16414951816993
 10
18.73730478328029
 20
20.18936324673465
 10
18.778299548187
 20
20.21763529961163
 10
18.80832454424039
 20
20.24826952502945
 10
18.82664045639038
 20
20.28051160668917
 10
18.83279628609293
 20
20.31356763753497
  0
LWPOLYLINE
  5
25A
330
1F
100
AcDbEntity
  8
0
  6
SLD-Solid
 62
     7
370
    25
100
AcDbPolyline
 90
       11
 70
   128
 43
0.0
 10
18.33279628609284
 20
20.01162772796099
 10
18.25457905357273
 20
20.0142292940094
 10
18.17828778890538
 20
20.02196993296442
 10
18.10580103622308
 20
20.03465904460527
 10
18.03890365994663
 20
20.05198418089061
 10
17.97924289549959
 20
20.07351873946626
 10
17.9282877889054
 20
20.09873246803099
 10
17.88729302399869
 20
20.12700452090795
 10
17.8572680279453
 20
20.15763874632577
 10
17.83895211579531
 20
20.18988082798548
 10
17.83279628609284
 20
20.22293685883131
  0
LINE
  5
25B
330
1F
100
AcDbEntity
  8
0
  6
SLD-Solid
 62
     7
370
    25
100
AcDbLine
 10
17.83279628609284
 20
20.22293685883131
 30
0.0
 11
17.83279628609293
 21
20.31356763753498
 31
0.0
  0
LWPOLYLINE
  5
25C
330
1F
100
AcDbEntity
  8
0
  6
SLD-Solid
 62
     7
370
    25
100
AcDbPolyline
 90
       11
 70
   128
 43
0.0
 10
17.83279628609293
 20
20.31356763753498
 10
17.83895211579536
 20
20.28051160668916
 10
17.85726802794535
 20
20.24826952502945
 10
17.88729302399873
 20
20.21763529961164
 10
17.92828778890543
 20
20.18936324673467
 10
17.97924289549962
 20
20.16414951816994
 10
18.03890365994665
 20
20.14261495959429
 10
18.1058010362231
 20
20.12528982330895
 10
18.17828778890539
 20
20.11260071166809
 10
18.25457905357273
 20
20.10486007271306
 10
18.33279628609284
 20
20.10225850666465
  0
LINE
  5
25D
330
1F
100
AcDbEntity
  8
0
  6
SLD-Solid
 62
     7
370
    25
100
AcDbLine
 10
17.83279628609292
 20
21.5875826478379
 30
0.0
 11
17.83279628609293
 21
20.31356763753498
 31
0.0
  0
LINE
  5
25E
330
1F
100
AcDbEntity
  8
0
  6
SLD-Solid
 62
     7
370
    25
100
AcDbLine
 10
18.83279628609293
 20
20.31356763753497
 30
0.0
 11
18.83279628609292
 21
21.58758264783791
 31
0.0
  0
LINE
  5
25F
330
1F
100
AcDbEntity
  8
0
  6
SLD-Solid
 62
     7
370
    25
100
AcDbLine
 10
18.83279628609292
 20
21.62037492237507
 30
0.0
 11
18.83279628609292
 21
21.58758264783791
 31
0.0
  0
LINE
  5
260
330
1F
100
AcDbEntity
  8
0
  6
SLD-Solid
 62
     7
370
    25
100
AcDbLine
 10
17.83279628609292
 20
21.5875826478379
 30
0.0
 11
17.83279628609293
 21
21.62037492237506
 31
0.0
  0
LINE
  5
261
330
1F
100
AcDbEntity
  8
0
  6
SLD-Solid
 62
     7
370
    25
100
AcDbLine
 10
17.83279628609293
 20
21.62037492237506
 30
0.0
 11
18.83279628609292
 21
21.62037492237507
 31
0.0
  0
LINE
  5
262
330
1F
100
AcDbEntity
  8
OBJECT
  6
SLD-Solid
370
    25
100
AcDbLine
 10
25.20779628609293
 20
20.31356763753504
 30
0.0
 11
25.20779628609283
 21
20.22293685883141
 31
0.0
  0
LWPOLYLINE
  5
263
330
1F
100
AcDbEntity
  8
OBJECT
  6
SLD-Solid
370
    25
100
AcDbPolyline
 90
       11
 70
   128
 43
0.0
 10
25.20779628609283
 20
20.22293685883141
 10
25.20164045639041
 20
20.18988082798559
 10
25.18332454424042
 20
20.15763874632587
 10
25.15329954818703
 20
20.12700452090805
 10
25.11230478328033
 20
20.09873246803107
 10
25.06134967668613
 20
20.07351873946634
 10
25.00168891223909
 20
20.05198418089068
 10
24.93479153596262
 20
20.03465904460534
 10
24.86230478328032
 20
20.02196993296448
 10
24.78601351861296
 20
20.01422929400945
 10
24.70779628609284
 20
20.01162772796105
  0
LWPOLYLINE
  5
264
330
1F
100
AcDbEntity
  8
OBJECT
  6
SLD-Solid
370
    25
100
AcDbPolyline
 90
       11
 70
   128
 43
0.0
 10
24.70779628609284
 20
20.10225850666472
 10
24.78601351861295
 20
20.10486007271313
 10
24.8623047832803
 20
20.11260071166815
 10
24.93479153596259
 20
20.125289823309
 10
25.00168891223906
 20
20.14261495959434
 10
25.06134967668609
 20
20.16414951816999
 10
25.11230478328029
 20
20.18936324673473
 10
25.153299548187
 20
20.2176352996117
 10
25.18332454424039
 20
20.24826952502952
 10
25.20164045639038
 20
20.28051160668924
 10
25.20779628609293
 20
20.31356763753504
  0
LWPOLYLINE
  5
265
330
1F
100
AcDbEntity
  8
OBJECT
  6
SLD-Solid
370
    25
100
AcDbPolyline
 90
       11
 70
   128
 43
0.0
 10
24.70779628609284
 20
20.01162772796105
 10
24.62957905357273
 20
20.01422929400946
 10
24.55328778890538
 20
20.02196993296449
 10
24.48080103622308
 20
20.03465904460534
 10
24.41390365994662
 20
20.05198418089068
 10
24.3542428954996
 20
20.07351873946633
 10
24.3032877889054
 20
20.09873246803105
 10
24.26229302399869
 20
20.12700452090802
 10
24.2322680279453
 20
20.15763874632584
 10
24.21395211579531
 20
20.18988082798555
 10
24.20779628609284
 20
20.22293685883138
  0
LINE
  5
266
330
1F
100
AcDbEntity
  8
OBJECT
  6
SLD-Solid
370
    25
100
AcDbLine
 10
24.20779628609284
 20
20.22293685883138
 30
0.0
 11
24.20779628609293
 21
20.31356763753504
 31
0.0
  0
LWPOLYLINE
  5
267
330
1F
100
AcDbEntity
  8
OBJECT
  6
SLD-Solid
370
    25
100
AcDbPolyline
 90
       11
 70
   128
 43
0.0
 10
24.20779628609293
 20
20.31356763753504
 10
24.21395211579536
 20
20.28051160668923
 10
24.23226802794535
 20
20.24826952502952
 10
24.26229302399873
 20
20.2176352996117
 10
24.30328778890544
 20
20.18936324673473
 10
24.35424289549962
 20
20.16414951817001
 10
24.41390365994665
 20
20.14261495959435
 10
24.4808010362231
 20
20.12528982330901
 10
24.55328778890539
 20
20.11260071166815
 10
24.62957905357273
 20
20.10486007271312
 10
24.70779628609284
 20
20.10225850666472
  0
LINE
  5
268
330
1F
100
AcDbEntity
  8
OBJECT
  6
SLD-Solid
370
    25
100
AcDbLine
 10
24.20779628609293
 20
21.58758264783796
 30
0.0
 11
24.20779628609293
 21
20.31356763753504
 31
0.0
  0
LINE
  5
269
330
1F
100
AcDbEntity
  8
OBJECT
  6
SLD-Solid
370
    25
100
AcDbLine
 10
25.20779628609293
 20
20.31356763753504
 30
0.0
 11
25.20779628609292
 21
21.58758264783797
 31
0.0
  0
LINE
  5
26A
330
1F
100
AcDbEntity
  8
OBJECT
  6
SLD-Solid
370
    25
100
AcDbLine
 10
25.20779628609293
 20
21.62037492237514
 30
0.0
 11
25.20779628609292
 21
21.58758264783797
 31
0.0
  0
LINE
  5
26B
330
1F
100
AcDbEntity
  8
OBJECT
  6
SLD-Solid
370
    25
100
AcDbLine
 10
24.20779628609293
 20
21.58758264783796
 30
0.0
 11
24.20779628609293
 21
21.62037492237513
 31
0.0
  0
LINE
  5
26C
330
1F
100
AcDbEntity
  8
OBJECT
  6
SLD-Solid
370
    25
100
AcDbLine
 10
24.20779628609293
 20
21.62037492237513
 30
0.0
 11
25.20779628609293
 21
21.62037492237514
 31
0.0
  0
LINE
  5
26D
330
1F
100
AcDbEntity
  8
OBJECT
  6
SLD-Solid
370
    25
100
AcDbLine
 10
10.33279628609292
 20
21.62037492237497
 30
0.0
 11
10.33279628609292
 21
21.69537492237498
 31
0.0
  0
LINE
  5
26E
330
1F
100
AcDbEntity
  8
OBJECT
  6
SLD-Solid
370
    25
100
AcDbLine
 10
26.33279628609292
 20
21.69537492237515
 30
0.0
 11
26.33279628609292
 21
21.62037492237515
 31
0.0
  0
LINE
  5
26F
330
1F
100
AcDbEntity
  8
OBJECT
  6
SLD-Solid
370
    25
100
AcDbLine
 10
26.33279628609292
 20
21.62037492237515
 30
0.0
 11
25.20779628609293
 21
21.62037492237513
 31
0.0
  0
LINE
  5
270
330
1F
100
AcDbEntity
  8
OBJECT
  6
SLD-Solid
370
    25
100
AcDbLine
 10
24.20779628609293
 20
21.62037492237512
 30
0.0
 11
18.83279628609292
 21
21.62037492237507
 31
0.0
  0
LINE
  5
271
330
1F
100
AcDbEntity
  8
OBJECT
  6
SLD-Solid
370
    25
100
AcDbLine
 10
17.83279628609293
 20
21.62037492237505
 30
0.0
 11
12.45779628609283
 21
21.620374922375
 31
0.0
  0
LINE
  5
272
330
1F
100
AcDbEntity
  8
OBJECT
  6
SLD-Solid
370
    25
100
AcDbLine
 10
11.45779628609283
 20
21.62037492237499
 30
0.0
 11
10.33279628609292
 21
21.62037492237497
 31
0.0
  0
LINE
  5
273
330
1F
100
AcDbEntity
  8
OBJECT
  6
SLD-Solid
370
    25
100
AcDbLine
 10
10.33279628609292
 20
21.69537492237498
 30
0.0
 11
10.33279628609292
 21
22.10537492237498
 31
0.0
  0
LINE
  5
274
330
1F
100
AcDbEntity
  8
OBJECT
  6
SLD-Solid
370
    25
100
AcDbLine
 10
10.33279628609292
 20
22.10537492237498
 30
0.0
 11
26.33279628609292
 21
22.10537492237515
 31
0.0
  0
LINE
  5
275
330
1F
100
AcDbEntity
  8
OBJECT
  6
SLD-Solid
370
    25
100
AcDbLine
 10
26.33279628609292
 20
22.10537492237515
 30
0.0
 11
26.33279628609292
 21
21.69537492237515
 31
0.0
  0
DIMENSION
  5
276
330
1F
100
AcDbEntity
  8
DIMS
100
AcDbDimension
  2
_D_5
 10
27.19893801837629
 20
22.10537492237514
 30
0.0
 11
27.1989380183763
 21
21.15933832756704
 31
0.0
 70
    32
  1
<>
 71
     2
 42
-1.0
  3
SLDDIMSTYLE3
100
AcDbAlignedDimension
 13
24.70779628609283
 23
20.01162772796103
 33
0.0
 14
26.33279628609292
 24
22.10537492237513
 34
0.0
 50
90.0000000000002
100
AcDbRotatedDimension
  0
MTEXT
  5
288
330
1F
100
AcDbEntity
  8
0
  6
Continuous
 62
     0
370
     0
100
AcDbMText
 10
37.18181923579608
 20
4.88020099615648
 30
0.0
 40
0.2916666666666666
 41
0.0
 71
     1
 72
     1
  1
FROST PRODUCTS LTD.
  7
SLDTEXTSTYLE0
 73
     1
 44
1.0
  0
MTEXT
  5
289
330
1F
100
AcDbEntity
  8
0
  6
Continuous
 62
     0
370
     0
100
AcDbMText
 10
37.18181923579608
 20
4.454708634531021
 30
0.0
 40
0.2291666666666666
 41
0.0
 71
     1
 72
     1
  1
5280 JOHN LUCAS DRIVE, BURLINGTON, ON, L7L 5Z9
  7
SLDTEXTSTYLE0
 73
     1
 44
1.0
  0
ENDSEC
  0
SECTION
  2
OBJECTS
  0
DICTIONARY
  5
C
330
0
100
AcDbDictionary
281
     1
  3
ACAD_COLOR
350
6C
  3
ACAD_GROUP
350
D
  3
ACAD_LAYOUT
350
1A
  3
ACAD_MATERIAL
350
6B
  3
ACAD_MLINESTYLE
350
17
  3
ACAD_PLOTSETTINGS
350
19
  3
ACAD_PLOTSTYLENAME
350
E
  3
ACAD_SCALELIST
350
47
  3
ACAD_TABLESTYLE
350
92
  3
AcDbVariableDictionary
350
59
  0
DICTIONARY
  5
6C
102
{ACAD_REACTORS
330
C
102
}
330
C
100
AcDbDictionary
281
     1
  0
DICTIONARY
  5
D
102
{ACAD_REACTORS
330
C
102
}
330
C
100
AcDbDictionary
281
     1
  0
DICTIONARY
  5
1A
102
{ACAD_REACTORS
330
C
102
}
330
C
100
AcDbDictionary
281
     1
  3
Layout1
350
74
  3
Layout2
350
26
  3
Model
350
22
  0
DICTIONARY
  5
6B
102
{ACAD_REACTORS
330
C
102
}
330
C
100
AcDbDictionary
281
     1
  0
DICTIONARY
  5
17
102
{ACAD_REACTORS
330
C
102
}
330
C
100
AcDbDictionary
281
     1
  3
Standard
350
18
  0
DICTIONARY
  5
19
102
{ACAD_REACTORS
330
C
102
}
330
C
100
AcDbDictionary
281
     1
  0
ACDBDICTIONARYWDFLT
  5
E
102
{ACAD_REACTORS
330
C
102
}
330
C
100
AcDbDictionary
281
     1
  3
Normal
350
F
100
AcDbDictionaryWithDefault
340
F
  0
DICTIONARY
  5
47
102
{ACAD_REACTORS
330
C
102
}
330
C
100
AcDbDictionary
281
     1
  3
A0
350
48
  3
A1
350
49
  3
A2
350
4A
  3
A3
350
4B
  3
A4
350
4C
  3
A5
350
4D
  3
A6
350
4E
  3
A7
350
4F
  3
A8
350
50
  3
A9
350
51
  3
B0
350
52
  3
B1
350
53
  3
B2
350
54
  3
B3
350
55
  3
B4
350
56
  3
B5
350
57
  3
B6
350
58
  3
B7
350
29B
  3
B8
350
29C
  3
B9
350
5B
  3
C0
350
5C
  3
C1
350
5D
  3
C2
350
29D
  3
C3
350
5F
  3
C4
350
60
  3
C5
350
61
  3
C6
350
62
  3
C7
350
63
  3
C8
350
64
  3
C9
350
65
  3
D0
350
66
  3
D1
350
67
  3
D2
350
68
  0
DICTIONARY
  5
92
102
{ACAD_REACTORS
330
C
102
}
330
C
100
AcDbDictionary
281
     1
  0
DICTIONARY
  5
59
102
{ACAD_REACTORS
330
C
102
}
330
C
100
AcDbDictionary
281
     1
  0
LAYOUT
  5
74
102
{ACAD_REACTORS
330
1A
102
}
330
1A
100
AcDbPlotSettings
  1

  2
none_device
  4

  6

 40
0.0
 41
0.0
 42
0.0
 43
0.0
 44
0.0
 45
0.0
 46
0.0
 47
0.0
 48
0.0
 49
0.0
140
0.0
141
0.0
142
1.0
143
1.0
 70
   688
 72
     0
 73
     0
 74
     5
  7

 75
    16
 76
     0
 77
     2
 78
   300
147
1.0
148
0.0
149
0.0
100
AcDbLayout
  1
Layout1
 70
     1
 71
     1
 10
0.0
 20
0.0
 11
12.0
 21
9.0
 12
0.0
 22
0.0
 32
0.0
 14
1.000000000000000E+20
 24
1.000000000000000E+20
 34
1.000000000000000E+20
 15
-1.000000000000000E+20
 25
-1.000000000000000E+20
 35
-1.000000000000000E+20
146
0.0
 13
0.0
 23
0.0
 33
0.0
 16
1.0
 26
0.0
 36
0.0
 17
0.0
 27
1.0
 37
0.0
 76
     0
330
73
  0
LAYOUT
  5
26
102
{ACAD_REACTORS
330
1A
102
}
330
1A
100
AcDbPlotSettings
  1

  2
none_device
  4

  6

 40
0.0
 41
0.0
 42
0.0
 43
0.0
 44
0.0
 45
0.0
 46
0.0
 47
0.0
 48
0.0
 49
0.0
140
0.0
141
0.0
142
1.0
143
1.0
 70
   688
 72
     0
 73
     0
 74
     5
  7

 75
    16
 76
     0
 77
     2
 78
   300
147
1.0
148
0.0
149
0.0
100
AcDbLayout
  1
Layout2
 70
     1
 71
     2
 10
0.0
 20
0.0
 11
0.0
 21
0.0
 12
0.0
 22
0.0
 32
0.0
 14
0.0
 24
0.0
 34
0.0
 15
0.0
 25
0.0
 35
0.0
146
0.0
 13
0.0
 23
0.0
 33
0.0
 16
1.0
 26
0.0
 36
0.0
 17
0.0
 27
1.0
 37
0.0
 76
     0
330
23
  0
LAYOUT
  5
22
102
{ACAD_REACTORS
330
1A
102
}
330
1A
100
AcDbPlotSettings
  1

  2
none_device
  4
Letter_(8.50_x_11.00_Inches)
  6

 40
6.35
 41
6.35
 42
6.35000508
 43
6.35000508
 44
215.9
 45
279.4
 46
0.0
 47
0.0
 48
0.0
 49
0.0
140
0.0
141
0.0
142
1.0
143
1.0
 70
 11952
 72
     0
 73
     0
 74
     0
  7

 75
     0
 76
     0
 77
     2
 78
   300
147
1.0
148
0.0
149
0.0
100
AcDbLayout
  1
Model
 70
     1
 71
     0
 10
0.0
 20
0.0
 11
46.81102362204724
 21
33.11023622047244
 12
0.0
 22
0.0
 32
0.0
 14
1.574419096038061
 24
0.3573773641115478
 34
-2.660653252534332
 15
46.41568767877938
 25
23.91269059562548
 35
0.0
146
0.0
 13
0.0
 23
0.0
 33
0.0
 16
1.0
 26
0.0
 36
0.0
 17
0.0
 27
1.0
 37
0.0
 76
     0
330
1F
  0
MLINESTYLE
  5
18
102
{ACAD_REACTORS
330
17
102
}
330
17
100
AcDbMlineStyle
  2
Standard
 70
     0
  3

 62
   256
 51
90.0
 52
90.0
 71
     2
 49
0.5
 62
   256
  6
BYLAYER
 49
-0.5
 62
   256
  6
BYLAYER
  0
ACDBPLACEHOLDER
  5
F
102
{ACAD_REACTORS
330
E
102
}
330
E
  0
ACAD_PROXY_OBJECT
  5
48
102
{ACAD_REACTORS
330
47
102
}
330
47
100
AcDbProxyObject
 90
      499
 91
      505
 95
   393239
 70
     0
 93
       41
310
903313A31580
  0
ACAD_PROXY_OBJECT
  5
49
102
{ACAD_REACTORS
330
47
102
}
330
47
100
AcDbProxyObject
 90
      499
 91
      505
 95
   393239
 70
     0
 93
      105
310
903313A324000000000000004000
  0
ACAD_PROXY_OBJECT
  5
4A
102
{ACAD_REACTORS
330
47
102
}
330
47
100
AcDbProxyObject
 90
      499
 91
      505
 95
   393239
 70
     0
 93
      105
310
903313A344000000000000104000
  0
ACAD_PROXY_OBJECT
  5
4B
102
{ACAD_REACTORS
330
47
102
}
330
47
100
AcDbProxyObject
 90
      499
 91
      505
 95
   393239
 70
     0
 93
      105
310
903313A354000000000000144000
  0
ACAD_PROXY_OBJECT
  5
4C
102
{ACAD_REACTORS
330
47
102
}
330
47
100
AcDbProxyObject
 90
      499
 91
      505
 95
   393239
 70
     0
 93
      105
310
903313A384000000000000204000
  0
ACAD_PROXY_OBJECT
  5
4D
102
{ACAD_REACTORS
330
47
102
}
330
47
100
AcDbProxyObject
 90
      499
 91
      505
 95
   393239
 70
     0
 93
      113
310
904313A31304000000000000244000
  0
ACAD_PROXY_OBJECT
  5
4E
102
{ACAD_REACTORS
330
47
102
}
330
47
100
AcDbProxyObject
 90
      499
 91
      505
 95
   393239
 70
     0
 93
      113
310
904313A31364000000000000304000
  0
ACAD_PROXY_OBJECT
  5
4F
102
{ACAD_REACTORS
330
47
102
}
330
47
100
AcDbProxyObject
 90
      499
 91
      505
 95
   393239
 70
     0
 93
      113
310
904313A32304000000000000344000
  0
ACAD_PROXY_OBJECT
  5
50
102
{ACAD_REACTORS
330
47
102
}
330
47
100
AcDbProxyObject
 90
      499
 91
      505
 95
   393239
 70
     0
 93
      113
310
904313A333040000000000003E4000
  0
ACAD_PROXY_OBJECT
  5
51
102
{ACAD_REACTORS
330
47
102
}
330
47
100
AcDbProxyObject
 90
      499
 91
      505
 95
   393239
 70
     0
 93
      113
310
904313A34304000000000000444000
  0
ACAD_PROXY_OBJECT
  5
52
102
{ACAD_REACTORS
330
47
102
}
330
47
100
AcDbProxyObject
 90
      499
 91
      505
 95
   393239
 70
     0
 93
      113
310
904313A35304000000000000494000
  0
ACAD_PROXY_OBJECT
  5
53
102
{ACAD_REACTORS
330
47
102
}
330
47
100
AcDbProxyObject
 90
      499
 91
      505
 95
   393239
 70
     0
 93
      121
310
905313A3130304000000000000594000
  0
ACAD_PROXY_OBJECT
  5
54
102
{ACAD_REACTORS
330
47
102
}
330
47
100
AcDbProxyObject
 90
      499
 91
      505
 95
   393239
 70
     0
 93
      105
310
903323A310000000000000010100
  0
ACAD_PROXY_OBJECT
  5
55
102
{ACAD_REACTORS
330
47
102
}
330
47
100
AcDbProxyObject
 90
      499
 91
      505
 95
   393239
 70
     0
 93
      105
310
903343A310000000000000410100
  0
ACAD_PROXY_OBJECT
  5
56
102
{ACAD_REACTORS
330
47
102
}
330
47
100
AcDbProxyObject
 90
      499
 91
      505
 95
   393239
 70
     0
 93
      105
310
903383A310000000000000810100
  0
ACAD_PROXY_OBJECT
  5
57
102
{ACAD_REACTORS
330
47
102
}
330
47
100
AcDbProxyObject
 90
      499
 91
      505
 95
   393239
 70
     0
 93
      113
310
90431303A310000000000000910100
  0
ACAD_PROXY_OBJECT
  5
58
102
{ACAD_REACTORS
330
47
102
}
330
47
100
AcDbProxyObject
 90
      499
 91
      505
 95
   393239
 70
     0
 93
      121
310
9053130303A310000000000001650100
  0
ACAD_PROXY_OBJECT
  5
29B
102
{ACAD_REACTORS
330
47
102
}
330
47
100
AcDbProxyObject
 90
      499
 91
      505
 95
   393239
 70
     0
 93
      257
310
90E312F31323822203D2031272D3022000000000000200FC000000000000284000
  0
ACAD_PROXY_OBJECT
  5
29C
102
{ACAD_REACTORS
330
47
102
}
330
47
100
AcDbProxyObject
 90
      499
 91
      505
 95
   393239
 70
     0
 93
      249
310
90D312F363422203D2031272D3022000000000000240FC000000000000284000
  0
ACAD_PROXY_OBJECT
  5
5B
102
{ACAD_REACTORS
330
47
102
}
330
47
100
AcDbProxyObject
 90
      499
 91
      505
 95
   393239
 70
     0
 93
      249
310
90D312F333222203D2031272D3022000000000000280FC000000000000284000
  0
ACAD_PROXY_OBJECT
  5
5C
102
{ACAD_REACTORS
330
47
102
}
330
47
100
AcDbProxyObject
 90
      499
 91
      505
 95
   393239
 70
     0
 93
      249
310
90D312F313622203D2031272D30220000000000002C0FC000000000000284000
  0
ACAD_PROXY_OBJECT
  5
5D
102
{ACAD_REACTORS
330
47
102
}
330
47
100
AcDbProxyObject
 90
      499
 91
      505
 95
   393239
 70
     0
 93
      249
310
90D332F333222203D2031272D30220000000000002E0FC000000000000284000
  0
ACAD_PROXY_OBJECT
  5
29D
102
{ACAD_REACTORS
330
47
102
}
330
47
100
AcDbProxyObject
 90
      499
 91
      505
 95
   393239
 70
     0
 93
      241
310
90C312F3822203D2031272D3022000000000000300FC000000000000284000
  0
ACAD_PROXY_OBJECT
  5
5F
102
{ACAD_REACTORS
330
47
102
}
330
47
100
AcDbProxyObject
 90
      499
 91
      505
 95
   393239
 70
     0
 93
      249
310
90D332F313622203D2031272D3022000000000000320FC000000000000284000
  0
ACAD_PROXY_OBJECT
  5
60
102
{ACAD_REACTORS
330
47
102
}
330
47
100
AcDbProxyObject
 90
      499
 91
      505
 95
   393239
 70
     0
 93
      241
310
90C312F3422203D2031272D3022000000000000340FC000000000000284000
  0
ACAD_PROXY_OBJECT
  5
61
102
{ACAD_REACTORS
330
47
102
}
330
47
100
AcDbProxyObject
 90
      499
 91
      505
 95
   393239
 70
     0
 93
      241
310
90C332F3822203D2031272D3022000000000000360FC000000000000284000
  0
ACAD_PROXY_OBJECT
  5
62
102
{ACAD_REACTORS
330
47
102
}
330
47
100
AcDbProxyObject
 90
      499
 91
      505
 95
   393239
 70
     0
 93
      241
310
90C312F3222203D2031272D3022000000000000380FC000000000000284000
  0
ACAD_PROXY_OBJECT
  5
63
102
{ACAD_REACTORS
330
47
102
}
330
47
100
AcDbProxyObject
 90
      499
 91
      505
 95
   393239
 70
     0
 93
      241
310
90C332F3422203D2031272D30220000000000003A0FC000000000000284000
  0
ACAD_PROXY_OBJECT
  5
64
102
{ACAD_REACTORS
330
47
102
}
330
47
100
AcDbProxyObject
 90
      499
 91
      505
 95
   393239
 70
     0
 93
      161
310
90A3122203D2031272D30224000000000000284000
  0
ACAD_PROXY_OBJECT
  5
65
102
{ACAD_REACTORS
330
47
102
}
330
47
100
AcDbProxyObject
 90
      499
 91
      505
 95
   393239
 70
     0
 93
      257
310
90E312D312F3222203D2031272D30220000000000003E0FC000000000000284000
  0
ACAD_PROXY_OBJECT
  5
66
102
{ACAD_REACTORS
330
47
102
}
330
47
100
AcDbProxyObject
 90
      499
 91
      505
 95
   393239
 70
     0
 93
      225
310
90A3322203D2031272D302200000000000002100000000000000284000
  0
ACAD_PROXY_OBJECT
  5
67
102
{ACAD_REACTORS
330
47
102
}
330
47
100
AcDbProxyObject
 90
      499
 91
      505
 95
   393239
 70
     0
 93
      225
310
90A3622203D2031272D302200000000000006100000000000000284000
  0
ACAD_PROXY_OBJECT
  5
68
102
{ACAD_REACTORS
330
47
102
}
330
47
100
AcDbProxyObject
 90
      499
 91
      505
 95
   393239
 70
     0
 93
      249
310
90D31272D3022203D2031272D30220000000000000A100000000000000284000
  0
ENDSEC
  0
EOF
