  0
SECTION
  2
HEADER
  9
$ACADVER
  1
AC1015
  9
$ACADMAINTVER
 70
     6
  9
$DWGCODEPAGE
  3
ANSI_1252
  9
$INSBASE
 10
0.0
 20
0.0
 30
0.0
  9
$EXTMIN
 10
0.0
 20
0.0
 30
0.0
  9
$EXTMAX
 10
90.0
 20
120.0
 30
0.0
  9
$LIMMIN
 10
0.0
 20
0.0
  9
$LIMMAX
 10
90.0
 20
120.0
  9
$ORTHOMODE
 70
     0
  9
$REGENMODE
 70
     1
  9
$FILLMODE
 70
     1
  9
$QTEXTMODE
 70
     0
  9
$MIRRTEXT
 70
     1
  9
$LTSCALE
 40
1.0
  9
$ATTMODE
 70
     1
  9
$TEXTSIZE
 40
0.5
  9
$TRACEWID
 40
0.05
  9
$TEXTSTYLE
  7
STANDARD
  9
$CLAYER
  8
0
  9
$CELTYPE
  6
ByLayer
  9
$CECOLOR
 62
   256
  9
$CELTSCALE
 40
1.0
  9
$DISPSILH
 70
     0
  9
$DIMSCALE
 40
1.0
  9
$DIMASZ
 40
0.3
  9
$DIMEXO
 40
0.1666666667
  9
$DIMDLI
 40
0.38
  9
$DIMRND
 40
0.0
  9
$DIMDLE
 40
0.0
  9
$DIMEXE
 40
0.375
  9
$DIMTP
 40
0.0
  9
$DIMTM
 40
0.0
  9
$DIMTXT
 40
0.5
  9
$DIMCEN
 40
0.09
  9
$DIMTSZ
 40
0.0
  9
$DIMTOL
 70
     0
  9
$DIMLIM
 70
     0
  9
$DIMTIH
 70
     1
  9
$DIMTOH
 70
     1
  9
$DIMSE1
 70
     0
  9
$DIMSE2
 70
     0
  9
$DIMTAD
 70
     0
  9
$DIMZIN
 70
     1
  9
$DIMBLK
  1

  9
$DIMASO
 70
     1
  9
$DIMSHO
 70
     1
  9
$DIMPOST
  1

  9
$DIMAPOST
  1

  9
$DIMALT
 70
     0
  9
$DIMALTD
 70
     2
  9
$DIMALTF
 40
25.4
  9
$DIMLFAC
 40
1.0
  9
$DIMTOFL
 70
     0
  9
$DIMTVP
 40
0.0
  9
$DIMTIX
 70
     0
  9
$DIMSOXD
 70
     0
  9
$DIMSAH
 70
     0
  9
$DIMBLK1
  1

  9
$DIMBLK2
  1

  9
$DIMSTYLE
  2
Standard
  9
$DIMCLRD
 70
     0
  9
$DIMCLRE
 70
     0
  9
$DIMCLRT
 70
     0
  9
$DIMTFAC
 40
1.0
  9
$DIMGAP
 40
0.125
  9
$DIMJUST
 70
     0
  9
$DIMSD1
 70
     0
  9
$DIMSD2
 70
     0
  9
$DIMTOLJ
 70
     1
  9
$DIMTZIN
 70
     1
  9
$DIMALTZ
 70
     0
  9
$DIMALTTZ
 70
     0
  9
$DIMUPT
 70
     0
  9
$DIMDEC
 70
     2
  9
$DIMTDEC
 70
     2
  9
$DIMALTU
 70
     2
  9
$DIMALTTD
 70
     2
  9
$DIMTXSTY
  7
STANDARD
  9
$DIMAUNIT
 70
     0
  9
$DIMADEC
 70
     2
  9
$DIMALTRND
 40
0.0
  9
$DIMAZIN
 70
     0
  9
$DIMDSEP
 70
    46
  9
$DIMATFIT
 70
     3
  9
$DIMFRAC
 70
     0
  9
$DIMLDRBLK
  1

  9
$DIMLUNIT
 70
     2
  9
$DIMLWD
 70
    -2
  9
$DIMLWE
 70
    -2
  9
$DIMTMOVE
 70
     0
  9
$LUNITS
 70
     2
  9
$LUPREC
 70
     4
  9
$SKETCHINC
 40
0.1
  9
$FILLETRAD
 40
0.5
  9
$AUNITS
 70
     0
  9
$AUPREC
 70
     2
  9
$MENU
  1
.
  9
$ELEVATION
 40
0.0
  9
$PELEVATION
 40
0.0
  9
$THICKNESS
 40
0.0
  9
$LIMCHECK
 70
     0
  9
$CHAMFERA
 40
0.0
  9
$CHAMFERB
 40
0.0
  9
$CHAMFERC
 40
0.0
  9
$CHAMFERD
 40
0.0
  9
$SKPOLY
 70
     0
  9
$TDCREATE
 40
2459480.436223889
  9
$TDUCREATE
 40
2459480.602890556
  9
$TDUPDATE
 40
2459480.436229676
  9
$TDUUPDATE
 40
2459480.602896343
  9
$TDINDWG
 40
0.0000000116
  9
$TDUSRTIMER
 40
0.0000000116
  9
$USRTIMER
 70
     1
  9
$ANGBASE
 50
0.0
  9
$ANGDIR
 70
     0
  9
$PDMODE
 70
     0
  9
$PDSIZE
 40
-1.0
  9
$PLINEWID
 40
0.0
  9
$SPLFRAME
 70
     0
  9
$SPLINETYPE
 70
     6
  9
$SPLINESEGS
 70
     8
  9
$HANDSEED
  5
419
  9
$SURFTAB1
 70
     6
  9
$SURFTAB2
 70
     6
  9
$SURFTYPE
 70
     6
  9
$SURFU
 70
     6
  9
$SURFV
 70
     6
  9
$UCSBASE
  2

  9
$UCSNAME
  2

  9
$UCSORG
 10
0.0
 20
0.0
 30
0.0
  9
$UCSXDIR
 10
1.0
 20
0.0
 30
0.0
  9
$UCSYDIR
 10
0.0
 20
1.0
 30
0.0
  9
$UCSORTHOREF
  2

  9
$UCSORTHOVIEW
 70
     0
  9
$UCSORGTOP
 10
0.0
 20
0.0
 30
0.0
  9
$UCSORGBOTTOM
 10
0.0
 20
0.0
 30
0.0
  9
$UCSORGLEFT
 10
0.0
 20
0.0
 30
0.0
  9
$UCSORGRIGHT
 10
0.0
 20
0.0
 30
0.0
  9
$UCSORGFRONT
 10
0.0
 20
0.0
 30
0.0
  9
$UCSORGBACK
 10
0.0
 20
0.0
 30
0.0
  9
$PUCSBASE
  2

  9
$PUCSNAME
  2

  9
$PUCSORG
 10
0.0
 20
0.0
 30
0.0
  9
$PUCSXDIR
 10
1.0
 20
0.0
 30
0.0
  9
$PUCSYDIR
 10
0.0
 20
1.0
 30
0.0
  9
$PUCSORTHOREF
  2

  9
$PUCSORTHOVIEW
 70
     0
  9
$PUCSORGTOP
 10
0.0
 20
0.0
 30
0.0
  9
$PUCSORGBOTTOM
 10
0.0
 20
0.0
 30
0.0
  9
$PUCSORGLEFT
 10
0.0
 20
0.0
 30
0.0
  9
$PUCSORGRIGHT
 10
0.0
 20
0.0
 30
0.0
  9
$PUCSORGFRONT
 10
0.0
 20
0.0
 30
0.0
  9
$PUCSORGBACK
 10
0.0
 20
0.0
 30
0.0
  9
$USERI1
 70
     0
  9
$USERI2
 70
     0
  9
$USERI3
 70
     0
  9
$USERI4
 70
     0
  9
$USERI5
 70
     0
  9
$USERR1
 40
0.0
  9
$USERR2
 40
0.0
  9
$USERR3
 40
0.0
  9
$USERR4
 40
0.0
  9
$USERR5
 40
0.0
  9
$WORLDVIEW
 70
     1
  9
$SHADEDGE
 70
     3
  9
$SHADEDIF
 70
    70
  9
$TILEMODE
 70
     1
  9
$MAXACTVP
 70
    64
  9
$PINSBASE
 10
0.0
 20
0.0
 30
0.0
  9
$PLIMCHECK
 70
     0
  9
$PEXTMIN
 10
1.0000000000E+20
 20
1.0000000000E+20
 30
1.0000000000E+20
  9
$PEXTMAX
 10
-1.0000000000E+20
 20
-1.0000000000E+20
 30
-1.0000000000E+20
  9
$PLIMMIN
 10
0.0
 20
0.0
  9
$PLIMMAX
 10
12.0
 20
9.0
  9
$UNITMODE
 70
     0
  9
$VISRETAIN
 70
     1
  9
$PLINEGEN
 70
     0
  9
$PSLTSCALE
 70
     1
  9
$TREEDEPTH
 70
  3020
  9
$CMLSTYLE
  2
Standard
  9
$CMLJUST
 70
     0
  9
$CMLSCALE
 40
1.0
  9
$PROXYGRAPHICS
 70
     1
  9
$MEASUREMENT
 70
     0
  9
$CELWEIGHT
370
    -1
  9
$ENDCAPS
280
     0
  9
$JOINSTYLE
280
     0
  9
$LWDISPLAY
290
     1
  9
$INSUNITS
 70
     1
  9
$HYPERLINKBASE
  1

  9
$STYLESHEET
  1

  9
$XEDIT
290
     1
  9
$CEPSNTYPE
380
     0
  9
$PSTYLEMODE
290
     1
  9
$FINGERPRINTGUID
  2
{d579c54c-6b41-47bb-93a7-99bc31adec22}
  9
$VERSIONGUID
  2
{FAEB1C32-E019-11D5-929B-00C0DF256EC4}
  9
$EXTNAMES
290
     1
  9
$PSVPSCALE
 40
0.0
  9
$OLESTARTUP
290
     0
  0
ENDSEC
  0
SECTION
  2
CLASSES
  0
CLASS
  1
ACDBDICTIONARYWDFLT
  2
AcDbDictionaryWithDefault
  3
ObjectDBX Classes
 90
        0
280
     0
281
     0
  0
CLASS
  1
VISUALSTYLE
  2
AcDbVisualStyle
  3
ObjectDBX Classes
 90
     4095
280
     0
281
     0
  0
CLASS
  1
MATERIAL
  2
AcDbMaterial
  3
ObjectDBX Classes
 90
     1153
280
     0
281
     0
  0
CLASS
  1
SCALE
  2
AcDbScale
  3
ObjectDBX Classes
 90
     1153
280
     0
281
     0
  0
CLASS
  1
TABLESTYLE
  2
AcDbTableStyle
  3
ObjectDBX Classes
 90
     4095
280
     0
281
     0
  0
CLASS
  1
MLEADERSTYLE
  2
AcDbMLeaderStyle
  3
ACDB_MLEADERSTYLE_CLASS
 90
     4095
280
     0
281
     0
  0
CLASS
  1
SUN
  2
AcDbSun
  3
SCENEOE
 90
     1153
280
     0
281
     0
  0
CLASS
  1
ACDBPLACEHOLDER
  2
AcDbPlaceHolder
  3
ObjectDBX Classes
 90
        0
280
     0
281
     0
  0
CLASS
  1
LAYOUT
  2
AcDbLayout
  3
ObjectDBX Classes
 90
        0
280
     0
281
     0
  0
ENDSEC
  0
SECTION
  2
TABLES
  0
TABLE
  2
VPORT
  5
8
330
0
100
AcDbSymbolTable
 70
     1
  0
VPORT
  5
29
330
8
100
AcDbSymbolTableRecord
100
AcDbViewportTableRecord
  2
*Active
 70
     0
 10
0.0
 20
0.0
 11
1.0
 21
1.0
 12
45.0
 22
60.0
 13
0.0
 23
0.0
 14
0.5
 24
0.5
 15
0.5
 25
0.5
 16
0.0
 26
0.0
 36
1.0
 17
0.0
 27
0.0
 37
0.0
 40
120.0
 41
0.75
 42
50.0
 43
0.0
 44
0.0
 50
0.0
 51
0.0
 71
     0
 72
  2000
 73
     1
 74
     3
 75
     0
 76
     0
 77
     0
 78
     0
281
     0
 65
     1
110
0.0
120
0.0
130
0.0
111
1.0
121
0.0
131
0.0
112
0.0
122
1.0
132
0.0
 79
     0
146
0.0
  0
ENDTAB
  0
TABLE
  2
LTYPE
  5
5
330
0
100
AcDbSymbolTable
 70
     8
  0
LTYPE
  5
14
330
5
100
AcDbSymbolTableRecord
100
AcDbLinetypeTableRecord
  2
ByBlock
 70
     0
  3

 72
    65
 73
     0
 40
0.0
  0
LTYPE
  5
15
330
5
100
AcDbSymbolTableRecord
100
AcDbLinetypeTableRecord
  2
ByLayer
 70
     0
  3

 72
    65
 73
     0
 40
0.0
  0
LTYPE
  5
16
330
5
100
AcDbSymbolTableRecord
100
AcDbLinetypeTableRecord
  2
Continuous
 70
     0
  3
Solid line
 72
    65
 73
     0
 40
0.0
  0
LTYPE
  5
6E
330
5
100
AcDbSymbolTableRecord
100
AcDbLinetypeTableRecord
  2
SLD-Solid
 70
     0
  3
SolidWorks Line Style
 72
    65
 73
     0
 40
0.0
  0
LTYPE
  5
6F
330
5
100
AcDbSymbolTableRecord
100
AcDbLinetypeTableRecord
  2
SLD-Dashed
 70
     0
  3
SolidWorks Line Style
 72
    65
 73
     2
 40
0.075
 49
0.05
 74
     0
 49
-0.025
 74
     0
  0
LTYPE
  5
70
330
5
100
AcDbSymbolTableRecord
100
AcDbLinetypeTableRecord
  2
SLD-Phantom
 70
     0
  3
SolidWorks Line Style
 72
    65
 73
     6
 40
0.5
 49
0.25
 74
     0
 49
-0.05
 74
     0
 49
0.05
 74
     0
 49
-0.05
 74
     0
 49
0.05
 74
     0
 49
-0.05
 74
     0
  0
LTYPE
  5
71
330
5
100
AcDbSymbolTableRecord
100
AcDbLinetypeTableRecord
  2
SLD-Chain
 70
     0
  3
SolidWorks Line Style
 72
    65
 73
     4
 40
0.4
 49
0.25
 74
     0
 49
-0.05
 74
     0
 49
0.05
 74
     0
 49
-0.05
 74
     0
  0
LTYPE
  5
72
330
5
100
AcDbSymbolTableRecord
100
AcDbLinetypeTableRecord
  2
SLD-Center
 70
     0
  3
SolidWorks Line Style
 72
    65
 73
     4
 40
0.75
 49
0.6
 74
     0
 49
-0.05
 74
     0
 49
0.05
 74
     0
 49
-0.05
 74
     0
  0
LTYPE
  5
73
330
5
100
AcDbSymbolTableRecord
100
AcDbLinetypeTableRecord
  2
SLD-Stitch
 70
     0
  3
SolidWorks Line Style
 72
    65
 73
     2
 40
0.025
 49
0.0
 74
     0
 49
-0.025
 74
     0
  0
LTYPE
  5
74
330
5
100
AcDbSymbolTableRecord
100
AcDbLinetypeTableRecord
  2
SLD-Thin-Thick-Chain
 70
     0
  3
SolidWorks Line Style
 72
    65
 73
     4
 40
0.4
 49
0.25
 74
     0
 49
-0.05
 74
     0
 49
0.05
 74
     0
 49
-0.05
 74
     0
  0
ENDTAB
  0
TABLE
  2
LAYER
  5
2
330
0
100
AcDbSymbolTable
 70
     6
  0
LAYER
  5
10
330
2
100
AcDbSymbolTableRecord
100
AcDbLayerTableRecord
  2
0
 70
     0
 62
     7
  6
Continuous
370
    -3
390
F
  0
LAYER
  5
75
330
2
100
AcDbSymbolTableRecord
100
AcDbLayerTableRecord
  2
FORMAT
 70
     0
 62
     7
  6
SLD-Solid
370
    -3
390
F
  0
LAYER
  5
76
330
2
100
AcDbSymbolTableRecord
100
AcDbLayerTableRecord
  2
NOTES
 70
     0
 62
     1
  6
SLD-Solid
370
    -3
390
F
  0
LAYER
  5
77
330
2
100
AcDbSymbolTableRecord
100
AcDbLayerTableRecord
  2
OBJECT
 70
     0
 62
     7
  6
SLD-Solid
370
    25
390
F
  0
LAYER
  5
78
330
2
100
AcDbSymbolTableRecord
100
AcDbLayerTableRecord
  2
DIMS
 70
     0
 62
     5
  6
SLD-Solid
370
    -3
390
F
  0
LAYER
  5
79
330
2
100
AcDbSymbolTableRecord
100
AcDbLayerTableRecord
  2
TITLE
 70
     0
 62
     8
  6
SLD-Solid
370
    -3
390
F
  0
ENDTAB
  0
TABLE
  2
STYLE
  5
3
330
0
100
AcDbSymbolTable
 70
     5
  0
STYLE
  5
11
330
3
100
AcDbSymbolTableRecord
100
AcDbTextStyleTableRecord
  2
STANDARD
 70
     0
 40
0.0
 41
1.0
 50
0.0
 71
     0
 42
0.5
  3
GOTHIC.TTF
  4

1001
ACAD
1000
CENTURY GOTHIC
1071
       34
  0
STYLE
  5
15D
330
3
100
AcDbSymbolTableRecord
100
AcDbTextStyleTableRecord
  2
SLDTEXTSTYLE0
 70
     0
 40
0.0
 41
0.948
 50
0.0
 71
     0
 42
0.5
  3
ARIAL.TTF
  4

1001
ACAD
1000
Arial
1071
      290
  0
STYLE
  5
161
330
3
100
AcDbSymbolTableRecord
100
AcDbTextStyleTableRecord
  2
SLDTEXTSTYLE1
 70
     0
 40
0.0
 41
0.913
 50
0.0
 71
     0
 42
0.5
  3
GOTHIC.TTF
  4

1001
ACAD
1000
Century Gothic
1071
      290
  0
STYLE
  5
170
330
3
100
AcDbSymbolTableRecord
100
AcDbTextStyleTableRecord
  2
SLDTEXTSTYLE2
 70
     0
 40
0.0
 41
0.87
 50
0.0
 71
     0
 42
0.5
  3
ARIALNB.TTF
  4

1001
ACAD
1000
Arial Narrow
1071
 33554722
  0
STYLE
  5
172
330
3
100
AcDbSymbolTableRecord
100
AcDbTextStyleTableRecord
  2
SLDTEXTSTYLE3
 70
     0
 40
0.0
 41
0.87
 50
0.0
 71
     0
 42
0.5
  3
ARIALN.TTF
  4

1001
ACAD
1000
Arial Narrow
1071
      290
  0
ENDTAB
  0
TABLE
  2
VIEW
  5
6
330
0
100
AcDbSymbolTable
 70
     0
  0
ENDTAB
  0
TABLE
  2
UCS
  5
7
330
0
100
AcDbSymbolTable
 70
     0
  0
ENDTAB
  0
TABLE
  2
APPID
  5
9
330
0
100
AcDbSymbolTable
 70
     1
  0
APPID
  5
12
330
9
100
AcDbSymbolTableRecord
100
AcDbRegAppTableRecord
  2
ACAD
 70
     0
  0
ENDTAB
  0
TABLE
  2
DIMSTYLE
  5
A
330
0
100
AcDbSymbolTable
 70
     6
100
AcDbDimStyleTable
  0
DIMSTYLE
105
27
330
A
100
AcDbSymbolTableRecord
100
AcDbDimStyleTableRecord
  2
Standard
 70
     0
178
     0
340
11
  0
DIMSTYLE
105
277
102
{ACAD_REACTORS
330
276
102
}
330
A
100
AcDbSymbolTableRecord
100
AcDbDimStyleTableRecord
  2
SLDDIMSTYLE0
 70
     0
 41
0.3
 44
0.0
 45
0.000000001
 78
    12
 79
     3
140
0.5
147
0.125
173
     1
178
     0
271
     2
272
     2
276
     2
277
     5
284
    12
340
161
341
278
343
278
344
278
  0
DIMSTYLE
105
289
102
{ACAD_REACTORS
330
288
330
298
102
}
330
A
100
AcDbSymbolTableRecord
100
AcDbDimStyleTableRecord
  2
SLDDIMSTYLE1
 70
     0
 41
0.3
 44
0.0
 45
0.000000001
 78
    12
 79
     3
140
0.5
147
0.125
172
     1
173
     1
178
     0
271
     6
272
     2
276
     2
277
     5
284
    12
289
     0
340
161
341
278
343
278
344
278
  0
DIMSTYLE
105
2B9
102
{ACAD_REACTORS
330
2B8
102
}
330
A
100
AcDbSymbolTableRecord
100
AcDbDimStyleTableRecord
  2
SLDDIMSTYLE2
 70
     0
 41
0.3
 44
0.0
 45
0.000000001
 78
    12
 79
     3
140
0.5
141
0.0
147
0.125
173
     1
178
     0
271
     2
272
     2
276
     2
277
     5
284
    12
340
161
341
278
343
278
344
278
  0
DIMSTYLE
105
2C3
102
{ACAD_REACTORS
330
2C2
102
}
330
A
100
AcDbSymbolTableRecord
100
AcDbDimStyleTableRecord
  2
SLDDIMSTYLE3
 70
     0
 41
0.3
 44
0.0
 45
0.000000001
 78
    12
 79
     3
140
0.5
147
0.125
173
     1
178
     0
271
     6
272
     2
276
     2
277
     5
284
    12
340
161
341
278
343
278
344
278
  0
DIMSTYLE
105
412
330
A
100
AcDbSymbolTableRecord
100
AcDbDimStyleTableRecord
  2
SLDDIMSTYLE4
 70
     0
 41
0.3
 44
0.0
 45
0.000000001
146
0.3
147
0.0
173
     1
178
     0
271
     0
272
     0
276
     2
277
     5
340
11
341
278
343
278
344
278
  0
ENDTAB
  0
TABLE
  2
BLOCK_RECORD
  5
1
330
0
100
AcDbSymbolTable
 70
    11
  0
BLOCK_RECORD
  5
1F
330
1
100
AcDbSymbolTableRecord
100
AcDbBlockTableRecord
  2
*Model_Space
340
22
  0
BLOCK_RECORD
  5
1B
330
1
100
AcDbSymbolTableRecord
100
AcDbBlockTableRecord
  2
*Paper_Space
340
1E
  0
BLOCK_RECORD
  5
23
330
1
100
AcDbSymbolTableRecord
100
AcDbBlockTableRecord
  2
*Paper_Space0
340
26
  0
BLOCK_RECORD
  5
167
330
1
100
AcDbSymbolTableRecord
100
AcDbBlockTableRecord
  2
SW_NOTE_0
340
0
102
{BLKREFS
331
16C
102
}
  0
BLOCK_RECORD
  5
16D
330
1
100
AcDbSymbolTableRecord
100
AcDbBlockTableRecord
  2
SW_NOTE_0_1
340
0
102
{BLKREFS
331
176
102
}
  0
BLOCK_RECORD
  5
278
330
1
100
AcDbSymbolTableRecord
100
AcDbBlockTableRecord
  2
_Open90
340
0
102
{BLKREFS
331
281
331
282
331
28D
331
28E
331
29C
331
29D
331
2BD
331
2C7
331
2C8
102
}
  0
BLOCK_RECORD
  5
27E
330
1
100
AcDbSymbolTableRecord
100
AcDbBlockTableRecord
  2
_D
340
0
  0
BLOCK_RECORD
  5
28A
330
1
100
AcDbSymbolTableRecord
100
AcDbBlockTableRecord
  2
_D_1
340
0
  0
BLOCK_RECORD
  5
299
330
1
100
AcDbSymbolTableRecord
100
AcDbBlockTableRecord
  2
_D_2
340
0
  0
BLOCK_RECORD
  5
2BA
330
1
100
AcDbSymbolTableRecord
100
AcDbBlockTableRecord
  2
_D_3
340
0
  0
BLOCK_RECORD
  5
2C4
330
1
100
AcDbSymbolTableRecord
100
AcDbBlockTableRecord
  2
_D_4
340
0
  0
BLOCK_RECORD
  5
355
330
1
100
AcDbSymbolTableRecord
100
AcDbBlockTableRecord
  2
SW_NOTE_0_2
340
0
102
{BLKREFS
331
35A
102
}
  0
BLOCK_RECORD
  5
40B
330
1
100
AcDbSymbolTableRecord
100
AcDbBlockTableRecord
  2
SW_NOTE_0_3
340
0
102
{BLKREFS
331
410
102
}
  0
ENDTAB
  0
ENDSEC
  0
SECTION
  2
BLOCKS
  0
BLOCK
  5
20
330
1F
100
AcDbEntity
  8
0
100
AcDbBlockBegin
  2
*Model_Space
 70
     0
 10
0.0
 20
0.0
 30
0.0
  3
*Model_Space
  1

  0
ENDBLK
  5
21
330
1F
100
AcDbEntity
  8
0
100
AcDbBlockEnd
  0
BLOCK
  5
1C
330
1B
100
AcDbEntity
 67
     1
  8
0
100
AcDbBlockBegin
  2
*Paper_Space
 70
     0
 10
0.0
 20
0.0
 30
0.0
  3
*Paper_Space
  1

  0
ENDBLK
  5
1D
330
1B
100
AcDbEntity
 67
     1
  8
0
100
AcDbBlockEnd
  0
BLOCK
  5
24
330
23
100
AcDbEntity
  8
0
100
AcDbBlockBegin
  2
*Paper_Space0
 70
     0
 10
0.0
 20
0.0
 30
0.0
  3
*Paper_Space0
  1

  0
ENDBLK
  5
25
330
23
100
AcDbEntity
  8
0
100
AcDbBlockEnd
  0
BLOCK
  5
168
330
167
100
AcDbEntity
  8
0
100
AcDbBlockBegin
  2
SW_NOTE_0
 70
     0
 10
0.0
 20
0.0
 30
0.0
  3
SW_NOTE_0
  1

  0
MTEXT
  5
16A
330
167
100
AcDbEntity
  8
NOTES
 62
     0
100
AcDbMText
 10
0.0
 20
0.3759780908
 30
0.0
 40
0.2916666667
 41
0.0
 71
     1
 72
     1
  1
FROST PRODUCTS LTD.
  7
SLDTEXTSTYLE0
 73
     1
 44
1.0
  0
MTEXT
  5
16B
330
167
100
AcDbEntity
  8
NOTES
 62
     0
100
AcDbMText
 10
0.0
 20
-0.0495142709
 30
0.0
 40
0.2291666667
 41
0.0
 71
     1
 72
     1
  1
5280 JOHN LUCAS DRIVE, BURLINGTON, ON, L7L 5Z9
  7
SLDTEXTSTYLE0
 73
     1
 44
1.0
  0
ENDBLK
  5
169
330
167
100
AcDbEntity
  8
0
100
AcDbBlockEnd
  0
BLOCK
  5
16E
330
16D
100
AcDbEntity
  8
0
100
AcDbBlockBegin
  2
SW_NOTE_0_1
 70
     0
 10
0.0
 20
0.0
 30
0.0
  3
SW_NOTE_0_1
  1

  0
MTEXT
  5
171
330
16D
100
AcDbEntity
  8
NOTES
 62
     0
100
AcDbMText
 10
0.0
 20
0.2381282771
 30
0.0
 40
0.184729064
 41
0.0
 71
     1
 72
     1
  1
PROPRIETARY AND CONFIDENTIAL
  7
SLDTEXTSTYLE2
 73
     1
 44
1.0
  0
MTEXT
  5
173
330
16D
100
AcDbEntity
  8
NOTES
 62
     0
100
AcDbMText
 10
0.0
 20
-0.0504364796
 30
0.0
 40
0.25
 41
0.0
 71
     1
 72
     1
  1
THE INFORMATION CONTAINED IN THIS DRAWING IS THE SOLE PROPERTY OF 
  7
SLDTEXTSTYLE3
 73
     1
 44
1.0
  0
MTEXT
  5
174
330
16D
100
AcDbEntity
  8
NOTES
 62
     0
100
AcDbMText
 10
0.0
 20
-0.4231398941
 30
0.0
 40
0.25
 41
0.0
 71
     1
 72
     1
  1
FROST PRODUCTS LTD.  ANY REPRODUCTION IN PART OR AS A WHOLE WITHOUT 
  7
SLDTEXTSTYLE3
 73
     1
 44
1.0
  0
MTEXT
  5
175
330
16D
100
AcDbEntity
  8
NOTES
 62
     0
100
AcDbMText
 10
0.0
 20
-0.7958433086
 30
0.0
 40
0.25
 41
0.0
 71
     1
 72
     1
  1
THE WRITTEN PERMISSION OF FROST PRODUCTS LTD. IS PROHIBITED.
  7
SLDTEXTSTYLE3
 73
     1
 44
1.0
  0
ENDBLK
  5
16F
330
16D
100
AcDbEntity
  8
0
100
AcDbBlockEnd
  0
BLOCK
  5
279
330
278
100
AcDbEntity
  8
0
100
AcDbBlockBegin
  2
_Open90
 70
     0
 10
0.0
 20
0.0
 30
0.0
  3
_Open90
  1

  0
LINE
  5
27B
330
278
100
AcDbEntity
  8
0
  6
ByBlock
 62
     0
370
    -2
100
AcDbLine
 10
-0.5
 20
0.5
 30
0.0
 11
0.0
 21
0.0
 31
0.0
  0
LINE
  5
27C
330
278
100
AcDbEntity
  8
0
  6
ByBlock
 62
     0
370
    -2
100
AcDbLine
 10
0.0
 20
0.0
 30
0.0
 11
-0.5
 21
-0.5
 31
0.0
  0
LINE
  5
27D
330
278
100
AcDbEntity
  8
0
  6
ByBlock
 62
     0
370
    -2
100
AcDbLine
 10
0.0
 20
0.0
 30
0.0
 11
-1.0
 21
0.0
 31
0.0
  0
ENDBLK
  5
27A
330
278
100
AcDbEntity
  8
0
100
AcDbBlockEnd
  0
BLOCK
  5
27F
330
27E
100
AcDbEntity
  8
0
100
AcDbBlockBegin
  2
_D
 70
     0
 10
0.0
 20
0.0
 30
0.0
  3
_D
  1

  0
INSERT
  5
281
330
27E
100
AcDbEntity
  8
DIMS
100
AcDbBlockReference
  2
_Open90
 10
75.4368836225
 20
27.2931597601
 30
0.0
 41
0.3
 42
0.3
 50
0.0
  0
INSERT
  5
282
330
27E
100
AcDbEntity
  8
DIMS
100
AcDbBlockReference
  2
_Open90
 10
3.4368836225
 20
27.2931597601
 30
0.0
 41
0.3
 42
0.3
 50
180.0
  0
LINE
  5
283
330
27E
100
AcDbEntity
  8
DIMS
100
AcDbLine
 10
75.4368836225
 20
24.3033618598
 30
0.0
 11
75.4368836225
 21
27.6681597601
 31
0.0
  0
LINE
  5
284
330
27E
100
AcDbEntity
  8
DIMS
100
AcDbLine
 10
3.4368836225
 20
24.3033618598
 30
0.0
 11
3.4368836225
 21
27.6681597601
 31
0.0
  0
LINE
  5
285
330
27E
100
AcDbEntity
  8
DIMS
100
AcDbLine
 10
75.4368836225
 20
27.2931597601
 30
0.0
 11
40.8878501867
 21
27.2931597601
 31
0.0
  0
LINE
  5
286
330
27E
100
AcDbEntity
  8
DIMS
100
AcDbLine
 10
3.4368836225
 20
27.2931597601
 30
0.0
 11
39.9427113317
 21
27.2931597601
 31
0.0
  0
MTEXT
  5
287
330
27E
100
AcDbEntity
  8
DIMS
100
AcDbMText
 10
39.9427113317
 20
27.5349566782
 30
0.0
 40
0.5
 41
0.0
 71
     1
 72
     1
  1
72"
  7
SLDTEXTSTYLE1
 73
     1
 44
1.0
  0
ENDBLK
  5
280
330
27E
100
AcDbEntity
  8
0
100
AcDbBlockEnd
  0
BLOCK
  5
28B
330
28A
100
AcDbEntity
  8
0
100
AcDbBlockBegin
  2
_D_1
 70
     0
 10
0.0
 20
0.0
 30
0.0
  3
_D_1
  1

  0
INSERT
  5
28D
330
28A
100
AcDbEntity
  8
DIMS
100
AcDbBlockReference
  2
_Open90
 10
71.9549056719
 20
24.1366951932
 30
0.0
 41
0.3
 42
0.3
 50
270.0
  0
INSERT
  5
28E
330
28A
100
AcDbEntity
  8
DIMS
100
AcDbBlockReference
  2
_Open90
 10
71.9549056719
 20
22.8826951932
 30
0.0
 41
0.3
 42
0.3
 50
90.0
  0
LINE
  5
28F
330
28A
100
AcDbEntity
  8
DIMS
100
AcDbLine
 10
70.8594195564
 20
25.4546806789
 30
0.0
 11
71.3753918059
 21
25.4546806789
 31
0.0
  0
LINE
  5
290
330
28A
100
AcDbEntity
  8
DIMS
100
AcDbLine
 10
71.6549056719
 20
25.4033959806
 30
0.0
 11
71.9549056719
 21
25.4033959806
 31
0.0
  0
LINE
  5
291
330
28A
100
AcDbEntity
  8
DIMS
100
AcDbLine
 10
71.9549056719
 20
25.4033959806
 30
0.0
 11
71.9549056719
 21
24.1366951932
 31
0.0
  0
LINE
  5
292
330
28A
100
AcDbEntity
  8
DIMS
100
AcDbLine
 10
71.9549056719
 20
22.8826951932
 30
0.0
 11
71.9549056719
 21
22.5826951932
 31
0.0
  0
MTEXT
  5
293
330
28A
100
AcDbEntity
  8
DIMS
100
AcDbMText
 10
69.6626487266
 20
25.6764428501
 30
0.0
 40
0.5
 41
0.0
 71
     1
 72
     1
  1
%%c
  7
SLDTEXTSTYLE1
 73
     1
 44
1.0
  0
MTEXT
  5
294
330
28A
100
AcDbEntity
  8
DIMS
100
AcDbMText
 10
70.416711209
 20
25.6840817394
 30
0.0
 40
0.5
 41
0.0
 71
     1
 72
     1
  1
1
  7
SLDTEXTSTYLE1
 73
     1
 44
1.0
  0
MTEXT
  5
295
330
28A
100
AcDbEntity
  8
DIMS
100
AcDbMText
 10
70.9326834584
 20
26.0493942384
 30
0.0
 40
0.5
 41
0.0
 71
     1
 72
     1
  1
1
  7
SLDTEXTSTYLE1
 73
     1
 44
1.0
  0
MTEXT
  5
296
330
28A
100
AcDbEntity
  8
DIMS
100
AcDbMText
 10
70.9326834584
 20
25.3882136599
 30
0.0
 40
0.5
 41
0.0
 71
     1
 72
     1
  1
4
  7
SLDTEXTSTYLE1
 73
     1
 44
1.0
  0
MTEXT
  5
297
330
28A
100
AcDbEntity
  8
DIMS
100
AcDbMText
 10
71.4486557078
 20
25.6840817394
 30
0.0
 40
0.5
 41
0.0
 71
     1
 72
     1
  1
"
  7
SLDTEXTSTYLE1
 73
     1
 44
1.0
  0
ENDBLK
  5
28C
330
28A
100
AcDbEntity
  8
0
100
AcDbBlockEnd
  0
BLOCK
  5
29A
330
299
100
AcDbEntity
  8
0
100
AcDbBlockBegin
  2
_D_2
 70
     0
 10
0.0
 20
0.0
 30
0.0
  3
_D_2
  1

  0
INSERT
  5
29C
330
299
100
AcDbEntity
  8
DIMS
100
AcDbBlockReference
  2
_Open90
 10
75.4368836225
 20
26.1120573979
 30
0.0
 41
0.3
 42
0.3
 50
180.0
  0
INSERT
  5
29D
330
299
100
AcDbEntity
  8
DIMS
100
AcDbBlockReference
  2
_Open90
 10
74.8808836225
 20
26.1120573979
 30
0.0
 41
0.3
 42
0.3
 50
0.0
  0
LINE
  5
29E
330
299
100
AcDbEntity
  8
DIMS
100
AcDbLine
 10
72.9089754084
 20
26.1633420963
 30
0.0
 11
73.7943921034
 21
26.1633420963
 31
0.0
  0
LINE
  5
29F
330
299
100
AcDbEntity
  8
DIMS
100
AcDbLine
 10
75.4368836225
 20
25.1763618598
 30
0.0
 11
75.4368836225
 21
26.4870573979
 31
0.0
  0
LINE
  5
2A0
330
299
100
AcDbEntity
  8
DIMS
100
AcDbLine
 10
74.8808836225
 20
25.0763618598
 30
0.0
 11
74.8808836225
 21
26.4870573979
 31
0.0
  0
LINE
  5
2A1
330
299
100
AcDbEntity
  8
DIMS
100
AcDbLine
 10
75.4368836225
 20
26.1120573979
 30
0.0
 11
75.7368836225
 21
26.1120573979
 31
0.0
  0
LINE
  5
2A2
330
299
100
AcDbEntity
  8
DIMS
100
AcDbLine
 10
74.8808836225
 20
26.1120573979
 30
0.0
 11
74.0739060427
 21
26.1120573979
 31
0.0
  0
MTEXT
  5
2A3
330
299
100
AcDbEntity
  8
DIMS
100
AcDbMText
 10
73.1669615331
 20
26.7580556557
 30
0.0
 40
0.5
 41
0.0
 71
     1
 72
     1
  1
9
  7
SLDTEXTSTYLE1
 73
     1
 44
1.0
  0
MTEXT
  5
2A4
330
299
100
AcDbEntity
  8
DIMS
100
AcDbMText
 10
72.9822393104
 20
26.0968750772
 30
0.0
 40
0.5
 41
0.0
 71
     1
 72
     1
  1
16
  7
SLDTEXTSTYLE1
 73
     1
 44
1.0
  0
MTEXT
  5
2A5
330
299
100
AcDbEntity
  8
DIMS
100
AcDbMText
 10
73.8676560053
 20
26.3927431567
 30
0.0
 40
0.5
 41
0.0
 71
     1
 72
     1
  1
"
  7
SLDTEXTSTYLE1
 73
     1
 44
1.0
  0
ENDBLK
  5
29B
330
299
100
AcDbEntity
  8
0
100
AcDbBlockEnd
  0
BLOCK
  5
2BB
330
2BA
100
AcDbEntity
  8
0
100
AcDbBlockBegin
  2
_D_3
 70
     0
 10
0.0
 20
0.0
 30
0.0
  3
_D_3
  1

  0
INSERT
  5
2BD
330
2BA
100
AcDbEntity
  8
DIMS
100
AcDbBlockReference
  2
_Open90
 10
80.9880343081
 20
24.8087332988
 30
0.0
 41
0.3
 42
0.3
 50
300.0
  0
LINE
  5
2BE
330
2BA
100
AcDbEntity
  8
DIMS
100
AcDbLine
 10
80.9880343081
 20
24.8087332988
 30
0.0
 11
80.2077564955
 21
26.1602141143
 31
0.0
  0
LINE
  5
2BF
330
2BA
100
AcDbEntity
  8
DIMS
100
AcDbLine
 10
80.2077564955
 20
26.1602141143
 30
0.0
 11
79.9077564955
 21
26.1602141143
 31
0.0
  0
MTEXT
  5
2C0
330
2BA
100
AcDbEntity
  8
DIMS
100
AcDbMText
 10
78.5779996037
 20
26.3981915556
 30
0.0
 40
0.5
 41
0.0
 71
     1
 72
     1
  1
%%c
  7
SLDTEXTSTYLE1
 73
     1
 44
1.0
  0
MTEXT
  5
2C1
330
2BA
100
AcDbEntity
  8
DIMS
100
AcDbMText
 10
79.332062086
 20
26.4058304449
 30
0.0
 40
0.5
 41
0.0
 71
     1
 72
     1
  1
3"
  7
SLDTEXTSTYLE1
 73
     1
 44
1.0
  0
ENDBLK
  5
2BC
330
2BA
100
AcDbEntity
  8
0
100
AcDbBlockEnd
  0
BLOCK
  5
2C5
330
2C4
100
AcDbEntity
  8
0
100
AcDbBlockBegin
  2
_D_4
 70
     0
 10
0.0
 20
0.0
 30
0.0
  3
_D_4
  1

  0
INSERT
  5
2C7
330
2C4
100
AcDbEntity
  8
DIMS
100
AcDbBlockReference
  2
_Open90
 10
85.3012291206
 20
24.5716951932
 30
0.0
 41
0.3
 42
0.3
 50
90.0
  0
INSERT
  5
2C8
330
2C4
100
AcDbEntity
  8
DIMS
100
AcDbBlockReference
  2
_Open90
 10
85.3012291206
 20
22.4476951932
 30
0.0
 41
0.3
 42
0.3
 50
270.0
  0
LINE
  5
2C9
330
2C4
100
AcDbEntity
  8
DIMS
100
AcDbLine
 10
85.1248402
 20
23.5084944159
 30
0.0
 11
85.6408124494
 21
23.5084944159
 31
0.0
  0
LINE
  5
2CA
330
2C4
100
AcDbEntity
  8
DIMS
100
AcDbLine
 10
81.9047009748
 20
24.5716951932
 30
0.0
 11
85.6762291206
 21
24.5716951932
 31
0.0
  0
LINE
  5
2CB
330
2C4
100
AcDbEntity
  8
DIMS
100
AcDbLine
 10
81.9047009748
 20
22.4476951932
 30
0.0
 11
85.6762291206
 21
22.4476951932
 31
0.0
  0
LINE
  5
2CC
330
2C4
100
AcDbEntity
  8
DIMS
100
AcDbLine
 10
85.3012291206
 20
24.5716951932
 30
0.0
 11
85.3012291206
 21
24.1110638708
 31
0.0
  0
LINE
  5
2CD
330
2C4
100
AcDbEntity
  8
DIMS
100
AcDbLine
 10
85.3012291206
 20
22.4476951932
 30
0.0
 11
85.3012291206
 21
22.8033555643
 31
0.0
  0
MTEXT
  5
2CE
330
2C4
100
AcDbEntity
  8
DIMS
100
AcDbMText
 10
84.6821318525
 20
23.7378954764
 30
0.0
 40
0.5
 41
0.0
 71
     1
 72
     1
  1
2
  7
SLDTEXTSTYLE1
 73
     1
 44
1.0
  0
MTEXT
  5
2CF
330
2C4
100
AcDbEntity
  8
DIMS
100
AcDbMText
 10
85.1981041019
 20
24.1032079754
 30
0.0
 40
0.5
 41
0.0
 71
     1
 72
     1
  1
1
  7
SLDTEXTSTYLE1
 73
     1
 44
1.0
  0
MTEXT
  5
2D0
330
2C4
100
AcDbEntity
  8
DIMS
100
AcDbMText
 10
85.1981041019
 20
23.4420273969
 30
0.0
 40
0.5
 41
0.0
 71
     1
 72
     1
  1
8
  7
SLDTEXTSTYLE1
 73
     1
 44
1.0
  0
MTEXT
  5
2D1
330
2C4
100
AcDbEntity
  8
DIMS
100
AcDbMText
 10
85.7140763514
 20
23.7378954764
 30
0.0
 40
0.5
 41
0.0
 71
     1
 72
     1
  1
"
  7
SLDTEXTSTYLE1
 73
     1
 44
1.0
  0
ENDBLK
  5
2C6
330
2C4
100
AcDbEntity
  8
0
100
AcDbBlockEnd
  0
BLOCK
  5
356
330
355
100
AcDbEntity
  8
0
100
AcDbBlockBegin
  2
SW_NOTE_0_2
 70
     0
 10
0.0
 20
0.0
 30
0.0
  3
SW_NOTE_0_2
  1

  0
MTEXT
  5
358
330
355
100
AcDbEntity
  8
NOTES
 62
     0
100
AcDbMText
 10
0.0
 20
0.638671875
 30
0.0
 40
0.5
 41
0.0
 71
     1
 72
     1
  1
3D view
  7
SLDTEXTSTYLE1
 73
     1
 44
1.0
  0
MTEXT
  5
359
330
355
100
AcDbEntity
  8
NOTES
 62
     0
100
AcDbMText
 10
0.0
 20
-0.3613281862
 30
0.0
 40
0.5
 41
0.0
 71
     1
 72
     1
  1
code 1145-72SS
  7
SLDTEXTSTYLE1
 73
     1
 44
1.0
  0
ENDBLK
  5
357
330
355
100
AcDbEntity
  8
0
100
AcDbBlockEnd
  0
BLOCK
  5
40C
330
40B
100
AcDbEntity
  8
0
100
AcDbBlockBegin
  2
SW_NOTE_0_3
 70
     0
 10
0.0
 20
0.0
 30
0.0
  3
SW_NOTE_0_3
  1

  0
MTEXT
  5
40E
330
40B
100
AcDbEntity
  8
NOTES
 62
     0
100
AcDbMText
 10
0.0
 20
0.638671875
 30
0.0
 40
0.5
 41
0.0
 71
     1
 72
     1
  1
3D view
  7
SLDTEXTSTYLE1
 73
     1
 44
1.0
  0
MTEXT
  5
40F
330
40B
100
AcDbEntity
  8
NOTES
 62
     0
100
AcDbMText
 10
0.0
 20
-0.3613281862
 30
0.0
 40
0.5
 41
0.0
 71
     1
 72
     1
  1
assembly
  7
SLDTEXTSTYLE1
 73
     1
 44
1.0
  0
ENDBLK
  5
40D
330
40B
100
AcDbEntity
  8
0
100
AcDbBlockEnd
  0
ENDSEC
  0
SECTION
  2
ENTITIES
  0
LINE
  5
7A
330
1F
100
AcDbEntity
  8
TITLE
370
    35
100
AcDbLine
 10
72.5182230965
 20
1.4876117645
 30
0.0
 11
89.4999864512
 21
1.4876117645
 31
0.0
  0
LINE
  5
7B
330
1F
100
AcDbEntity
  8
TITLE
370
    35
100
AcDbLine
 10
89.4999317442
 20
5.4753603936
 30
0.0
 11
79.3105350723
 21
5.4753603936
 31
0.0
  0
LINE
  5
7C
330
1F
100
AcDbEntity
  8
TITLE
  6
SLD-Solid
370
    18
100
AcDbLine
 10
0.5
 20
0.5
 30
0.0
 11
0.5
 21
119.5
 31
0.0
  0
LINE
  5
7D
330
1F
100
AcDbEntity
  8
TITLE
  6
SLD-Solid
370
    18
100
AcDbLine
 10
0.5
 20
119.5
 30
0.0
 11
89.5
 21
119.5
 31
0.0
  0
LINE
  5
7E
330
1F
100
AcDbEntity
  8
TITLE
370
    35
100
AcDbLine
 10
72.5182230965
 20
2.5427877231
 30
0.0
 11
65.5059791203
 21
2.5427877231
 31
0.0
  0
LINE
  5
7F
330
1F
100
AcDbEntity
  8
TITLE
370
    35
100
AcDbLine
 10
72.5182230965
 20
1.4876117645
 30
0.0
 11
65.5059791203
 21
1.4876117645
 31
0.0
  0
LINE
  5
80
330
1F
100
AcDbEntity
  8
TITLE
  6
SLD-Solid
370
    18
100
AcDbLine
 10
89.5
 20
119.5
 30
0.0
 11
89.5
 21
0.5
 31
0.0
  0
LINE
  5
81
330
1F
100
AcDbEntity
  8
TITLE
  6
SLD-Solid
370
    18
100
AcDbLine
 10
89.5
 20
0.5
 30
0.0
 11
0.5
 21
0.5
 31
0.0
  0
LINE
  5
82
330
1F
100
AcDbEntity
  8
TITLE
370
    35
100
AcDbLine
 10
72.5182230965
 20
1.4876117645
 30
0.0
 11
72.5182230965
 21
3.5979636817
 31
0.0
  0
LINE
  5
83
330
1F
100
AcDbEntity
  8
TITLE
370
    35
100
AcDbLine
 10
65.5059791203
 20
3.5979636817
 30
0.0
 11
65.5059791203
 21
0.5
 31
0.0
  0
LINE
  5
84
330
1F
100
AcDbEntity
  8
TITLE
370
    35
100
AcDbLine
 10
65.5059791203
 20
0.5
 30
0.0
 11
89.5
 21
0.5
 31
0.0
  0
LINE
  5
85
330
1F
100
AcDbEntity
  8
TITLE
370
    35
100
AcDbLine
 10
89.4999317442
 20
5.4753603936
 30
0.0
 11
89.5
 21
0.5
 31
0.0
  0
LINE
  5
86
330
1F
100
AcDbEntity
  8
TITLE
  6
SLD-Solid
370
    18
100
AcDbLine
 10
0.4999606299
 20
60.0
 30
0.0
 11
0.5000393701
 21
60.0
 31
0.0
  0
LINE
  5
87
330
1F
100
AcDbEntity
  8
TITLE
370
    35
100
AcDbLine
 10
72.5182230965
 20
3.5979636817
 30
0.0
 11
65.5059791203
 21
3.5979636817
 31
0.0
  0
LINE
  5
88
330
1F
100
AcDbEntity
  8
TITLE
370
    35
100
AcDbLine
 10
72.5182230965
 20
3.5979636817
 30
0.0
 11
89.4997615643
 21
3.5979648343
 31
0.0
  0
LINE
  5
89
330
1F
100
AcDbEntity
  8
TITLE
370
    35
100
AcDbLine
 10
79.3105350723
 20
5.4753603936
 30
0.0
 11
79.3105350723
 21
0.4636772425
 31
0.0
  0
LINE
  5
8A
330
1F
100
AcDbEntity
  8
TITLE
  6
SLD-Solid
370
    18
100
AcDbLine
 10
45.0
 20
119.5000393701
 30
0.0
 11
45.0
 21
119.4999606299
 31
0.0
  0
LINE
  5
8B
330
1F
100
AcDbEntity
  8
TITLE
  6
SLD-Solid
370
    18
100
AcDbLine
 10
89.5000393701
 20
60.0
 30
0.0
 11
89.4999606299
 21
60.0
 31
0.0
  0
LINE
  5
8C
330
1F
100
AcDbEntity
  8
TITLE
  6
SLD-Solid
370
    18
100
AcDbLine
 10
45.0
 20
0.4999606299
 30
0.0
 11
45.0
 21
0.5000393701
 31
0.0
  0
LINE
  5
8D
330
1F
100
AcDbEntity
  8
TITLE
  6
SLD-Solid
370
    18
100
AcDbLine
 10
0.5
 20
2.9133858268
 30
0.0
 11
0.1653543307
 21
2.9133858268
 31
0.0
  0
LINE
  5
8E
330
1F
100
AcDbEntity
  8
TITLE
  6
SLD-Solid
370
    18
100
AcDbLine
 10
89.5
 20
2.9133858268
 30
0.0
 11
89.8346456693
 21
2.9133858268
 31
0.0
  0
LINE
  5
8F
330
1F
100
AcDbEntity
  8
TITLE
  6
SLD-Solid
370
    18
100
AcDbLine
 10
0.5
 20
4.8818897638
 30
0.0
 11
0.1653543307
 21
4.8818897638
 31
0.0
  0
LINE
  5
90
330
1F
100
AcDbEntity
  8
TITLE
  6
SLD-Solid
370
    18
100
AcDbLine
 10
89.5
 20
4.8818897638
 30
0.0
 11
89.8346456693
 21
4.8818897638
 31
0.0
  0
LINE
  5
91
330
1F
100
AcDbEntity
  8
TITLE
  6
SLD-Solid
370
    18
100
AcDbLine
 10
0.5
 20
6.8503937008
 30
0.0
 11
0.1653543307
 21
6.8503937008
 31
0.0
  0
LINE
  5
92
330
1F
100
AcDbEntity
  8
TITLE
  6
SLD-Solid
370
    18
100
AcDbLine
 10
89.5
 20
6.8503937008
 30
0.0
 11
89.8346456693
 21
6.8503937008
 31
0.0
  0
LINE
  5
93
330
1F
100
AcDbEntity
  8
TITLE
  6
SLD-Solid
370
    18
100
AcDbLine
 10
0.5
 20
8.8188976378
 30
0.0
 11
0.1653543307
 21
8.8188976378
 31
0.0
  0
LINE
  5
94
330
1F
100
AcDbEntity
  8
TITLE
  6
SLD-Solid
370
    18
100
AcDbLine
 10
89.5
 20
8.8188976378
 30
0.0
 11
89.8346456693
 21
8.8188976378
 31
0.0
  0
LINE
  5
95
330
1F
100
AcDbEntity
  8
TITLE
  6
SLD-Solid
370
    18
100
AcDbLine
 10
0.5
 20
10.7874015748
 30
0.0
 11
0.1653543307
 21
10.7874015748
 31
0.0
  0
LINE
  5
96
330
1F
100
AcDbEntity
  8
TITLE
  6
SLD-Solid
370
    18
100
AcDbLine
 10
89.5
 20
10.7874015748
 30
0.0
 11
89.8346456693
 21
10.7874015748
 31
0.0
  0
LINE
  5
97
330
1F
100
AcDbEntity
  8
TITLE
  6
SLD-Solid
370
    18
100
AcDbLine
 10
0.5
 20
12.7559055118
 30
0.0
 11
0.1653543307
 21
12.7559055118
 31
0.0
  0
LINE
  5
98
330
1F
100
AcDbEntity
  8
TITLE
  6
SLD-Solid
370
    18
100
AcDbLine
 10
89.5
 20
12.7559055118
 30
0.0
 11
89.8346456693
 21
12.7559055118
 31
0.0
  0
LINE
  5
99
330
1F
100
AcDbEntity
  8
TITLE
  6
SLD-Solid
370
    18
100
AcDbLine
 10
0.5
 20
14.7244094488
 30
0.0
 11
0.1653543307
 21
14.7244094488
 31
0.0
  0
LINE
  5
9A
330
1F
100
AcDbEntity
  8
TITLE
  6
SLD-Solid
370
    18
100
AcDbLine
 10
89.5
 20
14.7244094488
 30
0.0
 11
89.8346456693
 21
14.7244094488
 31
0.0
  0
LINE
  5
9B
330
1F
100
AcDbEntity
  8
TITLE
  6
SLD-Solid
370
    18
100
AcDbLine
 10
0.5
 20
16.6929133858
 30
0.0
 11
0.1653543307
 21
16.6929133858
 31
0.0
  0
LINE
  5
9C
330
1F
100
AcDbEntity
  8
TITLE
  6
SLD-Solid
370
    18
100
AcDbLine
 10
89.5
 20
16.6929133858
 30
0.0
 11
89.8346456693
 21
16.6929133858
 31
0.0
  0
LINE
  5
9D
330
1F
100
AcDbEntity
  8
TITLE
  6
SLD-Solid
370
    18
100
AcDbLine
 10
0.5
 20
18.6614173228
 30
0.0
 11
0.1653543307
 21
18.6614173228
 31
0.0
  0
LINE
  5
9E
330
1F
100
AcDbEntity
  8
TITLE
  6
SLD-Solid
370
    18
100
AcDbLine
 10
89.5
 20
18.6614173228
 30
0.0
 11
89.8346456693
 21
18.6614173228
 31
0.0
  0
LINE
  5
9F
330
1F
100
AcDbEntity
  8
TITLE
  6
SLD-Solid
370
    18
100
AcDbLine
 10
0.5
 20
20.6299212598
 30
0.0
 11
0.1653543307
 21
20.6299212598
 31
0.0
  0
LINE
  5
A0
330
1F
100
AcDbEntity
  8
TITLE
  6
SLD-Solid
370
    18
100
AcDbLine
 10
89.5
 20
20.6299212598
 30
0.0
 11
89.8346456693
 21
20.6299212598
 31
0.0
  0
LINE
  5
A1
330
1F
100
AcDbEntity
  8
TITLE
  6
SLD-Solid
370
    18
100
AcDbLine
 10
0.5
 20
22.5984251969
 30
0.0
 11
0.1653543307
 21
22.5984251969
 31
0.0
  0
LINE
  5
A2
330
1F
100
AcDbEntity
  8
TITLE
  6
SLD-Solid
370
    18
100
AcDbLine
 10
89.5
 20
22.5984251969
 30
0.0
 11
89.8346456693
 21
22.5984251969
 31
0.0
  0
LINE
  5
A3
330
1F
100
AcDbEntity
  8
TITLE
  6
SLD-Solid
370
    18
100
AcDbLine
 10
0.5
 20
24.5669291339
 30
0.0
 11
0.1653543307
 21
24.5669291339
 31
0.0
  0
LINE
  5
A4
330
1F
100
AcDbEntity
  8
TITLE
  6
SLD-Solid
370
    18
100
AcDbLine
 10
89.5
 20
24.5669291339
 30
0.0
 11
89.8346456693
 21
24.5669291339
 31
0.0
  0
LINE
  5
A5
330
1F
100
AcDbEntity
  8
TITLE
  6
SLD-Solid
370
    18
100
AcDbLine
 10
0.5
 20
26.5354330709
 30
0.0
 11
0.1653543307
 21
26.5354330709
 31
0.0
  0
LINE
  5
A6
330
1F
100
AcDbEntity
  8
TITLE
  6
SLD-Solid
370
    18
100
AcDbLine
 10
89.5
 20
26.5354330709
 30
0.0
 11
89.8346456693
 21
26.5354330709
 31
0.0
  0
LINE
  5
A7
330
1F
100
AcDbEntity
  8
TITLE
  6
SLD-Solid
370
    18
100
AcDbLine
 10
0.5
 20
28.5039370079
 30
0.0
 11
0.1653543307
 21
28.5039370079
 31
0.0
  0
LINE
  5
A8
330
1F
100
AcDbEntity
  8
TITLE
  6
SLD-Solid
370
    18
100
AcDbLine
 10
89.5
 20
28.5039370079
 30
0.0
 11
89.8346456693
 21
28.5039370079
 31
0.0
  0
LINE
  5
A9
330
1F
100
AcDbEntity
  8
TITLE
  6
SLD-Solid
370
    18
100
AcDbLine
 10
0.5
 20
30.4724409449
 30
0.0
 11
0.1653543307
 21
30.4724409449
 31
0.0
  0
LINE
  5
AA
330
1F
100
AcDbEntity
  8
TITLE
  6
SLD-Solid
370
    18
100
AcDbLine
 10
89.5
 20
30.4724409449
 30
0.0
 11
89.8346456693
 21
30.4724409449
 31
0.0
  0
LINE
  5
AB
330
1F
100
AcDbEntity
  8
TITLE
  6
SLD-Solid
370
    18
100
AcDbLine
 10
0.5
 20
32.4409448819
 30
0.0
 11
0.1653543307
 21
32.4409448819
 31
0.0
  0
LINE
  5
AC
330
1F
100
AcDbEntity
  8
TITLE
  6
SLD-Solid
370
    18
100
AcDbLine
 10
89.5
 20
32.4409448819
 30
0.0
 11
89.8346456693
 21
32.4409448819
 31
0.0
  0
LINE
  5
AD
330
1F
100
AcDbEntity
  8
TITLE
  6
SLD-Solid
370
    18
100
AcDbLine
 10
0.5
 20
34.4094488189
 30
0.0
 11
0.1653543307
 21
34.4094488189
 31
0.0
  0
LINE
  5
AE
330
1F
100
AcDbEntity
  8
TITLE
  6
SLD-Solid
370
    18
100
AcDbLine
 10
89.5
 20
34.4094488189
 30
0.0
 11
89.8346456693
 21
34.4094488189
 31
0.0
  0
LINE
  5
AF
330
1F
100
AcDbEntity
  8
TITLE
  6
SLD-Solid
370
    18
100
AcDbLine
 10
0.5
 20
36.3779527559
 30
0.0
 11
0.1653543307
 21
36.3779527559
 31
0.0
  0
LINE
  5
B0
330
1F
100
AcDbEntity
  8
TITLE
  6
SLD-Solid
370
    18
100
AcDbLine
 10
89.5
 20
36.3779527559
 30
0.0
 11
89.8346456693
 21
36.3779527559
 31
0.0
  0
LINE
  5
B1
330
1F
100
AcDbEntity
  8
TITLE
  6
SLD-Solid
370
    18
100
AcDbLine
 10
0.5
 20
38.3464566929
 30
0.0
 11
0.1653543307
 21
38.3464566929
 31
0.0
  0
LINE
  5
B2
330
1F
100
AcDbEntity
  8
TITLE
  6
SLD-Solid
370
    18
100
AcDbLine
 10
89.5
 20
38.3464566929
 30
0.0
 11
89.8346456693
 21
38.3464566929
 31
0.0
  0
LINE
  5
B3
330
1F
100
AcDbEntity
  8
TITLE
  6
SLD-Solid
370
    18
100
AcDbLine
 10
0.5
 20
40.3149606299
 30
0.0
 11
0.1653543307
 21
40.3149606299
 31
0.0
  0
LINE
  5
B4
330
1F
100
AcDbEntity
  8
TITLE
  6
SLD-Solid
370
    18
100
AcDbLine
 10
89.5
 20
40.3149606299
 30
0.0
 11
89.8346456693
 21
40.3149606299
 31
0.0
  0
LINE
  5
B5
330
1F
100
AcDbEntity
  8
TITLE
  6
SLD-Solid
370
    18
100
AcDbLine
 10
0.5
 20
42.2834645669
 30
0.0
 11
0.1653543307
 21
42.2834645669
 31
0.0
  0
LINE
  5
B6
330
1F
100
AcDbEntity
  8
TITLE
  6
SLD-Solid
370
    18
100
AcDbLine
 10
89.5
 20
42.2834645669
 30
0.0
 11
89.8346456693
 21
42.2834645669
 31
0.0
  0
LINE
  5
B7
330
1F
100
AcDbEntity
  8
TITLE
  6
SLD-Solid
370
    18
100
AcDbLine
 10
0.5
 20
44.2519685039
 30
0.0
 11
0.1653543307
 21
44.2519685039
 31
0.0
  0
LINE
  5
B8
330
1F
100
AcDbEntity
  8
TITLE
  6
SLD-Solid
370
    18
100
AcDbLine
 10
89.5
 20
44.2519685039
 30
0.0
 11
89.8346456693
 21
44.2519685039
 31
0.0
  0
LINE
  5
B9
330
1F
100
AcDbEntity
  8
TITLE
  6
SLD-Solid
370
    18
100
AcDbLine
 10
0.5
 20
46.2204724409
 30
0.0
 11
0.1653543307
 21
46.2204724409
 31
0.0
  0
LINE
  5
BA
330
1F
100
AcDbEntity
  8
TITLE
  6
SLD-Solid
370
    18
100
AcDbLine
 10
89.5
 20
46.2204724409
 30
0.0
 11
89.8346456693
 21
46.2204724409
 31
0.0
  0
LINE
  5
BB
330
1F
100
AcDbEntity
  8
TITLE
  6
SLD-Solid
370
    18
100
AcDbLine
 10
0.5
 20
48.188976378
 30
0.0
 11
0.1653543307
 21
48.188976378
 31
0.0
  0
LINE
  5
BC
330
1F
100
AcDbEntity
  8
TITLE
  6
SLD-Solid
370
    18
100
AcDbLine
 10
89.5
 20
48.188976378
 30
0.0
 11
89.8346456693
 21
48.188976378
 31
0.0
  0
LINE
  5
BD
330
1F
100
AcDbEntity
  8
TITLE
  6
SLD-Solid
370
    18
100
AcDbLine
 10
0.5
 20
50.157480315
 30
0.0
 11
0.1653543307
 21
50.157480315
 31
0.0
  0
LINE
  5
BE
330
1F
100
AcDbEntity
  8
TITLE
  6
SLD-Solid
370
    18
100
AcDbLine
 10
89.5
 20
50.157480315
 30
0.0
 11
89.8346456693
 21
50.157480315
 31
0.0
  0
LINE
  5
BF
330
1F
100
AcDbEntity
  8
TITLE
  6
SLD-Solid
370
    18
100
AcDbLine
 10
0.5
 20
52.125984252
 30
0.0
 11
0.1653543307
 21
52.125984252
 31
0.0
  0
LINE
  5
C0
330
1F
100
AcDbEntity
  8
TITLE
  6
SLD-Solid
370
    18
100
AcDbLine
 10
89.5
 20
52.125984252
 30
0.0
 11
89.8346456693
 21
52.125984252
 31
0.0
  0
LINE
  5
C1
330
1F
100
AcDbEntity
  8
TITLE
  6
SLD-Solid
370
    18
100
AcDbLine
 10
0.5
 20
54.094488189
 30
0.0
 11
0.1653543307
 21
54.094488189
 31
0.0
  0
LINE
  5
C2
330
1F
100
AcDbEntity
  8
TITLE
  6
SLD-Solid
370
    18
100
AcDbLine
 10
89.5
 20
54.094488189
 30
0.0
 11
89.8346456693
 21
54.094488189
 31
0.0
  0
LINE
  5
C3
330
1F
100
AcDbEntity
  8
TITLE
  6
SLD-Solid
370
    18
100
AcDbLine
 10
0.5
 20
56.062992126
 30
0.0
 11
0.1653543307
 21
56.062992126
 31
0.0
  0
LINE
  5
C4
330
1F
100
AcDbEntity
  8
TITLE
  6
SLD-Solid
370
    18
100
AcDbLine
 10
89.5
 20
56.062992126
 30
0.0
 11
89.8346456693
 21
56.062992126
 31
0.0
  0
LINE
  5
C5
330
1F
100
AcDbEntity
  8
TITLE
  6
SLD-Solid
370
    18
100
AcDbLine
 10
0.5
 20
58.031496063
 30
0.0
 11
0.1653543307
 21
58.031496063
 31
0.0
  0
LINE
  5
C6
330
1F
100
AcDbEntity
  8
TITLE
  6
SLD-Solid
370
    18
100
AcDbLine
 10
89.5
 20
58.031496063
 30
0.0
 11
89.8346456693
 21
58.031496063
 31
0.0
  0
LINE
  5
C7
330
1F
100
AcDbEntity
  8
TITLE
  6
SLD-Solid
370
    18
100
AcDbLine
 10
0.5
 20
60.0
 30
0.0
 11
0.1653543307
 21
60.0
 31
0.0
  0
LINE
  5
C8
330
1F
100
AcDbEntity
  8
TITLE
  6
SLD-Solid
370
    18
100
AcDbLine
 10
89.5
 20
60.0
 30
0.0
 11
89.8346456693
 21
60.0
 31
0.0
  0
LINE
  5
C9
330
1F
100
AcDbEntity
  8
TITLE
  6
SLD-Solid
370
    18
100
AcDbLine
 10
0.5
 20
61.968503937
 30
0.0
 11
0.1653543307
 21
61.968503937
 31
0.0
  0
LINE
  5
CA
330
1F
100
AcDbEntity
  8
TITLE
  6
SLD-Solid
370
    18
100
AcDbLine
 10
89.5
 20
61.968503937
 30
0.0
 11
89.8346456693
 21
61.968503937
 31
0.0
  0
LINE
  5
CB
330
1F
100
AcDbEntity
  8
TITLE
  6
SLD-Solid
370
    18
100
AcDbLine
 10
0.5
 20
63.937007874
 30
0.0
 11
0.1653543307
 21
63.937007874
 31
0.0
  0
LINE
  5
CC
330
1F
100
AcDbEntity
  8
TITLE
  6
SLD-Solid
370
    18
100
AcDbLine
 10
89.5
 20
63.937007874
 30
0.0
 11
89.8346456693
 21
63.937007874
 31
0.0
  0
LINE
  5
CD
330
1F
100
AcDbEntity
  8
TITLE
  6
SLD-Solid
370
    18
100
AcDbLine
 10
0.5
 20
65.905511811
 30
0.0
 11
0.1653543307
 21
65.905511811
 31
0.0
  0
LINE
  5
CE
330
1F
100
AcDbEntity
  8
TITLE
  6
SLD-Solid
370
    18
100
AcDbLine
 10
89.5
 20
65.905511811
 30
0.0
 11
89.8346456693
 21
65.905511811
 31
0.0
  0
LINE
  5
CF
330
1F
100
AcDbEntity
  8
TITLE
  6
SLD-Solid
370
    18
100
AcDbLine
 10
0.5
 20
67.874015748
 30
0.0
 11
0.1653543307
 21
67.874015748
 31
0.0
  0
LINE
  5
D0
330
1F
100
AcDbEntity
  8
TITLE
  6
SLD-Solid
370
    18
100
AcDbLine
 10
89.5
 20
67.874015748
 30
0.0
 11
89.8346456693
 21
67.874015748
 31
0.0
  0
LINE
  5
D1
330
1F
100
AcDbEntity
  8
TITLE
  6
SLD-Solid
370
    18
100
AcDbLine
 10
0.5
 20
69.842519685
 30
0.0
 11
0.1653543307
 21
69.842519685
 31
0.0
  0
LINE
  5
D2
330
1F
100
AcDbEntity
  8
TITLE
  6
SLD-Solid
370
    18
100
AcDbLine
 10
89.5
 20
69.842519685
 30
0.0
 11
89.8346456693
 21
69.842519685
 31
0.0
  0
LINE
  5
D3
330
1F
100
AcDbEntity
  8
TITLE
  6
SLD-Solid
370
    18
100
AcDbLine
 10
0.5
 20
71.811023622
 30
0.0
 11
0.1653543307
 21
71.811023622
 31
0.0
  0
LINE
  5
D4
330
1F
100
AcDbEntity
  8
TITLE
  6
SLD-Solid
370
    18
100
AcDbLine
 10
89.5
 20
71.811023622
 30
0.0
 11
89.8346456693
 21
71.811023622
 31
0.0
  0
LINE
  5
D5
330
1F
100
AcDbEntity
  8
TITLE
  6
SLD-Solid
370
    18
100
AcDbLine
 10
0.5
 20
73.7795275591
 30
0.0
 11
0.1653543307
 21
73.7795275591
 31
0.0
  0
LINE
  5
D6
330
1F
100
AcDbEntity
  8
TITLE
  6
SLD-Solid
370
    18
100
AcDbLine
 10
89.5
 20
73.7795275591
 30
0.0
 11
89.8346456693
 21
73.7795275591
 31
0.0
  0
LINE
  5
D7
330
1F
100
AcDbEntity
  8
TITLE
  6
SLD-Solid
370
    18
100
AcDbLine
 10
0.5
 20
75.7480314961
 30
0.0
 11
0.1653543307
 21
75.7480314961
 31
0.0
  0
LINE
  5
D8
330
1F
100
AcDbEntity
  8
TITLE
  6
SLD-Solid
370
    18
100
AcDbLine
 10
89.5
 20
75.7480314961
 30
0.0
 11
89.8346456693
 21
75.7480314961
 31
0.0
  0
LINE
  5
D9
330
1F
100
AcDbEntity
  8
TITLE
  6
SLD-Solid
370
    18
100
AcDbLine
 10
0.5
 20
77.7165354331
 30
0.0
 11
0.1653543307
 21
77.7165354331
 31
0.0
  0
LINE
  5
DA
330
1F
100
AcDbEntity
  8
TITLE
  6
SLD-Solid
370
    18
100
AcDbLine
 10
89.5
 20
77.7165354331
 30
0.0
 11
89.8346456693
 21
77.7165354331
 31
0.0
  0
LINE
  5
DB
330
1F
100
AcDbEntity
  8
TITLE
  6
SLD-Solid
370
    18
100
AcDbLine
 10
0.5
 20
79.6850393701
 30
0.0
 11
0.1653543307
 21
79.6850393701
 31
0.0
  0
LINE
  5
DC
330
1F
100
AcDbEntity
  8
TITLE
  6
SLD-Solid
370
    18
100
AcDbLine
 10
89.5
 20
79.6850393701
 30
0.0
 11
89.8346456693
 21
79.6850393701
 31
0.0
  0
LINE
  5
DD
330
1F
100
AcDbEntity
  8
TITLE
  6
SLD-Solid
370
    18
100
AcDbLine
 10
0.5
 20
81.6535433071
 30
0.0
 11
0.1653543307
 21
81.6535433071
 31
0.0
  0
LINE
  5
DE
330
1F
100
AcDbEntity
  8
TITLE
  6
SLD-Solid
370
    18
100
AcDbLine
 10
89.5
 20
81.6535433071
 30
0.0
 11
89.8346456693
 21
81.6535433071
 31
0.0
  0
LINE
  5
DF
330
1F
100
AcDbEntity
  8
TITLE
  6
SLD-Solid
370
    18
100
AcDbLine
 10
0.5
 20
83.6220472441
 30
0.0
 11
0.1653543307
 21
83.6220472441
 31
0.0
  0
LINE
  5
E0
330
1F
100
AcDbEntity
  8
TITLE
  6
SLD-Solid
370
    18
100
AcDbLine
 10
89.5
 20
83.6220472441
 30
0.0
 11
89.8346456693
 21
83.6220472441
 31
0.0
  0
LINE
  5
E1
330
1F
100
AcDbEntity
  8
TITLE
  6
SLD-Solid
370
    18
100
AcDbLine
 10
0.5
 20
85.5905511811
 30
0.0
 11
0.1653543307
 21
85.5905511811
 31
0.0
  0
LINE
  5
E2
330
1F
100
AcDbEntity
  8
TITLE
  6
SLD-Solid
370
    18
100
AcDbLine
 10
89.5
 20
85.5905511811
 30
0.0
 11
89.8346456693
 21
85.5905511811
 31
0.0
  0
LINE
  5
E3
330
1F
100
AcDbEntity
  8
TITLE
  6
SLD-Solid
370
    18
100
AcDbLine
 10
0.5
 20
87.5590551181
 30
0.0
 11
0.1653543307
 21
87.5590551181
 31
0.0
  0
LINE
  5
E4
330
1F
100
AcDbEntity
  8
TITLE
  6
SLD-Solid
370
    18
100
AcDbLine
 10
89.5
 20
87.5590551181
 30
0.0
 11
89.8346456693
 21
87.5590551181
 31
0.0
  0
LINE
  5
E5
330
1F
100
AcDbEntity
  8
TITLE
  6
SLD-Solid
370
    18
100
AcDbLine
 10
0.5
 20
89.5275590551
 30
0.0
 11
0.1653543307
 21
89.5275590551
 31
0.0
  0
LINE
  5
E6
330
1F
100
AcDbEntity
  8
TITLE
  6
SLD-Solid
370
    18
100
AcDbLine
 10
89.5
 20
89.5275590551
 30
0.0
 11
89.8346456693
 21
89.5275590551
 31
0.0
  0
LINE
  5
E7
330
1F
100
AcDbEntity
  8
TITLE
  6
SLD-Solid
370
    18
100
AcDbLine
 10
0.5
 20
91.4960629921
 30
0.0
 11
0.1653543307
 21
91.4960629921
 31
0.0
  0
LINE
  5
E8
330
1F
100
AcDbEntity
  8
TITLE
  6
SLD-Solid
370
    18
100
AcDbLine
 10
89.5
 20
91.4960629921
 30
0.0
 11
89.8346456693
 21
91.4960629921
 31
0.0
  0
LINE
  5
E9
330
1F
100
AcDbEntity
  8
TITLE
  6
SLD-Solid
370
    18
100
AcDbLine
 10
0.5
 20
93.4645669291
 30
0.0
 11
0.1653543307
 21
93.4645669291
 31
0.0
  0
LINE
  5
EA
330
1F
100
AcDbEntity
  8
TITLE
  6
SLD-Solid
370
    18
100
AcDbLine
 10
89.5
 20
93.4645669291
 30
0.0
 11
89.8346456693
 21
93.4645669291
 31
0.0
  0
LINE
  5
EB
330
1F
100
AcDbEntity
  8
TITLE
  6
SLD-Solid
370
    18
100
AcDbLine
 10
0.5
 20
95.4330708661
 30
0.0
 11
0.1653543307
 21
95.4330708661
 31
0.0
  0
LINE
  5
EC
330
1F
100
AcDbEntity
  8
TITLE
  6
SLD-Solid
370
    18
100
AcDbLine
 10
89.5
 20
95.4330708661
 30
0.0
 11
89.8346456693
 21
95.4330708661
 31
0.0
  0
LINE
  5
ED
330
1F
100
AcDbEntity
  8
TITLE
  6
SLD-Solid
370
    18
100
AcDbLine
 10
0.5
 20
97.4015748031
 30
0.0
 11
0.1653543307
 21
97.4015748031
 31
0.0
  0
LINE
  5
EE
330
1F
100
AcDbEntity
  8
TITLE
  6
SLD-Solid
370
    18
100
AcDbLine
 10
89.5
 20
97.4015748031
 30
0.0
 11
89.8346456693
 21
97.4015748031
 31
0.0
  0
LINE
  5
EF
330
1F
100
AcDbEntity
  8
TITLE
  6
SLD-Solid
370
    18
100
AcDbLine
 10
0.5
 20
99.3700787402
 30
0.0
 11
0.1653543307
 21
99.3700787402
 31
0.0
  0
LINE
  5
F0
330
1F
100
AcDbEntity
  8
TITLE
  6
SLD-Solid
370
    18
100
AcDbLine
 10
89.5
 20
99.3700787402
 30
0.0
 11
89.8346456693
 21
99.3700787402
 31
0.0
  0
LINE
  5
F1
330
1F
100
AcDbEntity
  8
TITLE
  6
SLD-Solid
370
    18
100
AcDbLine
 10
0.5
 20
101.3385826772
 30
0.0
 11
0.1653543307
 21
101.3385826772
 31
0.0
  0
LINE
  5
F2
330
1F
100
AcDbEntity
  8
TITLE
  6
SLD-Solid
370
    18
100
AcDbLine
 10
89.5
 20
101.3385826772
 30
0.0
 11
89.8346456693
 21
101.3385826772
 31
0.0
  0
LINE
  5
F3
330
1F
100
AcDbEntity
  8
TITLE
  6
SLD-Solid
370
    18
100
AcDbLine
 10
0.5
 20
103.3070866142
 30
0.0
 11
0.1653543307
 21
103.3070866142
 31
0.0
  0
LINE
  5
F4
330
1F
100
AcDbEntity
  8
TITLE
  6
SLD-Solid
370
    18
100
AcDbLine
 10
89.5
 20
103.3070866142
 30
0.0
 11
89.8346456693
 21
103.3070866142
 31
0.0
  0
LINE
  5
F5
330
1F
100
AcDbEntity
  8
TITLE
  6
SLD-Solid
370
    18
100
AcDbLine
 10
0.5
 20
105.2755905512
 30
0.0
 11
0.1653543307
 21
105.2755905512
 31
0.0
  0
LINE
  5
F6
330
1F
100
AcDbEntity
  8
TITLE
  6
SLD-Solid
370
    18
100
AcDbLine
 10
89.5
 20
105.2755905512
 30
0.0
 11
89.8346456693
 21
105.2755905512
 31
0.0
  0
LINE
  5
F7
330
1F
100
AcDbEntity
  8
TITLE
  6
SLD-Solid
370
    18
100
AcDbLine
 10
0.5
 20
107.2440944882
 30
0.0
 11
0.1653543307
 21
107.2440944882
 31
0.0
  0
LINE
  5
F8
330
1F
100
AcDbEntity
  8
TITLE
  6
SLD-Solid
370
    18
100
AcDbLine
 10
89.5
 20
107.2440944882
 30
0.0
 11
89.8346456693
 21
107.2440944882
 31
0.0
  0
LINE
  5
F9
330
1F
100
AcDbEntity
  8
TITLE
  6
SLD-Solid
370
    18
100
AcDbLine
 10
0.5
 20
109.2125984252
 30
0.0
 11
0.1653543307
 21
109.2125984252
 31
0.0
  0
LINE
  5
FA
330
1F
100
AcDbEntity
  8
TITLE
  6
SLD-Solid
370
    18
100
AcDbLine
 10
89.5
 20
109.2125984252
 30
0.0
 11
89.8346456693
 21
109.2125984252
 31
0.0
  0
LINE
  5
FB
330
1F
100
AcDbEntity
  8
TITLE
  6
SLD-Solid
370
    18
100
AcDbLine
 10
0.5
 20
111.1811023622
 30
0.0
 11
0.1653543307
 21
111.1811023622
 31
0.0
  0
LINE
  5
FC
330
1F
100
AcDbEntity
  8
TITLE
  6
SLD-Solid
370
    18
100
AcDbLine
 10
89.5
 20
111.1811023622
 30
0.0
 11
89.8346456693
 21
111.1811023622
 31
0.0
  0
LINE
  5
FD
330
1F
100
AcDbEntity
  8
TITLE
  6
SLD-Solid
370
    18
100
AcDbLine
 10
0.5
 20
113.1496062992
 30
0.0
 11
0.1653543307
 21
113.1496062992
 31
0.0
  0
LINE
  5
FE
330
1F
100
AcDbEntity
  8
TITLE
  6
SLD-Solid
370
    18
100
AcDbLine
 10
89.5
 20
113.1496062992
 30
0.0
 11
89.8346456693
 21
113.1496062992
 31
0.0
  0
LINE
  5
FF
330
1F
100
AcDbEntity
  8
TITLE
  6
SLD-Solid
370
    18
100
AcDbLine
 10
0.5
 20
115.1181102362
 30
0.0
 11
0.1653543307
 21
115.1181102362
 31
0.0
  0
LINE
  5
100
330
1F
100
AcDbEntity
  8
TITLE
  6
SLD-Solid
370
    18
100
AcDbLine
 10
89.5
 20
115.1181102362
 30
0.0
 11
89.8346456693
 21
115.1181102362
 31
0.0
  0
LINE
  5
101
330
1F
100
AcDbEntity
  8
TITLE
  6
SLD-Solid
370
    18
100
AcDbLine
 10
0.5
 20
117.0866141732
 30
0.0
 11
0.1653543307
 21
117.0866141732
 31
0.0
  0
LINE
  5
102
330
1F
100
AcDbEntity
  8
TITLE
  6
SLD-Solid
370
    18
100
AcDbLine
 10
89.5
 20
117.0866141732
 30
0.0
 11
89.8346456693
 21
117.0866141732
 31
0.0
  0
LINE
  5
103
330
1F
100
AcDbEntity
  8
TITLE
  6
SLD-Solid
370
    18
100
AcDbLine
 10
1.6929133858
 20
119.5
 30
0.0
 11
1.6929133858
 21
119.8346456693
 31
0.0
  0
LINE
  5
104
330
1F
100
AcDbEntity
  8
TITLE
  6
SLD-Solid
370
    18
100
AcDbLine
 10
1.6929133858
 20
0.5
 30
0.0
 11
1.6929133858
 21
0.1653543307
 31
0.0
  0
LINE
  5
105
330
1F
100
AcDbEntity
  8
TITLE
  6
SLD-Solid
370
    18
100
AcDbLine
 10
3.6614173228
 20
119.5
 30
0.0
 11
3.6614173228
 21
119.8346456693
 31
0.0
  0
LINE
  5
106
330
1F
100
AcDbEntity
  8
TITLE
  6
SLD-Solid
370
    18
100
AcDbLine
 10
3.6614173228
 20
0.5
 30
0.0
 11
3.6614173228
 21
0.1653543307
 31
0.0
  0
LINE
  5
107
330
1F
100
AcDbEntity
  8
TITLE
  6
SLD-Solid
370
    18
100
AcDbLine
 10
5.6299212598
 20
119.5
 30
0.0
 11
5.6299212598
 21
119.8346456693
 31
0.0
  0
LINE
  5
108
330
1F
100
AcDbEntity
  8
TITLE
  6
SLD-Solid
370
    18
100
AcDbLine
 10
5.6299212598
 20
0.5
 30
0.0
 11
5.6299212598
 21
0.1653543307
 31
0.0
  0
LINE
  5
109
330
1F
100
AcDbEntity
  8
TITLE
  6
SLD-Solid
370
    18
100
AcDbLine
 10
7.5984251969
 20
119.5
 30
0.0
 11
7.5984251969
 21
119.8346456693
 31
0.0
  0
LINE
  5
10A
330
1F
100
AcDbEntity
  8
TITLE
  6
SLD-Solid
370
    18
100
AcDbLine
 10
7.5984251969
 20
0.5
 30
0.0
 11
7.5984251969
 21
0.1653543307
 31
0.0
  0
LINE
  5
10B
330
1F
100
AcDbEntity
  8
TITLE
  6
SLD-Solid
370
    18
100
AcDbLine
 10
9.5669291339
 20
119.5
 30
0.0
 11
9.5669291339
 21
119.8346456693
 31
0.0
  0
LINE
  5
10C
330
1F
100
AcDbEntity
  8
TITLE
  6
SLD-Solid
370
    18
100
AcDbLine
 10
9.5669291339
 20
0.5
 30
0.0
 11
9.5669291339
 21
0.1653543307
 31
0.0
  0
LINE
  5
10D
330
1F
100
AcDbEntity
  8
TITLE
  6
SLD-Solid
370
    18
100
AcDbLine
 10
11.5354330709
 20
119.5
 30
0.0
 11
11.5354330709
 21
119.8346456693
 31
0.0
  0
LINE
  5
10E
330
1F
100
AcDbEntity
  8
TITLE
  6
SLD-Solid
370
    18
100
AcDbLine
 10
11.5354330709
 20
0.5
 30
0.0
 11
11.5354330709
 21
0.1653543307
 31
0.0
  0
LINE
  5
10F
330
1F
100
AcDbEntity
  8
TITLE
  6
SLD-Solid
370
    18
100
AcDbLine
 10
13.5039370079
 20
119.5
 30
0.0
 11
13.5039370079
 21
119.8346456693
 31
0.0
  0
LINE
  5
110
330
1F
100
AcDbEntity
  8
TITLE
  6
SLD-Solid
370
    18
100
AcDbLine
 10
13.5039370079
 20
0.5
 30
0.0
 11
13.5039370079
 21
0.1653543307
 31
0.0
  0
LINE
  5
111
330
1F
100
AcDbEntity
  8
TITLE
  6
SLD-Solid
370
    18
100
AcDbLine
 10
15.4724409449
 20
119.5
 30
0.0
 11
15.4724409449
 21
119.8346456693
 31
0.0
  0
LINE
  5
112
330
1F
100
AcDbEntity
  8
TITLE
  6
SLD-Solid
370
    18
100
AcDbLine
 10
15.4724409449
 20
0.5
 30
0.0
 11
15.4724409449
 21
0.1653543307
 31
0.0
  0
LINE
  5
113
330
1F
100
AcDbEntity
  8
TITLE
  6
SLD-Solid
370
    18
100
AcDbLine
 10
17.4409448819
 20
119.5
 30
0.0
 11
17.4409448819
 21
119.8346456693
 31
0.0
  0
LINE
  5
114
330
1F
100
AcDbEntity
  8
TITLE
  6
SLD-Solid
370
    18
100
AcDbLine
 10
17.4409448819
 20
0.5
 30
0.0
 11
17.4409448819
 21
0.1653543307
 31
0.0
  0
LINE
  5
115
330
1F
100
AcDbEntity
  8
TITLE
  6
SLD-Solid
370
    18
100
AcDbLine
 10
19.4094488189
 20
119.5
 30
0.0
 11
19.4094488189
 21
119.8346456693
 31
0.0
  0
LINE
  5
116
330
1F
100
AcDbEntity
  8
TITLE
  6
SLD-Solid
370
    18
100
AcDbLine
 10
19.4094488189
 20
0.5
 30
0.0
 11
19.4094488189
 21
0.1653543307
 31
0.0
  0
LINE
  5
117
330
1F
100
AcDbEntity
  8
TITLE
  6
SLD-Solid
370
    18
100
AcDbLine
 10
21.3779527559
 20
119.5
 30
0.0
 11
21.3779527559
 21
119.8346456693
 31
0.0
  0
LINE
  5
118
330
1F
100
AcDbEntity
  8
TITLE
  6
SLD-Solid
370
    18
100
AcDbLine
 10
21.3779527559
 20
0.5
 30
0.0
 11
21.3779527559
 21
0.1653543307
 31
0.0
  0
LINE
  5
119
330
1F
100
AcDbEntity
  8
TITLE
  6
SLD-Solid
370
    18
100
AcDbLine
 10
23.3464566929
 20
119.5
 30
0.0
 11
23.3464566929
 21
119.8346456693
 31
0.0
  0
LINE
  5
11A
330
1F
100
AcDbEntity
  8
TITLE
  6
SLD-Solid
370
    18
100
AcDbLine
 10
23.3464566929
 20
0.5
 30
0.0
 11
23.3464566929
 21
0.1653543307
 31
0.0
  0
LINE
  5
11B
330
1F
100
AcDbEntity
  8
TITLE
  6
SLD-Solid
370
    18
100
AcDbLine
 10
25.3149606299
 20
119.5
 30
0.0
 11
25.3149606299
 21
119.8346456693
 31
0.0
  0
LINE
  5
11C
330
1F
100
AcDbEntity
  8
TITLE
  6
SLD-Solid
370
    18
100
AcDbLine
 10
25.3149606299
 20
0.5
 30
0.0
 11
25.3149606299
 21
0.1653543307
 31
0.0
  0
LINE
  5
11D
330
1F
100
AcDbEntity
  8
TITLE
  6
SLD-Solid
370
    18
100
AcDbLine
 10
27.2834645669
 20
119.5
 30
0.0
 11
27.2834645669
 21
119.8346456693
 31
0.0
  0
LINE
  5
11E
330
1F
100
AcDbEntity
  8
TITLE
  6
SLD-Solid
370
    18
100
AcDbLine
 10
27.2834645669
 20
0.5
 30
0.0
 11
27.2834645669
 21
0.1653543307
 31
0.0
  0
LINE
  5
11F
330
1F
100
AcDbEntity
  8
TITLE
  6
SLD-Solid
370
    18
100
AcDbLine
 10
29.2519685039
 20
119.5
 30
0.0
 11
29.2519685039
 21
119.8346456693
 31
0.0
  0
LINE
  5
120
330
1F
100
AcDbEntity
  8
TITLE
  6
SLD-Solid
370
    18
100
AcDbLine
 10
29.2519685039
 20
0.5
 30
0.0
 11
29.2519685039
 21
0.1653543307
 31
0.0
  0
LINE
  5
121
330
1F
100
AcDbEntity
  8
TITLE
  6
SLD-Solid
370
    18
100
AcDbLine
 10
31.2204724409
 20
119.5
 30
0.0
 11
31.2204724409
 21
119.8346456693
 31
0.0
  0
LINE
  5
122
330
1F
100
AcDbEntity
  8
TITLE
  6
SLD-Solid
370
    18
100
AcDbLine
 10
31.2204724409
 20
0.5
 30
0.0
 11
31.2204724409
 21
0.1653543307
 31
0.0
  0
LINE
  5
123
330
1F
100
AcDbEntity
  8
TITLE
  6
SLD-Solid
370
    18
100
AcDbLine
 10
33.188976378
 20
119.5
 30
0.0
 11
33.188976378
 21
119.8346456693
 31
0.0
  0
LINE
  5
124
330
1F
100
AcDbEntity
  8
TITLE
  6
SLD-Solid
370
    18
100
AcDbLine
 10
33.188976378
 20
0.5
 30
0.0
 11
33.188976378
 21
0.1653543307
 31
0.0
  0
LINE
  5
125
330
1F
100
AcDbEntity
  8
TITLE
  6
SLD-Solid
370
    18
100
AcDbLine
 10
35.157480315
 20
119.5
 30
0.0
 11
35.157480315
 21
119.8346456693
 31
0.0
  0
LINE
  5
126
330
1F
100
AcDbEntity
  8
TITLE
  6
SLD-Solid
370
    18
100
AcDbLine
 10
35.157480315
 20
0.5
 30
0.0
 11
35.157480315
 21
0.1653543307
 31
0.0
  0
LINE
  5
127
330
1F
100
AcDbEntity
  8
TITLE
  6
SLD-Solid
370
    18
100
AcDbLine
 10
37.125984252
 20
119.5
 30
0.0
 11
37.125984252
 21
119.8346456693
 31
0.0
  0
LINE
  5
128
330
1F
100
AcDbEntity
  8
TITLE
  6
SLD-Solid
370
    18
100
AcDbLine
 10
37.125984252
 20
0.5
 30
0.0
 11
37.125984252
 21
0.1653543307
 31
0.0
  0
LINE
  5
129
330
1F
100
AcDbEntity
  8
TITLE
  6
SLD-Solid
370
    18
100
AcDbLine
 10
39.094488189
 20
119.5
 30
0.0
 11
39.094488189
 21
119.8346456693
 31
0.0
  0
LINE
  5
12A
330
1F
100
AcDbEntity
  8
TITLE
  6
SLD-Solid
370
    18
100
AcDbLine
 10
39.094488189
 20
0.5
 30
0.0
 11
39.094488189
 21
0.1653543307
 31
0.0
  0
LINE
  5
12B
330
1F
100
AcDbEntity
  8
TITLE
  6
SLD-Solid
370
    18
100
AcDbLine
 10
41.062992126
 20
119.5
 30
0.0
 11
41.062992126
 21
119.8346456693
 31
0.0
  0
LINE
  5
12C
330
1F
100
AcDbEntity
  8
TITLE
  6
SLD-Solid
370
    18
100
AcDbLine
 10
41.062992126
 20
0.5
 30
0.0
 11
41.062992126
 21
0.1653543307
 31
0.0
  0
LINE
  5
12D
330
1F
100
AcDbEntity
  8
TITLE
  6
SLD-Solid
370
    18
100
AcDbLine
 10
43.031496063
 20
119.5
 30
0.0
 11
43.031496063
 21
119.8346456693
 31
0.0
  0
LINE
  5
12E
330
1F
100
AcDbEntity
  8
TITLE
  6
SLD-Solid
370
    18
100
AcDbLine
 10
43.031496063
 20
0.5
 30
0.0
 11
43.031496063
 21
0.1653543307
 31
0.0
  0
LINE
  5
12F
330
1F
100
AcDbEntity
  8
TITLE
  6
SLD-Solid
370
    18
100
AcDbLine
 10
45.0
 20
119.5
 30
0.0
 11
45.0
 21
119.8346456693
 31
0.0
  0
LINE
  5
130
330
1F
100
AcDbEntity
  8
TITLE
  6
SLD-Solid
370
    18
100
AcDbLine
 10
45.0
 20
0.5
 30
0.0
 11
45.0
 21
0.1653543307
 31
0.0
  0
LINE
  5
131
330
1F
100
AcDbEntity
  8
TITLE
  6
SLD-Solid
370
    18
100
AcDbLine
 10
46.968503937
 20
119.5
 30
0.0
 11
46.968503937
 21
119.8346456693
 31
0.0
  0
LINE
  5
132
330
1F
100
AcDbEntity
  8
TITLE
  6
SLD-Solid
370
    18
100
AcDbLine
 10
46.968503937
 20
0.5
 30
0.0
 11
46.968503937
 21
0.1653543307
 31
0.0
  0
LINE
  5
133
330
1F
100
AcDbEntity
  8
TITLE
  6
SLD-Solid
370
    18
100
AcDbLine
 10
48.937007874
 20
119.5
 30
0.0
 11
48.937007874
 21
119.8346456693
 31
0.0
  0
LINE
  5
134
330
1F
100
AcDbEntity
  8
TITLE
  6
SLD-Solid
370
    18
100
AcDbLine
 10
48.937007874
 20
0.5
 30
0.0
 11
48.937007874
 21
0.1653543307
 31
0.0
  0
LINE
  5
135
330
1F
100
AcDbEntity
  8
TITLE
  6
SLD-Solid
370
    18
100
AcDbLine
 10
50.905511811
 20
119.5
 30
0.0
 11
50.905511811
 21
119.8346456693
 31
0.0
  0
LINE
  5
136
330
1F
100
AcDbEntity
  8
TITLE
  6
SLD-Solid
370
    18
100
AcDbLine
 10
50.905511811
 20
0.5
 30
0.0
 11
50.905511811
 21
0.1653543307
 31
0.0
  0
LINE
  5
137
330
1F
100
AcDbEntity
  8
TITLE
  6
SLD-Solid
370
    18
100
AcDbLine
 10
52.874015748
 20
119.5
 30
0.0
 11
52.874015748
 21
119.8346456693
 31
0.0
  0
LINE
  5
138
330
1F
100
AcDbEntity
  8
TITLE
  6
SLD-Solid
370
    18
100
AcDbLine
 10
52.874015748
 20
0.5
 30
0.0
 11
52.874015748
 21
0.1653543307
 31
0.0
  0
LINE
  5
139
330
1F
100
AcDbEntity
  8
TITLE
  6
SLD-Solid
370
    18
100
AcDbLine
 10
54.842519685
 20
119.5
 30
0.0
 11
54.842519685
 21
119.8346456693
 31
0.0
  0
LINE
  5
13A
330
1F
100
AcDbEntity
  8
TITLE
  6
SLD-Solid
370
    18
100
AcDbLine
 10
54.842519685
 20
0.5
 30
0.0
 11
54.842519685
 21
0.1653543307
 31
0.0
  0
LINE
  5
13B
330
1F
100
AcDbEntity
  8
TITLE
  6
SLD-Solid
370
    18
100
AcDbLine
 10
56.811023622
 20
119.5
 30
0.0
 11
56.811023622
 21
119.8346456693
 31
0.0
  0
LINE
  5
13C
330
1F
100
AcDbEntity
  8
TITLE
  6
SLD-Solid
370
    18
100
AcDbLine
 10
56.811023622
 20
0.5
 30
0.0
 11
56.811023622
 21
0.1653543307
 31
0.0
  0
LINE
  5
13D
330
1F
100
AcDbEntity
  8
TITLE
  6
SLD-Solid
370
    18
100
AcDbLine
 10
58.7795275591
 20
119.5
 30
0.0
 11
58.7795275591
 21
119.8346456693
 31
0.0
  0
LINE
  5
13E
330
1F
100
AcDbEntity
  8
TITLE
  6
SLD-Solid
370
    18
100
AcDbLine
 10
58.7795275591
 20
0.5
 30
0.0
 11
58.7795275591
 21
0.1653543307
 31
0.0
  0
LINE
  5
13F
330
1F
100
AcDbEntity
  8
TITLE
  6
SLD-Solid
370
    18
100
AcDbLine
 10
60.7480314961
 20
119.5
 30
0.0
 11
60.7480314961
 21
119.8346456693
 31
0.0
  0
LINE
  5
140
330
1F
100
AcDbEntity
  8
TITLE
  6
SLD-Solid
370
    18
100
AcDbLine
 10
60.7480314961
 20
0.5
 30
0.0
 11
60.7480314961
 21
0.1653543307
 31
0.0
  0
LINE
  5
141
330
1F
100
AcDbEntity
  8
TITLE
  6
SLD-Solid
370
    18
100
AcDbLine
 10
62.7165354331
 20
119.5
 30
0.0
 11
62.7165354331
 21
119.8346456693
 31
0.0
  0
LINE
  5
142
330
1F
100
AcDbEntity
  8
TITLE
  6
SLD-Solid
370
    18
100
AcDbLine
 10
62.7165354331
 20
0.5
 30
0.0
 11
62.7165354331
 21
0.1653543307
 31
0.0
  0
LINE
  5
143
330
1F
100
AcDbEntity
  8
TITLE
  6
SLD-Solid
370
    18
100
AcDbLine
 10
64.6850393701
 20
119.5
 30
0.0
 11
64.6850393701
 21
119.8346456693
 31
0.0
  0
LINE
  5
144
330
1F
100
AcDbEntity
  8
TITLE
  6
SLD-Solid
370
    18
100
AcDbLine
 10
64.6850393701
 20
0.5
 30
0.0
 11
64.6850393701
 21
0.1653543307
 31
0.0
  0
LINE
  5
145
330
1F
100
AcDbEntity
  8
TITLE
  6
SLD-Solid
370
    18
100
AcDbLine
 10
66.6535433071
 20
119.5
 30
0.0
 11
66.6535433071
 21
119.8346456693
 31
0.0
  0
LINE
  5
146
330
1F
100
AcDbEntity
  8
TITLE
  6
SLD-Solid
370
    18
100
AcDbLine
 10
66.6535433071
 20
0.5
 30
0.0
 11
66.6535433071
 21
0.1653543307
 31
0.0
  0
LINE
  5
147
330
1F
100
AcDbEntity
  8
TITLE
  6
SLD-Solid
370
    18
100
AcDbLine
 10
68.6220472441
 20
119.5
 30
0.0
 11
68.6220472441
 21
119.8346456693
 31
0.0
  0
LINE
  5
148
330
1F
100
AcDbEntity
  8
TITLE
  6
SLD-Solid
370
    18
100
AcDbLine
 10
68.6220472441
 20
0.5
 30
0.0
 11
68.6220472441
 21
0.1653543307
 31
0.0
  0
LINE
  5
149
330
1F
100
AcDbEntity
  8
TITLE
  6
SLD-Solid
370
    18
100
AcDbLine
 10
70.5905511811
 20
119.5
 30
0.0
 11
70.5905511811
 21
119.8346456693
 31
0.0
  0
LINE
  5
14A
330
1F
100
AcDbEntity
  8
TITLE
  6
SLD-Solid
370
    18
100
AcDbLine
 10
70.5905511811
 20
0.5
 30
0.0
 11
70.5905511811
 21
0.1653543307
 31
0.0
  0
LINE
  5
14B
330
1F
100
AcDbEntity
  8
TITLE
  6
SLD-Solid
370
    18
100
AcDbLine
 10
72.5590551181
 20
119.5
 30
0.0
 11
72.5590551181
 21
119.8346456693
 31
0.0
  0
LINE
  5
14C
330
1F
100
AcDbEntity
  8
TITLE
  6
SLD-Solid
370
    18
100
AcDbLine
 10
72.5590551181
 20
0.5
 30
0.0
 11
72.5590551181
 21
0.1653543307
 31
0.0
  0
LINE
  5
14D
330
1F
100
AcDbEntity
  8
TITLE
  6
SLD-Solid
370
    18
100
AcDbLine
 10
74.5275590551
 20
119.5
 30
0.0
 11
74.5275590551
 21
119.8346456693
 31
0.0
  0
LINE
  5
14E
330
1F
100
AcDbEntity
  8
TITLE
  6
SLD-Solid
370
    18
100
AcDbLine
 10
74.5275590551
 20
0.5
 30
0.0
 11
74.5275590551
 21
0.1653543307
 31
0.0
  0
LINE
  5
14F
330
1F
100
AcDbEntity
  8
TITLE
  6
SLD-Solid
370
    18
100
AcDbLine
 10
76.4960629921
 20
119.5
 30
0.0
 11
76.4960629921
 21
119.8346456693
 31
0.0
  0
LINE
  5
150
330
1F
100
AcDbEntity
  8
TITLE
  6
SLD-Solid
370
    18
100
AcDbLine
 10
76.4960629921
 20
0.5
 30
0.0
 11
76.4960629921
 21
0.1653543307
 31
0.0
  0
LINE
  5
151
330
1F
100
AcDbEntity
  8
TITLE
  6
SLD-Solid
370
    18
100
AcDbLine
 10
78.4645669291
 20
119.5
 30
0.0
 11
78.4645669291
 21
119.8346456693
 31
0.0
  0
LINE
  5
152
330
1F
100
AcDbEntity
  8
TITLE
  6
SLD-Solid
370
    18
100
AcDbLine
 10
78.4645669291
 20
0.5
 30
0.0
 11
78.4645669291
 21
0.1653543307
 31
0.0
  0
LINE
  5
153
330
1F
100
AcDbEntity
  8
TITLE
  6
SLD-Solid
370
    18
100
AcDbLine
 10
80.4330708661
 20
119.5
 30
0.0
 11
80.4330708661
 21
119.8346456693
 31
0.0
  0
LINE
  5
154
330
1F
100
AcDbEntity
  8
TITLE
  6
SLD-Solid
370
    18
100
AcDbLine
 10
80.4330708661
 20
0.5
 30
0.0
 11
80.4330708661
 21
0.1653543307
 31
0.0
  0
LINE
  5
155
330
1F
100
AcDbEntity
  8
TITLE
  6
SLD-Solid
370
    18
100
AcDbLine
 10
82.4015748031
 20
119.5
 30
0.0
 11
82.4015748031
 21
119.8346456693
 31
0.0
  0
LINE
  5
156
330
1F
100
AcDbEntity
  8
TITLE
  6
SLD-Solid
370
    18
100
AcDbLine
 10
82.4015748031
 20
0.5
 30
0.0
 11
82.4015748031
 21
0.1653543307
 31
0.0
  0
LINE
  5
157
330
1F
100
AcDbEntity
  8
TITLE
  6
SLD-Solid
370
    18
100
AcDbLine
 10
84.3700787402
 20
119.5
 30
0.0
 11
84.3700787402
 21
119.8346456693
 31
0.0
  0
LINE
  5
158
330
1F
100
AcDbEntity
  8
TITLE
  6
SLD-Solid
370
    18
100
AcDbLine
 10
84.3700787402
 20
0.5
 30
0.0
 11
84.3700787402
 21
0.1653543307
 31
0.0
  0
LINE
  5
159
330
1F
100
AcDbEntity
  8
TITLE
  6
SLD-Solid
370
    18
100
AcDbLine
 10
86.3385826772
 20
119.5
 30
0.0
 11
86.3385826772
 21
119.8346456693
 31
0.0
  0
LINE
  5
15A
330
1F
100
AcDbEntity
  8
TITLE
  6
SLD-Solid
370
    18
100
AcDbLine
 10
86.3385826772
 20
0.5
 30
0.0
 11
86.3385826772
 21
0.1653543307
 31
0.0
  0
LINE
  5
15B
330
1F
100
AcDbEntity
  8
TITLE
  6
SLD-Solid
370
    18
100
AcDbLine
 10
88.3070866142
 20
119.5
 30
0.0
 11
88.3070866142
 21
119.8346456693
 31
0.0
  0
LINE
  5
15C
330
1F
100
AcDbEntity
  8
TITLE
  6
SLD-Solid
370
    18
100
AcDbLine
 10
88.3070866142
 20
0.5
 30
0.0
 11
88.3070866142
 21
0.1653543307
 31
0.0
  0
MTEXT
  5
15E
330
1F
100
AcDbEntity
  8
NOTES
100
AcDbMText
 10
66.408297803
 20
1.0702903347
 30
0.0
 40
0.25
 41
0.0
 71
     1
 72
     1
  1
UNLESS OTHERWISE SPECIFIED DIMENSIONS ARE IN INCHES.
  7
SLDTEXTSTYLE0
 73
     1
 44
1.0
  0
MTEXT
  5
15F
330
1F
100
AcDbEntity
  8
NOTES
100
AcDbMText
 10
66.4368251132
 20
3.2193045501
 30
0.0
 40
0.25
 41
0.0
 71
     1
 72
     1
  1
DATE:
  7
SLDTEXTSTYLE0
 73
     1
 44
1.0
  0
MTEXT
  5
160
330
1F
100
AcDbEntity
  8
NOTES
100
AcDbMText
 10
68.7130669976
 20
2.1722148141
 30
0.0
 40
0.25
 41
0.0
 71
     2
 72
     1
  1
DO NOT SCALE DRAWING
  7
SLDTEXTSTYLE0
 73
     1
 44
1.0
  0
MTEXT
  5
162
330
1F
100
AcDbEntity
  8
NOTES
100
AcDbMText
 10
72.8307373075
 20
3.2682755553
 30
0.0
 40
0.25
 41
0.0
 71
     1
 72
     1
  1
TITLE:
  7
SLDTEXTSTYLE1
 73
     1
 44
1.0
  0
MTEXT
  5
163
330
1F
100
AcDbEntity
  8
NOTES
100
AcDbMText
 10
80.1561831052
 20
3.2682755553
 30
0.0
 40
0.25
 41
0.0
 71
     1
 72
     1
  1
DWG NO.
  7
SLDTEXTSTYLE1
 73
     1
 44
1.0
  0
MTEXT
  5
164
330
1F
100
AcDbEntity
  8
NOTES
100
AcDbMText
 10
80.1831753203
 20
1.0645815577
 30
0.0
 40
0.25
 41
0.0
 71
     1
 72
     1
  1
SCALE:     1:1
  7
SLDTEXTSTYLE1
 73
     1
 44
1.0
  0
MTEXT
  5
165
330
1F
100
AcDbEntity
  8
NOTES
100
AcDbMText
 10
84.185545276
 20
2.6510344295
 30
0.0
 40
0.25
 41
0.0
 71
     2
 72
     1
  1
1145-72SS CAD
  7
SLDTEXTSTYLE1
 73
     1
 44
1.0
  0
MTEXT
  5
166
330
1F
100
AcDbEntity
  8
NOTES
100
AcDbMText
 10
75.9562264738
 20
2.6388861441
 30
0.0
 40
0.25
 41
0.0
 71
     2
 72
     1
  1
1145-72SS
  7
SLDTEXTSTYLE1
 73
     1
 44
1.0
  0
INSERT
  5
16C
330
1F
100
AcDbEntity
  8
NOTES
100
AcDbBlockReference
  2
SW_NOTE_0
 10
80.266131557
 20
4.6105227838
 30
0.0
  0
INSERT
  5
176
330
1F
100
AcDbEntity
  8
NOTES
100
AcDbBlockReference
  2
SW_NOTE_0_1
 10
66.6159726246
 20
5.1481526848
 30
0.0
  0
MTEXT
  5
177
330
1F
100
AcDbEntity
  8
NOTES
100
AcDbMText
 10
69.5187894602
 20
3.2135957731
 30
0.0
 40
0.25
 41
0.0
 71
     2
 72
     1
  1
September 22, 2021
  7
SLDTEXTSTYLE1
 73
     1
 44
1.0
  0
MTEXT
  5
178
330
1F
100
AcDbEntity
  8
TITLE
100
AcDbMText
 10
0.3276279776
 20
1.7865708579
 30
0.0
 40
0.125
 41
0.0
 71
     2
 72
     1
  1
A
  7
SLDTEXTSTYLE1
 73
     1
 44
1.0
  0
MTEXT
  5
179
330
1F
100
AcDbEntity
  8
TITLE
100
AcDbMText
 10
89.6622736469
 20
1.7865708579
 30
0.0
 40
0.125
 41
0.0
 71
     2
 72
     1
  1
A
  7
SLDTEXTSTYLE1
 73
     1
 44
1.0
  0
MTEXT
  5
17A
330
1F
100
AcDbEntity
  8
TITLE
100
AcDbMText
 10
0.3317512413
 20
3.9775157398
 30
0.0
 40
0.125
 41
0.0
 71
     2
 72
     1
  1
B
  7
SLDTEXTSTYLE1
 73
     1
 44
1.0
  0
MTEXT
  5
17B
330
1F
100
AcDbEntity
  8
TITLE
100
AcDbMText
 10
89.6663969106
 20
3.9775157398
 30
0.0
 40
0.125
 41
0.0
 71
     2
 72
     1
  1
B
  7
SLDTEXTSTYLE1
 73
     1
 44
1.0
  0
MTEXT
  5
17C
330
1F
100
AcDbEntity
  8
TITLE
100
AcDbMText
 10
0.3313750817
 20
5.9460196768
 30
0.0
 40
0.125
 41
0.0
 71
     2
 72
     1
  1
C
  7
SLDTEXTSTYLE1
 73
     1
 44
1.0
  0
MTEXT
  5
17D
330
1F
100
AcDbEntity
  8
TITLE
100
AcDbMText
 10
89.666020751
 20
5.9460196768
 30
0.0
 40
0.125
 41
0.0
 71
     2
 72
     1
  1
C
  7
SLDTEXTSTYLE1
 73
     1
 44
1.0
  0
MTEXT
  5
17E
330
1F
100
AcDbEntity
  8
TITLE
100
AcDbMText
 10
0.3311870028
 20
7.9145236138
 30
0.0
 40
0.125
 41
0.0
 71
     2
 72
     1
  1
D
  7
SLDTEXTSTYLE1
 73
     1
 44
1.0
  0
MTEXT
  5
17F
330
1F
100
AcDbEntity
  8
TITLE
100
AcDbMText
 10
89.6658326721
 20
7.9145236138
 30
0.0
 40
0.125
 41
0.0
 71
     2
 72
     1
  1
D
  7
SLDTEXTSTYLE1
 73
     1
 44
1.0
  0
MTEXT
  5
180
330
1F
100
AcDbEntity
  8
TITLE
100
AcDbMText
 10
0.332923116
 20
9.8830275508
 30
0.0
 40
0.125
 41
0.0
 71
     2
 72
     1
  1
E
  7
SLDTEXTSTYLE1
 73
     1
 44
1.0
  0
MTEXT
  5
181
330
1F
100
AcDbEntity
  8
TITLE
100
AcDbMText
 10
89.6675687853
 20
9.8830275508
 30
0.0
 40
0.125
 41
0.0
 71
     2
 72
     1
  1
E
  7
SLDTEXTSTYLE1
 73
     1
 44
1.0
  0
MTEXT
  5
182
330
1F
100
AcDbEntity
  8
TITLE
100
AcDbMText
 10
0.3313461474
 20
11.8515314878
 30
0.0
 40
0.125
 41
0.0
 71
     2
 72
     1
  1
F
  7
SLDTEXTSTYLE1
 73
     1
 44
1.0
  0
MTEXT
  5
183
330
1F
100
AcDbEntity
  8
TITLE
100
AcDbMText
 10
89.6659918167
 20
11.8515314878
 30
0.0
 40
0.125
 41
0.0
 71
     2
 72
     1
  1
F
  7
SLDTEXTSTYLE1
 73
     1
 44
1.0
  0
MTEXT
  5
184
330
1F
100
AcDbEntity
  8
TITLE
100
AcDbMText
 10
0.3322576054
 20
13.8200354248
 30
0.0
 40
0.125
 41
0.0
 71
     2
 72
     1
  1
G
  7
SLDTEXTSTYLE1
 73
     1
 44
1.0
  0
MTEXT
  5
185
330
1F
100
AcDbEntity
  8
TITLE
100
AcDbMText
 10
89.6669032747
 20
13.8200354248
 30
0.0
 40
0.125
 41
0.0
 71
     2
 72
     1
  1
G
  7
SLDTEXTSTYLE1
 73
     1
 44
1.0
  0
MTEXT
  5
186
330
1F
100
AcDbEntity
  8
TITLE
100
AcDbMText
 10
0.3323733457
 20
15.7885393618
 30
0.0
 40
0.125
 41
0.0
 71
     2
 72
     1
  1
H
  7
SLDTEXTSTYLE1
 73
     1
 44
1.0
  0
MTEXT
  5
187
330
1F
100
AcDbEntity
  8
TITLE
100
AcDbMText
 10
89.667019015
 20
15.7885393618
 30
0.0
 40
0.125
 41
0.0
 71
     2
 72
     1
  1
H
  7
SLDTEXTSTYLE1
 73
     1
 44
1.0
  0
MTEXT
  5
188
330
1F
100
AcDbEntity
  8
TITLE
100
AcDbMText
 10
0.3315776306
 20
17.7570432988
 30
0.0
 40
0.125
 41
0.0
 71
     2
 72
     1
  1
J
  7
SLDTEXTSTYLE1
 73
     1
 44
1.0
  0
MTEXT
  5
189
330
1F
100
AcDbEntity
  8
TITLE
100
AcDbMText
 10
89.6662232999
 20
17.7570432988
 30
0.0
 40
0.125
 41
0.0
 71
     2
 72
     1
  1
J
  7
SLDTEXTSTYLE1
 73
     1
 44
1.0
  0
MTEXT
  5
18A
330
1F
100
AcDbEntity
  8
TITLE
100
AcDbMText
 10
0.3323154765
 20
19.7255472359
 30
0.0
 40
0.125
 41
0.0
 71
     2
 72
     1
  1
K
  7
SLDTEXTSTYLE1
 73
     1
 44
1.0
  0
MTEXT
  5
18B
330
1F
100
AcDbEntity
  8
TITLE
100
AcDbMText
 10
89.6669611458
 20
19.7255472359
 30
0.0
 40
0.125
 41
0.0
 71
     2
 72
     1
  1
K
  7
SLDTEXTSTYLE1
 73
     1
 44
1.0
  0
MTEXT
  5
18C
330
1F
100
AcDbEntity
  8
TITLE
100
AcDbMText
 10
0.3312448739
 20
21.6940511729
 30
0.0
 40
0.125
 41
0.0
 71
     2
 72
     1
  1
L
  7
SLDTEXTSTYLE1
 73
     1
 44
1.0
  0
MTEXT
  5
18D
330
1F
100
AcDbEntity
  8
TITLE
100
AcDbMText
 10
89.6658905432
 20
21.6940511729
 30
0.0
 40
0.125
 41
0.0
 71
     2
 72
     1
  1
L
  7
SLDTEXTSTYLE1
 73
     1
 44
1.0
  0
MTEXT
  5
18E
330
1F
100
AcDbEntity
  8
TITLE
100
AcDbMText
 10
0.3283224192
 20
23.6625551099
 30
0.0
 40
0.125
 41
0.0
 71
     2
 72
     1
  1
M
  7
SLDTEXTSTYLE1
 73
     1
 44
1.0
  0
MTEXT
  5
18F
330
1F
100
AcDbEntity
  8
TITLE
100
AcDbMText
 10
89.6629680885
 20
23.6625551099
 30
0.0
 40
0.125
 41
0.0
 71
     2
 72
     1
  1
M
  7
SLDTEXTSTYLE1
 73
     1
 44
1.0
  0
MTEXT
  5
190
330
1F
100
AcDbEntity
  8
TITLE
100
AcDbMText
 10
0.3315342276
 20
25.6310590469
 30
0.0
 40
0.125
 41
0.0
 71
     2
 72
     1
  1
N
  7
SLDTEXTSTYLE1
 73
     1
 44
1.0
  0
MTEXT
  5
191
330
1F
100
AcDbEntity
  8
TITLE
100
AcDbMText
 10
89.6661798969
 20
25.6310590469
 30
0.0
 40
0.125
 41
0.0
 71
     2
 72
     1
  1
N
  7
SLDTEXTSTYLE1
 73
     1
 44
1.0
  0
MTEXT
  5
192
330
1F
100
AcDbEntity
  8
TITLE
100
AcDbMText
 10
0.3321997349
 20
27.5995629839
 30
0.0
 40
0.125
 41
0.0
 71
     2
 72
     1
  1
P
  7
SLDTEXTSTYLE1
 73
     1
 44
1.0
  0
MTEXT
  5
193
330
1F
100
AcDbEntity
  8
TITLE
100
AcDbMText
 10
89.6668454042
 20
27.5995629839
 30
0.0
 40
0.125
 41
0.0
 71
     2
 72
     1
  1
P
  7
SLDTEXTSTYLE1
 73
     1
 44
1.0
  0
MTEXT
  5
194
330
1F
100
AcDbEntity
  8
TITLE
100
AcDbMText
 10
0.3309265867
 20
29.5680669209
 30
0.0
 40
0.125
 41
0.0
 71
     2
 72
     1
  1
R
  7
SLDTEXTSTYLE1
 73
     1
 44
1.0
  0
MTEXT
  5
195
330
1F
100
AcDbEntity
  8
TITLE
100
AcDbMText
 10
89.665572256
 20
29.5680669209
 30
0.0
 40
0.125
 41
0.0
 71
     2
 72
     1
  1
R
  7
SLDTEXTSTYLE1
 73
     1
 44
1.0
  0
MTEXT
  5
196
330
1F
100
AcDbEntity
  8
TITLE
100
AcDbMText
 10
0.3323010071
 20
31.5365708579
 30
0.0
 40
0.125
 41
0.0
 71
     2
 72
     1
  1
T
  7
SLDTEXTSTYLE1
 73
     1
 44
1.0
  0
MTEXT
  5
197
330
1F
100
AcDbEntity
  8
TITLE
100
AcDbMText
 10
89.6669466764
 20
31.5365708579
 30
0.0
 40
0.125
 41
0.0
 71
     2
 72
     1
  1
T
  7
SLDTEXTSTYLE1
 73
     1
 44
1.0
  0
MTEXT
  5
198
330
1F
100
AcDbEntity
  8
TITLE
100
AcDbMText
 10
0.3328507755
 20
33.5050747949
 30
0.0
 40
0.125
 41
0.0
 71
     2
 72
     1
  1
U
  7
SLDTEXTSTYLE1
 73
     1
 44
1.0
  0
MTEXT
  5
199
330
1F
100
AcDbEntity
  8
TITLE
100
AcDbMText
 10
89.6674964448
 20
33.5050747949
 30
0.0
 40
0.125
 41
0.0
 71
     2
 72
     1
  1
U
  7
SLDTEXTSTYLE1
 73
     1
 44
1.0
  0
MTEXT
  5
19A
330
1F
100
AcDbEntity
  8
TITLE
100
AcDbMText
 10
0.3307529773
 20
35.4735787319
 30
0.0
 40
0.125
 41
0.0
 71
     2
 72
     1
  1
V
  7
SLDTEXTSTYLE1
 73
     1
 44
1.0
  0
MTEXT
  5
19B
330
1F
100
AcDbEntity
  8
TITLE
100
AcDbMText
 10
89.6653986466
 20
35.4735787319
 30
0.0
 40
0.125
 41
0.0
 71
     2
 72
     1
  1
V
  7
SLDTEXTSTYLE1
 73
     1
 44
1.0
  0
MTEXT
  5
19C
330
1F
100
AcDbEntity
  8
TITLE
100
AcDbMText
 10
0.3327784409
 20
37.4420826689
 30
0.0
 40
0.125
 41
0.0
 71
     2
 72
     1
  1
W
  7
SLDTEXTSTYLE1
 73
     1
 44
1.0
  0
MTEXT
  5
19D
330
1F
100
AcDbEntity
  8
TITLE
100
AcDbMText
 10
89.6674241102
 20
37.4420826689
 30
0.0
 40
0.125
 41
0.0
 71
     2
 72
     1
  1
W
  7
SLDTEXTSTYLE1
 73
     1
 44
1.0
  0
MTEXT
  5
19E
330
1F
100
AcDbEntity
  8
TITLE
100
AcDbMText
 10
0.3321997349
 20
39.4105866059
 30
0.0
 40
0.125
 41
0.0
 71
     2
 72
     1
  1
Y
  7
SLDTEXTSTYLE1
 73
     1
 44
1.0
  0
MTEXT
  5
19F
330
1F
100
AcDbEntity
  8
TITLE
100
AcDbMText
 10
89.6668454042
 20
39.4105866059
 30
0.0
 40
0.125
 41
0.0
 71
     2
 72
     1
  1
Y
  7
SLDTEXTSTYLE1
 73
     1
 44
1.0
  0
MTEXT
  5
1A0
330
1F
100
AcDbEntity
  8
TITLE
100
AcDbMText
 10
0.3225787898
 20
41.3790905429
 30
0.0
 40
0.125
 41
0.0
 71
     2
 72
     1
  1
AA
  7
SLDTEXTSTYLE1
 73
     1
 44
1.0
  0
MTEXT
  5
1A1
330
1F
100
AcDbEntity
  8
TITLE
100
AcDbMText
 10
89.6572244591
 20
41.3790905429
 30
0.0
 40
0.125
 41
0.0
 71
     2
 72
     1
  1
AA
  7
SLDTEXTSTYLE1
 73
     1
 44
1.0
  0
MTEXT
  5
1A2
330
1F
100
AcDbEntity
  8
TITLE
100
AcDbMText
 10
0.3267020535
 20
43.34759448
 30
0.0
 40
0.125
 41
0.0
 71
     2
 72
     1
  1
AB
  7
SLDTEXTSTYLE1
 73
     1
 44
1.0
  0
MTEXT
  5
1A3
330
1F
100
AcDbEntity
  8
TITLE
100
AcDbMText
 10
89.6613477228
 20
43.34759448
 30
0.0
 40
0.125
 41
0.0
 71
     2
 72
     1
  1
AB
  7
SLDTEXTSTYLE1
 73
     1
 44
1.0
  0
MTEXT
  5
1A4
330
1F
100
AcDbEntity
  8
TITLE
100
AcDbMText
 10
0.3263258985
 20
45.316098417
 30
0.0
 40
0.125
 41
0.0
 71
     2
 72
     1
  1
AC
  7
SLDTEXTSTYLE1
 73
     1
 44
1.0
  0
MTEXT
  5
1A5
330
1F
100
AcDbEntity
  8
TITLE
100
AcDbMText
 10
89.6609715678
 20
45.316098417
 30
0.0
 40
0.125
 41
0.0
 71
     2
 72
     1
  1
AC
  7
SLDTEXTSTYLE1
 73
     1
 44
1.0
  0
MTEXT
  5
1A6
330
1F
100
AcDbEntity
  8
TITLE
100
AcDbMText
 10
0.3261378197
 20
47.284602354
 30
0.0
 40
0.125
 41
0.0
 71
     2
 72
     1
  1
AD
  7
SLDTEXTSTYLE1
 73
     1
 44
1.0
  0
MTEXT
  5
1A7
330
1F
100
AcDbEntity
  8
TITLE
100
AcDbMText
 10
89.6607834889
 20
47.284602354
 30
0.0
 40
0.125
 41
0.0
 71
     2
 72
     1
  1
AD
  7
SLDTEXTSTYLE1
 73
     1
 44
1.0
  0
MTEXT
  5
1A8
330
1F
100
AcDbEntity
  8
TITLE
100
AcDbMText
 10
0.3278739283
 20
49.253106291
 30
0.0
 40
0.125
 41
0.0
 71
     2
 72
     1
  1
AE
  7
SLDTEXTSTYLE1
 73
     1
 44
1.0
  0
MTEXT
  5
1A9
330
1F
100
AcDbEntity
  8
TITLE
100
AcDbMText
 10
89.6625195976
 20
49.253106291
 30
0.0
 40
0.125
 41
0.0
 71
     2
 72
     1
  1
AE
  7
SLDTEXTSTYLE1
 73
     1
 44
1.0
  0
MTEXT
  5
1AA
330
1F
100
AcDbEntity
  8
TITLE
100
AcDbMText
 10
0.3262969596
 20
51.221610228
 30
0.0
 40
0.125
 41
0.0
 71
     2
 72
     1
  1
AF
  7
SLDTEXTSTYLE1
 73
     1
 44
1.0
  0
MTEXT
  5
1AB
330
1F
100
AcDbEntity
  8
TITLE
100
AcDbMText
 10
89.6609426289
 20
51.221610228
 30
0.0
 40
0.125
 41
0.0
 71
     2
 72
     1
  1
AF
  7
SLDTEXTSTYLE1
 73
     1
 44
1.0
  0
MTEXT
  5
1AC
330
1F
100
AcDbEntity
  8
TITLE
100
AcDbMText
 10
0.3272084177
 20
53.190114165
 30
0.0
 40
0.125
 41
0.0
 71
     2
 72
     1
  1
AG
  7
SLDTEXTSTYLE1
 73
     1
 44
1.0
  0
MTEXT
  5
1AD
330
1F
100
AcDbEntity
  8
TITLE
100
AcDbMText
 10
89.661854087
 20
53.190114165
 30
0.0
 40
0.125
 41
0.0
 71
     2
 72
     1
  1
AG
  7
SLDTEXTSTYLE1
 73
     1
 44
1.0
  0
MTEXT
  5
1AE
330
1F
100
AcDbEntity
  8
TITLE
100
AcDbMText
 10
0.3273241625
 20
55.158618102
 30
0.0
 40
0.125
 41
0.0
 71
     2
 72
     1
  1
AH
  7
SLDTEXTSTYLE1
 73
     1
 44
1.0
  0
MTEXT
  5
1AF
330
1F
100
AcDbEntity
  8
TITLE
100
AcDbMText
 10
89.6619698318
 20
55.158618102
 30
0.0
 40
0.125
 41
0.0
 71
     2
 72
     1
  1
AH
  7
SLDTEXTSTYLE1
 73
     1
 44
1.0
  0
MTEXT
  5
1B0
330
1F
100
AcDbEntity
  8
TITLE
100
AcDbMText
 10
0.3265284428
 20
57.127122039
 30
0.0
 40
0.125
 41
0.0
 71
     2
 72
     1
  1
AJ
  7
SLDTEXTSTYLE1
 73
     1
 44
1.0
  0
MTEXT
  5
1B1
330
1F
100
AcDbEntity
  8
TITLE
100
AcDbMText
 10
89.6611741121
 20
57.127122039
 30
0.0
 40
0.125
 41
0.0
 71
     2
 72
     1
  1
AJ
  7
SLDTEXTSTYLE1
 73
     1
 44
1.0
  0
MTEXT
  5
1B2
330
1F
100
AcDbEntity
  8
TITLE
100
AcDbMText
 10
0.3272662887
 20
59.095625976
 30
0.0
 40
0.125
 41
0.0
 71
     2
 72
     1
  1
AK
  7
SLDTEXTSTYLE1
 73
     1
 44
1.0
  0
MTEXT
  5
1B3
330
1F
100
AcDbEntity
  8
TITLE
100
AcDbMText
 10
89.661911958
 20
59.095625976
 30
0.0
 40
0.125
 41
0.0
 71
     2
 72
     1
  1
AK
  7
SLDTEXTSTYLE1
 73
     1
 44
1.0
  0
MTEXT
  5
1B4
330
1F
100
AcDbEntity
  8
TITLE
100
AcDbMText
 10
0.3261956816
 20
61.064129913
 30
0.0
 40
0.125
 41
0.0
 71
     2
 72
     1
  1
AL
  7
SLDTEXTSTYLE1
 73
     1
 44
1.0
  0
MTEXT
  5
1B5
330
1F
100
AcDbEntity
  8
TITLE
100
AcDbMText
 10
89.6608413509
 20
61.064129913
 30
0.0
 40
0.125
 41
0.0
 71
     2
 72
     1
  1
AL
  7
SLDTEXTSTYLE1
 73
     1
 44
1.0
  0
MTEXT
  5
1B6
330
1F
100
AcDbEntity
  8
TITLE
100
AcDbMText
 10
0.3232732315
 20
63.03263385
 30
0.0
 40
0.125
 41
0.0
 71
     2
 72
     1
  1
AM
  7
SLDTEXTSTYLE1
 73
     1
 44
1.0
  0
MTEXT
  5
1B7
330
1F
100
AcDbEntity
  8
TITLE
100
AcDbMText
 10
89.6579189008
 20
63.03263385
 30
0.0
 40
0.125
 41
0.0
 71
     2
 72
     1
  1
AM
  7
SLDTEXTSTYLE1
 73
     1
 44
1.0
  0
MTEXT
  5
1B8
330
1F
100
AcDbEntity
  8
TITLE
100
AcDbMText
 10
0.3264850398
 20
65.001137787
 30
0.0
 40
0.125
 41
0.0
 71
     2
 72
     1
  1
AN
  7
SLDTEXTSTYLE1
 73
     1
 44
1.0
  0
MTEXT
  5
1B9
330
1F
100
AcDbEntity
  8
TITLE
100
AcDbMText
 10
89.6611307091
 20
65.001137787
 30
0.0
 40
0.125
 41
0.0
 71
     2
 72
     1
  1
AN
  7
SLDTEXTSTYLE1
 73
     1
 44
1.0
  0
MTEXT
  5
1BA
330
1F
100
AcDbEntity
  8
TITLE
100
AcDbMText
 10
0.3271505426
 20
66.969641724
 30
0.0
 40
0.125
 41
0.0
 71
     2
 72
     1
  1
AP
  7
SLDTEXTSTYLE1
 73
     1
 44
1.0
  0
MTEXT
  5
1BB
330
1F
100
AcDbEntity
  8
TITLE
100
AcDbMText
 10
89.6617962119
 20
66.969641724
 30
0.0
 40
0.125
 41
0.0
 71
     2
 72
     1
  1
AP
  7
SLDTEXTSTYLE1
 73
     1
 44
1.0
  0
MTEXT
  5
1BC
330
1F
100
AcDbEntity
  8
TITLE
100
AcDbMText
 10
0.325877399
 20
68.9381456611
 30
0.0
 40
0.125
 41
0.0
 71
     2
 72
     1
  1
AR
  7
SLDTEXTSTYLE1
 73
     1
 44
1.0
  0
MTEXT
  5
1BD
330
1F
100
AcDbEntity
  8
TITLE
100
AcDbMText
 10
89.6605230682
 20
68.9381456611
 30
0.0
 40
0.125
 41
0.0
 71
     2
 72
     1
  1
AR
  7
SLDTEXTSTYLE1
 73
     1
 44
1.0
  0
MTEXT
  5
1BE
330
1F
100
AcDbEntity
  8
TITLE
100
AcDbMText
 10
0.3272518193
 20
70.9066495981
 30
0.0
 40
0.125
 41
0.0
 71
     2
 72
     1
  1
AT
  7
SLDTEXTSTYLE1
 73
     1
 44
1.0
  0
MTEXT
  5
1BF
330
1F
100
AcDbEntity
  8
TITLE
100
AcDbMText
 10
89.6618974886
 20
70.9066495981
 30
0.0
 40
0.125
 41
0.0
 71
     2
 72
     1
  1
AT
  7
SLDTEXTSTYLE1
 73
     1
 44
1.0
  0
MTEXT
  5
1C0
330
1F
100
AcDbEntity
  8
TITLE
100
AcDbMText
 10
0.3278015877
 20
72.8751535351
 30
0.0
 40
0.125
 41
0.0
 71
     2
 72
     1
  1
AU
  7
SLDTEXTSTYLE1
 73
     1
 44
1.0
  0
MTEXT
  5
1C1
330
1F
100
AcDbEntity
  8
TITLE
100
AcDbMText
 10
89.662447257
 20
72.8751535351
 30
0.0
 40
0.125
 41
0.0
 71
     2
 72
     1
  1
AU
  7
SLDTEXTSTYLE1
 73
     1
 44
1.0
  0
MTEXT
  5
1C2
330
1F
100
AcDbEntity
  8
TITLE
100
AcDbMText
 10
0.3257037895
 20
74.8436574721
 30
0.0
 40
0.125
 41
0.0
 71
     2
 72
     1
  1
AV
  7
SLDTEXTSTYLE1
 73
     1
 44
1.0
  0
MTEXT
  5
1C3
330
1F
100
AcDbEntity
  8
TITLE
100
AcDbMText
 10
89.6603494588
 20
74.8436574721
 30
0.0
 40
0.125
 41
0.0
 71
     2
 72
     1
  1
AV
  7
SLDTEXTSTYLE1
 73
     1
 44
1.0
  0
MTEXT
  5
1C4
330
1F
100
AcDbEntity
  8
TITLE
100
AcDbMText
 10
0.3277292486
 20
76.8121614091
 30
0.0
 40
0.125
 41
0.0
 71
     2
 72
     1
  1
AW
  7
SLDTEXTSTYLE1
 73
     1
 44
1.0
  0
MTEXT
  5
1C5
330
1F
100
AcDbEntity
  8
TITLE
100
AcDbMText
 10
89.6623749179
 20
76.8121614091
 30
0.0
 40
0.125
 41
0.0
 71
     2
 72
     1
  1
AW
  7
SLDTEXTSTYLE1
 73
     1
 44
1.0
  0
MTEXT
  5
1C6
330
1F
100
AcDbEntity
  8
TITLE
100
AcDbMText
 10
0.3271505426
 20
78.7806653461
 30
0.0
 40
0.125
 41
0.0
 71
     2
 72
     1
  1
AY
  7
SLDTEXTSTYLE1
 73
     1
 44
1.0
  0
MTEXT
  5
1C7
330
1F
100
AcDbEntity
  8
TITLE
100
AcDbMText
 10
89.6617962119
 20
78.7806653461
 30
0.0
 40
0.125
 41
0.0
 71
     2
 72
     1
  1
AY
  7
SLDTEXTSTYLE1
 73
     1
 44
1.0
  0
MTEXT
  5
1C8
330
1F
100
AcDbEntity
  8
TITLE
100
AcDbMText
 10
0.3267020535
 20
80.7491692831
 30
0.0
 40
0.125
 41
0.0
 71
     2
 72
     1
  1
BA
  7
SLDTEXTSTYLE1
 73
     1
 44
1.0
  0
MTEXT
  5
1C9
330
1F
100
AcDbEntity
  8
TITLE
100
AcDbMText
 10
89.6613477228
 20
80.7491692831
 30
0.0
 40
0.125
 41
0.0
 71
     2
 72
     1
  1
BA
  7
SLDTEXTSTYLE1
 73
     1
 44
1.0
  0
MTEXT
  5
1CA
330
1F
100
AcDbEntity
  8
TITLE
100
AcDbMText
 10
0.3308253173
 20
82.7176732201
 30
0.0
 40
0.125
 41
0.0
 71
     2
 72
     1
  1
BB
  7
SLDTEXTSTYLE1
 73
     1
 44
1.0
  0
MTEXT
  5
1CB
330
1F
100
AcDbEntity
  8
TITLE
100
AcDbMText
 10
89.6654709865
 20
82.7176732201
 30
0.0
 40
0.125
 41
0.0
 71
     2
 72
     1
  1
BB
  7
SLDTEXTSTYLE1
 73
     1
 44
1.0
  0
MTEXT
  5
1CC
330
1F
100
AcDbEntity
  8
TITLE
100
AcDbMText
 10
0.3304491531
 20
84.6861771571
 30
0.0
 40
0.125
 41
0.0
 71
     2
 72
     1
  1
BC
  7
SLDTEXTSTYLE1
 73
     1
 44
1.0
  0
MTEXT
  5
1CD
330
1F
100
AcDbEntity
  8
TITLE
100
AcDbMText
 10
89.6650948224
 20
84.6861771571
 30
0.0
 40
0.125
 41
0.0
 71
     2
 72
     1
  1
BC
  7
SLDTEXTSTYLE1
 73
     1
 44
1.0
  0
MTEXT
  5
1CE
330
1F
100
AcDbEntity
  8
TITLE
100
AcDbMText
 10
0.3302610742
 20
86.6546810941
 30
0.0
 40
0.125
 41
0.0
 71
     2
 72
     1
  1
BD
  7
SLDTEXTSTYLE1
 73
     1
 44
1.0
  0
MTEXT
  5
1CF
330
1F
100
AcDbEntity
  8
TITLE
100
AcDbMText
 10
89.6649067435
 20
86.6546810941
 30
0.0
 40
0.125
 41
0.0
 71
     2
 72
     1
  1
BD
  7
SLDTEXTSTYLE1
 73
     1
 44
1.0
  0
MTEXT
  5
1D0
330
1F
100
AcDbEntity
  8
TITLE
100
AcDbMText
 10
0.331997192
 20
88.6231850311
 30
0.0
 40
0.125
 41
0.0
 71
     2
 72
     1
  1
BE
  7
SLDTEXTSTYLE1
 73
     1
 44
1.0
  0
MTEXT
  5
1D1
330
1F
100
AcDbEntity
  8
TITLE
100
AcDbMText
 10
89.6666428613
 20
88.6231850311
 30
0.0
 40
0.125
 41
0.0
 71
     2
 72
     1
  1
BE
  7
SLDTEXTSTYLE1
 73
     1
 44
1.0
  0
MTEXT
  5
1D2
330
1F
100
AcDbEntity
  8
TITLE
100
AcDbMText
 10
0.3304202234
 20
90.5916889681
 30
0.0
 40
0.125
 41
0.0
 71
     2
 72
     1
  1
BF
  7
SLDTEXTSTYLE1
 73
     1
 44
1.0
  0
MTEXT
  5
1D3
330
1F
100
AcDbEntity
  8
TITLE
100
AcDbMText
 10
89.6650658926
 20
90.5916889681
 30
0.0
 40
0.125
 41
0.0
 71
     2
 72
     1
  1
BF
  7
SLDTEXTSTYLE1
 73
     1
 44
1.0
  0
MTEXT
  5
1D4
330
1F
100
AcDbEntity
  8
TITLE
100
AcDbMText
 10
0.3313316814
 20
92.5601929051
 30
0.0
 40
0.125
 41
0.0
 71
     2
 72
     1
  1
BG
  7
SLDTEXTSTYLE1
 73
     1
 44
1.0
  0
MTEXT
  5
1D5
330
1F
100
AcDbEntity
  8
TITLE
100
AcDbMText
 10
89.6659773507
 20
92.5601929051
 30
0.0
 40
0.125
 41
0.0
 71
     2
 72
     1
  1
BG
  7
SLDTEXTSTYLE1
 73
     1
 44
1.0
  0
MTEXT
  5
1D6
330
1F
100
AcDbEntity
  8
TITLE
100
AcDbMText
 10
0.331447417
 20
94.5286968422
 30
0.0
 40
0.125
 41
0.0
 71
     2
 72
     1
  1
BH
  7
SLDTEXTSTYLE1
 73
     1
 44
1.0
  0
MTEXT
  5
1D7
330
1F
100
AcDbEntity
  8
TITLE
100
AcDbMText
 10
89.6660930863
 20
94.5286968422
 30
0.0
 40
0.125
 41
0.0
 71
     2
 72
     1
  1
BH
  7
SLDTEXTSTYLE1
 73
     1
 44
1.0
  0
MTEXT
  5
1D8
330
1F
100
AcDbEntity
  8
TITLE
100
AcDbMText
 10
0.3306517065
 20
96.4972007792
 30
0.0
 40
0.125
 41
0.0
 71
     2
 72
     1
  1
BJ
  7
SLDTEXTSTYLE1
 73
     1
 44
1.0
  0
MTEXT
  5
1D9
330
1F
100
AcDbEntity
  8
TITLE
100
AcDbMText
 10
89.6652973758
 20
96.4972007792
 30
0.0
 40
0.125
 41
0.0
 71
     2
 72
     1
  1
BJ
  7
SLDTEXTSTYLE1
 73
     1
 44
1.0
  0
MTEXT
  5
1DA
330
1F
100
AcDbEntity
  8
TITLE
100
AcDbMText
 10
0.3313895525
 20
98.4657047162
 30
0.0
 40
0.125
 41
0.0
 71
     2
 72
     1
  1
BK
  7
SLDTEXTSTYLE1
 73
     1
 44
1.0
  0
MTEXT
  5
1DB
330
1F
100
AcDbEntity
  8
TITLE
100
AcDbMText
 10
89.6660352218
 20
98.4657047162
 30
0.0
 40
0.125
 41
0.0
 71
     2
 72
     1
  1
BK
  7
SLDTEXTSTYLE1
 73
     1
 44
1.0
  0
MTEXT
  5
1DC
330
1F
100
AcDbEntity
  8
TITLE
100
AcDbMText
 10
0.3303189545
 20
100.4342086532
 30
0.0
 40
0.125
 41
0.0
 71
     2
 72
     1
  1
BL
  7
SLDTEXTSTYLE1
 73
     1
 44
1.0
  0
MTEXT
  5
1DD
330
1F
100
AcDbEntity
  8
TITLE
100
AcDbMText
 10
89.6649646237
 20
100.4342086532
 30
0.0
 40
0.125
 41
0.0
 71
     2
 72
     1
  1
BL
  7
SLDTEXTSTYLE1
 73
     1
 44
1.0
  0
MTEXT
  5
1DE
330
1F
100
AcDbEntity
  8
TITLE
100
AcDbMText
 10
0.3273964952
 20
102.4027125902
 30
0.0
 40
0.125
 41
0.0
 71
     2
 72
     1
  1
BM
  7
SLDTEXTSTYLE1
 73
     1
 44
1.0
  0
MTEXT
  5
1DF
330
1F
100
AcDbEntity
  8
TITLE
100
AcDbMText
 10
89.6620421645
 20
102.4027125902
 30
0.0
 40
0.125
 41
0.0
 71
     2
 72
     1
  1
BM
  7
SLDTEXTSTYLE1
 73
     1
 44
1.0
  0
MTEXT
  5
1E0
330
1F
100
AcDbEntity
  8
TITLE
100
AcDbMText
 10
0.3306083035
 20
104.3712165272
 30
0.0
 40
0.125
 41
0.0
 71
     2
 72
     1
  1
BN
  7
SLDTEXTSTYLE1
 73
     1
 44
1.0
  0
MTEXT
  5
1E1
330
1F
100
AcDbEntity
  8
TITLE
100
AcDbMText
 10
89.6652539728
 20
104.3712165272
 30
0.0
 40
0.125
 41
0.0
 71
     2
 72
     1
  1
BN
  7
SLDTEXTSTYLE1
 73
     1
 44
1.0
  0
MTEXT
  5
1E2
330
1F
100
AcDbEntity
  8
TITLE
100
AcDbMText
 10
0.3312738155
 20
106.3397204642
 30
0.0
 40
0.125
 41
0.0
 71
     2
 72
     1
  1
BP
  7
SLDTEXTSTYLE1
 73
     1
 44
1.0
  0
MTEXT
  5
1E3
330
1F
100
AcDbEntity
  8
TITLE
100
AcDbMText
 10
89.6659194848
 20
106.3397204642
 30
0.0
 40
0.125
 41
0.0
 71
     2
 72
     1
  1
BP
  7
SLDTEXTSTYLE1
 73
     1
 44
1.0
  0
MTEXT
  5
1E4
330
1F
100
AcDbEntity
  8
TITLE
100
AcDbMText
 10
0.3300006627
 20
108.3082244012
 30
0.0
 40
0.125
 41
0.0
 71
     2
 72
     1
  1
BR
  7
SLDTEXTSTYLE1
 73
     1
 44
1.0
  0
MTEXT
  5
1E5
330
1F
100
AcDbEntity
  8
TITLE
100
AcDbMText
 10
89.664646332
 20
108.3082244012
 30
0.0
 40
0.125
 41
0.0
 71
     2
 72
     1
  1
BR
  7
SLDTEXTSTYLE1
 73
     1
 44
1.0
  0
MTEXT
  5
1E6
330
1F
100
AcDbEntity
  8
TITLE
100
AcDbMText
 10
0.331375083
 20
110.2767283382
 30
0.0
 40
0.125
 41
0.0
 71
     2
 72
     1
  1
BT
  7
SLDTEXTSTYLE1
 73
     1
 44
1.0
  0
MTEXT
  5
1E7
330
1F
100
AcDbEntity
  8
TITLE
100
AcDbMText
 10
89.6660207523
 20
110.2767283382
 30
0.0
 40
0.125
 41
0.0
 71
     2
 72
     1
  1
BT
  7
SLDTEXTSTYLE1
 73
     1
 44
1.0
  0
MTEXT
  5
1E8
330
1F
100
AcDbEntity
  8
TITLE
100
AcDbMText
 10
0.3319248515
 20
112.2452322752
 30
0.0
 40
0.125
 41
0.0
 71
     2
 72
     1
  1
BU
  7
SLDTEXTSTYLE1
 73
     1
 44
1.0
  0
MTEXT
  5
1E9
330
1F
100
AcDbEntity
  8
TITLE
100
AcDbMText
 10
89.6665705208
 20
112.2452322752
 30
0.0
 40
0.125
 41
0.0
 71
     2
 72
     1
  1
BU
  7
SLDTEXTSTYLE1
 73
     1
 44
1.0
  0
MTEXT
  5
1EA
330
1F
100
AcDbEntity
  8
TITLE
100
AcDbMText
 10
0.3298270533
 20
114.2137362122
 30
0.0
 40
0.125
 41
0.0
 71
     2
 72
     1
  1
BV
  7
SLDTEXTSTYLE1
 73
     1
 44
1.0
  0
MTEXT
  5
1EB
330
1F
100
AcDbEntity
  8
TITLE
100
AcDbMText
 10
89.6644727226
 20
114.2137362122
 30
0.0
 40
0.125
 41
0.0
 71
     2
 72
     1
  1
BV
  7
SLDTEXTSTYLE1
 73
     1
 44
1.0
  0
MTEXT
  5
1EC
330
1F
100
AcDbEntity
  8
TITLE
100
AcDbMText
 10
0.3318525215
 20
116.1822401492
 30
0.0
 40
0.125
 41
0.0
 71
     2
 72
     1
  1
BW
  7
SLDTEXTSTYLE1
 73
     1
 44
1.0
  0
MTEXT
  5
1ED
330
1F
100
AcDbEntity
  8
TITLE
100
AcDbMText
 10
89.6664981907
 20
116.1822401492
 30
0.0
 40
0.125
 41
0.0
 71
     2
 72
     1
  1
BW
  7
SLDTEXTSTYLE1
 73
     1
 44
1.0
  0
MTEXT
  5
1EE
330
1F
100
AcDbEntity
  8
TITLE
100
AcDbMText
 10
0.3312738155
 20
118.3731850311
 30
0.0
 40
0.125
 41
0.0
 71
     2
 72
     1
  1
BY
  7
SLDTEXTSTYLE1
 73
     1
 44
1.0
  0
MTEXT
  5
1EF
330
1F
100
AcDbEntity
  8
TITLE
100
AcDbMText
 10
89.6659194848
 20
118.3731850311
 30
0.0
 40
0.125
 41
0.0
 71
     2
 72
     1
  1
BY
  7
SLDTEXTSTYLE1
 73
     1
 44
1.0
  0
MTEXT
  5
1F0
330
1F
100
AcDbEntity
  8
TITLE
100
AcDbMText
 10
1.0939393315
 20
0.4125551099
 30
0.0
 40
0.125
 41
0.0
 71
     2
 72
     1
  1
46
  7
SLDTEXTSTYLE1
 73
     1
 44
1.0
  0
MTEXT
  5
1F1
330
1F
100
AcDbEntity
  8
TITLE
100
AcDbMText
 10
1.0939393315
 20
119.7472007792
 30
0.0
 40
0.125
 41
0.0
 71
     2
 72
     1
  1
46
  7
SLDTEXTSTYLE1
 73
     1
 44
1.0
  0
MTEXT
  5
1F2
330
1F
100
AcDbEntity
  8
TITLE
100
AcDbMText
 10
2.674647993
 20
0.4125551099
 30
0.0
 40
0.125
 41
0.0
 71
     2
 72
     1
  1
45
  7
SLDTEXTSTYLE1
 73
     1
 44
1.0
  0
MTEXT
  5
1F3
330
1F
100
AcDbEntity
  8
TITLE
100
AcDbMText
 10
2.674647993
 20
119.7472007792
 30
0.0
 40
0.125
 41
0.0
 71
     2
 72
     1
  1
45
  7
SLDTEXTSTYLE1
 73
     1
 44
1.0
  0
MTEXT
  5
1F4
330
1F
100
AcDbEntity
  8
TITLE
100
AcDbMText
 10
4.64315193
 20
0.4125551099
 30
0.0
 40
0.125
 41
0.0
 71
     2
 72
     1
  1
44
  7
SLDTEXTSTYLE1
 73
     1
 44
1.0
  0
MTEXT
  5
1F5
330
1F
100
AcDbEntity
  8
TITLE
100
AcDbMText
 10
4.64315193
 20
119.7472007792
 30
0.0
 40
0.125
 41
0.0
 71
     2
 72
     1
  1
44
  7
SLDTEXTSTYLE1
 73
     1
 44
1.0
  0
MTEXT
  5
1F6
330
1F
100
AcDbEntity
  8
TITLE
100
AcDbMText
 10
6.611655867
 20
0.4125551099
 30
0.0
 40
0.125
 41
0.0
 71
     2
 72
     1
  1
43
  7
SLDTEXTSTYLE1
 73
     1
 44
1.0
  0
MTEXT
  5
1F7
330
1F
100
AcDbEntity
  8
TITLE
100
AcDbMText
 10
6.611655867
 20
119.7472007792
 30
0.0
 40
0.125
 41
0.0
 71
     2
 72
     1
  1
43
  7
SLDTEXTSTYLE1
 73
     1
 44
1.0
  0
MTEXT
  5
1F8
330
1F
100
AcDbEntity
  8
TITLE
100
AcDbMText
 10
8.580159804
 20
0.4125551099
 30
0.0
 40
0.125
 41
0.0
 71
     2
 72
     1
  1
42
  7
SLDTEXTSTYLE1
 73
     1
 44
1.0
  0
MTEXT
  5
1F9
330
1F
100
AcDbEntity
  8
TITLE
100
AcDbMText
 10
8.580159804
 20
119.7472007792
 30
0.0
 40
0.125
 41
0.0
 71
     2
 72
     1
  1
42
  7
SLDTEXTSTYLE1
 73
     1
 44
1.0
  0
MTEXT
  5
1FA
330
1F
100
AcDbEntity
  8
TITLE
100
AcDbMText
 10
10.548663741
 20
0.4125551099
 30
0.0
 40
0.125
 41
0.0
 71
     2
 72
     1
  1
41
  7
SLDTEXTSTYLE1
 73
     1
 44
1.0
  0
MTEXT
  5
1FB
330
1F
100
AcDbEntity
  8
TITLE
100
AcDbMText
 10
10.548663741
 20
119.7472007792
 30
0.0
 40
0.125
 41
0.0
 71
     2
 72
     1
  1
41
  7
SLDTEXTSTYLE1
 73
     1
 44
1.0
  0
MTEXT
  5
1FC
330
1F
100
AcDbEntity
  8
TITLE
100
AcDbMText
 10
12.517167678
 20
0.4125551099
 30
0.0
 40
0.125
 41
0.0
 71
     2
 72
     1
  1
40
  7
SLDTEXTSTYLE1
 73
     1
 44
1.0
  0
MTEXT
  5
1FD
330
1F
100
AcDbEntity
  8
TITLE
100
AcDbMText
 10
12.517167678
 20
119.7472007792
 30
0.0
 40
0.125
 41
0.0
 71
     2
 72
     1
  1
40
  7
SLDTEXTSTYLE1
 73
     1
 44
1.0
  0
MTEXT
  5
1FE
330
1F
100
AcDbEntity
  8
TITLE
100
AcDbMText
 10
14.485671615
 20
0.4125551099
 30
0.0
 40
0.125
 41
0.0
 71
     2
 72
     1
  1
39
  7
SLDTEXTSTYLE1
 73
     1
 44
1.0
  0
MTEXT
  5
1FF
330
1F
100
AcDbEntity
  8
TITLE
100
AcDbMText
 10
14.485671615
 20
119.7472007792
 30
0.0
 40
0.125
 41
0.0
 71
     2
 72
     1
  1
39
  7
SLDTEXTSTYLE1
 73
     1
 44
1.0
  0
MTEXT
  5
200
330
1F
100
AcDbEntity
  8
TITLE
100
AcDbMText
 10
16.454175552
 20
0.4125551099
 30
0.0
 40
0.125
 41
0.0
 71
     2
 72
     1
  1
38
  7
SLDTEXTSTYLE1
 73
     1
 44
1.0
  0
MTEXT
  5
201
330
1F
100
AcDbEntity
  8
TITLE
100
AcDbMText
 10
16.454175552
 20
119.7472007792
 30
0.0
 40
0.125
 41
0.0
 71
     2
 72
     1
  1
38
  7
SLDTEXTSTYLE1
 73
     1
 44
1.0
  0
MTEXT
  5
202
330
1F
100
AcDbEntity
  8
TITLE
100
AcDbMText
 10
18.422679489
 20
0.4125551099
 30
0.0
 40
0.125
 41
0.0
 71
     2
 72
     1
  1
37
  7
SLDTEXTSTYLE1
 73
     1
 44
1.0
  0
MTEXT
  5
203
330
1F
100
AcDbEntity
  8
TITLE
100
AcDbMText
 10
18.422679489
 20
119.7472007792
 30
0.0
 40
0.125
 41
0.0
 71
     2
 72
     1
  1
37
  7
SLDTEXTSTYLE1
 73
     1
 44
1.0
  0
MTEXT
  5
204
330
1F
100
AcDbEntity
  8
TITLE
100
AcDbMText
 10
20.391183426
 20
0.4125551099
 30
0.0
 40
0.125
 41
0.0
 71
     2
 72
     1
  1
36
  7
SLDTEXTSTYLE1
 73
     1
 44
1.0
  0
MTEXT
  5
205
330
1F
100
AcDbEntity
  8
TITLE
100
AcDbMText
 10
20.391183426
 20
119.7472007792
 30
0.0
 40
0.125
 41
0.0
 71
     2
 72
     1
  1
36
  7
SLDTEXTSTYLE1
 73
     1
 44
1.0
  0
MTEXT
  5
206
330
1F
100
AcDbEntity
  8
TITLE
100
AcDbMText
 10
22.359687363
 20
0.4125551099
 30
0.0
 40
0.125
 41
0.0
 71
     2
 72
     1
  1
35
  7
SLDTEXTSTYLE1
 73
     1
 44
1.0
  0
MTEXT
  5
207
330
1F
100
AcDbEntity
  8
TITLE
100
AcDbMText
 10
22.359687363
 20
119.7472007792
 30
0.0
 40
0.125
 41
0.0
 71
     2
 72
     1
  1
35
  7
SLDTEXTSTYLE1
 73
     1
 44
1.0
  0
MTEXT
  5
208
330
1F
100
AcDbEntity
  8
TITLE
100
AcDbMText
 10
24.3281913
 20
0.4125551099
 30
0.0
 40
0.125
 41
0.0
 71
     2
 72
     1
  1
34
  7
SLDTEXTSTYLE1
 73
     1
 44
1.0
  0
MTEXT
  5
209
330
1F
100
AcDbEntity
  8
TITLE
100
AcDbMText
 10
24.3281913
 20
119.7472007792
 30
0.0
 40
0.125
 41
0.0
 71
     2
 72
     1
  1
34
  7
SLDTEXTSTYLE1
 73
     1
 44
1.0
  0
MTEXT
  5
20A
330
1F
100
AcDbEntity
  8
TITLE
100
AcDbMText
 10
26.2966952371
 20
0.4125551099
 30
0.0
 40
0.125
 41
0.0
 71
     2
 72
     1
  1
33
  7
SLDTEXTSTYLE1
 73
     1
 44
1.0
  0
MTEXT
  5
20B
330
1F
100
AcDbEntity
  8
TITLE
100
AcDbMText
 10
26.2966952371
 20
119.7472007792
 30
0.0
 40
0.125
 41
0.0
 71
     2
 72
     1
  1
33
  7
SLDTEXTSTYLE1
 73
     1
 44
1.0
  0
MTEXT
  5
20C
330
1F
100
AcDbEntity
  8
TITLE
100
AcDbMText
 10
28.2651991741
 20
0.4125551099
 30
0.0
 40
0.125
 41
0.0
 71
     2
 72
     1
  1
32
  7
SLDTEXTSTYLE1
 73
     1
 44
1.0
  0
MTEXT
  5
20D
330
1F
100
AcDbEntity
  8
TITLE
100
AcDbMText
 10
28.2651991741
 20
119.7472007792
 30
0.0
 40
0.125
 41
0.0
 71
     2
 72
     1
  1
32
  7
SLDTEXTSTYLE1
 73
     1
 44
1.0
  0
MTEXT
  5
20E
330
1F
100
AcDbEntity
  8
TITLE
100
AcDbMText
 10
30.2337031111
 20
0.4125551099
 30
0.0
 40
0.125
 41
0.0
 71
     2
 72
     1
  1
31
  7
SLDTEXTSTYLE1
 73
     1
 44
1.0
  0
MTEXT
  5
20F
330
1F
100
AcDbEntity
  8
TITLE
100
AcDbMText
 10
30.2337031111
 20
119.7472007792
 30
0.0
 40
0.125
 41
0.0
 71
     2
 72
     1
  1
31
  7
SLDTEXTSTYLE1
 73
     1
 44
1.0
  0
MTEXT
  5
210
330
1F
100
AcDbEntity
  8
TITLE
100
AcDbMText
 10
32.2022070481
 20
0.4125551099
 30
0.0
 40
0.125
 41
0.0
 71
     2
 72
     1
  1
30
  7
SLDTEXTSTYLE1
 73
     1
 44
1.0
  0
MTEXT
  5
211
330
1F
100
AcDbEntity
  8
TITLE
100
AcDbMText
 10
32.2022070481
 20
119.7472007792
 30
0.0
 40
0.125
 41
0.0
 71
     2
 72
     1
  1
30
  7
SLDTEXTSTYLE1
 73
     1
 44
1.0
  0
MTEXT
  5
212
330
1F
100
AcDbEntity
  8
TITLE
100
AcDbMText
 10
34.1707109851
 20
0.4125551099
 30
0.0
 40
0.125
 41
0.0
 71
     2
 72
     1
  1
29
  7
SLDTEXTSTYLE1
 73
     1
 44
1.0
  0
MTEXT
  5
213
330
1F
100
AcDbEntity
  8
TITLE
100
AcDbMText
 10
34.1707109851
 20
119.7472007792
 30
0.0
 40
0.125
 41
0.0
 71
     2
 72
     1
  1
29
  7
SLDTEXTSTYLE1
 73
     1
 44
1.0
  0
MTEXT
  5
214
330
1F
100
AcDbEntity
  8
TITLE
100
AcDbMText
 10
36.1392149221
 20
0.4125551099
 30
0.0
 40
0.125
 41
0.0
 71
     2
 72
     1
  1
28
  7
SLDTEXTSTYLE1
 73
     1
 44
1.0
  0
MTEXT
  5
215
330
1F
100
AcDbEntity
  8
TITLE
100
AcDbMText
 10
36.1392149221
 20
119.7472007792
 30
0.0
 40
0.125
 41
0.0
 71
     2
 72
     1
  1
28
  7
SLDTEXTSTYLE1
 73
     1
 44
1.0
  0
MTEXT
  5
216
330
1F
100
AcDbEntity
  8
TITLE
100
AcDbMText
 10
38.1077188591
 20
0.4125551099
 30
0.0
 40
0.125
 41
0.0
 71
     2
 72
     1
  1
27
  7
SLDTEXTSTYLE1
 73
     1
 44
1.0
  0
MTEXT
  5
217
330
1F
100
AcDbEntity
  8
TITLE
100
AcDbMText
 10
38.1077188591
 20
119.7472007792
 30
0.0
 40
0.125
 41
0.0
 71
     2
 72
     1
  1
27
  7
SLDTEXTSTYLE1
 73
     1
 44
1.0
  0
MTEXT
  5
218
330
1F
100
AcDbEntity
  8
TITLE
100
AcDbMText
 10
40.0762227961
 20
0.4125551099
 30
0.0
 40
0.125
 41
0.0
 71
     2
 72
     1
  1
26
  7
SLDTEXTSTYLE1
 73
     1
 44
1.0
  0
MTEXT
  5
219
330
1F
100
AcDbEntity
  8
TITLE
100
AcDbMText
 10
40.0762227961
 20
119.7472007792
 30
0.0
 40
0.125
 41
0.0
 71
     2
 72
     1
  1
26
  7
SLDTEXTSTYLE1
 73
     1
 44
1.0
  0
MTEXT
  5
21A
330
1F
100
AcDbEntity
  8
TITLE
100
AcDbMText
 10
42.0447267331
 20
0.4125551099
 30
0.0
 40
0.125
 41
0.0
 71
     2
 72
     1
  1
25
  7
SLDTEXTSTYLE1
 73
     1
 44
1.0
  0
MTEXT
  5
21B
330
1F
100
AcDbEntity
  8
TITLE
100
AcDbMText
 10
42.0447267331
 20
119.7472007792
 30
0.0
 40
0.125
 41
0.0
 71
     2
 72
     1
  1
25
  7
SLDTEXTSTYLE1
 73
     1
 44
1.0
  0
MTEXT
  5
21C
330
1F
100
AcDbEntity
  8
TITLE
100
AcDbMText
 10
44.0132306701
 20
0.4125551099
 30
0.0
 40
0.125
 41
0.0
 71
     2
 72
     1
  1
24
  7
SLDTEXTSTYLE1
 73
     1
 44
1.0
  0
MTEXT
  5
21D
330
1F
100
AcDbEntity
  8
TITLE
100
AcDbMText
 10
44.0132306701
 20
119.7472007792
 30
0.0
 40
0.125
 41
0.0
 71
     2
 72
     1
  1
24
  7
SLDTEXTSTYLE1
 73
     1
 44
1.0
  0
MTEXT
  5
21E
330
1F
100
AcDbEntity
  8
TITLE
100
AcDbMText
 10
45.9817346071
 20
0.4125551099
 30
0.0
 40
0.125
 41
0.0
 71
     2
 72
     1
  1
23
  7
SLDTEXTSTYLE1
 73
     1
 44
1.0
  0
MTEXT
  5
21F
330
1F
100
AcDbEntity
  8
TITLE
100
AcDbMText
 10
45.9817346071
 20
119.7472007792
 30
0.0
 40
0.125
 41
0.0
 71
     2
 72
     1
  1
23
  7
SLDTEXTSTYLE1
 73
     1
 44
1.0
  0
MTEXT
  5
220
330
1F
100
AcDbEntity
  8
TITLE
100
AcDbMText
 10
47.9502385441
 20
0.4125551099
 30
0.0
 40
0.125
 41
0.0
 71
     2
 72
     1
  1
22
  7
SLDTEXTSTYLE1
 73
     1
 44
1.0
  0
MTEXT
  5
221
330
1F
100
AcDbEntity
  8
TITLE
100
AcDbMText
 10
47.9502385441
 20
119.7472007792
 30
0.0
 40
0.125
 41
0.0
 71
     2
 72
     1
  1
22
  7
SLDTEXTSTYLE1
 73
     1
 44
1.0
  0
MTEXT
  5
222
330
1F
100
AcDbEntity
  8
TITLE
100
AcDbMText
 10
49.9187424811
 20
0.4125551099
 30
0.0
 40
0.125
 41
0.0
 71
     2
 72
     1
  1
21
  7
SLDTEXTSTYLE1
 73
     1
 44
1.0
  0
MTEXT
  5
223
330
1F
100
AcDbEntity
  8
TITLE
100
AcDbMText
 10
49.9187424811
 20
119.7472007792
 30
0.0
 40
0.125
 41
0.0
 71
     2
 72
     1
  1
21
  7
SLDTEXTSTYLE1
 73
     1
 44
1.0
  0
MTEXT
  5
224
330
1F
100
AcDbEntity
  8
TITLE
100
AcDbMText
 10
51.8872464182
 20
0.4125551099
 30
0.0
 40
0.125
 41
0.0
 71
     2
 72
     1
  1
20
  7
SLDTEXTSTYLE1
 73
     1
 44
1.0
  0
MTEXT
  5
225
330
1F
100
AcDbEntity
  8
TITLE
100
AcDbMText
 10
51.8872464182
 20
119.7472007792
 30
0.0
 40
0.125
 41
0.0
 71
     2
 72
     1
  1
20
  7
SLDTEXTSTYLE1
 73
     1
 44
1.0
  0
MTEXT
  5
226
330
1F
100
AcDbEntity
  8
TITLE
100
AcDbMText
 10
53.8557503552
 20
0.4125551099
 30
0.0
 40
0.125
 41
0.0
 71
     2
 72
     1
  1
19
  7
SLDTEXTSTYLE1
 73
     1
 44
1.0
  0
MTEXT
  5
227
330
1F
100
AcDbEntity
  8
TITLE
100
AcDbMText
 10
53.8557503552
 20
119.7472007792
 30
0.0
 40
0.125
 41
0.0
 71
     2
 72
     1
  1
19
  7
SLDTEXTSTYLE1
 73
     1
 44
1.0
  0
MTEXT
  5
228
330
1F
100
AcDbEntity
  8
TITLE
100
AcDbMText
 10
55.8242542922
 20
0.4125551099
 30
0.0
 40
0.125
 41
0.0
 71
     2
 72
     1
  1
18
  7
SLDTEXTSTYLE1
 73
     1
 44
1.0
  0
MTEXT
  5
229
330
1F
100
AcDbEntity
  8
TITLE
100
AcDbMText
 10
55.8242542922
 20
119.7472007792
 30
0.0
 40
0.125
 41
0.0
 71
     2
 72
     1
  1
18
  7
SLDTEXTSTYLE1
 73
     1
 44
1.0
  0
MTEXT
  5
22A
330
1F
100
AcDbEntity
  8
TITLE
100
AcDbMText
 10
57.7927582292
 20
0.4125551099
 30
0.0
 40
0.125
 41
0.0
 71
     2
 72
     1
  1
17
  7
SLDTEXTSTYLE1
 73
     1
 44
1.0
  0
MTEXT
  5
22B
330
1F
100
AcDbEntity
  8
TITLE
100
AcDbMText
 10
57.7927582292
 20
119.7472007792
 30
0.0
 40
0.125
 41
0.0
 71
     2
 72
     1
  1
17
  7
SLDTEXTSTYLE1
 73
     1
 44
1.0
  0
MTEXT
  5
22C
330
1F
100
AcDbEntity
  8
TITLE
100
AcDbMText
 10
59.7612621662
 20
0.4125551099
 30
0.0
 40
0.125
 41
0.0
 71
     2
 72
     1
  1
16
  7
SLDTEXTSTYLE1
 73
     1
 44
1.0
  0
MTEXT
  5
22D
330
1F
100
AcDbEntity
  8
TITLE
100
AcDbMText
 10
59.7612621662
 20
119.7472007792
 30
0.0
 40
0.125
 41
0.0
 71
     2
 72
     1
  1
16
  7
SLDTEXTSTYLE1
 73
     1
 44
1.0
  0
MTEXT
  5
22E
330
1F
100
AcDbEntity
  8
TITLE
100
AcDbMText
 10
61.7297661032
 20
0.4125551099
 30
0.0
 40
0.125
 41
0.0
 71
     2
 72
     1
  1
15
  7
SLDTEXTSTYLE1
 73
     1
 44
1.0
  0
MTEXT
  5
22F
330
1F
100
AcDbEntity
  8
TITLE
100
AcDbMText
 10
61.7297661032
 20
119.7472007792
 30
0.0
 40
0.125
 41
0.0
 71
     2
 72
     1
  1
15
  7
SLDTEXTSTYLE1
 73
     1
 44
1.0
  0
MTEXT
  5
230
330
1F
100
AcDbEntity
  8
TITLE
100
AcDbMText
 10
63.6982700402
 20
0.4125551099
 30
0.0
 40
0.125
 41
0.0
 71
     2
 72
     1
  1
14
  7
SLDTEXTSTYLE1
 73
     1
 44
1.0
  0
MTEXT
  5
231
330
1F
100
AcDbEntity
  8
TITLE
100
AcDbMText
 10
63.6982700402
 20
119.7472007792
 30
0.0
 40
0.125
 41
0.0
 71
     2
 72
     1
  1
14
  7
SLDTEXTSTYLE1
 73
     1
 44
1.0
  0
MTEXT
  5
232
330
1F
100
AcDbEntity
  8
TITLE
100
AcDbMText
 10
65.6667739772
 20
0.4125551099
 30
0.0
 40
0.125
 41
0.0
 71
     2
 72
     1
  1
13
  7
SLDTEXTSTYLE1
 73
     1
 44
1.0
  0
MTEXT
  5
233
330
1F
100
AcDbEntity
  8
TITLE
100
AcDbMText
 10
65.6667739772
 20
119.7472007792
 30
0.0
 40
0.125
 41
0.0
 71
     2
 72
     1
  1
13
  7
SLDTEXTSTYLE1
 73
     1
 44
1.0
  0
MTEXT
  5
234
330
1F
100
AcDbEntity
  8
TITLE
100
AcDbMText
 10
67.6352779142
 20
0.4125551099
 30
0.0
 40
0.125
 41
0.0
 71
     2
 72
     1
  1
12
  7
SLDTEXTSTYLE1
 73
     1
 44
1.0
  0
MTEXT
  5
235
330
1F
100
AcDbEntity
  8
TITLE
100
AcDbMText
 10
67.6352779142
 20
119.7472007792
 30
0.0
 40
0.125
 41
0.0
 71
     2
 72
     1
  1
12
  7
SLDTEXTSTYLE1
 73
     1
 44
1.0
  0
MTEXT
  5
236
330
1F
100
AcDbEntity
  8
TITLE
100
AcDbMText
 10
69.6037818512
 20
0.4125551099
 30
0.0
 40
0.125
 41
0.0
 71
     2
 72
     1
  1
11
  7
SLDTEXTSTYLE1
 73
     1
 44
1.0
  0
MTEXT
  5
237
330
1F
100
AcDbEntity
  8
TITLE
100
AcDbMText
 10
69.6037818512
 20
119.7472007792
 30
0.0
 40
0.125
 41
0.0
 71
     2
 72
     1
  1
11
  7
SLDTEXTSTYLE1
 73
     1
 44
1.0
  0
MTEXT
  5
238
330
1F
100
AcDbEntity
  8
TITLE
100
AcDbMText
 10
71.5722857882
 20
0.4125551099
 30
0.0
 40
0.125
 41
0.0
 71
     2
 72
     1
  1
10
  7
SLDTEXTSTYLE1
 73
     1
 44
1.0
  0
MTEXT
  5
239
330
1F
100
AcDbEntity
  8
TITLE
100
AcDbMText
 10
71.5722857882
 20
119.7472007792
 30
0.0
 40
0.125
 41
0.0
 71
     2
 72
     1
  1
10
  7
SLDTEXTSTYLE1
 73
     1
 44
1.0
  0
MTEXT
  5
23A
330
1F
100
AcDbEntity
  8
TITLE
100
AcDbMText
 10
73.5420484059
 20
0.4125551099
 30
0.0
 40
0.125
 41
0.0
 71
     2
 72
     1
  1
9
  7
SLDTEXTSTYLE1
 73
     1
 44
1.0
  0
MTEXT
  5
23B
330
1F
100
AcDbEntity
  8
TITLE
100
AcDbMText
 10
73.5420484059
 20
119.7472007792
 30
0.0
 40
0.125
 41
0.0
 71
     2
 72
     1
  1
9
  7
SLDTEXTSTYLE1
 73
     1
 44
1.0
  0
MTEXT
  5
23C
330
1F
100
AcDbEntity
  8
TITLE
100
AcDbMText
 10
75.5105523429
 20
0.4125551099
 30
0.0
 40
0.125
 41
0.0
 71
     2
 72
     1
  1
8
  7
SLDTEXTSTYLE1
 73
     1
 44
1.0
  0
MTEXT
  5
23D
330
1F
100
AcDbEntity
  8
TITLE
100
AcDbMText
 10
75.5105523429
 20
119.7472007792
 30
0.0
 40
0.125
 41
0.0
 71
     2
 72
     1
  1
8
  7
SLDTEXTSTYLE1
 73
     1
 44
1.0
  0
MTEXT
  5
23E
330
1F
100
AcDbEntity
  8
TITLE
100
AcDbMText
 10
77.4790562799
 20
0.4125551099
 30
0.0
 40
0.125
 41
0.0
 71
     2
 72
     1
  1
7
  7
SLDTEXTSTYLE1
 73
     1
 44
1.0
  0
MTEXT
  5
23F
330
1F
100
AcDbEntity
  8
TITLE
100
AcDbMText
 10
77.4790562799
 20
119.7472007792
 30
0.0
 40
0.125
 41
0.0
 71
     2
 72
     1
  1
7
  7
SLDTEXTSTYLE1
 73
     1
 44
1.0
  0
MTEXT
  5
240
330
1F
100
AcDbEntity
  8
TITLE
100
AcDbMText
 10
79.447560217
 20
0.4125551099
 30
0.0
 40
0.125
 41
0.0
 71
     2
 72
     1
  1
6
  7
SLDTEXTSTYLE1
 73
     1
 44
1.0
  0
MTEXT
  5
241
330
1F
100
AcDbEntity
  8
TITLE
100
AcDbMText
 10
79.447560217
 20
119.7472007792
 30
0.0
 40
0.125
 41
0.0
 71
     2
 72
     1
  1
6
  7
SLDTEXTSTYLE1
 73
     1
 44
1.0
  0
MTEXT
  5
242
330
1F
100
AcDbEntity
  8
TITLE
100
AcDbMText
 10
81.416064154
 20
0.4125551099
 30
0.0
 40
0.125
 41
0.0
 71
     2
 72
     1
  1
5
  7
SLDTEXTSTYLE1
 73
     1
 44
1.0
  0
MTEXT
  5
243
330
1F
100
AcDbEntity
  8
TITLE
100
AcDbMText
 10
81.416064154
 20
119.7472007792
 30
0.0
 40
0.125
 41
0.0
 71
     2
 72
     1
  1
5
  7
SLDTEXTSTYLE1
 73
     1
 44
1.0
  0
MTEXT
  5
244
330
1F
100
AcDbEntity
  8
TITLE
100
AcDbMText
 10
83.384568091
 20
0.4125551099
 30
0.0
 40
0.125
 41
0.0
 71
     2
 72
     1
  1
4
  7
SLDTEXTSTYLE1
 73
     1
 44
1.0
  0
MTEXT
  5
245
330
1F
100
AcDbEntity
  8
TITLE
100
AcDbMText
 10
83.384568091
 20
119.7472007792
 30
0.0
 40
0.125
 41
0.0
 71
     2
 72
     1
  1
4
  7
SLDTEXTSTYLE1
 73
     1
 44
1.0
  0
MTEXT
  5
246
330
1F
100
AcDbEntity
  8
TITLE
100
AcDbMText
 10
85.353072028
 20
0.4125551099
 30
0.0
 40
0.125
 41
0.0
 71
     2
 72
     1
  1
3
  7
SLDTEXTSTYLE1
 73
     1
 44
1.0
  0
MTEXT
  5
247
330
1F
100
AcDbEntity
  8
TITLE
100
AcDbMText
 10
85.353072028
 20
119.7472007792
 30
0.0
 40
0.125
 41
0.0
 71
     2
 72
     1
  1
3
  7
SLDTEXTSTYLE1
 73
     1
 44
1.0
  0
MTEXT
  5
248
330
1F
100
AcDbEntity
  8
TITLE
100
AcDbMText
 10
87.321575965
 20
0.4125551099
 30
0.0
 40
0.125
 41
0.0
 71
     2
 72
     1
  1
2
  7
SLDTEXTSTYLE1
 73
     1
 44
1.0
  0
MTEXT
  5
249
330
1F
100
AcDbEntity
  8
TITLE
100
AcDbMText
 10
87.321575965
 20
119.7472007792
 30
0.0
 40
0.125
 41
0.0
 71
     2
 72
     1
  1
2
  7
SLDTEXTSTYLE1
 73
     1
 44
1.0
  0
MTEXT
  5
24A
330
1F
100
AcDbEntity
  8
TITLE
100
AcDbMText
 10
88.9022846264
 20
0.4125551099
 30
0.0
 40
0.125
 41
0.0
 71
     2
 72
     1
  1
1
  7
SLDTEXTSTYLE1
 73
     1
 44
1.0
  0
MTEXT
  5
24B
330
1F
100
AcDbEntity
  8
TITLE
100
AcDbMText
 10
88.9022846264
 20
119.7472007792
 30
0.0
 40
0.125
 41
0.0
 71
     2
 72
     1
  1
1
  7
SLDTEXTSTYLE1
 73
     1
 44
1.0
  0
LINE
  5
24C
330
1F
100
AcDbEntity
  8
0
  6
SLD-Solid
 62
     7
370
    25
100
AcDbLine
 10
74.8808836225
 20
24.1366951932
 30
0.0
 11
3.9928836225
 21
24.1366951932
 31
0.0
  0
LINE
  5
24D
330
1F
100
AcDbEntity
  8
0
  6
SLD-Solid
 62
     7
370
    25
100
AcDbLine
 10
3.9928836225
 20
22.8826951932
 30
0.0
 11
74.8808836225
 21
22.8826951932
 31
0.0
  0
ARC
  5
24E
330
1F
100
AcDbEntity
  8
0
  6
SLD-Solid
 62
     7
370
    25
100
AcDbCircle
 10
3.8928836225
 20
24.9096951932
 30
0.0
 40
0.1000000000000014
100
AcDbArc
 50
360.0
 51
90.0
  0
ARC
  5
24F
330
1F
100
AcDbEntity
  8
0
  6
SLD-Solid
 62
     7
370
    25
100
AcDbCircle
 10
3.8928836225
 20
22.1096951932
 30
0.0
 40
0.100000000000005
100
AcDbArc
 50
270.0
 51
0.0
  0
LINE
  5
250
330
1F
100
AcDbEntity
  8
0
  6
SLD-Solid
 62
     7
370
    25
100
AcDbLine
 10
3.4368836225
 20
22.0096951932
 30
0.0
 11
3.8928836225
 21
22.0096951932
 31
0.0
  0
LINE
  5
251
330
1F
100
AcDbEntity
  8
0
  6
SLD-Solid
 62
     7
370
    25
100
AcDbLine
 10
3.8928836225
 20
25.0096951932
 30
0.0
 11
3.4368836225
 21
25.0096951932
 31
0.0
  0
ARC
  5
252
330
1F
100
AcDbEntity
  8
0
  6
SLD-Solid
 62
     7
370
    25
100
AcDbCircle
 10
74.9808836225
 20
22.1096951932
 30
0.0
 40
0.0999999999999979
100
AcDbArc
 50
180.0
 51
270.0
  0
ARC
  5
253
330
1F
100
AcDbEntity
  8
0
  6
SLD-Solid
 62
     7
370
    25
100
AcDbCircle
 10
74.9808836225
 20
24.9096951932
 30
0.0
 40
0.0999999999999979
100
AcDbArc
 50
90.0
 51
180.0
  0
LINE
  5
254
330
1F
100
AcDbEntity
  8
0
  6
SLD-Solid
 62
     7
370
    25
100
AcDbLine
 10
75.4368836225
 20
25.0096951932
 30
0.0
 11
74.9808836225
 21
25.0096951932
 31
0.0
  0
LINE
  5
255
330
1F
100
AcDbEntity
  8
0
  6
SLD-Solid
 62
     7
370
    25
100
AcDbLine
 10
74.9808836225
 20
22.0096951932
 30
0.0
 11
75.4368836225
 21
22.0096951932
 31
0.0
  0
LINE
  5
256
330
1F
100
AcDbEntity
  8
0
  6
SLD-Solid
 62
     7
370
    25
100
AcDbLine
 10
75.4368836225
 20
24.4966951932
 30
0.0
 11
76.3838163073
 21
24.4966951932
 31
0.0
  0
LINE
  5
257
330
1F
100
AcDbEntity
  8
0
  6
SLD-Solid
 62
     7
370
    25
100
AcDbLine
 10
76.3838163073
 20
24.6466951932
 30
0.0
 11
75.4368836225
 21
24.6466951932
 31
0.0
  0
LINE
  5
258
330
1F
100
AcDbEntity
  8
0
  6
SLD-Solid
 62
     7
370
    25
100
AcDbLine
 10
76.3838163073
 20
24.4966951932
 30
0.0
 11
76.4838163073
 21
24.5311279545
 31
0.0
  0
LINE
  5
259
330
1F
100
AcDbEntity
  8
0
  6
SLD-Solid
 62
     7
370
    25
100
AcDbLine
 10
76.4838163073
 20
24.6122624318
 30
0.0
 11
76.3838163073
 21
24.6466951932
 31
0.0
  0
LINE
  5
25A
330
1F
100
AcDbEntity
  8
0
  6
SLD-Solid
 62
     7
370
    25
100
AcDbLine
 10
3.4368836225
 20
22.5226951932
 30
0.0
 11
2.4899509376
 21
22.5226951932
 31
0.0
  0
LINE
  5
25B
330
1F
100
AcDbEntity
  8
0
  6
SLD-Solid
 62
     7
370
    25
100
AcDbLine
 10
2.4899509376
 20
22.3726951932
 30
0.0
 11
3.4368836225
 21
22.3726951932
 31
0.0
  0
LINE
  5
25C
330
1F
100
AcDbEntity
  8
0
  6
SLD-Solid
 62
     7
370
    25
100
AcDbLine
 10
2.4899509376
 20
22.5226951932
 30
0.0
 11
2.3899509376
 21
22.4882624318
 31
0.0
  0
LINE
  5
25D
330
1F
100
AcDbEntity
  8
0
  6
SLD-Solid
 62
     7
370
    25
100
AcDbLine
 10
2.3899509376
 20
22.4071279545
 30
0.0
 11
2.4899509376
 21
22.3726951932
 31
0.0
  0
LINE
  5
25E
330
1F
100
AcDbEntity
  8
0
  6
SLD-Solid
 62
     7
370
    25
100
AcDbLine
 10
75.4368836225
 20
22.3726951932
 30
0.0
 11
76.3838163073
 21
22.3726951932
 31
0.0
  0
LINE
  5
25F
330
1F
100
AcDbEntity
  8
0
  6
SLD-Solid
 62
     7
370
    25
100
AcDbLine
 10
76.3838163073
 20
22.5226951932
 30
0.0
 11
75.4368836225
 21
22.5226951932
 31
0.0
  0
LINE
  5
260
330
1F
100
AcDbEntity
  8
0
  6
SLD-Solid
 62
     7
370
    25
100
AcDbLine
 10
76.3838163073
 20
22.3726951932
 30
0.0
 11
76.4838163073
 21
22.4071279545
 31
0.0
  0
LINE
  5
261
330
1F
100
AcDbEntity
  8
0
  6
SLD-Solid
 62
     7
370
    25
100
AcDbLine
 10
76.4838163073
 20
22.4882624318
 30
0.0
 11
76.3838163073
 21
22.5226951932
 31
0.0
  0
LINE
  5
262
330
1F
100
AcDbEntity
  8
0
  6
SLD-Solid
 62
     7
370
    25
100
AcDbLine
 10
3.4368836225
 20
24.6466951932
 30
0.0
 11
2.4899509376
 21
24.6466951932
 31
0.0
  0
LINE
  5
263
330
1F
100
AcDbEntity
  8
0
  6
SLD-Solid
 62
     7
370
    25
100
AcDbLine
 10
2.4899509376
 20
24.4966951932
 30
0.0
 11
3.4368836225
 21
24.4966951932
 31
0.0
  0
LINE
  5
264
330
1F
100
AcDbEntity
  8
0
  6
SLD-Solid
 62
     7
370
    25
100
AcDbLine
 10
2.4899509376
 20
24.6466951932
 30
0.0
 11
2.3899509376
 21
24.6122624318
 31
0.0
  0
LINE
  5
265
330
1F
100
AcDbEntity
  8
0
  6
SLD-Solid
 62
     7
370
    25
100
AcDbLine
 10
2.3899509376
 20
24.5311279545
 30
0.0
 11
2.4899509376
 21
24.4966951932
 31
0.0
  0
LINE
  5
266
330
1F
100
AcDbEntity
  8
0
  6
SLD-Solid
 62
     7
370
    25
100
AcDbLine
 10
3.9928836225
 20
24.9096951932
 30
0.0
 11
3.9928836225
 21
22.1096951958
 31
0.0
  0
LINE
  5
267
330
1F
100
AcDbEntity
  8
0
  6
SLD-Solid
 62
     7
370
    25
100
AcDbLine
 10
3.4368836225
 20
25.0096951932
 30
0.0
 11
3.4368836225
 21
22.0096951932
 31
0.0
  0
LINE
  5
268
330
1F
100
AcDbEntity
  8
0
  6
SLD-Solid
 62
     7
370
    25
100
AcDbLine
 10
74.8808836225
 20
22.1096951932
 30
0.0
 11
74.8808836225
 21
24.9096951905
 31
0.0
  0
LINE
  5
269
330
1F
100
AcDbEntity
  8
0
  6
SLD-Solid
 62
     7
370
    25
100
AcDbLine
 10
75.4368836225
 20
22.0096951932
 30
0.0
 11
75.4368836225
 21
25.0096951932
 31
0.0
  0
LINE
  5
26A
330
1F
100
AcDbEntity
  8
0
  6
SLD-Solid
 62
     7
370
    25
100
AcDbLine
 10
76.3838163073
 20
24.4966951932
 30
0.0
 11
76.3838163073
 21
24.6466951932
 31
0.0
  0
LINE
  5
26B
330
1F
100
AcDbEntity
  8
0
  6
SLD-Solid
 62
     7
370
    25
100
AcDbLine
 10
76.4838163073
 20
24.6122624318
 30
0.0
 11
76.4838163073
 21
24.5311279545
 31
0.0
  0
LINE
  5
26C
330
1F
100
AcDbEntity
  8
0
  6
SLD-Solid
 62
     7
370
    25
100
AcDbLine
 10
2.4899509376
 20
22.4638254751
 30
0.0
 11
2.4899509376
 21
22.3726951932
 31
0.0
  0
LINE
  5
26D
330
1F
100
AcDbEntity
  8
0
  6
SLD-Solid
 62
     7
370
    25
100
AcDbLine
 10
2.4899509376
 20
22.5226951932
 30
0.0
 11
2.4899509376
 21
22.4638254751
 31
0.0
  0
LINE
  5
26E
330
1F
100
AcDbEntity
  8
0
  6
SLD-Solid
 62
     7
370
    25
100
AcDbLine
 10
2.3899509376
 20
22.4564200065
 30
0.0
 11
2.3899509376
 21
22.4882624318
 31
0.0
  0
LINE
  5
26F
330
1F
100
AcDbEntity
  8
0
  6
SLD-Solid
 62
     7
370
    25
100
AcDbLine
 10
2.3899509376
 20
22.4071279545
 30
0.0
 11
2.3899509376
 21
22.4564200065
 31
0.0
  0
LINE
  5
270
330
1F
100
AcDbEntity
  8
0
  6
SLD-Solid
 62
     7
370
    25
100
AcDbLine
 10
76.3838163073
 20
22.3726951932
 30
0.0
 11
76.3838163073
 21
22.5226951932
 31
0.0
  0
LINE
  5
271
330
1F
100
AcDbEntity
  8
0
  6
SLD-Solid
 62
     7
370
    25
100
AcDbLine
 10
76.4838163073
 20
22.4882624318
 30
0.0
 11
76.4838163073
 21
22.4071279545
 31
0.0
  0
LINE
  5
272
330
1F
100
AcDbEntity
  8
0
  6
SLD-Solid
 62
     7
370
    25
100
AcDbLine
 10
2.4899509376
 20
24.60200731
 30
0.0
 11
2.4899509376
 21
24.4966951932
 31
0.0
  0
LINE
  5
273
330
1F
100
AcDbEntity
  8
0
  6
SLD-Solid
 62
     7
370
    25
100
AcDbLine
 10
2.4899509376
 20
24.6466951932
 30
0.0
 11
2.4899509376
 21
24.60200731
 31
0.0
  0
LINE
  5
274
330
1F
100
AcDbEntity
  8
0
  6
SLD-Solid
 62
     7
370
    25
100
AcDbLine
 10
2.3899509376
 20
24.5880909115
 30
0.0
 11
2.3899509376
 21
24.6122624318
 31
0.0
  0
LINE
  5
275
330
1F
100
AcDbEntity
  8
0
  6
SLD-Solid
 62
     7
370
    25
100
AcDbLine
 10
2.3899509376
 20
24.5311279545
 30
0.0
 11
2.3899509376
 21
24.5880909115
 31
0.0
  0
DIMENSION
  5
276
330
1F
100
AcDbEntity
  8
DIMS
100
AcDbDimension
  2
_D
 10
3.4368836225
 20
27.2931597601
 30
0.0
 11
40.4152807592
 21
27.2931597601
 31
0.0
 70
   160
  1
<>
 71
     2
 42
-1.0
  3
SLDDIMSTYLE0
100
AcDbAlignedDimension
 13
75.4368836225
 23
24.1366951932
 33
0.0
 14
3.4368836225
 24
24.1366951932
 34
0.0
 50
0.0
100
AcDbRotatedDimension
  0
DIMENSION
  5
288
330
1F
100
AcDbEntity
  8
DIMS
100
AcDbDimension
  2
_D_1
 10
71.9549056719
 20
22.8826951932
 30
0.0
 11
71.9549056719
 21
25.4033959806
 31
0.0
 70
   160
  1
%%c<>
 71
     2
 42
-1.0
  3
SLDDIMSTYLE1
100
AcDbAlignedDimension
 13
75.4368836225
 23
24.1366951932
 33
0.0
 14
75.4368836225
 24
22.8826951932
 34
0.0
 50
90.0
100
AcDbRotatedDimension
  0
DIMENSION
  5
298
330
1F
100
AcDbEntity
  8
DIMS
100
AcDbDimension
  2
_D_2
 10
74.8808836225
 20
26.1120573979
 30
0.0
 11
73.4548087746
 21
26.1120573979
 31
0.0
 70
   160
  1
<>
 71
     2
 42
-1.0
  3
SLDDIMSTYLE1
100
AcDbAlignedDimension
 13
75.4368836225
 23
25.0096951932
 33
0.0
 14
74.8808836225
 24
24.9096951932
 34
0.0
100
AcDbRotatedDimension
  0
MTEXT
  5
2A6
330
1F
100
AcDbEntity
  8
NOTES
100
AcDbMText
 10
3.5653058778
 20
21.1921770852
 30
0.0
 40
0.5
 41
0.0
 71
     1
 72
     1
  1
Front view
  7
SLDTEXTSTYLE1
 73
     1
 44
1.0
  0
CIRCLE
  5
2A7
330
1F
100
AcDbEntity
  8
0
  6
SLD-Solid
 62
     7
370
    25
100
AcDbCircle
 10
81.7380343081
 20
23.5096951932
 30
0.0
 40
0.5849999999999937
  0
CIRCLE
  5
2A8
330
1F
100
AcDbEntity
  8
0
  6
SLD-Solid
 62
     7
370
    25
100
AcDbCircle
 10
81.7380343081
 20
23.5096951932
 30
0.0
 40
0.6270000000000095
  0
CIRCLE
  5
2A9
330
1F
100
AcDbEntity
  8
0
  6
SLD-Solid
 62
     7
370
    25
100
AcDbCircle
 10
81.7380343081
 20
23.5096951932
 30
0.0
 40
1.5
  0
CIRCLE
  5
2AA
330
1F
100
AcDbEntity
  8
0
  6
SLD-Solid
 62
     7
370
    25
100
AcDbCircle
 10
81.7380343081
 20
23.5096951932
 30
0.0
 40
1.450000000000003
  0
CIRCLE
  5
2AB
330
1F
100
AcDbEntity
  8
0
  6
SLD-Solid
 62
     7
370
    25
100
AcDbCircle
 10
81.7380343081
 20
22.4476951932
 30
0.0
 40
0.1119999999999983
  0
CIRCLE
  5
2AC
330
1F
100
AcDbEntity
  8
0
  6
SLD-Solid
 62
     7
370
    25
100
AcDbCircle
 10
81.7380343081
 20
22.4476951932
 30
0.0
 40
0.1782506496674436
  0
CIRCLE
  5
2AD
330
1F
100
AcDbEntity
  8
0
  6
SLD-Solid
 62
     7
370
    25
100
AcDbCircle
 10
81.7380343081
 20
22.4476951932
 30
0.0
 40
0.3042972266507888
  0
CIRCLE
  5
2AE
330
1F
100
AcDbEntity
  8
0
  6
SLD-Solid
 62
     7
370
    25
100
AcDbCircle
 10
81.7380343081
 20
24.5716951932
 30
0.0
 40
0.1782506496674401
  0
CIRCLE
  5
2AF
330
1F
100
AcDbEntity
  8
0
  6
SLD-Solid
 62
     7
370
    25
100
AcDbCircle
 10
81.7380343081
 20
24.5716951932
 30
0.0
 40
0.1120000000000019
  0
CIRCLE
  5
2B0
330
1F
100
AcDbEntity
  8
0
  6
SLD-Solid
 62
     7
370
    25
100
AcDbCircle
 10
81.7380343081
 20
24.5716951932
 30
0.0
 40
0.3042972266507888
  0
CIRCLE
  5
2B1
330
1F
100
AcDbEntity
  8
0
  6
SLD-Solid
 62
     7
370
    25
100
AcDbCircle
 10
81.7380343081
 20
23.5096951932
 30
0.0
 40
0.6425000000000018
  0
CIRCLE
  5
2B2
330
1F
100
AcDbEntity
  8
0
  6
SLD-Solid
 62
     7
370
    25
100
AcDbCircle
 10
81.7380343081
 20
24.5716951932
 30
0.0
 40
0.0405672386710383
  0
CIRCLE
  5
2B3
330
1F
100
AcDbEntity
  8
0
  6
SLD-Solid
 62
     7
370
    25
100
AcDbCircle
 10
81.7380343081
 20
24.5716951932
 30
0.0
 40
0.0750000000000082
  0
CIRCLE
  5
2B4
330
1F
100
AcDbEntity
  8
0
  6
SLD-Solid
 62
     7
370
    25
100
AcDbCircle
 10
81.7380343081
 20
24.5716951932
 30
0.0
 40
0.0833720538099897
  0
CIRCLE
  5
2B5
330
1F
100
AcDbEntity
  8
0
  6
SLD-Solid
 62
     7
370
    25
100
AcDbCircle
 10
81.7380343081
 20
22.4476951932
 30
0.0
 40
0.0405672386710286
  0
CIRCLE
  5
2B6
330
1F
100
AcDbEntity
  8
0
  6
SLD-Solid
 62
     7
370
    25
100
AcDbCircle
 10
81.7380343081
 20
22.4476951932
 30
0.0
 40
0.0750000000000007
  0
CIRCLE
  5
2B7
330
1F
100
AcDbEntity
  8
0
  6
SLD-Solid
 62
     7
370
    25
100
AcDbCircle
 10
81.7380343081
 20
22.4476951932
 30
0.0
 40
0.083372053809996
  0
DIMENSION
  5
2B8
330
1F
100
AcDbEntity
  8
DIMS
100
AcDbDimension
  2
_D_3
 10
82.4880343081
 20
22.2106570875
 30
0.0
 11
79.2428780496
 21
26.1602141143
 31
0.0
 70
   163
  1
<>
 71
     1
 42
-1.0
  3
SLDDIMSTYLE2
100
AcDbDiametricDimension
 15
80.9880343081
 25
24.8087332988
 35
0.0
 40
0.0
  0
DIMENSION
  5
2C2
330
1F
100
AcDbEntity
  8
DIMS
100
AcDbDimension
  2
_D_4
 10
85.3012291206
 20
22.4476951932
 30
0.0
 11
85.3012291206
 21
23.4572097175
 31
0.0
 70
   160
  1
<>
 71
     2
 42
-1.0
  3
SLDDIMSTYLE3
100
AcDbAlignedDimension
 13
81.7380343081
 23
24.5716951932
 33
0.0
 14
81.7380343081
 24
22.4476951932
 34
0.0
 50
90.0
100
AcDbRotatedDimension
  0
MTEXT
  5
2D2
330
1F
100
AcDbEntity
  8
NOTES
100
AcDbMText
 10
80.6259649842
 20
21.3722013339
 30
0.0
 40
0.5
 41
0.0
 71
     1
 72
     1
  1
Side view
  7
SLDTEXTSTYLE1
 73
     1
 44
1.0
  0
LINE
  5
2D3
330
1F
100
AcDbEntity
  8
0
  6
SLD-Solid
 62
     7
370
    25
100
AcDbLine
 10
71.4283199909
 20
31.3456944334
 30
0.0
 11
70.9266533881
 21
31.4820366667
 31
0.0
  0
LINE
  5
2D4
330
1F
100
AcDbEntity
  8
0
  6
SLD-Solid
 62
     7
370
    25
100
AcDbLine
 10
70.4440565287
 20
31.6131961523
 30
0.0
 11
8.1878006726
 21
48.5331125038
 31
0.0
  0
LINE
  5
2D5
330
1F
100
AcDbEntity
  8
0
  6
SLD-Solid
 62
     7
370
    25
100
AcDbLine
 10
7.8589201222
 20
47.3230077217
 30
0.0
 11
70.1149137022
 21
30.4031626512
 31
0.0
  0
LINE
  5
2D6
330
1F
100
AcDbEntity
  8
0
  6
SLD-Solid
 62
     7
370
    25
100
AcDbLine
 10
70.5977728378
 20
30.2719318846
 30
0.0
 11
71.0994394406
 21
30.1355896514
 31
0.0
  0
SPLINE
  5
2D7
330
1F
100
AcDbEntity
  8
0
  6
SLD-Solid
 62
     7
370
    25
100
AcDbSpline
210
0.0
220
0.0
230
1.0
 70
     8
 71
     3
 72
    21
 73
    17
 74
     0
 42
0.00000001
 43
0.00000001
 40
0.0
 40
0.0
 40
0.0
 40
0.0
 40
0.0192459515699095
 40
0.0909959172938724
 40
0.162759293092629
 40
0.2361855675245868
 40
0.3125741268751734
 40
0.3922831240622557
 40
0.474620087845618
 40
0.5583394267320791
 40
0.6423220006721005
 40
0.7259802317064888
 40
0.8092044101407295
 40
0.8920174930239309
 40
0.9744850666590023
 40
1.0
 40
1.0
 40
1.0
 40
1.0
 10
7.591916061968114
 20
46.49223456813574
 30
0.0
 10
7.597265274804399
 20
46.49031576453125
 30
0.0
 10
7.622556647229919
 20
46.48124355558059
 30
0.0
 10
7.671122953240039
 20
46.47719639253551
 30
0.0
 10
7.735642218153111
 20
46.48036729269016
 30
0.0
 10
7.801325563035722
 20
46.49617280066219
 30
0.0
 10
7.868059798972411
 20
46.52345896098793
 30
0.0
 10
7.935993362255759
 20
46.56291238719787
 30
0.0
 10
8.004637727651193
 20
46.61454886769343
 30
0.0
 10
8.07315159841292
 20
46.67794988457099
 30
0.0
 10
8.140636613680552
 20
46.75217294236035
 30
0.0
 10
8.206376938064365
 20
46.8362085438516
 30
0.0
 10
8.269982709782797
 20
46.92894524628007
 30
0.0
 10
8.33079633056069
 20
47.030120482689
 30
0.0
 10
8.376124049196505
 20
47.11232233091948
 30
0.0
 10
8.39996485415868
 20
47.16256146306473
 30
0.0
 10
8.405598142053547
 20
47.17443234978233
 30
0.0
  0
SPLINE
  5
2D8
330
1F
100
AcDbEntity
  8
0
  6
SLD-Solid
 62
     7
370
    25
100
AcDbSpline
210
0.0
220
0.0
230
1.0
 70
     8
 71
     3
 72
    21
 73
    17
 74
     0
 42
0.00000001
 43
0.00000001
 40
0.0
 40
0.0
 40
0.0
 40
0.0
 40
0.0114674686468096
 40
0.0936429563603747
 40
0.1760692329779004
 40
0.2588200693265815
 40
0.3419798353330354
 40
0.4256352331503036
 40
0.5098466610662659
 40
0.5945709005446554
 40
0.6793652794231525
 40
0.7630567308957813
 40
0.8357706233615508
 40
0.9132684723771076
 40
0.9874152716893293
 40
1.0
 40
1.0
 40
1.0
 40
1.0
 10
8.734740968557178
 20
48.38446585081897
 30
0.0
 10
8.735291177590197
 20
48.39036440952385
 30
0.0
 10
8.739784165716456
 20
48.43853183796022
 30
0.0
 10
8.742557865775398
 20
48.52548445079137
 30
0.0
 10
8.742535762656104
 20
48.64396477781767
 30
0.0
 10
8.735778672363963
 20
48.75663525882076
 30
0.0
 10
8.722899836391091
 20
48.86316063190045
 30
0.0
 10
8.70355011841354
 20
48.96269607006819
 30
0.0
 10
8.677571460865
 20
49.05457814890303
 30
0.0
 10
8.64468072294889
 20
49.13799012138735
 30
0.0
 10
8.604684649397404
 20
49.21188778940124
 30
0.0
 10
8.559199868232215
 20
49.27268925401557
 30
0.0
 10
8.508043501080602
 20
49.322392041094
 30
0.0
 10
8.452074868770623
 20
49.35874762916335
 30
0.0
 10
8.407577242619395
 20
49.37975984878526
 30
0.0
 10
8.382388621786726
 20
49.38427803451024
 30
0.0
 10
8.37873375765152
 20
49.38493362240733
 30
0.0
  0
LINE
  5
2D9
330
1F
100
AcDbEntity
  8
0
  6
SLD-Solid
 62
     7
370
    25
100
AcDbLine
 10
7.1923771675
 20
46.5994927012
 30
0.0
 11
7.5956718309
 21
46.4898858532
 31
0.0
  0
LINE
  5
2DA
330
1F
100
AcDbEntity
  8
0
  6
SLD-Solid
 62
     7
370
    25
100
AcDbLine
 10
8.382467406
 20
49.3848733701
 30
0.0
 11
7.9791727425
 21
49.4944802181
 31
0.0
  0
SPLINE
  5
2DB
330
1F
100
AcDbEntity
  8
0
  6
SLD-Solid
 62
     7
370
    25
100
AcDbSpline
210
0.0
220
0.0
230
1.0
 70
     8
 71
     3
 72
    19
 73
    15
 74
     0
 42
0.00000001
 43
0.00000001
 40
0.0
 40
0.0
 40
0.0
 40
0.0
 40
0.0559687513876622
 40
0.1282793472515509
 40
0.2050615546783646
 40
0.2872937394949028
 40
0.3740233339347598
 40
0.4638503446948384
 40
0.5554705246396672
 40
0.6477878122580352
 40
0.7396623330819772
 40
0.8299574712701601
 40
0.9175241812957123
 40
1.0
 40
1.0
 40
1.0
 40
1.0
 10
7.949015861613379
 20
48.61785404528953
 30
0.0
 10
7.948359162511492
 20
48.61897866772122
 30
0.0
 10
7.946854020266182
 20
48.62155628161944
 30
0.0
 10
7.941272595851444
 20
48.6392120891802
 30
0.0
 10
7.93710033610981
 20
48.66755935547519
 30
0.0
 10
7.93578557368274
 20
48.70612066508701
 30
0.0
 10
7.938800176357657
 20
48.75268179049628
 30
0.0
 10
7.946692708315521
 20
48.80476187270651
 30
0.0
 10
7.959481788939814
 20
48.85921921244672
 30
0.0
 10
7.976593955044923
 20
48.9127593275122
 30
0.0
 10
7.997022551848887
 20
48.9622318685856
 30
0.0
 10
8.019064254290342
 20
49.00432290170452
 30
0.0
 10
8.04117032854962
 20
49.03751056054487
 30
0.0
 10
8.053120995792165
 20
49.05029339653871
 30
0.0
 10
8.058917434319945
 20
49.05649346232125
 30
0.0
  0
SPLINE
  5
2DC
330
1F
100
AcDbEntity
  8
0
  6
SLD-Solid
 62
     7
370
    25
100
AcDbSpline
210
0.0
220
0.0
230
1.0
 70
     8
 71
     3
 72
     9
 73
     5
 74
     0
 42
0.00000001
 43
0.00000001
 40
0.0
 40
0.0
 40
0.0
 40
0.0
 40
0.494457583125688
 40
1.0
 40
1.0
 40
1.0
 40
1.0
 10
8.058917434319945
 20
49.05649346232125
 30
0.0
 10
8.06179500142719
 20
49.05910442346528
 30
0.0
 10
8.067614645427893
 20
49.06438487872198
 30
0.0
 10
8.06919180377906
 20
49.06518516445764
 30
0.0
 10
8.069989124223705
 20
49.06558974284263
 30
0.0
  0
SPLINE
  5
2DD
330
1F
100
AcDbEntity
  8
0
  6
SLD-Solid
 62
     7
370
    25
100
AcDbSpline
210
0.0
220
0.0
230
1.0
 70
     8
 71
     3
 72
    19
 73
    15
 74
     0
 42
0.00000001
 43
0.00000001
 40
0.0
 40
0.0
 40
0.0
 40
0.0
 40
0.055968751387659
 40
0.128279347251548
 40
0.2050615546783633
 40
0.2872937394949007
 40
0.3740233339347571
 40
0.4638503446948363
 40
0.5554705246396654
 40
0.6477878122580333
 40
0.7396623330819758
 40
0.8299574712701597
 40
0.9175241812957118
 40
1.0
 40
1.0
 40
1.0
 40
1.0
 10
7.949015861613383
 20
46.79723069859819
 30
0.0
 10
7.948359162511501
 20
46.7983553210299
 30
0.0
 10
7.946854020266204
 20
46.80093293492811
 30
0.0
 10
7.941272595851444
 20
46.81858874248887
 30
0.0
 10
7.937100336109824
 20
46.84693600878385
 30
0.0
 10
7.93578557368274
 20
46.88549731839568
 30
0.0
 10
7.938800176357665
 20
46.93205844380494
 30
0.0
 10
7.946692708315538
 20
46.98413852601518
 30
0.0
 10
7.959481788939814
 20
47.03859586575539
 30
0.0
 10
7.976593955044923
 20
47.09213598082088
 30
0.0
 10
7.9970225518489
 20
47.14160852189427
 30
0.0
 10
8.019064254290354
 20
47.18369955501318
 30
0.0
 10
8.04117032854963
 20
47.21688721385355
 30
0.0
 10
8.05312099579217
 20
47.22967004984738
 30
0.0
 10
8.058917434319953
 20
47.23587011562992
 30
0.0
  0
SPLINE
  5
2DE
330
1F
100
AcDbEntity
  8
0
  6
SLD-Solid
 62
     7
370
    25
100
AcDbSpline
210
0.0
220
0.0
230
1.0
 70
     8
 71
     3
 72
     9
 73
     5
 74
     0
 42
0.00000001
 43
0.00000001
 40
0.0
 40
0.0
 40
0.0
 40
0.0
 40
0.4944575831256245
 40
1.0
 40
1.0
 40
1.0
 40
1.0
 10
8.058917434319953
 20
47.23587011562992
 30
0.0
 10
8.061795001427194
 20
47.23848107677394
 30
0.0
 10
8.067614645427906
 20
47.24376153203065
 30
0.0
 10
8.069191803779077
 20
47.2445618177663
 30
0.0
 10
8.069989124223714
 20
47.2449663961513
 30
0.0
  0
LINE
  5
2DF
330
1F
100
AcDbEntity
  8
0
  6
SLD-Solid
 62
     7
370
    25
100
AcDbLine
 10
71.6572775033
 20
32.1881358009
 30
0.0
 11
71.2539828398
 21
32.2977426488
 31
0.0
  0
LINE
  5
2E0
330
1F
100
AcDbEntity
  8
0
  6
SLD-Solid
 62
     7
370
    25
100
AcDbLine
 10
70.4671872647
 20
29.4027551319
 30
0.0
 11
70.8704819282
 21
29.2931482839
 31
0.0
  0
SPLINE
  5
2E1
330
1F
100
AcDbEntity
  8
0
  6
SLD-Solid
 62
     7
370
    25
100
AcDbSpline
210
0.0
220
0.0
230
1.0
 70
     8
 71
     3
 72
    43
 73
    39
 74
     0
 42
0.00000001
 43
0.00000001
 40
0.0
 40
0.0
 40
0.0
 40
0.0
 40
0.006177470491069
 40
0.0320473466482258
 40
0.0579220578874719
 40
0.0843963371023791
 40
0.111938685733263
 40
0.1406782379411925
 40
0.1703653191089623
 40
0.2005508238280044
 40
0.2308312395085657
 40
0.2609947114287164
 40
0.2910016831066958
 40
0.320860431842868
 40
0.3505946051681667
 40
0.3802300220576522
 40
0.4097903007059318
 40
0.4392959695524916
 40
0.4687648120992731
 40
0.4982125815378763
 40
0.5276537845000128
 40
0.557100518276277
 40
0.5865642827308675
 40
0.61606009694174
 40
0.6456046067566213
 40
0.6752169585824701
 40
0.7049196834558636
 40
0.7347393650667813
 40
0.7647064065441861
 40
0.7948520514466058
 40
0.8251980646019731
 40
0.8557288719925747
 40
0.8862849544700742
 40
0.9164435914892052
 40
0.9426464097046405
 40
0.9705731508125772
 40
0.9972923242435573
 40
1.0
 40
1.0
 40
1.0
 40
1.0
 10
71.25596780154514
 20
32.29599241765758
 30
0.0
 10
71.25120368506693
 20
32.29769280158468
 30
0.0
 10
71.22648850553344
 20
32.30651401622679
 30
0.0
 10
71.1785234596572
 20
32.31040189844251
 30
0.0
 10
71.11401472017315
 20
32.30726950095536
 30
0.0
 10
71.04832846446757
 20
32.29145336669185
 30
0.0
 10
70.98159506748539
 20
32.26417018348876
 30
0.0
 10
70.91366120461878
 20
32.2247160270757
 30
0.0
 10
70.84501716062233
 20
32.17307929369135
 30
0.0
 10
70.77650229547098
 20
32.10968009724231
 30
0.0
 10
70.7090209463301
 20
32.03544998134273
 30
0.0
 10
70.64326702469783
 20
31.95144065185109
 30
0.0
 10
70.57971161361748
 20
31.85860661969963
 30
0.0
 10
70.51871140086658
 20
31.75779200782944
 30
0.0
 10
70.46061050068617
 20
31.64983321342368
 30
0.0
 10
70.40575795295543
 20
31.53559260002193
 30
0.0
 10
70.35450685303884
 20
31.41597307147774
 30
0.0
 10
70.30720723310033
 20
31.29192028492252
 30
0.0
 10
70.26419797288665
 20
31.16441819912945
 30
0.0
 10
70.22579957475003
 20
31.0344810829316
 30
0.0
 10
70.19230906874506
 20
30.90314648545872
 30
0.0
 10
70.16399536287469
 20
30.77146560720813
 30
0.0
 10
70.14109484671064
 20
30.64048753424707
 30
0.0
 10
70.12380998998553
 20
30.51124400148949
 30
0.0
 10
70.1123108049919
 20
30.38473599850701
 30
0.0
 10
70.106739096105
 20
30.26192533541629
 30
0.0
 10
70.10721528253994
 20
30.14372265041053
 30
0.0
 10
70.11384999594051
 20
30.0309773468253
 30
0.0
 10
70.12676185829056
 20
29.92447215582673
 30
0.0
 10
70.14610266153994
 20
29.82493130991834
 30
0.0
 10
70.17208368512041
 20
29.73305051556301
 30
0.0
 10
70.20497395605622
 20
29.64963886741941
 30
0.0
 10
70.24496951323557
 20
29.57573861294392
 30
0.0
 10
70.29045668693557
 20
29.51494661587414
 30
0.0
 10
70.34160496288135
 20
29.46521227666447
 30
0.0
 10
70.39760434114778
 20
29.42897646122712
 30
0.0
 10
70.44064939093761
 20
29.40830666691023
 30
0.0
 10
70.46433759042353
 20
29.4039445405487
 30
0.0
 10
70.46651723130365
 20
29.40354316479418
 30
0.0
  0
LINE
  5
2E2
330
1F
100
AcDbEntity
  8
0
  6
SLD-Solid
 62
     7
370
    25
100
AcDbLine
 10
70.7870964401
 20
29.6681550128
 30
0.0
 11
70.9274603927
 21
29.7508583414
 31
0.0
  0
LINE
  5
2E3
330
1F
100
AcDbEntity
  8
0
  6
SLD-Solid
 62
     7
370
    25
100
AcDbLine
 10
71.0139666014
 20
30.0691549896
 30
0.0
 11
70.9552103682
 21
30.1747880228
 31
0.0
  0
LINE
  5
2E4
330
1F
100
AcDbEntity
  8
0
  6
SLD-Solid
 62
     7
370
    25
100
AcDbLine
 10
72.0862690289
 20
31.3506081686
 30
0.0
 11
72.1816410602
 21
31.3599645744
 31
0.0
  0
LINE
  5
2E5
330
1F
100
AcDbEntity
  8
0
  6
SLD-Solid
 62
     7
370
    25
100
AcDbLine
 10
72.2026781148
 20
31.4373697
 30
0.0
 11
72.1251619667
 21
31.4937134085
 31
0.0
  0
LINE
  5
2E6
330
1F
100
AcDbEntity
  8
0
  6
SLD-Solid
 62
     7
370
    25
100
AcDbLine
 10
71.0086341161
 20
31.6426034581
 30
0.0
 11
72.0816942529
 21
31.3509687058
 31
0.0
  0
LINE
  5
2E7
330
1F
100
AcDbEntity
  8
0
  6
SLD-Solid
 62
     7
370
    25
100
AcDbLine
 10
72.1210340316
 20
31.4957180817
 30
0.0
 11
71.0922152467
 21
31.7753289825
 31
0.0
  0
SPLINE
  5
2E8
330
1F
100
AcDbEntity
  8
0
  6
SLD-Solid
 62
     7
370
    25
100
AcDbSpline
210
0.0
220
0.0
230
1.0
 70
     8
 71
     3
 72
    14
 73
    10
 74
     0
 42
0.00000001
 43
0.00000001
 40
0.0
 40
0.0
 40
0.0
 40
0.0
 40
0.0161507734350821
 40
0.2053435956823725
 40
0.3957995999602837
 40
0.5899852153012923
 40
0.7713140163201033
 40
0.9249564080582695
 40
1.0
 40
1.0
 40
1.0
 40
1.0
 10
8.038862464407693
 20
47.02063976692625
 30
0.0
 10
8.039231173128645
 20
47.02182844964742
 30
0.0
 10
8.043918996583143
 20
47.03694155770211
 30
0.0
 10
8.048146862766853
 20
47.06727713677569
 30
0.0
 10
8.050200667656451
 20
47.10758380057916
 30
0.0
 10
8.045381493010426
 20
47.14199922591366
 30
0.0
 10
8.034597797207708
 20
47.16683679713455
 30
0.0
 10
8.020522778104734
 20
47.18287330471535
 30
0.0
 10
8.009380897909013
 20
47.18509833828899
 30
0.0
 10
8.005724675969146
 20
47.18582848584273
 30
0.0
  0
SPLINE
  5
2E9
330
1F
100
AcDbEntity
  8
0
  6
SLD-Solid
 62
     7
370
    25
100
AcDbSpline
210
0.0
220
0.0
230
1.0
 70
     8
 71
     3
 72
    13
 73
     9
 74
     0
 42
0.00000001
 43
0.00000001
 40
0.0
 40
0.0
 40
0.0
 40
0.0
 40
0.0751741887254202
 40
0.2342790026950043
 40
0.4183461971027721
 40
0.6209955812915001
 40
0.8201158481775724
 40
1.0
 40
1.0
 40
1.0
 40
1.0
 10
7.936654087317491
 20
46.88039887304971
 30
0.0
 10
7.940225323356792
 20
46.88031107332218
 30
0.0
 10
7.951355016032679
 20
46.88003744705561
 30
0.0
 10
7.969108039322058
 20
46.89119245335539
 30
0.0
 10
7.990019988330526
 20
46.91129476021635
 30
0.0
 10
8.01019807670889
 20
46.94256894395591
 30
0.0
 10
8.02760891429859
 20
46.98033523563598
 30
0.0
 10
8.03524039120186
 20
47.00766733054441
 30
0.0
 10
8.038862464407693
 20
47.02063976692625
 30
0.0
  0
LINE
  5
2EA
330
1F
100
AcDbEntity
  8
0
  6
SLD-Solid
 62
     7
370
    25
100
AcDbLine
 10
6.8860791734
 20
47.4045576494
 30
0.0
 11
6.7679604178
 21
47.4366597962
 31
0.0
  0
LINE
  5
2EB
330
1F
100
AcDbEntity
  8
0
  6
SLD-Solid
 62
     7
370
    25
100
AcDbLine
 10
6.7286206391
 20
47.2919104204
 30
0.0
 11
6.8886968595
 21
47.2484051337
 31
0.0
  0
LINE
  5
2EC
330
1F
100
AcDbEntity
  8
0
  6
SLD-Solid
 62
     7
370
    25
100
AcDbLine
 10
6.7633856418
 20
47.4370203334
 30
0.0
 11
6.6680136105
 21
47.4276639276
 31
0.0
  0
LINE
  5
2ED
330
1F
100
AcDbEntity
  8
0
  6
SLD-Solid
 62
     7
370
    25
100
AcDbLine
 10
6.646976556
 20
47.350258802
 30
0.0
 11
6.724492704
 21
47.2939150936
 31
0.0
  0
LINE
  5
2EE
330
1F
100
AcDbEntity
  8
0
  6
SLD-Solid
 62
     7
370
    25
100
AcDbLine
 10
72.0862690289
 20
29.5299848219
 30
0.0
 11
72.1816410602
 21
29.5393412277
 31
0.0
  0
LINE
  5
2EF
330
1F
100
AcDbEntity
  8
0
  6
SLD-Solid
 62
     7
370
    25
100
AcDbLine
 10
72.2026781148
 20
29.6167463534
 30
0.0
 11
72.1251619667
 21
29.6730900618
 31
0.0
  0
LINE
  5
2F0
330
1F
100
AcDbEntity
  8
0
  6
SLD-Solid
 62
     7
370
    25
100
AcDbLine
 10
70.9540611477
 20
29.8368118749
 30
0.0
 11
72.0816942529
 21
29.5303453591
 31
0.0
  0
LINE
  5
2F1
330
1F
100
AcDbEntity
  8
0
  6
SLD-Solid
 62
     7
370
    25
100
AcDbLine
 10
72.1210340316
 20
29.675094735
 30
0.0
 11
70.9934009265
 21
29.9815612507
 31
0.0
  0
LINE
  5
2F2
330
1F
100
AcDbEntity
  8
0
  6
SLD-Solid
 62
     7
370
    25
100
AcDbLine
 10
70.933832467
 20
29.812646507
 30
0.0
 11
70.9657122037
 21
29.8314302495
 31
0.0
  0
LINE
  5
2F3
330
1F
100
AcDbEntity
  8
0
  6
SLD-Solid
 62
     7
370
    25
100
AcDbLine
 10
71.0061732079
 20
29.9803051363
 30
0.0
 11
70.9881868012
 21
30.012641428
 31
0.0
  0
SPLINE
  5
2F4
330
1F
100
AcDbEntity
  8
0
  6
SLD-Solid
 62
     7
370
    25
100
AcDbSpline
210
0.0
220
0.0
230
1.0
 70
     8
 71
     3
 72
    12
 73
     8
 74
     0
 42
0.00000001
 43
0.00000001
 40
0.0
 40
0.0
 40
0.0
 40
0.0
 40
0.2230522853757339
 40
0.4592908411198225
 40
0.7018539568640308
 40
0.9104852558724463
 40
1.0
 40
1.0
 40
1.0
 40
1.0
 10
8.04362251295524
 20
48.86247937248796
 30
0.0
 10
8.045727467531417
 20
48.87597366105773
 30
0.0
 10
8.050061816117834
 20
48.90375998540352
 30
0.0
 10
8.049094381757497
 20
48.94214975104508
 30
0.0
 10
8.041784852550812
 20
48.97271121658056
 30
0.0
 10
8.031535937006966
 20
48.9931753465707
 30
0.0
 10
8.02119523489238
 20
48.9990909664561
 30
0.0
 10
8.018090564127178
 20
49.0008670597922
 30
0.0
  0
SPLINE
  5
2F5
330
1F
100
AcDbEntity
  8
0
  6
SLD-Solid
 62
     7
370
    25
100
AcDbSpline
210
0.0
220
0.0
230
1.0
 70
     8
 71
     3
 72
    11
 73
     7
 74
     0
 42
0.00000001
 43
0.00000001
 40
0.0
 40
0.0
 40
0.0
 40
0.0
 40
0.1770294047500927
 40
0.5808812530288477
 40
0.9814710464770307
 40
1.0
 40
1.0
 40
1.0
 40
1.0
 10
8.008229354647554
 20
48.76320586459379
 30
0.0
 10
8.011130533435844
 20
48.7680526514104
 30
0.0
 10
8.020650083999685
 20
48.78395626698866
 30
0.0
 10
8.032650725110038
 20
48.81771703749449
 30
0.0
 10
8.041705561002205
 20
48.84730246116399
 30
0.0
 10
8.043541353809193
 20
48.86183681847881
 30
0.0
 10
8.043622512955237
 20
48.86247937248797
 30
0.0
  0
SPLINE
  5
2F6
330
1F
100
AcDbEntity
  8
0
  6
SLD-Solid
 62
     7
370
    25
100
AcDbSpline
210
0.0
220
0.0
230
1.0
 70
     8
 71
     3
 72
    12
 73
     8
 74
     0
 42
0.00000001
 43
0.00000001
 40
0.0
 40
0.0
 40
0.0
 40
0.0
 40
0.0993401053988613
 40
0.3253200765666734
 40
0.560786593263404
 40
0.8367855128080609
 40
1.0
 40
1.0
 40
1.0
 40
1.0
 10
7.923555678390803
 20
48.70220059867663
 30
0.0
 10
7.926701438147263
 20
48.70107228009727
 30
0.0
 10
7.937003207012171
 20
48.69737724992634
 30
0.0
 10
7.955930572901385
 20
48.70345618339732
 30
0.0
 10
7.976776275766089
 20
48.71792548326257
 30
0.0
 10
7.994728964648784
 20
48.73799784692304
 30
0.0
 10
8.004571723165432
 20
48.75637631085181
 30
0.0
 10
8.008229354647558
 20
48.76320586459379
 30
0.0
  0
LINE
  5
2F7
330
1F
100
AcDbEntity
  8
0
  6
SLD-Solid
 62
     7
370
    25
100
AcDbLine
 10
7.3888087679
 20
49.0885498646
 30
0.0
 11
6.7679604178
 21
49.2572831429
 31
0.0
  0
LINE
  5
2F8
330
1F
100
AcDbEntity
  8
0
  6
SLD-Solid
 62
     7
370
    25
100
AcDbLine
 10
6.7286206391
 20
49.1125337671
 30
0.0
 11
7.3075115243
 21
48.9552036286
 31
0.0
  0
LINE
  5
2F9
330
1F
100
AcDbEntity
  8
0
  6
SLD-Solid
 62
     7
370
    25
100
AcDbLine
 10
6.7633856418
 20
49.2576436801
 30
0.0
 11
6.6680136105
 21
49.2482872743
 31
0.0
  0
LINE
  5
2FA
330
1F
100
AcDbEntity
  8
0
  6
SLD-Solid
 62
     7
370
    25
100
AcDbLine
 10
6.646976556
 20
49.1708821487
 30
0.0
 11
6.724492704
 21
49.1145384403
 31
0.0
  0
LWPOLYLINE
  5
2FB
330
1F
100
AcDbEntity
  8
0
  6
SLD-Solid
 62
     7
370
    25
100
AcDbPolyline
 90
       43
 70
   128
 43
0.0
 10
70.9712617069
 20
30.4550378951
 10
70.9745300083
 20
30.5383297139
 10
70.984261904
 20
30.6261408558
 10
71.0002399996
 20
30.716509765
 10
71.0221073708
 20
30.8074177494
 10
71.0493755366
 20
30.8968340748
 10
71.0814353714
 20
30.9827613284
 10
71.1175707113
 20
31.0632800372
 10
71.1569743526
 20
31.1365915463
 10
71.1987660831
 20
31.2010581978
 10
71.2420123446
 20
31.2552399131
 10
71.2857470869
 20
31.2979263625
 10
71.3289933484
 20
31.3281640009
 10
71.3707850788
 20
31.3452773697
 10
71.4101887202
 20
31.3488841844
 10
71.4463240601
 20
31.3389038748
 10
71.4783838949
 20
31.3155593843
 10
71.5056520607
 20
31.2793721905
 10
71.5275194319
 20
31.2311506555
 10
71.5434975275
 20
31.1719719685
 10
71.5532294232
 20
31.1031580838
 10
71.5564977246
 20
31.0262461897
 10
71.5532294232
 20
30.9429543709
 10
71.5434975275
 20
30.855143229
 10
71.5275194319
 20
30.7647743198
 10
71.5056520607
 20
30.6738663354
 10
71.4783838949
 20
30.58445001
 10
71.4463240601
 20
30.4985227564
 10
71.4101887202
 20
30.4180040477
 10
71.3707850788
 20
30.3446925385
 10
71.3289933484
 20
30.2802258871
 10
71.2857470869
 20
30.2260441717
 10
71.2420123446
 20
30.1833577224
 10
71.1987660831
 20
30.1531200839
 10
71.1569743526
 20
30.1360067151
 10
71.1175707113
 20
30.1323999004
 10
71.0814353714
 20
30.1423802101
 10
71.0493755366
 20
30.1657247005
 10
71.0221073708
 20
30.2019118943
 10
71.0002399996
 20
30.2501334293
 10
70.984261904
 20
30.3093121163
 10
70.9745300083
 20
30.3781260011
 10
70.9712617069
 20
30.4550378951
  0
LWPOLYLINE
  5
2FC
330
1F
100
AcDbEntity
  8
0
  6
SLD-Solid
 62
     7
370
    25
100
AcDbPolyline
 90
       41
 70
   128
 43
0.0
 10
70.9908629132
 20
30.4741692734
 10
70.9942242031
 20
30.5558929427
 10
71.0042253066
 20
30.6421657479
 10
71.0206199635
 20
30.7308633663
 10
71.0430044828
 20
30.8198017681
 10
71.0708276833
 20
30.9067909949
 10
71.1034044656
 20
30.9896890829
 10
71.1399326811
 20
31.0664548063
 10
71.179512884
 20
31.1351979382
 10
71.2211704783
 20
31.1942257944
 10
71.2638797157
 20
31.2420849133
 10
71.3065889532
 20
31.2775968445
 10
71.3482465475
 20
31.2998871665
 10
71.3878267504
 20
31.3084070175
 10
71.4243549659
 20
31.3029466104
 10
71.4569317482
 20
31.2836403988
 10
71.4847549487
 20
31.2509637654
 10
71.507139468
 20
31.2057213176
 10
71.5235341248
 20
31.1490270746
 10
71.5335352284
 20
31.0822770367
 10
71.5368965183
 20
31.0071148114
 10
71.5335352284
 20
30.9253911422
 10
71.5235341248
 20
30.8391183369
 10
71.507139468
 20
30.7504207185
 10
71.4847549487
 20
30.6614823167
 10
71.4569317482
 20
30.57449309
 10
71.4243549659
 20
30.4915950019
 10
71.3878267504
 20
30.4148292785
 10
71.3482465475
 20
30.3460861466
 10
71.3065889532
 20
30.2870582904
 10
71.2638797157
 20
30.2391991715
 10
71.2211704783
 20
30.2036872403
 10
71.179512884
 20
30.1813969183
 10
71.1399326811
 20
30.1728770674
 10
71.1034044656
 20
30.1783374744
 10
71.0708276833
 20
30.1976436861
 10
71.0430044828
 20
30.2303203194
 10
71.0206199635
 20
30.2755627672
 10
71.0042253066
 20
30.3322570102
 10
70.9942242031
 20
30.3990070481
 10
70.9908629132
 20
30.4741692734
  0
LINE
  5
2FD
330
1F
100
AcDbEntity
  8
0
  6
SLD-Solid
 62
     7
370
    25
100
AcDbLine
 10
7.5956718309
 20
46.4898858532
 30
0.0
 11
7.5926176494
 21
46.4907376142
 31
0.0
  0
LWPOLYLINE
  5
2FE
330
1F
100
AcDbEntity
  8
0
  6
SLD-Solid
 62
     7
370
    25
100
AcDbPolyline
 90
       28
 70
   128
 43
0.0
 10
7.585774955
 20
49.3327374107
 10
7.5182110522
 20
49.2607906152
 10
7.4512779754
 20
49.1775108574
 10
7.3856006606
 20
49.0836756978
 10
7.3217923193
 20
48.9801612502
 10
7.2604487127
 20
48.8679340009
 10
7.2021425896
 20
48.7480417857
 10
7.1474183385
 20
48.6216040058
 10
7.0967869051
 20
48.4898011767
 10
7.0507210213
 20
48.3538639058
 10
7.0096507919
 20
48.215061403
 10
6.9739596786
 20
48.0746896296
 10
6.9439809197
 20
47.9340591993
 10
6.9199944188
 20
47.7944831403
 10
6.9022241314
 20
47.6572646368
 10
6.8908359738
 20
47.523684861
 10
6.8859362743
 20
47.3949910112
 10
6.88757078
 20
47.2723846672
 10
6.8957242299
 20
47.1570105715
 10
6.9103204975
 20
47.0499459408
 10
6.9312233014
 20
46.9521904088
 10
6.9582374777
 20
46.8646566926
 10
6.9911108024
 20
46.7881620708
 10
7.0295363461
 20
46.7234207532
 10
7.0731553397
 20
46.671037212
 10
7.1215605246
 20
46.6315005381
 10
7.1742999546
 20
46.605179875
 10
7.1923771675
 20
46.5994927012
  0
LWPOLYLINE
  5
2FF
330
1F
100
AcDbEntity
  8
0
  6
SLD-Solid
 62
     7
370
    25
100
AcDbPolyline
 90
        8
 70
   128
 43
0.0
 10
7.9791727425
 20
49.4944802181
 10
7.9694073204
 20
49.4969156845
 10
7.9111011973
 20
49.5029907726
 10
7.8497575907
 20
49.4954715406
 10
7.7859492494
 20
49.4744281937
 10
7.7202719346
 20
49.440057208
 10
7.6533388578
 20
49.392679496
 10
7.585774955
 20
49.3327374107
  0
LWPOLYLINE
  5
300
330
1F
100
AcDbEntity
  8
0
  6
SLD-Solid
 62
     7
370
    25
100
AcDbPolyline
 90
       31
 70
   128
 43
0.0
 10
8.0775114306
 20
49.1040200101
 10
8.1092488133
 20
49.1288700138
 10
8.1395991201
 20
49.1403806435
 10
8.167235897
 20
49.1380488295
 10
8.1909512841
 20
49.1219764831
 10
8.2097088052
 20
49.0928660432
 10
8.2226886668
 20
49.0519897755
 10
8.2293235865
 20
49.0011341692
 10
8.2293235865
 20
48.9425218582
 10
8.2226886668
 20
48.8787144818
 10
8.2097088052
 20
48.8125007286
 10
8.1909512841
 20
48.7467744572
 10
8.167235897
 20
48.6844082212
 10
8.1395991201
 20
48.6281277243
 10
8.1092488133
 20
48.5803926942
 10
8.0775114306
 20
48.543289381
 10
8.0457740479
 20
48.5184393773
 10
8.0154237411
 20
48.5069287476
 10
7.9877869643
 20
48.5092605616
 10
7.9640715772
 20
48.525332908
 10
7.945314056
 20
48.5544433479
 10
7.9323341945
 20
48.5953196156
 10
7.9256992748
 20
48.6461752219
 10
7.9256992748
 20
48.7047875329
 10
7.9323341945
 20
48.7685949093
 10
7.945314056
 20
48.8348086625
 10
7.9640715772
 20
48.9005349339
 10
7.9877869643
 20
48.9629011699
 10
8.0154237411
 20
49.0191816668
 10
8.0457740479
 20
49.0669166969
 10
8.0775114306
 20
49.1040200101
  0
LWPOLYLINE
  5
301
330
1F
100
AcDbEntity
  8
0
  6
SLD-Solid
 62
     7
370
    25
100
AcDbPolyline
 90
       20
 70
   128
 43
0.0
 10
8.0775114306
 20
48.4640730129
 10
8.0328208407
 20
48.4143024281
 10
7.9891285647
 20
48.353341238
 10
7.9474106159
 20
48.2825512149
 10
7.9085989043
 20
48.2035136908
 10
7.8735604195
 20
48.1179942335
 10
7.8430778632
 20
48.0279032063
 10
7.8178321654
 20
47.9352530938
 10
7.7983872733
 20
47.8421135466
 10
7.7851775536
 20
47.7505651482
 10
7.7784980896
 20
47.6626529385
 10
7.7784980896
 20
47.580340731
 10
7.7851775536
 20
47.5054672444
 10
7.7983872733
 20
47.4397050287
 10
7.8178321654
 20
47.3845231031
 10
7.8430778632
 20
47.3411541407
 10
7.8735604195
 20
47.3105669324
 10
7.9085989043
 20
47.2934447458
 10
7.9474106159
 20
47.2901700624
 10
7.9672221887
 20
47.2935735407
  0
LWPOLYLINE
  5
302
330
1F
100
AcDbEntity
  8
0
  6
SLD-Solid
 62
     7
370
    25
100
AcDbPolyline
 90
        7
 70
   128
 43
0.0
 10
8.296102739
 20
48.5036783227
 10
8.2814624418
 20
48.5161191121
 10
8.2464239569
 20
48.5332412986
 10
8.2076122453
 20
48.536515982
 10
8.1658942965
 20
48.5258700113
 10
8.1222020205
 20
48.5015411997
 10
8.0775114306
 20
48.4640730129
  0
LWPOLYLINE
  5
303
330
1F
100
AcDbEntity
  8
0
  6
SLD-Solid
 62
     7
370
    25
100
AcDbPolyline
 90
        3
 70
   128
 43
0.0
 10
8.2232354766
 20
48.5368934917
 10
8.2372415357
 20
48.5281374068
 10
8.2518818329
 20
48.5156966175
  0
LWPOLYLINE
  5
304
330
1F
100
AcDbEntity
  8
0
  6
SLD-Solid
 62
     7
370
    25
100
AcDbPolyline
 90
        3
 70
   128
 43
0.0
 10
7.9230012826
 20
47.3055918354
 10
7.9031897098
 20
47.3021883571
 10
7.8875664785
 20
47.3018108475
  0
LWPOLYLINE
  5
305
330
1F
100
AcDbEntity
  8
0
  6
SLD-Solid
 62
     7
370
    25
100
AcDbPolyline
 90
       49
 70
   128
 43
0.0
 10
71.2638797157
 20
29.4548910914
 10
71.196315813
 20
29.3949490061
 10
71.1293827361
 20
29.3475712941
 10
71.0637054214
 20
29.3132003083
 10
70.99989708
 20
29.2921569615
 10
70.9385534735
 20
29.2846377295
 10
70.8802473504
 20
29.2907128175
 10
70.8255230993
 20
29.310325504
 10
70.7748916658
 20
29.3432926707
 10
70.728825782
 20
29.389306512
 10
70.6877555527
 20
29.447937409
 10
70.6520644394
 20
29.5186379409
 10
70.6220856805
 20
29.6007479958
 10
70.5980991796
 20
29.6935009343
 10
70.5803288922
 20
29.7960307472
 10
70.5689407346
 20
29.9073801412
 10
70.5640410351
 20
30.0265094771
 10
70.5656755407
 20
30.1523064764
 10
70.5738289907
 20
30.2835966063
 10
70.5884252583
 20
30.4191540463
 10
70.6093280622
 20
30.5577131331
 10
70.6363422385
 20
30.6979801778
 10
70.6692155632
 20
30.8386455449
 10
70.7076411068
 20
30.9783958797
 10
70.7512601005
 20
31.115926371
 10
70.7996652854
 20
31.2499529336
 10
70.8524047154
 20
31.3792241976
 10
70.9089859765
 20
31.5025331921
 10
70.9688807849
 20
31.6187286143
 10
71.0315299188
 20
31.7267255786
 10
71.0963484402
 20
31.8255157467
 10
71.162731156
 20
31.9141767414
 10
71.2300582686
 20
31.9918807587
 10
71.2977011629
 20
32.0579022973
 10
71.3650282755
 20
32.1116249318
 10
71.4314109913
 20
32.1525470684
 10
71.4962295127
 20
32.1802866282
 10
71.5588786466
 20
32.1945846145
 10
71.618773455
 20
32.1953075306
 10
71.6753547161
 20
32.1824486271
 10
71.7280941461
 20
32.1561279639
 10
71.776499331
 20
32.1165912901
 10
71.8201183246
 20
32.0642077488
 10
71.8585438683
 20
31.9994664312
 10
71.891417193
 20
31.9229718095
 10
71.9184313693
 20
31.8354380932
 10
71.9393341732
 20
31.7376825613
 10
71.9539304408
 20
31.6306179306
 10
71.9609578112
 20
31.5392233684
  0
ARC
  5
306
330
1F
100
AcDbEntity
  8
0
  6
SLD-Solid
 62
     7
370
    25
100
AcDbCircle
 10
68.5032464247
 20
31.4909230177
 30
0.0
 40
3.462009442485144
100
AcDbArc
 50
331.3762010058
 51
358.2147726768
  0
ARC
  5
307
330
1F
100
AcDbEntity
  8
0
  6
SLD-Solid
 62
     7
370
    25
100
AcDbCircle
 10
70.2101257153
 20
30.5064005968
 30
0.0
 40
1.488646947235272
100
AcDbArc
 50
315.0610850091
 51
327.158336859
  0
LWPOLYLINE
  5
308
330
1F
100
AcDbEntity
  8
0
  6
SLD-Solid
 62
     7
370
    25
100
AcDbPolyline
 90
       48
 70
   128
 43
0.0
 10
71.2638797157
 20
29.4977494564
 10
71.197550702
 20
29.4389951731
 10
71.1318604729
 20
29.3927764606
 10
71.0674416612
 20
29.3595384306
 10
71.0049146555
 20
29.3396011833
 10
70.9448816248
 20
29.3331567254
 10
70.8879207201
 20
29.3402671204
 10
70.834580506
 20
29.3608638916
 10
70.7853746781
 20
29.3947486805
 10
70.7407771152
 20
29.4415951583
 10
70.7012173163
 20
29.5009521677
 10
70.6670762639
 20
29.5722480683
 10
70.638682755
 20
29.6547962415
 10
70.6163102346
 20
29.7478017035
 10
70.6001741623
 20
29.8503687606
 10
70.5904299373
 20
29.9615096361
 10
70.5871714018
 20
30.0801539825
 10
70.5904299373
 20
30.2051591901
 10
70.6001741623
 20
30.3353213902
 10
70.6163102346
 20
30.4693870498
 10
70.638682755
 20
30.6060650433
 10
70.6670762639
 20
30.7440390868
 10
70.7012173163
 20
30.881980415
 10
70.7407771152
 20
31.0185605773
 10
70.7853746781
 20
31.1524642322
 10
70.834580506
 20
31.2824018144
 10
70.8879207201
 20
31.4071219537
 10
70.9448816248
 20
31.5254235272
 10
71.0049146555
 20
31.636167226
 10
71.0674416612
 20
31.7382865277
 10
71.1318604729
 20
31.8307979676
 10
71.197550702
 20
31.9128106101
 10
71.2638797157
 20
31.9835346284
 10
71.3302087295
 20
32.0422889118
 10
71.3958989586
 20
32.0885076242
 10
71.4603177703
 20
32.1217456542
 10
71.522844776
 20
32.1416829015
 10
71.5828778067
 20
32.1481273594
 10
71.6398387114
 20
32.1410169644
 10
71.6931789255
 20
32.1204201933
 10
71.7423847534
 20
32.0865354043
 10
71.7869823163
 20
32.0396889265
 10
71.8265421152
 20
31.9803319171
 10
71.8606831676
 20
31.9090360165
 10
71.8890766765
 20
31.8264878433
 10
71.9114491969
 20
31.7334823814
 10
71.9275852692
 20
31.6309153242
 10
71.9356560931
 20
31.5460998332
  0
ARC
  5
309
330
1F
100
AcDbEntity
  8
0
  6
SLD-Solid
 62
     7
370
    25
100
AcDbCircle
 10
68.6320094361
 20
31.4559279902
 30
0.0
 40
3.309218508198018
100
AcDbArc
 50
330.7441873145
 51
358.8467863681
  0
ARC
  5
30A
330
1F
100
AcDbEntity
  8
0
  6
SLD-Solid
 62
     7
370
    25
100
AcDbCircle
 10
70.2658875482
 20
30.4954598457
 30
0.0
 40
1.411174825209893
100
AcDbArc
 50
315.0080897335
 51
325.9811038581
  0
LWPOLYLINE
  5
30B
330
1F
100
AcDbEntity
  8
0
  6
SLD-Solid
 62
     7
370
    25
100
AcDbPolyline
 90
       16
 70
   128
 43
0.0
 10
70.7870964401
 20
29.6681550128
 10
70.7858353099
 20
29.6674229446
 10
70.7567339681
 20
29.6570284365
 10
70.7304208671
 20
29.6604243906
 10
70.7081263783
 20
29.6774520159
 10
70.6908929673
 20
29.7073151196
 10
70.6795264491
 20
29.7486173362
 10
70.6745583096
 20
29.7994274198
 10
70.6762208533
 20
29.8573695475
 10
70.6844363417
 20
29.9197344097
 10
70.6988206276
 20
29.9836058949
 10
70.7187011178
 20
30.0459974434
 10
70.7431482227
 20
30.1039916956
 10
70.7710188227
 20
30.1548769048
 10
70.8010097197
 20
30.1962737353
 10
70.8161514528
 20
30.2125812563
  0
ARC
  5
30C
330
1F
100
AcDbEntity
  8
0
  6
SLD-Solid
 62
     7
370
    25
100
AcDbCircle
 10
70.9554698031
 20
31.3744338763
 30
0.0
 40
0.1114822867857609
100
AcDbArc
 50
44.5213627488
 51
107.0982790098
  0
ARC
  5
30D
330
1F
100
AcDbEntity
  8
0
  6
SLD-Solid
 62
     7
370
    25
100
AcDbCircle
 10
70.677092098
 20
30.3501521725
 30
0.0
 40
0.1114876125020133
100
AcDbArc
 50
222.4943580223
 51
285.0679475844
  0
LWPOLYLINE
  5
30E
330
1F
100
AcDbEntity
  8
0
  6
SLD-Solid
 62
     7
370
    25
100
AcDbPolyline
 90
        3
 70
   128
 43
0.0
 10
70.6618539981
 20
30.2545159983
 10
70.6420424254
 20
30.25111252
 10
70.6264191941
 20
30.2507350104
  0
LWPOLYLINE
  5
30F
330
1F
100
AcDbEntity
  8
0
  6
SLD-Solid
 62
     7
370
    25
100
AcDbPolyline
 90
        3
 70
   128
 43
0.0
 10
70.9620881922
 20
31.4858176546
 10
70.9760942512
 20
31.4770615697
 10
70.9907345485
 20
31.4646207804
  0
LWPOLYLINE
  5
310
330
1F
100
AcDbEntity
  8
0
  6
SLD-Solid
 62
     7
370
    25
100
AcDbPolyline
 90
        8
 70
   128
 43
0.0
 10
70.9446047738
 20
30.0698930853
 10
70.9680417548
 20
30.0865792032
 10
70.989580011
 20
30.0895353231
 10
71.007474641
 20
30.0785219577
 10
71.0202759282
 20
30.0544313443
 10
71.0269467885
 20
30.0192151612
 10
71.0269467885
 20
29.9757264141
 10
71.0266978917
 20
29.972511849
  0
LWPOLYLINE
  5
311
330
1F
100
AcDbEntity
  8
0
  6
SLD-Solid
 62
     7
370
    25
100
AcDbPolyline
 90
       15
 70
   128
 43
0.0
 10
70.9873581129
 20
29.8277624732
 10
70.9680417548
 20
29.7933761348
 10
70.9446047738
 20
29.7643118288
 10
70.9211677928
 20
29.7476257109
 10
70.8996295366
 20
29.744669591
 10
70.8817349067
 20
29.7556829564
 10
70.8689336195
 20
29.7797735698
 10
70.8622627591
 20
29.8149897529
 10
70.8622627591
 20
29.8584784999
 10
70.8689336195
 20
29.9067166114
 10
70.8817349067
 20
29.9557961223
 10
70.8996295366
 20
30.0017409025
 10
70.9211677928
 20
30.0408287793
 10
70.9446047738
 20
30.0698930853
 10
70.9446047738
 20
30.0698930853
  0
LWPOLYLINE
  5
312
330
1F
100
AcDbEntity
  8
0
  6
SLD-Solid
 62
     7
370
    25
100
AcDbPolyline
 90
       13
 70
   128
 43
0.0
 10
70.933832467
 20
29.812646507
 10
70.925722714
 20
29.809153101
 10
70.909390781
 20
29.8117856413
 10
70.8978146928
 20
29.8286418011
 10
70.8925578644
 20
29.8574450627
 10
70.8943302594
 20
29.894305386
 10
70.9028925063
 20
29.9342445801
 10
70.917088226
 20
29.9718686354
 10
70.9350002079
 20
30.0020962149
 10
70.9542093397
 20
30.0208449164
 10
70.9721213217
 20
30.025582624
 10
70.9863170414
 20
30.0156694838
 10
70.9881868012
 20
30.012641428
  0
LWPOLYLINE
  5
313
330
1F
100
AcDbEntity
  8
0
  6
SLD-Solid
 62
     7
370
    25
100
AcDbPolyline
 90
       17
 70
   128
 43
0.0
 10
72.2071233172
 20
31.4021552076
 10
72.2087333309
 20
31.4169681812
 10
72.2074618231
 20
31.4290923702
 10
72.2035023694
 20
31.4366819769
 10
72.1974577606
 20
31.4385815523
 10
72.1902482337
 20
31.4345019033
 10
72.1829713737
 20
31.4250641196
 10
72.1767350168
 20
31.4117050181
 10
72.1724885916
 20
31.3964584009
 10
72.1708785779
 20
31.3816454274
 10
72.1721500857
 20
31.3695212383
 10
72.1761095395
 20
31.3619316317
 10
72.1821541482
 20
31.3600320563
 10
72.1893636752
 20
31.3641117052
 10
72.1966405351
 20
31.373549489
 10
72.202876892
 20
31.3869085905
 10
72.2071233172
 20
31.4021552076
  0
LWPOLYLINE
  5
314
330
1F
100
AcDbEntity
  8
0
  6
SLD-Solid
 62
     7
370
    25
100
AcDbPolyline
 90
       10
 70
   128
 43
0.0
 10
72.0862690289
 20
31.3506081686
 10
72.0760424503
 20
31.3542448296
 10
72.0687222815
 20
31.3682763614
 10
72.0663715402
 20
31.3906913496
 10
72.0693481053
 20
31.4180773156
 10
72.0771988218
 20
31.4462649942
 10
72.0887284893
 20
31.4709630669
 10
72.1021818204
 20
31.4884114761
 10
72.1155106674
 20
31.4959538596
 10
72.1251619667
 20
31.4937134085
  0
LINE
  5
315
330
1F
100
AcDbEntity
  8
0
  6
SLD-Solid
 62
     7
370
    25
100
AcDbLine
 10
8.0205892364
 20
47.0246684392
 30
0.0
 11
8.026611579
 21
47.0807729303
 31
0.0
  0
LINE
  5
316
330
1F
100
AcDbEntity
  8
0
  6
SLD-Solid
 62
     7
370
    25
100
AcDbLine
 10
8.026611579
 20
47.0807729303
 30
0.0
 11
7.9987382006
 21
47.0648418736
 31
0.0
  0
LINE
  5
317
330
1F
100
AcDbEntity
  8
0
  6
SLD-Solid
 62
     7
370
    25
100
AcDbLine
 10
7.9987382006
 20
47.0648418736
 30
0.0
 11
8.0048765871
 21
47.1220274373
 31
0.0
  0
LINE
  5
318
330
1F
100
AcDbEntity
  8
0
  6
SLD-Solid
 62
     7
370
    25
100
AcDbLine
 10
8.0048765871
 20
47.1220274373
 30
0.0
 11
7.985084526
 21
47.1107152654
 31
0.0
  0
LINE
  5
319
330
1F
100
AcDbEntity
  8
0
  6
SLD-Solid
 62
     7
370
    25
100
AcDbLine
 10
7.9753048878
 20
47.0856669275
 30
0.0
 11
7.9713917584
 21
47.0492119879
 31
0.0
  0
LINE
  5
31A
330
1F
100
AcDbEntity
  8
0
  6
SLD-Solid
 62
     7
370
    25
100
AcDbLine
 10
7.9713917584
 20
47.0492119879
 30
0.0
 11
7.9619267887
 21
47.0438022753
 31
0.0
  0
LINE
  5
31B
330
1F
100
AcDbEntity
  8
0
  6
SLD-Solid
 62
     7
370
    25
100
AcDbLine
 10
7.9472158209
 20
46.9827317919
 30
0.0
 11
7.9653694158
 21
46.9931074968
 31
0.0
  0
LINE
  5
31C
330
1F
100
AcDbEntity
  8
0
  6
SLD-Solid
 62
     7
370
    25
100
AcDbLine
 10
7.9653694158
 20
46.9931074968
 30
0.0
 11
7.9592310293
 21
46.9359219331
 31
0.0
  0
LINE
  5
31D
330
1F
100
AcDbEntity
  8
0
  6
SLD-Solid
 62
     7
370
    25
100
AcDbLine
 10
7.9592310293
 20
46.9359219331
 30
0.0
 11
7.9865774715
 21
46.9515518189
 31
0.0
  0
LINE
  5
31E
330
1F
100
AcDbEntity
  8
0
  6
SLD-Solid
 62
     7
370
    25
100
AcDbLine
 10
7.9865774715
 20
46.9515518189
 30
0.0
 11
7.992715858
 21
47.0087373825
 31
0.0
  0
LINE
  5
31F
330
1F
100
AcDbEntity
  8
0
  6
SLD-Solid
 62
     7
370
    25
100
AcDbLine
 10
7.992715858
 20
47.0087373825
 30
0.0
 11
8.0205892364
 21
47.0246684392
 31
0.0
  0
LINE
  5
320
330
1F
100
AcDbEntity
  8
0
  6
SLD-Solid
 62
     7
370
    25
100
AcDbLine
 10
7.9504972728
 20
46.9971494266
 30
0.0
 11
7.9653694158
 21
46.9931074968
 31
0.0
  0
LWPOLYLINE
  5
321
330
1F
100
AcDbEntity
  8
0
  6
SLD-Solid
 62
     7
370
    25
100
AcDbPolyline
 90
        5
 70
   128
 43
0.0
 10
6.7141074757
 20
47.3447477511
 10
6.7138286923
 20
47.3193971199
 10
6.718796411
 20
47.3008802779
 10
6.7282543417
 20
47.2920162466
 10
6.7286206391
 20
47.2919104204
  0
LWPOLYLINE
  5
322
330
1F
100
AcDbEntity
  8
0
  6
SLD-Solid
 62
     7
370
    25
100
AcDbPolyline
 90
        6
 70
   128
 43
0.0
 10
6.7679604178
 20
47.4366597962
 10
6.7558184567
 20
47.4344157222
 10
6.7421641393
 20
47.4216007242
 10
6.7294425092
 20
47.4000599432
 10
6.7195903191
 20
47.3730727679
 10
6.7141074757
 20
47.3447477511
  0
LINE
  5
323
330
1F
100
AcDbEntity
  8
0
  6
SLD-Solid
 62
     7
370
    25
100
AcDbLine
 10
7.9737971043
 20
47.0716203292
 30
0.0
 11
7.9987382006
 21
47.0648418736
 31
0.0
  0
LINE
  5
324
330
1F
100
AcDbEntity
  8
0
  6
SLD-Solid
 62
     7
370
    25
100
AcDbLine
 10
7.9616363752
 20
46.9583302744
 30
0.0
 11
7.9865774715
 21
46.9515518189
 31
0.0
  0
LINE
  5
325
330
1F
100
AcDbEntity
  8
0
  6
SLD-Solid
 62
     7
370
    25
100
AcDbLine
 10
7.992715858
 20
47.0087373825
 30
0.0
 11
7.9555893211
 21
47.0188275797
 31
0.0
  0
LINE
  5
326
330
1F
100
AcDbEntity
  8
0
  6
SLD-Solid
 62
     7
370
    25
100
AcDbLine
 10
7.9609886745
 20
47.0408665948
 30
0.0
 11
8.0205892364
 21
47.0246684392
 31
0.0
  0
LWPOLYLINE
  5
327
330
1F
100
AcDbEntity
  8
0
  6
SLD-Solid
 62
     7
370
    25
100
AcDbPolyline
 90
        6
 70
   128
 43
0.0
 10
6.6413592222
 20
47.3777540094
 10
6.6443248731
 20
47.3930749123
 10
6.6496538883
 20
47.4076721813
 10
6.6565349738
 20
47.4193235147
 10
6.6639205464
 20
47.4262551025
 10
6.6680136105
 20
47.4276639276
  0
ARC
  5
328
330
1F
100
AcDbEntity
  8
0
  6
SLD-Solid
 62
     7
370
    25
100
AcDbCircle
 10
6.6706127276
 20
47.3694091467
 30
0.0
 40
0.0304204587850008
100
AcDbArc
 50
164.0786572535
 51
219.0148571998
  0
LWPOLYLINE
  5
329
330
1F
100
AcDbEntity
  8
0
  6
SLD-Solid
 62
     7
370
    25
100
AcDbPolyline
 90
       17
 70
   128
 43
0.0
 10
72.2082954485
 20
29.589251146
 10
72.2084462415
 20
29.6029632141
 10
72.2057592198
 20
29.6129789094
 10
72.200643458
 20
29.6177734331
 10
72.1938777845
 20
29.6166168623
 10
72.1864922119
 20
29.6096852745
 10
72.1796111264
 20
29.5980339411
 10
72.1742821112
 20
29.5834366721
 10
72.1713164603
 20
29.5681157692
 10
72.1711656673
 20
29.554403701
 10
72.173852689
 20
29.5443880058
 10
72.1789684508
 20
29.5395934821
 10
72.1857341243
 20
29.5407500529
 10
72.193119697
 20
29.5476816407
 10
72.2000007824
 20
29.559332974
 10
72.2053297977
 20
29.5739302431
 10
72.2082954485
 20
29.589251146
  0
LWPOLYLINE
  5
32A
330
1F
100
AcDbEntity
  8
0
  6
SLD-Solid
 62
     7
370
    25
100
AcDbPolyline
 90
       11
 70
   128
 43
0.0
 10
72.0862690289
 20
29.5299848219
 10
72.0813279555
 20
29.5304511854
 10
72.0718700248
 20
29.5393152167
 10
72.0669023061
 20
29.5578320586
 10
72.0671810895
 20
29.5831826899
 10
72.0726639329
 20
29.6115077067
 10
72.0825161229
 20
29.638494882
 10
72.0952377531
 20
29.6600356629
 10
72.1088920704
 20
29.672850661
 10
72.121400329
 20
29.6749889087
 10
72.1251619667
 20
29.6730900618
  0
LWPOLYLINE
  5
32B
330
1F
100
AcDbEntity
  8
0
  6
SLD-Solid
 62
     7
370
    25
100
AcDbPolyline
 90
       10
 70
   128
 43
0.0
 10
70.9934009265
 20
29.9815612507
 10
70.9812589653
 20
29.9793171767
 10
70.9676046479
 20
29.9665021787
 10
70.9548830178
 20
29.9449613977
 10
70.9450308277
 20
29.9179742224
 10
70.9395479844
 20
29.8896492056
 10
70.9392692009
 20
29.8642985743
 10
70.9442369196
 20
29.8457817324
 10
70.9536948504
 20
29.8369177011
 10
70.9540611477
 20
29.8368118749
  0
LWPOLYLINE
  5
32C
330
1F
100
AcDbEntity
  8
0
  6
SLD-Solid
 62
     7
370
    25
100
AcDbPolyline
 90
       13
 70
   128
 43
0.0
 10
71.0074575116
 20
29.9777409721
 10
71.0065175057
 20
29.9796691085
 10
70.9960038109
 20
29.9895226084
 10
70.9820992882
 20
29.9871456737
 10
70.9669207752
 20
29.9729001709
 10
70.9527790627
 20
29.9489548489
 10
70.9418270984
 20
29.9189551659
 10
70.9357322196
 20
29.8874683015
 10
70.9354223163
 20
29.8592878456
 10
70.9409445685
 20
29.838704017
 10
70.9514582633
 20
29.8288505171
 10
70.965362786
 20
29.8312274519
 10
70.9681177328
 20
29.8329915962
  0
LINE
  5
32D
330
1F
100
AcDbEntity
  8
0
  6
SLD-Solid
 62
     7
370
    25
100
AcDbLine
 10
8.0153079739
 20
48.8269543167
 30
0.0
 11
8.026625194
 21
48.8850426894
 31
0.0
  0
LINE
  5
32E
330
1F
100
AcDbEntity
  8
0
  6
SLD-Solid
 62
     7
370
    25
100
AcDbLine
 10
8.026625194
 20
48.8850426894
 30
0.0
 11
8.0005188331
 21
48.8807486495
 31
0.0
  0
LINE
  5
32F
330
1F
100
AcDbEntity
  8
0
  6
SLD-Solid
 62
     7
370
    25
100
AcDbLine
 10
8.0005188331
 20
48.8807486495
 30
0.0
 11
8.0120541237
 21
48.939956322
 31
0.0
  0
LINE
  5
330
330
1F
100
AcDbEntity
  8
0
  6
SLD-Solid
 62
     7
370
    25
100
AcDbLine
 10
8.0120541237
 20
48.939956322
 30
0.0
 11
7.9864412941
 21
48.9357434594
 31
0.0
  0
LINE
  5
331
330
1F
100
AcDbEntity
  8
0
  6
SLD-Solid
 62
     7
370
    25
100
AcDbLine
 10
7.9864412941
 20
48.9357434594
 30
0.0
 11
7.9749060035
 21
48.876535787
 31
0.0
  0
LINE
  5
332
330
1F
100
AcDbEntity
  8
0
  6
SLD-Solid
 62
     7
370
    25
100
AcDbLine
 10
7.9749060035
 20
48.876535787
 30
0.0
 11
7.9652913023
 21
48.8749543368
 31
0.0
  0
LINE
  5
333
330
1F
100
AcDbEntity
  8
0
  6
SLD-Solid
 62
     7
370
    25
100
AcDbLine
 10
7.9501359814
 20
48.8162346636
 30
0.0
 11
7.9635887834
 21
48.8184474143
 31
0.0
  0
LINE
  5
334
330
1F
100
AcDbEntity
  8
0
  6
SLD-Solid
 62
     7
370
    25
100
AcDbLine
 10
7.9635887834
 20
48.8184474143
 30
0.0
 11
7.9520534927
 21
48.7592397418
 31
0.0
  0
LINE
  5
335
330
1F
100
AcDbEntity
  8
0
  6
SLD-Solid
 62
     7
370
    25
100
AcDbLine
 10
7.9520534927
 20
48.7592397418
 30
0.0
 11
7.9776663223
 21
48.7634526044
 31
0.0
  0
LINE
  5
336
330
1F
100
AcDbEntity
  8
0
  6
SLD-Solid
 62
     7
370
    25
100
AcDbLine
 10
7.9776663223
 20
48.7634526044
 30
0.0
 11
7.9892016129
 21
48.8226602768
 31
0.0
  0
LINE
  5
337
330
1F
100
AcDbEntity
  8
0
  6
SLD-Solid
 62
     7
370
    25
100
AcDbLine
 10
7.9892016129
 20
48.8226602768
 30
0.0
 11
8.0153079739
 21
48.8269543167
 31
0.0
  0
LINE
  5
338
330
1F
100
AcDbEntity
  8
0
  6
SLD-Solid
 62
     7
370
    25
100
AcDbLine
 10
7.951431828
 20
48.8217514143
 30
0.0
 11
7.9635887834
 21
48.8184474143
 31
0.0
  0
LWPOLYLINE
  5
339
330
1F
100
AcDbEntity
  8
0
  6
SLD-Solid
 62
     7
370
    25
100
AcDbPolyline
 90
        5
 70
   128
 43
0.0
 10
6.7162744915
 20
49.1796423768
 10
6.7132979264
 20
49.1522564108
 10
6.7156486678
 20
49.1298414226
 10
6.7229688365
 20
49.1158098909
 10
6.7286206391
 20
49.1125337671
  0
LWPOLYLINE
  5
33A
330
1F
100
AcDbEntity
  8
0
  6
SLD-Solid
 62
     7
370
    25
100
AcDbPolyline
 90
        6
 70
   128
 43
0.0
 10
6.7679604178
 20
49.2572831429
 10
6.7624370536
 20
49.2575189209
 10
6.7491082066
 20
49.2499765374
 10
6.7356548755
 20
49.2325281282
 10
6.724125208
 20
49.2078300554
 10
6.7162744915
 20
49.1796423768
  0
LINE
  5
33B
330
1F
100
AcDbEntity
  8
0
  6
SLD-Solid
 62
     7
370
    25
100
AcDbLine
 10
7.954120999
 20
48.7698517187
 30
0.0
 11
7.9776663223
 21
48.7634526044
 31
0.0
  0
LINE
  5
33C
330
1F
100
AcDbEntity
  8
0
  6
SLD-Solid
 62
     7
370
    25
100
AcDbLine
 10
7.9769735098
 20
48.8871477639
 30
0.0
 11
8.0005188331
 21
48.8807486495
 31
0.0
  0
LINE
  5
33D
330
1F
100
AcDbEntity
  8
0
  6
SLD-Solid
 62
     7
370
    25
100
AcDbLine
 10
7.9892016129
 20
48.8226602768
 30
0.0
 11
7.9538989942
 21
48.8322547722
 31
0.0
  0
LINE
  5
33E
330
1F
100
AcDbEntity
  8
0
  6
SLD-Solid
 62
     7
370
    25
100
AcDbLine
 10
7.9564137
 20
48.8429605183
 30
0.0
 11
8.0153079739
 21
48.8269543167
 31
0.0
  0
LWPOLYLINE
  5
33F
330
1F
100
AcDbEntity
  8
0
  6
SLD-Solid
 62
     7
370
    25
100
AcDbPolyline
 90
        6
 70
   128
 43
0.0
 10
6.6425313535
 20
49.2060966411
 10
6.6467777787
 20
49.2213432583
 10
6.6530141356
 20
49.2347023598
 10
6.6602909956
 20
49.2441401435
 10
6.6675005225
 20
49.2482197924
 10
6.6680136105
 20
49.2482872743
  0
LWPOLYLINE
  5
340
330
1F
100
AcDbEntity
  8
0
  6
SLD-Solid
 62
     7
370
    25
100
AcDbPolyline
 90
        5
 70
   128
 43
0.0
 10
6.646976556
 20
49.1708821487
 10
6.6461523013
 20
49.1715698719
 10
6.6421928476
 20
49.1791594785
 10
6.6409213398
 20
49.1912836676
 10
6.6425313535
 20
49.2060966411
  0
LWPOLYLINE
  5
341
330
1F
100
AcDbEntity
  8
0
  6
SLD-Solid
 62
     8
370
    25
100
AcDbPolyline
 90
       38
 70
   128
 43
0.0
 10
8.0775114306
 20
49.1133772432
 10
8.0124564338
 20
49.0439183323
 10
7.9480479827
 20
48.963223256
 10
7.8849261976
 20
48.8720939983
 10
7.823718411
 20
48.7714362427
 10
7.7650329334
 20
48.6622503711
 10
7.7094530076
 20
48.5456215219
 10
7.6575310117
 20
48.4227088048
 10
7.6097829699
 20
48.2947337817
 10
7.5666834237
 20
48.162968326
 10
7.5286607157
 20
48.0287219818
 10
7.4960927327
 20
47.8933289497
 10
7.46930315
 20
47.7581348264
 10
7.4485582144
 20
47.6244832319
 10
7.4340640984
 20
47.4937024558
 10
7.4259648511
 20
47.3670922561
 10
7.4243409664
 20
47.245910942
 10
7.4292085832
 20
47.1313628677
 10
7.440519325
 20
47.0245864636
 10
7.4581607805
 20
46.9266429214
 10
7.4819576211
 20
46.8385056481
 10
7.5116733429
 20
46.7610505915
 10
7.5470126179
 20
46.6950475348
 10
7.5876242284
 20
46.641152446
 10
7.6331045581
 20
46.5999009587
 10
7.6830016029
 20
46.5717030487
 10
7.7368194636
 20
46.5568389595
 10
7.7940232741
 20
46.5554564172
 10
7.8540445173
 20
46.5675691619
 10
7.9162866751
 20
46.5930568119
 10
7.9801311569
 20
46.6316660595
 10
8.0449434476
 20
46.6830131885
 10
8.1100794136
 20
46.7465878881
 10
8.1748917044
 20
46.8217583245
 10
8.2387361862
 20
46.90777742
 10
8.300978344
 20
47.0037902782
 10
8.3609995872
 20
47.1088426802
 10
8.396287001
 20
47.1769629184
  0
LWPOLYLINE
  5
342
330
1F
100
AcDbEntity
  8
0
  6
SLD-Solid
 62
     8
370
    25
100
AcDbPolyline
 90
       19
 70
   128
 43
0.0
 10
8.7251675513
 20
48.3870677005
 10
8.725814278
 20
48.3968897752
 10
8.7306818949
 20
48.5209397359
 10
8.7290580102
 20
48.6389511276
 10
8.7209587629
 20
48.7497510999
 10
8.7064646469
 20
48.8522384729
 10
8.6857197113
 20
48.9453946812
 10
8.6589301285
 20
49.0282938963
 10
8.6263621455
 20
49.1001122288
 10
8.5883394375
 20
49.1601359158
 10
8.5452398913
 20
49.2077684148
 10
8.4974918495
 20
49.2425363327
 10
8.4455698536
 20
49.2640941303
 10
8.3899899278
 20
49.2722275566
 10
8.3313044503
 20
49.2668557778
 10
8.2700966637
 20
49.2480321812
 10
8.2069748785
 20
49.2159438441
 10
8.1425664275
 20
49.1709096748
 10
8.0775114306
 20
49.1133772432
  0
LWPOLYLINE
  5
343
330
1F
100
AcDbEntity
  8
0
  6
SLD-Solid
 62
     8
370
    25
100
AcDbPolyline
 90
        8
 70
   128
 43
0.0
 10
7.9890696185
 20
49.2231305627
 10
8.0566335212
 20
49.283072648
 10
8.1235665981
 20
49.33045036
 10
8.1892439128
 20
49.3648213457
 10
8.2530522542
 20
49.3858646926
 10
8.3143958607
 20
49.3933839246
 10
8.3727019838
 20
49.3873088366
 10
8.3798590941
 20
49.3855665317
  0
LWPOLYLINE
  5
344
330
1F
100
AcDbEntity
  8
0
  6
SLD-Solid
 62
     8
370
    25
100
AcDbPolyline
 90
       28
 70
   128
 43
0.0
 10
7.5926176494
 20
46.4907376142
 10
7.5775946181
 20
46.495573027
 10
7.5248551881
 20
46.5218936902
 10
7.4764500032
 20
46.561430364
 10
7.4328310096
 20
46.6138139052
 10
7.3944054659
 20
46.6785552228
 10
7.3615321412
 20
46.7550498446
 10
7.3345179649
 20
46.8425835608
 10
7.313615161
 20
46.9403390928
 10
7.2990188934
 20
47.0474037235
 10
7.2908654434
 20
47.1627778192
 10
7.2892309378
 20
47.2853841632
 10
7.2941306373
 20
47.414078013
 10
7.3055187949
 20
47.5476577889
 10
7.3232890823
 20
47.6848762924
 10
7.3472755832
 20
47.8244523513
 10
7.3772543421
 20
47.9650827817
 10
7.4129454554
 20
48.105454555
 10
7.4540156848
 20
48.2442570578
 10
7.5000815685
 20
48.3801943287
 10
7.550713002
 20
48.5119971578
 10
7.6054372531
 20
48.6384349377
 10
7.6637433762
 20
48.758327153
 10
7.7250869827
 20
48.8705544022
 10
7.7888953241
 20
48.9740688498
 10
7.8545726388
 20
49.0679040094
 10
7.9215057157
 20
49.1511837672
 10
7.9890696185
 20
49.2231305627
  0
LWPOLYLINE
  5
345
330
1F
100
AcDbEntity
  8
0
  6
SLD-Solid
 62
     8
370
    25
100
AcDbPolyline
 90
       25
 70
   128
 43
0.0
 10
8.2242092734
 20
47.2237299576
 10
8.2293235865
 20
47.1805108225
 10
8.2293235865
 20
47.1218985115
 10
8.2226886668
 20
47.0580911351
 10
8.2097088052
 20
46.9918773819
 10
8.1909512841
 20
46.9261511105
 10
8.167235897
 20
46.8637848745
 10
8.1395991201
 20
46.8075043776
 10
8.1092488133
 20
46.7597693475
 10
8.0775114306
 20
46.7226660343
 10
8.0457740479
 20
46.6978160306
 10
8.0154237411
 20
46.6863054009
 10
7.9877869643
 20
46.6886372149
 10
7.9640715772
 20
46.7047095613
 10
7.945314056
 20
46.7338200012
 10
7.9323341945
 20
46.7746962689
 10
7.9256992748
 20
46.8255518752
 10
7.9256992748
 20
46.8841641862
 10
7.9323341945
 20
46.9479715626
 10
7.945314056
 20
47.0141853158
 10
7.9640715772
 20
47.0799115872
 10
7.9877869643
 20
47.1422778232
 10
8.0154237411
 20
47.1985583201
 10
8.0457740479
 20
47.2462933502
 10
8.0627051671
 20
47.2676233131
  0
LWPOLYLINE
  5
346
330
1F
100
AcDbEntity
  8
0
  6
SLD-Solid
 62
     8
370
    25
100
AcDbPolyline
 90
       19
 70
   128
 43
0.0
 10
7.9500652896
 20
48.6157403941
 10
7.9504526093
 20
48.6150813636
 10
7.9692245404
 20
48.594485819
 10
7.9925218841
 20
48.5876891943
 10
8.0189906834
 20
48.5950864846
 10
8.0470926679
 20
48.6162477862
 10
8.0751946523
 20
48.6499432813
 10
8.1016634516
 20
48.6942147101
 10
8.1249607953
 20
48.7464891781
 10
8.1437327265
 20
48.8037286832
 10
8.1568882887
 20
48.8626066735
 10
8.1636629285
 20
48.9197013742
 10
8.1636629285
 20
48.9716946488
 10
8.1568882887
 20
49.0155648371
 10
8.1437327265
 20
49.0487623633
 10
8.1249607953
 20
49.0693579079
 10
8.1016634516
 20
49.0761545326
 10
8.0751946523
 20
49.0687572423
 10
8.0708053241
 20
49.0662970457
  0
LWPOLYLINE
  5
347
330
1F
100
AcDbEntity
  8
0
  6
SLD-Solid
 62
     8
370
    25
100
AcDbPolyline
 90
       17
 70
   128
 43
0.0
 10
7.9500652896
 20
46.7951170474
 10
7.9504526093
 20
46.7944580169
 10
7.9692245404
 20
46.7738624723
 10
7.9925218841
 20
46.7670658476
 10
8.0189906834
 20
46.7744631379
 10
8.0470926679
 20
46.7956244396
 10
8.0751946523
 20
46.8293199346
 10
8.1016634516
 20
46.8735913634
 10
8.1249607953
 20
46.9258658314
 10
8.1437327265
 20
46.9831053365
 10
8.1568882887
 20
47.0419833268
 10
8.1636629285
 20
47.0990780275
 10
8.1636629285
 20
47.1510713021
 10
8.1568882887
 20
47.1949414904
 10
8.1437327265
 20
47.2281390167
 10
8.1249607953
 20
47.2487345612
 10
8.1165619249
 20
47.2529862003
  0
ARC
  5
348
330
1F
100
AcDbEntity
  8
0
  6
SLD-Solid
 62
     8
370
    25
100
AcDbCircle
 10
8.102836095
 20
47.1971127701
 30
0.0
 40
0.0581733109197781
100
AcDbArc
 50
83.4073166306
 51
123.4088292722
  0
LWPOLYLINE
  5
349
330
1F
100
AcDbEntity
  8
0
  6
SLD-Solid
 62
     8
370
    25
100
AcDbPolyline
 90
       34
 70
   128
 43
0.0
 10
71.2539828398
 20
32.2977426488
 10
71.2154787915
 20
32.3049143786
 10
71.1555839831
 20
32.3041914624
 10
71.0929348492
 20
32.2898934762
 10
71.0281163278
 20
32.2621539164
 10
70.961733612
 20
32.2212317797
 10
70.8944064994
 20
32.1675091453
 10
70.8267636051
 20
32.1014876067
 10
70.7594364925
 20
32.0237835894
 10
70.6930537767
 20
31.9351225947
 10
70.6282352554
 20
31.8363324266
 10
70.5655861214
 20
31.7283354622
 10
70.505691313
 20
31.6121400401
 10
70.4491100519
 20
31.4888310456
 10
70.3963706219
 20
31.3595597815
 10
70.347965437
 20
31.2255332189
 10
70.3043464434
 20
31.0880027277
 10
70.2659208997
 20
30.9482523929
 10
70.233047575
 20
30.8075870258
 10
70.2060333987
 20
30.6673199811
 10
70.1851305948
 20
30.5287608943
 10
70.1705343272
 20
30.3932034542
 10
70.1623808773
 20
30.2619133243
 10
70.1607463716
 20
30.1361163251
 10
70.1656460711
 20
30.0169869892
 10
70.1770342287
 20
29.9056375951
 10
70.1948045161
 20
29.8031077822
 10
70.218791017
 20
29.7103548437
 10
70.2487697759
 20
29.6282447888
 10
70.2844608892
 20
29.557544257
 10
70.3255311186
 20
29.4989133599
 10
70.3715970023
 20
29.4528995187
 10
70.4222284358
 20
29.419932352
 10
70.4671872647
 20
29.4027551319
  0
ARC
  5
34A
330
1F
100
AcDbEntity
  8
0
  6
SLD-Solid
 62
     8
370
    25
100
AcDbCircle
 10
70.165193431
 20
30.356136171
 30
0.0
 40
1.021766485978281
100
AcDbArc
 50
302.0551687401
 51
328.058138054
  0
ARC
  5
34B
330
1F
100
AcDbEntity
  8
0
  6
SLD-Solid
 62
     8
370
    25
100
AcDbCircle
 10
68.8583766971
 20
31.2539109586
 30
0.0
 40
2.607824963347186
100
AcDbArc
 50
329.9565830624
 51
335.5877265366
  0
ARC
  5
34C
330
1F
100
AcDbEntity
  8
0
  6
SLD-Solid
 62
     8
370
    25
100
AcDbCircle
 10
68.8353416792
 20
31.5208068521
 30
0.0
 40
2.702009860061973
100
AcDbArc
 50
354.1014654929
 51
359.5361722734
  0
ARC
  5
34D
330
1F
100
AcDbEntity
  8
0
  6
SLD-Solid
 62
     8
370
    25
100
AcDbCircle
 10
70.5247668774
 20
31.6319539712
 30
0.0
 40
1.007874482709878
100
AcDbArc
 50
1.3504221656
 51
27.7182184056
  0
ARC
  5
34E
330
1F
100
AcDbEntity
  8
0
  6
SLD-Solid
 62
     8
370
    25
100
AcDbCircle
 10
70.3334813169
 20
30.1393374953
 30
0.0
 40
0.6788258690593081
100
AcDbArc
 50
300.2347570395
 51
315.3448671379
  0
ARC
  5
34F
330
1F
100
AcDbEntity
  8
0
  6
SLD-Solid
 62
     8
370
    25
100
AcDbCircle
 10
70.477794386
 20
31.6175415208
 30
0.0
 40
0.9860317663669477
100
AcDbArc
 50
3.3281475671
 51
26.8541732591
  0
LWPOLYLINE
  5
350
330
1F
100
AcDbEntity
  8
0
  6
SLD-Solid
 62
     8
370
    25
100
AcDbPolyline
 90
        3
 70
   128
 43
0.0
 10
71.4696690745
 20
31.5173040352
 10
71.4679107257
 20
31.4085179512
 10
71.4634985022
 20
31.3284455405
  0
ARC
  5
351
330
1F
100
AcDbEntity
  8
0
  6
SLD-Solid
 62
     8
370
    25
100
AcDbCircle
 10
68.9639114563
 20
31.2076753578
 30
0.0
 40
2.425806208955969
100
AcDbArc
 50
329.230227653
 51
333.6944374798
  0
LINE
  5
352
330
1F
100
AcDbEntity
  8
0
  6
SLD-Solid
 62
     8
370
    25
100
AcDbLine
 10
70.8669440818
 20
29.7152017483
 30
0.0
 11
70.8163641462
 21
29.6622329641
 31
0.0
  0
LWPOLYLINE
  5
353
330
1F
100
AcDbEntity
  8
0
  6
SLD-Solid
 62
     8
370
    25
100
AcDbPolyline
 90
       12
 70
   128
 43
0.0
 10
7.9366511194
 20
46.8995606331
 10
7.9529768264
 20
46.8940876518
 10
7.9733813158
 20
46.9024333476
 10
7.9947256043
 20
46.9244917609
 10
8.014696707
 20
46.9578725202
 10
8.0311304452
 20
46.9989583023
 10
8.0422459682
 20
47.0432968253
 10
8.0468387368
 20
47.0860833222
 10
8.044411053
 20
47.1226812121
 10
8.0352259943
 20
47.1491245458
 10
8.0202789041
 20
47.1625477779
 10
8.0087059428
 20
47.1636139581
  0
LWPOLYLINE
  5
354
330
1F
100
AcDbEntity
  8
0
  6
SLD-Solid
 62
     8
370
    25
100
AcDbPolyline
 90
       13
 70
   128
 43
0.0
 10
7.9372377431
 20
48.7197139594
 10
7.9420716301
 20
48.7167485953
 10
7.9608250902
 20
48.7162922225
 10
7.9818790114
 20
48.7302816026
 10
8.0029518744
 20
48.7572007691
 10
8.0217601078
 20
48.7941326128
 10
8.0362655474
 20
48.8370749953
 10
8.044896304
 20
48.8813744431
 10
8.046717101
 20
48.9222304237
 10
8.0415306269
 20
48.9552155577
 10
8.0298989166
 20
48.9767553939
 10
8.0130824464
 20
48.9845157568
 10
8.0087963719
 20
48.9842505671
  0
INSERT
  5
35A
330
1F
100
AcDbEntity
  8
NOTES
100
AcDbBlockReference
  2
SW_NOTE_0_2
 10
6.7882953005
 20
44.5816625661
 30
0.0
  0
LINE
  5
35B
330
1F
100
AcDbEntity
  8
0
  6
SLD-Solid
 62
     7
370
    25
100
AcDbLine
 10
71.656711538
 20
39.5772578293
 30
0.0
 11
7.9786067772
 21
56.8836022465
 31
0.0
  0
LINE
  5
35C
330
1F
100
AcDbEntity
  8
0
  6
SLD-Solid
 62
     7
370
    25
100
AcDbLine
 10
7.6497262268
 20
55.6734974644
 30
0.0
 11
71.3278309876
 21
38.3671530472
 31
0.0
  0
SPLINE
  5
35D
330
1F
100
AcDbEntity
  8
0
  6
SLD-Solid
 62
     7
370
    25
100
AcDbSpline
210
0.0
220
0.0
230
1.0
 70
     8
 71
     3
 72
    43
 73
    39
 74
     0
 42
0.00000001
 43
0.00000001
 40
0.0
 40
0.0
 40
0.0
 40
0.0
 40
0.0069213223493318
 40
0.0327243926483084
 40
0.0585322855433533
 40
0.084938198101538
 40
0.1124094219142962
 40
0.1410747576691855
 40
0.1706851755038077
 40
0.2007927297705509
 40
0.2309949499026173
 40
0.2610805282675334
 40
0.2910100105334192
 40
0.3207916526255009
 40
0.3504490410077935
 40
0.3800079279809459
 40
0.4094918707484057
 40
0.4389213447374201
 40
0.4683140875261672
 40
0.4976858116255158
 40
0.5270509862055358
 40
0.5564216773170191
 40
0.5858093551271396
 40
0.6152289999288835
 40
0.6446972145840695
 40
0.6742330960563511
 40
0.7038591171986003
 40
0.733601793051601
 40
0.763491448231875
 40
0.7935592456152
 40
0.8238268938244464
 40
0.8542788590599363
 40
0.884756034112438
 40
0.9148367900618879
 40
0.9409719426361349
 40
0.9688265662783917
 40
0.9954767406426543
 40
1.0
 40
1.0
 40
1.0
 40
1.0
 10
3.389225602014601
 20
55.92807110685727
 30
0.0
 10
3.394574814848661
 20
55.92615230325708
 30
0.0
 10
3.419866187263678
 20
55.91708009432671
 30
0.0
 10
3.468432493521453
 20
55.913032930803
 30
0.0
 10
3.532951757344001
 20
55.9162038330653
 30
0.0
 10
3.598635106405295
 20
55.93200933296122
 30
0.0
 10
3.665369325832398
 20
55.9592955251949
 30
0.0
 10
3.733302954549962
 20
55.99874882494061
 30
0.0
 10
3.801947064412043
 20
56.05038579930375
 30
0.0
 10
3.870461911424315
 20
56.11378492938839
 30
0.0
 10
3.937943265463571
 20
56.18801506320933
 30
0.0
 10
4.003697185788222
 20
56.27202438791684
 30
0.0
 10
4.067252597216386
 20
56.36485842134087
 30
0.0
 10
4.128252809874795
 20
56.46567303287258
 30
0.0
 10
4.186353710079795
 20
56.57363182736847
 30
0.0
 10
4.241206257803989
 20
56.68787244074619
 30
0.0
 10
4.292457357722334
 20
56.80749196929679
 30
0.0
 10
4.339756977660368
 20
56.9315447558503
 30
0.0
 10
4.38276623787418
 20
57.05904684164381
 30
0.0
 10
4.421164636010795
 20
57.18898395784162
 30
0.0
 10
4.454655142015659
 20
57.32031855531419
 30
0.0
 10
4.482968847886363
 20
57.45199943356607
 30
0.0
 10
4.505869364049168
 20
57.58297750652225
 30
0.0
 10
4.523154220778986
 20
57.7122210392981
 30
0.0
 10
4.534653405755046
 20
57.83872904221219
 30
0.0
 10
4.54022511470771
 20
57.96153970555903
 30
0.0
 10
4.53974892802621
 20
58.07974238960446
 30
0.0
 10
4.533114215551346
 20
58.19248769679552
 30
0.0
 10
4.520202349720349
 20
58.29899287423497
 30
0.0
 10
4.500861559578888
 20
58.398533771202
 30
0.0
 10
4.474880486605439
 20
58.49041437315939
 30
0.0
 10
4.441990401389512
 20
58.573826744728
 30
0.0
 10
4.401994152717245
 20
58.64772430566678
 30
0.0
 10
4.356509416629843
 20
58.70852579784327
 30
0.0
 10
4.305353038858203
 20
58.75822857842825
 30
0.0
 10
4.249384409438954
 20
58.79458416826507
 30
0.0
 10
4.204886782646139
 20
58.81559638749474
 30
0.0
 10
4.179698161830713
 20
58.82011457323023
 30
0.0
 10
4.176043297698017
 20
58.82077016112885
 30
0.0
  0
LINE
  5
35E
330
1F
100
AcDbEntity
  8
0
  6
SLD-Solid
 62
     7
370
    25
100
AcDbLine
 10
2.9896867075
 20
56.0353292399
 30
0.0
 11
3.392981371
 21
55.9257223919
 31
0.0
  0
LINE
  5
35F
330
1F
100
AcDbEntity
  8
0
  6
SLD-Solid
 62
     7
370
    25
100
AcDbLine
 10
4.179776946
 20
58.8207099089
 30
0.0
 11
3.7764822825
 21
58.9303167568
 31
0.0
  0
SPLINE
  5
360
330
1F
100
AcDbEntity
  8
0
  6
SLD-Solid
 62
     7
370
    25
100
AcDbSpline
210
0.0
220
0.0
230
1.0
 70
     8
 71
     3
 72
    19
 73
    15
 74
     0
 42
0.00000001
 43
0.00000001
 40
0.0
 40
0.0
 40
0.0
 40
0.0
 40
0.0559687513876663
 40
0.1282793472515522
 40
0.2050615546783671
 40
0.2872937394949042
 40
0.3740233339347614
 40
0.4638503446948395
 40
0.5554705246396681
 40
0.6477878122580359
 40
0.7396623330819776
 40
0.8299574712701602
 40
0.9175241812957118
 40
1.0
 40
1.0
 40
1.0
 40
1.0
 10
3.746325401659866
 20
58.05369058401106
 30
0.0
 10
3.74566870255798
 20
58.05481520644275
 30
0.0
 10
3.744163560312687
 20
58.05739282034097
 30
0.0
 10
3.738582135897918
 20
58.07504862790173
 30
0.0
 10
3.734409876156306
 20
58.10339589419672
 30
0.0
 10
3.73309511372921
 20
58.14195720380854
 30
0.0
 10
3.736109716404157
 20
58.18851832921781
 30
0.0
 10
3.744002248362
 20
58.24059841142804
 30
0.0
 10
3.756791328986306
 20
58.29505575116824
 30
0.0
 10
3.773903495091397
 20
58.34859586623373
 30
0.0
 10
3.794332091895396
 20
58.39806840730712
 30
0.0
 10
3.816373794336825
 20
58.44015944042605
 30
0.0
 10
3.838479868596121
 20
58.4733470992664
 30
0.0
 10
3.850430535838658
 20
58.48612993526024
 30
0.0
 10
3.856226974366432
 20
58.49233000104277
 30
0.0
  0
SPLINE
  5
361
330
1F
100
AcDbEntity
  8
0
  6
SLD-Solid
 62
     7
370
    25
100
AcDbSpline
210
0.0
220
0.0
230
1.0
 70
     8
 71
     3
 72
     9
 73
     5
 74
     0
 42
0.00000001
 43
0.00000001
 40
0.0
 40
0.0
 40
0.0
 40
0.0
 40
0.4944575831257189
 40
1.0
 40
1.0
 40
1.0
 40
1.0
 10
3.856226974366432
 20
58.49233000104277
 30
0.0
 10
3.859104541473678
 20
58.49494096218681
 30
0.0
 10
3.864924185474385
 20
58.50022141744351
 30
0.0
 10
3.866501343825556
 20
58.50102170317916
 30
0.0
 10
3.867298664270197
 20
58.50142628156416
 30
0.0
  0
SPLINE
  5
362
330
1F
100
AcDbEntity
  8
0
  6
SLD-Solid
 62
     7
370
    25
100
AcDbSpline
210
0.0
220
0.0
230
1.0
 70
     8
 71
     3
 72
    19
 73
    15
 74
     0
 42
0.00000001
 43
0.00000001
 40
0.0
 40
0.0
 40
0.0
 40
0.0
 40
0.055968751387659
 40
0.1282793472515482
 40
0.2050615546783629
 40
0.2872937394949008
 40
0.3740233339347573
 40
0.4638503446948367
 40
0.5554705246396658
 40
0.6477878122580338
 40
0.7396623330819767
 40
0.8299574712701604
 40
0.9175241812957134
 40
1.0
 40
1.0
 40
1.0
 40
1.0
 10
3.74632540165987
 20
56.23306723731972
 30
0.0
 10
3.745668702557984
 20
56.23419185975142
 30
0.0
 10
3.744163560312687
 20
56.23676947364964
 30
0.0
 10
3.738582135897932
 20
56.25442528121039
 30
0.0
 10
3.734409876156319
 20
56.28277254750538
 30
0.0
 10
3.733095113729232
 20
56.32133385711721
 30
0.0
 10
3.736109716404162
 20
56.36789498252647
 30
0.0
 10
3.744002248362022
 20
56.4199750647367
 30
0.0
 10
3.756791328986302
 20
56.47443240447691
 30
0.0
 10
3.773903495091423
 20
56.5279725195424
 30
0.0
 10
3.794332091895379
 20
56.5774450606158
 30
0.0
 10
3.816373794336838
 20
56.61953609373472
 30
0.0
 10
3.838479868596121
 20
56.65272375257506
 30
0.0
 10
3.850430535838666
 20
56.6655065885689
 30
0.0
 10
3.856226974366445
 20
56.67170665435144
 30
0.0
  0
SPLINE
  5
363
330
1F
100
AcDbEntity
  8
0
  6
SLD-Solid
 62
     7
370
    25
100
AcDbSpline
210
0.0
220
0.0
230
1.0
 70
     8
 71
     3
 72
     9
 73
     5
 74
     0
 42
0.00000001
 43
0.00000001
 40
0.0
 40
0.0
 40
0.0
 40
0.0
 40
0.4944575831256319
 40
1.0
 40
1.0
 40
1.0
 40
1.0
 10
3.856226974366445
 20
56.67170665435144
 30
0.0
 10
3.859104541473678
 20
56.67431761549548
 30
0.0
 10
3.864924185474381
 20
56.67959807075218
 30
0.0
 10
3.86650134382556
 20
56.68039835648783
 30
0.0
 10
3.867298664270202
 20
56.68080293487283
 30
0.0
  0
LINE
  5
364
330
1F
100
AcDbEntity
  8
0
  6
SLD-Solid
 62
     7
370
    25
100
AcDbLine
 10
75.4442309259
 20
39.4525583297
 30
0.0
 11
75.0409362624
 21
39.5621651776
 31
0.0
  0
LINE
  5
365
330
1F
100
AcDbEntity
  8
0
  6
SLD-Solid
 62
     7
370
    25
100
AcDbLine
 10
74.2541406874
 20
36.6671776607
 30
0.0
 11
74.6574353509
 21
36.5575708127
 31
0.0
  0
SPLINE
  5
366
330
1F
100
AcDbEntity
  8
0
  6
SLD-Solid
 62
     7
370
    25
100
AcDbSpline
210
0.0
220
0.0
230
1.0
 70
     8
 71
     3
 72
    43
 73
    39
 74
     0
 42
0.00000001
 43
0.00000001
 40
0.0
 40
0.0
 40
0.0
 40
0.0
 40
0.0061774704910656
 40
0.0320473466482225
 40
0.057922057887469
 40
0.0843963371023761
 40
0.11193868573326
 40
0.1406782379411897
 40
0.1703653191089596
 40
0.2005508238280018
 40
0.2308312395085632
 40
0.2609947114287141
 40
0.2910016831066936
 40
0.3208604318428658
 40
0.3505946051681647
 40
0.3802300220576503
 40
0.4097903007059299
 40
0.4392959695524899
 40
0.4687648120992715
 40
0.4982125815378748
 40
0.5276537845000114
 40
0.5571005182762758
 40
0.5865642827308664
 40
0.6160600969417389
 40
0.6456046067566205
 40
0.6752169585824692
 40
0.7049196834558629
 40
0.7347393650667806
 40
0.7647064065441856
 40
0.7948520514466053
 40
0.8251980646019728
 40
0.8557288719925745
 40
0.886284954470074
 40
0.9164435914892052
 40
0.9426464097046406
 40
0.9705731508125773
 40
0.9972923242435576
 40
1.0
 40
1.0
 40
1.0
 40
1.0
 10
75.04292122419878
 20
39.56041494644631
 30
0.0
 10
75.0381571077206
 20
39.56211533037342
 30
0.0
 10
75.01344192818709
 20
39.57093654501553
 30
0.0
 10
74.96547688231087
 20
39.57482442723125
 30
0.0
 10
74.9009681428268
 20
39.57169202974411
 30
0.0
 10
74.83528188712125
 20
39.55587589548059
 30
0.0
 10
74.76854849013907
 20
39.52859271227749
 30
0.0
 10
74.70061462727243
 20
39.48913855586444
 30
0.0
 10
74.631970583276
 20
39.43750182248009
 30
0.0
 10
74.56345571812466
 20
39.37410262603105
 30
0.0
 10
74.49597436898374
 20
39.29987251013147
 30
0.0
 10
74.4302204473515
 20
39.21586318063984
 30
0.0
 10
74.36666503627114
 20
39.12302914848837
 30
0.0
 10
74.30566482352023
 20
39.02221453661819
 30
0.0
 10
74.24756392333984
 20
38.91425574221242
 30
0.0
 10
74.1927113756091
 20
38.80001512881067
 30
0.0
 10
74.1414602756925
 20
38.68039560026647
 30
0.0
 10
74.09416065575398
 20
38.55634281371127
 30
0.0
 10
74.0511513955403
 20
38.42884072791819
 30
0.0
 10
74.01275299740367
 20
38.29890361172035
 30
0.0
 10
73.97926249139873
 20
38.16756901424746
 30
0.0
 10
73.95094878552837
 20
38.03588813599687
 30
0.0
 10
73.9280482693643
 20
37.90491006303581
 30
0.0
 10
73.9107634126392
 20
37.77566653027823
 30
0.0
 10
73.89926422764556
 20
37.64915852729576
 30
0.0
 10
73.89369251875866
 20
37.52634786420503
 30
0.0
 10
73.89416870519362
 20
37.40814517919926
 30
0.0
 10
73.90080341859418
 20
37.29539987561405
 30
0.0
 10
73.91371528094423
 20
37.18889468461547
 30
0.0
 10
73.93305608419362
 20
37.08935383870708
 30
0.0
 10
73.95903710777408
 20
36.99747304435175
 30
0.0
 10
73.99192737870989
 20
36.91406139620815
 30
0.0
 10
74.03192293588923
 20
36.84016114173266
 30
0.0
 10
74.07741010958924
 20
36.77936914466289
 30
0.0
 10
74.12855838553502
 20
36.72963480545321
 30
0.0
 10
74.18455776380145
 20
36.69339899001585
 30
0.0
 10
74.22760281359125
 20
36.67272919569898
 30
0.0
 10
74.25129101307719
 20
36.66836706933744
 30
0.0
 10
74.25347065395731
 20
36.66796569358292
 30
0.0
  0
LINE
  5
367
330
1F
100
AcDbEntity
  8
0
  6
SLD-Solid
 62
     7
370
    25
100
AcDbLine
 10
74.5740498627
 20
36.9325775415
 30
0.0
 11
74.7144138153
 21
37.0152808702
 31
0.0
  0
LINE
  5
368
330
1F
100
AcDbEntity
  8
0
  6
SLD-Solid
 62
     7
370
    25
100
AcDbLine
 10
74.800920024
 20
37.3335775184
 30
0.0
 11
74.7217273014
 21
37.4759516468
 31
0.0
  0
LINE
  5
369
330
1F
100
AcDbEntity
  8
0
  6
SLD-Solid
 62
     7
370
    25
100
AcDbLine
 10
73.5491400021
 20
39.2466665081
 30
0.0
 11
73.6445120334
 21
39.2560229139
 31
0.0
  0
LINE
  5
36A
330
1F
100
AcDbEntity
  8
0
  6
SLD-Solid
 62
     7
370
    25
100
AcDbLine
 10
73.665549088
 20
39.3334280395
 30
0.0
 11
73.5880329399
 21
39.389771748
 31
0.0
  0
LINE
  5
36B
330
1F
100
AcDbEntity
  8
0
  6
SLD-Solid
 62
     7
370
    25
100
AcDbLine
 10
72.4169321209
 20
39.553493561
 30
0.0
 11
73.5445652261
 21
39.2470270453
 31
0.0
  0
LINE
  5
36C
330
1F
100
AcDbEntity
  8
0
  6
SLD-Solid
 62
     7
370
    25
100
AcDbLine
 10
73.5839050048
 20
39.3917764212
 30
0.0
 11
72.4562718997
 21
39.6982429369
 31
0.0
  0
LINE
  5
36D
330
1F
100
AcDbEntity
  8
0
  6
SLD-Solid
 62
     7
370
    25
100
AcDbLine
 10
72.3498278546
 20
39.5017088017
 30
0.0
 11
72.4285831769
 21
39.5481119357
 31
0.0
  0
LINE
  5
36E
330
1F
100
AcDbEntity
  8
0
  6
SLD-Solid
 62
     7
370
    25
100
AcDbLine
 10
72.4690441811
 20
39.6969868224
 30
0.0
 11
72.4246107758
 21
39.776870013
 31
0.0
  0
SPLINE
  5
36F
330
1F
100
AcDbEntity
  8
0
  6
SLD-Solid
 62
     7
370
    25
100
AcDbSpline
210
0.0
220
0.0
230
1.0
 70
     8
 71
     3
 72
    10
 73
     6
 74
     0
 42
0.00000001
 43
0.00000001
 40
0.0
 40
0.0
 40
0.0
 40
0.0
 40
0.3876681000454745
 40
0.8684165395347178
 40
0.9999999999999999
 40
0.9999999999999999
 40
0.9999999999999999
 40
0.9999999999999999
 10
72.31428045124457
 20
39.49562983547668
 30
0.0
 10
72.32029025995074
 20
39.49482565320388
 30
0.0
 10
72.33375285148013
 20
39.49302420194594
 30
0.0
 10
72.34855731795548
 20
39.49933153481196
 30
0.0
 10
72.35632508842352
 20
39.50661004288832
 30
0.0
 10
72.35799429774997
 20
39.50817411505209
 30
0.0
  0
SPLINE
  5
370
330
1F
100
AcDbEntity
  8
0
  6
SLD-Solid
 62
     7
370
    25
100
AcDbSpline
210
0.0
220
0.0
230
1.0
 70
     8
 71
     3
 72
    10
 73
     6
 74
     0
 42
0.00000001
 43
0.00000001
 40
0.0
 40
0.0
 40
0.0
 40
0.0
 40
0.2431401253883744
 40
0.7372296128782394
 40
1.0
 40
1.0
 40
1.0
 40
1.0
 10
72.42616842294325
 20
39.7707078996544
 30
0.0
 10
72.42480639084286
 20
39.77450546389
 30
0.0
 10
72.42067654844644
 20
39.78602012773588
 30
0.0
 10
72.40920576038508
 20
39.79749496040113
 30
0.0
 10
72.39781031942488
 20
39.79993505219232
 30
0.0
 10
72.39385399338227
 20
39.80078221543361
 30
0.0
  0
LINE
  5
371
330
1F
100
AcDbEntity
  8
0
  6
SLD-Solid
 62
     7
370
    25
100
AcDbLine
 10
72.3064600327
 20
39.4964705
 30
0.0
 11
72.3113440605
 21
39.4951431259
 31
0.0
  0
LINE
  5
372
330
1F
100
AcDbEntity
  8
0
  6
SLD-Solid
 62
     7
370
    25
100
AcDbLine
 10
72.3947443915
 20
39.8020118027
 30
0.0
 11
72.3898603636
 21
39.8033391768
 31
0.0
  0
SPLINE
  5
373
330
1F
100
AcDbEntity
  8
0
  6
SLD-Solid
 62
     7
370
    25
100
AcDbSpline
210
0.0
220
0.0
230
1.0
 70
     8
 71
     3
 72
    14
 73
    10
 74
     0
 42
0.00000001
 43
0.00000001
 40
0.0
 40
0.0
 40
0.0
 40
0.0
 40
0.0664891553026596
 40
0.2580315967824068
 40
0.4515332856384446
 40
0.6502153864616986
 40
0.8211041246661849
 40
0.972524555552725
 40
0.9999999999999999
 40
0.9999999999999999
 40
0.9999999999999999
 40
0.9999999999999999
 10
72.27295431330543
 20
39.65851011553475
 30
0.0
 10
72.27161598210117
 20
39.65359337765274
 30
0.0
 10
72.2664221766438
 20
39.63451246557194
 30
0.0
 10
72.26293949963036
 20
39.60111240745871
 30
0.0
 10
72.2633702039985
 20
39.56233852837097
 30
0.0
 10
72.27047887423169
 20
39.53093653838873
 30
0.0
 10
72.28367513157191
 20
39.50951954674368
 30
0.0
 10
72.2978451898797
 20
39.49721008971881
 30
0.0
 10
72.30654339544733
 20
39.49706152406307
 30
0.0
 10
72.30787929580512
 20
39.49703870683818
 30
0.0
  0
SPLINE
  5
374
330
1F
100
AcDbEntity
  8
0
  6
SLD-Solid
 62
     7
370
    25
100
AcDbSpline
210
0.0
220
0.0
230
1.0
 70
     8
 71
     3
 72
    14
 73
    10
 74
     0
 42
0.00000001
 43
0.00000001
 40
0.0
 40
0.0
 40
0.0
 40
0.0
 40
0.0676378810000148
 40
0.2093287213869778
 40
0.3569676845275447
 40
0.5300207150863262
 40
0.7096415201882826
 40
0.8859478921273742
 40
1.0
 40
1.0
 40
1.0
 40
1.0
 10
72.38978614879548
 20
39.80187663932562
 30
0.0
 10
72.38637100334444
 20
39.80311645690937
 30
0.0
 10
72.37580165936077
 20
39.80695349949146
 30
0.0
 10
72.35661369087342
 20
39.80083970361805
 30
0.0
 10
72.3356825025974
 20
39.78654677590261
 30
0.0
 10
72.31481508823346
 20
39.76187655034422
 30
0.0
 10
72.2954609058308
 20
39.72743968358282
 30
0.0
 10
72.28074167532903
 20
39.69145856238513
 30
0.0
 10
72.27515050964799
 20
39.66780225557473
 30
0.0
 10
72.27295431330543
 20
39.65851011553475
 30
0.0
  0
SPLINE
  5
375
330
1F
100
AcDbEntity
  8
0
  6
SLD-Solid
 62
     7
370
    25
100
AcDbSpline
210
0.0
220
0.0
230
1.0
 70
     8
 71
     3
 72
    14
 73
    10
 74
     0
 42
0.00000001
 43
0.00000001
 40
0.0
 40
0.0
 40
0.0
 40
0.0
 40
0.0161507734350808
 40
0.2053435956823708
 40
0.395799599960282
 40
0.5899852153012899
 40
0.7713140163201002
 40
0.9249564080582621
 40
0.9999999999999999
 40
0.9999999999999999
 40
0.9999999999999999
 40
0.9999999999999999
 10
6.765586260580107
 20
55.66032428058743
 30
0.0
 10
6.765954969301054
 20
55.6615129633086
 30
0.0
 10
6.770642792755609
 20
55.67662607136329
 30
0.0
 10
6.774870658939236
 20
55.70696165043688
 30
0.0
 10
6.77692446382887
 20
55.74726831424035
 30
0.0
 10
6.772105289182822
 20
55.78168373957485
 30
0.0
 10
6.761321593380112
 20
55.80652131079574
 30
0.0
 10
6.747246574277139
 20
55.82255781837654
 30
0.0
 10
6.736104694081426
 20
55.82478285195018
 30
0.0
 10
6.732448472141551
 20
55.82551299950392
 30
0.0
  0
SPLINE
  5
376
330
1F
100
AcDbEntity
  8
0
  6
SLD-Solid
 62
     7
370
    25
100
AcDbSpline
210
0.0
220
0.0
230
1.0
 70
     8
 71
     3
 72
    14
 73
    10
 74
     0
 42
0.00000001
 43
0.00000001
 40
0.0
 40
0.0
 40
0.0
 40
0.0
 40
0.0284776764716032
 40
0.1736371979032449
 40
0.3158026719807785
 40
0.480272868087503
 40
0.661346872424152
 40
0.8392674923854979
 40
1.0
 40
1.0
 40
1.0
 40
1.0
 10
6.647090327438549
 20
55.52168677546698
 30
0.0
 10
6.648402586251662
 20
55.52093858875279
 30
0.0
 10
6.656403833946884
 20
55.51637666303914
 30
0.0
 10
6.674577525780982
 20
55.51940567809664
 30
0.0
 10
6.695768725167865
 20
55.53025054203074
 30
0.0
 10
6.716763747375305
 20
55.55117742278144
 30
0.0
 10
6.736916423427821
 20
55.58219936704263
 30
0.0
 10
6.754333911441604
 20
55.62003166997692
 30
0.0
 10
6.761964573919256
 20
55.64735568100149
 30
0.0
 10
6.765586260580102
 20
55.66032428058743
 30
0.0
  0
LINE
  5
377
330
1F
100
AcDbEntity
  8
0
  6
SLD-Solid
 62
     7
370
    25
100
AcDbLine
 10
6.7327894074
 20
55.8269008552
 30
0.0
 11
6.7279053796
 21
55.8282282293
 31
0.0
  0
LINE
  5
378
330
1F
100
AcDbEntity
  8
0
  6
SLD-Solid
 62
     7
370
    25
100
AcDbLine
 10
6.6445050486
 20
55.5213595525
 30
0.0
 11
6.6493890765
 21
55.5200321784
 31
0.0
  0
SPLINE
  5
379
330
1F
100
AcDbEntity
  8
0
  6
SLD-Solid
 62
     7
370
    25
100
AcDbSpline
210
0.0
220
0.0
230
1.0
 70
     8
 71
     3
 72
    10
 73
     6
 74
     0
 42
0.00000001
 43
0.00000001
 40
0.0
 40
0.0
 40
0.0
 40
0.0
 40
0.2306232983672725
 40
0.7294937823711315
 40
1.0
 40
1.0
 40
1.0
 40
1.0
 10
6.727105716688246
 20
55.82696631157085
 30
0.0
 10
6.723793717092455
 20
55.82810841812642
 30
0.0
 10
6.713317398656939
 20
55.83172106106832
 30
0.0
 10
6.69783605822261
 20
55.82740031349561
 30
0.0
 10
6.688016446764611
 20
55.81999036158083
 30
0.0
 10
6.684563956003645
 20
55.81738508634826
 30
0.0
  0
SPLINE
  5
37A
330
1F
100
AcDbEntity
  8
0
  6
SLD-Solid
 62
     7
370
    25
100
AcDbSpline
210
0.0
220
0.0
230
1.0
 70
     8
 71
     3
 72
     9
 73
     5
 74
     0
 42
0.00000001
 43
0.00000001
 40
0.0
 40
0.0
 40
0.0
 40
0.0
 40
0.5260999341646916
 40
1.0
 40
1.0
 40
1.0
 40
1.0
 10
6.613545718209138
 20
55.54918459116062
 30
0.0
 10
6.617411063915609
 20
55.54243531911353
 30
0.0
 10
6.624758234016711
 20
55.5296064407792
 30
0.0
 10
6.638170119522896
 20
55.52431452715695
 30
0.0
 10
6.644526012947266
 20
55.52180668894295
 30
0.0
  0
LINE
  5
37B
330
1F
100
AcDbEntity
  8
0
  6
SLD-Solid
 62
     7
370
    25
100
AcDbLine
 10
6.6894215855
 20
55.8216625535
 30
0.0
 11
6.6106662632
 21
55.7752594195
 31
0.0
  0
LINE
  5
37C
330
1F
100
AcDbEntity
  8
0
  6
SLD-Solid
 62
     7
370
    25
100
AcDbLine
 10
6.570205259
 20
55.6263845328
 30
0.0
 11
6.6146386643
 21
55.5465013422
 31
0.0
  0
LINE
  5
37D
330
1F
100
AcDbEntity
  8
0
  6
SLD-Solid
 62
     7
370
    25
100
AcDbLine
 10
6.6082607341
 20
55.7736980728
 30
0.0
 11
5.494684214
 21
56.0763443099
 31
0.0
  0
LINE
  5
37E
330
1F
100
AcDbEntity
  8
0
  6
SLD-Solid
 62
     7
370
    25
100
AcDbLine
 10
5.4553444353
 20
55.931594934
 30
0.0
 11
6.5689209553
 21
55.6289486969
 31
0.0
  0
LINE
  5
37F
330
1F
100
AcDbEntity
  8
0
  6
SLD-Solid
 62
     7
370
    25
100
AcDbLine
 10
5.490109438
 20
56.0767048471
 30
0.0
 11
5.3947374067
 21
56.0673484413
 31
0.0
  0
LINE
  5
380
330
1F
100
AcDbEntity
  8
0
  6
SLD-Solid
 62
     7
370
    25
100
AcDbLine
 10
5.3737003521
 20
55.9899433157
 30
0.0
 11
5.4512165001
 21
55.9335996072
 31
0.0
  0
LINE
  5
381
330
1F
100
AcDbEntity
  8
0
  6
SLD-Solid
 62
     7
370
    25
100
AcDbLine
 10
73.5491400021
 20
37.4260431614
 30
0.0
 11
73.6445120334
 21
37.4353995672
 31
0.0
  0
LINE
  5
382
330
1F
100
AcDbEntity
  8
0
  6
SLD-Solid
 62
     7
370
    25
100
AcDbLine
 10
73.665549088
 20
37.5128046928
 30
0.0
 11
73.5880329399
 21
37.5691484013
 31
0.0
  0
LINE
  5
383
330
1F
100
AcDbEntity
  8
0
  6
SLD-Solid
 62
     7
370
    25
100
AcDbLine
 10
72.4169321209
 20
37.7328702143
 30
0.0
 11
73.5445652261
 21
37.4264036986
 31
0.0
  0
LINE
  5
384
330
1F
100
AcDbEntity
  8
0
  6
SLD-Solid
 62
     7
370
    25
100
AcDbLine
 10
73.5839050048
 20
37.5711530745
 30
0.0
 11
72.4562718997
 21
37.8776195902
 31
0.0
  0
LINE
  5
385
330
1F
100
AcDbEntity
  8
0
  6
SLD-Solid
 62
     7
370
    25
100
AcDbLine
 10
72.3498278546
 20
37.681085455
 30
0.0
 11
72.4285831769
 21
37.727488589
 31
0.0
  0
LINE
  5
386
330
1F
100
AcDbEntity
  8
0
  6
SLD-Solid
 62
     7
370
    25
100
AcDbLine
 10
72.4690441811
 20
37.8763634757
 30
0.0
 11
72.4246107758
 21
37.9562466663
 31
0.0
  0
SPLINE
  5
387
330
1F
100
AcDbEntity
  8
0
  6
SLD-Solid
 62
     7
370
    25
100
AcDbSpline
210
0.0
220
0.0
230
1.0
 70
     8
 71
     3
 72
    10
 73
     6
 74
     0
 42
0.00000001
 43
0.00000001
 40
0.0
 40
0.0
 40
0.0
 40
0.0
 40
0.2672490105405986
 40
0.8200330533682919
 40
1.0
 40
1.0
 40
1.0
 40
1.0
 10
72.31168499580393
 20
37.67590763488484
 30
0.0
 10
72.31514351693022
 20
37.67471491351161
 30
0.0
 10
72.32575572325266
 20
37.67105513962684
 30
0.0
 10
72.33985472121253
 20
37.67465217865691
 30
0.0
 10
72.34835558456776
 20
37.68090571414707
 30
0.0
 10
72.35044343493409
 20
37.68244161065763
 30
0.0
  0
SPLINE
  5
388
330
1F
100
AcDbEntity
  8
0
  6
SLD-Solid
 62
     7
370
    25
100
AcDbSpline
210
0.0
220
0.0
230
1.0
 70
     8
 71
     3
 72
    10
 73
     6
 74
     0
 42
0.00000001
 43
0.00000001
 40
0.0
 40
0.0
 40
0.0
 40
0.0
 40
0.1153586804295809
 40
0.6273353285689578
 40
1.0
 40
1.0
 40
1.0
 40
1.0
 10
72.42839788977038
 20
37.94634806059649
 30
0.0
 10
72.42787076524161
 20
37.94832774072731
 30
0.0
 10
72.42500419431502
 20
37.95909349568138
 30
0.0
 10
72.41514869838909
 20
37.97188266307683
 30
0.0
 10
72.40240961599302
 20
37.97740676962066
 30
0.0
 10
72.39704314050694
 20
37.97973385892178
 30
0.0
  0
LINE
  5
389
330
1F
100
AcDbEntity
  8
0
  6
SLD-Solid
 62
     7
370
    25
100
AcDbLine
 10
72.3064600327
 20
37.6758471533
 30
0.0
 11
72.3113440605
 21
37.6745197792
 31
0.0
  0
LINE
  5
38A
330
1F
100
AcDbEntity
  8
0
  6
SLD-Solid
 62
     7
370
    25
100
AcDbLine
 10
72.3947443915
 20
37.981388456
 30
0.0
 11
72.3898603636
 21
37.9827158301
 31
0.0
  0
SPLINE
  5
38B
330
1F
100
AcDbEntity
  8
0
  6
SLD-Solid
 62
     7
370
    25
100
AcDbSpline
210
0.0
220
0.0
230
1.0
 70
     8
 71
     3
 72
    14
 73
    10
 74
     0
 42
0.00000001
 43
0.00000001
 40
0.0
 40
0.0
 40
0.0
 40
0.0
 40
0.0616698436532835
 40
0.2415165499318368
 40
0.4225640371117947
 40
0.6071568927546277
 40
0.7795280600605748
 40
0.925580525321392
 40
1.0
 40
1.0
 40
1.0
 40
1.0
 10
72.27695360443518
 20
37.85319349879823
 30
0.0
 10
72.27542791043325
 20
37.84842996997967
 30
0.0
 10
72.2694528612071
 20
37.82977464384932
 30
0.0
 10
72.2642572851147
 20
37.79581718882638
 30
0.0
 10
72.2623578629111
 20
37.75547005704112
 30
0.0
 10
72.26713795680288
 20
37.7210709777356
 30
0.0
 10
72.27792243242766
 20
37.69621137995968
 30
0.0
 10
72.2921320180494
 20
37.6801001619049
 30
0.0
 10
72.30344204009815
 20
37.67786390961533
 30
0.0
 10
72.30725969553177
 20
37.67710907105997
 30
0.0
  0
SPLINE
  5
38C
330
1F
100
AcDbEntity
  8
0
  6
SLD-Solid
 62
     7
370
    25
100
AcDbSpline
210
0.0
220
0.0
230
1.0
 70
     8
 71
     3
 72
    14
 73
    10
 74
     0
 42
0.00000001
 43
0.00000001
 40
0.0
 40
0.0
 40
0.0
 40
0.0
 40
0.0127073121877491
 40
0.1674199958561148
 40
0.3189415894973386
 40
0.4942358118271912
 40
0.6872265634995999
 40
0.8768564019192673
 40
0.9999999999999999
 40
0.9999999999999999
 40
0.9999999999999999
 40
0.9999999999999999
 10
72.38983939927274
 20
37.98226869368787
 30
0.0
 10
72.38928603201681
 20
37.98256952283469
 30
0.0
 10
72.38199536800161
 20
37.98653297425297
 30
0.0
 10
72.36462760702625
 20
37.98320638514846
 30
0.0
 10
72.34349682435119
 20
37.97253815643052
 30
0.0
 10
72.32246989188182
 20
37.95156539645315
 30
0.0
 10
72.30238135841742
 20
37.92051846467039
 30
0.0
 10
72.28628337438838
 20
37.88611078040233
 30
0.0
 10
72.27958920100554
 20
37.86249240701746
 30
0.0
 10
72.27695360443518
 20
37.85319349879823
 30
0.0
  0
SPLINE
  5
38D
330
1F
100
AcDbEntity
  8
0
  6
SLD-Solid
 62
     7
370
    25
100
AcDbSpline
210
0.0
220
0.0
230
1.0
 70
     8
 71
     3
 72
    13
 73
     9
 74
     0
 42
0.00000001
 43
0.00000001
 40
0.0
 40
0.0
 40
0.0
 40
0.0
 40
0.1953686302436071
 40
0.4022869452418357
 40
0.6147448610652052
 40
0.7974823346784373
 40
0.9594016471174055
 40
1.0
 40
1.0
 40
1.0
 40
1.0
 10
6.770346309127645
 20
57.50216388614915
 30
0.0
 10
6.772457271315514
 20
57.51567142942813
 30
0.0
 10
6.77680399027968
 20
57.54348504677626
 30
0.0
 10
6.7757386859082
 20
57.58165887992981
 30
0.0
 10
6.768796918274075
 20
57.61303174489647
 30
0.0
 10
6.755586368400881
 20
57.63455766110005
 30
0.0
 10
6.740935617594105
 20
57.64696736460791
 30
0.0
 10
6.73170371886872
 20
57.64702578155436
 30
0.0
 10
6.729853016700913
 20
57.64703749229476
 30
0.0
  0
SPLINE
  5
38E
330
1F
100
AcDbEntity
  8
0
  6
SLD-Solid
 62
     7
370
    25
100
AcDbSpline
210
0.0
220
0.0
230
1.0
 70
     8
 71
     3
 72
    11
 73
     7
 74
     0
 42
0.00000001
 43
0.00000001
 40
0.0
 40
0.0
 40
0.0
 40
0.0
 40
0.1770294047500893
 40
0.5808812530288427
 40
0.9814710464770255
 40
1.0
 40
1.0
 40
1.0
 40
1.0
 10
6.734953150819963
 20
57.40289037825499
 30
0.0
 10
6.737854329608254
 20
57.40773716507159
 30
0.0
 10
6.747373880172098
 20
57.42364078064985
 30
0.0
 10
6.759374521282417
 20
57.45740155115569
 30
0.0
 10
6.768429357174676
 20
57.48698697482516
 30
0.0
 10
6.770265149981602
 20
57.50152133214001
 30
0.0
 10
6.770346309127645
 20
57.50216388614915
 30
0.0
  0
SPLINE
  5
38F
330
1F
100
AcDbEntity
  8
0
  6
SLD-Solid
 62
     7
370
    25
100
AcDbSpline
210
0.0
220
0.0
230
1.0
 70
     8
 71
     3
 72
    12
 73
     8
 74
     0
 42
0.00000001
 43
0.00000001
 40
0.0
 40
0.0
 40
0.0
 40
0.0
 40
0.0993401053988517
 40
0.3253200765666705
 40
0.560786593263403
 40
0.8367855128080588
 40
1.0
 40
1.0
 40
1.0
 40
1.0
 10
6.650279474563212
 20
57.34188511233783
 30
0.0
 10
6.65342523431968
 20
57.34075679375845
 30
0.0
 10
6.663727003184589
 20
57.33706176358753
 30
0.0
 10
6.682654369073799
 20
57.34314069705851
 30
0.0
 10
6.703500071938494
 20
57.35760999692375
 30
0.0
 10
6.721452760821193
 20
57.37768236058422
 30
0.0
 10
6.731295519337833
 20
57.39606082451299
 30
0.0
 10
6.734953150819958
 20
57.40289037825499
 30
0.0
  0
LINE
  5
390
330
1F
100
AcDbEntity
  8
0
  6
SLD-Solid
 62
     7
370
    25
100
AcDbLine
 10
6.7327894074
 20
57.6475242019
 30
0.0
 11
6.7279053796
 21
57.648851576
 31
0.0
  0
LINE
  5
391
330
1F
100
AcDbEntity
  8
0
  6
SLD-Solid
 62
     7
370
    25
100
AcDbLine
 10
6.6445050486
 20
57.3419828992
 30
0.0
 11
6.6493890765
 21
57.3406555251
 31
0.0
  0
SPLINE
  5
392
330
1F
100
AcDbEntity
  8
0
  6
SLD-Solid
 62
     7
370
    25
100
AcDbSpline
210
0.0
220
0.0
230
1.0
 70
     8
 71
     3
 72
    10
 73
     6
 74
     0
 42
0.00000001
 43
0.00000001
 40
0.0
 40
0.0
 40
0.0
 40
0.0
 40
0.3906456192601465
 40
0.8372522641465061
 40
1.0
 40
1.0
 40
1.0
 40
1.0
 10
6.726486116414895
 20
57.64828336917533
 30
0.0
 10
6.719961392744365
 20
57.64918768575263
 30
0.0
 10
6.705977261355837
 20
57.65112586466602
 30
0.0
 10
6.69008909559039
 20
57.64428154583064
 30
0.0
 10
6.681791842142236
 20
57.63641808756174
 30
0.0
 10
6.679575793066083
 20
57.63431789747582
 30
0.0
  0
SPLINE
  5
393
330
1F
100
AcDbEntity
  8
0
  6
SLD-Solid
 62
     7
370
    25
100
AcDbSpline
210
0.0
220
0.0
230
1.0
 70
     8
 71
     3
 72
    10
 73
     6
 74
     0
 42
0.00000001
 43
0.00000001
 40
0.0
 40
0.0
 40
0.0
 40
0.0
 40
0.2739576769750565
 40
0.7598584326559593
 40
1.0
 40
1.0
 40
1.0
 40
1.0
 10
6.612416935641944
 20
57.374898708971
 30
0.0
 10
6.613962951596418
 20
57.37053921275982
 30
0.0
 10
6.61825103460618
 20
57.35844756417098
 30
0.0
 10
6.629794249580444
 20
57.34664692120902
 30
0.0
 10
6.640904500852818
 20
57.34424115427166
 30
0.0
 10
6.64457926342453
 20
57.34344543668787
 30
0.0
  0
LINE
  5
394
330
1F
100
AcDbEntity
  8
0
  6
SLD-Solid
 62
     7
370
    25
100
AcDbLine
 10
6.6894215855
 20
57.6422859002
 30
0.0
 11
6.6106662632
 21
57.5958827662
 31
0.0
  0
LINE
  5
395
330
1F
100
AcDbEntity
  8
0
  6
SLD-Solid
 62
     7
370
    25
100
AcDbLine
 10
6.570205259
 20
57.4470078795
 30
0.0
 11
6.6146386643
 21
57.3671246889
 31
0.0
  0
LINE
  5
396
330
1F
100
AcDbEntity
  8
0
  6
SLD-Solid
 62
     7
370
    25
100
AcDbLine
 10
6.6082607341
 20
57.5943214195
 30
0.0
 11
5.494684214
 21
57.8969676566
 31
0.0
  0
LINE
  5
397
330
1F
100
AcDbEntity
  8
0
  6
SLD-Solid
 62
     7
370
    25
100
AcDbLine
 10
5.4553444353
 20
57.7522182807
 30
0.0
 11
6.5689209553
 21
57.4495720436
 31
0.0
  0
LINE
  5
398
330
1F
100
AcDbEntity
  8
0
  6
SLD-Solid
 62
     7
370
    25
100
AcDbLine
 10
5.490109438
 20
57.8973281938
 30
0.0
 11
5.3947374067
 21
57.887971788
 31
0.0
  0
LINE
  5
399
330
1F
100
AcDbEntity
  8
0
  6
SLD-Solid
 62
     7
370
    25
100
AcDbLine
 10
5.3737003521
 20
57.8105666624
 30
0.0
 11
5.4512165001
 21
57.7542229539
 31
0.0
  0
LWPOLYLINE
  5
39A
330
1F
100
AcDbEntity
  8
0
  6
SLD-Solid
 62
     7
370
    25
100
AcDbPolyline
 90
       41
 70
   128
 43
0.0
 10
71.2192544603
 20
38.7057326692
 10
71.2226157501
 20
38.7874563385
 10
71.2326168537
 20
38.8737291437
 10
71.2490115105
 20
38.9624267621
 10
71.2713960298
 20
39.051365164
 10
71.2992192303
 20
39.1383543907
 10
71.3317960126
 20
39.2212524788
 10
71.3683242282
 20
39.2980182022
 10
71.4079044311
 20
39.366761334
 10
71.4495620253
 20
39.4257891902
 10
71.4922712628
 20
39.4736483091
 10
71.5349805002
 20
39.5091602404
 10
71.5766380945
 20
39.5314505623
 10
71.6162182974
 20
39.5399704133
 10
71.6527465129
 20
39.5345100062
 10
71.6853232952
 20
39.5152037946
 10
71.7131464958
 20
39.4825271613
 10
71.735531015
 20
39.4372847135
 10
71.7519256719
 20
39.3805904704
 10
71.7619267754
 20
39.3138404325
 10
71.7652880653
 20
39.2386782072
 10
71.7619267754
 20
39.156954538
 10
71.7519256719
 20
39.0706817328
 10
71.735531015
 20
38.9819841144
 10
71.7131464958
 20
38.8930457125
 10
71.6853232952
 20
38.8060564858
 10
71.6527465129
 20
38.7231583977
 10
71.6162182974
 20
38.6463926743
 10
71.5766380945
 20
38.5776495425
 10
71.5349805002
 20
38.5186216862
 10
71.4922712628
 20
38.4707625673
 10
71.4495620253
 20
38.4352506361
 10
71.4079044311
 20
38.4129603141
 10
71.3683242282
 20
38.4044404632
 10
71.3317960126
 20
38.4099008702
 10
71.2992192303
 20
38.4292070819
 10
71.2713960298
 20
38.4618837152
 10
71.2490115105
 20
38.507126163
 10
71.2326168537
 20
38.5638204061
 10
71.2226157501
 20
38.630570444
 10
71.2192544603
 20
38.7057326692
  0
LWPOLYLINE
  5
39B
330
1F
100
AcDbEntity
  8
0
  6
SLD-Solid
 62
     7
370
    25
100
AcDbPolyline
 90
       43
 70
   128
 43
0.0
 10
71.1996532539
 20
38.686601291
 10
71.2029215553
 20
38.7698931097
 10
71.212653451
 20
38.8577042516
 10
71.2286315466
 20
38.9480731608
 10
71.2504989178
 20
39.0389811452
 10
71.2777670837
 20
39.1283974707
 10
71.3098269184
 20
39.2143247242
 10
71.3459622584
 20
39.294843433
 10
71.3853658997
 20
39.3681549421
 10
71.4271576302
 20
39.4326215936
 10
71.4704038916
 20
39.486803309
 10
71.514138634
 20
39.5294897583
 10
71.5573848954
 20
39.5597273968
 10
71.5991766259
 20
39.5768407655
 10
71.6385802672
 20
39.5804475802
 10
71.6747156071
 20
39.5704672706
 10
71.7067754419
 20
39.5471227802
 10
71.7340436078
 20
39.5109355864
 10
71.755910979
 20
39.4627140513
 10
71.7718890745
 20
39.4035353643
 10
71.7816209703
 20
39.3347214796
 10
71.7848892716
 20
39.2578095855
 10
71.7816209703
 20
39.1745177667
 10
71.7718890745
 20
39.0867066248
 10
71.755910979
 20
38.9963377156
 10
71.7340436078
 20
38.9054297312
 10
71.7067754419
 20
38.8160134058
 10
71.6747156071
 20
38.7300861523
 10
71.6385802672
 20
38.6495674435
 10
71.5991766259
 20
38.5762559344
 10
71.5573848954
 20
38.5117892829
 10
71.514138634
 20
38.4576075675
 10
71.4704038916
 20
38.4149211182
 10
71.4271576302
 20
38.3846834797
 10
71.3853658997
 20
38.3675701109
 10
71.3459622584
 20
38.3639632962
 10
71.3098269184
 20
38.3739436059
 10
71.2777670837
 20
38.3972880963
 10
71.2504989178
 20
38.4334752901
 10
71.2286315466
 20
38.4816968252
 10
71.212653451
 20
38.5408755121
 10
71.2029215553
 20
38.6096893969
 10
71.1996532539
 20
38.686601291
  0
LWPOLYLINE
  5
39C
330
1F
100
AcDbEntity
  8
0
  6
SLD-Solid
 62
     7
370
    25
100
AcDbPolyline
 90
       16
 70
   128
 43
0.0
 10
7.5215484931
 20
55.9929457082
 10
7.5248167945
 20
56.076237527
 10
7.5345486903
 20
56.1640486689
 10
7.5505267858
 20
56.2544175781
 10
7.572394157
 20
56.3453255625
 10
7.5996623229
 20
56.4347418879
 10
7.6317221576
 20
56.5206691414
 10
7.6678574976
 20
56.6011878502
 10
7.7072611389
 20
56.6744993593
 10
7.7490528694
 20
56.7389660108
 10
7.7922991308
 20
56.7931477262
 10
7.8360338732
 20
56.8358341755
 10
7.8792801346
 20
56.866071814
 10
7.9210718651
 20
56.8831851828
 10
7.9604755064
 20
56.8867919975
 10
7.9786067772
 20
56.8836022465
  0
LWPOLYLINE
  5
39D
330
1F
100
AcDbEntity
  8
0
  6
SLD-Solid
 62
     7
370
    25
100
AcDbPolyline
 90
        8
 70
   128
 43
0.0
 10
7.6497262268
 20
55.6734974644
 10
7.6317221576
 20
55.6802880231
 10
7.5996623229
 20
55.7036325135
 10
7.572394157
 20
55.7398197073
 10
7.5505267858
 20
55.7880412424
 10
7.5345486903
 20
55.8472199294
 10
7.5248167945
 20
55.9160338141
 10
7.5215484931
 20
55.9929457082
  0
LWPOLYLINE
  5
39E
330
1F
100
AcDbEntity
  8
0
  6
SLD-Solid
 62
     7
370
    25
100
AcDbPolyline
 90
       64
 70
   128
 43
0.0
 10
3.8748209707
 20
58.5492137819
 10
3.8097659738
 20
58.479754871
 10
3.7453575228
 20
58.3990597948
 10
3.6822357376
 20
58.3079305371
 10
3.621027951
 20
58.2072727814
 10
3.5623424735
 20
58.0980869099
 10
3.5067625476
 20
57.9814580606
 10
3.4548405518
 20
57.8585453435
 10
3.40709251
 20
57.7305703205
 10
3.3639929638
 20
57.5988048647
 10
3.3259702558
 20
57.4645585205
 10
3.2934022728
 20
57.3291654884
 10
3.26661269
 20
57.1939713651
 10
3.2458677544
 20
57.0603197706
 10
3.2313736384
 20
56.9295389945
 10
3.2232743911
 20
56.8029287948
 10
3.2216505064
 20
56.6817474807
 10
3.2265181233
 20
56.5671994065
 10
3.2378288651
 20
56.4604230023
 10
3.2554703206
 20
56.3624794601
 10
3.2792671611
 20
56.2743421868
 10
3.308982883
 20
56.1968871303
 10
3.344322158
 20
56.1308840736
 10
3.3849337685
 20
56.0769889848
 10
3.4304140981
 20
56.0357374974
 10
3.4803111429
 20
56.0075395874
 10
3.5341290036
 20
55.9926754983
 10
3.5913328141
 20
55.9912929559
 10
3.6513540573
 20
56.0034057007
 10
3.7135962151
 20
56.0288933507
 10
3.7774406969
 20
56.0675025982
 10
3.8422529877
 20
56.1188497272
 10
3.9073889537
 20
56.1824244268
 10
3.9722012444
 20
56.2575948632
 10
4.0360457262
 20
56.3436139587
 10
4.098287884
 20
56.4396268169
 10
4.1583091272
 20
56.5446792189
 10
4.2155129377
 20
56.6577271068
 10
4.2693307984
 20
56.7776469598
 10
4.3192278432
 20
56.9032469605
 10
4.3647081729
 20
57.0332788398
 10
4.4053197834
 20
57.1664502824
 10
4.4406590584
 20
57.3014377706
 10
4.4703747802
 20
57.4368997382
 10
4.4941716208
 20
57.5714899033
 10
4.5118130763
 20
57.7038706483
 10
4.5231238181
 20
57.8327263139
 10
4.5279914349
 20
57.9567762747
 10
4.5263675502
 20
58.0747876663
 10
4.5182683029
 20
58.1855876386
 10
4.5037741869
 20
58.2880750116
 10
4.4830292513
 20
58.3812312199
 10
4.4562396685
 20
58.4641304351
 10
4.4236716856
 20
58.5359487676
 10
4.3856489776
 20
58.5959724545
 10
4.3425494314
 20
58.6436049535
 10
4.2948013896
 20
58.6783728714
 10
4.2428793937
 20
58.699930669
 10
4.1872994679
 20
58.7080640953
 10
4.1286139903
 20
58.7026923166
 10
4.0674062037
 20
58.68386872
 10
4.0042844186
 20
58.6517803829
 10
3.9398759675
 20
58.6067462136
 10
3.8748209707
 20
58.5492137819
  0
LINE
  5
39F
330
1F
100
AcDbEntity
  8
0
  6
SLD-Solid
 62
     7
370
    25
100
AcDbLine
 10
3.392981371
 20
55.9257223919
 30
0.0
 11
3.3899271894
 21
55.9265741529
 31
0.0
  0
LWPOLYLINE
  5
3A0
330
1F
100
AcDbEntity
  8
0
  6
SLD-Solid
 62
     7
370
    25
100
AcDbPolyline
 90
       28
 70
   128
 43
0.0
 10
3.383084495
 20
58.7685739494
 10
3.3155205922
 20
58.6966271539
 10
3.2485875154
 20
58.6133473961
 10
3.1829102006
 20
58.5195122365
 10
3.1191018593
 20
58.4159977889
 10
3.0577582527
 20
58.3037705397
 10
2.9994521296
 20
58.1838783244
 10
2.9447278786
 20
58.0574405445
 10
2.8940964451
 20
57.9256377154
 10
2.8480305613
 20
57.7897004445
 10
2.806960332
 20
57.6508979417
 10
2.7712692187
 20
57.5105261684
 10
2.7412904598
 20
57.369895738
 10
2.7173039589
 20
57.230319679
 10
2.6995336714
 20
57.0931011756
 10
2.6881455139
 20
56.9595213997
 10
2.6832458143
 20
56.8308275499
 10
2.68488032
 20
56.7082212059
 10
2.6930337699
 20
56.5928471102
 10
2.7076300376
 20
56.4857824795
 10
2.7285328415
 20
56.3880269475
 10
2.7555470178
 20
56.3004932313
 10
2.7884203425
 20
56.2239986095
 10
2.8268458861
 20
56.1592572919
 10
2.8704648798
 20
56.1068737507
 10
2.9188700647
 20
56.0673370769
 10
2.9716094946
 20
56.0410164137
 10
2.9896867075
 20
56.0353292399
  0
LWPOLYLINE
  5
3A1
330
1F
100
AcDbEntity
  8
0
  6
SLD-Solid
 62
     7
370
    25
100
AcDbPolyline
 90
        8
 70
   128
 43
0.0
 10
3.7764822825
 20
58.9303167568
 10
3.7667168604
 20
58.9327522233
 10
3.7084107373
 20
58.9388273113
 10
3.6470671307
 20
58.9313080793
 10
3.5832587894
 20
58.9102647324
 10
3.5175814746
 20
58.8758937467
 10
3.4506483978
 20
58.8285160347
 10
3.383084495
 20
58.7685739494
  0
ARC
  5
3A2
330
1F
100
AcDbEntity
  8
0
  6
SLD-Solid
 62
     7
370
    25
100
AcDbCircle
 10
0.6306977953
 20
58.2308627268
 30
0.0
 40
3.433000541966019
100
AcDbArc
 50
334.3067665166
 51
355.284207166
  0
LWPOLYLINE
  5
3A3
330
1F
100
AcDbEntity
  8
0
  6
SLD-Solid
 62
     7
370
    25
100
AcDbPolyline
 90
       31
 70
   128
 43
0.0
 10
3.8748209707
 20
58.5398565489
 10
3.9065583534
 20
58.5647065526
 10
3.9369086602
 20
58.5762171822
 10
3.964545437
 20
58.5738853682
 10
3.9882608241
 20
58.5578130219
 10
4.0070183453
 20
58.5287025819
 10
4.0199982068
 20
58.4878263142
 10
4.0266331265
 20
58.4369707079
 10
4.0266331265
 20
58.3783583969
 10
4.0199982068
 20
58.3145510205
 10
4.0070183453
 20
58.2483372673
 10
3.9882608241
 20
58.1826109959
 10
3.964545437
 20
58.1202447599
 10
3.9369086602
 20
58.063964263
 10
3.9065583534
 20
58.016229233
 10
3.8748209707
 20
57.9791259197
 10
3.843083588
 20
57.954275916
 10
3.8127332812
 20
57.9427652863
 10
3.7850965043
 20
57.9450971003
 10
3.7613811172
 20
57.9611694467
 10
3.742623596
 20
57.9902798866
 10
3.7296437345
 20
58.0311561543
 10
3.7230088148
 20
58.0820117607
 10
3.7230088148
 20
58.1406240716
 10
3.7296437345
 20
58.204431448
 10
3.742623596
 20
58.2706452012
 10
3.7613811172
 20
58.3363714726
 10
3.7850965043
 20
58.3987377086
 10
3.8127332812
 20
58.4550182056
 10
3.843083588
 20
58.5027532356
 10
3.8748209707
 20
58.5398565489
  0
LWPOLYLINE
  5
3A4
330
1F
100
AcDbEntity
  8
0
  6
SLD-Solid
 62
     7
370
    25
100
AcDbPolyline
 90
       31
 70
   128
 43
0.0
 10
3.8748209707
 20
56.7192332022
 10
3.9065583534
 20
56.7440832059
 10
3.9369086602
 20
56.7555938356
 10
3.964545437
 20
56.7532620215
 10
3.9882608241
 20
56.7371896752
 10
4.0070183453
 20
56.7080792352
 10
4.0199982068
 20
56.6672029675
 10
4.0266331265
 20
56.6163473612
 10
4.0266331265
 20
56.5577350502
 10
4.0199982068
 20
56.4939276738
 10
4.0070183453
 20
56.4277139206
 10
3.9882608241
 20
56.3619876492
 10
3.964545437
 20
56.2996214132
 10
3.9369086602
 20
56.2433409163
 10
3.9065583534
 20
56.1956058863
 10
3.8748209707
 20
56.158502573
 10
3.843083588
 20
56.1336525693
 10
3.8127332812
 20
56.1221419396
 10
3.7850965043
 20
56.1244737537
 10
3.7613811172
 20
56.1405461
 10
3.742623596
 20
56.16965654
 10
3.7296437345
 20
56.2105328076
 10
3.7230088148
 20
56.261388414
 10
3.7230088148
 20
56.3200007249
 10
3.7296437345
 20
56.3838081013
 10
3.742623596
 20
56.4500218545
 10
3.7613811172
 20
56.5157481259
 10
3.7850965043
 20
56.5781143619
 10
3.8127332812
 20
56.6343948589
 10
3.843083588
 20
56.6821298889
 10
3.8748209707
 20
56.7192332022
  0
LWPOLYLINE
  5
3A5
330
1F
100
AcDbEntity
  8
0
  6
SLD-Solid
 62
     7
370
    25
100
AcDbPolyline
 90
       43
 70
   128
 43
0.0
 10
3.8748209707
 20
57.8999095516
 10
3.8301303808
 20
57.8501389669
 10
3.7864381048
 20
57.7891777768
 10
3.744720156
 20
57.7183877536
 10
3.7059084444
 20
57.6393502295
 10
3.6708699595
 20
57.5538307722
 10
3.6403874032
 20
57.463739745
 10
3.6151417054
 20
57.3710896326
 10
3.5956968133
 20
57.2779500853
 10
3.5824870936
 20
57.1864016869
 10
3.5758076297
 20
57.0984894772
 10
3.5758076297
 20
57.0161772697
 10
3.5824870936
 20
56.9413037831
 10
3.5956968133
 20
56.8755415674
 10
3.6151417054
 20
56.8203596419
 10
3.6403874032
 20
56.7769906794
 10
3.6708699595
 20
56.7464034711
 10
3.7059084444
 20
56.7292812845
 10
3.744720156
 20
56.7260066011
 10
3.7864381048
 20
56.7366525719
 10
3.8301303808
 20
56.7609813834
 10
3.8748209707
 20
56.7984495702
 10
3.9195115606
 20
56.848220155
 10
3.9632038366
 20
56.9091813451
 10
4.0049217854
 20
56.9799713682
 10
4.043733497
 20
57.0590088923
 10
4.0787719818
 20
57.1445283497
 10
4.1092545381
 20
57.2346193769
 10
4.1345002359
 20
57.3272694893
 10
4.153945128
 20
57.4204090365
 10
4.1671548477
 20
57.5119574349
 10
4.1738343116
 20
57.5998696446
 10
4.1738343116
 20
57.6821818521
 10
4.1671548477
 20
57.7570553387
 10
4.153945128
 20
57.8228175544
 10
4.1345002359
 20
57.87799948
 10
4.1092545381
 20
57.9213684424
 10
4.0787719818
 20
57.9519556508
 10
4.043733497
 20
57.9690778373
 10
4.0049217854
 20
57.9723525207
 10
3.9632038366
 20
57.96170655
 10
3.9195115606
 20
57.9373777385
 10
3.8748209707
 20
57.8999095516
  0
LWPOLYLINE
  5
3A6
330
1F
100
AcDbEntity
  8
0
  6
SLD-Solid
 62
     7
370
    25
100
AcDbPolyline
 90
       22
 70
   128
 43
0.0
 10
4.0205450167
 20
57.9727300304
 10
4.0345510757
 20
57.9639739455
 10
4.065033632
 20
57.9333867372
 10
4.0902793298
 20
57.8900177747
 10
4.1097242219
 20
57.8348358491
 10
4.1229339416
 20
57.7690736334
 10
4.1296134056
 20
57.6942001469
 10
4.1296134056
 20
57.6118879394
 10
4.1229339416
 20
57.5239757297
 10
4.1097242219
 20
57.4324273312
 10
4.0902793298
 20
57.339287784
 10
4.065033632
 20
57.2466376716
 10
4.0345510757
 20
57.1565466444
 10
3.9995125909
 20
57.0710271871
 10
3.9607008793
 20
56.991989663
 10
3.9189829305
 20
56.9211996398
 10
3.8752906545
 20
56.8602384497
 10
3.8306000646
 20
56.810467865
 10
3.7859094747
 20
56.7729996781
 10
3.7422171987
 20
56.7486708666
 10
3.7004992499
 20
56.7380248959
 10
3.6848760186
 20
56.7376473862
  0
LWPOLYLINE
  5
3A7
330
1F
100
AcDbEntity
  8
0
  6
SLD-Solid
 62
     7
370
    25
100
AcDbPolyline
 90
       66
 70
   128
 43
0.0
 10
75.0508331384
 20
36.7193136201
 10
74.9832692356
 20
36.6593715349
 10
74.9163361588
 20
36.6119938229
 10
74.850658844
 20
36.5776228371
 10
74.7868505027
 20
36.5565794902
 10
74.7255068961
 20
36.5490602583
 10
74.667200773
 20
36.5551353463
 10
74.6124765219
 20
36.5747480328
 10
74.5618450885
 20
36.6077151995
 10
74.5157792047
 20
36.6537290408
 10
74.4747089753
 20
36.7123599378
 10
74.439017862
 20
36.7830604696
 10
74.4090391032
 20
36.8651705246
 10
74.3850526022
 20
36.9579234631
 10
74.3672823148
 20
37.0604532759
 10
74.3558941573
 20
37.17180267
 10
74.3509944577
 20
37.2909320059
 10
74.3526289634
 20
37.4167290051
 10
74.3607824133
 20
37.5480191351
 10
74.3753786809
 20
37.6835765751
 10
74.3962814848
 20
37.8221356619
 10
74.4232956612
 20
37.9624027066
 10
74.4561689859
 20
38.1030680737
 10
74.4945945295
 20
38.2428184085
 10
74.5382135232
 20
38.3803488998
 10
74.5866187081
 20
38.5143754624
 10
74.639358138
 20
38.6436467264
 10
74.6959393992
 20
38.7669557209
 10
74.7558342076
 20
38.883151143
 10
74.8184833415
 20
38.9911481074
 10
74.8833018629
 20
39.0899382755
 10
74.9496845786
 20
39.1785992702
 10
75.0170116912
 20
39.2563032875
 10
75.0846545856
 20
39.3223248261
 10
75.1519816982
 20
39.3760474606
 10
75.2183644139
 20
39.4169695972
 10
75.2831829353
 20
39.444709157
 10
75.3458320692
 20
39.4590071432
 10
75.4057268776
 20
39.4597300594
 10
75.4623081388
 20
39.4468711559
 10
75.5150475687
 20
39.4205504927
 10
75.5634527536
 20
39.3810138189
 10
75.6070717473
 20
39.3286302776
 10
75.6454972909
 20
39.26388896
 10
75.6783706156
 20
39.1873943383
 10
75.705384792
 20
39.099860622
 10
75.7262875959
 20
39.0021050901
 10
75.7408838635
 20
38.8950404594
 10
75.7490373134
 20
38.7796663636
 10
75.7506718191
 20
38.6570600197
 10
75.7457721195
 20
38.5283661698
 10
75.734383962
 20
38.394786394
 10
75.7166136745
 20
38.2575678905
 10
75.6926271736
 20
38.1179918316
 10
75.6626484147
 20
37.9773614012
 10
75.6269573015
 20
37.8369896279
 10
75.5858870721
 20
37.698187125
 10
75.5398211883
 20
37.5622498542
 10
75.4891897549
 20
37.4304470251
 10
75.4344655038
 20
37.3040092451
 10
75.3761593807
 20
37.1841170299
 10
75.3148157741
 20
37.0718897807
 10
75.2510074328
 20
36.968375333
 10
75.185330118
 20
36.8745401735
 10
75.1183970412
 20
36.7912604156
 10
75.0508331384
 20
36.7193136201
  0
LWPOLYLINE
  5
3A8
330
1F
100
AcDbEntity
  8
0
  6
SLD-Solid
 62
     7
370
    25
100
AcDbPolyline
 90
       65
 70
   128
 43
0.0
 10
75.0508331384
 20
36.7621719852
 10
74.9845041246
 20
36.7034177018
 10
74.9188138955
 20
36.6571989894
 10
74.8543950839
 20
36.6239609594
 10
74.7918680781
 20
36.6040237121
 10
74.7318350474
 20
36.5975792541
 10
74.6748741427
 20
36.6046896492
 10
74.6215339287
 20
36.6252864203
 10
74.5723281007
 20
36.6591712093
 10
74.5277305378
 20
36.7060176871
 10
74.488170739
 20
36.7653746965
 10
74.4540296866
 20
36.8366705971
 10
74.4256361777
 20
36.9192187703
 10
74.4032636573
 20
37.0122242322
 10
74.387127585
 20
37.1147912894
 10
74.3773833599
 20
37.2259321648
 10
74.3741248244
 20
37.3445765113
 10
74.3773833599
 20
37.4695817189
 10
74.387127585
 20
37.599743919
 10
74.4032636573
 20
37.7338095786
 10
74.4256361777
 20
37.8704875721
 10
74.4540296866
 20
38.0084616156
 10
74.488170739
 20
38.1464029438
 10
74.5277305378
 20
38.2829831061
 10
74.5723281007
 20
38.416886761
 10
74.6215339287
 20
38.5468243431
 10
74.6748741427
 20
38.6715444825
 10
74.7318350474
 20
38.789846056
 10
74.7918680781
 20
38.9005897547
 10
74.8543950839
 20
39.0027090564
 10
74.9188138955
 20
39.0952204964
 10
74.9845041246
 20
39.1772331388
 10
75.0508331384
 20
39.2479571572
 10
75.1171621522
 20
39.3067114405
 10
75.1828523813
 20
39.352930153
 10
75.2472711929
 20
39.386168183
 10
75.3097981987
 20
39.4061054303
 10
75.3698312294
 20
39.4125498882
 10
75.4267921341
 20
39.4054394932
 10
75.4801323481
 20
39.384842722
 10
75.5293381761
 20
39.3509579331
 10
75.573935739
 20
39.3041114553
 10
75.6134955378
 20
39.2447544459
 10
75.6476365902
 20
39.1734585453
 10
75.6760300991
 20
39.0909103721
 10
75.6984026195
 20
38.9979049101
 10
75.7145386918
 20
38.895337853
 10
75.7242829169
 20
38.7841969775
 10
75.7275414523
 20
38.6655526311
 10
75.7242829169
 20
38.5405474235
 10
75.7145386918
 20
38.4103852234
 10
75.6984026195
 20
38.2763195638
 10
75.6760300991
 20
38.1396415703
 10
75.6476365902
 20
38.0016675268
 10
75.6134955378
 20
37.8637261986
 10
75.573935739
 20
37.7271460363
 10
75.5293381761
 20
37.5932423814
 10
75.4801323481
 20
37.4633047992
 10
75.4267921341
 20
37.3385846599
 10
75.3698312294
 20
37.2202830864
 10
75.3097981987
 20
37.1095393876
 10
75.2472711929
 20
37.0074200859
 10
75.1828523813
 20
36.914908646
 10
75.1171621522
 20
36.8328960035
 10
75.0508331384
 20
36.7621719852
  0
LWPOLYLINE
  5
3A9
330
1F
100
AcDbEntity
  8
0
  6
SLD-Solid
 62
     7
370
    25
100
AcDbPolyline
 90
       21
 70
   128
 43
0.0
 10
74.5740498627
 20
36.9325775415
 10
74.5727887325
 20
36.9318454734
 10
74.5436873907
 20
36.9214509653
 10
74.5173742897
 20
36.9248469194
 10
74.495079801
 20
36.9418745447
 10
74.4778463899
 20
36.9717376484
 10
74.4664798718
 20
37.013039865
 10
74.4615117322
 20
37.0638499486
 10
74.463174276
 20
37.1217920763
 10
74.4713897644
 20
37.1841569385
 10
74.4857740503
 20
37.2480284237
 10
74.5056545405
 20
37.3104199721
 10
74.5301016453
 20
37.3684142244
 10
74.5579722454
 20
37.4192994336
 10
74.5879631424
 20
37.4606962641
 10
74.6186719953
 20
37.4906690459
 10
74.6486628923
 20
37.5078162852
 10
74.6765334923
 20
37.5113361961
 10
74.7009805972
 20
37.5010641915
 10
74.7208610874
 20
37.4774805788
 10
74.7217273014
 20
37.4759516468
  0
LWPOLYLINE
  5
3AA
330
1F
100
AcDbEntity
  8
0
  6
SLD-Solid
 62
     7
370
    25
100
AcDbPolyline
 90
       20
 70
   128
 43
0.0
 10
74.6033175688
 20
37.5759597232
 10
74.6480081587
 20
37.625730308
 10
74.6917004347
 20
37.6866914981
 10
74.7334183835
 20
37.7574815212
 10
74.7722300951
 20
37.8365190453
 10
74.80726858
 20
37.9220385026
 10
74.8377511363
 20
38.0121295299
 10
74.8629968341
 20
38.1047796423
 10
74.8824417262
 20
38.1979191895
 10
74.8956514459
 20
38.2894675879
 10
74.9023309098
 20
38.3773797976
 10
74.9023309098
 20
38.4596920051
 10
74.8956514459
 20
38.5345654917
 10
74.8824417262
 20
38.6003277074
 10
74.8629968341
 20
38.655509633
 10
74.8377511363
 20
38.6988785954
 10
74.80726858
 20
38.7294658038
 10
74.7722300951
 20
38.7465879903
 10
74.7334183835
 20
38.7498626737
 10
74.7096461385
 20
38.7454113807
  0
LWPOLYLINE
  5
3AB
330
1F
100
AcDbEntity
  8
0
  6
SLD-Solid
 62
     7
370
    25
100
AcDbPolyline
 90
        7
 70
   128
 43
0.0
 10
74.3818408142
 20
37.5392628565
 10
74.3993665577
 20
37.5239136241
 10
74.4344050425
 20
37.5067914375
 10
74.4732167541
 20
37.5035167541
 10
74.5149347029
 20
37.5141627248
 10
74.5586269789
 20
37.5384915364
 10
74.6033175688
 20
37.5759597232
  0
ARC
  5
3AC
330
1F
100
AcDbEntity
  8
0
  6
SLD-Solid
 62
     7
370
    25
100
AcDbCircle
 10
74.4038498166
 20
37.7164314262
 30
0.0
 40
0.2014990355714316
100
AcDbArc
 50
272.708794924
 51
320.3951694637
  0
LWPOLYLINE
  5
3AD
330
1F
100
AcDbEntity
  8
0
  6
SLD-Solid
 62
     7
370
    25
100
AcDbPolyline
 90
       18
 70
   128
 43
0.0
 10
74.7490416148
 20
38.7502401834
 10
74.7630476739
 20
38.7414840985
 10
74.7935302302
 20
38.7108968901
 10
74.818775928
 20
38.6675279277
 10
74.8382208201
 20
38.6123460021
 10
74.8514305398
 20
38.5465837864
 10
74.8581100037
 20
38.4717102999
 10
74.8581100037
 20
38.3893980924
 10
74.8514305398
 20
38.3014858827
 10
74.8382208201
 20
38.2099374842
 10
74.818775928
 20
38.116797937
 10
74.7935302302
 20
38.0241478246
 10
74.7630476739
 20
37.9340567974
 10
74.728009189
 20
37.84853734
 10
74.6891974774
 20
37.769499816
 10
74.6474795286
 20
37.6987097928
 10
74.6037872527
 20
37.6377486027
 10
74.5590966627
 20
37.5879780179
  0
LWPOLYLINE
  5
3AE
330
1F
100
AcDbEntity
  8
0
  6
SLD-Solid
 62
     7
370
    25
100
AcDbPolyline
 90
       23
 70
   128
 43
0.0
 10
74.7315581965
 20
37.3343156141
 10
74.7549951775
 20
37.351001732
 10
74.7765334337
 20
37.3539578519
 10
74.7944280636
 20
37.3429444865
 10
74.8072293508
 20
37.3188538731
 10
74.8139002112
 20
37.28363769
 10
74.8139002112
 20
37.2401489429
 10
74.8072293508
 20
37.1919108315
 10
74.7944280636
 20
37.1428313206
 10
74.7765334337
 20
37.0968865403
 10
74.7549951775
 20
37.0577986636
 10
74.7315581965
 20
37.0287343576
 10
74.7081212155
 20
37.0120482397
 10
74.6865829593
 20
37.0090921198
 10
74.6686883293
 20
37.0201054852
 10
74.6558870421
 20
37.0441960986
 10
74.6492161818
 20
37.0794122816
 10
74.6492161818
 20
37.1229010287
 10
74.6558870421
 20
37.1711391402
 10
74.6686883293
 20
37.2202186511
 10
74.6865829593
 20
37.2661634313
 10
74.7081212155
 20
37.3052513081
 10
74.7315581965
 20
37.3343156141
  0
LWPOLYLINE
  5
3AF
330
1F
100
AcDbEntity
  8
0
  6
SLD-Solid
 62
     7
370
    25
100
AcDbPolyline
 90
       18
 70
   128
 43
0.0
 10
74.7315581965
 20
37.0855222481
 10
74.7126761366
 20
37.0735756297
 10
74.6963442036
 20
37.0762081701
 10
74.6847681155
 20
37.0930643299
 10
74.679511287
 20
37.1218675915
 10
74.6812836821
 20
37.1587279148
 10
74.6898459289
 20
37.1986671089
 10
74.7040416486
 20
37.2362911642
 10
74.7219536306
 20
37.2665187437
 10
74.7411627624
 20
37.2852674452
 10
74.7590747443
 20
37.2900051527
 10
74.773270464
 20
37.2800920126
 10
74.7818327108
 20
37.2568668493
 10
74.7836051059
 20
37.2234663499
 10
74.7783482775
 20
37.1844014369
 10
74.7667721893
 20
37.1449480432
 10
74.7504402563
 20
37.1104345682
 10
74.7315581965
 20
37.0855222481
  0
LWPOLYLINE
  5
3B0
330
1F
100
AcDbEntity
  8
0
  6
SLD-Solid
 62
     7
370
    25
100
AcDbPolyline
 90
       17
 70
   128
 43
0.0
 10
73.6699942904
 20
39.2982135471
 10
73.6716043041
 20
39.3130265207
 10
73.6703327963
 20
39.3251507097
 10
73.6663733426
 20
39.3327403163
 10
73.6603287338
 20
39.3346398917
 10
73.6531192069
 20
39.3305602428
 10
73.6458423469
 20
39.3211224591
 10
73.63960599
 20
39.3077633576
 10
73.6353595648
 20
39.2925167404
 10
73.6337495511
 20
39.2777037669
 10
73.6350210589
 20
39.2655795778
 10
73.6389805127
 20
39.2579899712
 10
73.6450251214
 20
39.2560903958
 10
73.6522346484
 20
39.2601700447
 10
73.6595115083
 20
39.2696078285
 10
73.6657478652
 20
39.28296693
 10
73.6699942904
 20
39.2982135471
  0
LWPOLYLINE
  5
3B1
330
1F
100
AcDbEntity
  8
0
  6
SLD-Solid
 62
     7
370
    25
100
AcDbPolyline
 90
       10
 70
   128
 43
0.0
 10
73.5491400021
 20
39.2466665081
 10
73.5389134235
 20
39.2503031691
 10
73.5315932547
 20
39.2643347008
 10
73.5292425134
 20
39.2867496891
 10
73.5322190785
 20
39.314135655
 10
73.540069795
 20
39.3423233337
 10
73.5515994625
 20
39.3670214064
 10
73.5650527936
 20
39.3844698156
 10
73.5783816406
 20
39.3920121991
 10
73.5880329399
 20
39.389771748
  0
LWPOLYLINE
  5
3B2
330
1F
100
AcDbEntity
  8
0
  6
SLD-Solid
 62
     7
370
    25
100
AcDbPolyline
 90
       10
 70
   128
 43
0.0
 10
72.4562718997
 20
39.6982429369
 10
72.4507485355
 20
39.6984787148
 10
72.4374196884
 20
39.6909363313
 10
72.4239663573
 20
39.6734879222
 10
72.4124366898
 20
39.6487898494
 10
72.4045859733
 20
39.6206021708
 10
72.4016094082
 20
39.5932162048
 10
72.4039601496
 20
39.5708012166
 10
72.4112803183
 20
39.5567696848
 10
72.4169321209
 20
39.553493561
  0
LWPOLYLINE
  5
3B3
330
1F
100
AcDbEntity
  8
0
  6
SLD-Solid
 62
     7
370
    25
100
AcDbPolyline
 90
       12
 70
   128
 43
0.0
 10
72.4703284848
 20
39.6944226583
 10
72.4647502965
 20
39.702680105
 10
72.4523276751
 20
39.7065840312
 10
72.4375109637
 20
39.6981997112
 10
72.4225558724
 20
39.6788035817
 10
72.4097391783
 20
39.6513485277
 10
72.4010121069
 20
39.6200143322
 10
72.3977032756
 20
39.5895713425
 10
72.4003164241
 20
39.5646542278
 10
72.4084537241
 20
39.5490563929
 10
72.4208763455
 20
39.5451524667
 10
72.430988706
 20
39.5496732824
  0
LINE
  5
3B4
330
1F
100
AcDbEntity
  8
0
  6
SLD-Solid
 62
     7
370
    25
100
AcDbLine
 10
72.3130267568
 20
39.4947466061
 30
0.0
 11
72.3113440605
 21
39.4951431259
 31
0.0
  0
LINE
  5
3B5
330
1F
100
AcDbEntity
  8
0
  6
SLD-Solid
 62
     7
370
    25
100
AcDbLine
 10
6.6493890765
 20
55.5200321784
 30
0.0
 11
6.647788143
 21
55.5205243496
 31
0.0
  0
LWPOLYLINE
  5
3B6
330
1F
100
AcDbEntity
  8
0
  6
SLD-Solid
 62
     7
370
    25
100
AcDbPolyline
 90
       20
 70
   128
 43
0.0
 10
6.6454250133
 20
55.6324499636
 10
6.6443275023
 20
55.592208935
 10
6.6502141599
 20
55.5602524788
 10
6.6624470754
 20
55.5400435727
 10
6.6797006226
 20
55.5337721655
 10
6.700105112
 20
55.5421178613
 10
6.7214494004
 20
55.5641762745
 10
6.7414205032
 20
55.5975570338
 10
6.7578542414
 20
55.638642816
 10
6.7689697644
 20
55.6829813389
 10
6.7735625329
 20
55.7257678358
 10
6.7711348492
 20
55.7623657258
 10
6.7619497904
 20
55.7888090595
 10
6.7470027003
 20
55.8022322915
 10
6.7279133278
 20
55.8011808064
 10
6.7067503028
 20
55.7857685487
 10
6.6858069674
 20
55.7576656759
 10
6.6673528569
 20
55.7199175702
 10
6.6533877606
 20
55.6766148247
 10
6.6454250133
 20
55.6324499636
  0
LINE
  5
3B7
330
1F
100
AcDbEntity
  8
0
  6
SLD-Solid
 62
     7
370
    25
100
AcDbLine
 10
6.6146386643
 20
55.5465013422
 30
0.0
 11
6.6135863899
 21
55.548480727
 31
0.0
  0
LINE
  5
3B8
330
1F
100
AcDbEntity
  8
0
  6
SLD-Solid
 62
     7
370
    25
100
AcDbLine
 10
6.6852154016
 20
55.8189459044
 30
0.0
 11
6.6894215855
 21
55.8216625535
 31
0.0
  0
ARC
  5
3B9
330
1F
100
AcDbEntity
  8
0
  6
SLD-Solid
 62
     7
370
    25
100
AcDbCircle
 10
6.7091868273
 20
55.6693017659
 30
0.0
 40
0.1446835370612566
100
AcDbArc
 50
132.9170099359
 51
177.4317915297
  0
ARC
  5
3BA
330
1F
100
AcDbEntity
  8
0
  6
SLD-Solid
 62
     7
370
    25
100
AcDbCircle
 10
6.6403314369
 20
55.6592851341
 30
0.0
 40
0.0774605086370304
100
AcDbArc
 50
167.7013106117
 51
205.1342277356
  0
LINE
  5
3BB
330
1F
100
AcDbEntity
  8
0
  6
SLD-Solid
 62
     7
370
    25
100
AcDbLine
 10
6.7473130326
 20
55.6643529528
 30
0.0
 11
6.7533353751
 21
55.7204574439
 31
0.0
  0
LINE
  5
3BC
330
1F
100
AcDbEntity
  8
0
  6
SLD-Solid
 62
     7
370
    25
100
AcDbLine
 10
6.7533353751
 20
55.7204574439
 30
0.0
 11
6.7254619968
 21
55.7045263873
 31
0.0
  0
LINE
  5
3BD
330
1F
100
AcDbEntity
  8
0
  6
SLD-Solid
 62
     7
370
    25
100
AcDbLine
 10
6.7254619968
 20
55.7045263873
 30
0.0
 11
6.7316003833
 21
55.761711951
 31
0.0
  0
LINE
  5
3BE
330
1F
100
AcDbEntity
  8
0
  6
SLD-Solid
 62
     7
370
    25
100
AcDbLine
 10
6.7316003833
 20
55.761711951
 30
0.0
 11
6.7042539411
 21
55.7460820652
 31
0.0
  0
LINE
  5
3BF
330
1F
100
AcDbEntity
  8
0
  6
SLD-Solid
 62
     7
370
    25
100
AcDbLine
 10
6.7042539411
 20
55.7460820652
 30
0.0
 11
6.6981155546
 21
55.6888965016
 31
0.0
  0
LINE
  5
3C0
330
1F
100
AcDbEntity
  8
0
  6
SLD-Solid
 62
     7
370
    25
100
AcDbLine
 10
6.6981155546
 20
55.6888965016
 30
0.0
 11
6.6702421762
 21
55.6729654449
 31
0.0
  0
LINE
  5
3C1
330
1F
100
AcDbEntity
  8
0
  6
SLD-Solid
 62
     7
370
    25
100
AcDbLine
 10
6.6702421762
 20
55.6729654449
 30
0.0
 11
6.6642198336
 21
55.6168609538
 31
0.0
  0
LINE
  5
3C2
330
1F
100
AcDbEntity
  8
0
  6
SLD-Solid
 62
     7
370
    25
100
AcDbLine
 10
6.6642198336
 20
55.6168609538
 30
0.0
 11
6.692093212
 21
55.6327920105
 31
0.0
  0
LINE
  5
3C3
330
1F
100
AcDbEntity
  8
0
  6
SLD-Solid
 62
     7
370
    25
100
AcDbLine
 10
6.692093212
 20
55.6327920105
 30
0.0
 11
6.6859548255
 21
55.5756064468
 31
0.0
  0
LINE
  5
3C4
330
1F
100
AcDbEntity
  8
0
  6
SLD-Solid
 62
     7
370
    25
100
AcDbLine
 10
6.6859548255
 20
55.5756064468
 30
0.0
 11
6.7133012676
 21
55.5912363325
 31
0.0
  0
LINE
  5
3C5
330
1F
100
AcDbEntity
  8
0
  6
SLD-Solid
 62
     7
370
    25
100
AcDbLine
 10
6.7133012676
 20
55.5912363325
 30
0.0
 11
6.7194396542
 21
55.6484218962
 31
0.0
  0
LINE
  5
3C6
330
1F
100
AcDbEntity
  8
0
  6
SLD-Solid
 62
     7
370
    25
100
AcDbLine
 10
6.7194396542
 20
55.6484218962
 30
0.0
 11
6.7473130326
 21
55.6643529528
 31
0.0
  0
LINE
  5
3C7
330
1F
100
AcDbEntity
  8
0
  6
SLD-Solid
 62
     7
370
    25
100
AcDbLine
 10
6.6666715279
 20
55.6397010795
 30
0.0
 11
6.692093212
 21
55.6327920105
 31
0.0
  0
LWPOLYLINE
  5
3C8
330
1F
100
AcDbEntity
  8
0
  6
SLD-Solid
 62
     7
370
    25
100
AcDbPolyline
 90
        5
 70
   128
 43
0.0
 10
5.4408312719
 20
55.9844322648
 10
5.4405524885
 20
55.9590816335
 10
5.4455202072
 20
55.9405647916
 10
5.4549781379
 20
55.9317007603
 10
5.4553444353
 20
55.931594934
  0
LWPOLYLINE
  5
3C9
330
1F
100
AcDbEntity
  8
0
  6
SLD-Solid
 62
     7
370
    25
100
AcDbPolyline
 90
        6
 70
   128
 43
0.0
 10
5.494684214
 20
56.0763443099
 10
5.4825422528
 20
56.0741002359
 10
5.4688879355
 20
56.0612852379
 10
5.4561663053
 20
56.0397444569
 10
5.4463141153
 20
56.0127572816
 10
5.4408312719
 20
55.9844322648
  0
LINE
  5
3CA
330
1F
100
AcDbEntity
  8
0
  6
SLD-Solid
 62
     7
370
    25
100
AcDbLine
 10
6.7005209005
 20
55.7113048429
 30
0.0
 11
6.7254619968
 21
55.7045263873
 31
0.0
  0
LINE
  5
3CB
330
1F
100
AcDbEntity
  8
0
  6
SLD-Solid
 62
     7
370
    25
100
AcDbLine
 10
6.6883601714
 20
55.5980147881
 30
0.0
 11
6.7133012676
 21
55.5912363325
 31
0.0
  0
LINE
  5
3CC
330
1F
100
AcDbEntity
  8
0
  6
SLD-Solid
 62
     7
370
    25
100
AcDbLine
 10
6.7194396542
 20
55.6484218962
 30
0.0
 11
6.6690768738
 21
55.6621094207
 31
0.0
  0
LINE
  5
3CD
330
1F
100
AcDbEntity
  8
0
  6
SLD-Solid
 62
     7
370
    25
100
AcDbLine
 10
6.6848672006
 20
55.6813243919
 30
0.0
 11
6.7473130326
 21
55.6643529528
 31
0.0
  0
LWPOLYLINE
  5
3CE
330
1F
100
AcDbEntity
  8
0
  6
SLD-Solid
 62
     7
370
    25
100
AcDbPolyline
 90
        6
 70
   128
 43
0.0
 10
5.3680830184
 20
56.017438523
 10
5.3710486692
 20
56.0327594259
 10
5.3763776845
 20
56.047356695
 10
5.3832587699
 20
56.0590080284
 10
5.3906443426
 20
56.0659396161
 10
5.3947374067
 20
56.0673484413
  0
ARC
  5
3CF
330
1F
100
AcDbEntity
  8
0
  6
SLD-Solid
 62
     7
370
    25
100
AcDbCircle
 10
5.3973365238
 20
56.0090936604
 30
0.0
 40
0.030420458784948
100
AcDbArc
 50
164.0786572534
 51
219.0148571998
  0
LWPOLYLINE
  5
3D0
330
1F
100
AcDbEntity
  8
0
  6
SLD-Solid
 62
     7
370
    25
100
AcDbPolyline
 90
       17
 70
   128
 43
0.0
 10
73.6711664217
 20
37.4853094855
 10
73.6713172147
 20
37.4990215536
 10
73.668630193
 20
37.5090372489
 10
73.6635144312
 20
37.5138317726
 10
73.6567487577
 20
37.5126752018
 10
73.6493631851
 20
37.505743614
 10
73.6424820996
 20
37.4940922806
 10
73.6371530844
 20
37.4794950116
 10
73.6341874335
 20
37.4641741087
 10
73.6340366405
 20
37.4504620405
 10
73.6367236622
 20
37.4404463452
 10
73.641839424
 20
37.4356518216
 10
73.6486050975
 20
37.4368083924
 10
73.6559906702
 20
37.4437399802
 10
73.6628717556
 20
37.4553913135
 10
73.6682007709
 20
37.4699885826
 10
73.6711664217
 20
37.4853094855
  0
LWPOLYLINE
  5
3D1
330
1F
100
AcDbEntity
  8
0
  6
SLD-Solid
 62
     7
370
    25
100
AcDbPolyline
 90
       11
 70
   128
 43
0.0
 10
73.5491400021
 20
37.4260431614
 10
73.5441989287
 20
37.4265095249
 10
73.534740998
 20
37.4353735561
 10
73.5297732793
 20
37.4538903981
 10
73.5300520627
 20
37.4792410294
 10
73.5355349061
 20
37.5075660462
 10
73.5453870961
 20
37.5345532215
 10
73.5581087263
 20
37.5560940024
 10
73.5717630436
 20
37.5689090004
 10
73.5842713022
 20
37.5710472482
 10
73.5880329399
 20
37.5691484013
  0
LWPOLYLINE
  5
3D2
330
1F
100
AcDbEntity
  8
0
  6
SLD-Solid
 62
     7
370
    25
100
AcDbPolyline
 90
       10
 70
   128
 43
0.0
 10
72.4562718997
 20
37.8776195902
 10
72.4441299385
 20
37.8753755162
 10
72.4304756211
 20
37.8625605182
 10
72.417753991
 20
37.8410197372
 10
72.4079018009
 20
37.8140325619
 10
72.4024189576
 20
37.7857075451
 10
72.4021401741
 20
37.7603569138
 10
72.4071078928
 20
37.7418400719
 10
72.4165658236
 20
37.7329760406
 10
72.4169321209
 20
37.7328702143
  0
LWPOLYLINE
  5
3D3
330
1F
100
AcDbEntity
  8
0
  6
SLD-Solid
 62
     7
370
    25
100
AcDbPolyline
 90
       13
 70
   128
 43
0.0
 10
72.4703284848
 20
37.8737993116
 10
72.4693884789
 20
37.875727448
 10
72.4588747841
 20
37.8855809479
 10
72.4449702614
 20
37.8832040131
 10
72.4297917483
 20
37.8689585104
 10
72.4156500359
 20
37.8450131884
 10
72.4046980716
 20
37.8150135054
 10
72.3986031928
 20
37.783526641
 10
72.3982932895
 20
37.7553461851
 10
72.4038155417
 20
37.7347623565
 10
72.4143292365
 20
37.7249088566
 10
72.4282337592
 20
37.7272857914
 10
72.430988706
 20
37.7290499357
  0
LINE
  5
3D4
330
1F
100
AcDbEntity
  8
0
  6
SLD-Solid
 62
     7
370
    25
100
AcDbLine
 10
72.3947443915
 20
37.981388456
 30
0.0
 11
72.3963453249
 21
37.9808962848
 31
0.0
  0
LINE
  5
3D5
330
1F
100
AcDbEntity
  8
0
  6
SLD-Solid
 62
     7
370
    25
100
AcDbLine
 10
6.7311067111
 20
57.6479207217
 30
0.0
 11
6.7327894074
 21
57.6475242019
 31
0.0
  0
LWPOLYLINE
  5
3D6
330
1F
100
AcDbEntity
  8
0
  6
SLD-Solid
 62
     7
370
    25
100
AcDbPolyline
 90
       20
 70
   128
 43
0.0
 10
6.6494412159
 20
57.4795227473
 10
6.6441431808
 20
57.436356299
 10
6.6458492884
 20
57.3989252308
 10
6.6543746555
 20
57.3712857796
 10
6.6687954263
 20
57.356433109
 10
6.6875488864
 20
57.3559767362
 10
6.7086028075
 20
57.3699661162
 10
6.7296756706
 20
57.3968852828
 10
6.7484839039
 20
57.4338171265
 10
6.7629893436
 20
57.476759509
 10
6.7716201001
 20
57.5210589568
 10
6.7734408972
 20
57.5619149374
 10
6.7682544231
 20
57.5949000713
 10
6.7566227128
 20
57.6164399075
 10
6.7398062426
 20
57.6242002705
 10
6.719627338
 20
57.6173402045
 10
6.6982726964
 20
57.5966031042
 10
6.6780564246
 20
57.564236156
 10
6.6611692694
 20
57.5237468212
 10
6.6494412159
 20
57.4795227473
  0
LWPOLYLINE
  5
3D7
330
1F
100
AcDbEntity
  8
0
  6
SLD-Solid
 62
     7
370
    25
100
AcDbPolyline
 90
        3
 70
   128
 43
0.0
 10
6.6146386643
 20
57.3671246889
 10
6.6124218851
 20
57.3715185626
 10
6.6119332236
 20
57.3726107047
  0
LWPOLYLINE
  5
3D8
330
1F
100
AcDbEntity
  8
0
  6
SLD-Solid
 62
     7
370
    25
100
AcDbPolyline
 90
        3
 70
   128
 43
0.0
 10
6.6807998514
 20
57.6362146145
 10
6.6819162679
 20
57.6371107357
 10
6.6894215855
 20
57.6422859002
  0
ARC
  5
3D9
330
1F
100
AcDbEntity
  8
0
  6
SLD-Solid
 62
     7
370
    25
100
AcDbCircle
 10
6.6933467746
 20
57.499581286
 30
0.0
 40
0.1269253404857753
100
AcDbArc
 50
130.6480392271
 51
174.2614119766
  0
ARC
  5
3DA
330
1F
100
AcDbEntity
  8
0
  6
SLD-Solid
 62
     7
370
    25
100
AcDbCircle
 10
6.6635197594
 20
57.4842167003
 30
0.0
 40
0.1004594063426451
100
AcDbArc
 50
163.7830398453
 51
201.7394636233
  0
LINE
  5
3DB
330
1F
100
AcDbEntity
  8
0
  6
SLD-Solid
 62
     7
370
    25
100
AcDbLine
 10
6.74203177
 20
57.4666388303
 30
0.0
 11
6.7533489902
 21
57.524727203
 31
0.0
  0
LINE
  5
3DC
330
1F
100
AcDbEntity
  8
0
  6
SLD-Solid
 62
     7
370
    25
100
AcDbLine
 10
6.7533489902
 20
57.524727203
 30
0.0
 11
6.7272426292
 21
57.5204331632
 31
0.0
  0
LINE
  5
3DD
330
1F
100
AcDbEntity
  8
0
  6
SLD-Solid
 62
     7
370
    25
100
AcDbLine
 10
6.7272426292
 20
57.5204331632
 30
0.0
 11
6.7387779199
 21
57.5796408356
 31
0.0
  0
LINE
  5
3DE
330
1F
100
AcDbEntity
  8
0
  6
SLD-Solid
 62
     7
370
    25
100
AcDbLine
 10
6.7387779199
 20
57.5796408356
 30
0.0
 11
6.7131650903
 21
57.5754279731
 31
0.0
  0
LINE
  5
3DF
330
1F
100
AcDbEntity
  8
0
  6
SLD-Solid
 62
     7
370
    25
100
AcDbLine
 10
6.7131650903
 20
57.5754279731
 30
0.0
 11
6.7016297997
 21
57.5162203006
 31
0.0
  0
LINE
  5
3E0
330
1F
100
AcDbEntity
  8
0
  6
SLD-Solid
 62
     7
370
    25
100
AcDbLine
 10
6.7016297997
 20
57.5162203006
 30
0.0
 11
6.6755234387
 21
57.5119262608
 31
0.0
  0
LINE
  5
3E1
330
1F
100
AcDbEntity
  8
0
  6
SLD-Solid
 62
     7
370
    25
100
AcDbLine
 10
6.6755234387
 20
57.5119262608
 30
0.0
 11
6.6642062186
 21
57.4538378881
 31
0.0
  0
LINE
  5
3E2
330
1F
100
AcDbEntity
  8
0
  6
SLD-Solid
 62
     7
370
    25
100
AcDbLine
 10
6.6642062186
 20
57.4538378881
 30
0.0
 11
6.6903125795
 21
57.458131928
 31
0.0
  0
LINE
  5
3E3
330
1F
100
AcDbEntity
  8
0
  6
SLD-Solid
 62
     7
370
    25
100
AcDbLine
 10
6.6903125795
 20
57.458131928
 30
0.0
 11
6.6787772889
 21
57.3989242555
 31
0.0
  0
LINE
  5
3E4
330
1F
100
AcDbEntity
  8
0
  6
SLD-Solid
 62
     7
370
    25
100
AcDbLine
 10
6.6787772889
 20
57.3989242555
 30
0.0
 11
6.7043901184
 21
57.4031371181
 31
0.0
  0
LINE
  5
3E5
330
1F
100
AcDbEntity
  8
0
  6
SLD-Solid
 62
     7
370
    25
100
AcDbLine
 10
6.7043901184
 20
57.4031371181
 30
0.0
 11
6.7159254091
 21
57.4623447905
 31
0.0
  0
LINE
  5
3E6
330
1F
100
AcDbEntity
  8
0
  6
SLD-Solid
 62
     7
370
    25
100
AcDbLine
 10
6.7159254091
 20
57.4623447905
 30
0.0
 11
6.74203177
 21
57.4666388303
 31
0.0
  0
LINE
  5
3E7
330
1F
100
AcDbEntity
  8
0
  6
SLD-Solid
 62
     7
370
    25
100
AcDbLine
 10
6.6663135635
 20
57.4646543463
 30
0.0
 11
6.6903125795
 21
57.458131928
 31
0.0
  0
LWPOLYLINE
  5
3E8
330
1F
100
AcDbEntity
  8
0
  6
SLD-Solid
 62
     7
370
    25
100
AcDbPolyline
 90
        5
 70
   128
 43
0.0
 10
5.4429982877
 20
57.8193268905
 10
5.4400217226
 20
57.7919409245
 10
5.4423724639
 20
57.7695259363
 10
5.4496926327
 20
57.7554944045
 10
5.4553444353
 20
57.7522182807
  0
LWPOLYLINE
  5
3E9
330
1F
100
AcDbEntity
  8
0
  6
SLD-Solid
 62
     7
370
    25
100
AcDbPolyline
 90
        6
 70
   128
 43
0.0
 10
5.494684214
 20
57.8969676566
 10
5.4891608498
 20
57.8972034345
 10
5.4758320028
 20
57.889661051
 10
5.4623786717
 20
57.8722126418
 10
5.4508490042
 20
57.8475145691
 10
5.4429982877
 20
57.8193268905
  0
LINE
  5
3EA
330
1F
100
AcDbEntity
  8
0
  6
SLD-Solid
 62
     7
370
    25
100
AcDbLine
 10
6.6808447952
 20
57.4095362324
 30
0.0
 11
6.7043901184
 21
57.4031371181
 31
0.0
  0
LINE
  5
3EB
330
1F
100
AcDbEntity
  8
0
  6
SLD-Solid
 62
     7
370
    25
100
AcDbLine
 10
6.703697306
 20
57.5268322775
 30
0.0
 11
6.7272426292
 21
57.5204331632
 31
0.0
  0
LINE
  5
3EC
330
1F
100
AcDbEntity
  8
0
  6
SLD-Solid
 62
     7
370
    25
100
AcDbLine
 10
6.6704884148
 20
57.4860827813
 30
0.0
 11
6.74203177
 21
57.4666388303
 31
0.0
  0
LINE
  5
3ED
330
1F
100
AcDbEntity
  8
0
  6
SLD-Solid
 62
     7
370
    25
100
AcDbLine
 10
6.7159254091
 20
57.4623447905
 30
0.0
 11
6.6683810699
 21
57.4752663232
 31
0.0
  0
LWPOLYLINE
  5
3EE
330
1F
100
AcDbEntity
  8
0
  6
SLD-Solid
 62
     7
370
    25
100
AcDbPolyline
 90
        6
 70
   128
 43
0.0
 10
5.3692551496
 20
57.8457811548
 10
5.3735015748
 20
57.8610277719
 10
5.3797379318
 20
57.8743868734
 10
5.3870147917
 20
57.8838246572
 10
5.3942243186
 20
57.8879043061
 10
5.3947374067
 20
57.887971788
  0
LWPOLYLINE
  5
3EF
330
1F
100
AcDbEntity
  8
0
  6
SLD-Solid
 62
     7
370
    25
100
AcDbPolyline
 90
        5
 70
   128
 43
0.0
 10
5.3737003521
 20
57.8105666624
 10
5.3728760975
 20
57.8112543856
 10
5.3689166438
 20
57.8188439922
 10
5.3676451359
 20
57.8309681812
 10
5.3692551496
 20
57.8457811548
  0
LWPOLYLINE
  5
3F0
330
1F
100
AcDbEntity
  8
0
  6
SLD-Solid
 62
     8
370
    25
100
AcDbPolyline
 90
        8
 70
   128
 43
0.0
 10
3.7863791585
 20
58.6589671014
 10
3.8539430613
 20
58.7189091867
 10
3.9208761381
 20
58.7662868987
 10
3.9865534529
 20
58.8006578845
 10
4.0503617942
 20
58.8217012313
 10
4.1117054008
 20
58.8292204633
 10
4.1700115239
 20
58.8231453753
 10
4.1771686341
 20
58.8214030704
  0
LWPOLYLINE
  5
3F1
330
1F
100
AcDbEntity
  8
0
  6
SLD-Solid
 62
     8
370
    25
100
AcDbPolyline
 90
       28
 70
   128
 43
0.0
 10
3.3899271894
 20
55.9265741529
 10
3.3749041581
 20
55.9314095657
 10
3.3221647282
 20
55.9577302289
 10
3.2737595433
 20
55.9972669027
 10
3.2301405496
 20
56.0496504439
 10
3.191715006
 20
56.1143917616
 10
3.1588416813
 20
56.1908863833
 10
3.1318275049
 20
56.2784200996
 10
3.110924701
 20
56.3761756315
 10
3.0963284334
 20
56.4832402622
 10
3.0881749835
 20
56.598614358
 10
3.0865404778
 20
56.7212207019
 10
3.0914401774
 20
56.8499145517
 10
3.1028283349
 20
56.9834943276
 10
3.1205986224
 20
57.1207128311
 10
3.1445851233
 20
57.26028889
 10
3.1745638822
 20
57.4009193204
 10
3.2102549954
 20
57.5412910937
 10
3.2513252248
 20
57.6800935966
 10
3.2973911086
 20
57.8160308674
 10
3.348022542
 20
57.9478336965
 10
3.4027467931
 20
58.0742714765
 10
3.4610529162
 20
58.1941636917
 10
3.5223965228
 20
58.3063909409
 10
3.5862048641
 20
58.4099053886
 10
3.6518821789
 20
58.5037405481
 10
3.7188152557
 20
58.587020306
 10
3.7863791585
 20
58.6589671014
  0
LWPOLYLINE
  5
3F2
330
1F
100
AcDbEntity
  8
0
  6
SLD-Solid
 62
     8
370
    25
100
AcDbPolyline
 90
       19
 70
   128
 43
0.0
 10
3.7473748296
 20
58.0515769328
 10
3.7477621493
 20
58.0509179023
 10
3.7665340805
 20
58.0303223578
 10
3.7898314242
 20
58.0235257331
 10
3.8163002234
 20
58.0309230233
 10
3.8444022079
 20
58.052084325
 10
3.8725041924
 20
58.08577982
 10
3.8989729917
 20
58.1300512488
 10
3.9222703353
 20
58.1823257168
 10
3.9410422665
 20
58.239565222
 10
3.9541978287
 20
58.2984432122
 10
3.9609724686
 20
58.3555379129
 10
3.9609724686
 20
58.4075311875
 10
3.9541978287
 20
58.4514013758
 10
3.9410422665
 20
58.4845989021
 10
3.9222703353
 20
58.5051944466
 10
3.8989729917
 20
58.5119910713
 10
3.8725041924
 20
58.5045937811
 10
3.8681148642
 20
58.5021335845
  0
LWPOLYLINE
  5
3F3
330
1F
100
AcDbEntity
  8
0
  6
SLD-Solid
 62
     8
370
    25
100
AcDbPolyline
 90
       19
 70
   128
 43
0.0
 10
3.7473748296
 20
56.2309535861
 10
3.7477621493
 20
56.2302945556
 10
3.7665340805
 20
56.2096990111
 10
3.7898314242
 20
56.2029023864
 10
3.8163002234
 20
56.2102996766
 10
3.8444022079
 20
56.2314609783
 10
3.8725041924
 20
56.2651564733
 10
3.8989729917
 20
56.3094279021
 10
3.9222703353
 20
56.3617023701
 10
3.9410422665
 20
56.4189418753
 10
3.9541978287
 20
56.4778198656
 10
3.9609724686
 20
56.5349145662
 10
3.9609724686
 20
56.5869078408
 10
3.9541978287
 20
56.6307780291
 10
3.9410422665
 20
56.6639755554
 10
3.9222703353
 20
56.6845710999
 10
3.8989729917
 20
56.6913677246
 10
3.8725041924
 20
56.6839704344
 10
3.8681148642
 20
56.6815102378
  0
LWPOLYLINE
  5
3F4
330
1F
100
AcDbEntity
  8
0
  6
SLD-Solid
 62
     8
370
    25
100
AcDbPolyline
 90
       34
 70
   128
 43
0.0
 10
75.0409362624
 20
39.5621651776
 10
75.0024322141
 20
39.5693369074
 10
74.9425374057
 20
39.5686139912
 10
74.8798882718
 20
39.554316005
 10
74.8150697504
 20
39.5265764452
 10
74.7486870347
 20
39.4856543085
 10
74.6813599221
 20
39.431931674
 10
74.6137170277
 20
39.3659101355
 10
74.5463899151
 20
39.2882061181
 10
74.4800071994
 20
39.1995451235
 10
74.415188678
 20
39.1007549554
 10
74.3525395441
 20
38.992757991
 10
74.2926447357
 20
38.8765625689
 10
74.2360634745
 20
38.7532535744
 10
74.1833240446
 20
38.6239823103
 10
74.1349188597
 20
38.4899557477
 10
74.091299866
 20
38.3524252565
 10
74.0528743224
 20
38.2126749217
 10
74.0200009977
 20
38.0720095546
 10
73.9929868214
 20
37.9317425099
 10
73.9720840175
 20
37.793183423
 10
73.9574877498
 20
37.657625983
 10
73.9493342999
 20
37.5263358531
 10
73.9476997942
 20
37.4005388539
 10
73.9525994938
 20
37.281409518
 10
73.9639876513
 20
37.1700601239
 10
73.9817579388
 20
37.067530311
 10
74.0057444397
 20
36.9747773725
 10
74.0357231986
 20
36.8926673176
 10
74.0714143118
 20
36.8219667857
 10
74.1124845412
 20
36.7633358887
 10
74.158550425
 20
36.7173220475
 10
74.2091818585
 20
36.6843548808
 10
74.2541406874
 20
36.6671776607
  0
LWPOLYLINE
  5
3F5
330
1F
100
AcDbEntity
  8
0
  6
SLD-Solid
 62
     8
370
    25
100
AcDbPolyline
 90
       27
 70
   128
 43
0.0
 10
74.494434686
 20
36.7545733311
 10
74.515519232
 20
36.7668058374
 10
74.5812094611
 20
36.8130245498
 10
74.6475384749
 20
36.8717788332
 10
74.7138674887
 20
36.9425028515
 10
74.7795577178
 20
37.024515494
 10
74.8439765294
 20
37.1170269339
 10
74.9065035352
 20
37.2191462356
 10
74.9665365659
 20
37.3298899344
 10
75.0234974706
 20
37.4481915079
 10
75.0768376846
 20
37.5729116472
 10
75.1260435126
 20
37.7028492293
 10
75.1706410755
 20
37.8367528843
 10
75.2102008744
 20
37.9733330466
 10
75.2443419267
 20
38.1112743747
 10
75.2727354357
 20
38.2492484183
 10
75.2951079561
 20
38.3859264117
 10
75.3112440284
 20
38.5199920713
 10
75.3209882534
 20
38.6501542715
 10
75.3242467889
 20
38.775159479
 10
75.3209882534
 20
38.8938038255
 10
75.3112440284
 20
39.004944701
 10
75.2951079561
 20
39.1075117581
 10
75.2727354357
 20
39.20051722
 10
75.2443419267
 20
39.2830653933
 10
75.2102008744
 20
39.3543612939
 10
75.2039369273
 20
39.3651626592
  0
ARC
  5
3F6
330
1F
100
AcDbEntity
  8
0
  6
SLD-Solid
 62
     8
370
    25
100
AcDbCircle
 10
74.1204347396
 20
37.4037600241
 30
0.0
 40
0.6788258690582797
100
AcDbArc
 50
300.2347570395
 51
315.344867138
  0
LWPOLYLINE
  5
3F7
330
1F
100
AcDbEntity
  8
0
  6
SLD-Solid
 62
     8
370
    25
100
AcDbPolyline
 90
       20
 70
   128
 43
0.0
 10
75.1444450358
 20
39.3273755817
 10
75.1691556565
 20
39.2789821446
 10
75.1988713784
 20
39.201527088
 10
75.2226682189
 20
39.1133898147
 10
75.2403096744
 20
39.0154462725
 10
75.2516204162
 20
38.9086698684
 10
75.2564880331
 20
38.7941217941
 10
75.2548641484
 20
38.67294048
 10
75.2467649011
 20
38.5463302803
 10
75.2322707851
 20
38.4155495042
 10
75.2115258495
 20
38.2818979097
 10
75.1847362667
 20
38.1467037864
 10
75.1521682837
 20
38.0113107543
 10
75.1141455757
 20
37.8770644101
 10
75.0710460295
 20
37.7452989544
 10
75.0232979877
 20
37.6173239313
 10
74.9713759919
 20
37.4944112142
 10
74.915796066
 20
37.377782365
 10
74.8571105885
 20
37.2685964934
 10
74.8052301487
 20
37.1824676177
  0
LINE
  5
3F8
330
1F
100
AcDbEntity
  8
0
  6
SLD-Solid
 62
     8
370
    25
100
AcDbLine
 10
74.6538975044
 20
36.9796242771
 30
0.0
 11
74.6033175688
 21
36.9266554929
 31
0.0
  0
LWPOLYLINE
  5
3F9
330
1F
100
AcDbEntity
  8
0
  6
SLD-Solid
 62
     8
370
    25
100
AcDbPolyline
 90
        7
 70
   128
 43
0.0
 10
72.2988690314
 20
39.6346039525
 10
72.2931068532
 20
39.5890329012
 10
72.2943477026
 20
39.5489817624
 10
72.3024701168
 20
39.5183710207
 10
72.3166790172
 20
39.5001970687
 10
72.3355835378
 20
39.4962388995
 10
72.3498278546
 20
39.5017088017
  0
LWPOLYLINE
  5
3FA
330
1F
100
AcDbEntity
  8
0
  6
SLD-Solid
 62
     8
370
    25
100
AcDbPolyline
 90
        8
 70
   128
 43
0.0
 10
72.4246107758
 20
39.776870013
 10
72.4126186545
 20
39.7906500913
 10
72.393714134
 20
39.7946082605
 10
72.3719644996
 20
39.7839631938
 10
72.3494987571
 20
39.7597569044
 10
72.3285160098
 20
39.7243588726
 10
72.3110701953
 20
39.6812341043
 10
72.2988690314
 20
39.6346039525
  0
LWPOLYLINE
  5
3FB
330
1F
100
AcDbEntity
  8
0
  6
SLD-Solid
 62
     8
370
    25
100
AcDbPolyline
 90
       13
 70
   128
 43
0.0
 10
72.3113440605
 20
39.4951431259
 10
72.3087021349
 20
39.4960184854
 10
72.2931345765
 20
39.5096845044
 10
72.2828902533
 20
39.5356917725
 10
72.2788794184
 20
39.5717294297
 10
72.2814584522
 20
39.614595372
 10
72.2903981961
 20
39.6604807723
 10
72.3049043147
 20
39.7053085115
 10
72.3236878756
 20
39.7450954482
 10
72.3450798772
 20
39.7763063384
 10
72.367179546
 20
39.7961679577
 10
72.3880232297
 20
39.8029155139
 10
72.3944665277
 20
39.8020856369
  0
LWPOLYLINE
  5
3FC
330
1F
100
AcDbEntity
  8
0
  6
SLD-Solid
 62
     8
370
    25
100
AcDbPolyline
 90
       13
 70
   128
 43
0.0
 10
72.3898603636
 20
39.8033391768
 10
72.3831392018
 20
39.804242888
 10
72.3622955182
 20
39.7974953318
 10
72.3401958493
 20
39.7776337125
 10
72.3188038478
 20
39.7464228223
 10
72.3000202868
 20
39.7066358856
 10
72.2855141682
 20
39.6618081464
 10
72.2765744243
 20
39.6159227461
 10
72.2739953905
 20
39.5730568038
 10
72.2780062254
 20
39.5370191466
 10
72.2882505486
 20
39.5110118786
 10
72.3038181071
 20
39.4973458595
 10
72.3064600327
 20
39.4964705
  0
LWPOLYLINE
  5
3FD
330
1F
100
AcDbEntity
  8
0
  6
SLD-Solid
 62
     8
370
    25
100
AcDbPolyline
 90
        8
 70
   128
 43
0.0
 10
6.6186211702
 20
55.6320473196
 10
6.6265447823
 20
55.6777107443
 10
6.640203453
 20
55.7229970508
 10
6.6583835493
 20
55.763882352
 10
6.6794696899
 20
55.7967338095
 10
6.7015882788
 20
55.818632427
 10
6.7227739821
 20
55.8276324164
 10
6.7327570547
 20
55.8269096251
  0
LWPOLYLINE
  5
3FE
330
1F
100
AcDbEntity
  8
0
  6
SLD-Solid
 62
     8
370
    25
100
AcDbPolyline
 90
        5
 70
   128
 43
0.0
 10
6.647788143
 20
55.5205243496
 10
6.6334287272
 20
55.5314017874
 10
6.6222231693
 20
55.5554916893
 10
6.6171366642
 20
55.5900641723
 10
6.6186211702
 20
55.6320473196
  0
LWPOLYLINE
  5
3FF
330
1F
100
AcDbEntity
  8
0
  6
SLD-Solid
 62
     8
370
    25
100
AcDbPolyline
 90
        5
 70
   128
 43
0.0
 10
6.6137371423
 20
55.6333746937
 10
6.6122526363
 20
55.5913915464
 10
6.6173391414
 20
55.5568190634
 10
6.6285446993
 20
55.5327291616
 10
6.6445050486
 20
55.5213595525
  0
LWPOLYLINE
  5
400
330
1F
100
AcDbEntity
  8
0
  6
SLD-Solid
 62
     8
370
    25
100
AcDbPolyline
 90
        8
 70
   128
 43
0.0
 10
6.7279053796
 20
55.8282282293
 10
6.7178899542
 20
55.8289597905
 10
6.6967042509
 20
55.8199598011
 10
6.6745856621
 20
55.7980611836
 10
6.6534995215
 20
55.7652097261
 10
6.6353194251
 20
55.7243244249
 10
6.6216607545
 20
55.6790381184
 10
6.6137371423
 20
55.6333746937
  0
ARC
  5
401
330
1F
100
AcDbEntity
  8
0
  6
SLD-Solid
 62
     8
370
    25
100
AcDbCircle
 10
6.8759030756
 20
55.623727304
 30
0.0
 40
0.2728957511287818
100
AcDbArc
 50
134.3273210525
 51
196.005747422
  0
LWPOLYLINE
  5
402
330
1F
100
AcDbEntity
  8
0
  6
SLD-Solid
 62
     8
370
    25
100
AcDbPolyline
 90
        7
 70
   128
 43
0.0
 10
72.2944167042
 20
37.7846589899
 10
72.2930746053
 20
37.742097506
 10
72.2987386908
 20
37.7076315413
 10
72.3108545205
 20
37.6846348645
 10
72.3282361126
 20
37.6753585506
 10
72.3491820357
 20
37.6807106299
 10
72.3498278546
 20
37.681085455
  0
LWPOLYLINE
  5
403
330
1F
100
AcDbEntity
  8
0
  6
SLD-Solid
 62
     8
370
    25
100
AcDbPolyline
 90
        9
 70
   128
 43
0.0
 10
72.4246107758
 20
37.9562466663
 10
72.4184431513
 20
37.9649656021
 10
72.4010615592
 20
37.974241916
 10
72.380115636
 20
37.9688898367
 10
72.3576557147
 20
37.9494332632
 10
72.3358803288
 20
37.9177767403
 10
72.3169210048
 20
37.8770190291
 10
72.3026336135
 20
37.8311497783
 10
72.2944167042
 20
37.7846589899
  0
LWPOLYLINE
  5
404
330
1F
100
AcDbEntity
  8
0
  6
SLD-Solid
 62
     8
370
    25
100
AcDbPolyline
 90
       13
 70
   128
 43
0.0
 10
72.3113764132
 20
37.6745110093
 10
72.3029891107
 20
37.6784865454
 10
72.2890663523
 20
37.6964657225
 10
72.2808283087
 20
37.7261282205
 10
72.2790069662
 20
37.7648383963
 10
72.2837641592
 20
37.809156681
 10
72.2946771902
 20
37.8551452003
 10
72.3107763884
 20
37.8987176727
 10
72.3306312695
 20
37.9360024927
 10
72.3524776401
 20
37.9636867403
 10
72.3743743544
 20
37.9793105488
 10
72.3943757931
 20
37.9814856742
 10
72.3947443915
 20
37.981388456
  0
LWPOLYLINE
  5
405
330
1F
100
AcDbEntity
  8
0
  6
SLD-Solid
 62
     8
370
    25
100
AcDbPolyline
 90
       13
 70
   128
 43
0.0
 10
72.3898603636
 20
37.9827158301
 10
72.3894917653
 20
37.9828130483
 10
72.3694903265
 20
37.9806379229
 10
72.3475936122
 20
37.9650141144
 10
72.3257472416
 20
37.9373298668
 10
72.3058923605
 20
37.9000450468
 10
72.2897931623
 20
37.8564725745
 10
72.2788801313
 20
37.8104840551
 10
72.2741229384
 20
37.7661657704
 10
72.2759442808
 20
37.7274555946
 10
72.2841823244
 20
37.6977930966
 10
72.2981050829
 20
37.6798139195
 10
72.3064600327
 20
37.6758471533
  0
LWPOLYLINE
  5
406
330
1F
100
AcDbEntity
  8
0
  6
SLD-Solid
 62
     8
370
    25
100
AcDbPolyline
 90
        7
 70
   128
 43
0.0
 10
6.6232152436
 20
57.4829257777
 10
6.6350705893
 20
57.528794665
 10
6.6519034381
 20
57.5715798784
 10
6.6722181175
 20
57.607479764
 10
6.6942095791
 20
57.6333044592
 10
6.7159237851
 20
57.6467593267
 10
6.7311067111
 20
57.6479207217
  0
LWPOLYLINE
  5
407
330
1F
100
AcDbEntity
  8
0
  6
SLD-Solid
 62
     8
370
    25
100
AcDbPolyline
 90
        6
 70
   128
 43
0.0
 10
6.6496669403
 20
57.3405816908
 10
6.6383745926
 20
57.3467178707
 10
6.6253228748
 20
57.3667785757
 10
6.6181147874
 20
57.3981514474
 10
6.6173908005
 20
57.4380488684
 10
6.6232152436
 20
57.4829257777
  0
LWPOLYLINE
  5
408
330
1F
100
AcDbEntity
  8
0
  6
SLD-Solid
 62
     8
370
    25
100
AcDbPolyline
 90
        6
 70
   128
 43
0.0
 10
6.6183312157
 20
57.4842531518
 10
6.6125067727
 20
57.4393762425
 10
6.6132307596
 20
57.3994788215
 10
6.620438847
 20
57.3681059499
 10
6.6334905647
 20
57.3480452448
 10
6.6445050486
 20
57.3419828992
  0
LWPOLYLINE
  5
409
330
1F
100
AcDbEntity
  8
0
  6
SLD-Solid
 62
     8
370
    25
100
AcDbPolyline
 90
        7
 70
   128
 43
0.0
 10
6.7279053796
 20
57.648851576
 10
6.7110397573
 20
57.6480867008
 10
6.6893255513
 20
57.6346318333
 10
6.6673340896
 20
57.6088071381
 10
6.6470194102
 20
57.5729072526
 10
6.6301865614
 20
57.5301220391
 10
6.6183312157
 20
57.4842531518
  0
ARC
  5
40A
330
1F
100
AcDbEntity
  8
0
  6
SLD-Solid
 62
     8
370
    25
100
AcDbCircle
 10
6.8830403954
 20
57.4425815187
 30
0.0
 40
0.2799910952530318
100
AcDbArc
 50
136.2455811872
 51
194.4718144318
  0
INSERT
  5
410
330
1F
100
AcDbEntity
  8
NOTES
100
AcDbBlockReference
  2
SW_NOTE_0_3
 10
7.0157271447
 20
53.6163696445
 30
0.0
  0
MTEXT
  5
411
330
1F
100
AcDbEntity
  8
NOTES
100
AcDbMText
 10
63.5725271798
 20
43.6122993149
 30
0.0
 40
0.5
 41
0.0
 71
     1
 72
     1
  1
installation hardware
  7
SLDTEXTSTYLE1
 73
     1
 44
1.0
  0
LEADER
  5
413
330
1F
100
AcDbEntity
  8
NOTES
100
AcDbLeader
  3
SLDDIMSTYLE4
 76
     3
 10
73.1865222584
 20
39.4997765367
 30
0.0
 10
70.8439229491
 20
43.3650663727
 30
0.0
 10
70.3439229491
 20
43.3650663727
 30
0.0
  0
MTEXT
  5
414
330
1F
100
AcDbEntity
  8
NOTES
100
AcDbMText
 10
66.9113753094
 20
35.6736466179
 30
0.0
 40
0.5
 41
0.0
 71
     1
 72
     1
  1
mounting flange
  7
SLDTEXTSTYLE1
 73
     1
 44
1.0
  0
LEADER
  5
415
330
1F
100
AcDbEntity
  8
NOTES
100
AcDbLeader
  3
SLDDIMSTYLE4
 76
     3
 10
74.1115271237
 20
36.76449018
 30
0.0
 10
72.7866201074
 20
35.4294546735
 30
0.0
 10
72.2866201074
 20
35.4294546735
 30
0.0
  0
MTEXT
  5
416
330
1F
100
AcDbEntity
  8
NOTES
100
AcDbMText
 10
54.9085462919
 20
41.4847631227
 30
0.0
 40
0.5
 41
0.0
 71
     1
 72
     1
  1
rod
  7
SLDTEXTSTYLE1
 73
     1
 44
1.0
  0
LEADER
  5
417
330
1F
100
AcDbEntity
  8
NOTES
100
AcDbLeader
  3
SLDDIMSTYLE4
 76
     3
 10
57.1409632405
 20
42.2228397131
 30
0.0
 10
56.5217868262
 20
41.24000606
 30
0.0
 10
56.0217868262
 20
41.24000606
 30
0.0
  0
ENDSEC
  0
SECTION
  2
OBJECTS
  0
DICTIONARY
  5
C
330
0
100
AcDbDictionary
281
     1
  3
ACAD_GROUP
350
D
  3
ACAD_LAYOUT
350
1A
  3
ACAD_MLINESTYLE
350
17
  3
ACAD_PLOTSETTINGS
350
19
  3
ACAD_PLOTSTYLENAME
350
E
  3
ACAD_SCALELIST
350
47
  3
DWGPROPS
350
418
  0
DICTIONARY
  5
D
102
{ACAD_REACTORS
330
C
102
}
330
C
100
AcDbDictionary
281
     1
  0
DICTIONARY
  5
1A
102
{ACAD_REACTORS
330
C
102
}
330
C
100
AcDbDictionary
281
     1
  3
Layout1
350
1E
  3
Layout2
350
26
  3
Model
350
22
  0
DICTIONARY
  5
17
102
{ACAD_REACTORS
330
C
102
}
330
C
100
AcDbDictionary
281
     1
  3
Standard
350
18
  0
DICTIONARY
  5
19
102
{ACAD_REACTORS
330
C
102
}
330
C
100
AcDbDictionary
281
     1
  0
ACDBDICTIONARYWDFLT
  5
E
102
{ACAD_REACTORS
330
C
102
}
330
C
100
AcDbDictionary
281
     1
  3
Normal
350
F
100
AcDbDictionaryWithDefault
340
F
  0
DICTIONARY
  5
47
102
{ACAD_REACTORS
330
C
102
}
330
C
100
AcDbDictionary
281
     1
  3
A0
350
48
  3
A1
350
49
  3
A2
350
4A
  3
A3
350
4B
  3
A4
350
4C
  3
A5
350
4D
  3
A6
350
4E
  3
A7
350
4F
  3
A8
350
50
  3
A9
350
51
  3
B0
350
52
  3
B1
350
53
  3
B2
350
54
  3
B3
350
55
  3
B4
350
56
  3
B5
350
57
  3
B6
350
58
  3
B7
350
59
  3
B8
350
5A
  3
B9
350
5B
  3
C0
350
5C
  3
C1
350
5D
  3
C2
350
5E
  3
C3
350
5F
  3
C4
350
60
  3
C5
350
61
  3
C6
350
62
  3
C7
350
63
  3
C8
350
64
  3
C9
350
65
  3
D0
350
66
  3
D1
350
67
  3
D2
350
68
  0
XRECORD
  5
418
102
{ACAD_REACTORS
330
C
102
}
330
C
100
AcDbXrecord
280
     1
  1
DWGPROPS COOKIE
  2

  3

  4

  6

  7

  8
carl
  9

300
=
301
=
302
=
303
=
304
=
305
=
306
=
307
=
308
=
309
=
 40
0.0
 41
2459480.602890556
 42
2459480.602896343
  1

 90
        0
  0
LAYOUT
  5
1E
102
{ACAD_REACTORS
330
1A
102
}
330
1A
100
AcDbPlotSettings
  1

  2
none_device
  4

  6

 40
0.0
 41
0.0
 42
0.0
 43
0.0
 44
0.0
 45
0.0
 46
0.0
 47
0.0
 48
0.0
 49
0.0
140
0.0
141
0.0
142
1.0
143
1.0
 70
   688
 72
     0
 73
     0
 74
     5
  7

 75
    16
147
1.0
148
0.0
149
0.0
100
AcDbLayout
  1
Layout1
 70
     1
 71
     1
 10
0.0
 20
0.0
 11
12.0
 21
9.0
 12
0.0
 22
0.0
 32
0.0
 14
1.0000000000E+20
 24
1.0000000000E+20
 34
1.0000000000E+20
 15
-1.0000000000E+20
 25
-1.0000000000E+20
 35
-1.0000000000E+20
146
0.0
 13
0.0
 23
0.0
 33
0.0
 16
1.0
 26
0.0
 36
0.0
 17
0.0
 27
1.0
 37
0.0
 76
     0
330
1B
  0
LAYOUT
  5
26
102
{ACAD_REACTORS
330
1A
102
}
330
1A
100
AcDbPlotSettings
  1

  2
none_device
  4

  6

 40
0.0
 41
0.0
 42
0.0
 43
0.0
 44
0.0
 45
0.0
 46
0.0
 47
0.0
 48
0.0
 49
0.0
140
0.0
141
0.0
142
1.0
143
1.0
 70
   688
 72
     0
 73
     0
 74
     5
  7

 75
    16
147
1.0
148
0.0
149
0.0
100
AcDbLayout
  1
Layout2
 70
     1
 71
     2
 10
0.0
 20
0.0
 11
0.0
 21
0.0
 12
0.0
 22
0.0
 32
0.0
 14
0.0
 24
0.0
 34
0.0
 15
0.0
 25
0.0
 35
0.0
146
0.0
 13
0.0
 23
0.0
 33
0.0
 16
1.0
 26
0.0
 36
0.0
 17
0.0
 27
1.0
 37
0.0
 76
     0
330
23
  0
LAYOUT
  5
22
102
{ACAD_REACTORS
330
1A
102
}
330
1A
100
AcDbPlotSettings
  1

  2
none_device
  4
Letter_(8.50_x_11.00_Inches)
  6

 40
6.35
 41
6.35
 42
6.35000508
 43
6.35000508
 44
215.9
 45
279.4
 46
0.0
 47
0.0
 48
0.0
 49
0.0
140
0.0
141
0.0
142
1.0
143
1.0
 70
  1712
 72
     0
 73
     0
 74
     0
  7

 75
     0
147
1.0
148
0.0
149
0.0
100
AcDbLayout
  1
Model
 70
     1
 71
     0
 10
0.0
 20
0.0
 11
90.0
 21
120.0
 12
0.0
 22
0.0
 32
0.0
 14
0.0
 24
0.0
 34
0.0
 15
90.0
 25
120.0
 35
0.0
146
0.0
 13
0.0
 23
0.0
 33
0.0
 16
1.0
 26
0.0
 36
0.0
 17
0.0
 27
1.0
 37
0.0
 76
     0
330
1F
331
29
  0
MLINESTYLE
  5
18
102
{ACAD_REACTORS
330
17
102
}
330
17
100
AcDbMlineStyle
  2
Standard
 70
     0
  3

 62
   256
 51
90.0
 52
90.0
 71
     2
 49
0.5
 62
   256
  6
BYLAYER
 49
-0.5
 62
   256
  6
BYLAYER
  0
ACDBPLACEHOLDER
  5
F
102
{ACAD_REACTORS
330
E
102
}
330
E
  0
SCALE
  5
48
102
{ACAD_REACTORS
330
47
102
}
330
47
100
AcDbScale
 70
     0
300
1:1
140
1.0
141
1.0
290
     1
  0
SCALE
  5
49
102
{ACAD_REACTORS
330
47
102
}
330
47
100
AcDbScale
 70
     0
300
1:2
140
1.0
141
2.0
290
     0
  0
SCALE
  5
4A
102
{ACAD_REACTORS
330
47
102
}
330
47
100
AcDbScale
 70
     0
300
1:4
140
1.0
141
4.0
290
     0
  0
SCALE
  5
4B
102
{ACAD_REACTORS
330
47
102
}
330
47
100
AcDbScale
 70
     0
300
1:5
140
1.0
141
5.0
290
     0
  0
SCALE
  5
4C
102
{ACAD_REACTORS
330
47
102
}
330
47
100
AcDbScale
 70
     0
300
1:8
140
1.0
141
8.0
290
     0
  0
SCALE
  5
4D
102
{ACAD_REACTORS
330
47
102
}
330
47
100
AcDbScale
 70
     0
300
1:10
140
1.0
141
10.0
290
     0
  0
SCALE
  5
4E
102
{ACAD_REACTORS
330
47
102
}
330
47
100
AcDbScale
 70
     0
300
1:16
140
1.0
141
16.0
290
     0
  0
SCALE
  5
4F
102
{ACAD_REACTORS
330
47
102
}
330
47
100
AcDbScale
 70
     0
300
1:20
140
1.0
141
20.0
290
     0
  0
SCALE
  5
50
102
{ACAD_REACTORS
330
47
102
}
330
47
100
AcDbScale
 70
     0
300
1:30
140
1.0
141
30.0
290
     0
  0
SCALE
  5
51
102
{ACAD_REACTORS
330
47
102
}
330
47
100
AcDbScale
 70
     0
300
1:40
140
1.0
141
40.0
290
     0
  0
SCALE
  5
52
102
{ACAD_REACTORS
330
47
102
}
330
47
100
AcDbScale
 70
     0
300
1:50
140
1.0
141
50.0
290
     0
  0
SCALE
  5
53
102
{ACAD_REACTORS
330
47
102
}
330
47
100
AcDbScale
 70
     0
300
1:100
140
1.0
141
100.0
290
     0
  0
SCALE
  5
54
102
{ACAD_REACTORS
330
47
102
}
330
47
100
AcDbScale
 70
     0
300
2:1
140
2.0
141
1.0
290
     0
  0
SCALE
  5
55
102
{ACAD_REACTORS
330
47
102
}
330
47
100
AcDbScale
 70
     0
300
4:1
140
4.0
141
1.0
290
     0
  0
SCALE
  5
56
102
{ACAD_REACTORS
330
47
102
}
330
47
100
AcDbScale
 70
     0
300
8:1
140
8.0
141
1.0
290
     0
  0
SCALE
  5
57
102
{ACAD_REACTORS
330
47
102
}
330
47
100
AcDbScale
 70
     0
300
10:1
140
10.0
141
1.0
290
     0
  0
SCALE
  5
58
102
{ACAD_REACTORS
330
47
102
}
330
47
100
AcDbScale
 70
     0
300
100:1
140
100.0
141
1.0
290
     0
  0
SCALE
  5
59
102
{ACAD_REACTORS
330
47
102
}
330
47
100
AcDbScale
 70
     0
300
1/128" = 1'-0"
140
0.0078125
141
12.0
290
     0
  0
SCALE
  5
5A
102
{ACAD_REACTORS
330
47
102
}
330
47
100
AcDbScale
 70
     0
300
1/64" = 1'-0"
140
0.015625
141
12.0
290
     0
  0
SCALE
  5
5B
102
{ACAD_REACTORS
330
47
102
}
330
47
100
AcDbScale
 70
     0
300
1/32" = 1'-0"
140
0.03125
141
12.0
290
     0
  0
SCALE
  5
5C
102
{ACAD_REACTORS
330
47
102
}
330
47
100
AcDbScale
 70
     0
300
1/16" = 1'-0"
140
0.0625
141
12.0
290
     0
  0
SCALE
  5
5D
102
{ACAD_REACTORS
330
47
102
}
330
47
100
AcDbScale
 70
     0
300
3/32" = 1'-0"
140
0.09375
141
12.0
290
     0
  0
SCALE
  5
5E
102
{ACAD_REACTORS
330
47
102
}
330
47
100
AcDbScale
 70
     0
300
1/8" = 1'-0"
140
0.125
141
12.0
290
     0
  0
SCALE
  5
5F
102
{ACAD_REACTORS
330
47
102
}
330
47
100
AcDbScale
 70
     0
300
3/16" = 1'-0"
140
0.1875
141
12.0
290
     0
  0
SCALE
  5
60
102
{ACAD_REACTORS
330
47
102
}
330
47
100
AcDbScale
 70
     0
300
1/4" = 1'-0"
140
0.25
141
12.0
290
     0
  0
SCALE
  5
61
102
{ACAD_REACTORS
330
47
102
}
330
47
100
AcDbScale
 70
     0
300
3/8" = 1'-0"
140
0.375
141
12.0
290
     0
  0
SCALE
  5
62
102
{ACAD_REACTORS
330
47
102
}
330
47
100
AcDbScale
 70
     0
300
1/2" = 1'-0"
140
0.5
141
12.0
290
     0
  0
SCALE
  5
63
102
{ACAD_REACTORS
330
47
102
}
330
47
100
AcDbScale
 70
     0
300
3/4" = 1'-0"
140
0.75
141
12.0
290
     0
  0
SCALE
  5
64
102
{ACAD_REACTORS
330
47
102
}
330
47
100
AcDbScale
 70
     0
300
1" = 1'-0"
140
1.0
141
12.0
290
     0
  0
SCALE
  5
65
102
{ACAD_REACTORS
330
47
102
}
330
47
100
AcDbScale
 70
     0
300
1-1/2" = 1'-0"
140
1.5
141
12.0
290
     0
  0
SCALE
  5
66
102
{ACAD_REACTORS
330
47
102
}
330
47
100
AcDbScale
 70
     0
300
3" = 1'-0"
140
3.0
141
12.0
290
     0
  0
SCALE
  5
67
102
{ACAD_REACTORS
330
47
102
}
330
47
100
AcDbScale
 70
     0
300
6" = 1'-0"
140
6.0
141
12.0
290
     0
  0
SCALE
  5
68
102
{ACAD_REACTORS
330
47
102
}
330
47
100
AcDbScale
 70
     0
300
1'-0" = 1'-0"
140
12.0
141
12.0
290
     0
  0
ENDSEC
  0
EOF
