  0
SECTION
  2
HEADER
  9
$ACADVER
  1
AC1015
  9
$ACADMAINTVER
 70
     6
  9
$DWGCODEPAGE
  3
ANSI_1252
  9
$INSBASE
 10
0.0
 20
0.0
 30
0.0
  9
$EXTMIN
 10
0.0
 20
0.0
 30
0.0
  9
$EXTMAX
 10
90.0
 20
120.0
 30
0.0
  9
$LIMMIN
 10
0.0
 20
0.0
  9
$LIMMAX
 10
90.0
 20
120.0
  9
$ORTHOMODE
 70
     0
  9
$REGENMODE
 70
     1
  9
$FILLMODE
 70
     1
  9
$QTEXTMODE
 70
     0
  9
$MIRRTEXT
 70
     1
  9
$LTSCALE
 40
1.0
  9
$ATTMODE
 70
     1
  9
$TEXTSIZE
 40
0.5
  9
$TRACEWID
 40
0.05
  9
$TEXTSTYLE
  7
STANDARD
  9
$CLAYER
  8
0
  9
$CELTYPE
  6
ByLayer
  9
$CECOLOR
 62
   256
  9
$CELTSCALE
 40
1.0
  9
$DISPSILH
 70
     0
  9
$DIMSCALE
 40
1.0
  9
$DIMASZ
 40
0.3
  9
$DIMEXO
 40
0.1666666667
  9
$DIMDLI
 40
0.38
  9
$DIMRND
 40
0.0
  9
$DIMDLE
 40
0.0
  9
$DIMEXE
 40
0.375
  9
$DIMTP
 40
0.0
  9
$DIMTM
 40
0.0
  9
$DIMTXT
 40
0.5
  9
$DIMCEN
 40
0.09
  9
$DIMTSZ
 40
0.0
  9
$DIMTOL
 70
     0
  9
$DIMLIM
 70
     0
  9
$DIMTIH
 70
     1
  9
$DIMTOH
 70
     1
  9
$DIMSE1
 70
     0
  9
$DIMSE2
 70
     0
  9
$DIMTAD
 70
     0
  9
$DIMZIN
 70
     1
  9
$DIMBLK
  1

  9
$DIMASO
 70
     1
  9
$DIMSHO
 70
     1
  9
$DIMPOST
  1

  9
$DIMAPOST
  1

  9
$DIMALT
 70
     0
  9
$DIMALTD
 70
     2
  9
$DIMALTF
 40
25.4
  9
$DIMLFAC
 40
1.0
  9
$DIMTOFL
 70
     0
  9
$DIMTVP
 40
0.0
  9
$DIMTIX
 70
     0
  9
$DIMSOXD
 70
     0
  9
$DIMSAH
 70
     0
  9
$DIMBLK1
  1

  9
$DIMBLK2
  1

  9
$DIMSTYLE
  2
Standard
  9
$DIMCLRD
 70
     0
  9
$DIMCLRE
 70
     0
  9
$DIMCLRT
 70
     0
  9
$DIMTFAC
 40
1.0
  9
$DIMGAP
 40
0.125
  9
$DIMJUST
 70
     0
  9
$DIMSD1
 70
     0
  9
$DIMSD2
 70
     0
  9
$DIMTOLJ
 70
     1
  9
$DIMTZIN
 70
     1
  9
$DIMALTZ
 70
     0
  9
$DIMALTTZ
 70
     0
  9
$DIMUPT
 70
     0
  9
$DIMDEC
 70
     2
  9
$DIMTDEC
 70
     2
  9
$DIMALTU
 70
     2
  9
$DIMALTTD
 70
     2
  9
$DIMTXSTY
  7
STANDARD
  9
$DIMAUNIT
 70
     0
  9
$DIMADEC
 70
     2
  9
$DIMALTRND
 40
0.0
  9
$DIMAZIN
 70
     0
  9
$DIMDSEP
 70
    46
  9
$DIMATFIT
 70
     3
  9
$DIMFRAC
 70
     0
  9
$DIMLDRBLK
  1

  9
$DIMLUNIT
 70
     2
  9
$DIMLWD
 70
    -2
  9
$DIMLWE
 70
    -2
  9
$DIMTMOVE
 70
     0
  9
$LUNITS
 70
     2
  9
$LUPREC
 70
     4
  9
$SKETCHINC
 40
0.1
  9
$FILLETRAD
 40
0.5
  9
$AUNITS
 70
     0
  9
$AUPREC
 70
     2
  9
$MENU
  1
.
  9
$ELEVATION
 40
0.0
  9
$PELEVATION
 40
0.0
  9
$THICKNESS
 40
0.0
  9
$LIMCHECK
 70
     0
  9
$CHAMFERA
 40
0.0
  9
$CHAMFERB
 40
0.0
  9
$CHAMFERC
 40
0.0
  9
$CHAMFERD
 40
0.0
  9
$SKPOLY
 70
     0
  9
$TDCREATE
 40
2459480.43821963
  9
$TDUCREATE
 40
2459480.604886296
  9
$TDUPDATE
 40
2459480.438225058
  9
$TDUUPDATE
 40
2459480.604891724
  9
$TDINDWG
 40
0.0000000116
  9
$TDUSRTIMER
 40
0.0000000116
  9
$USRTIMER
 70
     1
  9
$ANGBASE
 50
0.0
  9
$ANGDIR
 70
     0
  9
$PDMODE
 70
     0
  9
$PDSIZE
 40
-1.0
  9
$PLINEWID
 40
0.0
  9
$SPLFRAME
 70
     0
  9
$SPLINETYPE
 70
     6
  9
$SPLINESEGS
 70
     8
  9
$HANDSEED
  5
419
  9
$SURFTAB1
 70
     6
  9
$SURFTAB2
 70
     6
  9
$SURFTYPE
 70
     6
  9
$SURFU
 70
     6
  9
$SURFV
 70
     6
  9
$UCSBASE
  2

  9
$UCSNAME
  2

  9
$UCSORG
 10
0.0
 20
0.0
 30
0.0
  9
$UCSXDIR
 10
1.0
 20
0.0
 30
0.0
  9
$UCSYDIR
 10
0.0
 20
1.0
 30
0.0
  9
$UCSORTHOREF
  2

  9
$UCSORTHOVIEW
 70
     0
  9
$UCSORGTOP
 10
0.0
 20
0.0
 30
0.0
  9
$UCSORGBOTTOM
 10
0.0
 20
0.0
 30
0.0
  9
$UCSORGLEFT
 10
0.0
 20
0.0
 30
0.0
  9
$UCSORGRIGHT
 10
0.0
 20
0.0
 30
0.0
  9
$UCSORGFRONT
 10
0.0
 20
0.0
 30
0.0
  9
$UCSORGBACK
 10
0.0
 20
0.0
 30
0.0
  9
$PUCSBASE
  2

  9
$PUCSNAME
  2

  9
$PUCSORG
 10
0.0
 20
0.0
 30
0.0
  9
$PUCSXDIR
 10
1.0
 20
0.0
 30
0.0
  9
$PUCSYDIR
 10
0.0
 20
1.0
 30
0.0
  9
$PUCSORTHOREF
  2

  9
$PUCSORTHOVIEW
 70
     0
  9
$PUCSORGTOP
 10
0.0
 20
0.0
 30
0.0
  9
$PUCSORGBOTTOM
 10
0.0
 20
0.0
 30
0.0
  9
$PUCSORGLEFT
 10
0.0
 20
0.0
 30
0.0
  9
$PUCSORGRIGHT
 10
0.0
 20
0.0
 30
0.0
  9
$PUCSORGFRONT
 10
0.0
 20
0.0
 30
0.0
  9
$PUCSORGBACK
 10
0.0
 20
0.0
 30
0.0
  9
$USERI1
 70
     0
  9
$USERI2
 70
     0
  9
$USERI3
 70
     0
  9
$USERI4
 70
     0
  9
$USERI5
 70
     0
  9
$USERR1
 40
0.0
  9
$USERR2
 40
0.0
  9
$USERR3
 40
0.0
  9
$USERR4
 40
0.0
  9
$USERR5
 40
0.0
  9
$WORLDVIEW
 70
     1
  9
$SHADEDGE
 70
     3
  9
$SHADEDIF
 70
    70
  9
$TILEMODE
 70
     1
  9
$MAXACTVP
 70
    64
  9
$PINSBASE
 10
0.0
 20
0.0
 30
0.0
  9
$PLIMCHECK
 70
     0
  9
$PEXTMIN
 10
1.0000000000E+20
 20
1.0000000000E+20
 30
1.0000000000E+20
  9
$PEXTMAX
 10
-1.0000000000E+20
 20
-1.0000000000E+20
 30
-1.0000000000E+20
  9
$PLIMMIN
 10
0.0
 20
0.0
  9
$PLIMMAX
 10
12.0
 20
9.0
  9
$UNITMODE
 70
     0
  9
$VISRETAIN
 70
     1
  9
$PLINEGEN
 70
     0
  9
$PSLTSCALE
 70
     1
  9
$TREEDEPTH
 70
  3020
  9
$CMLSTYLE
  2
Standard
  9
$CMLJUST
 70
     0
  9
$CMLSCALE
 40
1.0
  9
$PROXYGRAPHICS
 70
     1
  9
$MEASUREMENT
 70
     0
  9
$CELWEIGHT
370
    -1
  9
$ENDCAPS
280
     0
  9
$JOINSTYLE
280
     0
  9
$LWDISPLAY
290
     1
  9
$INSUNITS
 70
     1
  9
$HYPERLINKBASE
  1

  9
$STYLESHEET
  1

  9
$XEDIT
290
     1
  9
$CEPSNTYPE
380
     0
  9
$PSTYLEMODE
290
     1
  9
$FINGERPRINTGUID
  2
{0bcbc355-f716-4729-bc46-037a68020b62}
  9
$VERSIONGUID
  2
{FAEB1C32-E019-11D5-929B-00C0DF256EC4}
  9
$EXTNAMES
290
     1
  9
$PSVPSCALE
 40
0.0
  9
$OLESTARTUP
290
     0
  0
ENDSEC
  0
SECTION
  2
CLASSES
  0
CLASS
  1
ACDBDICTIONARYWDFLT
  2
AcDbDictionaryWithDefault
  3
ObjectDBX Classes
 90
        0
280
     0
281
     0
  0
CLASS
  1
VISUALSTYLE
  2
AcDbVisualStyle
  3
ObjectDBX Classes
 90
     4095
280
     0
281
     0
  0
CLASS
  1
MATERIAL
  2
AcDbMaterial
  3
ObjectDBX Classes
 90
     1153
280
     0
281
     0
  0
CLASS
  1
SCALE
  2
AcDbScale
  3
ObjectDBX Classes
 90
     1153
280
     0
281
     0
  0
CLASS
  1
TABLESTYLE
  2
AcDbTableStyle
  3
ObjectDBX Classes
 90
     4095
280
     0
281
     0
  0
CLASS
  1
MLEADERSTYLE
  2
AcDbMLeaderStyle
  3
ACDB_MLEADERSTYLE_CLASS
 90
     4095
280
     0
281
     0
  0
CLASS
  1
SUN
  2
AcDbSun
  3
SCENEOE
 90
     1153
280
     0
281
     0
  0
CLASS
  1
ACDBPLACEHOLDER
  2
AcDbPlaceHolder
  3
ObjectDBX Classes
 90
        0
280
     0
281
     0
  0
CLASS
  1
LAYOUT
  2
AcDbLayout
  3
ObjectDBX Classes
 90
        0
280
     0
281
     0
  0
ENDSEC
  0
SECTION
  2
TABLES
  0
TABLE
  2
VPORT
  5
8
330
0
100
AcDbSymbolTable
 70
     1
  0
VPORT
  5
29
330
8
100
AcDbSymbolTableRecord
100
AcDbViewportTableRecord
  2
*Active
 70
     0
 10
0.0
 20
0.0
 11
1.0
 21
1.0
 12
45.0
 22
60.0
 13
0.0
 23
0.0
 14
0.5
 24
0.5
 15
0.5
 25
0.5
 16
0.0
 26
0.0
 36
1.0
 17
0.0
 27
0.0
 37
0.0
 40
120.0
 41
0.75
 42
50.0
 43
0.0
 44
0.0
 50
0.0
 51
0.0
 71
     0
 72
  2000
 73
     1
 74
     3
 75
     0
 76
     0
 77
     0
 78
     0
281
     0
 65
     1
110
0.0
120
0.0
130
0.0
111
1.0
121
0.0
131
0.0
112
0.0
122
1.0
132
0.0
 79
     0
146
0.0
  0
ENDTAB
  0
TABLE
  2
LTYPE
  5
5
330
0
100
AcDbSymbolTable
 70
     8
  0
LTYPE
  5
14
330
5
100
AcDbSymbolTableRecord
100
AcDbLinetypeTableRecord
  2
ByBlock
 70
     0
  3

 72
    65
 73
     0
 40
0.0
  0
LTYPE
  5
15
330
5
100
AcDbSymbolTableRecord
100
AcDbLinetypeTableRecord
  2
ByLayer
 70
     0
  3

 72
    65
 73
     0
 40
0.0
  0
LTYPE
  5
16
330
5
100
AcDbSymbolTableRecord
100
AcDbLinetypeTableRecord
  2
Continuous
 70
     0
  3
Solid line
 72
    65
 73
     0
 40
0.0
  0
LTYPE
  5
6E
330
5
100
AcDbSymbolTableRecord
100
AcDbLinetypeTableRecord
  2
SLD-Solid
 70
     0
  3
SolidWorks Line Style
 72
    65
 73
     0
 40
0.0
  0
LTYPE
  5
6F
330
5
100
AcDbSymbolTableRecord
100
AcDbLinetypeTableRecord
  2
SLD-Dashed
 70
     0
  3
SolidWorks Line Style
 72
    65
 73
     2
 40
0.075
 49
0.05
 74
     0
 49
-0.025
 74
     0
  0
LTYPE
  5
70
330
5
100
AcDbSymbolTableRecord
100
AcDbLinetypeTableRecord
  2
SLD-Phantom
 70
     0
  3
SolidWorks Line Style
 72
    65
 73
     6
 40
0.5
 49
0.25
 74
     0
 49
-0.05
 74
     0
 49
0.05
 74
     0
 49
-0.05
 74
     0
 49
0.05
 74
     0
 49
-0.05
 74
     0
  0
LTYPE
  5
71
330
5
100
AcDbSymbolTableRecord
100
AcDbLinetypeTableRecord
  2
SLD-Chain
 70
     0
  3
SolidWorks Line Style
 72
    65
 73
     4
 40
0.4
 49
0.25
 74
     0
 49
-0.05
 74
     0
 49
0.05
 74
     0
 49
-0.05
 74
     0
  0
LTYPE
  5
72
330
5
100
AcDbSymbolTableRecord
100
AcDbLinetypeTableRecord
  2
SLD-Center
 70
     0
  3
SolidWorks Line Style
 72
    65
 73
     4
 40
0.75
 49
0.6
 74
     0
 49
-0.05
 74
     0
 49
0.05
 74
     0
 49
-0.05
 74
     0
  0
LTYPE
  5
73
330
5
100
AcDbSymbolTableRecord
100
AcDbLinetypeTableRecord
  2
SLD-Stitch
 70
     0
  3
SolidWorks Line Style
 72
    65
 73
     2
 40
0.025
 49
0.0
 74
     0
 49
-0.025
 74
     0
  0
LTYPE
  5
74
330
5
100
AcDbSymbolTableRecord
100
AcDbLinetypeTableRecord
  2
SLD-Thin-Thick-Chain
 70
     0
  3
SolidWorks Line Style
 72
    65
 73
     4
 40
0.4
 49
0.25
 74
     0
 49
-0.05
 74
     0
 49
0.05
 74
     0
 49
-0.05
 74
     0
  0
ENDTAB
  0
TABLE
  2
LAYER
  5
2
330
0
100
AcDbSymbolTable
 70
     6
  0
LAYER
  5
10
330
2
100
AcDbSymbolTableRecord
100
AcDbLayerTableRecord
  2
0
 70
     0
 62
     7
  6
Continuous
370
    -3
390
F
  0
LAYER
  5
75
330
2
100
AcDbSymbolTableRecord
100
AcDbLayerTableRecord
  2
FORMAT
 70
     0
 62
     7
  6
SLD-Solid
370
    -3
390
F
  0
LAYER
  5
76
330
2
100
AcDbSymbolTableRecord
100
AcDbLayerTableRecord
  2
NOTES
 70
     0
 62
     1
  6
SLD-Solid
370
    -3
390
F
  0
LAYER
  5
77
330
2
100
AcDbSymbolTableRecord
100
AcDbLayerTableRecord
  2
OBJECT
 70
     0
 62
     7
  6
SLD-Solid
370
    25
390
F
  0
LAYER
  5
78
330
2
100
AcDbSymbolTableRecord
100
AcDbLayerTableRecord
  2
DIMS
 70
     0
 62
     5
  6
SLD-Solid
370
    -3
390
F
  0
LAYER
  5
79
330
2
100
AcDbSymbolTableRecord
100
AcDbLayerTableRecord
  2
TITLE
 70
     0
 62
     8
  6
SLD-Solid
370
    -3
390
F
  0
ENDTAB
  0
TABLE
  2
STYLE
  5
3
330
0
100
AcDbSymbolTable
 70
     5
  0
STYLE
  5
11
330
3
100
AcDbSymbolTableRecord
100
AcDbTextStyleTableRecord
  2
STANDARD
 70
     0
 40
0.0
 41
1.0
 50
0.0
 71
     0
 42
0.5
  3
GOTHIC.TTF
  4

1001
ACAD
1000
CENTURY GOTHIC
1071
       34
  0
STYLE
  5
15D
330
3
100
AcDbSymbolTableRecord
100
AcDbTextStyleTableRecord
  2
SLDTEXTSTYLE0
 70
     0
 40
0.0
 41
0.948
 50
0.0
 71
     0
 42
0.5
  3
ARIAL.TTF
  4

1001
ACAD
1000
Arial
1071
      290
  0
STYLE
  5
161
330
3
100
AcDbSymbolTableRecord
100
AcDbTextStyleTableRecord
  2
SLDTEXTSTYLE1
 70
     0
 40
0.0
 41
0.913
 50
0.0
 71
     0
 42
0.5
  3
GOTHIC.TTF
  4

1001
ACAD
1000
Century Gothic
1071
      290
  0
STYLE
  5
170
330
3
100
AcDbSymbolTableRecord
100
AcDbTextStyleTableRecord
  2
SLDTEXTSTYLE2
 70
     0
 40
0.0
 41
0.87
 50
0.0
 71
     0
 42
0.5
  3
ARIALNB.TTF
  4

1001
ACAD
1000
Arial Narrow
1071
 33554722
  0
STYLE
  5
172
330
3
100
AcDbSymbolTableRecord
100
AcDbTextStyleTableRecord
  2
SLDTEXTSTYLE3
 70
     0
 40
0.0
 41
0.87
 50
0.0
 71
     0
 42
0.5
  3
ARIALN.TTF
  4

1001
ACAD
1000
Arial Narrow
1071
      290
  0
ENDTAB
  0
TABLE
  2
VIEW
  5
6
330
0
100
AcDbSymbolTable
 70
     0
  0
ENDTAB
  0
TABLE
  2
UCS
  5
7
330
0
100
AcDbSymbolTable
 70
     0
  0
ENDTAB
  0
TABLE
  2
APPID
  5
9
330
0
100
AcDbSymbolTable
 70
     1
  0
APPID
  5
12
330
9
100
AcDbSymbolTableRecord
100
AcDbRegAppTableRecord
  2
ACAD
 70
     0
  0
ENDTAB
  0
TABLE
  2
DIMSTYLE
  5
A
330
0
100
AcDbSymbolTable
 70
     6
100
AcDbDimStyleTable
  0
DIMSTYLE
105
27
330
A
100
AcDbSymbolTableRecord
100
AcDbDimStyleTableRecord
  2
Standard
 70
     0
178
     0
340
11
  0
DIMSTYLE
105
277
102
{ACAD_REACTORS
330
276
102
}
330
A
100
AcDbSymbolTableRecord
100
AcDbDimStyleTableRecord
  2
SLDDIMSTYLE0
 70
     0
 41
0.3
 44
0.0
 45
0.000000001
 78
    12
 79
     3
140
0.5
147
0.125
173
     1
178
     0
271
     2
272
     2
276
     2
277
     5
284
    12
340
161
341
278
343
278
344
278
  0
DIMSTYLE
105
289
102
{ACAD_REACTORS
330
288
330
298
102
}
330
A
100
AcDbSymbolTableRecord
100
AcDbDimStyleTableRecord
  2
SLDDIMSTYLE1
 70
     0
 41
0.3
 44
0.0
 45
0.000000001
 78
    12
 79
     3
140
0.5
147
0.125
172
     1
173
     1
178
     0
271
     6
272
     2
276
     2
277
     5
284
    12
289
     0
340
161
341
278
343
278
344
278
  0
DIMSTYLE
105
2B9
102
{ACAD_REACTORS
330
2B8
102
}
330
A
100
AcDbSymbolTableRecord
100
AcDbDimStyleTableRecord
  2
SLDDIMSTYLE2
 70
     0
 41
0.3
 44
0.0
 45
0.000000001
 78
    12
 79
     3
140
0.5
141
0.0
147
0.125
173
     1
178
     0
271
     2
272
     2
276
     2
277
     5
284
    12
340
161
341
278
343
278
344
278
  0
DIMSTYLE
105
2C3
102
{ACAD_REACTORS
330
2C2
102
}
330
A
100
AcDbSymbolTableRecord
100
AcDbDimStyleTableRecord
  2
SLDDIMSTYLE3
 70
     0
 41
0.3
 44
0.0
 45
0.000000001
 78
    12
 79
     3
140
0.5
147
0.125
173
     1
178
     0
271
     6
272
     2
276
     2
277
     5
284
    12
340
161
341
278
343
278
344
278
  0
DIMSTYLE
105
412
330
A
100
AcDbSymbolTableRecord
100
AcDbDimStyleTableRecord
  2
SLDDIMSTYLE4
 70
     0
 41
0.3
 44
0.0
 45
0.000000001
146
0.3
147
0.0
173
     1
178
     0
271
     0
272
     0
276
     2
277
     5
340
11
341
278
343
278
344
278
  0
ENDTAB
  0
TABLE
  2
BLOCK_RECORD
  5
1
330
0
100
AcDbSymbolTable
 70
    11
  0
BLOCK_RECORD
  5
1F
330
1
100
AcDbSymbolTableRecord
100
AcDbBlockTableRecord
  2
*Model_Space
340
22
  0
BLOCK_RECORD
  5
1B
330
1
100
AcDbSymbolTableRecord
100
AcDbBlockTableRecord
  2
*Paper_Space
340
1E
  0
BLOCK_RECORD
  5
23
330
1
100
AcDbSymbolTableRecord
100
AcDbBlockTableRecord
  2
*Paper_Space0
340
26
  0
BLOCK_RECORD
  5
167
330
1
100
AcDbSymbolTableRecord
100
AcDbBlockTableRecord
  2
SW_NOTE_0
340
0
102
{BLKREFS
331
16C
102
}
  0
BLOCK_RECORD
  5
16D
330
1
100
AcDbSymbolTableRecord
100
AcDbBlockTableRecord
  2
SW_NOTE_0_1
340
0
102
{BLKREFS
331
176
102
}
  0
BLOCK_RECORD
  5
278
330
1
100
AcDbSymbolTableRecord
100
AcDbBlockTableRecord
  2
_Open90
340
0
102
{BLKREFS
331
281
331
282
331
28D
331
28E
331
29C
331
29D
331
2BD
331
2C7
331
2C8
102
}
  0
BLOCK_RECORD
  5
27E
330
1
100
AcDbSymbolTableRecord
100
AcDbBlockTableRecord
  2
_D
340
0
  0
BLOCK_RECORD
  5
28A
330
1
100
AcDbSymbolTableRecord
100
AcDbBlockTableRecord
  2
_D_1
340
0
  0
BLOCK_RECORD
  5
299
330
1
100
AcDbSymbolTableRecord
100
AcDbBlockTableRecord
  2
_D_2
340
0
  0
BLOCK_RECORD
  5
2BA
330
1
100
AcDbSymbolTableRecord
100
AcDbBlockTableRecord
  2
_D_3
340
0
  0
BLOCK_RECORD
  5
2C4
330
1
100
AcDbSymbolTableRecord
100
AcDbBlockTableRecord
  2
_D_4
340
0
  0
BLOCK_RECORD
  5
355
330
1
100
AcDbSymbolTableRecord
100
AcDbBlockTableRecord
  2
SW_NOTE_0_2
340
0
102
{BLKREFS
331
35A
102
}
  0
BLOCK_RECORD
  5
40B
330
1
100
AcDbSymbolTableRecord
100
AcDbBlockTableRecord
  2
SW_NOTE_0_3
340
0
102
{BLKREFS
331
410
102
}
  0
ENDTAB
  0
ENDSEC
  0
SECTION
  2
BLOCKS
  0
BLOCK
  5
20
330
1F
100
AcDbEntity
  8
0
100
AcDbBlockBegin
  2
*Model_Space
 70
     0
 10
0.0
 20
0.0
 30
0.0
  3
*Model_Space
  1

  0
ENDBLK
  5
21
330
1F
100
AcDbEntity
  8
0
100
AcDbBlockEnd
  0
BLOCK
  5
1C
330
1B
100
AcDbEntity
 67
     1
  8
0
100
AcDbBlockBegin
  2
*Paper_Space
 70
     0
 10
0.0
 20
0.0
 30
0.0
  3
*Paper_Space
  1

  0
ENDBLK
  5
1D
330
1B
100
AcDbEntity
 67
     1
  8
0
100
AcDbBlockEnd
  0
BLOCK
  5
24
330
23
100
AcDbEntity
  8
0
100
AcDbBlockBegin
  2
*Paper_Space0
 70
     0
 10
0.0
 20
0.0
 30
0.0
  3
*Paper_Space0
  1

  0
ENDBLK
  5
25
330
23
100
AcDbEntity
  8
0
100
AcDbBlockEnd
  0
BLOCK
  5
168
330
167
100
AcDbEntity
  8
0
100
AcDbBlockBegin
  2
SW_NOTE_0
 70
     0
 10
0.0
 20
0.0
 30
0.0
  3
SW_NOTE_0
  1

  0
MTEXT
  5
16A
330
167
100
AcDbEntity
  8
NOTES
 62
     0
100
AcDbMText
 10
0.0
 20
0.3759780908
 30
0.0
 40
0.2916666667
 41
0.0
 71
     1
 72
     1
  1
FROST PRODUCTS LTD.
  7
SLDTEXTSTYLE0
 73
     1
 44
1.0
  0
MTEXT
  5
16B
330
167
100
AcDbEntity
  8
NOTES
 62
     0
100
AcDbMText
 10
0.0
 20
-0.0495142709
 30
0.0
 40
0.2291666667
 41
0.0
 71
     1
 72
     1
  1
5280 JOHN LUCAS DRIVE, BURLINGTON, ON, L7L 5Z9
  7
SLDTEXTSTYLE0
 73
     1
 44
1.0
  0
ENDBLK
  5
169
330
167
100
AcDbEntity
  8
0
100
AcDbBlockEnd
  0
BLOCK
  5
16E
330
16D
100
AcDbEntity
  8
0
100
AcDbBlockBegin
  2
SW_NOTE_0_1
 70
     0
 10
0.0
 20
0.0
 30
0.0
  3
SW_NOTE_0_1
  1

  0
MTEXT
  5
171
330
16D
100
AcDbEntity
  8
NOTES
 62
     0
100
AcDbMText
 10
0.0
 20
0.2381282771
 30
0.0
 40
0.184729064
 41
0.0
 71
     1
 72
     1
  1
PROPRIETARY AND CONFIDENTIAL
  7
SLDTEXTSTYLE2
 73
     1
 44
1.0
  0
MTEXT
  5
173
330
16D
100
AcDbEntity
  8
NOTES
 62
     0
100
AcDbMText
 10
0.0
 20
-0.0504364796
 30
0.0
 40
0.25
 41
0.0
 71
     1
 72
     1
  1
THE INFORMATION CONTAINED IN THIS DRAWING IS THE SOLE PROPERTY OF 
  7
SLDTEXTSTYLE3
 73
     1
 44
1.0
  0
MTEXT
  5
174
330
16D
100
AcDbEntity
  8
NOTES
 62
     0
100
AcDbMText
 10
0.0
 20
-0.4231398941
 30
0.0
 40
0.25
 41
0.0
 71
     1
 72
     1
  1
FROST PRODUCTS LTD.  ANY REPRODUCTION IN PART OR AS A WHOLE WITHOUT 
  7
SLDTEXTSTYLE3
 73
     1
 44
1.0
  0
MTEXT
  5
175
330
16D
100
AcDbEntity
  8
NOTES
 62
     0
100
AcDbMText
 10
0.0
 20
-0.7958433086
 30
0.0
 40
0.25
 41
0.0
 71
     1
 72
     1
  1
THE WRITTEN PERMISSION OF FROST PRODUCTS LTD. IS PROHIBITED.
  7
SLDTEXTSTYLE3
 73
     1
 44
1.0
  0
ENDBLK
  5
16F
330
16D
100
AcDbEntity
  8
0
100
AcDbBlockEnd
  0
BLOCK
  5
279
330
278
100
AcDbEntity
  8
0
100
AcDbBlockBegin
  2
_Open90
 70
     0
 10
0.0
 20
0.0
 30
0.0
  3
_Open90
  1

  0
LINE
  5
27B
330
278
100
AcDbEntity
  8
0
  6
ByBlock
 62
     0
370
    -2
100
AcDbLine
 10
-0.5
 20
0.5
 30
0.0
 11
0.0
 21
0.0
 31
0.0
  0
LINE
  5
27C
330
278
100
AcDbEntity
  8
0
  6
ByBlock
 62
     0
370
    -2
100
AcDbLine
 10
0.0
 20
0.0
 30
0.0
 11
-0.5
 21
-0.5
 31
0.0
  0
LINE
  5
27D
330
278
100
AcDbEntity
  8
0
  6
ByBlock
 62
     0
370
    -2
100
AcDbLine
 10
0.0
 20
0.0
 30
0.0
 11
-1.0
 21
0.0
 31
0.0
  0
ENDBLK
  5
27A
330
278
100
AcDbEntity
  8
0
100
AcDbBlockEnd
  0
BLOCK
  5
27F
330
27E
100
AcDbEntity
  8
0
100
AcDbBlockBegin
  2
_D
 70
     0
 10
0.0
 20
0.0
 30
0.0
  3
_D
  1

  0
INSERT
  5
281
330
27E
100
AcDbEntity
  8
DIMS
100
AcDbBlockReference
  2
_Open90
 10
69.4368836225
 20
27.2931597601
 30
0.0
 41
0.3
 42
0.3
 50
0.0
  0
INSERT
  5
282
330
27E
100
AcDbEntity
  8
DIMS
100
AcDbBlockReference
  2
_Open90
 10
9.4368836225
 20
27.2931597601
 30
0.0
 41
0.3
 42
0.3
 50
180.0
  0
LINE
  5
283
330
27E
100
AcDbEntity
  8
DIMS
100
AcDbLine
 10
69.4368836225
 20
24.3033618598
 30
0.0
 11
69.4368836225
 21
27.6681597601
 31
0.0
  0
LINE
  5
284
330
27E
100
AcDbEntity
  8
DIMS
100
AcDbLine
 10
9.4368836225
 20
24.3033618598
 30
0.0
 11
9.4368836225
 21
27.6681597601
 31
0.0
  0
LINE
  5
285
330
27E
100
AcDbEntity
  8
DIMS
100
AcDbLine
 10
69.4368836225
 20
27.2931597601
 30
0.0
 11
40.7247839973
 21
27.2931597601
 31
0.0
  0
LINE
  5
286
330
27E
100
AcDbEntity
  8
DIMS
100
AcDbLine
 10
9.4368836225
 20
27.2931597601
 30
0.0
 11
39.7796451422
 21
27.2931597601
 31
0.0
  0
MTEXT
  5
287
330
27E
100
AcDbEntity
  8
DIMS
100
AcDbMText
 10
39.7796451422
 20
27.5349566782
 30
0.0
 40
0.5
 41
0.0
 71
     1
 72
     1
  1
60"
  7
SLDTEXTSTYLE1
 73
     1
 44
1.0
  0
ENDBLK
  5
280
330
27E
100
AcDbEntity
  8
0
100
AcDbBlockEnd
  0
BLOCK
  5
28B
330
28A
100
AcDbEntity
  8
0
100
AcDbBlockBegin
  2
_D_1
 70
     0
 10
0.0
 20
0.0
 30
0.0
  3
_D_1
  1

  0
INSERT
  5
28D
330
28A
100
AcDbEntity
  8
DIMS
100
AcDbBlockReference
  2
_Open90
 10
65.9549056719
 20
24.1366951932
 30
0.0
 41
0.3
 42
0.3
 50
270.0
  0
INSERT
  5
28E
330
28A
100
AcDbEntity
  8
DIMS
100
AcDbBlockReference
  2
_Open90
 10
65.9549056719
 20
22.8826951932
 30
0.0
 41
0.3
 42
0.3
 50
90.0
  0
LINE
  5
28F
330
28A
100
AcDbEntity
  8
DIMS
100
AcDbLine
 10
64.8594195564
 20
25.4546806789
 30
0.0
 11
65.3753918059
 21
25.4546806789
 31
0.0
  0
LINE
  5
290
330
28A
100
AcDbEntity
  8
DIMS
100
AcDbLine
 10
65.6549056719
 20
25.4033959806
 30
0.0
 11
65.9549056719
 21
25.4033959806
 31
0.0
  0
LINE
  5
291
330
28A
100
AcDbEntity
  8
DIMS
100
AcDbLine
 10
65.9549056719
 20
25.4033959806
 30
0.0
 11
65.9549056719
 21
24.1366951932
 31
0.0
  0
LINE
  5
292
330
28A
100
AcDbEntity
  8
DIMS
100
AcDbLine
 10
65.9549056719
 20
22.8826951932
 30
0.0
 11
65.9549056719
 21
22.5826951932
 31
0.0
  0
MTEXT
  5
293
330
28A
100
AcDbEntity
  8
DIMS
100
AcDbMText
 10
63.6626487266
 20
25.6764428501
 30
0.0
 40
0.5
 41
0.0
 71
     1
 72
     1
  1
%%c
  7
SLDTEXTSTYLE1
 73
     1
 44
1.0
  0
MTEXT
  5
294
330
28A
100
AcDbEntity
  8
DIMS
100
AcDbMText
 10
64.416711209
 20
25.6840817394
 30
0.0
 40
0.5
 41
0.0
 71
     1
 72
     1
  1
1
  7
SLDTEXTSTYLE1
 73
     1
 44
1.0
  0
MTEXT
  5
295
330
28A
100
AcDbEntity
  8
DIMS
100
AcDbMText
 10
64.9326834584
 20
26.0493942384
 30
0.0
 40
0.5
 41
0.0
 71
     1
 72
     1
  1
1
  7
SLDTEXTSTYLE1
 73
     1
 44
1.0
  0
MTEXT
  5
296
330
28A
100
AcDbEntity
  8
DIMS
100
AcDbMText
 10
64.9326834584
 20
25.3882136599
 30
0.0
 40
0.5
 41
0.0
 71
     1
 72
     1
  1
4
  7
SLDTEXTSTYLE1
 73
     1
 44
1.0
  0
MTEXT
  5
297
330
28A
100
AcDbEntity
  8
DIMS
100
AcDbMText
 10
65.4486557078
 20
25.6840817394
 30
0.0
 40
0.5
 41
0.0
 71
     1
 72
     1
  1
"
  7
SLDTEXTSTYLE1
 73
     1
 44
1.0
  0
ENDBLK
  5
28C
330
28A
100
AcDbEntity
  8
0
100
AcDbBlockEnd
  0
BLOCK
  5
29A
330
299
100
AcDbEntity
  8
0
100
AcDbBlockBegin
  2
_D_2
 70
     0
 10
0.0
 20
0.0
 30
0.0
  3
_D_2
  1

  0
INSERT
  5
29C
330
299
100
AcDbEntity
  8
DIMS
100
AcDbBlockReference
  2
_Open90
 10
69.4368836225
 20
26.1120573979
 30
0.0
 41
0.3
 42
0.3
 50
180.0
  0
INSERT
  5
29D
330
299
100
AcDbEntity
  8
DIMS
100
AcDbBlockReference
  2
_Open90
 10
68.8808836225
 20
26.1120573979
 30
0.0
 41
0.3
 42
0.3
 50
0.0
  0
LINE
  5
29E
330
299
100
AcDbEntity
  8
DIMS
100
AcDbLine
 10
66.9089754084
 20
26.1633420963
 30
0.0
 11
67.7943921034
 21
26.1633420963
 31
0.0
  0
LINE
  5
29F
330
299
100
AcDbEntity
  8
DIMS
100
AcDbLine
 10
69.4368836225
 20
25.1763618598
 30
0.0
 11
69.4368836225
 21
26.4870573979
 31
0.0
  0
LINE
  5
2A0
330
299
100
AcDbEntity
  8
DIMS
100
AcDbLine
 10
68.8808836225
 20
25.0763618598
 30
0.0
 11
68.8808836225
 21
26.4870573979
 31
0.0
  0
LINE
  5
2A1
330
299
100
AcDbEntity
  8
DIMS
100
AcDbLine
 10
69.4368836225
 20
26.1120573979
 30
0.0
 11
69.7368836225
 21
26.1120573979
 31
0.0
  0
LINE
  5
2A2
330
299
100
AcDbEntity
  8
DIMS
100
AcDbLine
 10
68.8808836225
 20
26.1120573979
 30
0.0
 11
68.0739060427
 21
26.1120573979
 31
0.0
  0
MTEXT
  5
2A3
330
299
100
AcDbEntity
  8
DIMS
100
AcDbMText
 10
67.1669615331
 20
26.7580556557
 30
0.0
 40
0.5
 41
0.0
 71
     1
 72
     1
  1
9
  7
SLDTEXTSTYLE1
 73
     1
 44
1.0
  0
MTEXT
  5
2A4
330
299
100
AcDbEntity
  8
DIMS
100
AcDbMText
 10
66.9822393104
 20
26.0968750772
 30
0.0
 40
0.5
 41
0.0
 71
     1
 72
     1
  1
16
  7
SLDTEXTSTYLE1
 73
     1
 44
1.0
  0
MTEXT
  5
2A5
330
299
100
AcDbEntity
  8
DIMS
100
AcDbMText
 10
67.8676560053
 20
26.3927431567
 30
0.0
 40
0.5
 41
0.0
 71
     1
 72
     1
  1
"
  7
SLDTEXTSTYLE1
 73
     1
 44
1.0
  0
ENDBLK
  5
29B
330
299
100
AcDbEntity
  8
0
100
AcDbBlockEnd
  0
BLOCK
  5
2BB
330
2BA
100
AcDbEntity
  8
0
100
AcDbBlockBegin
  2
_D_3
 70
     0
 10
0.0
 20
0.0
 30
0.0
  3
_D_3
  1

  0
INSERT
  5
2BD
330
2BA
100
AcDbEntity
  8
DIMS
100
AcDbBlockReference
  2
_Open90
 10
74.3745282405
 20
24.8087332988
 30
0.0
 41
0.3
 42
0.3
 50
300.0
  0
LINE
  5
2BE
330
2BA
100
AcDbEntity
  8
DIMS
100
AcDbLine
 10
74.3745282405
 20
24.8087332988
 30
0.0
 11
73.5942504279
 21
26.1602141143
 31
0.0
  0
LINE
  5
2BF
330
2BA
100
AcDbEntity
  8
DIMS
100
AcDbLine
 10
73.5942504279
 20
26.1602141143
 30
0.0
 11
73.2942504279
 21
26.1602141143
 31
0.0
  0
MTEXT
  5
2C0
330
2BA
100
AcDbEntity
  8
DIMS
100
AcDbMText
 10
71.964493536
 20
26.3981915556
 30
0.0
 40
0.5
 41
0.0
 71
     1
 72
     1
  1
%%c
  7
SLDTEXTSTYLE1
 73
     1
 44
1.0
  0
MTEXT
  5
2C1
330
2BA
100
AcDbEntity
  8
DIMS
100
AcDbMText
 10
72.7185560184
 20
26.4058304449
 30
0.0
 40
0.5
 41
0.0
 71
     1
 72
     1
  1
3"
  7
SLDTEXTSTYLE1
 73
     1
 44
1.0
  0
ENDBLK
  5
2BC
330
2BA
100
AcDbEntity
  8
0
100
AcDbBlockEnd
  0
BLOCK
  5
2C5
330
2C4
100
AcDbEntity
  8
0
100
AcDbBlockBegin
  2
_D_4
 70
     0
 10
0.0
 20
0.0
 30
0.0
  3
_D_4
  1

  0
INSERT
  5
2C7
330
2C4
100
AcDbEntity
  8
DIMS
100
AcDbBlockReference
  2
_Open90
 10
78.687723053
 20
24.5716951932
 30
0.0
 41
0.3
 42
0.3
 50
90.0
  0
INSERT
  5
2C8
330
2C4
100
AcDbEntity
  8
DIMS
100
AcDbBlockReference
  2
_Open90
 10
78.687723053
 20
22.4476951932
 30
0.0
 41
0.3
 42
0.3
 50
270.0
  0
LINE
  5
2C9
330
2C4
100
AcDbEntity
  8
DIMS
100
AcDbLine
 10
78.5113341323
 20
23.5084944159
 30
0.0
 11
79.0273063818
 21
23.5084944159
 31
0.0
  0
LINE
  5
2CA
330
2C4
100
AcDbEntity
  8
DIMS
100
AcDbLine
 10
75.2911949072
 20
24.5716951932
 30
0.0
 11
79.062723053
 21
24.5716951932
 31
0.0
  0
LINE
  5
2CB
330
2C4
100
AcDbEntity
  8
DIMS
100
AcDbLine
 10
75.2911949072
 20
22.4476951932
 30
0.0
 11
79.062723053
 21
22.4476951932
 31
0.0
  0
LINE
  5
2CC
330
2C4
100
AcDbEntity
  8
DIMS
100
AcDbLine
 10
78.687723053
 20
24.5716951932
 30
0.0
 11
78.687723053
 21
24.1110638708
 31
0.0
  0
LINE
  5
2CD
330
2C4
100
AcDbEntity
  8
DIMS
100
AcDbLine
 10
78.687723053
 20
22.4476951932
 30
0.0
 11
78.687723053
 21
22.8033555643
 31
0.0
  0
MTEXT
  5
2CE
330
2C4
100
AcDbEntity
  8
DIMS
100
AcDbMText
 10
78.0686257849
 20
23.7378954764
 30
0.0
 40
0.5
 41
0.0
 71
     1
 72
     1
  1
2
  7
SLDTEXTSTYLE1
 73
     1
 44
1.0
  0
MTEXT
  5
2CF
330
2C4
100
AcDbEntity
  8
DIMS
100
AcDbMText
 10
78.5845980343
 20
24.1032079754
 30
0.0
 40
0.5
 41
0.0
 71
     1
 72
     1
  1
1
  7
SLDTEXTSTYLE1
 73
     1
 44
1.0
  0
MTEXT
  5
2D0
330
2C4
100
AcDbEntity
  8
DIMS
100
AcDbMText
 10
78.5845980343
 20
23.4420273969
 30
0.0
 40
0.5
 41
0.0
 71
     1
 72
     1
  1
8
  7
SLDTEXTSTYLE1
 73
     1
 44
1.0
  0
MTEXT
  5
2D1
330
2C4
100
AcDbEntity
  8
DIMS
100
AcDbMText
 10
79.1005702838
 20
23.7378954764
 30
0.0
 40
0.5
 41
0.0
 71
     1
 72
     1
  1
"
  7
SLDTEXTSTYLE1
 73
     1
 44
1.0
  0
ENDBLK
  5
2C6
330
2C4
100
AcDbEntity
  8
0
100
AcDbBlockEnd
  0
BLOCK
  5
356
330
355
100
AcDbEntity
  8
0
100
AcDbBlockBegin
  2
SW_NOTE_0_2
 70
     0
 10
0.0
 20
0.0
 30
0.0
  3
SW_NOTE_0_2
  1

  0
MTEXT
  5
358
330
355
100
AcDbEntity
  8
NOTES
 62
     0
100
AcDbMText
 10
0.0
 20
0.638671875
 30
0.0
 40
0.5
 41
0.0
 71
     1
 72
     1
  1
3D view
  7
SLDTEXTSTYLE1
 73
     1
 44
1.0
  0
MTEXT
  5
359
330
355
100
AcDbEntity
  8
NOTES
 62
     0
100
AcDbMText
 10
0.0
 20
-0.3613281862
 30
0.0
 40
0.5
 41
0.0
 71
     1
 72
     1
  1
code 1145-S
  7
SLDTEXTSTYLE1
 73
     1
 44
1.0
  0
ENDBLK
  5
357
330
355
100
AcDbEntity
  8
0
100
AcDbBlockEnd
  0
BLOCK
  5
40C
330
40B
100
AcDbEntity
  8
0
100
AcDbBlockBegin
  2
SW_NOTE_0_3
 70
     0
 10
0.0
 20
0.0
 30
0.0
  3
SW_NOTE_0_3
  1

  0
MTEXT
  5
40E
330
40B
100
AcDbEntity
  8
NOTES
 62
     0
100
AcDbMText
 10
0.0
 20
0.638671875
 30
0.0
 40
0.5
 41
0.0
 71
     1
 72
     1
  1
3D view
  7
SLDTEXTSTYLE1
 73
     1
 44
1.0
  0
MTEXT
  5
40F
330
40B
100
AcDbEntity
  8
NOTES
 62
     0
100
AcDbMText
 10
0.0
 20
-0.3613281862
 30
0.0
 40
0.5
 41
0.0
 71
     1
 72
     1
  1
assembly
  7
SLDTEXTSTYLE1
 73
     1
 44
1.0
  0
ENDBLK
  5
40D
330
40B
100
AcDbEntity
  8
0
100
AcDbBlockEnd
  0
ENDSEC
  0
SECTION
  2
ENTITIES
  0
LINE
  5
7A
330
1F
100
AcDbEntity
  8
TITLE
370
    35
100
AcDbLine
 10
72.5182230965
 20
1.4876117645
 30
0.0
 11
89.4999864512
 21
1.4876117645
 31
0.0
  0
LINE
  5
7B
330
1F
100
AcDbEntity
  8
TITLE
370
    35
100
AcDbLine
 10
89.4999317442
 20
5.4753603936
 30
0.0
 11
79.3105350723
 21
5.4753603936
 31
0.0
  0
LINE
  5
7C
330
1F
100
AcDbEntity
  8
TITLE
  6
SLD-Solid
370
    18
100
AcDbLine
 10
0.5
 20
0.5
 30
0.0
 11
0.5
 21
119.5
 31
0.0
  0
LINE
  5
7D
330
1F
100
AcDbEntity
  8
TITLE
  6
SLD-Solid
370
    18
100
AcDbLine
 10
0.5
 20
119.5
 30
0.0
 11
89.5
 21
119.5
 31
0.0
  0
LINE
  5
7E
330
1F
100
AcDbEntity
  8
TITLE
370
    35
100
AcDbLine
 10
72.5182230965
 20
2.5427877231
 30
0.0
 11
65.5059791203
 21
2.5427877231
 31
0.0
  0
LINE
  5
7F
330
1F
100
AcDbEntity
  8
TITLE
370
    35
100
AcDbLine
 10
72.5182230965
 20
1.4876117645
 30
0.0
 11
65.5059791203
 21
1.4876117645
 31
0.0
  0
LINE
  5
80
330
1F
100
AcDbEntity
  8
TITLE
  6
SLD-Solid
370
    18
100
AcDbLine
 10
89.5
 20
119.5
 30
0.0
 11
89.5
 21
0.5
 31
0.0
  0
LINE
  5
81
330
1F
100
AcDbEntity
  8
TITLE
  6
SLD-Solid
370
    18
100
AcDbLine
 10
89.5
 20
0.5
 30
0.0
 11
0.5
 21
0.5
 31
0.0
  0
LINE
  5
82
330
1F
100
AcDbEntity
  8
TITLE
370
    35
100
AcDbLine
 10
72.5182230965
 20
1.4876117645
 30
0.0
 11
72.5182230965
 21
3.5979636817
 31
0.0
  0
LINE
  5
83
330
1F
100
AcDbEntity
  8
TITLE
370
    35
100
AcDbLine
 10
65.5059791203
 20
3.5979636817
 30
0.0
 11
65.5059791203
 21
0.5
 31
0.0
  0
LINE
  5
84
330
1F
100
AcDbEntity
  8
TITLE
370
    35
100
AcDbLine
 10
65.5059791203
 20
0.5
 30
0.0
 11
89.5
 21
0.5
 31
0.0
  0
LINE
  5
85
330
1F
100
AcDbEntity
  8
TITLE
370
    35
100
AcDbLine
 10
89.4999317442
 20
5.4753603936
 30
0.0
 11
89.5
 21
0.5
 31
0.0
  0
LINE
  5
86
330
1F
100
AcDbEntity
  8
TITLE
  6
SLD-Solid
370
    18
100
AcDbLine
 10
0.4999606299
 20
60.0
 30
0.0
 11
0.5000393701
 21
60.0
 31
0.0
  0
LINE
  5
87
330
1F
100
AcDbEntity
  8
TITLE
370
    35
100
AcDbLine
 10
72.5182230965
 20
3.5979636817
 30
0.0
 11
65.5059791203
 21
3.5979636817
 31
0.0
  0
LINE
  5
88
330
1F
100
AcDbEntity
  8
TITLE
370
    35
100
AcDbLine
 10
72.5182230965
 20
3.5979636817
 30
0.0
 11
89.4997615643
 21
3.5979648343
 31
0.0
  0
LINE
  5
89
330
1F
100
AcDbEntity
  8
TITLE
370
    35
100
AcDbLine
 10
79.3105350723
 20
5.4753603936
 30
0.0
 11
79.3105350723
 21
0.4636772425
 31
0.0
  0
LINE
  5
8A
330
1F
100
AcDbEntity
  8
TITLE
  6
SLD-Solid
370
    18
100
AcDbLine
 10
45.0
 20
119.5000393701
 30
0.0
 11
45.0
 21
119.4999606299
 31
0.0
  0
LINE
  5
8B
330
1F
100
AcDbEntity
  8
TITLE
  6
SLD-Solid
370
    18
100
AcDbLine
 10
89.5000393701
 20
60.0
 30
0.0
 11
89.4999606299
 21
60.0
 31
0.0
  0
LINE
  5
8C
330
1F
100
AcDbEntity
  8
TITLE
  6
SLD-Solid
370
    18
100
AcDbLine
 10
45.0
 20
0.4999606299
 30
0.0
 11
45.0
 21
0.5000393701
 31
0.0
  0
LINE
  5
8D
330
1F
100
AcDbEntity
  8
TITLE
  6
SLD-Solid
370
    18
100
AcDbLine
 10
0.5
 20
2.9133858268
 30
0.0
 11
0.1653543307
 21
2.9133858268
 31
0.0
  0
LINE
  5
8E
330
1F
100
AcDbEntity
  8
TITLE
  6
SLD-Solid
370
    18
100
AcDbLine
 10
89.5
 20
2.9133858268
 30
0.0
 11
89.8346456693
 21
2.9133858268
 31
0.0
  0
LINE
  5
8F
330
1F
100
AcDbEntity
  8
TITLE
  6
SLD-Solid
370
    18
100
AcDbLine
 10
0.5
 20
4.8818897638
 30
0.0
 11
0.1653543307
 21
4.8818897638
 31
0.0
  0
LINE
  5
90
330
1F
100
AcDbEntity
  8
TITLE
  6
SLD-Solid
370
    18
100
AcDbLine
 10
89.5
 20
4.8818897638
 30
0.0
 11
89.8346456693
 21
4.8818897638
 31
0.0
  0
LINE
  5
91
330
1F
100
AcDbEntity
  8
TITLE
  6
SLD-Solid
370
    18
100
AcDbLine
 10
0.5
 20
6.8503937008
 30
0.0
 11
0.1653543307
 21
6.8503937008
 31
0.0
  0
LINE
  5
92
330
1F
100
AcDbEntity
  8
TITLE
  6
SLD-Solid
370
    18
100
AcDbLine
 10
89.5
 20
6.8503937008
 30
0.0
 11
89.8346456693
 21
6.8503937008
 31
0.0
  0
LINE
  5
93
330
1F
100
AcDbEntity
  8
TITLE
  6
SLD-Solid
370
    18
100
AcDbLine
 10
0.5
 20
8.8188976378
 30
0.0
 11
0.1653543307
 21
8.8188976378
 31
0.0
  0
LINE
  5
94
330
1F
100
AcDbEntity
  8
TITLE
  6
SLD-Solid
370
    18
100
AcDbLine
 10
89.5
 20
8.8188976378
 30
0.0
 11
89.8346456693
 21
8.8188976378
 31
0.0
  0
LINE
  5
95
330
1F
100
AcDbEntity
  8
TITLE
  6
SLD-Solid
370
    18
100
AcDbLine
 10
0.5
 20
10.7874015748
 30
0.0
 11
0.1653543307
 21
10.7874015748
 31
0.0
  0
LINE
  5
96
330
1F
100
AcDbEntity
  8
TITLE
  6
SLD-Solid
370
    18
100
AcDbLine
 10
89.5
 20
10.7874015748
 30
0.0
 11
89.8346456693
 21
10.7874015748
 31
0.0
  0
LINE
  5
97
330
1F
100
AcDbEntity
  8
TITLE
  6
SLD-Solid
370
    18
100
AcDbLine
 10
0.5
 20
12.7559055118
 30
0.0
 11
0.1653543307
 21
12.7559055118
 31
0.0
  0
LINE
  5
98
330
1F
100
AcDbEntity
  8
TITLE
  6
SLD-Solid
370
    18
100
AcDbLine
 10
89.5
 20
12.7559055118
 30
0.0
 11
89.8346456693
 21
12.7559055118
 31
0.0
  0
LINE
  5
99
330
1F
100
AcDbEntity
  8
TITLE
  6
SLD-Solid
370
    18
100
AcDbLine
 10
0.5
 20
14.7244094488
 30
0.0
 11
0.1653543307
 21
14.7244094488
 31
0.0
  0
LINE
  5
9A
330
1F
100
AcDbEntity
  8
TITLE
  6
SLD-Solid
370
    18
100
AcDbLine
 10
89.5
 20
14.7244094488
 30
0.0
 11
89.8346456693
 21
14.7244094488
 31
0.0
  0
LINE
  5
9B
330
1F
100
AcDbEntity
  8
TITLE
  6
SLD-Solid
370
    18
100
AcDbLine
 10
0.5
 20
16.6929133858
 30
0.0
 11
0.1653543307
 21
16.6929133858
 31
0.0
  0
LINE
  5
9C
330
1F
100
AcDbEntity
  8
TITLE
  6
SLD-Solid
370
    18
100
AcDbLine
 10
89.5
 20
16.6929133858
 30
0.0
 11
89.8346456693
 21
16.6929133858
 31
0.0
  0
LINE
  5
9D
330
1F
100
AcDbEntity
  8
TITLE
  6
SLD-Solid
370
    18
100
AcDbLine
 10
0.5
 20
18.6614173228
 30
0.0
 11
0.1653543307
 21
18.6614173228
 31
0.0
  0
LINE
  5
9E
330
1F
100
AcDbEntity
  8
TITLE
  6
SLD-Solid
370
    18
100
AcDbLine
 10
89.5
 20
18.6614173228
 30
0.0
 11
89.8346456693
 21
18.6614173228
 31
0.0
  0
LINE
  5
9F
330
1F
100
AcDbEntity
  8
TITLE
  6
SLD-Solid
370
    18
100
AcDbLine
 10
0.5
 20
20.6299212598
 30
0.0
 11
0.1653543307
 21
20.6299212598
 31
0.0
  0
LINE
  5
A0
330
1F
100
AcDbEntity
  8
TITLE
  6
SLD-Solid
370
    18
100
AcDbLine
 10
89.5
 20
20.6299212598
 30
0.0
 11
89.8346456693
 21
20.6299212598
 31
0.0
  0
LINE
  5
A1
330
1F
100
AcDbEntity
  8
TITLE
  6
SLD-Solid
370
    18
100
AcDbLine
 10
0.5
 20
22.5984251969
 30
0.0
 11
0.1653543307
 21
22.5984251969
 31
0.0
  0
LINE
  5
A2
330
1F
100
AcDbEntity
  8
TITLE
  6
SLD-Solid
370
    18
100
AcDbLine
 10
89.5
 20
22.5984251969
 30
0.0
 11
89.8346456693
 21
22.5984251969
 31
0.0
  0
LINE
  5
A3
330
1F
100
AcDbEntity
  8
TITLE
  6
SLD-Solid
370
    18
100
AcDbLine
 10
0.5
 20
24.5669291339
 30
0.0
 11
0.1653543307
 21
24.5669291339
 31
0.0
  0
LINE
  5
A4
330
1F
100
AcDbEntity
  8
TITLE
  6
SLD-Solid
370
    18
100
AcDbLine
 10
89.5
 20
24.5669291339
 30
0.0
 11
89.8346456693
 21
24.5669291339
 31
0.0
  0
LINE
  5
A5
330
1F
100
AcDbEntity
  8
TITLE
  6
SLD-Solid
370
    18
100
AcDbLine
 10
0.5
 20
26.5354330709
 30
0.0
 11
0.1653543307
 21
26.5354330709
 31
0.0
  0
LINE
  5
A6
330
1F
100
AcDbEntity
  8
TITLE
  6
SLD-Solid
370
    18
100
AcDbLine
 10
89.5
 20
26.5354330709
 30
0.0
 11
89.8346456693
 21
26.5354330709
 31
0.0
  0
LINE
  5
A7
330
1F
100
AcDbEntity
  8
TITLE
  6
SLD-Solid
370
    18
100
AcDbLine
 10
0.5
 20
28.5039370079
 30
0.0
 11
0.1653543307
 21
28.5039370079
 31
0.0
  0
LINE
  5
A8
330
1F
100
AcDbEntity
  8
TITLE
  6
SLD-Solid
370
    18
100
AcDbLine
 10
89.5
 20
28.5039370079
 30
0.0
 11
89.8346456693
 21
28.5039370079
 31
0.0
  0
LINE
  5
A9
330
1F
100
AcDbEntity
  8
TITLE
  6
SLD-Solid
370
    18
100
AcDbLine
 10
0.5
 20
30.4724409449
 30
0.0
 11
0.1653543307
 21
30.4724409449
 31
0.0
  0
LINE
  5
AA
330
1F
100
AcDbEntity
  8
TITLE
  6
SLD-Solid
370
    18
100
AcDbLine
 10
89.5
 20
30.4724409449
 30
0.0
 11
89.8346456693
 21
30.4724409449
 31
0.0
  0
LINE
  5
AB
330
1F
100
AcDbEntity
  8
TITLE
  6
SLD-Solid
370
    18
100
AcDbLine
 10
0.5
 20
32.4409448819
 30
0.0
 11
0.1653543307
 21
32.4409448819
 31
0.0
  0
LINE
  5
AC
330
1F
100
AcDbEntity
  8
TITLE
  6
SLD-Solid
370
    18
100
AcDbLine
 10
89.5
 20
32.4409448819
 30
0.0
 11
89.8346456693
 21
32.4409448819
 31
0.0
  0
LINE
  5
AD
330
1F
100
AcDbEntity
  8
TITLE
  6
SLD-Solid
370
    18
100
AcDbLine
 10
0.5
 20
34.4094488189
 30
0.0
 11
0.1653543307
 21
34.4094488189
 31
0.0
  0
LINE
  5
AE
330
1F
100
AcDbEntity
  8
TITLE
  6
SLD-Solid
370
    18
100
AcDbLine
 10
89.5
 20
34.4094488189
 30
0.0
 11
89.8346456693
 21
34.4094488189
 31
0.0
  0
LINE
  5
AF
330
1F
100
AcDbEntity
  8
TITLE
  6
SLD-Solid
370
    18
100
AcDbLine
 10
0.5
 20
36.3779527559
 30
0.0
 11
0.1653543307
 21
36.3779527559
 31
0.0
  0
LINE
  5
B0
330
1F
100
AcDbEntity
  8
TITLE
  6
SLD-Solid
370
    18
100
AcDbLine
 10
89.5
 20
36.3779527559
 30
0.0
 11
89.8346456693
 21
36.3779527559
 31
0.0
  0
LINE
  5
B1
330
1F
100
AcDbEntity
  8
TITLE
  6
SLD-Solid
370
    18
100
AcDbLine
 10
0.5
 20
38.3464566929
 30
0.0
 11
0.1653543307
 21
38.3464566929
 31
0.0
  0
LINE
  5
B2
330
1F
100
AcDbEntity
  8
TITLE
  6
SLD-Solid
370
    18
100
AcDbLine
 10
89.5
 20
38.3464566929
 30
0.0
 11
89.8346456693
 21
38.3464566929
 31
0.0
  0
LINE
  5
B3
330
1F
100
AcDbEntity
  8
TITLE
  6
SLD-Solid
370
    18
100
AcDbLine
 10
0.5
 20
40.3149606299
 30
0.0
 11
0.1653543307
 21
40.3149606299
 31
0.0
  0
LINE
  5
B4
330
1F
100
AcDbEntity
  8
TITLE
  6
SLD-Solid
370
    18
100
AcDbLine
 10
89.5
 20
40.3149606299
 30
0.0
 11
89.8346456693
 21
40.3149606299
 31
0.0
  0
LINE
  5
B5
330
1F
100
AcDbEntity
  8
TITLE
  6
SLD-Solid
370
    18
100
AcDbLine
 10
0.5
 20
42.2834645669
 30
0.0
 11
0.1653543307
 21
42.2834645669
 31
0.0
  0
LINE
  5
B6
330
1F
100
AcDbEntity
  8
TITLE
  6
SLD-Solid
370
    18
100
AcDbLine
 10
89.5
 20
42.2834645669
 30
0.0
 11
89.8346456693
 21
42.2834645669
 31
0.0
  0
LINE
  5
B7
330
1F
100
AcDbEntity
  8
TITLE
  6
SLD-Solid
370
    18
100
AcDbLine
 10
0.5
 20
44.2519685039
 30
0.0
 11
0.1653543307
 21
44.2519685039
 31
0.0
  0
LINE
  5
B8
330
1F
100
AcDbEntity
  8
TITLE
  6
SLD-Solid
370
    18
100
AcDbLine
 10
89.5
 20
44.2519685039
 30
0.0
 11
89.8346456693
 21
44.2519685039
 31
0.0
  0
LINE
  5
B9
330
1F
100
AcDbEntity
  8
TITLE
  6
SLD-Solid
370
    18
100
AcDbLine
 10
0.5
 20
46.2204724409
 30
0.0
 11
0.1653543307
 21
46.2204724409
 31
0.0
  0
LINE
  5
BA
330
1F
100
AcDbEntity
  8
TITLE
  6
SLD-Solid
370
    18
100
AcDbLine
 10
89.5
 20
46.2204724409
 30
0.0
 11
89.8346456693
 21
46.2204724409
 31
0.0
  0
LINE
  5
BB
330
1F
100
AcDbEntity
  8
TITLE
  6
SLD-Solid
370
    18
100
AcDbLine
 10
0.5
 20
48.188976378
 30
0.0
 11
0.1653543307
 21
48.188976378
 31
0.0
  0
LINE
  5
BC
330
1F
100
AcDbEntity
  8
TITLE
  6
SLD-Solid
370
    18
100
AcDbLine
 10
89.5
 20
48.188976378
 30
0.0
 11
89.8346456693
 21
48.188976378
 31
0.0
  0
LINE
  5
BD
330
1F
100
AcDbEntity
  8
TITLE
  6
SLD-Solid
370
    18
100
AcDbLine
 10
0.5
 20
50.157480315
 30
0.0
 11
0.1653543307
 21
50.157480315
 31
0.0
  0
LINE
  5
BE
330
1F
100
AcDbEntity
  8
TITLE
  6
SLD-Solid
370
    18
100
AcDbLine
 10
89.5
 20
50.157480315
 30
0.0
 11
89.8346456693
 21
50.157480315
 31
0.0
  0
LINE
  5
BF
330
1F
100
AcDbEntity
  8
TITLE
  6
SLD-Solid
370
    18
100
AcDbLine
 10
0.5
 20
52.125984252
 30
0.0
 11
0.1653543307
 21
52.125984252
 31
0.0
  0
LINE
  5
C0
330
1F
100
AcDbEntity
  8
TITLE
  6
SLD-Solid
370
    18
100
AcDbLine
 10
89.5
 20
52.125984252
 30
0.0
 11
89.8346456693
 21
52.125984252
 31
0.0
  0
LINE
  5
C1
330
1F
100
AcDbEntity
  8
TITLE
  6
SLD-Solid
370
    18
100
AcDbLine
 10
0.5
 20
54.094488189
 30
0.0
 11
0.1653543307
 21
54.094488189
 31
0.0
  0
LINE
  5
C2
330
1F
100
AcDbEntity
  8
TITLE
  6
SLD-Solid
370
    18
100
AcDbLine
 10
89.5
 20
54.094488189
 30
0.0
 11
89.8346456693
 21
54.094488189
 31
0.0
  0
LINE
  5
C3
330
1F
100
AcDbEntity
  8
TITLE
  6
SLD-Solid
370
    18
100
AcDbLine
 10
0.5
 20
56.062992126
 30
0.0
 11
0.1653543307
 21
56.062992126
 31
0.0
  0
LINE
  5
C4
330
1F
100
AcDbEntity
  8
TITLE
  6
SLD-Solid
370
    18
100
AcDbLine
 10
89.5
 20
56.062992126
 30
0.0
 11
89.8346456693
 21
56.062992126
 31
0.0
  0
LINE
  5
C5
330
1F
100
AcDbEntity
  8
TITLE
  6
SLD-Solid
370
    18
100
AcDbLine
 10
0.5
 20
58.031496063
 30
0.0
 11
0.1653543307
 21
58.031496063
 31
0.0
  0
LINE
  5
C6
330
1F
100
AcDbEntity
  8
TITLE
  6
SLD-Solid
370
    18
100
AcDbLine
 10
89.5
 20
58.031496063
 30
0.0
 11
89.8346456693
 21
58.031496063
 31
0.0
  0
LINE
  5
C7
330
1F
100
AcDbEntity
  8
TITLE
  6
SLD-Solid
370
    18
100
AcDbLine
 10
0.5
 20
60.0
 30
0.0
 11
0.1653543307
 21
60.0
 31
0.0
  0
LINE
  5
C8
330
1F
100
AcDbEntity
  8
TITLE
  6
SLD-Solid
370
    18
100
AcDbLine
 10
89.5
 20
60.0
 30
0.0
 11
89.8346456693
 21
60.0
 31
0.0
  0
LINE
  5
C9
330
1F
100
AcDbEntity
  8
TITLE
  6
SLD-Solid
370
    18
100
AcDbLine
 10
0.5
 20
61.968503937
 30
0.0
 11
0.1653543307
 21
61.968503937
 31
0.0
  0
LINE
  5
CA
330
1F
100
AcDbEntity
  8
TITLE
  6
SLD-Solid
370
    18
100
AcDbLine
 10
89.5
 20
61.968503937
 30
0.0
 11
89.8346456693
 21
61.968503937
 31
0.0
  0
LINE
  5
CB
330
1F
100
AcDbEntity
  8
TITLE
  6
SLD-Solid
370
    18
100
AcDbLine
 10
0.5
 20
63.937007874
 30
0.0
 11
0.1653543307
 21
63.937007874
 31
0.0
  0
LINE
  5
CC
330
1F
100
AcDbEntity
  8
TITLE
  6
SLD-Solid
370
    18
100
AcDbLine
 10
89.5
 20
63.937007874
 30
0.0
 11
89.8346456693
 21
63.937007874
 31
0.0
  0
LINE
  5
CD
330
1F
100
AcDbEntity
  8
TITLE
  6
SLD-Solid
370
    18
100
AcDbLine
 10
0.5
 20
65.905511811
 30
0.0
 11
0.1653543307
 21
65.905511811
 31
0.0
  0
LINE
  5
CE
330
1F
100
AcDbEntity
  8
TITLE
  6
SLD-Solid
370
    18
100
AcDbLine
 10
89.5
 20
65.905511811
 30
0.0
 11
89.8346456693
 21
65.905511811
 31
0.0
  0
LINE
  5
CF
330
1F
100
AcDbEntity
  8
TITLE
  6
SLD-Solid
370
    18
100
AcDbLine
 10
0.5
 20
67.874015748
 30
0.0
 11
0.1653543307
 21
67.874015748
 31
0.0
  0
LINE
  5
D0
330
1F
100
AcDbEntity
  8
TITLE
  6
SLD-Solid
370
    18
100
AcDbLine
 10
89.5
 20
67.874015748
 30
0.0
 11
89.8346456693
 21
67.874015748
 31
0.0
  0
LINE
  5
D1
330
1F
100
AcDbEntity
  8
TITLE
  6
SLD-Solid
370
    18
100
AcDbLine
 10
0.5
 20
69.842519685
 30
0.0
 11
0.1653543307
 21
69.842519685
 31
0.0
  0
LINE
  5
D2
330
1F
100
AcDbEntity
  8
TITLE
  6
SLD-Solid
370
    18
100
AcDbLine
 10
89.5
 20
69.842519685
 30
0.0
 11
89.8346456693
 21
69.842519685
 31
0.0
  0
LINE
  5
D3
330
1F
100
AcDbEntity
  8
TITLE
  6
SLD-Solid
370
    18
100
AcDbLine
 10
0.5
 20
71.811023622
 30
0.0
 11
0.1653543307
 21
71.811023622
 31
0.0
  0
LINE
  5
D4
330
1F
100
AcDbEntity
  8
TITLE
  6
SLD-Solid
370
    18
100
AcDbLine
 10
89.5
 20
71.811023622
 30
0.0
 11
89.8346456693
 21
71.811023622
 31
0.0
  0
LINE
  5
D5
330
1F
100
AcDbEntity
  8
TITLE
  6
SLD-Solid
370
    18
100
AcDbLine
 10
0.5
 20
73.7795275591
 30
0.0
 11
0.1653543307
 21
73.7795275591
 31
0.0
  0
LINE
  5
D6
330
1F
100
AcDbEntity
  8
TITLE
  6
SLD-Solid
370
    18
100
AcDbLine
 10
89.5
 20
73.7795275591
 30
0.0
 11
89.8346456693
 21
73.7795275591
 31
0.0
  0
LINE
  5
D7
330
1F
100
AcDbEntity
  8
TITLE
  6
SLD-Solid
370
    18
100
AcDbLine
 10
0.5
 20
75.7480314961
 30
0.0
 11
0.1653543307
 21
75.7480314961
 31
0.0
  0
LINE
  5
D8
330
1F
100
AcDbEntity
  8
TITLE
  6
SLD-Solid
370
    18
100
AcDbLine
 10
89.5
 20
75.7480314961
 30
0.0
 11
89.8346456693
 21
75.7480314961
 31
0.0
  0
LINE
  5
D9
330
1F
100
AcDbEntity
  8
TITLE
  6
SLD-Solid
370
    18
100
AcDbLine
 10
0.5
 20
77.7165354331
 30
0.0
 11
0.1653543307
 21
77.7165354331
 31
0.0
  0
LINE
  5
DA
330
1F
100
AcDbEntity
  8
TITLE
  6
SLD-Solid
370
    18
100
AcDbLine
 10
89.5
 20
77.7165354331
 30
0.0
 11
89.8346456693
 21
77.7165354331
 31
0.0
  0
LINE
  5
DB
330
1F
100
AcDbEntity
  8
TITLE
  6
SLD-Solid
370
    18
100
AcDbLine
 10
0.5
 20
79.6850393701
 30
0.0
 11
0.1653543307
 21
79.6850393701
 31
0.0
  0
LINE
  5
DC
330
1F
100
AcDbEntity
  8
TITLE
  6
SLD-Solid
370
    18
100
AcDbLine
 10
89.5
 20
79.6850393701
 30
0.0
 11
89.8346456693
 21
79.6850393701
 31
0.0
  0
LINE
  5
DD
330
1F
100
AcDbEntity
  8
TITLE
  6
SLD-Solid
370
    18
100
AcDbLine
 10
0.5
 20
81.6535433071
 30
0.0
 11
0.1653543307
 21
81.6535433071
 31
0.0
  0
LINE
  5
DE
330
1F
100
AcDbEntity
  8
TITLE
  6
SLD-Solid
370
    18
100
AcDbLine
 10
89.5
 20
81.6535433071
 30
0.0
 11
89.8346456693
 21
81.6535433071
 31
0.0
  0
LINE
  5
DF
330
1F
100
AcDbEntity
  8
TITLE
  6
SLD-Solid
370
    18
100
AcDbLine
 10
0.5
 20
83.6220472441
 30
0.0
 11
0.1653543307
 21
83.6220472441
 31
0.0
  0
LINE
  5
E0
330
1F
100
AcDbEntity
  8
TITLE
  6
SLD-Solid
370
    18
100
AcDbLine
 10
89.5
 20
83.6220472441
 30
0.0
 11
89.8346456693
 21
83.6220472441
 31
0.0
  0
LINE
  5
E1
330
1F
100
AcDbEntity
  8
TITLE
  6
SLD-Solid
370
    18
100
AcDbLine
 10
0.5
 20
85.5905511811
 30
0.0
 11
0.1653543307
 21
85.5905511811
 31
0.0
  0
LINE
  5
E2
330
1F
100
AcDbEntity
  8
TITLE
  6
SLD-Solid
370
    18
100
AcDbLine
 10
89.5
 20
85.5905511811
 30
0.0
 11
89.8346456693
 21
85.5905511811
 31
0.0
  0
LINE
  5
E3
330
1F
100
AcDbEntity
  8
TITLE
  6
SLD-Solid
370
    18
100
AcDbLine
 10
0.5
 20
87.5590551181
 30
0.0
 11
0.1653543307
 21
87.5590551181
 31
0.0
  0
LINE
  5
E4
330
1F
100
AcDbEntity
  8
TITLE
  6
SLD-Solid
370
    18
100
AcDbLine
 10
89.5
 20
87.5590551181
 30
0.0
 11
89.8346456693
 21
87.5590551181
 31
0.0
  0
LINE
  5
E5
330
1F
100
AcDbEntity
  8
TITLE
  6
SLD-Solid
370
    18
100
AcDbLine
 10
0.5
 20
89.5275590551
 30
0.0
 11
0.1653543307
 21
89.5275590551
 31
0.0
  0
LINE
  5
E6
330
1F
100
AcDbEntity
  8
TITLE
  6
SLD-Solid
370
    18
100
AcDbLine
 10
89.5
 20
89.5275590551
 30
0.0
 11
89.8346456693
 21
89.5275590551
 31
0.0
  0
LINE
  5
E7
330
1F
100
AcDbEntity
  8
TITLE
  6
SLD-Solid
370
    18
100
AcDbLine
 10
0.5
 20
91.4960629921
 30
0.0
 11
0.1653543307
 21
91.4960629921
 31
0.0
  0
LINE
  5
E8
330
1F
100
AcDbEntity
  8
TITLE
  6
SLD-Solid
370
    18
100
AcDbLine
 10
89.5
 20
91.4960629921
 30
0.0
 11
89.8346456693
 21
91.4960629921
 31
0.0
  0
LINE
  5
E9
330
1F
100
AcDbEntity
  8
TITLE
  6
SLD-Solid
370
    18
100
AcDbLine
 10
0.5
 20
93.4645669291
 30
0.0
 11
0.1653543307
 21
93.4645669291
 31
0.0
  0
LINE
  5
EA
330
1F
100
AcDbEntity
  8
TITLE
  6
SLD-Solid
370
    18
100
AcDbLine
 10
89.5
 20
93.4645669291
 30
0.0
 11
89.8346456693
 21
93.4645669291
 31
0.0
  0
LINE
  5
EB
330
1F
100
AcDbEntity
  8
TITLE
  6
SLD-Solid
370
    18
100
AcDbLine
 10
0.5
 20
95.4330708661
 30
0.0
 11
0.1653543307
 21
95.4330708661
 31
0.0
  0
LINE
  5
EC
330
1F
100
AcDbEntity
  8
TITLE
  6
SLD-Solid
370
    18
100
AcDbLine
 10
89.5
 20
95.4330708661
 30
0.0
 11
89.8346456693
 21
95.4330708661
 31
0.0
  0
LINE
  5
ED
330
1F
100
AcDbEntity
  8
TITLE
  6
SLD-Solid
370
    18
100
AcDbLine
 10
0.5
 20
97.4015748031
 30
0.0
 11
0.1653543307
 21
97.4015748031
 31
0.0
  0
LINE
  5
EE
330
1F
100
AcDbEntity
  8
TITLE
  6
SLD-Solid
370
    18
100
AcDbLine
 10
89.5
 20
97.4015748031
 30
0.0
 11
89.8346456693
 21
97.4015748031
 31
0.0
  0
LINE
  5
EF
330
1F
100
AcDbEntity
  8
TITLE
  6
SLD-Solid
370
    18
100
AcDbLine
 10
0.5
 20
99.3700787402
 30
0.0
 11
0.1653543307
 21
99.3700787402
 31
0.0
  0
LINE
  5
F0
330
1F
100
AcDbEntity
  8
TITLE
  6
SLD-Solid
370
    18
100
AcDbLine
 10
89.5
 20
99.3700787402
 30
0.0
 11
89.8346456693
 21
99.3700787402
 31
0.0
  0
LINE
  5
F1
330
1F
100
AcDbEntity
  8
TITLE
  6
SLD-Solid
370
    18
100
AcDbLine
 10
0.5
 20
101.3385826772
 30
0.0
 11
0.1653543307
 21
101.3385826772
 31
0.0
  0
LINE
  5
F2
330
1F
100
AcDbEntity
  8
TITLE
  6
SLD-Solid
370
    18
100
AcDbLine
 10
89.5
 20
101.3385826772
 30
0.0
 11
89.8346456693
 21
101.3385826772
 31
0.0
  0
LINE
  5
F3
330
1F
100
AcDbEntity
  8
TITLE
  6
SLD-Solid
370
    18
100
AcDbLine
 10
0.5
 20
103.3070866142
 30
0.0
 11
0.1653543307
 21
103.3070866142
 31
0.0
  0
LINE
  5
F4
330
1F
100
AcDbEntity
  8
TITLE
  6
SLD-Solid
370
    18
100
AcDbLine
 10
89.5
 20
103.3070866142
 30
0.0
 11
89.8346456693
 21
103.3070866142
 31
0.0
  0
LINE
  5
F5
330
1F
100
AcDbEntity
  8
TITLE
  6
SLD-Solid
370
    18
100
AcDbLine
 10
0.5
 20
105.2755905512
 30
0.0
 11
0.1653543307
 21
105.2755905512
 31
0.0
  0
LINE
  5
F6
330
1F
100
AcDbEntity
  8
TITLE
  6
SLD-Solid
370
    18
100
AcDbLine
 10
89.5
 20
105.2755905512
 30
0.0
 11
89.8346456693
 21
105.2755905512
 31
0.0
  0
LINE
  5
F7
330
1F
100
AcDbEntity
  8
TITLE
  6
SLD-Solid
370
    18
100
AcDbLine
 10
0.5
 20
107.2440944882
 30
0.0
 11
0.1653543307
 21
107.2440944882
 31
0.0
  0
LINE
  5
F8
330
1F
100
AcDbEntity
  8
TITLE
  6
SLD-Solid
370
    18
100
AcDbLine
 10
89.5
 20
107.2440944882
 30
0.0
 11
89.8346456693
 21
107.2440944882
 31
0.0
  0
LINE
  5
F9
330
1F
100
AcDbEntity
  8
TITLE
  6
SLD-Solid
370
    18
100
AcDbLine
 10
0.5
 20
109.2125984252
 30
0.0
 11
0.1653543307
 21
109.2125984252
 31
0.0
  0
LINE
  5
FA
330
1F
100
AcDbEntity
  8
TITLE
  6
SLD-Solid
370
    18
100
AcDbLine
 10
89.5
 20
109.2125984252
 30
0.0
 11
89.8346456693
 21
109.2125984252
 31
0.0
  0
LINE
  5
FB
330
1F
100
AcDbEntity
  8
TITLE
  6
SLD-Solid
370
    18
100
AcDbLine
 10
0.5
 20
111.1811023622
 30
0.0
 11
0.1653543307
 21
111.1811023622
 31
0.0
  0
LINE
  5
FC
330
1F
100
AcDbEntity
  8
TITLE
  6
SLD-Solid
370
    18
100
AcDbLine
 10
89.5
 20
111.1811023622
 30
0.0
 11
89.8346456693
 21
111.1811023622
 31
0.0
  0
LINE
  5
FD
330
1F
100
AcDbEntity
  8
TITLE
  6
SLD-Solid
370
    18
100
AcDbLine
 10
0.5
 20
113.1496062992
 30
0.0
 11
0.1653543307
 21
113.1496062992
 31
0.0
  0
LINE
  5
FE
330
1F
100
AcDbEntity
  8
TITLE
  6
SLD-Solid
370
    18
100
AcDbLine
 10
89.5
 20
113.1496062992
 30
0.0
 11
89.8346456693
 21
113.1496062992
 31
0.0
  0
LINE
  5
FF
330
1F
100
AcDbEntity
  8
TITLE
  6
SLD-Solid
370
    18
100
AcDbLine
 10
0.5
 20
115.1181102362
 30
0.0
 11
0.1653543307
 21
115.1181102362
 31
0.0
  0
LINE
  5
100
330
1F
100
AcDbEntity
  8
TITLE
  6
SLD-Solid
370
    18
100
AcDbLine
 10
89.5
 20
115.1181102362
 30
0.0
 11
89.8346456693
 21
115.1181102362
 31
0.0
  0
LINE
  5
101
330
1F
100
AcDbEntity
  8
TITLE
  6
SLD-Solid
370
    18
100
AcDbLine
 10
0.5
 20
117.0866141732
 30
0.0
 11
0.1653543307
 21
117.0866141732
 31
0.0
  0
LINE
  5
102
330
1F
100
AcDbEntity
  8
TITLE
  6
SLD-Solid
370
    18
100
AcDbLine
 10
89.5
 20
117.0866141732
 30
0.0
 11
89.8346456693
 21
117.0866141732
 31
0.0
  0
LINE
  5
103
330
1F
100
AcDbEntity
  8
TITLE
  6
SLD-Solid
370
    18
100
AcDbLine
 10
1.6929133858
 20
119.5
 30
0.0
 11
1.6929133858
 21
119.8346456693
 31
0.0
  0
LINE
  5
104
330
1F
100
AcDbEntity
  8
TITLE
  6
SLD-Solid
370
    18
100
AcDbLine
 10
1.6929133858
 20
0.5
 30
0.0
 11
1.6929133858
 21
0.1653543307
 31
0.0
  0
LINE
  5
105
330
1F
100
AcDbEntity
  8
TITLE
  6
SLD-Solid
370
    18
100
AcDbLine
 10
3.6614173228
 20
119.5
 30
0.0
 11
3.6614173228
 21
119.8346456693
 31
0.0
  0
LINE
  5
106
330
1F
100
AcDbEntity
  8
TITLE
  6
SLD-Solid
370
    18
100
AcDbLine
 10
3.6614173228
 20
0.5
 30
0.0
 11
3.6614173228
 21
0.1653543307
 31
0.0
  0
LINE
  5
107
330
1F
100
AcDbEntity
  8
TITLE
  6
SLD-Solid
370
    18
100
AcDbLine
 10
5.6299212598
 20
119.5
 30
0.0
 11
5.6299212598
 21
119.8346456693
 31
0.0
  0
LINE
  5
108
330
1F
100
AcDbEntity
  8
TITLE
  6
SLD-Solid
370
    18
100
AcDbLine
 10
5.6299212598
 20
0.5
 30
0.0
 11
5.6299212598
 21
0.1653543307
 31
0.0
  0
LINE
  5
109
330
1F
100
AcDbEntity
  8
TITLE
  6
SLD-Solid
370
    18
100
AcDbLine
 10
7.5984251969
 20
119.5
 30
0.0
 11
7.5984251969
 21
119.8346456693
 31
0.0
  0
LINE
  5
10A
330
1F
100
AcDbEntity
  8
TITLE
  6
SLD-Solid
370
    18
100
AcDbLine
 10
7.5984251969
 20
0.5
 30
0.0
 11
7.5984251969
 21
0.1653543307
 31
0.0
  0
LINE
  5
10B
330
1F
100
AcDbEntity
  8
TITLE
  6
SLD-Solid
370
    18
100
AcDbLine
 10
9.5669291339
 20
119.5
 30
0.0
 11
9.5669291339
 21
119.8346456693
 31
0.0
  0
LINE
  5
10C
330
1F
100
AcDbEntity
  8
TITLE
  6
SLD-Solid
370
    18
100
AcDbLine
 10
9.5669291339
 20
0.5
 30
0.0
 11
9.5669291339
 21
0.1653543307
 31
0.0
  0
LINE
  5
10D
330
1F
100
AcDbEntity
  8
TITLE
  6
SLD-Solid
370
    18
100
AcDbLine
 10
11.5354330709
 20
119.5
 30
0.0
 11
11.5354330709
 21
119.8346456693
 31
0.0
  0
LINE
  5
10E
330
1F
100
AcDbEntity
  8
TITLE
  6
SLD-Solid
370
    18
100
AcDbLine
 10
11.5354330709
 20
0.5
 30
0.0
 11
11.5354330709
 21
0.1653543307
 31
0.0
  0
LINE
  5
10F
330
1F
100
AcDbEntity
  8
TITLE
  6
SLD-Solid
370
    18
100
AcDbLine
 10
13.5039370079
 20
119.5
 30
0.0
 11
13.5039370079
 21
119.8346456693
 31
0.0
  0
LINE
  5
110
330
1F
100
AcDbEntity
  8
TITLE
  6
SLD-Solid
370
    18
100
AcDbLine
 10
13.5039370079
 20
0.5
 30
0.0
 11
13.5039370079
 21
0.1653543307
 31
0.0
  0
LINE
  5
111
330
1F
100
AcDbEntity
  8
TITLE
  6
SLD-Solid
370
    18
100
AcDbLine
 10
15.4724409449
 20
119.5
 30
0.0
 11
15.4724409449
 21
119.8346456693
 31
0.0
  0
LINE
  5
112
330
1F
100
AcDbEntity
  8
TITLE
  6
SLD-Solid
370
    18
100
AcDbLine
 10
15.4724409449
 20
0.5
 30
0.0
 11
15.4724409449
 21
0.1653543307
 31
0.0
  0
LINE
  5
113
330
1F
100
AcDbEntity
  8
TITLE
  6
SLD-Solid
370
    18
100
AcDbLine
 10
17.4409448819
 20
119.5
 30
0.0
 11
17.4409448819
 21
119.8346456693
 31
0.0
  0
LINE
  5
114
330
1F
100
AcDbEntity
  8
TITLE
  6
SLD-Solid
370
    18
100
AcDbLine
 10
17.4409448819
 20
0.5
 30
0.0
 11
17.4409448819
 21
0.1653543307
 31
0.0
  0
LINE
  5
115
330
1F
100
AcDbEntity
  8
TITLE
  6
SLD-Solid
370
    18
100
AcDbLine
 10
19.4094488189
 20
119.5
 30
0.0
 11
19.4094488189
 21
119.8346456693
 31
0.0
  0
LINE
  5
116
330
1F
100
AcDbEntity
  8
TITLE
  6
SLD-Solid
370
    18
100
AcDbLine
 10
19.4094488189
 20
0.5
 30
0.0
 11
19.4094488189
 21
0.1653543307
 31
0.0
  0
LINE
  5
117
330
1F
100
AcDbEntity
  8
TITLE
  6
SLD-Solid
370
    18
100
AcDbLine
 10
21.3779527559
 20
119.5
 30
0.0
 11
21.3779527559
 21
119.8346456693
 31
0.0
  0
LINE
  5
118
330
1F
100
AcDbEntity
  8
TITLE
  6
SLD-Solid
370
    18
100
AcDbLine
 10
21.3779527559
 20
0.5
 30
0.0
 11
21.3779527559
 21
0.1653543307
 31
0.0
  0
LINE
  5
119
330
1F
100
AcDbEntity
  8
TITLE
  6
SLD-Solid
370
    18
100
AcDbLine
 10
23.3464566929
 20
119.5
 30
0.0
 11
23.3464566929
 21
119.8346456693
 31
0.0
  0
LINE
  5
11A
330
1F
100
AcDbEntity
  8
TITLE
  6
SLD-Solid
370
    18
100
AcDbLine
 10
23.3464566929
 20
0.5
 30
0.0
 11
23.3464566929
 21
0.1653543307
 31
0.0
  0
LINE
  5
11B
330
1F
100
AcDbEntity
  8
TITLE
  6
SLD-Solid
370
    18
100
AcDbLine
 10
25.3149606299
 20
119.5
 30
0.0
 11
25.3149606299
 21
119.8346456693
 31
0.0
  0
LINE
  5
11C
330
1F
100
AcDbEntity
  8
TITLE
  6
SLD-Solid
370
    18
100
AcDbLine
 10
25.3149606299
 20
0.5
 30
0.0
 11
25.3149606299
 21
0.1653543307
 31
0.0
  0
LINE
  5
11D
330
1F
100
AcDbEntity
  8
TITLE
  6
SLD-Solid
370
    18
100
AcDbLine
 10
27.2834645669
 20
119.5
 30
0.0
 11
27.2834645669
 21
119.8346456693
 31
0.0
  0
LINE
  5
11E
330
1F
100
AcDbEntity
  8
TITLE
  6
SLD-Solid
370
    18
100
AcDbLine
 10
27.2834645669
 20
0.5
 30
0.0
 11
27.2834645669
 21
0.1653543307
 31
0.0
  0
LINE
  5
11F
330
1F
100
AcDbEntity
  8
TITLE
  6
SLD-Solid
370
    18
100
AcDbLine
 10
29.2519685039
 20
119.5
 30
0.0
 11
29.2519685039
 21
119.8346456693
 31
0.0
  0
LINE
  5
120
330
1F
100
AcDbEntity
  8
TITLE
  6
SLD-Solid
370
    18
100
AcDbLine
 10
29.2519685039
 20
0.5
 30
0.0
 11
29.2519685039
 21
0.1653543307
 31
0.0
  0
LINE
  5
121
330
1F
100
AcDbEntity
  8
TITLE
  6
SLD-Solid
370
    18
100
AcDbLine
 10
31.2204724409
 20
119.5
 30
0.0
 11
31.2204724409
 21
119.8346456693
 31
0.0
  0
LINE
  5
122
330
1F
100
AcDbEntity
  8
TITLE
  6
SLD-Solid
370
    18
100
AcDbLine
 10
31.2204724409
 20
0.5
 30
0.0
 11
31.2204724409
 21
0.1653543307
 31
0.0
  0
LINE
  5
123
330
1F
100
AcDbEntity
  8
TITLE
  6
SLD-Solid
370
    18
100
AcDbLine
 10
33.188976378
 20
119.5
 30
0.0
 11
33.188976378
 21
119.8346456693
 31
0.0
  0
LINE
  5
124
330
1F
100
AcDbEntity
  8
TITLE
  6
SLD-Solid
370
    18
100
AcDbLine
 10
33.188976378
 20
0.5
 30
0.0
 11
33.188976378
 21
0.1653543307
 31
0.0
  0
LINE
  5
125
330
1F
100
AcDbEntity
  8
TITLE
  6
SLD-Solid
370
    18
100
AcDbLine
 10
35.157480315
 20
119.5
 30
0.0
 11
35.157480315
 21
119.8346456693
 31
0.0
  0
LINE
  5
126
330
1F
100
AcDbEntity
  8
TITLE
  6
SLD-Solid
370
    18
100
AcDbLine
 10
35.157480315
 20
0.5
 30
0.0
 11
35.157480315
 21
0.1653543307
 31
0.0
  0
LINE
  5
127
330
1F
100
AcDbEntity
  8
TITLE
  6
SLD-Solid
370
    18
100
AcDbLine
 10
37.125984252
 20
119.5
 30
0.0
 11
37.125984252
 21
119.8346456693
 31
0.0
  0
LINE
  5
128
330
1F
100
AcDbEntity
  8
TITLE
  6
SLD-Solid
370
    18
100
AcDbLine
 10
37.125984252
 20
0.5
 30
0.0
 11
37.125984252
 21
0.1653543307
 31
0.0
  0
LINE
  5
129
330
1F
100
AcDbEntity
  8
TITLE
  6
SLD-Solid
370
    18
100
AcDbLine
 10
39.094488189
 20
119.5
 30
0.0
 11
39.094488189
 21
119.8346456693
 31
0.0
  0
LINE
  5
12A
330
1F
100
AcDbEntity
  8
TITLE
  6
SLD-Solid
370
    18
100
AcDbLine
 10
39.094488189
 20
0.5
 30
0.0
 11
39.094488189
 21
0.1653543307
 31
0.0
  0
LINE
  5
12B
330
1F
100
AcDbEntity
  8
TITLE
  6
SLD-Solid
370
    18
100
AcDbLine
 10
41.062992126
 20
119.5
 30
0.0
 11
41.062992126
 21
119.8346456693
 31
0.0
  0
LINE
  5
12C
330
1F
100
AcDbEntity
  8
TITLE
  6
SLD-Solid
370
    18
100
AcDbLine
 10
41.062992126
 20
0.5
 30
0.0
 11
41.062992126
 21
0.1653543307
 31
0.0
  0
LINE
  5
12D
330
1F
100
AcDbEntity
  8
TITLE
  6
SLD-Solid
370
    18
100
AcDbLine
 10
43.031496063
 20
119.5
 30
0.0
 11
43.031496063
 21
119.8346456693
 31
0.0
  0
LINE
  5
12E
330
1F
100
AcDbEntity
  8
TITLE
  6
SLD-Solid
370
    18
100
AcDbLine
 10
43.031496063
 20
0.5
 30
0.0
 11
43.031496063
 21
0.1653543307
 31
0.0
  0
LINE
  5
12F
330
1F
100
AcDbEntity
  8
TITLE
  6
SLD-Solid
370
    18
100
AcDbLine
 10
45.0
 20
119.5
 30
0.0
 11
45.0
 21
119.8346456693
 31
0.0
  0
LINE
  5
130
330
1F
100
AcDbEntity
  8
TITLE
  6
SLD-Solid
370
    18
100
AcDbLine
 10
45.0
 20
0.5
 30
0.0
 11
45.0
 21
0.1653543307
 31
0.0
  0
LINE
  5
131
330
1F
100
AcDbEntity
  8
TITLE
  6
SLD-Solid
370
    18
100
AcDbLine
 10
46.968503937
 20
119.5
 30
0.0
 11
46.968503937
 21
119.8346456693
 31
0.0
  0
LINE
  5
132
330
1F
100
AcDbEntity
  8
TITLE
  6
SLD-Solid
370
    18
100
AcDbLine
 10
46.968503937
 20
0.5
 30
0.0
 11
46.968503937
 21
0.1653543307
 31
0.0
  0
LINE
  5
133
330
1F
100
AcDbEntity
  8
TITLE
  6
SLD-Solid
370
    18
100
AcDbLine
 10
48.937007874
 20
119.5
 30
0.0
 11
48.937007874
 21
119.8346456693
 31
0.0
  0
LINE
  5
134
330
1F
100
AcDbEntity
  8
TITLE
  6
SLD-Solid
370
    18
100
AcDbLine
 10
48.937007874
 20
0.5
 30
0.0
 11
48.937007874
 21
0.1653543307
 31
0.0
  0
LINE
  5
135
330
1F
100
AcDbEntity
  8
TITLE
  6
SLD-Solid
370
    18
100
AcDbLine
 10
50.905511811
 20
119.5
 30
0.0
 11
50.905511811
 21
119.8346456693
 31
0.0
  0
LINE
  5
136
330
1F
100
AcDbEntity
  8
TITLE
  6
SLD-Solid
370
    18
100
AcDbLine
 10
50.905511811
 20
0.5
 30
0.0
 11
50.905511811
 21
0.1653543307
 31
0.0
  0
LINE
  5
137
330
1F
100
AcDbEntity
  8
TITLE
  6
SLD-Solid
370
    18
100
AcDbLine
 10
52.874015748
 20
119.5
 30
0.0
 11
52.874015748
 21
119.8346456693
 31
0.0
  0
LINE
  5
138
330
1F
100
AcDbEntity
  8
TITLE
  6
SLD-Solid
370
    18
100
AcDbLine
 10
52.874015748
 20
0.5
 30
0.0
 11
52.874015748
 21
0.1653543307
 31
0.0
  0
LINE
  5
139
330
1F
100
AcDbEntity
  8
TITLE
  6
SLD-Solid
370
    18
100
AcDbLine
 10
54.842519685
 20
119.5
 30
0.0
 11
54.842519685
 21
119.8346456693
 31
0.0
  0
LINE
  5
13A
330
1F
100
AcDbEntity
  8
TITLE
  6
SLD-Solid
370
    18
100
AcDbLine
 10
54.842519685
 20
0.5
 30
0.0
 11
54.842519685
 21
0.1653543307
 31
0.0
  0
LINE
  5
13B
330
1F
100
AcDbEntity
  8
TITLE
  6
SLD-Solid
370
    18
100
AcDbLine
 10
56.811023622
 20
119.5
 30
0.0
 11
56.811023622
 21
119.8346456693
 31
0.0
  0
LINE
  5
13C
330
1F
100
AcDbEntity
  8
TITLE
  6
SLD-Solid
370
    18
100
AcDbLine
 10
56.811023622
 20
0.5
 30
0.0
 11
56.811023622
 21
0.1653543307
 31
0.0
  0
LINE
  5
13D
330
1F
100
AcDbEntity
  8
TITLE
  6
SLD-Solid
370
    18
100
AcDbLine
 10
58.7795275591
 20
119.5
 30
0.0
 11
58.7795275591
 21
119.8346456693
 31
0.0
  0
LINE
  5
13E
330
1F
100
AcDbEntity
  8
TITLE
  6
SLD-Solid
370
    18
100
AcDbLine
 10
58.7795275591
 20
0.5
 30
0.0
 11
58.7795275591
 21
0.1653543307
 31
0.0
  0
LINE
  5
13F
330
1F
100
AcDbEntity
  8
TITLE
  6
SLD-Solid
370
    18
100
AcDbLine
 10
60.7480314961
 20
119.5
 30
0.0
 11
60.7480314961
 21
119.8346456693
 31
0.0
  0
LINE
  5
140
330
1F
100
AcDbEntity
  8
TITLE
  6
SLD-Solid
370
    18
100
AcDbLine
 10
60.7480314961
 20
0.5
 30
0.0
 11
60.7480314961
 21
0.1653543307
 31
0.0
  0
LINE
  5
141
330
1F
100
AcDbEntity
  8
TITLE
  6
SLD-Solid
370
    18
100
AcDbLine
 10
62.7165354331
 20
119.5
 30
0.0
 11
62.7165354331
 21
119.8346456693
 31
0.0
  0
LINE
  5
142
330
1F
100
AcDbEntity
  8
TITLE
  6
SLD-Solid
370
    18
100
AcDbLine
 10
62.7165354331
 20
0.5
 30
0.0
 11
62.7165354331
 21
0.1653543307
 31
0.0
  0
LINE
  5
143
330
1F
100
AcDbEntity
  8
TITLE
  6
SLD-Solid
370
    18
100
AcDbLine
 10
64.6850393701
 20
119.5
 30
0.0
 11
64.6850393701
 21
119.8346456693
 31
0.0
  0
LINE
  5
144
330
1F
100
AcDbEntity
  8
TITLE
  6
SLD-Solid
370
    18
100
AcDbLine
 10
64.6850393701
 20
0.5
 30
0.0
 11
64.6850393701
 21
0.1653543307
 31
0.0
  0
LINE
  5
145
330
1F
100
AcDbEntity
  8
TITLE
  6
SLD-Solid
370
    18
100
AcDbLine
 10
66.6535433071
 20
119.5
 30
0.0
 11
66.6535433071
 21
119.8346456693
 31
0.0
  0
LINE
  5
146
330
1F
100
AcDbEntity
  8
TITLE
  6
SLD-Solid
370
    18
100
AcDbLine
 10
66.6535433071
 20
0.5
 30
0.0
 11
66.6535433071
 21
0.1653543307
 31
0.0
  0
LINE
  5
147
330
1F
100
AcDbEntity
  8
TITLE
  6
SLD-Solid
370
    18
100
AcDbLine
 10
68.6220472441
 20
119.5
 30
0.0
 11
68.6220472441
 21
119.8346456693
 31
0.0
  0
LINE
  5
148
330
1F
100
AcDbEntity
  8
TITLE
  6
SLD-Solid
370
    18
100
AcDbLine
 10
68.6220472441
 20
0.5
 30
0.0
 11
68.6220472441
 21
0.1653543307
 31
0.0
  0
LINE
  5
149
330
1F
100
AcDbEntity
  8
TITLE
  6
SLD-Solid
370
    18
100
AcDbLine
 10
70.5905511811
 20
119.5
 30
0.0
 11
70.5905511811
 21
119.8346456693
 31
0.0
  0
LINE
  5
14A
330
1F
100
AcDbEntity
  8
TITLE
  6
SLD-Solid
370
    18
100
AcDbLine
 10
70.5905511811
 20
0.5
 30
0.0
 11
70.5905511811
 21
0.1653543307
 31
0.0
  0
LINE
  5
14B
330
1F
100
AcDbEntity
  8
TITLE
  6
SLD-Solid
370
    18
100
AcDbLine
 10
72.5590551181
 20
119.5
 30
0.0
 11
72.5590551181
 21
119.8346456693
 31
0.0
  0
LINE
  5
14C
330
1F
100
AcDbEntity
  8
TITLE
  6
SLD-Solid
370
    18
100
AcDbLine
 10
72.5590551181
 20
0.5
 30
0.0
 11
72.5590551181
 21
0.1653543307
 31
0.0
  0
LINE
  5
14D
330
1F
100
AcDbEntity
  8
TITLE
  6
SLD-Solid
370
    18
100
AcDbLine
 10
74.5275590551
 20
119.5
 30
0.0
 11
74.5275590551
 21
119.8346456693
 31
0.0
  0
LINE
  5
14E
330
1F
100
AcDbEntity
  8
TITLE
  6
SLD-Solid
370
    18
100
AcDbLine
 10
74.5275590551
 20
0.5
 30
0.0
 11
74.5275590551
 21
0.1653543307
 31
0.0
  0
LINE
  5
14F
330
1F
100
AcDbEntity
  8
TITLE
  6
SLD-Solid
370
    18
100
AcDbLine
 10
76.4960629921
 20
119.5
 30
0.0
 11
76.4960629921
 21
119.8346456693
 31
0.0
  0
LINE
  5
150
330
1F
100
AcDbEntity
  8
TITLE
  6
SLD-Solid
370
    18
100
AcDbLine
 10
76.4960629921
 20
0.5
 30
0.0
 11
76.4960629921
 21
0.1653543307
 31
0.0
  0
LINE
  5
151
330
1F
100
AcDbEntity
  8
TITLE
  6
SLD-Solid
370
    18
100
AcDbLine
 10
78.4645669291
 20
119.5
 30
0.0
 11
78.4645669291
 21
119.8346456693
 31
0.0
  0
LINE
  5
152
330
1F
100
AcDbEntity
  8
TITLE
  6
SLD-Solid
370
    18
100
AcDbLine
 10
78.4645669291
 20
0.5
 30
0.0
 11
78.4645669291
 21
0.1653543307
 31
0.0
  0
LINE
  5
153
330
1F
100
AcDbEntity
  8
TITLE
  6
SLD-Solid
370
    18
100
AcDbLine
 10
80.4330708661
 20
119.5
 30
0.0
 11
80.4330708661
 21
119.8346456693
 31
0.0
  0
LINE
  5
154
330
1F
100
AcDbEntity
  8
TITLE
  6
SLD-Solid
370
    18
100
AcDbLine
 10
80.4330708661
 20
0.5
 30
0.0
 11
80.4330708661
 21
0.1653543307
 31
0.0
  0
LINE
  5
155
330
1F
100
AcDbEntity
  8
TITLE
  6
SLD-Solid
370
    18
100
AcDbLine
 10
82.4015748031
 20
119.5
 30
0.0
 11
82.4015748031
 21
119.8346456693
 31
0.0
  0
LINE
  5
156
330
1F
100
AcDbEntity
  8
TITLE
  6
SLD-Solid
370
    18
100
AcDbLine
 10
82.4015748031
 20
0.5
 30
0.0
 11
82.4015748031
 21
0.1653543307
 31
0.0
  0
LINE
  5
157
330
1F
100
AcDbEntity
  8
TITLE
  6
SLD-Solid
370
    18
100
AcDbLine
 10
84.3700787402
 20
119.5
 30
0.0
 11
84.3700787402
 21
119.8346456693
 31
0.0
  0
LINE
  5
158
330
1F
100
AcDbEntity
  8
TITLE
  6
SLD-Solid
370
    18
100
AcDbLine
 10
84.3700787402
 20
0.5
 30
0.0
 11
84.3700787402
 21
0.1653543307
 31
0.0
  0
LINE
  5
159
330
1F
100
AcDbEntity
  8
TITLE
  6
SLD-Solid
370
    18
100
AcDbLine
 10
86.3385826772
 20
119.5
 30
0.0
 11
86.3385826772
 21
119.8346456693
 31
0.0
  0
LINE
  5
15A
330
1F
100
AcDbEntity
  8
TITLE
  6
SLD-Solid
370
    18
100
AcDbLine
 10
86.3385826772
 20
0.5
 30
0.0
 11
86.3385826772
 21
0.1653543307
 31
0.0
  0
LINE
  5
15B
330
1F
100
AcDbEntity
  8
TITLE
  6
SLD-Solid
370
    18
100
AcDbLine
 10
88.3070866142
 20
119.5
 30
0.0
 11
88.3070866142
 21
119.8346456693
 31
0.0
  0
LINE
  5
15C
330
1F
100
AcDbEntity
  8
TITLE
  6
SLD-Solid
370
    18
100
AcDbLine
 10
88.3070866142
 20
0.5
 30
0.0
 11
88.3070866142
 21
0.1653543307
 31
0.0
  0
MTEXT
  5
15E
330
1F
100
AcDbEntity
  8
NOTES
100
AcDbMText
 10
66.408297803
 20
1.0702903347
 30
0.0
 40
0.25
 41
0.0
 71
     1
 72
     1
  1
UNLESS OTHERWISE SPECIFIED DIMENSIONS ARE IN INCHES.
  7
SLDTEXTSTYLE0
 73
     1
 44
1.0
  0
MTEXT
  5
15F
330
1F
100
AcDbEntity
  8
NOTES
100
AcDbMText
 10
66.4368251132
 20
3.2193045501
 30
0.0
 40
0.25
 41
0.0
 71
     1
 72
     1
  1
DATE:
  7
SLDTEXTSTYLE0
 73
     1
 44
1.0
  0
MTEXT
  5
160
330
1F
100
AcDbEntity
  8
NOTES
100
AcDbMText
 10
68.7130669976
 20
2.1722148141
 30
0.0
 40
0.25
 41
0.0
 71
     2
 72
     1
  1
DO NOT SCALE DRAWING
  7
SLDTEXTSTYLE0
 73
     1
 44
1.0
  0
MTEXT
  5
162
330
1F
100
AcDbEntity
  8
NOTES
100
AcDbMText
 10
72.8307373075
 20
3.2682755553
 30
0.0
 40
0.25
 41
0.0
 71
     1
 72
     1
  1
TITLE:
  7
SLDTEXTSTYLE1
 73
     1
 44
1.0
  0
MTEXT
  5
163
330
1F
100
AcDbEntity
  8
NOTES
100
AcDbMText
 10
80.1561831052
 20
3.2682755553
 30
0.0
 40
0.25
 41
0.0
 71
     1
 72
     1
  1
DWG NO.
  7
SLDTEXTSTYLE1
 73
     1
 44
1.0
  0
MTEXT
  5
164
330
1F
100
AcDbEntity
  8
NOTES
100
AcDbMText
 10
80.1831753203
 20
1.0645815577
 30
0.0
 40
0.25
 41
0.0
 71
     1
 72
     1
  1
SCALE:     1:1
  7
SLDTEXTSTYLE1
 73
     1
 44
1.0
  0
MTEXT
  5
165
330
1F
100
AcDbEntity
  8
NOTES
100
AcDbMText
 10
84.1866158369
 20
2.6510344295
 30
0.0
 40
0.25
 41
0.0
 71
     2
 72
     1
  1
1145-S CAD
  7
SLDTEXTSTYLE1
 73
     1
 44
1.0
  0
MTEXT
  5
166
330
1F
100
AcDbEntity
  8
NOTES
100
AcDbMText
 10
75.9572970347
 20
2.6388861441
 30
0.0
 40
0.25
 41
0.0
 71
     2
 72
     1
  1
1145-S
  7
SLDTEXTSTYLE1
 73
     1
 44
1.0
  0
INSERT
  5
16C
330
1F
100
AcDbEntity
  8
NOTES
100
AcDbBlockReference
  2
SW_NOTE_0
 10
80.266131557
 20
4.6105227838
 30
0.0
  0
INSERT
  5
176
330
1F
100
AcDbEntity
  8
NOTES
100
AcDbBlockReference
  2
SW_NOTE_0_1
 10
66.6159726246
 20
5.1481526848
 30
0.0
  0
MTEXT
  5
177
330
1F
100
AcDbEntity
  8
NOTES
100
AcDbMText
 10
69.5187894602
 20
3.2135957731
 30
0.0
 40
0.25
 41
0.0
 71
     2
 72
     1
  1
September 22, 2021
  7
SLDTEXTSTYLE1
 73
     1
 44
1.0
  0
MTEXT
  5
178
330
1F
100
AcDbEntity
  8
TITLE
100
AcDbMText
 10
0.3276279776
 20
1.7865708579
 30
0.0
 40
0.125
 41
0.0
 71
     2
 72
     1
  1
A
  7
SLDTEXTSTYLE1
 73
     1
 44
1.0
  0
MTEXT
  5
179
330
1F
100
AcDbEntity
  8
TITLE
100
AcDbMText
 10
89.6622736469
 20
1.7865708579
 30
0.0
 40
0.125
 41
0.0
 71
     2
 72
     1
  1
A
  7
SLDTEXTSTYLE1
 73
     1
 44
1.0
  0
MTEXT
  5
17A
330
1F
100
AcDbEntity
  8
TITLE
100
AcDbMText
 10
0.3317512413
 20
3.9775157398
 30
0.0
 40
0.125
 41
0.0
 71
     2
 72
     1
  1
B
  7
SLDTEXTSTYLE1
 73
     1
 44
1.0
  0
MTEXT
  5
17B
330
1F
100
AcDbEntity
  8
TITLE
100
AcDbMText
 10
89.6663969106
 20
3.9775157398
 30
0.0
 40
0.125
 41
0.0
 71
     2
 72
     1
  1
B
  7
SLDTEXTSTYLE1
 73
     1
 44
1.0
  0
MTEXT
  5
17C
330
1F
100
AcDbEntity
  8
TITLE
100
AcDbMText
 10
0.3313750817
 20
5.9460196768
 30
0.0
 40
0.125
 41
0.0
 71
     2
 72
     1
  1
C
  7
SLDTEXTSTYLE1
 73
     1
 44
1.0
  0
MTEXT
  5
17D
330
1F
100
AcDbEntity
  8
TITLE
100
AcDbMText
 10
89.666020751
 20
5.9460196768
 30
0.0
 40
0.125
 41
0.0
 71
     2
 72
     1
  1
C
  7
SLDTEXTSTYLE1
 73
     1
 44
1.0
  0
MTEXT
  5
17E
330
1F
100
AcDbEntity
  8
TITLE
100
AcDbMText
 10
0.3311870028
 20
7.9145236138
 30
0.0
 40
0.125
 41
0.0
 71
     2
 72
     1
  1
D
  7
SLDTEXTSTYLE1
 73
     1
 44
1.0
  0
MTEXT
  5
17F
330
1F
100
AcDbEntity
  8
TITLE
100
AcDbMText
 10
89.6658326721
 20
7.9145236138
 30
0.0
 40
0.125
 41
0.0
 71
     2
 72
     1
  1
D
  7
SLDTEXTSTYLE1
 73
     1
 44
1.0
  0
MTEXT
  5
180
330
1F
100
AcDbEntity
  8
TITLE
100
AcDbMText
 10
0.332923116
 20
9.8830275508
 30
0.0
 40
0.125
 41
0.0
 71
     2
 72
     1
  1
E
  7
SLDTEXTSTYLE1
 73
     1
 44
1.0
  0
MTEXT
  5
181
330
1F
100
AcDbEntity
  8
TITLE
100
AcDbMText
 10
89.6675687853
 20
9.8830275508
 30
0.0
 40
0.125
 41
0.0
 71
     2
 72
     1
  1
E
  7
SLDTEXTSTYLE1
 73
     1
 44
1.0
  0
MTEXT
  5
182
330
1F
100
AcDbEntity
  8
TITLE
100
AcDbMText
 10
0.3313461474
 20
11.8515314878
 30
0.0
 40
0.125
 41
0.0
 71
     2
 72
     1
  1
F
  7
SLDTEXTSTYLE1
 73
     1
 44
1.0
  0
MTEXT
  5
183
330
1F
100
AcDbEntity
  8
TITLE
100
AcDbMText
 10
89.6659918167
 20
11.8515314878
 30
0.0
 40
0.125
 41
0.0
 71
     2
 72
     1
  1
F
  7
SLDTEXTSTYLE1
 73
     1
 44
1.0
  0
MTEXT
  5
184
330
1F
100
AcDbEntity
  8
TITLE
100
AcDbMText
 10
0.3322576054
 20
13.8200354248
 30
0.0
 40
0.125
 41
0.0
 71
     2
 72
     1
  1
G
  7
SLDTEXTSTYLE1
 73
     1
 44
1.0
  0
MTEXT
  5
185
330
1F
100
AcDbEntity
  8
TITLE
100
AcDbMText
 10
89.6669032747
 20
13.8200354248
 30
0.0
 40
0.125
 41
0.0
 71
     2
 72
     1
  1
G
  7
SLDTEXTSTYLE1
 73
     1
 44
1.0
  0
MTEXT
  5
186
330
1F
100
AcDbEntity
  8
TITLE
100
AcDbMText
 10
0.3323733457
 20
15.7885393618
 30
0.0
 40
0.125
 41
0.0
 71
     2
 72
     1
  1
H
  7
SLDTEXTSTYLE1
 73
     1
 44
1.0
  0
MTEXT
  5
187
330
1F
100
AcDbEntity
  8
TITLE
100
AcDbMText
 10
89.667019015
 20
15.7885393618
 30
0.0
 40
0.125
 41
0.0
 71
     2
 72
     1
  1
H
  7
SLDTEXTSTYLE1
 73
     1
 44
1.0
  0
MTEXT
  5
188
330
1F
100
AcDbEntity
  8
TITLE
100
AcDbMText
 10
0.3315776306
 20
17.7570432988
 30
0.0
 40
0.125
 41
0.0
 71
     2
 72
     1
  1
J
  7
SLDTEXTSTYLE1
 73
     1
 44
1.0
  0
MTEXT
  5
189
330
1F
100
AcDbEntity
  8
TITLE
100
AcDbMText
 10
89.6662232999
 20
17.7570432988
 30
0.0
 40
0.125
 41
0.0
 71
     2
 72
     1
  1
J
  7
SLDTEXTSTYLE1
 73
     1
 44
1.0
  0
MTEXT
  5
18A
330
1F
100
AcDbEntity
  8
TITLE
100
AcDbMText
 10
0.3323154765
 20
19.7255472359
 30
0.0
 40
0.125
 41
0.0
 71
     2
 72
     1
  1
K
  7
SLDTEXTSTYLE1
 73
     1
 44
1.0
  0
MTEXT
  5
18B
330
1F
100
AcDbEntity
  8
TITLE
100
AcDbMText
 10
89.6669611458
 20
19.7255472359
 30
0.0
 40
0.125
 41
0.0
 71
     2
 72
     1
  1
K
  7
SLDTEXTSTYLE1
 73
     1
 44
1.0
  0
MTEXT
  5
18C
330
1F
100
AcDbEntity
  8
TITLE
100
AcDbMText
 10
0.3312448739
 20
21.6940511729
 30
0.0
 40
0.125
 41
0.0
 71
     2
 72
     1
  1
L
  7
SLDTEXTSTYLE1
 73
     1
 44
1.0
  0
MTEXT
  5
18D
330
1F
100
AcDbEntity
  8
TITLE
100
AcDbMText
 10
89.6658905432
 20
21.6940511729
 30
0.0
 40
0.125
 41
0.0
 71
     2
 72
     1
  1
L
  7
SLDTEXTSTYLE1
 73
     1
 44
1.0
  0
MTEXT
  5
18E
330
1F
100
AcDbEntity
  8
TITLE
100
AcDbMText
 10
0.3283224192
 20
23.6625551099
 30
0.0
 40
0.125
 41
0.0
 71
     2
 72
     1
  1
M
  7
SLDTEXTSTYLE1
 73
     1
 44
1.0
  0
MTEXT
  5
18F
330
1F
100
AcDbEntity
  8
TITLE
100
AcDbMText
 10
89.6629680885
 20
23.6625551099
 30
0.0
 40
0.125
 41
0.0
 71
     2
 72
     1
  1
M
  7
SLDTEXTSTYLE1
 73
     1
 44
1.0
  0
MTEXT
  5
190
330
1F
100
AcDbEntity
  8
TITLE
100
AcDbMText
 10
0.3315342276
 20
25.6310590469
 30
0.0
 40
0.125
 41
0.0
 71
     2
 72
     1
  1
N
  7
SLDTEXTSTYLE1
 73
     1
 44
1.0
  0
MTEXT
  5
191
330
1F
100
AcDbEntity
  8
TITLE
100
AcDbMText
 10
89.6661798969
 20
25.6310590469
 30
0.0
 40
0.125
 41
0.0
 71
     2
 72
     1
  1
N
  7
SLDTEXTSTYLE1
 73
     1
 44
1.0
  0
MTEXT
  5
192
330
1F
100
AcDbEntity
  8
TITLE
100
AcDbMText
 10
0.3321997349
 20
27.5995629839
 30
0.0
 40
0.125
 41
0.0
 71
     2
 72
     1
  1
P
  7
SLDTEXTSTYLE1
 73
     1
 44
1.0
  0
MTEXT
  5
193
330
1F
100
AcDbEntity
  8
TITLE
100
AcDbMText
 10
89.6668454042
 20
27.5995629839
 30
0.0
 40
0.125
 41
0.0
 71
     2
 72
     1
  1
P
  7
SLDTEXTSTYLE1
 73
     1
 44
1.0
  0
MTEXT
  5
194
330
1F
100
AcDbEntity
  8
TITLE
100
AcDbMText
 10
0.3309265867
 20
29.5680669209
 30
0.0
 40
0.125
 41
0.0
 71
     2
 72
     1
  1
R
  7
SLDTEXTSTYLE1
 73
     1
 44
1.0
  0
MTEXT
  5
195
330
1F
100
AcDbEntity
  8
TITLE
100
AcDbMText
 10
89.665572256
 20
29.5680669209
 30
0.0
 40
0.125
 41
0.0
 71
     2
 72
     1
  1
R
  7
SLDTEXTSTYLE1
 73
     1
 44
1.0
  0
MTEXT
  5
196
330
1F
100
AcDbEntity
  8
TITLE
100
AcDbMText
 10
0.3323010071
 20
31.5365708579
 30
0.0
 40
0.125
 41
0.0
 71
     2
 72
     1
  1
T
  7
SLDTEXTSTYLE1
 73
     1
 44
1.0
  0
MTEXT
  5
197
330
1F
100
AcDbEntity
  8
TITLE
100
AcDbMText
 10
89.6669466764
 20
31.5365708579
 30
0.0
 40
0.125
 41
0.0
 71
     2
 72
     1
  1
T
  7
SLDTEXTSTYLE1
 73
     1
 44
1.0
  0
MTEXT
  5
198
330
1F
100
AcDbEntity
  8
TITLE
100
AcDbMText
 10
0.3328507755
 20
33.5050747949
 30
0.0
 40
0.125
 41
0.0
 71
     2
 72
     1
  1
U
  7
SLDTEXTSTYLE1
 73
     1
 44
1.0
  0
MTEXT
  5
199
330
1F
100
AcDbEntity
  8
TITLE
100
AcDbMText
 10
89.6674964448
 20
33.5050747949
 30
0.0
 40
0.125
 41
0.0
 71
     2
 72
     1
  1
U
  7
SLDTEXTSTYLE1
 73
     1
 44
1.0
  0
MTEXT
  5
19A
330
1F
100
AcDbEntity
  8
TITLE
100
AcDbMText
 10
0.3307529773
 20
35.4735787319
 30
0.0
 40
0.125
 41
0.0
 71
     2
 72
     1
  1
V
  7
SLDTEXTSTYLE1
 73
     1
 44
1.0
  0
MTEXT
  5
19B
330
1F
100
AcDbEntity
  8
TITLE
100
AcDbMText
 10
89.6653986466
 20
35.4735787319
 30
0.0
 40
0.125
 41
0.0
 71
     2
 72
     1
  1
V
  7
SLDTEXTSTYLE1
 73
     1
 44
1.0
  0
MTEXT
  5
19C
330
1F
100
AcDbEntity
  8
TITLE
100
AcDbMText
 10
0.3327784409
 20
37.4420826689
 30
0.0
 40
0.125
 41
0.0
 71
     2
 72
     1
  1
W
  7
SLDTEXTSTYLE1
 73
     1
 44
1.0
  0
MTEXT
  5
19D
330
1F
100
AcDbEntity
  8
TITLE
100
AcDbMText
 10
89.6674241102
 20
37.4420826689
 30
0.0
 40
0.125
 41
0.0
 71
     2
 72
     1
  1
W
  7
SLDTEXTSTYLE1
 73
     1
 44
1.0
  0
MTEXT
  5
19E
330
1F
100
AcDbEntity
  8
TITLE
100
AcDbMText
 10
0.3321997349
 20
39.4105866059
 30
0.0
 40
0.125
 41
0.0
 71
     2
 72
     1
  1
Y
  7
SLDTEXTSTYLE1
 73
     1
 44
1.0
  0
MTEXT
  5
19F
330
1F
100
AcDbEntity
  8
TITLE
100
AcDbMText
 10
89.6668454042
 20
39.4105866059
 30
0.0
 40
0.125
 41
0.0
 71
     2
 72
     1
  1
Y
  7
SLDTEXTSTYLE1
 73
     1
 44
1.0
  0
MTEXT
  5
1A0
330
1F
100
AcDbEntity
  8
TITLE
100
AcDbMText
 10
0.3225787898
 20
41.3790905429
 30
0.0
 40
0.125
 41
0.0
 71
     2
 72
     1
  1
AA
  7
SLDTEXTSTYLE1
 73
     1
 44
1.0
  0
MTEXT
  5
1A1
330
1F
100
AcDbEntity
  8
TITLE
100
AcDbMText
 10
89.6572244591
 20
41.3790905429
 30
0.0
 40
0.125
 41
0.0
 71
     2
 72
     1
  1
AA
  7
SLDTEXTSTYLE1
 73
     1
 44
1.0
  0
MTEXT
  5
1A2
330
1F
100
AcDbEntity
  8
TITLE
100
AcDbMText
 10
0.3267020535
 20
43.34759448
 30
0.0
 40
0.125
 41
0.0
 71
     2
 72
     1
  1
AB
  7
SLDTEXTSTYLE1
 73
     1
 44
1.0
  0
MTEXT
  5
1A3
330
1F
100
AcDbEntity
  8
TITLE
100
AcDbMText
 10
89.6613477228
 20
43.34759448
 30
0.0
 40
0.125
 41
0.0
 71
     2
 72
     1
  1
AB
  7
SLDTEXTSTYLE1
 73
     1
 44
1.0
  0
MTEXT
  5
1A4
330
1F
100
AcDbEntity
  8
TITLE
100
AcDbMText
 10
0.3263258985
 20
45.316098417
 30
0.0
 40
0.125
 41
0.0
 71
     2
 72
     1
  1
AC
  7
SLDTEXTSTYLE1
 73
     1
 44
1.0
  0
MTEXT
  5
1A5
330
1F
100
AcDbEntity
  8
TITLE
100
AcDbMText
 10
89.6609715678
 20
45.316098417
 30
0.0
 40
0.125
 41
0.0
 71
     2
 72
     1
  1
AC
  7
SLDTEXTSTYLE1
 73
     1
 44
1.0
  0
MTEXT
  5
1A6
330
1F
100
AcDbEntity
  8
TITLE
100
AcDbMText
 10
0.3261378197
 20
47.284602354
 30
0.0
 40
0.125
 41
0.0
 71
     2
 72
     1
  1
AD
  7
SLDTEXTSTYLE1
 73
     1
 44
1.0
  0
MTEXT
  5
1A7
330
1F
100
AcDbEntity
  8
TITLE
100
AcDbMText
 10
89.6607834889
 20
47.284602354
 30
0.0
 40
0.125
 41
0.0
 71
     2
 72
     1
  1
AD
  7
SLDTEXTSTYLE1
 73
     1
 44
1.0
  0
MTEXT
  5
1A8
330
1F
100
AcDbEntity
  8
TITLE
100
AcDbMText
 10
0.3278739283
 20
49.253106291
 30
0.0
 40
0.125
 41
0.0
 71
     2
 72
     1
  1
AE
  7
SLDTEXTSTYLE1
 73
     1
 44
1.0
  0
MTEXT
  5
1A9
330
1F
100
AcDbEntity
  8
TITLE
100
AcDbMText
 10
89.6625195976
 20
49.253106291
 30
0.0
 40
0.125
 41
0.0
 71
     2
 72
     1
  1
AE
  7
SLDTEXTSTYLE1
 73
     1
 44
1.0
  0
MTEXT
  5
1AA
330
1F
100
AcDbEntity
  8
TITLE
100
AcDbMText
 10
0.3262969596
 20
51.221610228
 30
0.0
 40
0.125
 41
0.0
 71
     2
 72
     1
  1
AF
  7
SLDTEXTSTYLE1
 73
     1
 44
1.0
  0
MTEXT
  5
1AB
330
1F
100
AcDbEntity
  8
TITLE
100
AcDbMText
 10
89.6609426289
 20
51.221610228
 30
0.0
 40
0.125
 41
0.0
 71
     2
 72
     1
  1
AF
  7
SLDTEXTSTYLE1
 73
     1
 44
1.0
  0
MTEXT
  5
1AC
330
1F
100
AcDbEntity
  8
TITLE
100
AcDbMText
 10
0.3272084177
 20
53.190114165
 30
0.0
 40
0.125
 41
0.0
 71
     2
 72
     1
  1
AG
  7
SLDTEXTSTYLE1
 73
     1
 44
1.0
  0
MTEXT
  5
1AD
330
1F
100
AcDbEntity
  8
TITLE
100
AcDbMText
 10
89.661854087
 20
53.190114165
 30
0.0
 40
0.125
 41
0.0
 71
     2
 72
     1
  1
AG
  7
SLDTEXTSTYLE1
 73
     1
 44
1.0
  0
MTEXT
  5
1AE
330
1F
100
AcDbEntity
  8
TITLE
100
AcDbMText
 10
0.3273241625
 20
55.158618102
 30
0.0
 40
0.125
 41
0.0
 71
     2
 72
     1
  1
AH
  7
SLDTEXTSTYLE1
 73
     1
 44
1.0
  0
MTEXT
  5
1AF
330
1F
100
AcDbEntity
  8
TITLE
100
AcDbMText
 10
89.6619698318
 20
55.158618102
 30
0.0
 40
0.125
 41
0.0
 71
     2
 72
     1
  1
AH
  7
SLDTEXTSTYLE1
 73
     1
 44
1.0
  0
MTEXT
  5
1B0
330
1F
100
AcDbEntity
  8
TITLE
100
AcDbMText
 10
0.3265284428
 20
57.127122039
 30
0.0
 40
0.125
 41
0.0
 71
     2
 72
     1
  1
AJ
  7
SLDTEXTSTYLE1
 73
     1
 44
1.0
  0
MTEXT
  5
1B1
330
1F
100
AcDbEntity
  8
TITLE
100
AcDbMText
 10
89.6611741121
 20
57.127122039
 30
0.0
 40
0.125
 41
0.0
 71
     2
 72
     1
  1
AJ
  7
SLDTEXTSTYLE1
 73
     1
 44
1.0
  0
MTEXT
  5
1B2
330
1F
100
AcDbEntity
  8
TITLE
100
AcDbMText
 10
0.3272662887
 20
59.095625976
 30
0.0
 40
0.125
 41
0.0
 71
     2
 72
     1
  1
AK
  7
SLDTEXTSTYLE1
 73
     1
 44
1.0
  0
MTEXT
  5
1B3
330
1F
100
AcDbEntity
  8
TITLE
100
AcDbMText
 10
89.661911958
 20
59.095625976
 30
0.0
 40
0.125
 41
0.0
 71
     2
 72
     1
  1
AK
  7
SLDTEXTSTYLE1
 73
     1
 44
1.0
  0
MTEXT
  5
1B4
330
1F
100
AcDbEntity
  8
TITLE
100
AcDbMText
 10
0.3261956816
 20
61.064129913
 30
0.0
 40
0.125
 41
0.0
 71
     2
 72
     1
  1
AL
  7
SLDTEXTSTYLE1
 73
     1
 44
1.0
  0
MTEXT
  5
1B5
330
1F
100
AcDbEntity
  8
TITLE
100
AcDbMText
 10
89.6608413509
 20
61.064129913
 30
0.0
 40
0.125
 41
0.0
 71
     2
 72
     1
  1
AL
  7
SLDTEXTSTYLE1
 73
     1
 44
1.0
  0
MTEXT
  5
1B6
330
1F
100
AcDbEntity
  8
TITLE
100
AcDbMText
 10
0.3232732315
 20
63.03263385
 30
0.0
 40
0.125
 41
0.0
 71
     2
 72
     1
  1
AM
  7
SLDTEXTSTYLE1
 73
     1
 44
1.0
  0
MTEXT
  5
1B7
330
1F
100
AcDbEntity
  8
TITLE
100
AcDbMText
 10
89.6579189008
 20
63.03263385
 30
0.0
 40
0.125
 41
0.0
 71
     2
 72
     1
  1
AM
  7
SLDTEXTSTYLE1
 73
     1
 44
1.0
  0
MTEXT
  5
1B8
330
1F
100
AcDbEntity
  8
TITLE
100
AcDbMText
 10
0.3264850398
 20
65.001137787
 30
0.0
 40
0.125
 41
0.0
 71
     2
 72
     1
  1
AN
  7
SLDTEXTSTYLE1
 73
     1
 44
1.0
  0
MTEXT
  5
1B9
330
1F
100
AcDbEntity
  8
TITLE
100
AcDbMText
 10
89.6611307091
 20
65.001137787
 30
0.0
 40
0.125
 41
0.0
 71
     2
 72
     1
  1
AN
  7
SLDTEXTSTYLE1
 73
     1
 44
1.0
  0
MTEXT
  5
1BA
330
1F
100
AcDbEntity
  8
TITLE
100
AcDbMText
 10
0.3271505426
 20
66.969641724
 30
0.0
 40
0.125
 41
0.0
 71
     2
 72
     1
  1
AP
  7
SLDTEXTSTYLE1
 73
     1
 44
1.0
  0
MTEXT
  5
1BB
330
1F
100
AcDbEntity
  8
TITLE
100
AcDbMText
 10
89.6617962119
 20
66.969641724
 30
0.0
 40
0.125
 41
0.0
 71
     2
 72
     1
  1
AP
  7
SLDTEXTSTYLE1
 73
     1
 44
1.0
  0
MTEXT
  5
1BC
330
1F
100
AcDbEntity
  8
TITLE
100
AcDbMText
 10
0.325877399
 20
68.9381456611
 30
0.0
 40
0.125
 41
0.0
 71
     2
 72
     1
  1
AR
  7
SLDTEXTSTYLE1
 73
     1
 44
1.0
  0
MTEXT
  5
1BD
330
1F
100
AcDbEntity
  8
TITLE
100
AcDbMText
 10
89.6605230682
 20
68.9381456611
 30
0.0
 40
0.125
 41
0.0
 71
     2
 72
     1
  1
AR
  7
SLDTEXTSTYLE1
 73
     1
 44
1.0
  0
MTEXT
  5
1BE
330
1F
100
AcDbEntity
  8
TITLE
100
AcDbMText
 10
0.3272518193
 20
70.9066495981
 30
0.0
 40
0.125
 41
0.0
 71
     2
 72
     1
  1
AT
  7
SLDTEXTSTYLE1
 73
     1
 44
1.0
  0
MTEXT
  5
1BF
330
1F
100
AcDbEntity
  8
TITLE
100
AcDbMText
 10
89.6618974886
 20
70.9066495981
 30
0.0
 40
0.125
 41
0.0
 71
     2
 72
     1
  1
AT
  7
SLDTEXTSTYLE1
 73
     1
 44
1.0
  0
MTEXT
  5
1C0
330
1F
100
AcDbEntity
  8
TITLE
100
AcDbMText
 10
0.3278015877
 20
72.8751535351
 30
0.0
 40
0.125
 41
0.0
 71
     2
 72
     1
  1
AU
  7
SLDTEXTSTYLE1
 73
     1
 44
1.0
  0
MTEXT
  5
1C1
330
1F
100
AcDbEntity
  8
TITLE
100
AcDbMText
 10
89.662447257
 20
72.8751535351
 30
0.0
 40
0.125
 41
0.0
 71
     2
 72
     1
  1
AU
  7
SLDTEXTSTYLE1
 73
     1
 44
1.0
  0
MTEXT
  5
1C2
330
1F
100
AcDbEntity
  8
TITLE
100
AcDbMText
 10
0.3257037895
 20
74.8436574721
 30
0.0
 40
0.125
 41
0.0
 71
     2
 72
     1
  1
AV
  7
SLDTEXTSTYLE1
 73
     1
 44
1.0
  0
MTEXT
  5
1C3
330
1F
100
AcDbEntity
  8
TITLE
100
AcDbMText
 10
89.6603494588
 20
74.8436574721
 30
0.0
 40
0.125
 41
0.0
 71
     2
 72
     1
  1
AV
  7
SLDTEXTSTYLE1
 73
     1
 44
1.0
  0
MTEXT
  5
1C4
330
1F
100
AcDbEntity
  8
TITLE
100
AcDbMText
 10
0.3277292486
 20
76.8121614091
 30
0.0
 40
0.125
 41
0.0
 71
     2
 72
     1
  1
AW
  7
SLDTEXTSTYLE1
 73
     1
 44
1.0
  0
MTEXT
  5
1C5
330
1F
100
AcDbEntity
  8
TITLE
100
AcDbMText
 10
89.6623749179
 20
76.8121614091
 30
0.0
 40
0.125
 41
0.0
 71
     2
 72
     1
  1
AW
  7
SLDTEXTSTYLE1
 73
     1
 44
1.0
  0
MTEXT
  5
1C6
330
1F
100
AcDbEntity
  8
TITLE
100
AcDbMText
 10
0.3271505426
 20
78.7806653461
 30
0.0
 40
0.125
 41
0.0
 71
     2
 72
     1
  1
AY
  7
SLDTEXTSTYLE1
 73
     1
 44
1.0
  0
MTEXT
  5
1C7
330
1F
100
AcDbEntity
  8
TITLE
100
AcDbMText
 10
89.6617962119
 20
78.7806653461
 30
0.0
 40
0.125
 41
0.0
 71
     2
 72
     1
  1
AY
  7
SLDTEXTSTYLE1
 73
     1
 44
1.0
  0
MTEXT
  5
1C8
330
1F
100
AcDbEntity
  8
TITLE
100
AcDbMText
 10
0.3267020535
 20
80.7491692831
 30
0.0
 40
0.125
 41
0.0
 71
     2
 72
     1
  1
BA
  7
SLDTEXTSTYLE1
 73
     1
 44
1.0
  0
MTEXT
  5
1C9
330
1F
100
AcDbEntity
  8
TITLE
100
AcDbMText
 10
89.6613477228
 20
80.7491692831
 30
0.0
 40
0.125
 41
0.0
 71
     2
 72
     1
  1
BA
  7
SLDTEXTSTYLE1
 73
     1
 44
1.0
  0
MTEXT
  5
1CA
330
1F
100
AcDbEntity
  8
TITLE
100
AcDbMText
 10
0.3308253173
 20
82.7176732201
 30
0.0
 40
0.125
 41
0.0
 71
     2
 72
     1
  1
BB
  7
SLDTEXTSTYLE1
 73
     1
 44
1.0
  0
MTEXT
  5
1CB
330
1F
100
AcDbEntity
  8
TITLE
100
AcDbMText
 10
89.6654709865
 20
82.7176732201
 30
0.0
 40
0.125
 41
0.0
 71
     2
 72
     1
  1
BB
  7
SLDTEXTSTYLE1
 73
     1
 44
1.0
  0
MTEXT
  5
1CC
330
1F
100
AcDbEntity
  8
TITLE
100
AcDbMText
 10
0.3304491531
 20
84.6861771571
 30
0.0
 40
0.125
 41
0.0
 71
     2
 72
     1
  1
BC
  7
SLDTEXTSTYLE1
 73
     1
 44
1.0
  0
MTEXT
  5
1CD
330
1F
100
AcDbEntity
  8
TITLE
100
AcDbMText
 10
89.6650948224
 20
84.6861771571
 30
0.0
 40
0.125
 41
0.0
 71
     2
 72
     1
  1
BC
  7
SLDTEXTSTYLE1
 73
     1
 44
1.0
  0
MTEXT
  5
1CE
330
1F
100
AcDbEntity
  8
TITLE
100
AcDbMText
 10
0.3302610742
 20
86.6546810941
 30
0.0
 40
0.125
 41
0.0
 71
     2
 72
     1
  1
BD
  7
SLDTEXTSTYLE1
 73
     1
 44
1.0
  0
MTEXT
  5
1CF
330
1F
100
AcDbEntity
  8
TITLE
100
AcDbMText
 10
89.6649067435
 20
86.6546810941
 30
0.0
 40
0.125
 41
0.0
 71
     2
 72
     1
  1
BD
  7
SLDTEXTSTYLE1
 73
     1
 44
1.0
  0
MTEXT
  5
1D0
330
1F
100
AcDbEntity
  8
TITLE
100
AcDbMText
 10
0.331997192
 20
88.6231850311
 30
0.0
 40
0.125
 41
0.0
 71
     2
 72
     1
  1
BE
  7
SLDTEXTSTYLE1
 73
     1
 44
1.0
  0
MTEXT
  5
1D1
330
1F
100
AcDbEntity
  8
TITLE
100
AcDbMText
 10
89.6666428613
 20
88.6231850311
 30
0.0
 40
0.125
 41
0.0
 71
     2
 72
     1
  1
BE
  7
SLDTEXTSTYLE1
 73
     1
 44
1.0
  0
MTEXT
  5
1D2
330
1F
100
AcDbEntity
  8
TITLE
100
AcDbMText
 10
0.3304202234
 20
90.5916889681
 30
0.0
 40
0.125
 41
0.0
 71
     2
 72
     1
  1
BF
  7
SLDTEXTSTYLE1
 73
     1
 44
1.0
  0
MTEXT
  5
1D3
330
1F
100
AcDbEntity
  8
TITLE
100
AcDbMText
 10
89.6650658926
 20
90.5916889681
 30
0.0
 40
0.125
 41
0.0
 71
     2
 72
     1
  1
BF
  7
SLDTEXTSTYLE1
 73
     1
 44
1.0
  0
MTEXT
  5
1D4
330
1F
100
AcDbEntity
  8
TITLE
100
AcDbMText
 10
0.3313316814
 20
92.5601929051
 30
0.0
 40
0.125
 41
0.0
 71
     2
 72
     1
  1
BG
  7
SLDTEXTSTYLE1
 73
     1
 44
1.0
  0
MTEXT
  5
1D5
330
1F
100
AcDbEntity
  8
TITLE
100
AcDbMText
 10
89.6659773507
 20
92.5601929051
 30
0.0
 40
0.125
 41
0.0
 71
     2
 72
     1
  1
BG
  7
SLDTEXTSTYLE1
 73
     1
 44
1.0
  0
MTEXT
  5
1D6
330
1F
100
AcDbEntity
  8
TITLE
100
AcDbMText
 10
0.331447417
 20
94.5286968422
 30
0.0
 40
0.125
 41
0.0
 71
     2
 72
     1
  1
BH
  7
SLDTEXTSTYLE1
 73
     1
 44
1.0
  0
MTEXT
  5
1D7
330
1F
100
AcDbEntity
  8
TITLE
100
AcDbMText
 10
89.6660930863
 20
94.5286968422
 30
0.0
 40
0.125
 41
0.0
 71
     2
 72
     1
  1
BH
  7
SLDTEXTSTYLE1
 73
     1
 44
1.0
  0
MTEXT
  5
1D8
330
1F
100
AcDbEntity
  8
TITLE
100
AcDbMText
 10
0.3306517065
 20
96.4972007792
 30
0.0
 40
0.125
 41
0.0
 71
     2
 72
     1
  1
BJ
  7
SLDTEXTSTYLE1
 73
     1
 44
1.0
  0
MTEXT
  5
1D9
330
1F
100
AcDbEntity
  8
TITLE
100
AcDbMText
 10
89.6652973758
 20
96.4972007792
 30
0.0
 40
0.125
 41
0.0
 71
     2
 72
     1
  1
BJ
  7
SLDTEXTSTYLE1
 73
     1
 44
1.0
  0
MTEXT
  5
1DA
330
1F
100
AcDbEntity
  8
TITLE
100
AcDbMText
 10
0.3313895525
 20
98.4657047162
 30
0.0
 40
0.125
 41
0.0
 71
     2
 72
     1
  1
BK
  7
SLDTEXTSTYLE1
 73
     1
 44
1.0
  0
MTEXT
  5
1DB
330
1F
100
AcDbEntity
  8
TITLE
100
AcDbMText
 10
89.6660352218
 20
98.4657047162
 30
0.0
 40
0.125
 41
0.0
 71
     2
 72
     1
  1
BK
  7
SLDTEXTSTYLE1
 73
     1
 44
1.0
  0
MTEXT
  5
1DC
330
1F
100
AcDbEntity
  8
TITLE
100
AcDbMText
 10
0.3303189545
 20
100.4342086532
 30
0.0
 40
0.125
 41
0.0
 71
     2
 72
     1
  1
BL
  7
SLDTEXTSTYLE1
 73
     1
 44
1.0
  0
MTEXT
  5
1DD
330
1F
100
AcDbEntity
  8
TITLE
100
AcDbMText
 10
89.6649646237
 20
100.4342086532
 30
0.0
 40
0.125
 41
0.0
 71
     2
 72
     1
  1
BL
  7
SLDTEXTSTYLE1
 73
     1
 44
1.0
  0
MTEXT
  5
1DE
330
1F
100
AcDbEntity
  8
TITLE
100
AcDbMText
 10
0.3273964952
 20
102.4027125902
 30
0.0
 40
0.125
 41
0.0
 71
     2
 72
     1
  1
BM
  7
SLDTEXTSTYLE1
 73
     1
 44
1.0
  0
MTEXT
  5
1DF
330
1F
100
AcDbEntity
  8
TITLE
100
AcDbMText
 10
89.6620421645
 20
102.4027125902
 30
0.0
 40
0.125
 41
0.0
 71
     2
 72
     1
  1
BM
  7
SLDTEXTSTYLE1
 73
     1
 44
1.0
  0
MTEXT
  5
1E0
330
1F
100
AcDbEntity
  8
TITLE
100
AcDbMText
 10
0.3306083035
 20
104.3712165272
 30
0.0
 40
0.125
 41
0.0
 71
     2
 72
     1
  1
BN
  7
SLDTEXTSTYLE1
 73
     1
 44
1.0
  0
MTEXT
  5
1E1
330
1F
100
AcDbEntity
  8
TITLE
100
AcDbMText
 10
89.6652539728
 20
104.3712165272
 30
0.0
 40
0.125
 41
0.0
 71
     2
 72
     1
  1
BN
  7
SLDTEXTSTYLE1
 73
     1
 44
1.0
  0
MTEXT
  5
1E2
330
1F
100
AcDbEntity
  8
TITLE
100
AcDbMText
 10
0.3312738155
 20
106.3397204642
 30
0.0
 40
0.125
 41
0.0
 71
     2
 72
     1
  1
BP
  7
SLDTEXTSTYLE1
 73
     1
 44
1.0
  0
MTEXT
  5
1E3
330
1F
100
AcDbEntity
  8
TITLE
100
AcDbMText
 10
89.6659194848
 20
106.3397204642
 30
0.0
 40
0.125
 41
0.0
 71
     2
 72
     1
  1
BP
  7
SLDTEXTSTYLE1
 73
     1
 44
1.0
  0
MTEXT
  5
1E4
330
1F
100
AcDbEntity
  8
TITLE
100
AcDbMText
 10
0.3300006627
 20
108.3082244012
 30
0.0
 40
0.125
 41
0.0
 71
     2
 72
     1
  1
BR
  7
SLDTEXTSTYLE1
 73
     1
 44
1.0
  0
MTEXT
  5
1E5
330
1F
100
AcDbEntity
  8
TITLE
100
AcDbMText
 10
89.664646332
 20
108.3082244012
 30
0.0
 40
0.125
 41
0.0
 71
     2
 72
     1
  1
BR
  7
SLDTEXTSTYLE1
 73
     1
 44
1.0
  0
MTEXT
  5
1E6
330
1F
100
AcDbEntity
  8
TITLE
100
AcDbMText
 10
0.331375083
 20
110.2767283382
 30
0.0
 40
0.125
 41
0.0
 71
     2
 72
     1
  1
BT
  7
SLDTEXTSTYLE1
 73
     1
 44
1.0
  0
MTEXT
  5
1E7
330
1F
100
AcDbEntity
  8
TITLE
100
AcDbMText
 10
89.6660207523
 20
110.2767283382
 30
0.0
 40
0.125
 41
0.0
 71
     2
 72
     1
  1
BT
  7
SLDTEXTSTYLE1
 73
     1
 44
1.0
  0
MTEXT
  5
1E8
330
1F
100
AcDbEntity
  8
TITLE
100
AcDbMText
 10
0.3319248515
 20
112.2452322752
 30
0.0
 40
0.125
 41
0.0
 71
     2
 72
     1
  1
BU
  7
SLDTEXTSTYLE1
 73
     1
 44
1.0
  0
MTEXT
  5
1E9
330
1F
100
AcDbEntity
  8
TITLE
100
AcDbMText
 10
89.6665705208
 20
112.2452322752
 30
0.0
 40
0.125
 41
0.0
 71
     2
 72
     1
  1
BU
  7
SLDTEXTSTYLE1
 73
     1
 44
1.0
  0
MTEXT
  5
1EA
330
1F
100
AcDbEntity
  8
TITLE
100
AcDbMText
 10
0.3298270533
 20
114.2137362122
 30
0.0
 40
0.125
 41
0.0
 71
     2
 72
     1
  1
BV
  7
SLDTEXTSTYLE1
 73
     1
 44
1.0
  0
MTEXT
  5
1EB
330
1F
100
AcDbEntity
  8
TITLE
100
AcDbMText
 10
89.6644727226
 20
114.2137362122
 30
0.0
 40
0.125
 41
0.0
 71
     2
 72
     1
  1
BV
  7
SLDTEXTSTYLE1
 73
     1
 44
1.0
  0
MTEXT
  5
1EC
330
1F
100
AcDbEntity
  8
TITLE
100
AcDbMText
 10
0.3318525215
 20
116.1822401492
 30
0.0
 40
0.125
 41
0.0
 71
     2
 72
     1
  1
BW
  7
SLDTEXTSTYLE1
 73
     1
 44
1.0
  0
MTEXT
  5
1ED
330
1F
100
AcDbEntity
  8
TITLE
100
AcDbMText
 10
89.6664981907
 20
116.1822401492
 30
0.0
 40
0.125
 41
0.0
 71
     2
 72
     1
  1
BW
  7
SLDTEXTSTYLE1
 73
     1
 44
1.0
  0
MTEXT
  5
1EE
330
1F
100
AcDbEntity
  8
TITLE
100
AcDbMText
 10
0.3312738155
 20
118.3731850311
 30
0.0
 40
0.125
 41
0.0
 71
     2
 72
     1
  1
BY
  7
SLDTEXTSTYLE1
 73
     1
 44
1.0
  0
MTEXT
  5
1EF
330
1F
100
AcDbEntity
  8
TITLE
100
AcDbMText
 10
89.6659194848
 20
118.3731850311
 30
0.0
 40
0.125
 41
0.0
 71
     2
 72
     1
  1
BY
  7
SLDTEXTSTYLE1
 73
     1
 44
1.0
  0
MTEXT
  5
1F0
330
1F
100
AcDbEntity
  8
TITLE
100
AcDbMText
 10
1.0939393315
 20
0.4125551099
 30
0.0
 40
0.125
 41
0.0
 71
     2
 72
     1
  1
46
  7
SLDTEXTSTYLE1
 73
     1
 44
1.0
  0
MTEXT
  5
1F1
330
1F
100
AcDbEntity
  8
TITLE
100
AcDbMText
 10
1.0939393315
 20
119.7472007792
 30
0.0
 40
0.125
 41
0.0
 71
     2
 72
     1
  1
46
  7
SLDTEXTSTYLE1
 73
     1
 44
1.0
  0
MTEXT
  5
1F2
330
1F
100
AcDbEntity
  8
TITLE
100
AcDbMText
 10
2.674647993
 20
0.4125551099
 30
0.0
 40
0.125
 41
0.0
 71
     2
 72
     1
  1
45
  7
SLDTEXTSTYLE1
 73
     1
 44
1.0
  0
MTEXT
  5
1F3
330
1F
100
AcDbEntity
  8
TITLE
100
AcDbMText
 10
2.674647993
 20
119.7472007792
 30
0.0
 40
0.125
 41
0.0
 71
     2
 72
     1
  1
45
  7
SLDTEXTSTYLE1
 73
     1
 44
1.0
  0
MTEXT
  5
1F4
330
1F
100
AcDbEntity
  8
TITLE
100
AcDbMText
 10
4.64315193
 20
0.4125551099
 30
0.0
 40
0.125
 41
0.0
 71
     2
 72
     1
  1
44
  7
SLDTEXTSTYLE1
 73
     1
 44
1.0
  0
MTEXT
  5
1F5
330
1F
100
AcDbEntity
  8
TITLE
100
AcDbMText
 10
4.64315193
 20
119.7472007792
 30
0.0
 40
0.125
 41
0.0
 71
     2
 72
     1
  1
44
  7
SLDTEXTSTYLE1
 73
     1
 44
1.0
  0
MTEXT
  5
1F6
330
1F
100
AcDbEntity
  8
TITLE
100
AcDbMText
 10
6.611655867
 20
0.4125551099
 30
0.0
 40
0.125
 41
0.0
 71
     2
 72
     1
  1
43
  7
SLDTEXTSTYLE1
 73
     1
 44
1.0
  0
MTEXT
  5
1F7
330
1F
100
AcDbEntity
  8
TITLE
100
AcDbMText
 10
6.611655867
 20
119.7472007792
 30
0.0
 40
0.125
 41
0.0
 71
     2
 72
     1
  1
43
  7
SLDTEXTSTYLE1
 73
     1
 44
1.0
  0
MTEXT
  5
1F8
330
1F
100
AcDbEntity
  8
TITLE
100
AcDbMText
 10
8.580159804
 20
0.4125551099
 30
0.0
 40
0.125
 41
0.0
 71
     2
 72
     1
  1
42
  7
SLDTEXTSTYLE1
 73
     1
 44
1.0
  0
MTEXT
  5
1F9
330
1F
100
AcDbEntity
  8
TITLE
100
AcDbMText
 10
8.580159804
 20
119.7472007792
 30
0.0
 40
0.125
 41
0.0
 71
     2
 72
     1
  1
42
  7
SLDTEXTSTYLE1
 73
     1
 44
1.0
  0
MTEXT
  5
1FA
330
1F
100
AcDbEntity
  8
TITLE
100
AcDbMText
 10
10.548663741
 20
0.4125551099
 30
0.0
 40
0.125
 41
0.0
 71
     2
 72
     1
  1
41
  7
SLDTEXTSTYLE1
 73
     1
 44
1.0
  0
MTEXT
  5
1FB
330
1F
100
AcDbEntity
  8
TITLE
100
AcDbMText
 10
10.548663741
 20
119.7472007792
 30
0.0
 40
0.125
 41
0.0
 71
     2
 72
     1
  1
41
  7
SLDTEXTSTYLE1
 73
     1
 44
1.0
  0
MTEXT
  5
1FC
330
1F
100
AcDbEntity
  8
TITLE
100
AcDbMText
 10
12.517167678
 20
0.4125551099
 30
0.0
 40
0.125
 41
0.0
 71
     2
 72
     1
  1
40
  7
SLDTEXTSTYLE1
 73
     1
 44
1.0
  0
MTEXT
  5
1FD
330
1F
100
AcDbEntity
  8
TITLE
100
AcDbMText
 10
12.517167678
 20
119.7472007792
 30
0.0
 40
0.125
 41
0.0
 71
     2
 72
     1
  1
40
  7
SLDTEXTSTYLE1
 73
     1
 44
1.0
  0
MTEXT
  5
1FE
330
1F
100
AcDbEntity
  8
TITLE
100
AcDbMText
 10
14.485671615
 20
0.4125551099
 30
0.0
 40
0.125
 41
0.0
 71
     2
 72
     1
  1
39
  7
SLDTEXTSTYLE1
 73
     1
 44
1.0
  0
MTEXT
  5
1FF
330
1F
100
AcDbEntity
  8
TITLE
100
AcDbMText
 10
14.485671615
 20
119.7472007792
 30
0.0
 40
0.125
 41
0.0
 71
     2
 72
     1
  1
39
  7
SLDTEXTSTYLE1
 73
     1
 44
1.0
  0
MTEXT
  5
200
330
1F
100
AcDbEntity
  8
TITLE
100
AcDbMText
 10
16.454175552
 20
0.4125551099
 30
0.0
 40
0.125
 41
0.0
 71
     2
 72
     1
  1
38
  7
SLDTEXTSTYLE1
 73
     1
 44
1.0
  0
MTEXT
  5
201
330
1F
100
AcDbEntity
  8
TITLE
100
AcDbMText
 10
16.454175552
 20
119.7472007792
 30
0.0
 40
0.125
 41
0.0
 71
     2
 72
     1
  1
38
  7
SLDTEXTSTYLE1
 73
     1
 44
1.0
  0
MTEXT
  5
202
330
1F
100
AcDbEntity
  8
TITLE
100
AcDbMText
 10
18.422679489
 20
0.4125551099
 30
0.0
 40
0.125
 41
0.0
 71
     2
 72
     1
  1
37
  7
SLDTEXTSTYLE1
 73
     1
 44
1.0
  0
MTEXT
  5
203
330
1F
100
AcDbEntity
  8
TITLE
100
AcDbMText
 10
18.422679489
 20
119.7472007792
 30
0.0
 40
0.125
 41
0.0
 71
     2
 72
     1
  1
37
  7
SLDTEXTSTYLE1
 73
     1
 44
1.0
  0
MTEXT
  5
204
330
1F
100
AcDbEntity
  8
TITLE
100
AcDbMText
 10
20.391183426
 20
0.4125551099
 30
0.0
 40
0.125
 41
0.0
 71
     2
 72
     1
  1
36
  7
SLDTEXTSTYLE1
 73
     1
 44
1.0
  0
MTEXT
  5
205
330
1F
100
AcDbEntity
  8
TITLE
100
AcDbMText
 10
20.391183426
 20
119.7472007792
 30
0.0
 40
0.125
 41
0.0
 71
     2
 72
     1
  1
36
  7
SLDTEXTSTYLE1
 73
     1
 44
1.0
  0
MTEXT
  5
206
330
1F
100
AcDbEntity
  8
TITLE
100
AcDbMText
 10
22.359687363
 20
0.4125551099
 30
0.0
 40
0.125
 41
0.0
 71
     2
 72
     1
  1
35
  7
SLDTEXTSTYLE1
 73
     1
 44
1.0
  0
MTEXT
  5
207
330
1F
100
AcDbEntity
  8
TITLE
100
AcDbMText
 10
22.359687363
 20
119.7472007792
 30
0.0
 40
0.125
 41
0.0
 71
     2
 72
     1
  1
35
  7
SLDTEXTSTYLE1
 73
     1
 44
1.0
  0
MTEXT
  5
208
330
1F
100
AcDbEntity
  8
TITLE
100
AcDbMText
 10
24.3281913
 20
0.4125551099
 30
0.0
 40
0.125
 41
0.0
 71
     2
 72
     1
  1
34
  7
SLDTEXTSTYLE1
 73
     1
 44
1.0
  0
MTEXT
  5
209
330
1F
100
AcDbEntity
  8
TITLE
100
AcDbMText
 10
24.3281913
 20
119.7472007792
 30
0.0
 40
0.125
 41
0.0
 71
     2
 72
     1
  1
34
  7
SLDTEXTSTYLE1
 73
     1
 44
1.0
  0
MTEXT
  5
20A
330
1F
100
AcDbEntity
  8
TITLE
100
AcDbMText
 10
26.2966952371
 20
0.4125551099
 30
0.0
 40
0.125
 41
0.0
 71
     2
 72
     1
  1
33
  7
SLDTEXTSTYLE1
 73
     1
 44
1.0
  0
MTEXT
  5
20B
330
1F
100
AcDbEntity
  8
TITLE
100
AcDbMText
 10
26.2966952371
 20
119.7472007792
 30
0.0
 40
0.125
 41
0.0
 71
     2
 72
     1
  1
33
  7
SLDTEXTSTYLE1
 73
     1
 44
1.0
  0
MTEXT
  5
20C
330
1F
100
AcDbEntity
  8
TITLE
100
AcDbMText
 10
28.2651991741
 20
0.4125551099
 30
0.0
 40
0.125
 41
0.0
 71
     2
 72
     1
  1
32
  7
SLDTEXTSTYLE1
 73
     1
 44
1.0
  0
MTEXT
  5
20D
330
1F
100
AcDbEntity
  8
TITLE
100
AcDbMText
 10
28.2651991741
 20
119.7472007792
 30
0.0
 40
0.125
 41
0.0
 71
     2
 72
     1
  1
32
  7
SLDTEXTSTYLE1
 73
     1
 44
1.0
  0
MTEXT
  5
20E
330
1F
100
AcDbEntity
  8
TITLE
100
AcDbMText
 10
30.2337031111
 20
0.4125551099
 30
0.0
 40
0.125
 41
0.0
 71
     2
 72
     1
  1
31
  7
SLDTEXTSTYLE1
 73
     1
 44
1.0
  0
MTEXT
  5
20F
330
1F
100
AcDbEntity
  8
TITLE
100
AcDbMText
 10
30.2337031111
 20
119.7472007792
 30
0.0
 40
0.125
 41
0.0
 71
     2
 72
     1
  1
31
  7
SLDTEXTSTYLE1
 73
     1
 44
1.0
  0
MTEXT
  5
210
330
1F
100
AcDbEntity
  8
TITLE
100
AcDbMText
 10
32.2022070481
 20
0.4125551099
 30
0.0
 40
0.125
 41
0.0
 71
     2
 72
     1
  1
30
  7
SLDTEXTSTYLE1
 73
     1
 44
1.0
  0
MTEXT
  5
211
330
1F
100
AcDbEntity
  8
TITLE
100
AcDbMText
 10
32.2022070481
 20
119.7472007792
 30
0.0
 40
0.125
 41
0.0
 71
     2
 72
     1
  1
30
  7
SLDTEXTSTYLE1
 73
     1
 44
1.0
  0
MTEXT
  5
212
330
1F
100
AcDbEntity
  8
TITLE
100
AcDbMText
 10
34.1707109851
 20
0.4125551099
 30
0.0
 40
0.125
 41
0.0
 71
     2
 72
     1
  1
29
  7
SLDTEXTSTYLE1
 73
     1
 44
1.0
  0
MTEXT
  5
213
330
1F
100
AcDbEntity
  8
TITLE
100
AcDbMText
 10
34.1707109851
 20
119.7472007792
 30
0.0
 40
0.125
 41
0.0
 71
     2
 72
     1
  1
29
  7
SLDTEXTSTYLE1
 73
     1
 44
1.0
  0
MTEXT
  5
214
330
1F
100
AcDbEntity
  8
TITLE
100
AcDbMText
 10
36.1392149221
 20
0.4125551099
 30
0.0
 40
0.125
 41
0.0
 71
     2
 72
     1
  1
28
  7
SLDTEXTSTYLE1
 73
     1
 44
1.0
  0
MTEXT
  5
215
330
1F
100
AcDbEntity
  8
TITLE
100
AcDbMText
 10
36.1392149221
 20
119.7472007792
 30
0.0
 40
0.125
 41
0.0
 71
     2
 72
     1
  1
28
  7
SLDTEXTSTYLE1
 73
     1
 44
1.0
  0
MTEXT
  5
216
330
1F
100
AcDbEntity
  8
TITLE
100
AcDbMText
 10
38.1077188591
 20
0.4125551099
 30
0.0
 40
0.125
 41
0.0
 71
     2
 72
     1
  1
27
  7
SLDTEXTSTYLE1
 73
     1
 44
1.0
  0
MTEXT
  5
217
330
1F
100
AcDbEntity
  8
TITLE
100
AcDbMText
 10
38.1077188591
 20
119.7472007792
 30
0.0
 40
0.125
 41
0.0
 71
     2
 72
     1
  1
27
  7
SLDTEXTSTYLE1
 73
     1
 44
1.0
  0
MTEXT
  5
218
330
1F
100
AcDbEntity
  8
TITLE
100
AcDbMText
 10
40.0762227961
 20
0.4125551099
 30
0.0
 40
0.125
 41
0.0
 71
     2
 72
     1
  1
26
  7
SLDTEXTSTYLE1
 73
     1
 44
1.0
  0
MTEXT
  5
219
330
1F
100
AcDbEntity
  8
TITLE
100
AcDbMText
 10
40.0762227961
 20
119.7472007792
 30
0.0
 40
0.125
 41
0.0
 71
     2
 72
     1
  1
26
  7
SLDTEXTSTYLE1
 73
     1
 44
1.0
  0
MTEXT
  5
21A
330
1F
100
AcDbEntity
  8
TITLE
100
AcDbMText
 10
42.0447267331
 20
0.4125551099
 30
0.0
 40
0.125
 41
0.0
 71
     2
 72
     1
  1
25
  7
SLDTEXTSTYLE1
 73
     1
 44
1.0
  0
MTEXT
  5
21B
330
1F
100
AcDbEntity
  8
TITLE
100
AcDbMText
 10
42.0447267331
 20
119.7472007792
 30
0.0
 40
0.125
 41
0.0
 71
     2
 72
     1
  1
25
  7
SLDTEXTSTYLE1
 73
     1
 44
1.0
  0
MTEXT
  5
21C
330
1F
100
AcDbEntity
  8
TITLE
100
AcDbMText
 10
44.0132306701
 20
0.4125551099
 30
0.0
 40
0.125
 41
0.0
 71
     2
 72
     1
  1
24
  7
SLDTEXTSTYLE1
 73
     1
 44
1.0
  0
MTEXT
  5
21D
330
1F
100
AcDbEntity
  8
TITLE
100
AcDbMText
 10
44.0132306701
 20
119.7472007792
 30
0.0
 40
0.125
 41
0.0
 71
     2
 72
     1
  1
24
  7
SLDTEXTSTYLE1
 73
     1
 44
1.0
  0
MTEXT
  5
21E
330
1F
100
AcDbEntity
  8
TITLE
100
AcDbMText
 10
45.9817346071
 20
0.4125551099
 30
0.0
 40
0.125
 41
0.0
 71
     2
 72
     1
  1
23
  7
SLDTEXTSTYLE1
 73
     1
 44
1.0
  0
MTEXT
  5
21F
330
1F
100
AcDbEntity
  8
TITLE
100
AcDbMText
 10
45.9817346071
 20
119.7472007792
 30
0.0
 40
0.125
 41
0.0
 71
     2
 72
     1
  1
23
  7
SLDTEXTSTYLE1
 73
     1
 44
1.0
  0
MTEXT
  5
220
330
1F
100
AcDbEntity
  8
TITLE
100
AcDbMText
 10
47.9502385441
 20
0.4125551099
 30
0.0
 40
0.125
 41
0.0
 71
     2
 72
     1
  1
22
  7
SLDTEXTSTYLE1
 73
     1
 44
1.0
  0
MTEXT
  5
221
330
1F
100
AcDbEntity
  8
TITLE
100
AcDbMText
 10
47.9502385441
 20
119.7472007792
 30
0.0
 40
0.125
 41
0.0
 71
     2
 72
     1
  1
22
  7
SLDTEXTSTYLE1
 73
     1
 44
1.0
  0
MTEXT
  5
222
330
1F
100
AcDbEntity
  8
TITLE
100
AcDbMText
 10
49.9187424811
 20
0.4125551099
 30
0.0
 40
0.125
 41
0.0
 71
     2
 72
     1
  1
21
  7
SLDTEXTSTYLE1
 73
     1
 44
1.0
  0
MTEXT
  5
223
330
1F
100
AcDbEntity
  8
TITLE
100
AcDbMText
 10
49.9187424811
 20
119.7472007792
 30
0.0
 40
0.125
 41
0.0
 71
     2
 72
     1
  1
21
  7
SLDTEXTSTYLE1
 73
     1
 44
1.0
  0
MTEXT
  5
224
330
1F
100
AcDbEntity
  8
TITLE
100
AcDbMText
 10
51.8872464182
 20
0.4125551099
 30
0.0
 40
0.125
 41
0.0
 71
     2
 72
     1
  1
20
  7
SLDTEXTSTYLE1
 73
     1
 44
1.0
  0
MTEXT
  5
225
330
1F
100
AcDbEntity
  8
TITLE
100
AcDbMText
 10
51.8872464182
 20
119.7472007792
 30
0.0
 40
0.125
 41
0.0
 71
     2
 72
     1
  1
20
  7
SLDTEXTSTYLE1
 73
     1
 44
1.0
  0
MTEXT
  5
226
330
1F
100
AcDbEntity
  8
TITLE
100
AcDbMText
 10
53.8557503552
 20
0.4125551099
 30
0.0
 40
0.125
 41
0.0
 71
     2
 72
     1
  1
19
  7
SLDTEXTSTYLE1
 73
     1
 44
1.0
  0
MTEXT
  5
227
330
1F
100
AcDbEntity
  8
TITLE
100
AcDbMText
 10
53.8557503552
 20
119.7472007792
 30
0.0
 40
0.125
 41
0.0
 71
     2
 72
     1
  1
19
  7
SLDTEXTSTYLE1
 73
     1
 44
1.0
  0
MTEXT
  5
228
330
1F
100
AcDbEntity
  8
TITLE
100
AcDbMText
 10
55.8242542922
 20
0.4125551099
 30
0.0
 40
0.125
 41
0.0
 71
     2
 72
     1
  1
18
  7
SLDTEXTSTYLE1
 73
     1
 44
1.0
  0
MTEXT
  5
229
330
1F
100
AcDbEntity
  8
TITLE
100
AcDbMText
 10
55.8242542922
 20
119.7472007792
 30
0.0
 40
0.125
 41
0.0
 71
     2
 72
     1
  1
18
  7
SLDTEXTSTYLE1
 73
     1
 44
1.0
  0
MTEXT
  5
22A
330
1F
100
AcDbEntity
  8
TITLE
100
AcDbMText
 10
57.7927582292
 20
0.4125551099
 30
0.0
 40
0.125
 41
0.0
 71
     2
 72
     1
  1
17
  7
SLDTEXTSTYLE1
 73
     1
 44
1.0
  0
MTEXT
  5
22B
330
1F
100
AcDbEntity
  8
TITLE
100
AcDbMText
 10
57.7927582292
 20
119.7472007792
 30
0.0
 40
0.125
 41
0.0
 71
     2
 72
     1
  1
17
  7
SLDTEXTSTYLE1
 73
     1
 44
1.0
  0
MTEXT
  5
22C
330
1F
100
AcDbEntity
  8
TITLE
100
AcDbMText
 10
59.7612621662
 20
0.4125551099
 30
0.0
 40
0.125
 41
0.0
 71
     2
 72
     1
  1
16
  7
SLDTEXTSTYLE1
 73
     1
 44
1.0
  0
MTEXT
  5
22D
330
1F
100
AcDbEntity
  8
TITLE
100
AcDbMText
 10
59.7612621662
 20
119.7472007792
 30
0.0
 40
0.125
 41
0.0
 71
     2
 72
     1
  1
16
  7
SLDTEXTSTYLE1
 73
     1
 44
1.0
  0
MTEXT
  5
22E
330
1F
100
AcDbEntity
  8
TITLE
100
AcDbMText
 10
61.7297661032
 20
0.4125551099
 30
0.0
 40
0.125
 41
0.0
 71
     2
 72
     1
  1
15
  7
SLDTEXTSTYLE1
 73
     1
 44
1.0
  0
MTEXT
  5
22F
330
1F
100
AcDbEntity
  8
TITLE
100
AcDbMText
 10
61.7297661032
 20
119.7472007792
 30
0.0
 40
0.125
 41
0.0
 71
     2
 72
     1
  1
15
  7
SLDTEXTSTYLE1
 73
     1
 44
1.0
  0
MTEXT
  5
230
330
1F
100
AcDbEntity
  8
TITLE
100
AcDbMText
 10
63.6982700402
 20
0.4125551099
 30
0.0
 40
0.125
 41
0.0
 71
     2
 72
     1
  1
14
  7
SLDTEXTSTYLE1
 73
     1
 44
1.0
  0
MTEXT
  5
231
330
1F
100
AcDbEntity
  8
TITLE
100
AcDbMText
 10
63.6982700402
 20
119.7472007792
 30
0.0
 40
0.125
 41
0.0
 71
     2
 72
     1
  1
14
  7
SLDTEXTSTYLE1
 73
     1
 44
1.0
  0
MTEXT
  5
232
330
1F
100
AcDbEntity
  8
TITLE
100
AcDbMText
 10
65.6667739772
 20
0.4125551099
 30
0.0
 40
0.125
 41
0.0
 71
     2
 72
     1
  1
13
  7
SLDTEXTSTYLE1
 73
     1
 44
1.0
  0
MTEXT
  5
233
330
1F
100
AcDbEntity
  8
TITLE
100
AcDbMText
 10
65.6667739772
 20
119.7472007792
 30
0.0
 40
0.125
 41
0.0
 71
     2
 72
     1
  1
13
  7
SLDTEXTSTYLE1
 73
     1
 44
1.0
  0
MTEXT
  5
234
330
1F
100
AcDbEntity
  8
TITLE
100
AcDbMText
 10
67.6352779142
 20
0.4125551099
 30
0.0
 40
0.125
 41
0.0
 71
     2
 72
     1
  1
12
  7
SLDTEXTSTYLE1
 73
     1
 44
1.0
  0
MTEXT
  5
235
330
1F
100
AcDbEntity
  8
TITLE
100
AcDbMText
 10
67.6352779142
 20
119.7472007792
 30
0.0
 40
0.125
 41
0.0
 71
     2
 72
     1
  1
12
  7
SLDTEXTSTYLE1
 73
     1
 44
1.0
  0
MTEXT
  5
236
330
1F
100
AcDbEntity
  8
TITLE
100
AcDbMText
 10
69.6037818512
 20
0.4125551099
 30
0.0
 40
0.125
 41
0.0
 71
     2
 72
     1
  1
11
  7
SLDTEXTSTYLE1
 73
     1
 44
1.0
  0
MTEXT
  5
237
330
1F
100
AcDbEntity
  8
TITLE
100
AcDbMText
 10
69.6037818512
 20
119.7472007792
 30
0.0
 40
0.125
 41
0.0
 71
     2
 72
     1
  1
11
  7
SLDTEXTSTYLE1
 73
     1
 44
1.0
  0
MTEXT
  5
238
330
1F
100
AcDbEntity
  8
TITLE
100
AcDbMText
 10
71.5722857882
 20
0.4125551099
 30
0.0
 40
0.125
 41
0.0
 71
     2
 72
     1
  1
10
  7
SLDTEXTSTYLE1
 73
     1
 44
1.0
  0
MTEXT
  5
239
330
1F
100
AcDbEntity
  8
TITLE
100
AcDbMText
 10
71.5722857882
 20
119.7472007792
 30
0.0
 40
0.125
 41
0.0
 71
     2
 72
     1
  1
10
  7
SLDTEXTSTYLE1
 73
     1
 44
1.0
  0
MTEXT
  5
23A
330
1F
100
AcDbEntity
  8
TITLE
100
AcDbMText
 10
73.5420484059
 20
0.4125551099
 30
0.0
 40
0.125
 41
0.0
 71
     2
 72
     1
  1
9
  7
SLDTEXTSTYLE1
 73
     1
 44
1.0
  0
MTEXT
  5
23B
330
1F
100
AcDbEntity
  8
TITLE
100
AcDbMText
 10
73.5420484059
 20
119.7472007792
 30
0.0
 40
0.125
 41
0.0
 71
     2
 72
     1
  1
9
  7
SLDTEXTSTYLE1
 73
     1
 44
1.0
  0
MTEXT
  5
23C
330
1F
100
AcDbEntity
  8
TITLE
100
AcDbMText
 10
75.5105523429
 20
0.4125551099
 30
0.0
 40
0.125
 41
0.0
 71
     2
 72
     1
  1
8
  7
SLDTEXTSTYLE1
 73
     1
 44
1.0
  0
MTEXT
  5
23D
330
1F
100
AcDbEntity
  8
TITLE
100
AcDbMText
 10
75.5105523429
 20
119.7472007792
 30
0.0
 40
0.125
 41
0.0
 71
     2
 72
     1
  1
8
  7
SLDTEXTSTYLE1
 73
     1
 44
1.0
  0
MTEXT
  5
23E
330
1F
100
AcDbEntity
  8
TITLE
100
AcDbMText
 10
77.4790562799
 20
0.4125551099
 30
0.0
 40
0.125
 41
0.0
 71
     2
 72
     1
  1
7
  7
SLDTEXTSTYLE1
 73
     1
 44
1.0
  0
MTEXT
  5
23F
330
1F
100
AcDbEntity
  8
TITLE
100
AcDbMText
 10
77.4790562799
 20
119.7472007792
 30
0.0
 40
0.125
 41
0.0
 71
     2
 72
     1
  1
7
  7
SLDTEXTSTYLE1
 73
     1
 44
1.0
  0
MTEXT
  5
240
330
1F
100
AcDbEntity
  8
TITLE
100
AcDbMText
 10
79.447560217
 20
0.4125551099
 30
0.0
 40
0.125
 41
0.0
 71
     2
 72
     1
  1
6
  7
SLDTEXTSTYLE1
 73
     1
 44
1.0
  0
MTEXT
  5
241
330
1F
100
AcDbEntity
  8
TITLE
100
AcDbMText
 10
79.447560217
 20
119.7472007792
 30
0.0
 40
0.125
 41
0.0
 71
     2
 72
     1
  1
6
  7
SLDTEXTSTYLE1
 73
     1
 44
1.0
  0
MTEXT
  5
242
330
1F
100
AcDbEntity
  8
TITLE
100
AcDbMText
 10
81.416064154
 20
0.4125551099
 30
0.0
 40
0.125
 41
0.0
 71
     2
 72
     1
  1
5
  7
SLDTEXTSTYLE1
 73
     1
 44
1.0
  0
MTEXT
  5
243
330
1F
100
AcDbEntity
  8
TITLE
100
AcDbMText
 10
81.416064154
 20
119.7472007792
 30
0.0
 40
0.125
 41
0.0
 71
     2
 72
     1
  1
5
  7
SLDTEXTSTYLE1
 73
     1
 44
1.0
  0
MTEXT
  5
244
330
1F
100
AcDbEntity
  8
TITLE
100
AcDbMText
 10
83.384568091
 20
0.4125551099
 30
0.0
 40
0.125
 41
0.0
 71
     2
 72
     1
  1
4
  7
SLDTEXTSTYLE1
 73
     1
 44
1.0
  0
MTEXT
  5
245
330
1F
100
AcDbEntity
  8
TITLE
100
AcDbMText
 10
83.384568091
 20
119.7472007792
 30
0.0
 40
0.125
 41
0.0
 71
     2
 72
     1
  1
4
  7
SLDTEXTSTYLE1
 73
     1
 44
1.0
  0
MTEXT
  5
246
330
1F
100
AcDbEntity
  8
TITLE
100
AcDbMText
 10
85.353072028
 20
0.4125551099
 30
0.0
 40
0.125
 41
0.0
 71
     2
 72
     1
  1
3
  7
SLDTEXTSTYLE1
 73
     1
 44
1.0
  0
MTEXT
  5
247
330
1F
100
AcDbEntity
  8
TITLE
100
AcDbMText
 10
85.353072028
 20
119.7472007792
 30
0.0
 40
0.125
 41
0.0
 71
     2
 72
     1
  1
3
  7
SLDTEXTSTYLE1
 73
     1
 44
1.0
  0
MTEXT
  5
248
330
1F
100
AcDbEntity
  8
TITLE
100
AcDbMText
 10
87.321575965
 20
0.4125551099
 30
0.0
 40
0.125
 41
0.0
 71
     2
 72
     1
  1
2
  7
SLDTEXTSTYLE1
 73
     1
 44
1.0
  0
MTEXT
  5
249
330
1F
100
AcDbEntity
  8
TITLE
100
AcDbMText
 10
87.321575965
 20
119.7472007792
 30
0.0
 40
0.125
 41
0.0
 71
     2
 72
     1
  1
2
  7
SLDTEXTSTYLE1
 73
     1
 44
1.0
  0
MTEXT
  5
24A
330
1F
100
AcDbEntity
  8
TITLE
100
AcDbMText
 10
88.9022846264
 20
0.4125551099
 30
0.0
 40
0.125
 41
0.0
 71
     2
 72
     1
  1
1
  7
SLDTEXTSTYLE1
 73
     1
 44
1.0
  0
MTEXT
  5
24B
330
1F
100
AcDbEntity
  8
TITLE
100
AcDbMText
 10
88.9022846264
 20
119.7472007792
 30
0.0
 40
0.125
 41
0.0
 71
     2
 72
     1
  1
1
  7
SLDTEXTSTYLE1
 73
     1
 44
1.0
  0
LINE
  5
24C
330
1F
100
AcDbEntity
  8
0
  6
SLD-Solid
 62
     7
370
    25
100
AcDbLine
 10
68.8808836225
 20
24.1366951932
 30
0.0
 11
9.9928836225
 21
24.1366951932
 31
0.0
  0
LINE
  5
24D
330
1F
100
AcDbEntity
  8
0
  6
SLD-Solid
 62
     7
370
    25
100
AcDbLine
 10
9.9928836225
 20
22.8826951932
 30
0.0
 11
68.8808836225
 21
22.8826951932
 31
0.0
  0
ARC
  5
24E
330
1F
100
AcDbEntity
  8
0
  6
SLD-Solid
 62
     7
370
    25
100
AcDbCircle
 10
9.8928836225
 20
24.9096951932
 30
0.0
 40
0.1000000000000014
100
AcDbArc
 50
360.0
 51
90.0
  0
ARC
  5
24F
330
1F
100
AcDbEntity
  8
0
  6
SLD-Solid
 62
     7
370
    25
100
AcDbCircle
 10
9.8928836225
 20
22.1096951932
 30
0.0
 40
0.1000000000000014
100
AcDbArc
 50
270.0
 51
0.0
  0
LINE
  5
250
330
1F
100
AcDbEntity
  8
0
  6
SLD-Solid
 62
     7
370
    25
100
AcDbLine
 10
9.4368836225
 20
22.0096951932
 30
0.0
 11
9.8928836225
 21
22.0096951932
 31
0.0
  0
LINE
  5
251
330
1F
100
AcDbEntity
  8
0
  6
SLD-Solid
 62
     7
370
    25
100
AcDbLine
 10
9.8928836225
 20
25.0096951932
 30
0.0
 11
9.4368836225
 21
25.0096951932
 31
0.0
  0
ARC
  5
252
330
1F
100
AcDbEntity
  8
0
  6
SLD-Solid
 62
     7
370
    25
100
AcDbCircle
 10
68.9808836225
 20
22.1096951932
 30
0.0
 40
0.0999999999999979
100
AcDbArc
 50
180.0
 51
270.0
  0
ARC
  5
253
330
1F
100
AcDbEntity
  8
0
  6
SLD-Solid
 62
     7
370
    25
100
AcDbCircle
 10
68.9808836225
 20
24.9096951932
 30
0.0
 40
0.0999999999999979
100
AcDbArc
 50
90.0
 51
180.0
  0
LINE
  5
254
330
1F
100
AcDbEntity
  8
0
  6
SLD-Solid
 62
     7
370
    25
100
AcDbLine
 10
69.4368836225
 20
25.0096951932
 30
0.0
 11
68.9808836225
 21
25.0096951932
 31
0.0
  0
LINE
  5
255
330
1F
100
AcDbEntity
  8
0
  6
SLD-Solid
 62
     7
370
    25
100
AcDbLine
 10
68.9808836225
 20
22.0096951932
 30
0.0
 11
69.4368836225
 21
22.0096951932
 31
0.0
  0
LINE
  5
256
330
1F
100
AcDbEntity
  8
0
  6
SLD-Solid
 62
     7
370
    25
100
AcDbLine
 10
69.4368836225
 20
22.3726951932
 30
0.0
 11
70.3838163073
 21
22.3726951932
 31
0.0
  0
LINE
  5
257
330
1F
100
AcDbEntity
  8
0
  6
SLD-Solid
 62
     7
370
    25
100
AcDbLine
 10
70.3838163073
 20
22.5226951932
 30
0.0
 11
69.4368836225
 21
22.5226951932
 31
0.0
  0
LINE
  5
258
330
1F
100
AcDbEntity
  8
0
  6
SLD-Solid
 62
     7
370
    25
100
AcDbLine
 10
70.3838163073
 20
22.3726951932
 30
0.0
 11
70.4838163073
 21
22.4071279545
 31
0.0
  0
LINE
  5
259
330
1F
100
AcDbEntity
  8
0
  6
SLD-Solid
 62
     7
370
    25
100
AcDbLine
 10
70.4838163073
 20
22.4882624318
 30
0.0
 11
70.3838163073
 21
22.5226951932
 31
0.0
  0
LINE
  5
25A
330
1F
100
AcDbEntity
  8
0
  6
SLD-Solid
 62
     7
370
    25
100
AcDbLine
 10
69.4368836225
 20
24.4966951932
 30
0.0
 11
70.3838163073
 21
24.4966951932
 31
0.0
  0
LINE
  5
25B
330
1F
100
AcDbEntity
  8
0
  6
SLD-Solid
 62
     7
370
    25
100
AcDbLine
 10
70.3838163073
 20
24.6466951932
 30
0.0
 11
69.4368836225
 21
24.6466951932
 31
0.0
  0
LINE
  5
25C
330
1F
100
AcDbEntity
  8
0
  6
SLD-Solid
 62
     7
370
    25
100
AcDbLine
 10
70.3838163073
 20
24.4966951932
 30
0.0
 11
70.4838163073
 21
24.5311279545
 31
0.0
  0
LINE
  5
25D
330
1F
100
AcDbEntity
  8
0
  6
SLD-Solid
 62
     7
370
    25
100
AcDbLine
 10
70.4838163073
 20
24.6122624318
 30
0.0
 11
70.3838163073
 21
24.6466951932
 31
0.0
  0
LINE
  5
25E
330
1F
100
AcDbEntity
  8
0
  6
SLD-Solid
 62
     7
370
    25
100
AcDbLine
 10
9.4368836225
 20
22.5226951932
 30
0.0
 11
8.4899509376
 21
22.5226951932
 31
0.0
  0
LINE
  5
25F
330
1F
100
AcDbEntity
  8
0
  6
SLD-Solid
 62
     7
370
    25
100
AcDbLine
 10
8.4899509376
 20
22.3726951932
 30
0.0
 11
9.4368836225
 21
22.3726951932
 31
0.0
  0
LINE
  5
260
330
1F
100
AcDbEntity
  8
0
  6
SLD-Solid
 62
     7
370
    25
100
AcDbLine
 10
8.4899509376
 20
22.5226951932
 30
0.0
 11
8.3899509376
 21
22.4882624318
 31
0.0
  0
LINE
  5
261
330
1F
100
AcDbEntity
  8
0
  6
SLD-Solid
 62
     7
370
    25
100
AcDbLine
 10
8.3899509376
 20
22.4071279545
 30
0.0
 11
8.4899509376
 21
22.3726951932
 31
0.0
  0
LINE
  5
262
330
1F
100
AcDbEntity
  8
0
  6
SLD-Solid
 62
     7
370
    25
100
AcDbLine
 10
9.4368836225
 20
24.6466951932
 30
0.0
 11
8.4899509376
 21
24.6466951932
 31
0.0
  0
LINE
  5
263
330
1F
100
AcDbEntity
  8
0
  6
SLD-Solid
 62
     7
370
    25
100
AcDbLine
 10
8.4899509376
 20
24.4966951932
 30
0.0
 11
9.4368836225
 21
24.4966951932
 31
0.0
  0
LINE
  5
264
330
1F
100
AcDbEntity
  8
0
  6
SLD-Solid
 62
     7
370
    25
100
AcDbLine
 10
8.4899509376
 20
24.6466951932
 30
0.0
 11
8.3899509376
 21
24.6122624318
 31
0.0
  0
LINE
  5
265
330
1F
100
AcDbEntity
  8
0
  6
SLD-Solid
 62
     7
370
    25
100
AcDbLine
 10
8.3899509376
 20
24.5311279545
 30
0.0
 11
8.4899509376
 21
24.4966951932
 31
0.0
  0
LINE
  5
266
330
1F
100
AcDbEntity
  8
0
  6
SLD-Solid
 62
     7
370
    25
100
AcDbLine
 10
9.9928836225
 20
24.9096951932
 30
0.0
 11
9.9928836225
 21
22.1096951958
 31
0.0
  0
LINE
  5
267
330
1F
100
AcDbEntity
  8
0
  6
SLD-Solid
 62
     7
370
    25
100
AcDbLine
 10
9.4368836225
 20
25.0096951932
 30
0.0
 11
9.4368836225
 21
22.0096951932
 31
0.0
  0
LINE
  5
268
330
1F
100
AcDbEntity
  8
0
  6
SLD-Solid
 62
     7
370
    25
100
AcDbLine
 10
68.8808836225
 20
22.1096951932
 30
0.0
 11
68.8808836225
 21
24.9096951905
 31
0.0
  0
LINE
  5
269
330
1F
100
AcDbEntity
  8
0
  6
SLD-Solid
 62
     7
370
    25
100
AcDbLine
 10
69.4368836225
 20
22.0096951932
 30
0.0
 11
69.4368836225
 21
25.0096951932
 31
0.0
  0
LINE
  5
26A
330
1F
100
AcDbEntity
  8
0
  6
SLD-Solid
 62
     7
370
    25
100
AcDbLine
 10
70.3838163073
 20
22.3726951932
 30
0.0
 11
70.3838163073
 21
22.5226951932
 31
0.0
  0
LINE
  5
26B
330
1F
100
AcDbEntity
  8
0
  6
SLD-Solid
 62
     7
370
    25
100
AcDbLine
 10
70.4838163073
 20
22.4882624318
 30
0.0
 11
70.4838163073
 21
22.4071279545
 31
0.0
  0
LINE
  5
26C
330
1F
100
AcDbEntity
  8
0
  6
SLD-Solid
 62
     7
370
    25
100
AcDbLine
 10
70.3838163073
 20
24.4966951932
 30
0.0
 11
70.3838163073
 21
24.6466951932
 31
0.0
  0
LINE
  5
26D
330
1F
100
AcDbEntity
  8
0
  6
SLD-Solid
 62
     7
370
    25
100
AcDbLine
 10
70.4838163073
 20
24.6122624318
 30
0.0
 11
70.4838163073
 21
24.5311279545
 31
0.0
  0
LINE
  5
26E
330
1F
100
AcDbEntity
  8
0
  6
SLD-Solid
 62
     7
370
    25
100
AcDbLine
 10
8.4899509376
 20
22.4638254751
 30
0.0
 11
8.4899509376
 21
22.3726951932
 31
0.0
  0
LINE
  5
26F
330
1F
100
AcDbEntity
  8
0
  6
SLD-Solid
 62
     7
370
    25
100
AcDbLine
 10
8.4899509376
 20
22.5226951932
 30
0.0
 11
8.4899509376
 21
22.4638254751
 31
0.0
  0
LINE
  5
270
330
1F
100
AcDbEntity
  8
0
  6
SLD-Solid
 62
     7
370
    25
100
AcDbLine
 10
8.3899509376
 20
22.4564200065
 30
0.0
 11
8.3899509376
 21
22.4882624318
 31
0.0
  0
LINE
  5
271
330
1F
100
AcDbEntity
  8
0
  6
SLD-Solid
 62
     7
370
    25
100
AcDbLine
 10
8.3899509376
 20
22.4071279545
 30
0.0
 11
8.3899509376
 21
22.4564200065
 31
0.0
  0
LINE
  5
272
330
1F
100
AcDbEntity
  8
0
  6
SLD-Solid
 62
     7
370
    25
100
AcDbLine
 10
8.4899509376
 20
24.60200731
 30
0.0
 11
8.4899509376
 21
24.4966951932
 31
0.0
  0
LINE
  5
273
330
1F
100
AcDbEntity
  8
0
  6
SLD-Solid
 62
     7
370
    25
100
AcDbLine
 10
8.4899509376
 20
24.6466951932
 30
0.0
 11
8.4899509376
 21
24.60200731
 31
0.0
  0
LINE
  5
274
330
1F
100
AcDbEntity
  8
0
  6
SLD-Solid
 62
     7
370
    25
100
AcDbLine
 10
8.3899509376
 20
24.5880909115
 30
0.0
 11
8.3899509376
 21
24.6122624318
 31
0.0
  0
LINE
  5
275
330
1F
100
AcDbEntity
  8
0
  6
SLD-Solid
 62
     7
370
    25
100
AcDbLine
 10
8.3899509376
 20
24.5311279545
 30
0.0
 11
8.3899509376
 21
24.5880909115
 31
0.0
  0
DIMENSION
  5
276
330
1F
100
AcDbEntity
  8
DIMS
100
AcDbDimension
  2
_D
 10
9.4368836225
 20
27.2931597601
 30
0.0
 11
40.2522145697
 21
27.2931597601
 31
0.0
 70
   160
  1
<>
 71
     2
 42
-1.0
  3
SLDDIMSTYLE0
100
AcDbAlignedDimension
 13
69.4368836225
 23
24.1366951932
 33
0.0
 14
9.4368836225
 24
24.1366951932
 34
0.0
100
AcDbRotatedDimension
  0
DIMENSION
  5
288
330
1F
100
AcDbEntity
  8
DIMS
100
AcDbDimension
  2
_D_1
 10
65.9549056719
 20
22.8826951932
 30
0.0
 11
65.9549056719
 21
25.4033959806
 31
0.0
 70
   160
  1
%%c<>
 71
     2
 42
-1.0
  3
SLDDIMSTYLE1
100
AcDbAlignedDimension
 13
69.4368836225
 23
24.1366951932
 33
0.0
 14
69.4368836225
 24
22.8826951932
 34
0.0
 50
90.0
100
AcDbRotatedDimension
  0
DIMENSION
  5
298
330
1F
100
AcDbEntity
  8
DIMS
100
AcDbDimension
  2
_D_2
 10
68.8808836225
 20
26.1120573979
 30
0.0
 11
67.4548087746
 21
26.1120573979
 31
0.0
 70
   160
  1
<>
 71
     2
 42
-1.0
  3
SLDDIMSTYLE1
100
AcDbAlignedDimension
 13
69.4368836225
 23
25.0096951932
 33
0.0
 14
68.8808836225
 24
24.9096951932
 34
0.0
100
AcDbRotatedDimension
  0
MTEXT
  5
2A6
330
1F
100
AcDbEntity
  8
NOTES
100
AcDbMText
 10
8.648572305
 20
21.1921770852
 30
0.0
 40
0.5
 41
0.0
 71
     1
 72
     1
  1
Front view
  7
SLDTEXTSTYLE1
 73
     1
 44
1.0
  0
CIRCLE
  5
2A7
330
1F
100
AcDbEntity
  8
0
  6
SLD-Solid
 62
     7
370
    25
100
AcDbCircle
 10
75.1245282405
 20
23.5096951932
 30
0.0
 40
0.585000000000008
  0
CIRCLE
  5
2A8
330
1F
100
AcDbEntity
  8
0
  6
SLD-Solid
 62
     7
370
    25
100
AcDbCircle
 10
75.1245282405
 20
23.5096951932
 30
0.0
 40
0.6270000000000095
  0
CIRCLE
  5
2A9
330
1F
100
AcDbEntity
  8
0
  6
SLD-Solid
 62
     7
370
    25
100
AcDbCircle
 10
75.1245282405
 20
23.5096951932
 30
0.0
 40
1.5
  0
CIRCLE
  5
2AA
330
1F
100
AcDbEntity
  8
0
  6
SLD-Solid
 62
     7
370
    25
100
AcDbCircle
 10
75.1245282405
 20
23.5096951932
 30
0.0
 40
1.450000000000003
  0
CIRCLE
  5
2AB
330
1F
100
AcDbEntity
  8
0
  6
SLD-Solid
 62
     7
370
    25
100
AcDbCircle
 10
75.1245282405
 20
22.4476951932
 30
0.0
 40
0.1119999999999983
  0
CIRCLE
  5
2AC
330
1F
100
AcDbEntity
  8
0
  6
SLD-Solid
 62
     7
370
    25
100
AcDbCircle
 10
75.1245282405
 20
22.4476951932
 30
0.0
 40
0.1782506496674436
  0
CIRCLE
  5
2AD
330
1F
100
AcDbEntity
  8
0
  6
SLD-Solid
 62
     7
370
    25
100
AcDbCircle
 10
75.1245282405
 20
22.4476951932
 30
0.0
 40
0.3042972266507888
  0
CIRCLE
  5
2AE
330
1F
100
AcDbEntity
  8
0
  6
SLD-Solid
 62
     7
370
    25
100
AcDbCircle
 10
75.1245282405
 20
24.5716951932
 30
0.0
 40
0.1782506496674401
  0
CIRCLE
  5
2AF
330
1F
100
AcDbEntity
  8
0
  6
SLD-Solid
 62
     7
370
    25
100
AcDbCircle
 10
75.1245282405
 20
24.5716951932
 30
0.0
 40
0.1120000000000019
  0
CIRCLE
  5
2B0
330
1F
100
AcDbEntity
  8
0
  6
SLD-Solid
 62
     7
370
    25
100
AcDbCircle
 10
75.1245282405
 20
24.5716951932
 30
0.0
 40
0.3042972266507888
  0
CIRCLE
  5
2B1
330
1F
100
AcDbEntity
  8
0
  6
SLD-Solid
 62
     7
370
    25
100
AcDbCircle
 10
75.1245282405
 20
23.5096951932
 30
0.0
 40
0.6425000000000018
  0
CIRCLE
  5
2B2
330
1F
100
AcDbEntity
  8
0
  6
SLD-Solid
 62
     7
370
    25
100
AcDbCircle
 10
75.1245282405
 20
24.5716951932
 30
0.0
 40
0.0405672386710253
  0
CIRCLE
  5
2B3
330
1F
100
AcDbEntity
  8
0
  6
SLD-Solid
 62
     7
370
    25
100
AcDbCircle
 10
75.1245282405
 20
24.5716951932
 30
0.0
 40
0.0750000000000053
  0
CIRCLE
  5
2B4
330
1F
100
AcDbEntity
  8
0
  6
SLD-Solid
 62
     7
370
    25
100
AcDbCircle
 10
75.1245282405
 20
24.5716951932
 30
0.0
 40
0.0833720538100027
  0
CIRCLE
  5
2B5
330
1F
100
AcDbEntity
  8
0
  6
SLD-Solid
 62
     7
370
    25
100
AcDbCircle
 10
75.1245282405
 20
22.4476951932
 30
0.0
 40
0.0405672386710286
  0
CIRCLE
  5
2B6
330
1F
100
AcDbEntity
  8
0
  6
SLD-Solid
 62
     7
370
    25
100
AcDbCircle
 10
75.1245282405
 20
22.4476951932
 30
0.0
 40
0.0750000000000014
  0
CIRCLE
  5
2B7
330
1F
100
AcDbEntity
  8
0
  6
SLD-Solid
 62
     7
370
    25
100
AcDbCircle
 10
75.1245282405
 20
22.4476951932
 30
0.0
 40
0.083372053809996
  0
DIMENSION
  5
2B8
330
1F
100
AcDbEntity
  8
DIMS
100
AcDbDimension
  2
_D_3
 10
75.8745282405
 20
22.2106570875
 30
0.0
 11
72.629371982
 21
26.1602141143
 31
0.0
 70
   163
  1
<>
 71
     1
 42
-1.0
  3
SLDDIMSTYLE2
100
AcDbDiametricDimension
 15
74.3745282405
 25
24.8087332988
 35
0.0
 40
0.0
  0
DIMENSION
  5
2C2
330
1F
100
AcDbEntity
  8
DIMS
100
AcDbDimension
  2
_D_4
 10
78.687723053
 20
22.4476951932
 30
0.0
 11
78.687723053
 21
23.4572097175
 31
0.0
 70
   160
  1
<>
 71
     2
 42
-1.0
  3
SLDDIMSTYLE3
100
AcDbAlignedDimension
 13
75.1245282405
 23
24.5716951932
 33
0.0
 14
75.1245282405
 24
22.4476951932
 34
0.0
 50
90.0
100
AcDbRotatedDimension
  0
MTEXT
  5
2D2
330
1F
100
AcDbEntity
  8
NOTES
100
AcDbMText
 10
74.0124589165
 20
21.3722013339
 30
0.0
 40
0.5
 41
0.0
 71
     1
 72
     1
  1
Side view
  7
SLDTEXTSTYLE1
 73
     1
 44
1.0
  0
LINE
  5
2D3
330
1F
100
AcDbEntity
  8
0
  6
SLD-Solid
 62
     7
370
    25
100
AcDbLine
 10
66.6270097565
 20
32.7878898015
 30
0.0
 11
66.1253431537
 21
32.9242320348
 31
0.0
  0
LINE
  5
2D4
330
1F
100
AcDbEntity
  8
0
  6
SLD-Solid
 62
     7
370
    25
100
AcDbLine
 10
65.6427462943
 20
33.0553915204
 30
0.0
 11
13.9995078983
 21
47.0909171356
 31
0.0
  0
LINE
  5
2D5
330
1F
100
AcDbEntity
  8
0
  6
SLD-Solid
 62
     7
370
    25
100
AcDbLine
 10
13.670627348
 20
45.8808123536
 30
0.0
 11
65.3136034678
 21
31.8453580193
 31
0.0
  0
LINE
  5
2D6
330
1F
100
AcDbEntity
  8
0
  6
SLD-Solid
 62
     7
370
    25
100
AcDbLine
 10
65.7964626034
 20
31.7141272527
 30
0.0
 11
66.2981292062
 21
31.5777850195
 31
0.0
  0
SPLINE
  5
2D7
330
1F
100
AcDbEntity
  8
0
  6
SLD-Solid
 62
     7
370
    25
100
AcDbSpline
210
0.0
220
0.0
230
1.0
 70
     8
 71
     3
 72
    21
 73
    17
 74
     0
 42
0.00000001
 43
0.00000001
 40
0.0
 40
0.0
 40
0.0
 40
0.0
 40
0.0192459515699095
 40
0.0909959172938725
 40
0.1627592930926292
 40
0.236185567524587
 40
0.3125741268751737
 40
0.3922831240622562
 40
0.4746200878456187
 40
0.5583394267320798
 40
0.6423220006721012
 40
0.7259802317064896
 40
0.8092044101407305
 40
0.8920174930239319
 40
0.9744850666590034
 40
1.0
 40
1.0
 40
1.0
 40
1.0
 10
13.40362328770442
 20
45.05003920003221
 30
0.0
 10
13.40897250054071
 20
45.04812039642773
 30
0.0
 10
13.43426387296623
 20
45.03904818747706
 30
0.0
 10
13.48283017897635
 20
45.03500102443198
 30
0.0
 10
13.54734944388943
 20
45.03817192458663
 30
0.0
 10
13.61303278877204
 20
45.05397743255867
 30
0.0
 10
13.67976702470871
 20
45.0812635928844
 30
0.0
 10
13.74770058799208
 20
45.12071701909434
 30
0.0
 10
13.8163449533875
 20
45.1723534995899
 30
0.0
 10
13.88485882414923
 20
45.23575451646746
 30
0.0
 10
13.95234383941686
 20
45.30997757425683
 30
0.0
 10
14.01808416380068
 20
45.39401317574806
 30
0.0
 10
14.0816899355191
 20
45.48674987817655
 30
0.0
 10
14.142503556297
 20
45.58792511458547
 30
0.0
 10
14.18783127493282
 20
45.67012696281596
 30
0.0
 10
14.21167207989499
 20
45.7203660949612
 30
0.0
 10
14.21730536778986
 20
45.7322369816788
 30
0.0
  0
SPLINE
  5
2D8
330
1F
100
AcDbEntity
  8
0
  6
SLD-Solid
 62
     7
370
    25
100
AcDbSpline
210
0.0
220
0.0
230
1.0
 70
     8
 71
     3
 72
    21
 73
    17
 74
     0
 42
0.00000001
 43
0.00000001
 40
0.0
 40
0.0
 40
0.0
 40
0.0
 40
0.0114674686468104
 40
0.0936429563603754
 40
0.176069232977901
 40
0.2588200693265821
 40
0.3419798353330359
 40
0.425635233150304
 40
0.5098466610662662
 40
0.5945709005446557
 40
0.6793652794231526
 40
0.7630567308957814
 40
0.8357706233615508
 40
0.9132684723771076
 40
0.9874152716893292
 40
1.0
 40
1.0
 40
1.0
 40
1.0
 10
14.54644819429349
 20
46.94227048271543
 30
0.0
 10
14.54699840332651
 20
46.94816904142033
 30
0.0
 10
14.55149139145274
 20
46.9963364698567
 30
0.0
 10
14.55426509151171
 20
47.08328908268785
 30
0.0
 10
14.55424298839243
 20
47.20176940971414
 30
0.0
 10
14.54748589810029
 20
47.31443989071722
 30
0.0
 10
14.5346070621274
 20
47.42096526379692
 30
0.0
 10
14.51525734414985
 20
47.52050070196466
 30
0.0
 10
14.48927868660132
 20
47.61238278079951
 30
0.0
 10
14.45638794868521
 20
47.69579475328381
 30
0.0
 10
14.41639187513371
 20
47.76969242129771
 30
0.0
 10
14.37090709396853
 20
47.83049388591204
 30
0.0
 10
14.31975072681692
 20
47.88019667299047
 30
0.0
 10
14.26378209450694
 20
47.91655226105981
 30
0.0
 10
14.21928446835572
 20
47.93756448068172
 30
0.0
 10
14.19409584752303
 20
47.9420826664067
 30
0.0
 10
14.19044098338784
 20
47.94273825430379
 30
0.0
  0
LINE
  5
2D9
330
1F
100
AcDbEntity
  8
0
  6
SLD-Solid
 62
     7
370
    25
100
AcDbLine
 10
13.0040843932
 20
45.1572973331
 30
0.0
 11
13.4073790567
 21
45.0476904851
 31
0.0
  0
LINE
  5
2DA
330
1F
100
AcDbEntity
  8
0
  6
SLD-Solid
 62
     7
370
    25
100
AcDbLine
 10
14.1941746317
 20
47.942678002
 30
0.0
 11
13.7908799682
 21
48.05228485
 31
0.0
  0
SPLINE
  5
2DB
330
1F
100
AcDbEntity
  8
0
  6
SLD-Solid
 62
     7
370
    25
100
AcDbSpline
210
0.0
220
0.0
230
1.0
 70
     8
 71
     3
 72
    19
 73
    15
 74
     0
 42
0.00000001
 43
0.00000001
 40
0.0
 40
0.0
 40
0.0
 40
0.0
 40
0.0559687513876622
 40
0.1282793472515508
 40
0.2050615546783645
 40
0.2872937394949027
 40
0.3740233339347596
 40
0.4638503446948382
 40
0.555470524639667
 40
0.647787812258035
 40
0.7396623330819768
 40
0.8299574712701597
 40
0.9175241812957114
 40
0.9999999999999999
 40
0.9999999999999999
 40
0.9999999999999999
 40
0.9999999999999999
 10
13.76072308734968
 20
47.175658677186
 30
0.0
 10
13.76006638824781
 20
47.1767832996177
 30
0.0
 10
13.7585612460025
 20
47.17936091351591
 30
0.0
 10
13.75297982158775
 20
47.19701672107667
 30
0.0
 10
13.74880756184612
 20
47.22536398737167
 30
0.0
 10
13.74749279941905
 20
47.26392529698349
 30
0.0
 10
13.75050740209396
 20
47.31048642239276
 30
0.0
 10
13.75839993405184
 20
47.36256650460298
 30
0.0
 10
13.77118901467612
 20
47.41702384434318
 30
0.0
 10
13.78830118078121
 20
47.47056395940869
 30
0.0
 10
13.80872977758521
 20
47.52003650048206
 30
0.0
 10
13.83077148002663
 20
47.562127533601
 30
0.0
 10
13.85287755428595
 20
47.59531519244134
 30
0.0
 10
13.86482822152847
 20
47.60809802843519
 30
0.0
 10
13.87062466005625
 20
47.61429809421772
 30
0.0
  0
SPLINE
  5
2DC
330
1F
100
AcDbEntity
  8
0
  6
SLD-Solid
 62
     7
370
    25
100
AcDbSpline
210
0.0
220
0.0
230
1.0
 70
     8
 71
     3
 72
     9
 73
     5
 74
     0
 42
0.00000001
 43
0.00000001
 40
0.0
 40
0.0
 40
0.0
 40
0.0
 40
0.4944575831256879
 40
1.0
 40
1.0
 40
1.0
 40
1.0
 10
13.87062466005625
 20
47.61429809421772
 30
0.0
 10
13.87350222716349
 20
47.61690905536175
 30
0.0
 10
13.87932187116421
 20
47.62218951061845
 30
0.0
 10
13.88089902951537
 20
47.62298979635411
 30
0.0
 10
13.88169634996001
 20
47.6233943747391
 30
0.0
  0
SPLINE
  5
2DD
330
1F
100
AcDbEntity
  8
0
  6
SLD-Solid
 62
     7
370
    25
100
AcDbSpline
210
0.0
220
0.0
230
1.0
 70
     8
 71
     3
 72
    19
 73
    15
 74
     0
 42
0.00000001
 43
0.00000001
 40
0.0
 40
0.0
 40
0.0
 40
0.0
 40
0.0559687513876427
 40
0.128279347251533
 40
0.2050615546783496
 40
0.2872937394948885
 40
0.3740233339347464
 40
0.4638503446948272
 40
0.5554705246396578
 40
0.6477878122580273
 40
0.7396623330819713
 40
0.8299574712701568
 40
0.9175241812957105
 40
1.0
 40
1.0
 40
1.0
 40
1.0
 10
13.76072308734969
 20
45.35503533049467
 30
0.0
 10
13.76006638824781
 20
45.35615995292637
 30
0.0
 10
13.75856124600251
 20
45.35873756682459
 30
0.0
 10
13.75297982158774
 20
45.37639337438534
 30
0.0
 10
13.74880756184612
 20
45.40474064068032
 30
0.0
 10
13.74749279941905
 20
45.44330195029215
 30
0.0
 10
13.75050740209397
 20
45.48986307570141
 30
0.0
 10
13.75839993405184
 20
45.54194315791165
 30
0.0
 10
13.77118901467613
 20
45.59640049765186
 30
0.0
 10
13.78830118078122
 20
45.64994061271735
 30
0.0
 10
13.80872977758521
 20
45.69941315379074
 30
0.0
 10
13.83077148002663
 20
45.74150418690967
 30
0.0
 10
13.85287755428594
 20
45.77469184575002
 30
0.0
 10
13.86482822152848
 20
45.78747468174385
 30
0.0
 10
13.87062466005626
 20
45.7936747475264
 30
0.0
  0
SPLINE
  5
2DE
330
1F
100
AcDbEntity
  8
0
  6
SLD-Solid
 62
     7
370
    25
100
AcDbSpline
210
0.0
220
0.0
230
1.0
 70
     8
 71
     3
 72
     9
 73
     5
 74
     0
 42
0.00000001
 43
0.00000001
 40
0.0
 40
0.0
 40
0.0
 40
0.0
 40
0.4944575831256773
 40
1.0
 40
1.0
 40
1.0
 40
1.0
 10
13.87062466005626
 20
45.7936747475264
 30
0.0
 10
13.8735022271635
 20
45.79628570867042
 30
0.0
 10
13.87932187116422
 20
45.80156616392713
 30
0.0
 10
13.88089902951536
 20
45.80236644966278
 30
0.0
 10
13.88169634996001
 20
45.80277102804777
 30
0.0
  0
LINE
  5
2DF
330
1F
100
AcDbEntity
  8
0
  6
SLD-Solid
 62
     7
370
    25
100
AcDbLine
 10
66.8559672689
 20
33.630331169
 30
0.0
 11
66.4526726054
 21
33.7399380169
 31
0.0
  0
LINE
  5
2E0
330
1F
100
AcDbEntity
  8
0
  6
SLD-Solid
 62
     7
370
    25
100
AcDbLine
 10
65.6658770304
 20
30.8449505
 30
0.0
 11
66.0691716938
 21
30.735343652
 31
0.0
  0
SPLINE
  5
2E1
330
1F
100
AcDbEntity
  8
0
  6
SLD-Solid
 62
     7
370
    25
100
AcDbSpline
210
0.0
220
0.0
230
1.0
 70
     8
 71
     3
 72
    43
 73
    39
 74
     0
 42
0.00000001
 43
0.00000001
 40
0.0
 40
0.0
 40
0.0
 40
0.0
 40
0.006177470491069
 40
0.0320473466482258
 40
0.057922057887472
 40
0.0843963371023792
 40
0.111938685733263
 40
0.1406782379411925
 40
0.1703653191089623
 40
0.2005508238280044
 40
0.2308312395085657
 40
0.2609947114287165
 40
0.2910016831066958
 40
0.320860431842868
 40
0.3505946051681667
 40
0.3802300220576522
 40
0.4097903007059318
 40
0.4392959695524916
 40
0.4687648120992731
 40
0.4982125815378763
 40
0.5276537845000128
 40
0.557100518276277
 40
0.5865642827308675
 40
0.61606009694174
 40
0.6456046067566213
 40
0.6752169585824701
 40
0.7049196834558636
 40
0.7347393650667813
 40
0.7647064065441861
 40
0.7948520514466058
 40
0.8251980646019731
 40
0.8557288719925747
 40
0.8862849544700742
 40
0.9164435914892052
 40
0.9426464097046405
 40
0.9705731508125772
 40
0.9972923242435573
 40
1.0
 40
1.0
 40
1.0
 40
1.0
 10
66.45465756715238
 20
33.73818778576111
 30
0.0
 10
66.44989345067417
 20
33.73988816968821
 30
0.0
 10
66.42517827114068
 20
33.74870938433032
 30
0.0
 10
66.37721322526444
 20
33.75259726654604
 30
0.0
 10
66.3127044857804
 20
33.7494648690589
 30
0.0
 10
66.24701823007481
 20
33.73364873479538
 30
0.0
 10
66.18028483309264
 20
33.70636555159228
 30
0.0
 10
66.11235097022603
 20
33.66691139517923
 30
0.0
 10
66.04370692622958
 20
33.61527466179488
 30
0.0
 10
65.97519206107823
 20
33.55187546534584
 30
0.0
 10
65.90771071193734
 20
33.47764534944626
 30
0.0
 10
65.84195679030509
 20
33.39363601995463
 30
0.0
 10
65.77840137922473
 20
33.30080198780316
 30
0.0
 10
65.71740116647382
 20
33.19998737593298
 30
0.0
 10
65.65930026629343
 20
33.09202858152721
 30
0.0
 10
65.60444771856268
 20
32.97778796812546
 30
0.0
 10
65.55319661864607
 20
32.85816843958126
 30
0.0
 10
65.50589699870757
 20
32.73411565302605
 30
0.0
 10
65.4628877384939
 20
32.60661356723298
 30
0.0
 10
65.42448934035728
 20
32.47667645103513
 30
0.0
 10
65.39099883435232
 20
32.34534185356224
 30
0.0
 10
65.36268512848194
 20
32.21366097531167
 30
0.0
 10
65.33978461231789
 20
32.0826829023506
 30
0.0
 10
65.32249975559276
 20
31.95343936959302
 30
0.0
 10
65.31100057059915
 20
31.82693136661055
 30
0.0
 10
65.30542886171224
 20
31.70412070351982
 30
0.0
 10
65.30590504814718
 20
31.58591801851405
 30
0.0
 10
65.31253976154775
 20
31.47317271492883
 30
0.0
 10
65.32545162389782
 20
31.36666752393026
 30
0.0
 10
65.3447924271472
 20
31.26712667802187
 30
0.0
 10
65.37077345072767
 20
31.17524588366654
 30
0.0
 10
65.40366372166346
 20
31.09183423552294
 30
0.0
 10
65.44365927884282
 20
31.01793398104745
 30
0.0
 10
65.48914645254283
 20
30.95714198397767
 30
0.0
 10
65.54029472848859
 20
30.907407644768
 30
0.0
 10
65.59629410675502
 20
30.87117182933065
 30
0.0
 10
65.63933915654485
 20
30.85050203501376
 30
0.0
 10
65.66302735603078
 20
30.84613990865223
 30
0.0
 10
65.6652069969109
 20
30.84573853289771
 30
0.0
  0
LINE
  5
2E2
330
1F
100
AcDbEntity
  8
0
  6
SLD-Solid
 62
     7
370
    25
100
AcDbLine
 10
65.9857862057
 20
31.1103503809
 30
0.0
 11
66.1261501583
 21
31.1930537095
 31
0.0
  0
LINE
  5
2E3
330
1F
100
AcDbEntity
  8
0
  6
SLD-Solid
 62
     7
370
    25
100
AcDbLine
 10
66.212656367
 20
31.5113503577
 30
0.0
 11
66.1539001338
 21
31.6169833909
 31
0.0
  0
LINE
  5
2E4
330
1F
100
AcDbEntity
  8
0
  6
SLD-Solid
 62
     7
370
    25
100
AcDbLine
 10
67.2849587945
 20
30.97218019
 30
0.0
 11
67.3803308258
 21
30.9815365958
 31
0.0
  0
LINE
  5
2E5
330
1F
100
AcDbEntity
  8
0
  6
SLD-Solid
 62
     7
370
    25
100
AcDbLine
 10
67.4013678804
 20
31.0589417215
 30
0.0
 11
67.3238517323
 21
31.1152854299
 31
0.0
  0
LINE
  5
2E6
330
1F
100
AcDbEntity
  8
0
  6
SLD-Solid
 62
     7
370
    25
100
AcDbLine
 10
66.1527509133
 20
31.279007243
 30
0.0
 11
67.2803840185
 21
30.9725407272
 31
0.0
  0
LINE
  5
2E7
330
1F
100
AcDbEntity
  8
0
  6
SLD-Solid
 62
     7
370
    25
100
AcDbLine
 10
67.3197237972
 20
31.1172901031
 30
0.0
 11
66.1920906921
 21
31.4237566188
 31
0.0
  0
LINE
  5
2E8
330
1F
100
AcDbEntity
  8
0
  6
SLD-Solid
 62
     7
370
    25
100
AcDbLine
 10
66.1325222326
 20
31.2548418752
 30
0.0
 11
66.1644019693
 21
31.2736256176
 31
0.0
  0
LINE
  5
2E9
330
1F
100
AcDbEntity
  8
0
  6
SLD-Solid
 62
     7
370
    25
100
AcDbLine
 10
66.2048629735
 20
31.4225005044
 30
0.0
 11
66.1868765668
 21
31.4548367961
 31
0.0
  0
LINE
  5
2EA
330
1F
100
AcDbEntity
  8
0
  6
SLD-Solid
 62
     7
370
    25
100
AcDbLine
 10
67.2849587945
 20
32.7928035367
 30
0.0
 11
67.3803308258
 21
32.8021599425
 31
0.0
  0
LINE
  5
2EB
330
1F
100
AcDbEntity
  8
0
  6
SLD-Solid
 62
     7
370
    25
100
AcDbLine
 10
67.4013678804
 20
32.8795650682
 30
0.0
 11
67.3238517323
 21
32.9359087766
 31
0.0
  0
LINE
  5
2EC
330
1F
100
AcDbEntity
  8
0
  6
SLD-Solid
 62
     7
370
    25
100
AcDbLine
 10
66.2073238817
 20
33.0847988262
 30
0.0
 11
67.2803840185
 21
32.7931640739
 31
0.0
  0
LINE
  5
2ED
330
1F
100
AcDbEntity
  8
0
  6
SLD-Solid
 62
     7
370
    25
100
AcDbLine
 10
67.3197237972
 20
32.9379134498
 30
0.0
 11
66.2909050123
 21
33.2175243506
 31
0.0
  0
SPLINE
  5
2EE
330
1F
100
AcDbEntity
  8
0
  6
SLD-Solid
 62
     7
370
    25
100
AcDbSpline
210
0.0
220
0.0
230
1.0
 70
     8
 71
     3
 72
    14
 73
    10
 74
     0
 42
0.00000001
 43
0.00000001
 40
0.0
 40
0.0
 40
0.0
 40
0.0
 40
0.0161507734350778
 40
0.2053435956823678
 40
0.3957995999602783
 40
0.5899852153012864
 40
0.7713140163200976
 40
0.9249564080582601
 40
1.0
 40
1.0
 40
1.0
 40
1.0
 10
13.85056969014399
 20
45.57844439882276
 30
0.0
 10
13.85093839886493
 20
45.57963308154394
 30
0.0
 10
13.8556262223195
 20
45.59474618959862
 30
0.0
 10
13.85985408850311
 20
45.6250817686722
 30
0.0
 10
13.86190789339275
 20
45.66538843247568
 30
0.0
 10
13.85708871874671
 20
45.69980385781017
 30
0.0
 10
13.846305022944
 20
45.72464142903107
 30
0.0
 10
13.83223000384103
 20
45.74067793661187
 30
0.0
 10
13.82108812364531
 20
45.74290297018551
 30
0.0
 10
13.81743190170543
 20
45.74363311773925
 30
0.0
  0
SPLINE
  5
2EF
330
1F
100
AcDbEntity
  8
0
  6
SLD-Solid
 62
     7
370
    25
100
AcDbSpline
210
0.0
220
0.0
230
1.0
 70
     8
 71
     3
 72
    13
 73
     9
 74
     0
 42
0.00000001
 43
0.00000001
 40
0.0
 40
0.0
 40
0.0
 40
0.0
 40
0.0751741887253208
 40
0.2342790026949237
 40
0.4183461971027091
 40
0.6209955812914577
 40
0.8201158481775497
 40
1.0
 40
1.0
 40
1.0
 40
1.0
 10
13.7483613130538
 20
45.43820350494623
 30
0.0
 10
13.75193254909309
 20
45.43811570521869
 30
0.0
 10
13.76306224176896
 20
45.43784207895214
 30
0.0
 10
13.78081526505835
 20
45.44899708525191
 30
0.0
 10
13.80172721406682
 20
45.46909939211285
 30
0.0
 10
13.82190530244519
 20
45.50037357585241
 30
0.0
 10
13.83931614003488
 20
45.5381398675325
 30
0.0
 10
13.84694761693815
 20
45.56547196244092
 30
0.0
 10
13.85056969014399
 20
45.57844439882276
 30
0.0
  0
LINE
  5
2F0
330
1F
100
AcDbEntity
  8
0
  6
SLD-Solid
 62
     7
370
    25
100
AcDbLine
 10
12.6977863992
 20
45.9623622813
 30
0.0
 11
12.5796676436
 21
45.9944644281
 31
0.0
  0
LINE
  5
2F1
330
1F
100
AcDbEntity
  8
0
  6
SLD-Solid
 62
     7
370
    25
100
AcDbLine
 10
12.5403278648
 20
45.8497150523
 30
0.0
 11
12.7004040853
 21
45.8062097656
 31
0.0
  0
LINE
  5
2F2
330
1F
100
AcDbEntity
  8
0
  6
SLD-Solid
 62
     7
370
    25
100
AcDbLine
 10
12.5750928675
 20
45.9948249653
 30
0.0
 11
12.4797208362
 21
45.9854685595
 31
0.0
  0
LINE
  5
2F3
330
1F
100
AcDbEntity
  8
0
  6
SLD-Solid
 62
     7
370
    25
100
AcDbLine
 10
12.4586837817
 20
45.9080634339
 30
0.0
 11
12.5361999297
 21
45.8517197255
 31
0.0
  0
SPLINE
  5
2F4
330
1F
100
AcDbEntity
  8
0
  6
SLD-Solid
 62
     7
370
    25
100
AcDbSpline
210
0.0
220
0.0
230
1.0
 70
     8
 71
     3
 72
    12
 73
     8
 74
     0
 42
0.00000001
 43
0.00000001
 40
0.0
 40
0.0
 40
0.0
 40
0.0
 40
0.2230522853757694
 40
0.4592908411199087
 40
0.7018539568641693
 40
0.9104852558726317
 40
1.0
 40
1.0
 40
1.0
 40
1.0
 10
13.85532973869154
 20
47.42028400438449
 30
0.0
 10
13.85743469326772
 20
47.43377829295426
 30
0.0
 10
13.86176904185414
 20
47.46156461730006
 30
0.0
 10
13.86080160749382
 20
47.4999543829416
 30
0.0
 10
13.85349207828713
 20
47.53051584847709
 30
0.0
 10
13.84324316274329
 20
47.55097997846722
 30
0.0
 10
13.8329024606287
 20
47.55689559835262
 30
0.0
 10
13.8297977898635
 20
47.55867169168872
 30
0.0
  0
SPLINE
  5
2F5
330
1F
100
AcDbEntity
  8
0
  6
SLD-Solid
 62
     7
370
    25
100
AcDbSpline
210
0.0
220
0.0
230
1.0
 70
     8
 71
     3
 72
    11
 73
     7
 74
     0
 42
0.00000001
 43
0.00000001
 40
0.0
 40
0.0
 40
0.0
 40
0.0
 40
0.1770294047500847
 40
0.5808812530288321
 40
0.9814710464770089
 40
1.0
 40
1.0
 40
1.0
 40
1.0
 10
13.81993658038387
 20
47.32101049649032
 30
0.0
 10
13.82283775917216
 20
47.32585728330693
 30
0.0
 10
13.832357309736
 20
47.34176089888518
 30
0.0
 10
13.84435795084629
 20
47.37552166939103
 30
0.0
 10
13.8534127867386
 20
47.40510709306049
 30
0.0
 10
13.85524857954549
 20
47.41964145037535
 30
0.0
 10
13.85532973869155
 20
47.42028400438448
 30
0.0
  0
SPLINE
  5
2F6
330
1F
100
AcDbEntity
  8
0
  6
SLD-Solid
 62
     7
370
    25
100
AcDbSpline
210
0.0
220
0.0
230
1.0
 70
     8
 71
     3
 72
    12
 73
     8
 74
     0
 42
0.00000001
 43
0.00000001
 40
0.0
 40
0.0
 40
0.0
 40
0.0
 40
0.0993401053988517
 40
0.3253200765666706
 40
0.5607865932634013
 40
0.8367855128080584
 40
1.0
 40
1.0
 40
1.0
 40
1.0
 10
13.73526290412711
 20
47.26000523057316
 30
0.0
 10
13.73840866388358
 20
47.2588769119938
 30
0.0
 10
13.74871043274848
 20
47.25518188182287
 30
0.0
 10
13.76763779863768
 20
47.26126081529385
 30
0.0
 10
13.7884835015024
 20
47.27573011515909
 30
0.0
 10
13.80643619038508
 20
47.29580247881956
 30
0.0
 10
13.81627894890174
 20
47.31418094274834
 30
0.0
 10
13.81993658038387
 20
47.32101049649032
 30
0.0
  0
LINE
  5
2F7
330
1F
100
AcDbEntity
  8
0
  6
SLD-Solid
 62
     7
370
    25
100
AcDbLine
 10
13.2005159936
 20
47.6463544964
 30
0.0
 11
12.5796676436
 21
47.8150877748
 31
0.0
  0
LINE
  5
2F8
330
1F
100
AcDbEntity
  8
0
  6
SLD-Solid
 62
     7
370
    25
100
AcDbLine
 10
12.5403278648
 20
47.670338399
 30
0.0
 11
13.11921875
 21
47.5130082605
 31
0.0
  0
LINE
  5
2F9
330
1F
100
AcDbEntity
  8
0
  6
SLD-Solid
 62
     7
370
    25
100
AcDbLine
 10
12.5750928675
 20
47.815448312
 30
0.0
 11
12.4797208362
 21
47.8060919062
 31
0.0
  0
LINE
  5
2FA
330
1F
100
AcDbEntity
  8
0
  6
SLD-Solid
 62
     7
370
    25
100
AcDbLine
 10
12.4586837817
 20
47.7286867806
 30
0.0
 11
12.5361999297
 21
47.6723430722
 31
0.0
  0
LWPOLYLINE
  5
2FB
330
1F
100
AcDbEntity
  8
0
  6
SLD-Solid
 62
     7
370
    25
100
AcDbPolyline
 90
       43
 70
   128
 43
0.0
 10
66.1699514725
 20
31.8972332632
 10
66.1732197739
 20
31.980525082
 10
66.1829516696
 20
32.0683362239
 10
66.1989297652
 20
32.1587051331
 10
66.2207971364
 20
32.2496131175
 10
66.2480653022
 20
32.3390294429
 10
66.280125137
 20
32.4249566965
 10
66.3162604769
 20
32.5054754053
 10
66.3556641182
 20
32.5787869144
 10
66.3974558487
 20
32.6432535659
 10
66.4407021102
 20
32.6974352813
 10
66.4844368525
 20
32.7401217306
 10
66.527683114
 20
32.770359369
 10
66.5694748445
 20
32.7874727378
 10
66.6088784858
 20
32.7910795525
 10
66.6450138257
 20
32.7810992429
 10
66.6770736605
 20
32.7577547525
 10
66.7043418263
 20
32.7215675587
 10
66.7262091975
 20
32.6733460236
 10
66.7421872931
 20
32.6141673366
 10
66.7519191888
 20
32.5453534519
 10
66.7551874902
 20
32.4684415578
 10
66.7519191888
 20
32.385149739
 10
66.7421872931
 20
32.2973385971
 10
66.7262091975
 20
32.2069696879
 10
66.7043418263
 20
32.1160617035
 10
66.6770736605
 20
32.0266453781
 10
66.6450138257
 20
31.9407181245
 10
66.6088784858
 20
31.8601994158
 10
66.5694748445
 20
31.7868879066
 10
66.527683114
 20
31.7224212552
 10
66.4844368525
 20
31.6682395398
 10
66.4407021102
 20
31.6255530905
 10
66.3974558487
 20
31.595315452
 10
66.3556641182
 20
31.5782020832
 10
66.3162604769
 20
31.5745952685
 10
66.280125137
 20
31.5845755782
 10
66.2480653022
 20
31.6079200686
 10
66.2207971364
 20
31.6441072624
 10
66.1989297652
 20
31.6923287974
 10
66.1829516696
 20
31.7515074844
 10
66.1732197739
 20
31.8203213692
 10
66.1699514725
 20
31.8972332632
  0
LWPOLYLINE
  5
2FC
330
1F
100
AcDbEntity
  8
0
  6
SLD-Solid
 62
     7
370
    25
100
AcDbPolyline
 90
       41
 70
   128
 43
0.0
 10
66.1895526788
 20
31.9163646415
 10
66.1929139687
 20
31.9980883108
 10
66.2029150723
 20
32.084361116
 10
66.2193097291
 20
32.1730587344
 10
66.2416942484
 20
32.2619971363
 10
66.2695174489
 20
32.348986363
 10
66.3020942312
 20
32.431884451
 10
66.3386224467
 20
32.5086501744
 10
66.3782026496
 20
32.5773933063
 10
66.4198602439
 20
32.6364211625
 10
66.4625694814
 20
32.6842802814
 10
66.5052787188
 20
32.7197922126
 10
66.5469363131
 20
32.7420825346
 10
66.586516516
 20
32.7506023856
 10
66.6230447315
 20
32.7451419785
 10
66.6556215138
 20
32.7258357669
 10
66.6834447143
 20
32.6931591335
 10
66.7058292336
 20
32.6479166857
 10
66.7222238905
 20
32.5912224427
 10
66.732224994
 20
32.5244724048
 10
66.7355862839
 20
32.4493101795
 10
66.732224994
 20
32.3675865103
 10
66.7222238905
 20
32.281313705
 10
66.7058292336
 20
32.1926160866
 10
66.6834447143
 20
32.1036776848
 10
66.6556215138
 20
32.0166884581
 10
66.6230447315
 20
31.93379037
 10
66.586516516
 20
31.8570246466
 10
66.5469363131
 20
31.7882815147
 10
66.5052787188
 20
31.7292536585
 10
66.4625694814
 20
31.6813945396
 10
66.4198602439
 20
31.6458826084
 10
66.3782026496
 20
31.6235922864
 10
66.3386224467
 20
31.6150724355
 10
66.3020942312
 20
31.6205328425
 10
66.2695174489
 20
31.6398390542
 10
66.2416942484
 20
31.6725156875
 10
66.2193097291
 20
31.7177581353
 10
66.2029150723
 20
31.7744523783
 10
66.1929139687
 20
31.8412024162
 10
66.1895526788
 20
31.9163646415
  0
LINE
  5
2FD
330
1F
100
AcDbEntity
  8
0
  6
SLD-Solid
 62
     7
370
    25
100
AcDbLine
 10
13.4073790567
 20
45.0476904851
 30
0.0
 11
13.4043248751
 21
45.0485422461
 31
0.0
  0
LWPOLYLINE
  5
2FE
330
1F
100
AcDbEntity
  8
0
  6
SLD-Solid
 62
     7
370
    25
100
AcDbPolyline
 90
       28
 70
   128
 43
0.0
 10
13.3974821807
 20
47.8905420426
 10
13.3299182779
 20
47.8185952471
 10
13.2629852011
 20
47.7353154893
 10
13.1973078863
 20
47.6414803297
 10
13.133499545
 20
47.5379658821
 10
13.0721559384
 20
47.4257386328
 10
13.0138498153
 20
47.3058464176
 10
12.9591255642
 20
47.1794086377
 10
12.9084941308
 20
47.0476058086
 10
12.862428247
 20
46.9116685377
 10
12.8213580176
 20
46.7728660349
 10
12.7856669044
 20
46.6324942615
 10
12.7556881455
 20
46.4918638312
 10
12.7317016446
 20
46.3522877722
 10
12.7139313571
 20
46.2150692687
 10
12.7025431996
 20
46.0814894929
 10
12.6976435
 20
45.9527956431
 10
12.6992780057
 20
45.8301892991
 10
12.7074314556
 20
45.7148152034
 10
12.7220277233
 20
45.6077505727
 10
12.7429305272
 20
45.5099950407
 10
12.7699447035
 20
45.4224613245
 10
12.8028180282
 20
45.3459667027
 10
12.8412435718
 20
45.2812253851
 10
12.8848625655
 20
45.2288418439
 10
12.9332677504
 20
45.18930517
 10
12.9860071803
 20
45.1629845069
 10
13.0040843932
 20
45.1572973331
  0
LWPOLYLINE
  5
2FF
330
1F
100
AcDbEntity
  8
0
  6
SLD-Solid
 62
     7
370
    25
100
AcDbPolyline
 90
        8
 70
   128
 43
0.0
 10
13.7908799682
 20
48.05228485
 10
13.7811145461
 20
48.0547203164
 10
13.722808423
 20
48.0607954044
 10
13.6614648164
 20
48.0532761725
 10
13.5976564751
 20
48.0322328256
 10
13.5319791603
 20
47.9978618399
 10
13.4650460835
 20
47.9504841279
 10
13.3974821807
 20
47.8905420426
  0
LWPOLYLINE
  5
300
330
1F
100
AcDbEntity
  8
0
  6
SLD-Solid
 62
     7
370
    25
100
AcDbPolyline
 90
       31
 70
   128
 43
0.0
 10
13.8892186564
 20
47.661824642
 10
13.9209560391
 20
47.6866746457
 10
13.9513063459
 20
47.6981852754
 10
13.9789431227
 20
47.6958534614
 10
14.0026585098
 20
47.679781115
 10
14.021416031
 20
47.6506706751
 10
14.0343958925
 20
47.6097944074
 10
14.0410308122
 20
47.5589388011
 10
14.0410308122
 20
47.5003264901
 10
14.0343958925
 20
47.4365191137
 10
14.021416031
 20
47.3703053605
 10
14.0026585098
 20
47.3045790891
 10
13.9789431227
 20
47.2422128531
 10
13.9513063459
 20
47.1859323562
 10
13.9209560391
 20
47.1381973261
 10
13.8892186564
 20
47.1010940128
 10
13.8574812736
 20
47.0762440092
 10
13.8271309669
 20
47.0647333795
 10
13.79949419
 20
47.0670651935
 10
13.7757788029
 20
47.0831375399
 10
13.7570212817
 20
47.1122479798
 10
13.7440414202
 20
47.1531242475
 10
13.7374065005
 20
47.2039798538
 10
13.7374065005
 20
47.2625921648
 10
13.7440414202
 20
47.3263995412
 10
13.7570212817
 20
47.3926132944
 10
13.7757788029
 20
47.4583395658
 10
13.79949419
 20
47.5207058018
 10
13.8271309669
 20
47.5769862987
 10
13.8574812736
 20
47.6247213288
 10
13.8892186564
 20
47.661824642
  0
LWPOLYLINE
  5
301
330
1F
100
AcDbEntity
  8
0
  6
SLD-Solid
 62
     7
370
    25
100
AcDbPolyline
 90
       20
 70
   128
 43
0.0
 10
13.8892186564
 20
47.0218776448
 10
13.8445280664
 20
46.97210706
 10
13.8008357905
 20
46.9111458699
 10
13.7591178417
 20
46.8403558468
 10
13.7203061301
 20
46.7613183227
 10
13.6852676452
 20
46.6757988654
 10
13.6547850889
 20
46.5857078382
 10
13.6295393911
 20
46.4930577257
 10
13.610094499
 20
46.3999181785
 10
13.5968847793
 20
46.3083697801
 10
13.5902053154
 20
46.2204575704
 10
13.5902053154
 20
46.1381453629
 10
13.5968847793
 20
46.0632718763
 10
13.610094499
 20
45.9975096606
 10
13.6295393911
 20
45.942327735
 10
13.6547850889
 20
45.8989587726
 10
13.6852676452
 20
45.8683715643
 10
13.7203061301
 20
45.8512493777
 10
13.7591178417
 20
45.8479746943
 10
13.7789294144
 20
45.8513781725
  0
LWPOLYLINE
  5
302
330
1F
100
AcDbEntity
  8
0
  6
SLD-Solid
 62
     7
370
    25
100
AcDbPolyline
 90
        7
 70
   128
 43
0.0
 10
14.1078099648
 20
47.0614829546
 10
14.0931696675
 20
47.0739237439
 10
14.0581311826
 20
47.0910459305
 10
14.0193194711
 20
47.0943206139
 10
13.9776015222
 20
47.0836746432
 10
13.9339092463
 20
47.0593458316
 10
13.8892186564
 20
47.0218776448
  0
LWPOLYLINE
  5
303
330
1F
100
AcDbEntity
  8
0
  6
SLD-Solid
 62
     7
370
    25
100
AcDbPolyline
 90
        3
 70
   128
 43
0.0
 10
14.0349427024
 20
47.0946981236
 10
14.0489487614
 20
47.0859420387
 10
14.0635890587
 20
47.0735012494
  0
LWPOLYLINE
  5
304
330
1F
100
AcDbEntity
  8
0
  6
SLD-Solid
 62
     7
370
    25
100
AcDbPolyline
 90
        3
 70
   128
 43
0.0
 10
13.7347085083
 20
45.8633964673
 10
13.7148969356
 20
45.859992989
 10
13.6992737043
 20
45.8596154794
  0
LWPOLYLINE
  5
305
330
1F
100
AcDbEntity
  8
0
  6
SLD-Solid
 62
     7
370
    25
100
AcDbPolyline
 90
       49
 70
   128
 43
0.0
 10
66.4625694814
 20
30.8970864595
 10
66.3950055786
 20
30.8371443742
 10
66.3280725017
 20
30.7897666622
 10
66.262395187
 20
30.7553956764
 10
66.1985868456
 20
30.7343523296
 10
66.1372432391
 20
30.7268330976
 10
66.078937116
 20
30.7329081856
 10
66.0242128649
 20
30.7525208722
 10
65.9735814314
 20
30.7854880388
 10
65.9275155477
 20
30.8315018801
 10
65.8864453183
 20
30.8901327771
 10
65.850754205
 20
30.960833309
 10
65.8207754461
 20
31.0429433639
 10
65.7967889452
 20
31.1356963024
 10
65.7790186578
 20
31.2382261153
 10
65.7676305002
 20
31.3495755093
 10
65.7627308007
 20
31.4687048452
 10
65.7643653063
 20
31.5945018445
 10
65.7725187563
 20
31.7257919744
 10
65.7871150239
 20
31.8613494144
 10
65.8080178278
 20
31.9999085012
 10
65.8350320041
 20
32.1401755459
 10
65.8679053288
 20
32.280840913
 10
65.9063308724
 20
32.4205912478
 10
65.9499498661
 20
32.5581217391
 10
65.998355051
 20
32.6921483017
 10
66.051094481
 20
32.8214195657
 10
66.1076757421
 20
32.9447285602
 10
66.1675705505
 20
33.0609239824
 10
66.2302196844
 20
33.1689209468
 10
66.2950382058
 20
33.2677111149
 10
66.3614209216
 20
33.3563721095
 10
66.4287480342
 20
33.4340761268
 10
66.4963909285
 20
33.5000976654
 10
66.5637180411
 20
33.5538202999
 10
66.6301007569
 20
33.5947424365
 10
66.6949192783
 20
33.6224819963
 10
66.7575684122
 20
33.6367799826
 10
66.8174632206
 20
33.6375028987
 10
66.8740444817
 20
33.6246439952
 10
66.9267839117
 20
33.598323332
 10
66.9751890966
 20
33.5587866582
 10
67.0188080903
 20
33.506403117
 10
67.0572336339
 20
33.4416617993
 10
67.0901069586
 20
33.3651671776
 10
67.1171211349
 20
33.2776334613
 10
67.1380239388
 20
33.1798779294
 10
67.1526202064
 20
33.0728132987
 10
67.1596475768
 20
32.9814187365
  0
ARC
  5
306
330
1F
100
AcDbEntity
  8
0
  6
SLD-Solid
 62
     7
370
    25
100
AcDbCircle
 10
63.7019361903
 20
32.9331183858
 30
0.0
 40
3.46200944248532
100
AcDbArc
 50
331.3762010058
 51
358.2147726769
  0
ARC
  5
307
330
1F
100
AcDbEntity
  8
0
  6
SLD-Solid
 62
     7
370
    25
100
AcDbCircle
 10
65.4088154809
 20
31.9485959649
 30
0.0
 40
1.488646947234038
100
AcDbArc
 50
315.0610850091
 51
327.158336859
  0
LWPOLYLINE
  5
308
330
1F
100
AcDbEntity
  8
0
  6
SLD-Solid
 62
     7
370
    25
100
AcDbPolyline
 90
       48
 70
   128
 43
0.0
 10
66.4625694814
 20
30.9399448245
 10
66.3962404676
 20
30.8811905412
 10
66.3305502385
 20
30.8349718287
 10
66.2661314268
 20
30.8017337987
 10
66.2036044211
 20
30.7817965514
 10
66.1435713904
 20
30.7753520935
 10
66.0866104857
 20
30.7824624886
 10
66.0332702716
 20
30.8030592597
 10
65.9840644437
 20
30.8369440486
 10
65.9394668808
 20
30.8837905264
 10
65.8999070819
 20
30.9431475358
 10
65.8657660295
 20
31.0144434364
 10
65.8373725206
 20
31.0969916097
 10
65.8150000002
 20
31.1899970716
 10
65.7988639279
 20
31.2925641287
 10
65.7891197029
 20
31.4037050042
 10
65.7858611674
 20
31.5223493506
 10
65.7891197029
 20
31.6473545582
 10
65.7988639279
 20
31.7775167583
 10
65.8150000002
 20
31.9115824179
 10
65.8373725206
 20
32.0482604114
 10
65.8657660295
 20
32.1862344549
 10
65.8999070819
 20
32.3241757831
 10
65.9394668808
 20
32.4607559454
 10
65.9840644437
 20
32.5946596003
 10
66.0332702716
 20
32.7245971825
 10
66.0866104857
 20
32.8493173218
 10
66.1435713904
 20
32.9676188953
 10
66.2036044211
 20
33.0783625941
 10
66.2661314268
 20
33.1804818958
 10
66.3305502385
 20
33.2729933357
 10
66.3962404676
 20
33.3550059782
 10
66.4625694814
 20
33.4257299965
 10
66.5288984951
 20
33.4844842799
 10
66.5945887242
 20
33.5307029923
 10
66.6590075359
 20
33.5639410223
 10
66.7215345416
 20
33.5838782696
 10
66.7815675723
 20
33.5903227276
 10
66.838528477
 20
33.5832123325
 10
66.8918686911
 20
33.5626155614
 10
66.941074519
 20
33.5287307724
 10
66.9856720819
 20
33.4818842946
 10
67.0252318808
 20
33.4225272852
 10
67.0593729332
 20
33.3512313846
 10
67.0877664421
 20
33.2686832114
 10
67.1101389625
 20
33.1756777495
 10
67.1262750348
 20
33.0731106923
 10
67.1343458587
 20
32.9882952013
  0
ARC
  5
309
330
1F
100
AcDbEntity
  8
0
  6
SLD-Solid
 62
     7
370
    25
100
AcDbCircle
 10
63.8306992017
 20
32.8981233583
 30
0.0
 40
3.309218508197796
100
AcDbArc
 50
330.7441873145
 51
358.8467863681
  0
ARC
  5
30A
330
1F
100
AcDbEntity
  8
0
  6
SLD-Solid
 62
     7
370
    25
100
AcDbCircle
 10
65.4645773139
 20
31.9376552138
 30
0.0
 40
1.411174825207506
100
AcDbArc
 50
315.0080897335
 51
325.9811038581
  0
LWPOLYLINE
  5
30B
330
1F
100
AcDbEntity
  8
0
  6
SLD-Solid
 62
     7
370
    25
100
AcDbPolyline
 90
       16
 70
   128
 43
0.0
 10
65.9857862057
 20
31.1103503809
 10
65.9845250755
 20
31.1096183127
 10
65.9554237337
 20
31.0992238046
 10
65.9291106327
 20
31.1026197587
 10
65.9068161439
 20
31.119647384
 10
65.8895827329
 20
31.1495104877
 10
65.8782162147
 20
31.1908127043
 10
65.8732480752
 20
31.2416227879
 10
65.874910619
 20
31.2995649156
 10
65.8831261073
 20
31.3619297778
 10
65.8975103932
 20
31.425801263
 10
65.9173908834
 20
31.4881928115
 10
65.9418379883
 20
31.5461870637
 10
65.9697085883
 20
31.5970722729
 10
65.9996994853
 20
31.6384691034
 10
66.0148412184
 20
31.6547766244
  0
ARC
  5
30C
330
1F
100
AcDbEntity
  8
0
  6
SLD-Solid
 62
     7
370
    25
100
AcDbCircle
 10
66.1541595687
 20
32.8166292444
 30
0.0
 40
0.1114822867857849
100
AcDbArc
 50
44.5213627488
 51
107.0982790098
  0
ARC
  5
30D
330
1F
100
AcDbEntity
  8
0
  6
SLD-Solid
 62
     7
370
    25
100
AcDbCircle
 10
65.8757818637
 20
31.7923475406
 30
0.0
 40
0.1114876125019901
100
AcDbArc
 50
222.4943580223
 51
285.0679475844
  0
LWPOLYLINE
  5
30E
330
1F
100
AcDbEntity
  8
0
  6
SLD-Solid
 62
     7
370
    25
100
AcDbPolyline
 90
        3
 70
   128
 43
0.0
 10
65.8605437637
 20
31.6967113664
 10
65.840732191
 20
31.6933078881
 10
65.8251089597
 20
31.6929303785
  0
LWPOLYLINE
  5
30F
330
1F
100
AcDbEntity
  8
0
  6
SLD-Solid
 62
     7
370
    25
100
AcDbPolyline
 90
        3
 70
   128
 43
0.0
 10
66.1607779578
 20
32.9280130227
 10
66.1747840169
 20
32.9192569378
 10
66.1894243141
 20
32.9068161485
  0
LWPOLYLINE
  5
310
330
1F
100
AcDbEntity
  8
0
  6
SLD-Solid
 62
     7
370
    25
100
AcDbPolyline
 90
        8
 70
   128
 43
0.0
 10
66.1432945394
 20
31.5120884534
 10
66.1667315204
 20
31.5287745713
 10
66.1882697766
 20
31.5317306912
 10
66.2061644066
 20
31.5207173258
 10
66.2189656938
 20
31.4966267124
 10
66.2256365541
 20
31.4614105293
 10
66.2256365541
 20
31.4179217822
 10
66.2253876573
 20
31.4147072171
  0
LWPOLYLINE
  5
311
330
1F
100
AcDbEntity
  8
0
  6
SLD-Solid
 62
     7
370
    25
100
AcDbPolyline
 90
       15
 70
   128
 43
0.0
 10
66.1860478785
 20
31.2699578413
 10
66.1667315204
 20
31.2355715029
 10
66.1432945394
 20
31.2065071969
 10
66.1198575584
 20
31.189821079
 10
66.0983193022
 20
31.1868649591
 10
66.0804246723
 20
31.1978783245
 10
66.0676233851
 20
31.2219689379
 10
66.0609525247
 20
31.257185121
 10
66.0609525247
 20
31.300673868
 10
66.0676233851
 20
31.3489119795
 10
66.0804246723
 20
31.3979914904
 10
66.0983193022
 20
31.4439362706
 10
66.1198575584
 20
31.4830241474
 10
66.1432945394
 20
31.5120884534
 10
66.1432945394
 20
31.5120884534
  0
LWPOLYLINE
  5
312
330
1F
100
AcDbEntity
  8
0
  6
SLD-Solid
 62
     7
370
    25
100
AcDbPolyline
 90
       13
 70
   128
 43
0.0
 10
66.1325222326
 20
31.2548418752
 10
66.1244124796
 20
31.2513484691
 10
66.1080805466
 20
31.2539810094
 10
66.0965044584
 20
31.2708371692
 10
66.09124763
 20
31.2996404308
 10
66.0930200251
 20
31.3365007541
 10
66.1015822719
 20
31.3764399482
 10
66.1157779916
 20
31.4140640035
 10
66.1336899735
 20
31.444291583
 10
66.1528991053
 20
31.4630402845
 10
66.1708110873
 20
31.4677779921
 10
66.185006807
 20
31.4578648519
 10
66.1868765668
 20
31.4548367961
  0
LWPOLYLINE
  5
313
330
1F
100
AcDbEntity
  8
0
  6
SLD-Solid
 62
     7
370
    25
100
AcDbPolyline
 90
       17
 70
   128
 43
0.0
 10
67.4069852141
 20
31.0314465141
 10
67.4071360071
 20
31.0451585822
 10
67.4044489854
 20
31.0551742775
 10
67.3993332236
 20
31.0599688012
 10
67.3925675502
 20
31.0588122304
 10
67.3851819775
 20
31.0518806426
 10
67.3783008921
 20
31.0402293092
 10
67.3729718768
 20
31.0256320402
 10
67.3700062259
 20
31.0103111373
 10
67.3698554329
 20
30.9965990691
 10
67.3725424547
 20
30.9865833739
 10
67.3776582164
 20
30.9817888502
 10
67.3844238899
 20
30.982945421
 10
67.3918094626
 20
30.9898770088
 10
67.398690548
 20
31.0015283421
 10
67.4040195633
 20
31.0161256112
 10
67.4069852141
 20
31.0314465141
  0
LWPOLYLINE
  5
314
330
1F
100
AcDbEntity
  8
0
  6
SLD-Solid
 62
     7
370
    25
100
AcDbPolyline
 90
       11
 70
   128
 43
0.0
 10
67.2849587945
 20
30.97218019
 10
67.2800177211
 20
30.9726465535
 10
67.2705597904
 20
30.9815105848
 10
67.2655920717
 20
31.0000274267
 10
67.2658708551
 20
31.025378058
 10
67.2713536985
 20
31.0537030748
 10
67.2812058885
 20
31.0806902501
 10
67.2939275187
 20
31.102231031
 10
67.3075818361
 20
31.1150460291
 10
67.3200900946
 20
31.1171842768
 10
67.3238517323
 20
31.1152854299
  0
LWPOLYLINE
  5
315
330
1F
100
AcDbEntity
  8
0
  6
SLD-Solid
 62
     7
370
    25
100
AcDbPolyline
 90
       10
 70
   128
 43
0.0
 10
66.1920906921
 20
31.4237566188
 10
66.1799487309
 20
31.4215125448
 10
66.1662944136
 20
31.4086975468
 10
66.1535727834
 20
31.3871567658
 10
66.1437205933
 20
31.3601695905
 10
66.13823775
 20
31.3318445737
 10
66.1379589665
 20
31.3064939424
 10
66.1429266853
 20
31.2879771005
 10
66.152384616
 20
31.2791130692
 10
66.1527509133
 20
31.279007243
  0
LWPOLYLINE
  5
316
330
1F
100
AcDbEntity
  8
0
  6
SLD-Solid
 62
     7
370
    25
100
AcDbPolyline
 90
       13
 70
   128
 43
0.0
 10
66.2061472772
 20
31.4199363402
 10
66.2052072714
 20
31.4218644766
 10
66.1946935766
 20
31.4317179766
 10
66.1807890538
 20
31.4293410418
 10
66.1656105408
 20
31.415095539
 10
66.1514688283
 20
31.391150217
 10
66.140516864
 20
31.361150534
 10
66.1344219852
 20
31.3296636696
 10
66.1341120819
 20
31.3014832137
 10
66.1396343341
 20
31.2808993851
 10
66.1501480289
 20
31.2710458852
 10
66.1640525516
 20
31.27342282
 10
66.1668074984
 20
31.2751869643
  0
LWPOLYLINE
  5
317
330
1F
100
AcDbEntity
  8
0
  6
SLD-Solid
 62
     7
370
    25
100
AcDbPolyline
 90
       17
 70
   128
 43
0.0
 10
67.4058130829
 20
32.8443505757
 10
67.4074230965
 20
32.8591635493
 10
67.4061515887
 20
32.8712877383
 10
67.402192135
 20
32.878877345
 10
67.3961475262
 20
32.8807769204
 10
67.3889379993
 20
32.8766972714
 10
67.3816611394
 20
32.8672594877
 10
67.3754247824
 20
32.8539003862
 10
67.3711783572
 20
32.838653769
 10
67.3695683435
 20
32.8238407955
 10
67.3708398513
 20
32.8117166064
 10
67.3747993051
 20
32.8041269998
 10
67.3808439139
 20
32.8022274244
 10
67.3880534408
 20
32.8063070734
 10
67.3953303007
 20
32.8157448571
 10
67.4015666576
 20
32.8291039586
 10
67.4058130829
 20
32.8443505757
  0
LWPOLYLINE
  5
318
330
1F
100
AcDbEntity
  8
0
  6
SLD-Solid
 62
     7
370
    25
100
AcDbPolyline
 90
       10
 70
   128
 43
0.0
 10
67.2849587945
 20
32.7928035367
 10
67.2747322159
 20
32.7964401977
 10
67.2674120471
 20
32.8104717295
 10
67.2650613058
 20
32.8328867177
 10
67.2680378709
 20
32.8602726837
 10
67.2758885874
 20
32.8884603623
 10
67.2874182549
 20
32.913158435
 10
67.300871586
 20
32.9306068442
 10
67.314200433
 20
32.9381492277
 10
67.3238517323
 20
32.9359087766
  0
LINE
  5
319
330
1F
100
AcDbEntity
  8
0
  6
SLD-Solid
 62
     7
370
    25
100
AcDbLine
 10
13.8322964621
 20
45.5824730711
 30
0.0
 11
13.8383188047
 21
45.6385775622
 31
0.0
  0
LINE
  5
31A
330
1F
100
AcDbEntity
  8
0
  6
SLD-Solid
 62
     7
370
    25
100
AcDbLine
 10
13.8383188047
 20
45.6385775622
 30
0.0
 11
13.8104454263
 21
45.6226465055
 31
0.0
  0
LINE
  5
31B
330
1F
100
AcDbEntity
  8
0
  6
SLD-Solid
 62
     7
370
    25
100
AcDbLine
 10
13.8104454263
 20
45.6226465055
 30
0.0
 11
13.8165838129
 21
45.6798320692
 31
0.0
  0
LINE
  5
31C
330
1F
100
AcDbEntity
  8
0
  6
SLD-Solid
 62
     7
370
    25
100
AcDbLine
 10
13.8165838129
 20
45.6798320692
 30
0.0
 11
13.7967917517
 21
45.6685198973
 31
0.0
  0
LINE
  5
31D
330
1F
100
AcDbEntity
  8
0
  6
SLD-Solid
 62
     7
370
    25
100
AcDbLine
 10
13.7870121135
 20
45.6434715594
 30
0.0
 11
13.7830989841
 21
45.6070166198
 31
0.0
  0
LINE
  5
31E
330
1F
100
AcDbEntity
  8
0
  6
SLD-Solid
 62
     7
370
    25
100
AcDbLine
 10
13.7830989841
 20
45.6070166198
 30
0.0
 11
13.7736340145
 21
45.6016069072
 31
0.0
  0
LINE
  5
31F
330
1F
100
AcDbEntity
  8
0
  6
SLD-Solid
 62
     7
370
    25
100
AcDbLine
 10
13.7589230467
 20
45.5405364238
 30
0.0
 11
13.7770766416
 21
45.5509121287
 31
0.0
  0
LINE
  5
320
330
1F
100
AcDbEntity
  8
0
  6
SLD-Solid
 62
     7
370
    25
100
AcDbLine
 10
13.7770766416
 20
45.5509121287
 30
0.0
 11
13.770938255
 21
45.493726565
 31
0.0
  0
LINE
  5
321
330
1F
100
AcDbEntity
  8
0
  6
SLD-Solid
 62
     7
370
    25
100
AcDbLine
 10
13.770938255
 20
45.493726565
 30
0.0
 11
13.7982846972
 21
45.5093564508
 31
0.0
  0
LINE
  5
322
330
1F
100
AcDbEntity
  8
0
  6
SLD-Solid
 62
     7
370
    25
100
AcDbLine
 10
13.7982846972
 20
45.5093564508
 30
0.0
 11
13.8044230838
 21
45.5665420144
 31
0.0
  0
LINE
  5
323
330
1F
100
AcDbEntity
  8
0
  6
SLD-Solid
 62
     7
370
    25
100
AcDbLine
 10
13.8044230838
 20
45.5665420144
 30
0.0
 11
13.8322964621
 21
45.5824730711
 31
0.0
  0
LINE
  5
324
330
1F
100
AcDbEntity
  8
0
  6
SLD-Solid
 62
     7
370
    25
100
AcDbLine
 10
13.7622044985
 20
45.5549540585
 30
0.0
 11
13.7770766416
 21
45.5509121287
 31
0.0
  0
LWPOLYLINE
  5
325
330
1F
100
AcDbEntity
  8
0
  6
SLD-Solid
 62
     7
370
    25
100
AcDbPolyline
 90
        5
 70
   128
 43
0.0
 10
12.5258147015
 20
45.902552383
 10
12.525535918
 20
45.8772017518
 10
12.5305036367
 20
45.8586849098
 10
12.5399615675
 20
45.8498208785
 10
12.5403278648
 20
45.8497150523
  0
LWPOLYLINE
  5
326
330
1F
100
AcDbEntity
  8
0
  6
SLD-Solid
 62
     7
370
    25
100
AcDbPolyline
 90
        6
 70
   128
 43
0.0
 10
12.5796676436
 20
45.9944644281
 10
12.5675256824
 20
45.9922203541
 10
12.553871365
 20
45.9794053561
 10
12.5411497349
 20
45.9578645751
 10
12.5312975448
 20
45.9308773998
 10
12.5258147015
 20
45.902552383
  0
LINE
  5
327
330
1F
100
AcDbEntity
  8
0
  6
SLD-Solid
 62
     7
370
    25
100
AcDbLine
 10
13.78550433
 20
45.6294249611
 30
0.0
 11
13.8104454263
 21
45.6226465055
 31
0.0
  0
LINE
  5
328
330
1F
100
AcDbEntity
  8
0
  6
SLD-Solid
 62
     7
370
    25
100
AcDbLine
 10
13.7733436009
 20
45.5161349063
 30
0.0
 11
13.7982846972
 21
45.5093564508
 31
0.0
  0
LINE
  5
329
330
1F
100
AcDbEntity
  8
0
  6
SLD-Solid
 62
     7
370
    25
100
AcDbLine
 10
13.7726959003
 20
45.5986712267
 30
0.0
 11
13.8322964621
 21
45.5824730711
 31
0.0
  0
LINE
  5
32A
330
1F
100
AcDbEntity
  8
0
  6
SLD-Solid
 62
     7
370
    25
100
AcDbLine
 10
13.8044230838
 20
45.5665420144
 30
0.0
 11
13.7672965469
 21
45.5766322116
 31
0.0
  0
LWPOLYLINE
  5
32B
330
1F
100
AcDbEntity
  8
0
  6
SLD-Solid
 62
     7
370
    25
100
AcDbPolyline
 90
        6
 70
   128
 43
0.0
 10
12.4530664479
 20
45.9355586413
 10
12.4560320988
 20
45.9508795441
 10
12.4613611141
 20
45.9654768132
 10
12.4682421995
 20
45.9771281466
 10
12.4756277722
 20
45.9840597344
 10
12.4797208362
 20
45.9854685595
  0
ARC
  5
32C
330
1F
100
AcDbEntity
  8
0
  6
SLD-Solid
 62
     7
370
    25
100
AcDbCircle
 10
12.4823199534
 20
45.9272137786
 30
0.0
 40
0.0304204587849737
100
AcDbArc
 50
164.0786572534
 51
219.0148571998
  0
LINE
  5
32D
330
1F
100
AcDbEntity
  8
0
  6
SLD-Solid
 62
     7
370
    25
100
AcDbLine
 10
13.8270151996
 20
47.3847589486
 30
0.0
 11
13.8383324197
 21
47.4428473213
 31
0.0
  0
LINE
  5
32E
330
1F
100
AcDbEntity
  8
0
  6
SLD-Solid
 62
     7
370
    25
100
AcDbLine
 10
13.8383324197
 20
47.4428473213
 30
0.0
 11
13.8122260588
 21
47.4385532814
 31
0.0
  0
LINE
  5
32F
330
1F
100
AcDbEntity
  8
0
  6
SLD-Solid
 62
     7
370
    25
100
AcDbLine
 10
13.8122260588
 20
47.4385532814
 30
0.0
 11
13.8237613494
 21
47.4977609539
 31
0.0
  0
LINE
  5
330
330
1F
100
AcDbEntity
  8
0
  6
SLD-Solid
 62
     7
370
    25
100
AcDbLine
 10
13.8237613494
 20
47.4977609539
 30
0.0
 11
13.7981485199
 21
47.4935480913
 31
0.0
  0
LINE
  5
331
330
1F
100
AcDbEntity
  8
0
  6
SLD-Solid
 62
     7
370
    25
100
AcDbLine
 10
13.7981485199
 20
47.4935480913
 30
0.0
 11
13.7866132292
 21
47.4343404189
 31
0.0
  0
LINE
  5
332
330
1F
100
AcDbEntity
  8
0
  6
SLD-Solid
 62
     7
370
    25
100
AcDbLine
 10
13.7866132292
 20
47.4343404189
 30
0.0
 11
13.776998528
 21
47.4327589687
 31
0.0
  0
LINE
  5
333
330
1F
100
AcDbEntity
  8
0
  6
SLD-Solid
 62
     7
370
    25
100
AcDbLine
 10
13.7618432072
 20
47.3740392955
 30
0.0
 11
13.7752960091
 21
47.3762520462
 31
0.0
  0
LINE
  5
334
330
1F
100
AcDbEntity
  8
0
  6
SLD-Solid
 62
     7
370
    25
100
AcDbLine
 10
13.7752960091
 20
47.3762520462
 30
0.0
 11
13.7637607184
 21
47.3170443737
 31
0.0
  0
LINE
  5
335
330
1F
100
AcDbEntity
  8
0
  6
SLD-Solid
 62
     7
370
    25
100
AcDbLine
 10
13.7637607184
 20
47.3170443737
 30
0.0
 11
13.789373548
 21
47.3212572363
 31
0.0
  0
LINE
  5
336
330
1F
100
AcDbEntity
  8
0
  6
SLD-Solid
 62
     7
370
    25
100
AcDbLine
 10
13.789373548
 20
47.3212572363
 30
0.0
 11
13.8009088387
 21
47.3804649087
 31
0.0
  0
LINE
  5
337
330
1F
100
AcDbEntity
  8
0
  6
SLD-Solid
 62
     7
370
    25
100
AcDbLine
 10
13.8009088387
 20
47.3804649087
 30
0.0
 11
13.8270151996
 21
47.3847589486
 31
0.0
  0
LINE
  5
338
330
1F
100
AcDbEntity
  8
0
  6
SLD-Solid
 62
     7
370
    25
100
AcDbLine
 10
13.7631390538
 20
47.3795560462
 30
0.0
 11
13.7752960091
 21
47.3762520462
 31
0.0
  0
LWPOLYLINE
  5
339
330
1F
100
AcDbEntity
  8
0
  6
SLD-Solid
 62
     7
370
    25
100
AcDbPolyline
 90
        5
 70
   128
 43
0.0
 10
12.5279817173
 20
47.7374470087
 10
12.5250051521
 20
47.7100610427
 10
12.5273558935
 20
47.6876460545
 10
12.5346760622
 20
47.6736145228
 10
12.5403278648
 20
47.670338399
  0
LWPOLYLINE
  5
33A
330
1F
100
AcDbEntity
  8
0
  6
SLD-Solid
 62
     7
370
    25
100
AcDbPolyline
 90
        6
 70
   128
 43
0.0
 10
12.5796676436
 20
47.8150877748
 10
12.5741442794
 20
47.8153235527
 10
12.5608154323
 20
47.8077811693
 10
12.5473621012
 20
47.7903327601
 10
12.5358324338
 20
47.7656346873
 10
12.5279817173
 20
47.7374470087
  0
LINE
  5
33B
330
1F
100
AcDbEntity
  8
0
  6
SLD-Solid
 62
     7
370
    25
100
AcDbLine
 10
13.7658282248
 20
47.3276563506
 30
0.0
 11
13.789373548
 21
47.3212572363
 31
0.0
  0
LINE
  5
33C
330
1F
100
AcDbEntity
  8
0
  6
SLD-Solid
 62
     7
370
    25
100
AcDbLine
 10
13.7886807356
 20
47.4449523958
 30
0.0
 11
13.8122260588
 21
47.4385532814
 31
0.0
  0
LINE
  5
33D
330
1F
100
AcDbEntity
  8
0
  6
SLD-Solid
 62
     7
370
    25
100
AcDbLine
 10
13.7681209258
 20
47.4007651502
 30
0.0
 11
13.8270151996
 21
47.3847589486
 31
0.0
  0
LINE
  5
33E
330
1F
100
AcDbEntity
  8
0
  6
SLD-Solid
 62
     7
370
    25
100
AcDbLine
 10
13.8009088387
 20
47.3804649087
 30
0.0
 11
13.76560622
 21
47.3900594041
 31
0.0
  0
LWPOLYLINE
  5
33F
330
1F
100
AcDbEntity
  8
0
  6
SLD-Solid
 62
     7
370
    25
100
AcDbPolyline
 90
        6
 70
   128
 43
0.0
 10
12.4542385792
 20
47.763901273
 10
12.4584850044
 20
47.7791478902
 10
12.4647213614
 20
47.7925069917
 10
12.4719982213
 20
47.8019447754
 10
12.4792077482
 20
47.8060244243
 10
12.4797208362
 20
47.8060919062
  0
LWPOLYLINE
  5
340
330
1F
100
AcDbEntity
  8
0
  6
SLD-Solid
 62
     7
370
    25
100
AcDbPolyline
 90
        5
 70
   128
 43
0.0
 10
12.4586837817
 20
47.7286867806
 10
12.4578595271
 20
47.7293745038
 10
12.4539000733
 20
47.7369641104
 10
12.4526285655
 20
47.7490882994
 10
12.4542385792
 20
47.763901273
  0
LWPOLYLINE
  5
341
330
1F
100
AcDbEntity
  8
0
  6
SLD-Solid
 62
     8
370
    25
100
AcDbPolyline
 90
       38
 70
   128
 43
0.0
 10
13.8892186564
 20
47.6711818751
 10
13.8241636595
 20
47.6017229642
 10
13.7597552084
 20
47.5210278879
 10
13.6966334233
 20
47.4298986302
 10
13.6354256367
 20
47.3292408746
 10
13.5767401592
 20
47.220055003
 10
13.5211602333
 20
47.1034261538
 10
13.4692382375
 20
46.9805134367
 10
13.4214901957
 20
46.8525384136
 10
13.3783906495
 20
46.7207729579
 10
13.3403679415
 20
46.5865266137
 10
13.3077999585
 20
46.4511335816
 10
13.2810103757
 20
46.3159394583
 10
13.2602654401
 20
46.1822878638
 10
13.2457713241
 20
46.0515070877
 10
13.2376720768
 20
45.924896888
 10
13.2360481921
 20
45.8037155739
 10
13.2409158089
 20
45.6891674996
 10
13.2522265507
 20
45.5823910955
 10
13.2698680063
 20
45.4844475533
 10
13.2936648468
 20
45.39631028
 10
13.3233805687
 20
45.3188552234
 10
13.3587198436
 20
45.2528521667
 10
13.3993314542
 20
45.1989570779
 10
13.4448117838
 20
45.1577055906
 10
13.4947088286
 20
45.1295076806
 10
13.5485266893
 20
45.1146435914
 10
13.6057304998
 20
45.1132610491
 10
13.665751743
 20
45.1253737938
 10
13.7279939008
 20
45.1508614438
 10
13.7918383826
 20
45.1894706914
 10
13.8566506734
 20
45.2408178204
 10
13.9217866394
 20
45.30439252
 10
13.9865989301
 20
45.3795629564
 10
14.0504434119
 20
45.4655820518
 10
14.1126855697
 20
45.5615949101
 10
14.1727068129
 20
45.6666473121
 10
14.2079942267
 20
45.7347675503
  0
LWPOLYLINE
  5
342
330
1F
100
AcDbEntity
  8
0
  6
SLD-Solid
 62
     8
370
    25
100
AcDbPolyline
 90
       19
 70
   128
 43
0.0
 10
14.536874777
 20
46.9448723324
 10
14.5375215038
 20
46.9546944071
 10
14.5423891206
 20
47.0787443678
 10
14.5407652359
 20
47.1967557595
 10
14.5326659886
 20
47.3075557318
 10
14.5181718726
 20
47.4100431048
 10
14.497426937
 20
47.5031993131
 10
14.4706373542
 20
47.5860985282
 10
14.4380693712
 20
47.6579168607
 10
14.4000466633
 20
47.7179405477
 10
14.3569471171
 20
47.7655730467
 10
14.3091990753
 20
47.8003409646
 10
14.2572770794
 20
47.8218987622
 10
14.2016971535
 20
47.8300321885
 10
14.143011676
 20
47.8246604097
 10
14.0818038894
 20
47.8058368131
 10
14.0186821043
 20
47.773748476
 10
13.9542736532
 20
47.7287143067
 10
13.8892186564
 20
47.6711818751
  0
LWPOLYLINE
  5
343
330
1F
100
AcDbEntity
  8
0
  6
SLD-Solid
 62
     8
370
    25
100
AcDbPolyline
 90
        8
 70
   128
 43
0.0
 10
13.8007768442
 20
47.7809351946
 10
13.868340747
 20
47.8408772799
 10
13.9352738238
 20
47.8882549919
 10
14.0009511386
 20
47.9226259776
 10
14.0647594799
 20
47.9436693245
 10
14.1261030865
 20
47.9511885565
 10
14.1844092096
 20
47.9451134685
 10
14.1915663198
 20
47.9433711636
  0
LWPOLYLINE
  5
344
330
1F
100
AcDbEntity
  8
0
  6
SLD-Solid
 62
     8
370
    25
100
AcDbPolyline
 90
       28
 70
   128
 43
0.0
 10
13.4043248751
 20
45.0485422461
 10
13.3893018438
 20
45.0533776589
 10
13.3365624138
 20
45.0796983221
 10
13.288157229
 20
45.1192349959
 10
13.2445382353
 20
45.1716185371
 10
13.2061126916
 20
45.2363598547
 10
13.173239367
 20
45.3128544765
 10
13.1462251906
 20
45.4003881927
 10
13.1253223867
 20
45.4981437247
 10
13.1107261191
 20
45.6052083554
 10
13.1025726692
 20
45.7205824511
 10
13.1009381635
 20
45.8431887951
 10
13.1058378631
 20
45.9718826449
 10
13.1172260206
 20
46.1054624208
 10
13.134996308
 20
46.2426809242
 10
13.1589828089
 20
46.3822569832
 10
13.1889615678
 20
46.5228874136
 10
13.2246526811
 20
46.6632591869
 10
13.2657229105
 20
46.8020616897
 10
13.3117887943
 20
46.9379989606
 10
13.3624202277
 20
47.0698017897
 10
13.4171444788
 20
47.1962395696
 10
13.4754506019
 20
47.3161317849
 10
13.5367942085
 20
47.4283590341
 10
13.6006025498
 20
47.5318734817
 10
13.6662798646
 20
47.6257086413
 10
13.7332129414
 20
47.7089883991
 10
13.8007768442
 20
47.7809351946
  0
LWPOLYLINE
  5
345
330
1F
100
AcDbEntity
  8
0
  6
SLD-Solid
 62
     8
370
    25
100
AcDbPolyline
 90
       25
 70
   128
 43
0.0
 10
14.0359164991
 20
45.7815345895
 10
14.0410308122
 20
45.7383154544
 10
14.0410308122
 20
45.6797031434
 10
14.0343958925
 20
45.615895767
 10
14.021416031
 20
45.5496820138
 10
14.0026585098
 20
45.4839557424
 10
13.9789431227
 20
45.4215895064
 10
13.9513063459
 20
45.3653090095
 10
13.9209560391
 20
45.3175739794
 10
13.8892186564
 20
45.2804706662
 10
13.8574812736
 20
45.2556206625
 10
13.8271309669
 20
45.2441100328
 10
13.79949419
 20
45.2464418468
 10
13.7757788029
 20
45.2625141932
 10
13.7570212817
 20
45.2916246331
 10
13.7440414202
 20
45.3325009008
 10
13.7374065005
 20
45.3833565071
 10
13.7374065005
 20
45.4419688181
 10
13.7440414202
 20
45.5057761945
 10
13.7570212817
 20
45.5719899477
 10
13.7757788029
 20
45.6377162191
 10
13.79949419
 20
45.7000824551
 10
13.8271309669
 20
45.756362952
 10
13.8574812736
 20
45.8040979821
 10
13.8744123928
 20
45.825427945
  0
LWPOLYLINE
  5
346
330
1F
100
AcDbEntity
  8
0
  6
SLD-Solid
 62
     8
370
    25
100
AcDbPolyline
 90
       19
 70
   128
 43
0.0
 10
13.7617725153
 20
47.173545026
 10
13.762159835
 20
47.1728859955
 10
13.7809317662
 20
47.1522904509
 10
13.8042291099
 20
47.1454938262
 10
13.8306979091
 20
47.1528911165
 10
13.8587998936
 20
47.1740524181
 10
13.8869018781
 20
47.2077479132
 10
13.9133706774
 20
47.252019342
 10
13.936668021
 20
47.30429381
 10
13.9554399522
 20
47.3615333151
 10
13.9685955144
 20
47.4204113054
 10
13.9753701542
 20
47.4775060061
 10
13.9753701542
 20
47.5294992807
 10
13.9685955144
 20
47.573369469
 10
13.9554399522
 20
47.6065669952
 10
13.936668021
 20
47.6271625398
 10
13.9133706774
 20
47.6339591645
 10
13.8869018781
 20
47.6265618742
 10
13.8825125499
 20
47.6241016776
  0
LWPOLYLINE
  5
347
330
1F
100
AcDbEntity
  8
0
  6
SLD-Solid
 62
     8
370
    25
100
AcDbPolyline
 90
       17
 70
   128
 43
0.0
 10
13.7617725153
 20
45.3529216793
 10
13.762159835
 20
45.3522626488
 10
13.7809317662
 20
45.3316671042
 10
13.8042291099
 20
45.3248704795
 10
13.8306979091
 20
45.3322677698
 10
13.8587998936
 20
45.3534290714
 10
13.8869018781
 20
45.3871245665
 10
13.9133706774
 20
45.4313959953
 10
13.936668021
 20
45.4836704633
 10
13.9554399522
 20
45.5409099684
 10
13.9685955144
 20
45.5997879587
 10
13.9753701542
 20
45.6568826594
 10
13.9753701542
 20
45.708875934
 10
13.9685955144
 20
45.7527461223
 10
13.9554399522
 20
45.7859436485
 10
13.936668021
 20
45.8065391931
 10
13.9282691506
 20
45.8107908322
  0
ARC
  5
348
330
1F
100
AcDbEntity
  8
0
  6
SLD-Solid
 62
     8
370
    25
100
AcDbCircle
 10
13.9145433207
 20
45.754917402
 30
0.0
 40
0.0581733109197678
100
AcDbArc
 50
83.4073166307
 51
123.4088292722
  0
LWPOLYLINE
  5
349
330
1F
100
AcDbEntity
  8
0
  6
SLD-Solid
 62
     8
370
    25
100
AcDbPolyline
 90
       34
 70
   128
 43
0.0
 10
66.4526726054
 20
33.7399380169
 10
66.4141685571
 20
33.7471097467
 10
66.3542737487
 20
33.7463868305
 10
66.2916246148
 20
33.7320888443
 10
66.2268060934
 20
33.7043492845
 10
66.1604233776
 20
33.6634271478
 10
66.093096265
 20
33.6097045134
 10
66.0254533707
 20
33.5436829748
 10
65.9581262581
 20
33.4659789575
 10
65.8917435423
 20
33.3773179628
 10
65.826925021
 20
33.2785277947
 10
65.764275887
 20
33.1705308303
 10
65.7043810786
 20
33.0543354082
 10
65.6477998175
 20
32.9310264137
 10
65.5950603875
 20
32.8017551497
 10
65.5466552026
 20
32.667728587
 10
65.503036209
 20
32.5301980958
 10
65.4646106653
 20
32.390447761
 10
65.4317373406
 20
32.2497823939
 10
65.4047231643
 20
32.1095153492
 10
65.3838203604
 20
31.9709562624
 10
65.3692240928
 20
31.8353988224
 10
65.3610706429
 20
31.7041086924
 10
65.3594361372
 20
31.5783116932
 10
65.3643358367
 20
31.4591823573
 10
65.3757239943
 20
31.3478329632
 10
65.3934942817
 20
31.2453031503
 10
65.4174807826
 20
31.1525502118
 10
65.4474595415
 20
31.0704401569
 10
65.4831506548
 20
30.9997396251
 10
65.5242208842
 20
30.9411087281
 10
65.570286768
 20
30.8950948868
 10
65.6209182014
 20
30.8621277201
 10
65.6658770304
 20
30.8449505
  0
ARC
  5
34A
330
1F
100
AcDbEntity
  8
0
  6
SLD-Solid
 62
     8
370
    25
100
AcDbCircle
 10
65.3638831966
 20
31.7983315391
 30
0.0
 40
1.021766485977958
100
AcDbArc
 50
302.0551687401
 51
328.058138054
  0
ARC
  5
34B
330
1F
100
AcDbEntity
  8
0
  6
SLD-Solid
 62
     8
370
    25
100
AcDbCircle
 10
64.0570664628
 20
32.6961063267
 30
0.0
 40
2.607824963340155
100
AcDbArc
 50
329.9565830624
 51
335.5877265366
  0
ARC
  5
34C
330
1F
100
AcDbEntity
  8
0
  6
SLD-Solid
 62
     8
370
    25
100
AcDbCircle
 10
64.0340314448
 20
32.9630022202
 30
0.0
 40
2.702009860046432
100
AcDbArc
 50
354.1014654929
 51
359.5361722734
  0
ARC
  5
34D
330
1F
100
AcDbEntity
  8
0
  6
SLD-Solid
 62
     8
370
    25
100
AcDbCircle
 10
65.723456643
 20
33.0741493393
 30
0.0
 40
1.007874482710106
100
AcDbArc
 50
1.3504221656
 51
27.7182184056
  0
ARC
  5
34E
330
1F
100
AcDbEntity
  8
0
  6
SLD-Solid
 62
     8
370
    25
100
AcDbCircle
 10
65.5321710825
 20
31.5815328634
 30
0.0
 40
0.6788258690584846
100
AcDbArc
 50
300.2347570395
 51
315.3448671379
  0
ARC
  5
34F
330
1F
100
AcDbEntity
  8
0
  6
SLD-Solid
 62
     8
370
    25
100
AcDbCircle
 10
65.6764841516
 20
33.0597368889
 30
0.0
 40
0.9860317663663455
100
AcDbArc
 50
3.3281475671
 51
26.8541732591
  0
LWPOLYLINE
  5
350
330
1F
100
AcDbEntity
  8
0
  6
SLD-Solid
 62
     8
370
    25
100
AcDbPolyline
 90
        3
 70
   128
 43
0.0
 10
66.6683588401
 20
32.9594994033
 10
66.6666004913
 20
32.8507133193
 10
66.6621882678
 20
32.7706409086
  0
ARC
  5
351
330
1F
100
AcDbEntity
  8
0
  6
SLD-Solid
 62
     8
370
    25
100
AcDbCircle
 10
64.1626012219
 20
32.649870726
 30
0.0
 40
2.425806208984674
100
AcDbArc
 50
329.230227653
 51
333.6944374798
  0
LINE
  5
352
330
1F
100
AcDbEntity
  8
0
  6
SLD-Solid
 62
     8
370
    25
100
AcDbLine
 10
66.0656338474
 20
31.1573971164
 30
0.0
 11
66.0150539118
 21
31.1044283322
 31
0.0
  0
LWPOLYLINE
  5
353
330
1F
100
AcDbEntity
  8
0
  6
SLD-Solid
 62
     8
370
    25
100
AcDbPolyline
 90
       12
 70
   128
 43
0.0
 10
13.7483583451
 20
45.457365265
 10
13.7646840522
 20
45.4518922837
 10
13.7850885415
 20
45.4602379795
 10
13.80643283
 20
45.4822963928
 10
13.8264039328
 20
45.5156771521
 10
13.8428376709
 20
45.5567629342
 10
13.853953194
 20
45.6011014572
 10
13.8585459625
 20
45.6438879541
 10
13.8561182788
 20
45.680485844
 10
13.84693322
 20
45.7069291777
 10
13.8319861298
 20
45.7203524098
 10
13.8204131686
 20
45.7214185899
  0
LWPOLYLINE
  5
354
330
1F
100
AcDbEntity
  8
0
  6
SLD-Solid
 62
     8
370
    25
100
AcDbPolyline
 90
       13
 70
   128
 43
0.0
 10
13.7489449689
 20
47.2775185913
 10
13.7537788558
 20
47.2745532272
 10
13.772532316
 20
47.2740968544
 10
13.7935862371
 20
47.2880862345
 10
13.8146591002
 20
47.315005401
 10
13.8334673335
 20
47.3519372447
 10
13.8479727732
 20
47.3948796272
 10
13.8566035297
 20
47.439179075
 10
13.8584243267
 20
47.4800350556
 10
13.8532378526
 20
47.5130201896
 10
13.8416061423
 20
47.5345600258
 10
13.8247896722
 20
47.5423203887
 10
13.8205035976
 20
47.542055199
  0
INSERT
  5
35A
330
1F
100
AcDbEntity
  8
NOTES
100
AcDbBlockReference
  2
SW_NOTE_0_2
 10
13.0182579571
 20
43.2873680602
 30
0.0
  0
LINE
  5
35B
330
1F
100
AcDbEntity
  8
0
  6
SLD-Solid
 62
     7
370
    25
100
AcDbLine
 10
66.4497639237
 20
40.6709892919
 30
0.0
 11
13.3846766231
 21
55.092942973
 31
0.0
  0
LINE
  5
35C
330
1F
100
AcDbEntity
  8
0
  6
SLD-Solid
 62
     7
370
    25
100
AcDbLine
 10
13.0557960727
 20
53.8828381909
 30
0.0
 11
66.1208833734
 21
39.4608845098
 31
0.0
  0
SPLINE
  5
35D
330
1F
100
AcDbEntity
  8
0
  6
SLD-Solid
 62
     7
370
    25
100
AcDbSpline
210
0.0
220
0.0
230
1.0
 70
     8
 71
     3
 72
    43
 73
    39
 74
     0
 42
0.00000001
 43
0.00000001
 40
0.0
 40
0.0
 40
0.0
 40
0.0
 40
0.006921322349332
 40
0.0327243926483083
 40
0.0585322855433531
 40
0.0849381981015381
 40
0.1124094219142962
 40
0.1410747576691855
 40
0.1706851755038077
 40
0.2007927297705509
 40
0.2309949499026173
 40
0.2610805282675333
 40
0.2910100105334191
 40
0.3207916526255008
 40
0.3504490410077934
 40
0.3800079279809458
 40
0.4094918707484057
 40
0.43892134473742
 40
0.4683140875261671
 40
0.4976858116255157
 40
0.5270509862055357
 40
0.556421677317019
 40
0.5858093551271394
 40
0.6152289999288834
 40
0.6446972145840694
 40
0.674233096056351
 40
0.7038591171986002
 40
0.7336017930516009
 40
0.7634914482318746
 40
0.7935592456151997
 40
0.8238268938244463
 40
0.8542788590599362
 40
0.8847560341124378
 40
0.9148367900618877
 40
0.9409719426361347
 40
0.9688265662783916
 40
0.9954767406426541
 40
0.9999999999999999
 40
0.9999999999999999
 40
0.9999999999999999
 40
0.9999999999999999
 10
9.510238052070376
 20
53.94310575286574
 30
0.0
 10
9.515587264904442
 20
53.94118694926556
 30
0.0
 10
9.540878637319462
 20
53.93211474033518
 30
0.0
 10
9.589444943577215
 20
53.92806757681148
 30
0.0
 10
9.65396420739979
 20
53.93123847907377
 30
0.0
 10
9.719647556461075
 20
53.94704397896969
 30
0.0
 10
9.786381775888191
 20
53.97433017120337
 30
0.0
 10
9.854315404605716
 20
54.01378347094909
 30
0.0
 10
9.922959514467827
 20
54.06542044531221
 30
0.0
 10
9.991474361480105
 20
54.12881957539687
 30
0.0
 10
10.05895571551934
 20
54.20304970921781
 30
0.0
 10
10.124709635844
 20
54.28705903392532
 30
0.0
 10
10.18826504727215
 20
54.37989306734935
 30
0.0
 10
10.24926525993057
 20
54.48070767888105
 30
0.0
 10
10.30736616013558
 20
54.58866647337694
 30
0.0
 10
10.36221870785976
 20
54.70290708675467
 30
0.0
 10
10.41346980777812
 20
54.82252661530526
 30
0.0
 10
10.46076942771614
 20
54.94657940185878
 30
0.0
 10
10.50377868792995
 20
55.07408148765229
 30
0.0
 10
10.54217708606657
 20
55.2040186038501
 30
0.0
 10
10.57566759207143
 20
55.33535320132268
 30
0.0
 10
10.60398129794216
 20
55.46703407957454
 30
0.0
 10
10.62688181410494
 20
55.59801215253073
 30
0.0
 10
10.64416667083477
 20
55.72725568530657
 30
0.0
 10
10.65566585581083
 20
55.85376368822067
 30
0.0
 10
10.66123756476348
 20
55.97657435156751
 30
0.0
 10
10.66076137808199
 20
56.09477703561294
 30
0.0
 10
10.65412666560713
 20
56.20752234280399
 30
0.0
 10
10.64121479977613
 20
56.31402752024345
 30
0.0
 10
10.62187400963466
 20
56.41356841721047
 30
0.0
 10
10.59589293666122
 20
56.50544901916786
 30
0.0
 10
10.56300285144529
 20
56.58886139073648
 30
0.0
 10
10.52300660277301
 20
56.66275895167526
 30
0.0
 10
10.47752186668563
 20
56.72356044385174
 30
0.0
 10
10.42636548891397
 20
56.77326322443673
 30
0.0
 10
10.37039685949471
 20
56.80961881427356
 30
0.0
 10
10.32589923270194
 20
56.8306310335032
 30
0.0
 10
10.30071061188649
 20
56.8351492192387
 30
0.0
 10
10.29705574775379
 20
56.83580480713733
 30
0.0
  0
LINE
  5
35E
330
1F
100
AcDbEntity
  8
0
  6
SLD-Solid
 62
     7
370
    25
100
AcDbLine
 10
9.1106991576
 20
54.0503638859
 30
0.0
 11
9.513993821
 21
53.9407570379
 31
0.0
  0
LINE
  5
35F
330
1F
100
AcDbEntity
  8
0
  6
SLD-Solid
 62
     7
370
    25
100
AcDbLine
 10
10.3007893961
 20
56.8357445549
 30
0.0
 11
9.8974947326
 21
56.9453514028
 31
0.0
  0
SPLINE
  5
360
330
1F
100
AcDbEntity
  8
0
  6
SLD-Solid
 62
     7
370
    25
100
AcDbSpline
210
0.0
220
0.0
230
1.0
 70
     8
 71
     3
 72
    19
 73
    15
 74
     0
 42
0.00000001
 43
0.00000001
 40
0.0
 40
0.0
 40
0.0
 40
0.0
 40
0.0559687513876632
 40
0.1282793472515508
 40
0.2050615546783654
 40
0.2872937394949042
 40
0.3740233339347609
 40
0.4638503446948396
 40
0.5554705246396688
 40
0.6477878122580372
 40
0.7396623330819776
 40
0.8299574712701632
 40
0.9175241812957161
 40
1.0
 40
1.0
 40
1.0
 40
1.0
 10
9.867337851715638
 20
56.06872523001952
 30
0.0
 10
9.86668115261376
 20
56.06984985245122
 30
0.0
 10
9.865176010368454
 20
56.07242746634945
 30
0.0
 10
9.859594585953703
 20
56.0900832739102
 30
0.0
 10
9.855422326212082
 20
56.11843054020519
 30
0.0
 10
9.85410756378499
 20
56.15699184981702
 30
0.0
 10
9.857122166459929
 20
56.20355297522628
 30
0.0
 10
9.865014698417784
 20
56.25563305743652
 30
0.0
 10
9.877803779042077
 20
56.31009039717672
 30
0.0
 10
9.894915945147186
 20
56.36363051224221
 30
0.0
 10
9.91534454195115
 20
56.4131030533156
 30
0.0
 10
9.937386244392597
 20
56.45519408643452
 30
0.0
 10
9.959492318651884
 20
56.48838174527489
 30
0.0
 10
9.971442985894425
 20
56.50116458126871
 30
0.0
 10
9.977239424422208
 20
56.50736464705125
 30
0.0
  0
SPLINE
  5
361
330
1F
100
AcDbEntity
  8
0
  6
SLD-Solid
 62
     7
370
    25
100
AcDbSpline
210
0.0
220
0.0
230
1.0
 70
     8
 71
     3
 72
     9
 73
     5
 74
     0
 42
0.00000001
 43
0.00000001
 40
0.0
 40
0.0
 40
0.0
 40
0.0
 40
0.4944575831256949
 40
1.0
 40
1.0
 40
1.0
 40
1.0
 10
9.977239424422208
 20
56.50736464705125
 30
0.0
 10
9.98011699152945
 20
56.50997560819528
 30
0.0
 10
9.985936635530152
 20
56.51525606345199
 30
0.0
 10
9.987513793881318
 20
56.51605634918764
 30
0.0
 10
9.988311114325965
 20
56.51646092757263
 30
0.0
  0
SPLINE
  5
362
330
1F
100
AcDbEntity
  8
0
  6
SLD-Solid
 62
     7
370
    25
100
AcDbSpline
210
0.0
220
0.0
230
1.0
 70
     8
 71
     3
 72
    19
 73
    15
 74
     0
 42
0.00000001
 43
0.00000001
 40
0.0
 40
0.0
 40
0.0
 40
0.0
 40
0.0559687513876519
 40
0.1282793472515403
 40
0.2050615546783574
 40
0.2872937394948968
 40
0.3740233339347558
 40
0.4638503446948358
 40
0.5554705246396658
 40
0.6477878122580358
 40
0.7396623330819796
 40
0.829957471270164
 40
0.9175241812957191
 40
1.0
 40
1.0
 40
1.0
 40
1.0
 10
9.867337851715641
 20
54.24810188332819
 30
0.0
 10
9.86668115261376
 20
54.24922650575989
 30
0.0
 10
9.865176010368467
 20
54.25180411965811
 30
0.0
 10
9.8595945859537
 20
54.26945992721888
 30
0.0
 10
9.855422326212095
 20
54.29780719351386
 30
0.0
 10
9.854107563784986
 20
54.3363685031257
 30
0.0
 10
9.857122166459924
 20
54.38292962853495
 30
0.0
 10
9.865014698417793
 20
54.43500971074518
 30
0.0
 10
9.877803779042068
 20
54.48946705048539
 30
0.0
 10
9.894915945147186
 20
54.54300716555088
 30
0.0
 10
9.915344541951168
 20
54.59247970662427
 30
0.0
 10
9.9373862443926
 20
54.6345707397432
 30
0.0
 10
9.959492318651884
 20
54.66775839858355
 30
0.0
 10
9.971442985894425
 20
54.68054123457738
 30
0.0
 10
9.977239424422212
 20
54.68674130035992
 30
0.0
  0
SPLINE
  5
363
330
1F
100
AcDbEntity
  8
0
  6
SLD-Solid
 62
     7
370
    25
100
AcDbSpline
210
0.0
220
0.0
230
1.0
 70
     8
 71
     3
 72
     9
 73
     5
 74
     0
 42
0.00000001
 43
0.00000001
 40
0.0
 40
0.0
 40
0.0
 40
0.0
 40
0.4944575831256844
 40
1.0
 40
1.0
 40
1.0
 40
1.0
 10
9.977239424422208
 20
54.68674130035992
 30
0.0
 10
9.98011699152945
 20
54.68935226150396
 30
0.0
 10
9.985936635530157
 20
54.69463271676065
 30
0.0
 10
9.987513793881332
 20
54.69543300249632
 30
0.0
 10
9.988311114325969
 20
54.6958375808813
 30
0.0
  0
LINE
  5
364
330
1F
100
AcDbEntity
  8
0
  6
SLD-Solid
 62
     7
370
    25
100
AcDbLine
 10
70.7493525045
 20
40.407120358
 30
0.0
 11
70.346057841
 21
40.516727206
 31
0.0
  0
LINE
  5
365
330
1F
100
AcDbEntity
  8
0
  6
SLD-Solid
 62
     7
370
    25
100
AcDbLine
 10
69.559262266
 20
37.6217396891
 30
0.0
 11
69.9625569295
 21
37.5121328411
 31
0.0
  0
SPLINE
  5
366
330
1F
100
AcDbEntity
  8
0
  6
SLD-Solid
 62
     7
370
    25
100
AcDbSpline
210
0.0
220
0.0
230
1.0
 70
     8
 71
     3
 72
    43
 73
    39
 74
     0
 42
0.00000001
 43
0.00000001
 40
0.0
 40
0.0
 40
0.0
 40
0.0
 40
0.006177470491069
 40
0.0320473466482258
 40
0.057922057887472
 40
0.0843963371023792
 40
0.111938685733263
 40
0.1406782379411925
 40
0.1703653191089623
 40
0.2005508238280044
 40
0.2308312395085657
 40
0.2609947114287165
 40
0.2910016831066958
 40
0.320860431842868
 40
0.3505946051681667
 40
0.3802300220576522
 40
0.4097903007059318
 40
0.4392959695524916
 40
0.4687648120992731
 40
0.4982125815378763
 40
0.5276537845000128
 40
0.557100518276277
 40
0.5865642827308675
 40
0.61606009694174
 40
0.6456046067566213
 40
0.6752169585824701
 40
0.7049196834558636
 40
0.7347393650667813
 40
0.7647064065441861
 40
0.7948520514466058
 40
0.8251980646019731
 40
0.8557288719925747
 40
0.8862849544700742
 40
0.9164435914892052
 40
0.9426464097046405
 40
0.9705731508125772
 40
0.9972923242435573
 40
1.0
 40
1.0
 40
1.0
 40
1.0
 10
70.34804280278644
 20
40.51497697481244
 30
0.0
 10
70.34327868630822
 20
40.51667735873954
 30
0.0
 10
70.31856350677474
 20
40.52549857338165
 30
0.0
 10
70.27059846089851
 20
40.52938645559738
 30
0.0
 10
70.20608972141446
 20
40.52625405811023
 30
0.0
 10
70.14040346570886
 20
40.51043792384671
 30
0.0
 10
70.0736700687267
 20
40.48315474064362
 30
0.0
 10
70.00573620586009
 20
40.44370058423057
 30
0.0
 10
69.93709216186365
 20
40.39206385084621
 30
0.0
 10
69.86857729671229
 20
40.32866465439717
 30
0.0
 10
69.8010959475714
 20
40.2544345384976
 30
0.0
 10
69.73534202593915
 20
40.17042520900596
 30
0.0
 10
69.67178661485879
 20
40.07759117685448
 30
0.0
 10
69.61078640210788
 20
39.97677656498431
 30
0.0
 10
69.55268550192747
 20
39.86881777057853
 30
0.0
 10
69.49783295419674
 20
39.75457715717679
 30
0.0
 10
69.44658185428014
 20
39.6349576286326
 30
0.0
 10
69.39928223434164
 20
39.51090484207738
 30
0.0
 10
69.35627297412796
 20
39.38340275628431
 30
0.0
 10
69.31787457599134
 20
39.25346564008646
 30
0.0
 10
69.28438406998637
 20
39.12213104261357
 30
0.0
 10
69.256070364116
 20
38.990450164363
 30
0.0
 10
69.23316984795194
 20
38.85947209140193
 30
0.0
 10
69.21588499122683
 20
38.73022855864435
 30
0.0
 10
69.20438580623322
 20
38.60372055566188
 30
0.0
 10
69.19881409734631
 20
38.48090989257115
 30
0.0
 10
69.19929028378125
 20
38.36270720756539
 30
0.0
 10
69.20592499718181
 20
38.24996190398016
 30
0.0
 10
69.21883685953186
 20
38.14345671298159
 30
0.0
 10
69.23817766278125
 20
38.0439158670732
 30
0.0
 10
69.26415868636172
 20
37.95203507271787
 30
0.0
 10
69.29704895729752
 20
37.86862342457427
 30
0.0
 10
69.33704451447687
 20
37.79472317009878
 30
0.0
 10
69.38253168817687
 20
37.73393117302901
 30
0.0
 10
69.43367996412265
 20
37.68419683381933
 30
0.0
 10
69.48967934238908
 20
37.64796101838198
 30
0.0
 10
69.53272439217892
 20
37.62729122406509
 30
0.0
 10
69.55641259166482
 20
37.62292909770355
 30
0.0
 10
69.55859223254494
 20
37.62252772194904
 30
0.0
  0
LINE
  5
367
330
1F
100
AcDbEntity
  8
0
  6
SLD-Solid
 62
     7
370
    25
100
AcDbLine
 10
69.8791714413
 20
37.8871395699
 30
0.0
 11
70.0195353939
 21
37.9698428986
 31
0.0
  0
LINE
  5
368
330
1F
100
AcDbEntity
  8
0
  6
SLD-Solid
 62
     7
370
    25
100
AcDbLine
 10
70.1060416026
 20
38.2881395467
 30
0.0
 11
70.02684888
 21
38.4305136752
 31
0.0
  0
LINE
  5
369
330
1F
100
AcDbEntity
  8
0
  6
SLD-Solid
 62
     7
370
    25
100
AcDbLine
 10
68.5497915974
 20
38.4633536072
 30
0.0
 11
68.6451636287
 21
38.4727100131
 31
0.0
  0
LINE
  5
36A
330
1F
100
AcDbEntity
  8
0
  6
SLD-Solid
 62
     7
370
    25
100
AcDbLine
 10
68.6662006832
 20
38.5501151387
 30
0.0
 11
68.5886845352
 21
38.6064588471
 31
0.0
  0
LINE
  5
36B
330
1F
100
AcDbEntity
  8
0
  6
SLD-Solid
 62
     7
370
    25
100
AcDbLine
 10
67.4175837162
 20
38.7701806602
 30
0.0
 11
68.5452168213
 21
38.4637141444
 31
0.0
  0
LINE
  5
36C
330
1F
100
AcDbEntity
  8
0
  6
SLD-Solid
 62
     7
370
    25
100
AcDbLine
 10
68.5845566001
 20
38.6084635203
 30
0.0
 11
67.456923495
 21
38.914930036
 31
0.0
  0
LINE
  5
36D
330
1F
100
AcDbEntity
  8
0
  6
SLD-Solid
 62
     7
370
    25
100
AcDbLine
 10
67.3504794498
 20
38.7183959008
 30
0.0
 11
67.4292347722
 21
38.7647990348
 31
0.0
  0
LINE
  5
36E
330
1F
100
AcDbEntity
  8
0
  6
SLD-Solid
 62
     7
370
    25
100
AcDbLine
 10
67.4696957764
 20
38.9136739216
 30
0.0
 11
67.4252623711
 21
38.9935571122
 31
0.0
  0
SPLINE
  5
36F
330
1F
100
AcDbEntity
  8
0
  6
SLD-Solid
 62
     7
370
    25
100
AcDbSpline
210
0.0
220
0.0
230
1.0
 70
     8
 71
     3
 72
    10
 73
     6
 74
     0
 42
0.00000001
 43
0.00000001
 40
0.0
 40
0.0
 40
0.0
 40
0.0
 40
0.2387493205675049
 40
0.7325839446086179
 40
1.0
 40
1.0
 40
1.0
 40
1.0
 10
67.31233659108769
 20
38.71321808071042
 30
0.0
 10
67.315799414167
 20
38.71201685552013
 30
0.0
 10
67.32642482070173
 20
38.70833098832612
 30
0.0
 10
67.34205897857785
 20
38.71264966546346
 30
0.0
 10
67.35187470635734
 20
38.72006030466366
 30
0.0
 10
67.35532282571474
 20
38.72266355213048
 30
0.0
  0
SPLINE
  5
370
330
1F
100
AcDbEntity
  8
0
  6
SLD-Solid
 62
     7
370
    25
100
AcDbSpline
210
0.0
220
0.0
230
1.0
 70
     8
 71
     3
 72
     9
 73
     5
 74
     0
 42
0.00000001
 43
0.00000001
 40
0.0
 40
0.0
 40
0.0
 40
0.0
 40
0.5093694746661515
 40
1.0
 40
1.0
 40
1.0
 40
1.0
 10
67.42386844895881
 20
38.99427627812999
 30
0.0
 10
67.4207127763059
 20
38.99974317211506
 30
0.0
 10
67.41451752352802
 20
39.01047584114405
 30
0.0
 10
67.40323183773842
 20
39.0148823412738
 30
0.0
 10
67.3976947357907
 20
39.01704430474736
 30
0.0
  0
LINE
  5
371
330
1F
100
AcDbEntity
  8
0
  6
SLD-Solid
 62
     7
370
    25
100
AcDbLine
 10
67.3071116279
 20
38.7131575992
 30
0.0
 11
67.3119956558
 21
38.711830225
 31
0.0
  0
LINE
  5
372
330
1F
100
AcDbEntity
  8
0
  6
SLD-Solid
 62
     7
370
    25
100
AcDbLine
 10
67.3953959868
 20
39.0186989018
 30
0.0
 11
67.3905119589
 21
39.020026276
 31
0.0
  0
SPLINE
  5
373
330
1F
100
AcDbEntity
  8
0
  6
SLD-Solid
 62
     7
370
    25
100
AcDbSpline
210
0.0
220
0.0
230
1.0
 70
     8
 71
     3
 72
    14
 73
    10
 74
     0
 42
0.00000001
 43
0.00000001
 40
0.0
 40
0.0
 40
0.0
 40
0.0
 40
0.0616698436532828
 40
0.2415165499318346
 40
0.4225640371117913
 40
0.607156892754624
 40
0.7795280600605717
 40
0.9255805253213893
 40
1.0
 40
1.0
 40
1.0
 40
1.0
 10
67.27760519971893
 20
38.89050394462381
 30
0.0
 10
67.27607950571702
 20
38.88574041580524
 30
0.0
 10
67.27010445649086
 20
38.86708508967489
 30
0.0
 10
67.26490888039845
 20
38.83312763465197
 30
0.0
 10
67.26300945819487
 20
38.7927805028667
 30
0.0
 10
67.26778955208663
 20
38.75838142356118
 30
0.0
 10
67.27857402771144
 20
38.73352182578525
 30
0.0
 10
67.29278361333316
 20
38.71741060773048
 30
0.0
 10
67.3040936353819
 20
38.7151743554409
 30
0.0
 10
67.30791129081553
 20
38.71441951688555
 30
0.0
  0
SPLINE
  5
374
330
1F
100
AcDbEntity
  8
0
  6
SLD-Solid
 62
     7
370
    25
100
AcDbSpline
210
0.0
220
0.0
230
1.0
 70
     8
 71
     3
 72
    14
 73
    10
 74
     0
 42
0.00000001
 43
0.00000001
 40
0.0
 40
0.0
 40
0.0
 40
0.0
 40
0.0127073121877486
 40
0.1674199958561145
 40
0.3189415894973385
 40
0.4942358118271897
 40
0.6872265634995982
 40
0.8768564019192663
 40
1.0
 40
1.0
 40
1.0
 40
1.0
 10
67.39049099455652
 20
39.01957913951345
 30
0.0
 10
67.38993762730057
 20
39.01987996866026
 30
0.0
 10
67.38264696328537
 20
39.02384342007854
 30
0.0
 10
67.36527920231002
 20
39.02051683097404
 30
0.0
 10
67.34414841963495
 20
39.0098486022561
 30
0.0
 10
67.3231214871656
 20
38.98887584227872
 30
0.0
 10
67.30303295370118
 20
38.95782891049596
 30
0.0
 10
67.28693496967213
 20
38.92342122622792
 30
0.0
 10
67.28024079628929
 20
38.89980285284304
 30
0.0
 10
67.27760519971893
 20
38.89050394462381
 30
0.0
  0
LINE
  5
375
330
1F
100
AcDbEntity
  8
0
  6
SLD-Solid
 62
     7
370
    25
100
AcDbLine
 10
68.5497915974
 20
40.2839769539
 30
0.0
 11
68.6451636287
 21
40.2933333598
 31
0.0
  0
LINE
  5
376
330
1F
100
AcDbEntity
  8
0
  6
SLD-Solid
 62
     7
370
    25
100
AcDbLine
 10
68.6662006832
 20
40.3707384854
 30
0.0
 11
68.5886845352
 21
40.4270821938
 31
0.0
  0
LINE
  5
377
330
1F
100
AcDbEntity
  8
0
  6
SLD-Solid
 62
     7
370
    25
100
AcDbLine
 10
67.4175837162
 20
40.5908040069
 30
0.0
 11
68.5452168213
 21
40.2843374911
 31
0.0
  0
LINE
  5
378
330
1F
100
AcDbEntity
  8
0
  6
SLD-Solid
 62
     7
370
    25
100
AcDbLine
 10
68.5845566001
 20
40.429086867
 30
0.0
 11
67.456923495
 21
40.7355533827
 31
0.0
  0
LINE
  5
379
330
1F
100
AcDbEntity
  8
0
  6
SLD-Solid
 62
     7
370
    25
100
AcDbLine
 10
67.3504794498
 20
40.5390192475
 30
0.0
 11
67.4292347722
 21
40.5854223815
 31
0.0
  0
LINE
  5
37A
330
1F
100
AcDbEntity
  8
0
  6
SLD-Solid
 62
     7
370
    25
100
AcDbLine
 10
67.4696957764
 20
40.7342972683
 30
0.0
 11
67.4252623711
 21
40.8141804588
 31
0.0
  0
SPLINE
  5
37B
330
1F
100
AcDbEntity
  8
0
  6
SLD-Solid
 62
     7
370
    25
100
AcDbSpline
210
0.0
220
0.0
230
1.0
 70
     8
 71
     3
 72
     9
 73
     5
 74
     0
 42
0.00000001
 43
0.00000001
 40
0.0
 40
0.0
 40
0.0
 40
0.0
 40
0.4582136041432666
 40
1.0
 40
1.0
 40
1.0
 40
1.0
 10
67.31493204652833
 20
40.53294028130226
 30
0.0
 10
67.32099217166873
 20
40.53199363006762
 30
0.0
 10
67.33421771775816
 20
40.52992766950671
 30
0.0
 10
67.34614900341722
 20
40.53680597567858
 30
0.0
 10
67.35261321167239
 20
40.54053254838904
 30
0.0
  0
SPLINE
  5
37C
330
1F
100
AcDbEntity
  8
0
  6
SLD-Solid
 62
     7
370
    25
100
AcDbSpline
210
0.0
220
0.0
230
1.0
 70
     8
 71
     3
 72
    10
 73
     6
 74
     0
 42
0.00000001
 43
0.00000001
 40
0.0
 40
0.0
 40
0.0
 40
0.0
 40
0.2431401253883926
 40
0.7372296128782466
 40
1.0
 40
1.0
 40
1.0
 40
1.0
 10
67.426820018227
 20
40.80801834547999
 30
0.0
 10
67.42545798612662
 20
40.81181590971559
 30
0.0
 10
67.42132814373018
 20
40.82333057356147
 30
0.0
 10
67.40985735566883
 20
40.83480540622673
 30
0.0
 10
67.39846191470865
 20
40.83724549801791
 30
0.0
 10
67.39450558866602
 20
40.8380926612592
 30
0.0
  0
LINE
  5
37D
330
1F
100
AcDbEntity
  8
0
  6
SLD-Solid
 62
     7
370
    25
100
AcDbLine
 10
67.3071116279
 20
40.5337809459
 30
0.0
 11
67.3119956558
 21
40.5324535717
 31
0.0
  0
LINE
  5
37E
330
1F
100
AcDbEntity
  8
0
  6
SLD-Solid
 62
     7
370
    25
100
AcDbLine
 10
67.3953959868
 20
40.8393222485
 30
0.0
 11
67.3905119589
 21
40.8406496226
 31
0.0
  0
SPLINE
  5
37F
330
1F
100
AcDbEntity
  8
0
  6
SLD-Solid
 62
     7
370
    25
100
AcDbSpline
210
0.0
220
0.0
230
1.0
 70
     8
 71
     3
 72
    14
 73
    10
 74
     0
 42
0.00000001
 43
0.00000001
 40
0.0
 40
0.0
 40
0.0
 40
0.0
 40
0.066489155302662
 40
0.2580315967824078
 40
0.4515332856384446
 40
0.650215386461698
 40
0.8211041246661843
 40
0.9725245555527243
 40
1.0
 40
1.0
 40
1.0
 40
1.0
 10
67.2736059085892
 20
40.69582056136034
 30
0.0
 10
67.27226757738492
 20
40.69090382347832
 30
0.0
 10
67.26707377192756
 20
40.67182291139753
 30
0.0
 10
67.26359109491413
 20
40.6384228532843
 30
0.0
 10
67.26402179928226
 20
40.59964897419656
 30
0.0
 10
67.27113046951547
 20
40.56824698421432
 30
0.0
 10
67.28432672685567
 20
40.54682999256926
 30
0.0
 10
67.29849678516348
 20
40.5345205355444
 30
0.0
 10
67.30719499073109
 20
40.53437196988866
 30
0.0
 10
67.30853089108888
 20
40.53434915266376
 30
0.0
  0
SPLINE
  5
380
330
1F
100
AcDbEntity
  8
0
  6
SLD-Solid
 62
     7
370
    25
100
AcDbSpline
210
0.0
220
0.0
230
1.0
 70
     8
 71
     3
 72
    14
 73
    10
 74
     0
 42
0.00000001
 43
0.00000001
 40
0.0
 40
0.0
 40
0.0
 40
0.0
 40
0.0676378810000147
 40
0.2093287213869782
 40
0.3569676845275457
 40
0.5300207150863278
 40
0.7096415201882844
 40
0.8859478921273761
 40
1.0
 40
1.0
 40
1.0
 40
1.0
 10
67.39043774407925
 20
40.83918708515122
 30
0.0
 10
67.38702259862822
 20
40.84042690273497
 30
0.0
 10
67.37645325464452
 20
40.84426394531706
 30
0.0
 10
67.35726528615717
 20
40.83815014944365
 30
0.0
 10
67.33633409788115
 20
40.8238572217282
 30
0.0
 10
67.31546668351723
 20
40.79918699616981
 30
0.0
 10
67.29611250111454
 20
40.76475012940842
 30
0.0
 10
67.28139327061278
 20
40.72876900821071
 30
0.0
 10
67.27580210493174
 20
40.70511270140032
 30
0.0
 10
67.2736059085892
 20
40.69582056136034
 30
0.0
  0
SPLINE
  5
381
330
1F
100
AcDbEntity
  8
0
  6
SLD-Solid
 62
     7
370
    25
100
AcDbSpline
210
0.0
220
0.0
230
1.0
 70
     8
 71
     3
 72
    14
 73
    10
 74
     0
 42
0.00000001
 43
0.00000001
 40
0.0
 40
0.0
 40
0.0
 40
0.0
 40
0.0161507734350777
 40
0.2053435956823676
 40
0.3957995999602773
 40
0.5899852153012859
 40
0.7713140163200967
 40
0.9249564080582596
 40
0.9999999999999999
 40
0.9999999999999999
 40
0.9999999999999999
 40
0.9999999999999999
 10
12.37899458706844
 20
53.81331485074088
 30
0.0
 10
12.37936329578938
 20
53.81450353346206
 30
0.0
 10
12.38405111924393
 20
53.82961664151674
 30
0.0
 10
12.38827898542757
 20
53.85995222059033
 30
0.0
 10
12.3903327903172
 20
53.9002588843938
 30
0.0
 10
12.38551361567117
 20
53.9346743097283
 30
0.0
 10
12.37472991986846
 20
53.95951188094919
 30
0.0
 10
12.36065490076547
 20
53.97554838852999
 30
0.0
 10
12.34951302056976
 20
53.97777342210363
 30
0.0
 10
12.34585679862989
 20
53.97850356965737
 30
0.0
  0
SPLINE
  5
382
330
1F
100
AcDbEntity
  8
0
  6
SLD-Solid
 62
     7
370
    25
100
AcDbSpline
210
0.0
220
0.0
230
1.0
 70
     8
 71
     3
 72
    14
 73
    10
 74
     0
 42
0.00000001
 43
0.00000001
 40
0.0
 40
0.0
 40
0.0
 40
0.0
 40
0.0284776764716024
 40
0.1736371979032434
 40
0.315802671980777
 40
0.4802728680875006
 40
0.6613468724241494
 40
0.8392674923854953
 40
1.0
 40
1.0
 40
1.0
 40
1.0
 10
12.26049865392688
 20
53.67467734562043
 30
0.0
 10
12.26181091274
 20
53.67392915890623
 30
0.0
 10
12.26981216043523
 20
53.66936723319258
 30
0.0
 10
12.28798585226932
 20
53.67239624825009
 30
0.0
 10
12.30917705165621
 20
53.68324111218418
 30
0.0
 10
12.33017207386363
 20
53.70416799293488
 30
0.0
 10
12.35032474991615
 20
53.73518993719608
 30
0.0
 10
12.36774223792994
 20
53.77302224013037
 30
0.0
 10
12.3753729004076
 20
53.80034625115492
 30
0.0
 10
12.37899458706844
 20
53.81331485074088
 30
0.0
  0
LINE
  5
383
330
1F
100
AcDbEntity
  8
0
  6
SLD-Solid
 62
     7
370
    25
100
AcDbLine
 10
12.3461977339
 20
53.9798914253
 30
0.0
 11
12.3413137061
 21
53.9812187994
 31
0.0
  0
LINE
  5
384
330
1F
100
AcDbEntity
  8
0
  6
SLD-Solid
 62
     7
370
    25
100
AcDbLine
 10
12.2579133751
 20
53.6743501227
 30
0.0
 11
12.262797403
 21
53.6730227485
 31
0.0
  0
SPLINE
  5
385
330
1F
100
AcDbEntity
  8
0
  6
SLD-Solid
 62
     7
370
    25
100
AcDbSpline
210
0.0
220
0.0
230
1.0
 70
     8
 71
     3
 72
    10
 73
     6
 74
     0
 42
0.00000001
 43
0.00000001
 40
0.0
 40
0.0
 40
0.0
 40
0.0
 40
0.2306232983672599
 40
0.7294937823711063
 40
1.0
 40
1.0
 40
1.0
 40
1.0
 10
12.34051404317658
 20
53.9799568817243
 30
0.0
 10
12.3372020435808
 20
53.98109898827985
 30
0.0
 10
12.32672572514527
 20
53.98471163122176
 30
0.0
 10
12.31124438471096
 20
53.98039088364905
 30
0.0
 10
12.30142477325296
 20
53.97298093173427
 30
0.0
 10
12.29797228249198
 20
53.97037565650171
 30
0.0
  0
SPLINE
  5
386
330
1F
100
AcDbEntity
  8
0
  6
SLD-Solid
 62
     7
370
    25
100
AcDbSpline
210
0.0
220
0.0
230
1.0
 70
     8
 71
     3
 72
     9
 73
     5
 74
     0
 42
0.00000001
 43
0.00000001
 40
0.0
 40
0.0
 40
0.0
 40
0.0
 40
0.5260999341646879
 40
0.9999999999999999
 40
0.9999999999999999
 40
0.9999999999999999
 40
0.9999999999999999
 10
12.22695404469747
 20
53.70217516131407
 30
0.0
 10
12.23081939040395
 20
53.69542588926698
 30
0.0
 10
12.23816656050504
 20
53.68259701093266
 30
0.0
 10
12.25157844601124
 20
53.67730509731039
 30
0.0
 10
12.2579343394356
 20
53.6747972590964
 30
0.0
  0
LINE
  5
387
330
1F
100
AcDbEntity
  8
0
  6
SLD-Solid
 62
     7
370
    25
100
AcDbLine
 10
12.302829912
 20
53.9746531237
 30
0.0
 11
12.2240745897
 21
53.9282499896
 31
0.0
  0
LINE
  5
388
330
1F
100
AcDbEntity
  8
0
  6
SLD-Solid
 62
     7
370
    25
100
AcDbLine
 10
12.1836135855
 20
53.7793751029
 30
0.0
 11
12.2280469908
 21
53.6994919123
 31
0.0
  0
LINE
  5
389
330
1F
100
AcDbEntity
  8
0
  6
SLD-Solid
 62
     7
370
    25
100
AcDbLine
 10
12.2216690606
 20
53.9266886429
 30
0.0
 11
11.1080925405
 21
54.22933488
 31
0.0
  0
LINE
  5
38A
330
1F
100
AcDbEntity
  8
0
  6
SLD-Solid
 62
     7
370
    25
100
AcDbLine
 10
11.0687527618
 20
54.0845855042
 30
0.0
 11
12.1823292818
 21
53.7819392671
 31
0.0
  0
LINE
  5
38B
330
1F
100
AcDbEntity
  8
0
  6
SLD-Solid
 62
     7
370
    25
100
AcDbLine
 10
11.1035177645
 20
54.2296954173
 30
0.0
 11
11.0081457332
 21
54.2203390114
 31
0.0
  0
LINE
  5
38C
330
1F
100
AcDbEntity
  8
0
  6
SLD-Solid
 62
     7
370
    25
100
AcDbLine
 10
10.9871086786
 20
54.1429338858
 30
0.0
 11
11.0646248266
 21
54.0865901774
 31
0.0
  0
SPLINE
  5
38D
330
1F
100
AcDbEntity
  8
0
  6
SLD-Solid
 62
     7
370
    25
100
AcDbSpline
210
0.0
220
0.0
230
1.0
 70
     8
 71
     3
 72
    13
 73
     9
 74
     0
 42
0.00000001
 43
0.00000001
 40
0.0
 40
0.0
 40
0.0
 40
0.0
 40
0.1953686302436018
 40
0.4022869452418317
 40
0.6147448610652025
 40
0.7974823346784353
 40
0.9594016471174049
 40
1.0
 40
1.0
 40
1.0
 40
1.0
 10
12.383754635616
 20
55.6551544563026
 30
0.0
 10
12.38586559780387
 20
55.66866199958159
 30
0.0
 10
12.39021231676801
 20
55.69647561692972
 30
0.0
 10
12.38914701239657
 20
55.73464945008326
 30
0.0
 10
12.38220524476242
 20
55.76602231504993
 30
0.0
 10
12.36899469488924
 20
55.7875482312535
 30
0.0
 10
12.35434394408244
 20
55.79995793476137
 30
0.0
 10
12.34511204535708
 20
55.80001635170782
 30
0.0
 10
12.34326134318927
 20
55.80002806244821
 30
0.0
  0
SPLINE
  5
38E
330
1F
100
AcDbEntity
  8
0
  6
SLD-Solid
 62
     7
370
    25
100
AcDbSpline
210
0.0
220
0.0
230
1.0
 70
     8
 71
     3
 72
    11
 73
     7
 74
     0
 42
0.00000001
 43
0.00000001
 40
0.0
 40
0.0
 40
0.0
 40
0.0
 40
0.177029404750088
 40
0.5808812530288368
 40
0.981471046477014
 40
1.0
 40
1.0
 40
1.0
 40
1.0
 10
12.34836147730832
 20
55.55588094840844
 30
0.0
 10
12.3512626560966
 20
55.56072773522505
 30
0.0
 10
12.36078220666044
 20
55.57663135080331
 30
0.0
 10
12.37278284777079
 20
55.61039212130914
 30
0.0
 10
12.38183768366298
 20
55.63997754497863
 30
0.0
 10
12.38367347646995
 20
55.65451190229346
 30
0.0
 10
12.383754635616
 20
55.6551544563026
 30
0.0
  0
SPLINE
  5
38F
330
1F
100
AcDbEntity
  8
0
  6
SLD-Solid
 62
     7
370
    25
100
AcDbSpline
210
0.0
220
0.0
230
1.0
 70
     8
 71
     3
 72
    12
 73
     8
 74
     0
 42
0.00000001
 43
0.00000001
 40
0.0
 40
0.0
 40
0.0
 40
0.0
 40
0.0993401053988524
 40
0.3253200765666704
 40
0.560786593263402
 40
0.8367855128080589
 40
1.0
 40
1.0
 40
1.0
 40
1.0
 10
12.26368780105156
 20
55.49487568249128
 30
0.0
 10
12.26683356080804
 20
55.49374736391191
 30
0.0
 10
12.27713532967293
 20
55.49005233374099
 30
0.0
 10
12.29606269556215
 20
55.49613126721197
 30
0.0
 10
12.31690839842685
 20
55.5106005670772
 30
0.0
 10
12.33486108730954
 20
55.53067293073768
 30
0.0
 10
12.3447038458262
 20
55.54905139466646
 30
0.0
 10
12.34836147730832
 20
55.55588094840844
 30
0.0
  0
LINE
  5
390
330
1F
100
AcDbEntity
  8
0
  6
SLD-Solid
 62
     7
370
    25
100
AcDbLine
 10
12.3461977339
 20
55.800514772
 30
0.0
 11
12.3413137061
 21
55.8018421461
 31
0.0
  0
LINE
  5
391
330
1F
100
AcDbEntity
  8
0
  6
SLD-Solid
 62
     7
370
    25
100
AcDbLine
 10
12.2579133751
 20
55.4949734693
 30
0.0
 11
12.262797403
 21
55.4936460952
 31
0.0
  0
SPLINE
  5
392
330
1F
100
AcDbEntity
  8
0
  6
SLD-Solid
 62
     7
370
    25
100
AcDbSpline
210
0.0
220
0.0
230
1.0
 70
     8
 71
     3
 72
    10
 73
     6
 74
     0
 42
0.00000001
 43
0.00000001
 40
0.0
 40
0.0
 40
0.0
 40
0.0
 40
0.3906456192601629
 40
0.8372522641465426
 40
1.0
 40
1.0
 40
1.0
 40
1.0
 10
12.33989444290325
 20
55.80127393932879
 30
0.0
 10
12.33336971923272
 20
55.80217825590609
 30
0.0
 10
12.3193855878442
 20
55.80411643481948
 30
0.0
 10
12.30349742207877
 20
55.79727211598409
 30
0.0
 10
12.29520016863059
 20
55.7894086577152
 30
0.0
 10
12.29298411955444
 20
55.78730846762928
 30
0.0
  0
SPLINE
  5
393
330
1F
100
AcDbEntity
  8
0
  6
SLD-Solid
 62
     7
370
    25
100
AcDbSpline
210
0.0
220
0.0
230
1.0
 70
     8
 71
     3
 72
    10
 73
     6
 74
     0
 42
0.00000001
 43
0.00000001
 40
0.0
 40
0.0
 40
0.0
 40
0.0
 40
0.2739576769750516
 40
0.7598584326559578
 40
1.0
 40
1.0
 40
1.0
 40
1.0
 10
12.2258252621303
 20
55.52788927912445
 30
0.0
 10
12.22737127808478
 20
55.52352978291327
 30
0.0
 10
12.23165936109454
 20
55.51143813432444
 30
0.0
 10
12.24320257606879
 20
55.49963749136247
 30
0.0
 10
12.25431282734118
 20
55.49723172442511
 30
0.0
 10
12.25798758991288
 20
55.49643600684133
 30
0.0
  0
LINE
  5
394
330
1F
100
AcDbEntity
  8
0
  6
SLD-Solid
 62
     7
370
    25
100
AcDbLine
 10
12.302829912
 20
55.7952764704
 30
0.0
 11
12.2240745897
 21
55.7488733363
 31
0.0
  0
LINE
  5
395
330
1F
100
AcDbEntity
  8
0
  6
SLD-Solid
 62
     7
370
    25
100
AcDbLine
 10
12.1836135855
 20
55.5999984496
 30
0.0
 11
12.2280469908
 21
55.520115259
 31
0.0
  0
LINE
  5
396
330
1F
100
AcDbEntity
  8
0
  6
SLD-Solid
 62
     7
370
    25
100
AcDbLine
 10
12.2216690606
 20
55.7473119896
 30
0.0
 11
11.1080925405
 21
56.0499582267
 31
0.0
  0
LINE
  5
397
330
1F
100
AcDbEntity
  8
0
  6
SLD-Solid
 62
     7
370
    25
100
AcDbLine
 10
11.0687527618
 20
55.9052088509
 30
0.0
 11
12.1823292818
 21
55.6025626138
 31
0.0
  0
LINE
  5
398
330
1F
100
AcDbEntity
  8
0
  6
SLD-Solid
 62
     7
370
    25
100
AcDbLine
 10
11.1035177645
 20
56.050318764
 30
0.0
 11
11.0081457332
 21
56.0409623581
 31
0.0
  0
LINE
  5
399
330
1F
100
AcDbEntity
  8
0
  6
SLD-Solid
 62
     7
370
    25
100
AcDbLine
 10
10.9871086786
 20
55.9635572325
 30
0.0
 11
11.0646248266
 21
55.9072135241
 31
0.0
  0
LWPOLYLINE
  5
39A
330
1F
100
AcDbEntity
  8
0
  6
SLD-Solid
 62
     7
370
    25
100
AcDbPolyline
 90
       43
 70
   128
 43
0.0
 10
65.9927056397
 20
39.7803327536
 10
65.9959739411
 20
39.8636245724
 10
66.0057058368
 20
39.9514357143
 10
66.0216839324
 20
40.0418046235
 10
66.0435513036
 20
40.1327126079
 10
66.0708194694
 20
40.2221289333
 10
66.1028793042
 20
40.3080561869
 10
66.1390146441
 20
40.3885748956
 10
66.1784182855
 20
40.4618864047
 10
66.2202100159
 20
40.5263530562
 10
66.2634562774
 20
40.5805347716
 10
66.3071910197
 20
40.6232212209
 10
66.3504372812
 20
40.6534588594
 10
66.3922290117
 20
40.6705722282
 10
66.431632653
 20
40.6741790429
 10
66.4677679929
 20
40.6641987332
 10
66.4998278277
 20
40.6408542428
 10
66.5270959935
 20
40.604667049
 10
66.5489633647
 20
40.5564455139
 10
66.5649414603
 20
40.497266827
 10
66.574673356
 20
40.4284529422
 10
66.5779416574
 20
40.3515410482
 10
66.574673356
 20
40.2682492294
 10
66.5649414603
 20
40.1804380875
 10
66.5489633647
 20
40.0900691783
 10
66.5270959935
 20
39.9991611939
 10
66.4998278277
 20
39.9097448685
 10
66.4677679929
 20
39.8238176149
 10
66.431632653
 20
39.7432989061
 10
66.3922290117
 20
39.669987397
 10
66.3504372812
 20
39.6055207455
 10
66.3071910197
 20
39.5513390301
 10
66.2634562774
 20
39.5086525808
 10
66.2202100159
 20
39.4784149423
 10
66.1784182855
 20
39.4613015736
 10
66.1390146441
 20
39.4576947589
 10
66.1028793042
 20
39.4676750685
 10
66.0708194694
 20
39.4910195589
 10
66.0435513036
 20
39.5272067527
 10
66.0216839324
 20
39.5754282878
 10
66.0057058368
 20
39.6346069748
 10
65.9959739411
 20
39.7034208595
 10
65.9927056397
 20
39.7803327536
  0
LWPOLYLINE
  5
39B
330
1F
100
AcDbEntity
  8
0
  6
SLD-Solid
 62
     7
370
    25
100
AcDbPolyline
 90
       16
 70
   128
 43
0.0
 10
12.9276183391
 20
54.2022864347
 10
12.9308866404
 20
54.2855782534
 10
12.9406185362
 20
54.3733893953
 10
12.9565966317
 20
54.4637583045
 10
12.9784640029
 20
54.5546662889
 10
13.0057321688
 20
54.6440826144
 10
13.0377920036
 20
54.7300098679
 10
13.0739273435
 20
54.8105285767
 10
13.1133309848
 20
54.8838400858
 10
13.1551227153
 20
54.9483067373
 10
13.1983689767
 20
55.0024884527
 10
13.2421037191
 20
55.045174902
 10
13.2853499805
 20
55.0754125405
 10
13.327141711
 20
55.0925259092
 10
13.3665453523
 20
55.0961327239
 10
13.3846766231
 20
55.092942973
  0
LWPOLYLINE
  5
39C
330
1F
100
AcDbEntity
  8
0
  6
SLD-Solid
 62
     7
370
    25
100
AcDbPolyline
 90
        8
 70
   128
 43
0.0
 10
13.0557960727
 20
53.8828381909
 10
13.0377920036
 20
53.8896287496
 10
13.0057321688
 20
53.91297324
 10
12.9784640029
 20
53.9491604338
 10
12.9565966317
 20
53.9973819689
 10
12.9406185362
 20
54.0565606558
 10
12.9308866404
 20
54.1253745406
 10
12.9276183391
 20
54.2022864347
  0
LWPOLYLINE
  5
39D
330
1F
100
AcDbEntity
  8
0
  6
SLD-Solid
 62
     7
370
    25
100
AcDbPolyline
 90
       41
 70
   128
 43
0.0
 10
66.012306846
 20
39.7994641319
 10
66.0156681359
 20
39.8811878011
 10
66.0256692395
 20
39.9674606063
 10
66.0420638963
 20
40.0561582248
 10
66.0644484156
 20
40.1450966266
 10
66.0922716161
 20
40.2320858533
 10
66.1248483984
 20
40.3149839414
 10
66.1613766139
 20
40.3917496648
 10
66.2009568168
 20
40.4604927967
 10
66.2426144111
 20
40.5195206529
 10
66.2853236486
 20
40.5673797718
 10
66.328032886
 20
40.602891703
 10
66.3696904803
 20
40.625182025
 10
66.4092706832
 20
40.6337018759
 10
66.4457988987
 20
40.6282414689
 10
66.478375681
 20
40.6089352572
 10
66.5061988816
 20
40.5762586239
 10
66.5285834008
 20
40.5310161761
 10
66.5449780577
 20
40.4743219331
 10
66.5549791612
 20
40.4075718952
 10
66.5583404511
 20
40.3324096699
 10
66.5549791612
 20
40.2506860006
 10
66.5449780577
 20
40.1644131954
 10
66.5285834008
 20
40.075715577
 10
66.5061988816
 20
39.9867771751
 10
66.478375681
 20
39.8997879484
 10
66.4457988987
 20
39.8168898604
 10
66.4092706832
 20
39.740124137
 10
66.3696904803
 20
39.6713810051
 10
66.328032886
 20
39.6123531489
 10
66.2853236486
 20
39.56449403
 10
66.2426144111
 20
39.5289820987
 10
66.2009568168
 20
39.5066917768
 10
66.1613766139
 20
39.4981719258
 10
66.1248483984
 20
39.5036323329
 10
66.0922716161
 20
39.5229385445
 10
66.0644484156
 20
39.5556151779
 10
66.0420638963
 20
39.6008576256
 10
66.0256692395
 20
39.6575518687
 10
66.0156681359
 20
39.7243019066
 10
66.012306846
 20
39.7994641319
  0
LWPOLYLINE
  5
39E
330
1F
100
AcDbEntity
  8
0
  6
SLD-Solid
 62
     7
370
    25
100
AcDbPolyline
 90
       64
 70
   128
 43
0.0
 10
9.9958334207
 20
56.5642484279
 10
9.9307784239
 20
56.494789517
 10
9.8663699728
 20
56.4140944408
 10
9.8032481877
 20
56.3229651831
 10
9.7420404011
 20
56.2223074274
 10
9.6833549235
 20
56.1131215559
 10
9.6277749977
 20
55.9964927066
 10
9.5758530018
 20
55.8735799895
 10
9.52810496
 20
55.7456049665
 10
9.4850054138
 20
55.6138395107
 10
9.4469827058
 20
55.4795931665
 10
9.4144147228
 20
55.3442001344
 10
9.3876251401
 20
55.2090060111
 10
9.3668802045
 20
55.0753544166
 10
9.3523860885
 20
54.9445736405
 10
9.3442868412
 20
54.8179634408
 10
9.3426629565
 20
54.6967821267
 10
9.3475305733
 20
54.5822340525
 10
9.3588413151
 20
54.4754576483
 10
9.3764827706
 20
54.3775141061
 10
9.4002796112
 20
54.2893768329
 10
9.429995333
 20
54.2119217763
 10
9.465334608
 20
54.1459187196
 10
9.5059462185
 20
54.0920236308
 10
9.5514265482
 20
54.0507721434
 10
9.601323593
 20
54.0225742335
 10
9.6551414537
 20
54.0077101443
 10
9.7123452642
 20
54.0063276019
 10
9.7723665074
 20
54.0184403467
 10
9.8346086652
 20
54.0439279967
 10
9.898453147
 20
54.0825372442
 10
9.9632654377
 20
54.1338843732
 10
10.0284014037
 20
54.1974590728
 10
10.0932136945
 20
54.2726295092
 10
10.1570581763
 20
54.3586486047
 10
10.2193003341
 20
54.4546614629
 10
10.2793215773
 20
54.5597138649
 10
10.3365253878
 20
54.6727617528
 10
10.3903432485
 20
54.7926816058
 10
10.4402402933
 20
54.9182816065
 10
10.4857206229
 20
55.0483134858
 10
10.5263322334
 20
55.1814849284
 10
10.5616715084
 20
55.3164724166
 10
10.5913872303
 20
55.4519343842
 10
10.6151840708
 20
55.5865245493
 10
10.6328255263
 20
55.7189052943
 10
10.6441362681
 20
55.8477609599
 10
10.649003885
 20
55.9718109207
 10
10.6473800003
 20
56.0898223123
 10
10.639280753
 20
56.2006222846
 10
10.624786637
 20
56.3031096576
 10
10.6040417014
 20
56.3962658659
 10
10.5772521186
 20
56.4791650811
 10
10.5446841356
 20
56.5509834136
 10
10.5066614276
 20
56.6110071005
 10
10.4635618814
 20
56.6586395995
 10
10.4158138396
 20
56.6934075174
 10
10.3638918438
 20
56.714965315
 10
10.3083119179
 20
56.7230987413
 10
10.2496264404
 20
56.7177269626
 10
10.1884186538
 20
56.698903366
 10
10.1252968686
 20
56.6668150289
 10
10.0608884176
 20
56.6217808596
 10
9.9958334207
 20
56.5642484279
  0
LINE
  5
39F
330
1F
100
AcDbEntity
  8
0
  6
SLD-Solid
 62
     7
370
    25
100
AcDbLine
 10
9.513993821
 20
53.9407570379
 30
0.0
 11
9.5109396395
 21
53.9416087989
 31
0.0
  0
LWPOLYLINE
  5
3A0
330
1F
100
AcDbEntity
  8
0
  6
SLD-Solid
 62
     7
370
    25
100
AcDbPolyline
 90
       28
 70
   128
 43
0.0
 10
9.5040969451
 20
56.7836085954
 10
9.4365330423
 20
56.7116617999
 10
9.3695999655
 20
56.6283820421
 10
9.3039226507
 20
56.5345468825
 10
9.2401143094
 20
56.4310324349
 10
9.1787707028
 20
56.3188051857
 10
9.1204645797
 20
56.1989129704
 10
9.0657403286
 20
56.0724751905
 10
9.0151088952
 20
55.9406723614
 10
8.9690430114
 20
55.8047350906
 10
8.927972782
 20
55.6659325877
 10
8.8922816687
 20
55.5255608144
 10
8.8623029098
 20
55.384930384
 10
8.8383164089
 20
55.2453543251
 10
8.8205461215
 20
55.1081358216
 10
8.8091579639
 20
54.9745560457
 10
8.8042582644
 20
54.8458621959
 10
8.8058927701
 20
54.7232558519
 10
8.81404622
 20
54.6078817562
 10
8.8286424876
 20
54.5008171255
 10
8.8495452915
 20
54.4030615935
 10
8.8765594678
 20
54.3155278773
 10
8.9094327925
 20
54.2390332555
 10
8.9478583362
 20
54.1742919379
 10
8.9914773298
 20
54.1219083967
 10
9.0398825147
 20
54.0823717229
 10
9.0926219447
 20
54.0560510597
 10
9.1106991576
 20
54.0503638859
  0
LWPOLYLINE
  5
3A1
330
1F
100
AcDbEntity
  8
0
  6
SLD-Solid
 62
     7
370
    25
100
AcDbPolyline
 90
        8
 70
   128
 43
0.0
 10
9.8974947326
 20
56.9453514028
 10
9.8877293105
 20
56.9477868693
 10
9.8294231874
 20
56.9538619573
 10
9.7680795808
 20
56.9463427253
 10
9.7042712395
 20
56.9252993784
 10
9.6385939247
 20
56.8909283927
 10
9.5716608479
 20
56.8435506807
 10
9.5040969451
 20
56.7836085954
  0
ARC
  5
3A2
330
1F
100
AcDbEntity
  8
0
  6
SLD-Solid
 62
     7
370
    25
100
AcDbCircle
 10
6.7517102454
 20
56.2458973728
 30
0.0
 40
3.433000541965747
100
AcDbArc
 50
334.3067665166
 51
355.284207166
  0
LWPOLYLINE
  5
3A3
330
1F
100
AcDbEntity
  8
0
  6
SLD-Solid
 62
     7
370
    25
100
AcDbPolyline
 90
       31
 70
   128
 43
0.0
 10
9.9958334207
 20
56.5548911949
 10
10.0275708034
 20
56.5797411986
 10
10.0579211102
 20
56.5912518283
 10
10.0855578871
 20
56.5889200142
 10
10.1092732742
 20
56.5728476679
 10
10.1280307953
 20
56.5437372279
 10
10.1410106569
 20
56.5028609602
 10
10.1476455766
 20
56.4520053539
 10
10.1476455766
 20
56.3933930429
 10
10.1410106569
 20
56.3295856665
 10
10.1280307953
 20
56.2633719133
 10
10.1092732742
 20
56.1976456419
 10
10.0855578871
 20
56.1352794059
 10
10.0579211102
 20
56.078998909
 10
10.0275708034
 20
56.031263879
 10
9.9958334207
 20
55.9941605657
 10
9.964096038
 20
55.969310562
 10
9.9337457312
 20
55.9577999323
 10
9.9061089544
 20
55.9601317464
 10
9.8823935673
 20
55.9762040927
 10
9.8636360461
 20
56.0053145327
 10
9.8506561846
 20
56.0461908003
 10
9.8440212649
 20
56.0970464067
 10
9.8440212649
 20
56.1556587176
 10
9.8506561846
 20
56.219466094
 10
9.8636360461
 20
56.2856798472
 10
9.8823935673
 20
56.3514061186
 10
9.9061089544
 20
56.4137723546
 10
9.9337457312
 20
56.4700528516
 10
9.964096038
 20
56.5177878816
 10
9.9958334207
 20
56.5548911949
  0
LWPOLYLINE
  5
3A4
330
1F
100
AcDbEntity
  8
0
  6
SLD-Solid
 62
     7
370
    25
100
AcDbPolyline
 90
       31
 70
   128
 43
0.0
 10
9.9958334207
 20
54.7342678482
 10
10.0275708034
 20
54.7591178519
 10
10.0579211102
 20
54.7706284816
 10
10.0855578871
 20
54.7682966675
 10
10.1092732742
 20
54.7522243212
 10
10.1280307953
 20
54.7231138812
 10
10.1410106569
 20
54.6822376135
 10
10.1476455766
 20
54.6313820072
 10
10.1476455766
 20
54.5727696962
 10
10.1410106569
 20
54.5089623199
 10
10.1280307953
 20
54.4427485666
 10
10.1092732742
 20
54.3770222953
 10
10.0855578871
 20
54.3146560592
 10
10.0579211102
 20
54.2583755623
 10
10.0275708034
 20
54.2106405323
 10
9.9958334207
 20
54.173537219
 10
9.964096038
 20
54.1486872153
 10
9.9337457312
 20
54.1371765856
 10
9.9061089544
 20
54.1395083997
 10
9.8823935673
 20
54.155580746
 10
9.8636360461
 20
54.184691186
 10
9.8506561846
 20
54.2255674536
 10
9.8440212649
 20
54.27642306
 10
9.8440212649
 20
54.3350353709
 10
9.8506561846
 20
54.3988427473
 10
9.8636360461
 20
54.4650565006
 10
9.8823935673
 20
54.5307827719
 10
9.9061089544
 20
54.5931490079
 10
9.9337457312
 20
54.6494295049
 10
9.964096038
 20
54.6971645349
 10
9.9958334207
 20
54.7342678482
  0
LWPOLYLINE
  5
3A5
330
1F
100
AcDbEntity
  8
0
  6
SLD-Solid
 62
     7
370
    25
100
AcDbPolyline
 90
       43
 70
   128
 43
0.0
 10
9.9958334207
 20
55.9149441976
 10
9.9511428308
 20
55.8651736129
 10
9.9074505548
 20
55.8042124228
 10
9.865732606
 20
55.7334223996
 10
9.8269208944
 20
55.6543848755
 10
9.7918824096
 20
55.5688654182
 10
9.7613998533
 20
55.478774391
 10
9.7361541555
 20
55.3861242786
 10
9.7167092634
 20
55.2929847314
 10
9.7034995437
 20
55.2014363329
 10
9.6968200798
 20
55.1135241232
 10
9.6968200798
 20
55.0312119157
 10
9.7034995437
 20
54.9563384291
 10
9.7167092634
 20
54.8905762134
 10
9.7361541555
 20
54.8353942879
 10
9.7613998533
 20
54.7920253254
 10
9.7918824096
 20
54.7614381171
 10
9.8269208944
 20
54.7443159305
 10
9.865732606
 20
54.7410412471
 10
9.9074505548
 20
54.7516872179
 10
9.9511428308
 20
54.7760160294
 10
9.9958334207
 20
54.8134842162
 10
10.0405240106
 20
54.863254801
 10
10.0842162866
 20
54.9242159911
 10
10.1259342354
 20
54.9950060143
 10
10.164745947
 20
55.0740435383
 10
10.1997844319
 20
55.1595629957
 10
10.2302669882
 20
55.2496540229
 10
10.255512686
 20
55.3423041353
 10
10.2749575781
 20
55.4354436825
 10
10.2881672978
 20
55.5269920809
 10
10.2948467617
 20
55.6149042907
 10
10.2948467617
 20
55.6972164981
 10
10.2881672978
 20
55.7720899847
 10
10.2749575781
 20
55.8378522004
 10
10.255512686
 20
55.893034126
 10
10.2302669882
 20
55.9364030884
 10
10.1997844319
 20
55.9669902968
 10
10.164745947
 20
55.9841124833
 10
10.1259342354
 20
55.9873871667
 10
10.0842162866
 20
55.976741196
 10
10.0405240106
 20
55.9524123845
 10
9.9958334207
 20
55.9149441976
  0
LWPOLYLINE
  5
3A6
330
1F
100
AcDbEntity
  8
0
  6
SLD-Solid
 62
     7
370
    25
100
AcDbPolyline
 90
       22
 70
   128
 43
0.0
 10
10.1415574667
 20
55.9877646764
 10
10.1555635258
 20
55.9790085915
 10
10.1860460821
 20
55.9484213832
 10
10.2112917799
 20
55.9050524207
 10
10.230736672
 20
55.8498704952
 10
10.2439463917
 20
55.7841082795
 10
10.2506258556
 20
55.7092347929
 10
10.2506258556
 20
55.6269225854
 10
10.2439463917
 20
55.5390103757
 10
10.230736672
 20
55.4474619772
 10
10.2112917799
 20
55.35432243
 10
10.1860460821
 20
55.2616723176
 10
10.1555635258
 20
55.1715812904
 10
10.1205250409
 20
55.0860618331
 10
10.0817133293
 20
55.007024309
 10
10.0399953805
 20
54.9362342858
 10
9.9963031046
 20
54.8752730957
 10
9.9516125146
 20
54.825502511
 10
9.9069219247
 20
54.7880343241
 10
9.8632296488
 20
54.7637055126
 10
9.8215116999
 20
54.7530595419
 10
9.8058884687
 20
54.7526820322
  0
LWPOLYLINE
  5
3A7
330
1F
100
AcDbEntity
  8
0
  6
SLD-Solid
 62
     7
370
    25
100
AcDbPolyline
 90
       66
 70
   128
 43
0.0
 10
70.355954717
 20
37.6738756485
 10
70.2883908142
 20
37.6139335632
 10
70.2214577374
 20
37.5665558512
 10
70.1557804226
 20
37.5321848655
 10
70.0919720813
 20
37.5111415186
 10
70.0306284747
 20
37.5036222867
 10
69.9723223516
 20
37.5096973747
 10
69.9175981005
 20
37.5293100612
 10
69.8669666671
 20
37.5622772279
 10
69.8209007833
 20
37.6082910691
 10
69.7798305539
 20
37.6669219661
 10
69.7441394406
 20
37.737622498
 10
69.7141606817
 20
37.8197325529
 10
69.6901741808
 20
37.9124854914
 10
69.6724038934
 20
38.0150153043
 10
69.6610157358
 20
38.1263646984
 10
69.6561160363
 20
38.2454940343
 10
69.657750542
 20
38.3712910335
 10
69.6659039919
 20
38.5025811634
 10
69.6805002595
 20
38.6381386034
 10
69.7014030634
 20
38.7766976902
 10
69.7284172398
 20
38.916964735
 10
69.7612905644
 20
39.0576301021
 10
69.7997161081
 20
39.1973804369
 10
69.8433351017
 20
39.3349109281
 10
69.8917402866
 20
39.4689374907
 10
69.9444797166
 20
39.5982087548
 10
70.0010609778
 20
39.7215177493
 10
70.0609557862
 20
39.8377131714
 10
70.1236049201
 20
39.9457101358
 10
70.1884234415
 20
40.0445003039
 10
70.2548061572
 20
40.1331612985
 10
70.3221332698
 20
40.2108653159
 10
70.3897761642
 20
40.2768868544
 10
70.4571032768
 20
40.3306094889
 10
70.5234859925
 20
40.3715316256
 10
70.5883045139
 20
40.3992711854
 10
70.6509536478
 20
40.4135691716
 10
70.7108484562
 20
40.4142920878
 10
70.7674297174
 20
40.4014331842
 10
70.8201691473
 20
40.3751125211
 10
70.8685743322
 20
40.3355758472
 10
70.9121933259
 20
40.283192306
 10
70.9506188695
 20
40.2184509884
 10
70.9834921942
 20
40.1419563666
 10
71.0105063705
 20
40.0544226504
 10
71.0314091744
 20
39.9566671184
 10
71.0460054421
 20
39.8496024877
 10
71.054158892
 20
39.734228392
 10
71.0557933977
 20
39.611622048
 10
71.0508936981
 20
39.4829281982
 10
71.0395055406
 20
39.3493484224
 10
71.0217352531
 20
39.2121299189
 10
70.9977487522
 20
39.0725538599
 10
70.9677699933
 20
38.9319234296
 10
70.9320788801
 20
38.7915516562
 10
70.8910086507
 20
38.6527491534
 10
70.8449427669
 20
38.5168118825
 10
70.7943113334
 20
38.3850090534
 10
70.7395870824
 20
38.2585712735
 10
70.6812809593
 20
38.1386790583
 10
70.6199373527
 20
38.026451809
 10
70.5561290114
 20
37.9229373614
 10
70.4904516966
 20
37.8291022018
 10
70.4235186198
 20
37.745822444
 10
70.355954717
 20
37.6738756485
  0
LWPOLYLINE
  5
3A8
330
1F
100
AcDbEntity
  8
0
  6
SLD-Solid
 62
     7
370
    25
100
AcDbPolyline
 90
       65
 70
   128
 43
0.0
 10
70.355954717
 20
37.7167340135
 10
70.2896257032
 20
37.6579797302
 10
70.2239354741
 20
37.6117610178
 10
70.1595166625
 20
37.5785229877
 10
70.0969896567
 20
37.5585857404
 10
70.036956626
 20
37.5521412825
 10
69.9799957213
 20
37.5592516776
 10
69.9266555073
 20
37.5798484487
 10
69.8774496793
 20
37.6137332377
 10
69.8328521164
 20
37.6605797155
 10
69.7932923175
 20
37.7199367249
 10
69.7591512652
 20
37.7912326254
 10
69.7307577562
 20
37.8737807987
 10
69.7083852358
 20
37.9667862606
 10
69.6922491635
 20
38.0693533177
 10
69.6825049385
 20
38.1804941932
 10
69.679246403
 20
38.2991385397
 10
69.6825049385
 20
38.4241437472
 10
69.6922491635
 20
38.5543059474
 10
69.7083852358
 20
38.688371607
 10
69.7307577562
 20
38.8250496005
 10
69.7591512652
 20
38.963023644
 10
69.7932923175
 20
39.1009649721
 10
69.8328521164
 20
39.2375451345
 10
69.8774496793
 20
39.3714487894
 10
69.9266555073
 20
39.5013863715
 10
69.9799957213
 20
39.6261065109
 10
70.036956626
 20
39.7444080843
 10
70.0969896567
 20
39.8551517831
 10
70.1595166625
 20
39.9572710848
 10
70.2239354741
 20
40.0497825248
 10
70.2896257032
 20
40.1317951672
 10
70.355954717
 20
40.2025191856
 10
70.4222837308
 20
40.2612734689
 10
70.4879739599
 20
40.3074921813
 10
70.5523927715
 20
40.3407302114
 10
70.6149197773
 20
40.3606674587
 10
70.674952808
 20
40.3671119166
 10
70.7319137127
 20
40.3600015215
 10
70.7852539267
 20
40.3394047504
 10
70.8344597547
 20
40.3055199614
 10
70.8790573175
 20
40.2586734837
 10
70.9186171164
 20
40.1993164743
 10
70.9527581688
 20
40.1280205737
 10
70.9811516777
 20
40.0454724004
 10
71.0035241981
 20
39.9524669385
 10
71.0196602704
 20
39.8498998814
 10
71.0294044954
 20
39.7387590059
 10
71.0326630309
 20
39.6201146594
 10
71.0294044954
 20
39.4951094519
 10
71.0196602704
 20
39.3649472517
 10
71.0035241981
 20
39.2308815921
 10
70.9811516777
 20
39.0942035987
 10
70.9527581688
 20
38.9562295551
 10
70.9186171164
 20
38.818288227
 10
70.8790573175
 20
38.6817080647
 10
70.8344597547
 20
38.5478044097
 10
70.7852539267
 20
38.4178668276
 10
70.7319137127
 20
38.2931466883
 10
70.674952808
 20
38.1748451148
 10
70.6149197773
 20
38.064101416
 10
70.5523927715
 20
37.9619821143
 10
70.4879739599
 20
37.8694706744
 10
70.4222837308
 20
37.7874580319
 10
70.355954717
 20
37.7167340135
  0
LWPOLYLINE
  5
3A9
330
1F
100
AcDbEntity
  8
0
  6
SLD-Solid
 62
     7
370
    25
100
AcDbPolyline
 90
       21
 70
   128
 43
0.0
 10
69.8791714413
 20
37.8871395699
 10
69.8779103111
 20
37.8864075018
 10
69.8488089693
 20
37.8760129937
 10
69.8224958683
 20
37.8794089478
 10
69.8002013795
 20
37.8964365731
 10
69.7829679685
 20
37.9262996768
 10
69.7716014503
 20
37.9676018933
 10
69.7666333108
 20
38.018411977
 10
69.7682958546
 20
38.0763541046
 10
69.776511343
 20
38.1387189669
 10
69.7908956289
 20
38.2025904521
 10
69.8107761191
 20
38.2649820005
 10
69.8352232239
 20
38.3229762527
 10
69.863093824
 20
38.373861462
 10
69.893084721
 20
38.4152582924
 10
69.9237935739
 20
38.4452310743
 10
69.9537844709
 20
38.4623783136
 10
69.9816550709
 20
38.4658982245
 10
70.0061021758
 20
38.4556262198
 10
70.025982666
 20
38.4320426072
 10
70.02684888
 20
38.4305136752
  0
LWPOLYLINE
  5
3AA
330
1F
100
AcDbEntity
  8
0
  6
SLD-Solid
 62
     7
370
    25
100
AcDbPolyline
 90
       20
 70
   128
 43
0.0
 10
69.9084391474
 20
38.5305217516
 10
69.9531297373
 20
38.5802923363
 10
69.9968220133
 20
38.6412535264
 10
70.0385399621
 20
38.7120435496
 10
70.0773516737
 20
38.7910810737
 10
70.1123901586
 20
38.876600531
 10
70.1428727149
 20
38.9666915582
 10
70.1681184127
 20
39.0593416706
 10
70.1875633048
 20
39.1524812179
 10
70.2007730245
 20
39.2440296163
 10
70.2074524884
 20
39.331941826
 10
70.2074524884
 20
39.4142540335
 10
70.2007730245
 20
39.4891275201
 10
70.1875633048
 20
39.5548897358
 10
70.1681184127
 20
39.6100716613
 10
70.1428727149
 20
39.6534406238
 10
70.1123901586
 20
39.6840278321
 10
70.0773516737
 20
39.7011500187
 10
70.0385399621
 20
39.7044247021
 10
70.0147677171
 20
39.6999734091
  0
LWPOLYLINE
  5
3AB
330
1F
100
AcDbEntity
  8
0
  6
SLD-Solid
 62
     7
370
    25
100
AcDbPolyline
 90
        7
 70
   128
 43
0.0
 10
69.6869623928
 20
38.4938248848
 10
69.7044881363
 20
38.4784756524
 10
69.7395266211
 20
38.4613534659
 10
69.7783383327
 20
38.4580787825
 10
69.8200562815
 20
38.4687247532
 10
69.8637485575
 20
38.4930535647
 10
69.9084391474
 20
38.5305217516
  0
ARC
  5
3AC
330
1F
100
AcDbEntity
  8
0
  6
SLD-Solid
 62
     7
370
    25
100
AcDbCircle
 10
69.7089713952
 20
38.6709934546
 30
0.0
 40
0.2014990355771979
100
AcDbArc
 50
272.7087949272
 51
320.3951694633
  0
LWPOLYLINE
  5
3AD
330
1F
100
AcDbEntity
  8
0
  6
SLD-Solid
 62
     7
370
    25
100
AcDbPolyline
 90
       18
 70
   128
 43
0.0
 10
70.0541631934
 20
39.7048022117
 10
70.0681692525
 20
39.6960461269
 10
70.0986518088
 20
39.6654589185
 10
70.1238975066
 20
39.6220899561
 10
70.1433423987
 20
39.5669080305
 10
70.1565521184
 20
39.5011458148
 10
70.1632315823
 20
39.4262723282
 10
70.1632315823
 20
39.3439601207
 10
70.1565521184
 20
39.256047911
 10
70.1433423987
 20
39.1644995126
 10
70.1238975066
 20
39.0713599654
 10
70.0986518088
 20
38.978709853
 10
70.0681692525
 20
38.8886188257
 10
70.0331307676
 20
38.8030993684
 10
69.994319056
 20
38.7240618443
 10
69.9526011072
 20
38.6532718212
 10
69.9089088312
 20
38.5923106311
 10
69.8642182413
 20
38.5425400463
  0
LWPOLYLINE
  5
3AE
330
1F
100
AcDbEntity
  8
0
  6
SLD-Solid
 62
     7
370
    25
100
AcDbPolyline
 90
       23
 70
   128
 43
0.0
 10
70.0366797751
 20
38.2888776424
 10
70.0601167561
 20
38.3055637604
 10
70.0816550123
 20
38.3085198803
 10
70.0995496422
 20
38.2975065148
 10
70.1123509294
 20
38.2734159015
 10
70.1190217897
 20
38.2381997184
 10
70.1190217897
 20
38.1947109713
 10
70.1123509294
 20
38.1464728598
 10
70.0995496422
 20
38.097393349
 10
70.0816550123
 20
38.0514485687
 10
70.0601167561
 20
38.0123606919
 10
70.0366797751
 20
37.983296386
 10
70.0132427941
 20
37.966610268
 10
69.9917045379
 20
37.9636541481
 10
69.9738099079
 20
37.9746675136
 10
69.9610086207
 20
37.9987581269
 10
69.9543377604
 20
38.03397431
 10
69.9543377604
 20
38.0774630571
 10
69.9610086207
 20
38.1257011685
 10
69.9738099079
 20
38.1747806794
 10
69.9917045379
 20
38.2207254597
 10
70.0132427941
 20
38.2598133365
 10
70.0366797751
 20
38.2888776424
  0
LWPOLYLINE
  5
3AF
330
1F
100
AcDbEntity
  8
0
  6
SLD-Solid
 62
     7
370
    25
100
AcDbPolyline
 90
       18
 70
   128
 43
0.0
 10
70.0366797751
 20
38.0400842765
 10
70.0177977152
 20
38.0281376581
 10
70.0014657822
 20
38.0307701984
 10
69.9898896941
 20
38.0476263583
 10
69.9846328656
 20
38.0764296199
 10
69.9864052607
 20
38.1132899432
 10
69.9949675075
 20
38.1532291372
 10
70.0091632272
 20
38.1908531926
 10
70.0270752092
 20
38.2210807721
 10
70.046284341
 20
38.2398294736
 10
70.0641963229
 20
38.2445671811
 10
70.0783920426
 20
38.234654041
 10
70.0869542894
 20
38.2114288777
 10
70.0887266845
 20
38.1780283783
 10
70.0834698561
 20
38.1389634652
 10
70.0718937679
 20
38.0995100715
 10
70.0555618349
 20
38.0649965966
 10
70.0366797751
 20
38.0400842765
  0
LWPOLYLINE
  5
3B0
330
1F
100
AcDbEntity
  8
0
  6
SLD-Solid
 62
     7
370
    25
100
AcDbPolyline
 90
       17
 70
   128
 43
0.0
 10
68.671818017
 20
38.5226199313
 10
68.67196881
 20
38.5363319994
 10
68.6692817883
 20
38.5463476947
 10
68.6641660265
 20
38.5511422184
 10
68.657400353
 20
38.5499856476
 10
68.6500147803
 20
38.5430540598
 10
68.6431336949
 20
38.5314027265
 10
68.6378046796
 20
38.5168054574
 10
68.6348390288
 20
38.5014845545
 10
68.6346882358
 20
38.4877724864
 10
68.6373752575
 20
38.4777567911
 10
68.6424910193
 20
38.4729622674
 10
68.6492566928
 20
38.4741188382
 10
68.6566422654
 20
38.481050426
 10
68.6635233509
 20
38.4927017593
 10
68.6688523661
 20
38.5072990284
 10
68.671818017
 20
38.5226199313
  0
LWPOLYLINE
  5
3B1
330
1F
100
AcDbEntity
  8
0
  6
SLD-Solid
 62
     7
370
    25
100
AcDbPolyline
 90
       11
 70
   128
 43
0.0
 10
68.5497915974
 20
38.4633536072
 10
68.544850524
 20
38.4638199707
 10
68.5353925933
 20
38.472684002
 10
68.5304248746
 20
38.4912008439
 10
68.530703658
 20
38.5165514752
 10
68.5361865014
 20
38.544876492
 10
68.5460386914
 20
38.5718636673
 10
68.5587603216
 20
38.5934044483
 10
68.5724146389
 20
38.6062194463
 10
68.5849228975
 20
38.6083576941
 10
68.5886845352
 20
38.6064588471
  0
LWPOLYLINE
  5
3B2
330
1F
100
AcDbEntity
  8
0
  6
SLD-Solid
 62
     7
370
    25
100
AcDbPolyline
 90
       10
 70
   128
 43
0.0
 10
67.456923495
 20
38.914930036
 10
67.4447815338
 20
38.912685962
 10
67.4311272164
 20
38.899870964
 10
67.4184055863
 20
38.878330183
 10
67.4085533962
 20
38.8513430077
 10
67.4030705529
 20
38.8230179909
 10
67.4027917694
 20
38.7976673596
 10
67.4077594881
 20
38.7791505177
 10
67.4172174189
 20
38.7702864864
 10
67.4175837162
 20
38.7701806602
  0
LWPOLYLINE
  5
3B3
330
1F
100
AcDbEntity
  8
0
  6
SLD-Solid
 62
     7
370
    25
100
AcDbPolyline
 90
       13
 70
   128
 43
0.0
 10
67.47098008
 20
38.9111097574
 10
67.4700400742
 20
38.9130378938
 10
67.4595263794
 20
38.9228913938
 10
67.4456218567
 20
38.920514459
 10
67.4304433436
 20
38.9062689563
 10
67.4163016312
 20
38.8823236343
 10
67.4053496669
 20
38.8523239512
 10
67.3992547881
 20
38.8208370869
 10
67.3989448848
 20
38.7926566309
 10
67.4044671369
 20
38.7720728023
 10
67.4149808317
 20
38.7622193024
 10
67.4288853545
 20
38.7645962372
 10
67.4316403013
 20
38.7663603815
  0
LINE
  5
3B4
330
1F
100
AcDbEntity
  8
0
  6
SLD-Solid
 62
     7
370
    25
100
AcDbLine
 10
67.3953959868
 20
39.0186989018
 30
0.0
 11
67.3969969202
 21
39.0182067306
 31
0.0
  0
LWPOLYLINE
  5
3B5
330
1F
100
AcDbEntity
  8
0
  6
SLD-Solid
 62
     7
370
    25
100
AcDbPolyline
 90
       17
 70
   128
 43
0.0
 10
68.6706458857
 20
40.3355239929
 10
68.6722558994
 20
40.3503369665
 10
68.6709843916
 20
40.3624611555
 10
68.6670249378
 20
40.3700507622
 10
68.6609803291
 20
40.3719503376
 10
68.6537708021
 20
40.3678706886
 10
68.6464939422
 20
40.3584329049
 10
68.6402575853
 20
40.3450738034
 10
68.6360111601
 20
40.3298271863
 10
68.6344011464
 20
40.3150142127
 10
68.6356726542
 20
40.3028900236
 10
68.6396321079
 20
40.295300417
 10
68.6456767167
 20
40.2934008416
 10
68.6528862436
 20
40.2974804906
 10
68.6601631036
 20
40.3069182743
 10
68.6663994605
 20
40.3202773758
 10
68.6706458857
 20
40.3355239929
  0
LWPOLYLINE
  5
3B6
330
1F
100
AcDbEntity
  8
0
  6
SLD-Solid
 62
     7
370
    25
100
AcDbPolyline
 90
       10
 70
   128
 43
0.0
 10
68.5497915974
 20
40.2839769539
 10
68.5395650188
 20
40.2876136149
 10
68.53224485
 20
40.3016451467
 10
68.5298941087
 20
40.3240601349
 10
68.5328706738
 20
40.3514461009
 10
68.5407213903
 20
40.3796337795
 10
68.5522510578
 20
40.4043318523
 10
68.5657043889
 20
40.4217802614
 10
68.5790332359
 20
40.4293226449
 10
68.5886845352
 20
40.4270821938
  0
LWPOLYLINE
  5
3B7
330
1F
100
AcDbEntity
  8
0
  6
SLD-Solid
 62
     7
370
    25
100
AcDbPolyline
 90
       10
 70
   128
 43
0.0
 10
67.456923495
 20
40.7355533827
 10
67.4514001307
 20
40.7357891606
 10
67.4380712837
 20
40.7282467772
 10
67.4246179526
 20
40.710798368
 10
67.4130882851
 20
40.6861002952
 10
67.4052375686
 20
40.6579126166
 10
67.4022610035
 20
40.6305266506
 10
67.4046117449
 20
40.6081116624
 10
67.4119319136
 20
40.5940801307
 10
67.4175837162
 20
40.5908040069
  0
LWPOLYLINE
  5
3B8
330
1F
100
AcDbEntity
  8
0
  6
SLD-Solid
 62
     7
370
    25
100
AcDbPolyline
 90
       12
 70
   128
 43
0.0
 10
67.47098008
 20
40.7317331041
 10
67.4654018918
 20
40.7399905509
 10
67.4529792703
 20
40.743894477
 10
67.438162559
 20
40.735510157
 10
67.4232074677
 20
40.7161140275
 10
67.4103907736
 20
40.6886589735
 10
67.4016637022
 20
40.6573247781
 10
67.3983548709
 20
40.6268817884
 10
67.4009680194
 20
40.6019646736
 10
67.4091053194
 20
40.5863668387
 10
67.4215279408
 20
40.5824629126
 10
67.4316403013
 20
40.5869837282
  0
LINE
  5
3B9
330
1F
100
AcDbEntity
  8
0
  6
SLD-Solid
 62
     7
370
    25
100
AcDbLine
 10
67.3136783521
 20
40.5320570519
 30
0.0
 11
67.3119956558
 21
40.5324535717
 31
0.0
  0
LINE
  5
3BA
330
1F
100
AcDbEntity
  8
0
  6
SLD-Solid
 62
     7
370
    25
100
AcDbLine
 10
12.262797403
 20
53.6730227485
 30
0.0
 11
12.2611964695
 21
53.6735149197
 31
0.0
  0
LWPOLYLINE
  5
3BB
330
1F
100
AcDbEntity
  8
0
  6
SLD-Solid
 62
     7
370
    25
100
AcDbPolyline
 90
       20
 70
   128
 43
0.0
 10
12.2588333398
 20
53.7854405338
 10
12.2577358288
 20
53.7451995052
 10
12.2636224864
 20
53.7132430489
 10
12.2758554019
 20
53.6930341429
 10
12.2931089491
 20
53.6867627357
 10
12.3135134384
 20
53.6951084315
 10
12.3348577269
 20
53.7171668447
 10
12.3548288297
 20
53.750547604
 10
12.3712625678
 20
53.7916333861
 10
12.3823780909
 20
53.8359719091
 10
12.3869708594
 20
53.878758406
 10
12.3845431757
 20
53.9153562959
 10
12.3753581169
 20
53.9417996297
 10
12.3604110267
 20
53.9552228617
 10
12.3413216543
 20
53.9541713765
 10
12.3201586293
 20
53.9387591189
 10
12.2992152939
 20
53.9106562461
 10
12.2807611834
 20
53.8729081404
 10
12.2667960871
 20
53.8296053948
 10
12.2588333398
 20
53.7854405338
  0
LINE
  5
3BC
330
1F
100
AcDbEntity
  8
0
  6
SLD-Solid
 62
     7
370
    25
100
AcDbLine
 10
12.2280469908
 20
53.6994919123
 30
0.0
 11
12.2269947164
 21
53.7014712971
 31
0.0
  0
LINE
  5
3BD
330
1F
100
AcDbEntity
  8
0
  6
SLD-Solid
 62
     7
370
    25
100
AcDbLine
 10
12.298623728
 20
53.9719364745
 30
0.0
 11
12.302829912
 21
53.9746531237
 31
0.0
  0
ARC
  5
3BE
330
1F
100
AcDbEntity
  8
0
  6
SLD-Solid
 62
     7
370
    25
100
AcDbCircle
 10
12.3225951537
 20
53.822292336
 30
0.0
 40
0.1446835370612982
100
AcDbArc
 50
132.9170099359
 51
177.4317915297
  0
ARC
  5
3BF
330
1F
100
AcDbEntity
  8
0
  6
SLD-Solid
 62
     7
370
    25
100
AcDbCircle
 10
12.2537397634
 20
53.8122757043
 30
0.0
 40
0.0774605086370566
100
AcDbArc
 50
167.7013106117
 51
205.1342277356
  0
LINE
  5
3C0
330
1F
100
AcDbEntity
  8
0
  6
SLD-Solid
 62
     7
370
    25
100
AcDbLine
 10
12.3607213591
 20
53.817343523
 30
0.0
 11
12.3667437016
 21
53.8734480141
 31
0.0
  0
LINE
  5
3C1
330
1F
100
AcDbEntity
  8
0
  6
SLD-Solid
 62
     7
370
    25
100
AcDbLine
 10
12.3667437016
 20
53.8734480141
 30
0.0
 11
12.3388703232
 21
53.8575169575
 31
0.0
  0
LINE
  5
3C2
330
1F
100
AcDbEntity
  8
0
  6
SLD-Solid
 62
     7
370
    25
100
AcDbLine
 10
12.3388703232
 20
53.8575169575
 30
0.0
 11
12.3450087098
 21
53.9147025211
 31
0.0
  0
LINE
  5
3C3
330
1F
100
AcDbEntity
  8
0
  6
SLD-Solid
 62
     7
370
    25
100
AcDbLine
 10
12.3450087098
 20
53.9147025211
 30
0.0
 11
12.3176622676
 21
53.8990726354
 31
0.0
  0
LINE
  5
3C4
330
1F
100
AcDbEntity
  8
0
  6
SLD-Solid
 62
     7
370
    25
100
AcDbLine
 10
12.3176622676
 20
53.8990726354
 30
0.0
 11
12.3115238811
 21
53.8418870717
 31
0.0
  0
LINE
  5
3C5
330
1F
100
AcDbEntity
  8
0
  6
SLD-Solid
 62
     7
370
    25
100
AcDbLine
 10
12.3115238811
 20
53.8418870717
 30
0.0
 11
12.2836505027
 21
53.8259560151
 31
0.0
  0
LINE
  5
3C6
330
1F
100
AcDbEntity
  8
0
  6
SLD-Solid
 62
     7
370
    25
100
AcDbLine
 10
12.2836505027
 20
53.8259560151
 30
0.0
 11
12.2776281601
 21
53.769851524
 31
0.0
  0
LINE
  5
3C7
330
1F
100
AcDbEntity
  8
0
  6
SLD-Solid
 62
     7
370
    25
100
AcDbLine
 10
12.2776281601
 20
53.769851524
 30
0.0
 11
12.3055015385
 21
53.7857825806
 31
0.0
  0
LINE
  5
3C8
330
1F
100
AcDbEntity
  8
0
  6
SLD-Solid
 62
     7
370
    25
100
AcDbLine
 10
12.3055015385
 20
53.7857825806
 30
0.0
 11
12.2993631519
 21
53.728597017
 31
0.0
  0
LINE
  5
3C9
330
1F
100
AcDbEntity
  8
0
  6
SLD-Solid
 62
     7
370
    25
100
AcDbLine
 10
12.2993631519
 20
53.728597017
 30
0.0
 11
12.3267095941
 21
53.7442269027
 31
0.0
  0
LINE
  5
3CA
330
1F
100
AcDbEntity
  8
0
  6
SLD-Solid
 62
     7
370
    25
100
AcDbLine
 10
12.3267095941
 20
53.7442269027
 30
0.0
 11
12.3328479807
 21
53.8014124663
 31
0.0
  0
LINE
  5
3CB
330
1F
100
AcDbEntity
  8
0
  6
SLD-Solid
 62
     7
370
    25
100
AcDbLine
 10
12.3328479807
 20
53.8014124663
 30
0.0
 11
12.3607213591
 21
53.817343523
 31
0.0
  0
LINE
  5
3CC
330
1F
100
AcDbEntity
  8
0
  6
SLD-Solid
 62
     7
370
    25
100
AcDbLine
 10
12.2800798544
 20
53.7926916496
 30
0.0
 11
12.3055015385
 21
53.7857825806
 31
0.0
  0
LWPOLYLINE
  5
3CD
330
1F
100
AcDbEntity
  8
0
  6
SLD-Solid
 62
     7
370
    25
100
AcDbPolyline
 90
        5
 70
   128
 43
0.0
 10
11.0542395984
 20
54.137422835
 10
11.053960815
 20
54.1120722037
 10
11.0589285337
 20
54.0935553617
 10
11.0683864644
 20
54.0846913304
 10
11.0687527618
 20
54.0845855042
  0
LWPOLYLINE
  5
3CE
330
1F
100
AcDbEntity
  8
0
  6
SLD-Solid
 62
     7
370
    25
100
AcDbPolyline
 90
        6
 70
   128
 43
0.0
 10
11.1080925405
 20
54.22933488
 10
11.0959505793
 20
54.227090806
 10
11.082296262
 20
54.214275808
 10
11.0695746318
 20
54.192735027
 10
11.0597224418
 20
54.1657478518
 10
11.0542395984
 20
54.137422835
  0
LINE
  5
3CF
330
1F
100
AcDbEntity
  8
0
  6
SLD-Solid
 62
     7
370
    25
100
AcDbLine
 10
12.313929227
 20
53.864295413
 30
0.0
 11
12.3388703232
 21
53.8575169575
 31
0.0
  0
LINE
  5
3D0
330
1F
100
AcDbEntity
  8
0
  6
SLD-Solid
 62
     7
370
    25
100
AcDbLine
 10
12.3017684978
 20
53.7510053582
 30
0.0
 11
12.3267095941
 21
53.7442269027
 31
0.0
  0
LINE
  5
3D1
330
1F
100
AcDbEntity
  8
0
  6
SLD-Solid
 62
     7
370
    25
100
AcDbLine
 10
12.2982755271
 20
53.8343149621
 30
0.0
 11
12.3607213591
 21
53.817343523
 31
0.0
  0
LINE
  5
3D2
330
1F
100
AcDbEntity
  8
0
  6
SLD-Solid
 62
     7
370
    25
100
AcDbLine
 10
12.3328479807
 20
53.8014124663
 30
0.0
 11
12.2824852003
 21
53.8150999909
 31
0.0
  0
LWPOLYLINE
  5
3D3
330
1F
100
AcDbEntity
  8
0
  6
SLD-Solid
 62
     7
370
    25
100
AcDbPolyline
 90
        6
 70
   128
 43
0.0
 10
10.9814913449
 20
54.1704290932
 10
10.9844569957
 20
54.1857499961
 10
10.989786011
 20
54.2003472651
 10
10.9966670964
 20
54.2119985985
 10
11.0040526691
 20
54.2189301863
 10
11.0081457332
 20
54.2203390114
  0
ARC
  5
3D4
330
1F
100
AcDbEntity
  8
0
  6
SLD-Solid
 62
     7
370
    25
100
AcDbCircle
 10
11.0107448503
 20
54.1620842305
 30
0.0
 40
0.0304204587849722
100
AcDbArc
 50
164.0786572534
 51
219.0148571998
  0
LINE
  5
3D5
330
1F
100
AcDbEntity
  8
0
  6
SLD-Solid
 62
     7
370
    25
100
AcDbLine
 10
12.3445150376
 20
55.8009112919
 30
0.0
 11
12.3461977339
 21
55.800514772
 31
0.0
  0
LWPOLYLINE
  5
3D6
330
1F
100
AcDbEntity
  8
0
  6
SLD-Solid
 62
     7
370
    25
100
AcDbPolyline
 90
       20
 70
   128
 43
0.0
 10
12.2628495424
 20
55.6325133175
 10
12.2575515073
 20
55.5893468692
 10
12.2592576149
 20
55.5519158009
 10
12.267782982
 20
55.5242763498
 10
12.2822037528
 20
55.5094236791
 10
12.3009572129
 20
55.5089673063
 10
12.322011134
 20
55.5229566864
 10
12.3430839971
 20
55.549875853
 10
12.3618922304
 20
55.5868076967
 10
12.3763976701
 20
55.6297500791
 10
12.3850284266
 20
55.6740495269
 10
12.3868492237
 20
55.7149055075
 10
12.3816627496
 20
55.7478906415
 10
12.3700310393
 20
55.7694304777
 10
12.3532145691
 20
55.7771908406
 10
12.3330356645
 20
55.7703307747
 10
12.3116810229
 20
55.7495936743
 10
12.2914647511
 20
55.7172267262
 10
12.2745775958
 20
55.6767373914
 10
12.2628495424
 20
55.6325133175
  0
LWPOLYLINE
  5
3D7
330
1F
100
AcDbEntity
  8
0
  6
SLD-Solid
 62
     7
370
    25
100
AcDbPolyline
 90
        3
 70
   128
 43
0.0
 10
12.2280469908
 20
55.520115259
 10
12.2258302116
 20
55.5245091327
 10
12.22534155
 20
55.5256012748
  0
LWPOLYLINE
  5
3D8
330
1F
100
AcDbEntity
  8
0
  6
SLD-Solid
 62
     7
370
    25
100
AcDbPolyline
 90
        3
 70
   128
 43
0.0
 10
12.2942081779
 20
55.7892051847
 10
12.2953245944
 20
55.7901013058
 10
12.302829912
 20
55.7952764704
  0
ARC
  5
3D9
330
1F
100
AcDbEntity
  8
0
  6
SLD-Solid
 62
     7
370
    25
100
AcDbCircle
 10
12.3067551011
 20
55.6525718561
 30
0.0
 40
0.1269253404857256
100
AcDbArc
 50
130.6480392271
 51
174.2614119766
  0
ARC
  5
3DA
330
1F
100
AcDbEntity
  8
0
  6
SLD-Solid
 62
     7
370
    25
100
AcDbCircle
 10
12.2769280858
 20
55.6372072704
 30
0.0
 40
0.1004594063426178
100
AcDbArc
 50
163.7830398453
 51
201.7394636234
  0
LINE
  5
3DB
330
1F
100
AcDbEntity
  8
0
  6
SLD-Solid
 62
     7
370
    25
100
AcDbLine
 10
12.3554400965
 20
55.6196294005
 30
0.0
 11
12.3667573167
 21
55.6777177732
 31
0.0
  0
LINE
  5
3DC
330
1F
100
AcDbEntity
  8
0
  6
SLD-Solid
 62
     7
370
    25
100
AcDbLine
 10
12.3667573167
 20
55.6777177732
 30
0.0
 11
12.3406509557
 21
55.6734237333
 31
0.0
  0
LINE
  5
3DD
330
1F
100
AcDbEntity
  8
0
  6
SLD-Solid
 62
     7
370
    25
100
AcDbLine
 10
12.3406509557
 20
55.6734237333
 30
0.0
 11
12.3521862464
 21
55.7326314058
 31
0.0
  0
LINE
  5
3DE
330
1F
100
AcDbEntity
  8
0
  6
SLD-Solid
 62
     7
370
    25
100
AcDbLine
 10
12.3521862464
 20
55.7326314058
 30
0.0
 11
12.3265734168
 21
55.7284185432
 31
0.0
  0
LINE
  5
3DF
330
1F
100
AcDbEntity
  8
0
  6
SLD-Solid
 62
     7
370
    25
100
AcDbLine
 10
12.3265734168
 20
55.7284185432
 30
0.0
 11
12.3150381262
 21
55.6692108708
 31
0.0
  0
LINE
  5
3E0
330
1F
100
AcDbEntity
  8
0
  6
SLD-Solid
 62
     7
370
    25
100
AcDbLine
 10
12.3150381262
 20
55.6692108708
 30
0.0
 11
12.2889317652
 21
55.664916831
 31
0.0
  0
LINE
  5
3E1
330
1F
100
AcDbEntity
  8
0
  6
SLD-Solid
 62
     7
370
    25
100
AcDbLine
 10
12.2889317652
 20
55.664916831
 30
0.0
 11
12.2776145451
 21
55.6068284583
 31
0.0
  0
LINE
  5
3E2
330
1F
100
AcDbEntity
  8
0
  6
SLD-Solid
 62
     7
370
    25
100
AcDbLine
 10
12.2776145451
 20
55.6068284583
 30
0.0
 11
12.303720906
 21
55.6111224981
 31
0.0
  0
LINE
  5
3E3
330
1F
100
AcDbEntity
  8
0
  6
SLD-Solid
 62
     7
370
    25
100
AcDbLine
 10
12.303720906
 20
55.6111224981
 30
0.0
 11
12.2921856154
 21
55.5519148257
 31
0.0
  0
LINE
  5
3E4
330
1F
100
AcDbEntity
  8
0
  6
SLD-Solid
 62
     7
370
    25
100
AcDbLine
 10
12.2921856154
 20
55.5519148257
 30
0.0
 11
12.3177984449
 21
55.5561276882
 31
0.0
  0
LINE
  5
3E5
330
1F
100
AcDbEntity
  8
0
  6
SLD-Solid
 62
     7
370
    25
100
AcDbLine
 10
12.3177984449
 20
55.5561276882
 30
0.0
 11
12.3293337356
 21
55.6153353607
 31
0.0
  0
LINE
  5
3E6
330
1F
100
AcDbEntity
  8
0
  6
SLD-Solid
 62
     7
370
    25
100
AcDbLine
 10
12.3293337356
 20
55.6153353607
 30
0.0
 11
12.3554400965
 21
55.6196294005
 31
0.0
  0
LINE
  5
3E7
330
1F
100
AcDbEntity
  8
0
  6
SLD-Solid
 62
     7
370
    25
100
AcDbLine
 10
12.27972189
 20
55.6176449164
 30
0.0
 11
12.303720906
 21
55.6111224981
 31
0.0
  0
LWPOLYLINE
  5
3E8
330
1F
100
AcDbEntity
  8
0
  6
SLD-Solid
 62
     7
370
    25
100
AcDbPolyline
 90
        5
 70
   128
 43
0.0
 10
11.0564066142
 20
55.9723174606
 10
11.0534300491
 20
55.9449314947
 10
11.0557807904
 20
55.9225165064
 10
11.0631009592
 20
55.9084849747
 10
11.0687527618
 20
55.9052088509
  0
LWPOLYLINE
  5
3E9
330
1F
100
AcDbEntity
  8
0
  6
SLD-Solid
 62
     7
370
    25
100
AcDbPolyline
 90
        6
 70
   128
 43
0.0
 10
11.1080925405
 20
56.0499582267
 10
11.1025691763
 20
56.0501940047
 10
11.0892403293
 20
56.0426516212
 10
11.0757869982
 20
56.025203212
 10
11.0642573307
 20
56.0005051393
 10
11.0564066142
 20
55.9723174606
  0
LINE
  5
3EA
330
1F
100
AcDbEntity
  8
0
  6
SLD-Solid
 62
     7
370
    25
100
AcDbLine
 10
12.2942531217
 20
55.5625268025
 30
0.0
 11
12.3177984449
 21
55.5561276882
 31
0.0
  0
LINE
  5
3EB
330
1F
100
AcDbEntity
  8
0
  6
SLD-Solid
 62
     7
370
    25
100
AcDbLine
 10
12.3171056325
 20
55.6798228477
 30
0.0
 11
12.3406509557
 21
55.6734237333
 31
0.0
  0
LINE
  5
3EC
330
1F
100
AcDbEntity
  8
0
  6
SLD-Solid
 62
     7
370
    25
100
AcDbLine
 10
12.2838967413
 20
55.6390733515
 30
0.0
 11
12.3554400965
 21
55.6196294005
 31
0.0
  0
LINE
  5
3ED
330
1F
100
AcDbEntity
  8
0
  6
SLD-Solid
 62
     7
370
    25
100
AcDbLine
 10
12.3293337356
 20
55.6153353607
 30
0.0
 11
12.2817893964
 21
55.6282568933
 31
0.0
  0
LWPOLYLINE
  5
3EE
330
1F
100
AcDbEntity
  8
0
  6
SLD-Solid
 62
     7
370
    25
100
AcDbPolyline
 90
        6
 70
   128
 43
0.0
 10
10.9826634761
 20
55.9987717249
 10
10.9869099013
 20
56.0140183421
 10
10.9931462583
 20
56.0273774436
 10
11.0004231182
 20
56.0368152273
 10
11.0076326451
 20
56.0408948763
 10
11.0081457332
 20
56.0409623581
  0
LWPOLYLINE
  5
3EF
330
1F
100
AcDbEntity
  8
0
  6
SLD-Solid
 62
     7
370
    25
100
AcDbPolyline
 90
        5
 70
   128
 43
0.0
 10
10.9871086786
 20
55.9635572325
 10
10.986284424
 20
55.9642449557
 10
10.9823249702
 20
55.9718345623
 10
10.9810534624
 20
55.9839587514
 10
10.9826634761
 20
55.9987717249
  0
LWPOLYLINE
  5
3F0
330
1F
100
AcDbEntity
  8
0
  6
SLD-Solid
 62
     8
370
    25
100
AcDbPolyline
 90
        8
 70
   128
 43
0.0
 10
9.9073916086
 20
56.6740017475
 10
9.9749555113
 20
56.7339438327
 10
10.0418885882
 20
56.7813215447
 10
10.1075659029
 20
56.8156925305
 10
10.1713742443
 20
56.8367358774
 10
10.2327178508
 20
56.8442551093
 10
10.2910239739
 20
56.8381800213
 10
10.2981810842
 20
56.8364377164
  0
LWPOLYLINE
  5
3F1
330
1F
100
AcDbEntity
  8
0
  6
SLD-Solid
 62
     8
370
    25
100
AcDbPolyline
 90
       28
 70
   128
 43
0.0
 10
9.5109396395
 20
53.9416087989
 10
9.4959166082
 20
53.9464442117
 10
9.4431771782
 20
53.9727648749
 10
9.3947719933
 20
54.0123015487
 10
9.3511529997
 20
54.06468509
 10
9.312727456
 20
54.1294264076
 10
9.2798541313
 20
54.2059210293
 10
9.252839955
 20
54.2934547456
 10
9.2319371511
 20
54.3912102775
 10
9.2173408835
 20
54.4982749082
 10
9.2091874336
 20
54.613649004
 10
9.2075529279
 20
54.7362553479
 10
9.2124526274
 20
54.8649491977
 10
9.223840785
 20
54.9985289736
 10
9.2416110724
 20
55.1357474771
 10
9.2655975733
 20
55.275323536
 10
9.2955763322
 20
55.4159539664
 10
9.3312674455
 20
55.5563257397
 10
9.3723376749
 20
55.6951282426
 10
9.4184035586
 20
55.8310655134
 10
9.4690349921
 20
55.9628683425
 10
9.5237592432
 20
56.0893061225
 10
9.5820653663
 20
56.2091983377
 10
9.6434089728
 20
56.3214255869
 10
9.7072173142
 20
56.4249400346
 10
9.7728946289
 20
56.5187751941
 10
9.8398277058
 20
56.602054952
 10
9.9073916086
 20
56.6740017475
  0
LWPOLYLINE
  5
3F2
330
1F
100
AcDbEntity
  8
0
  6
SLD-Solid
 62
     8
370
    25
100
AcDbPolyline
 90
       19
 70
   128
 43
0.0
 10
9.8683872797
 20
56.0666115788
 10
9.8687745994
 20
56.0659525483
 10
9.8875465305
 20
56.0453570038
 10
9.9108438742
 20
56.0385603791
 10
9.9373126735
 20
56.0459576693
 10
9.965414658
 20
56.067118971
 10
9.9935166424
 20
56.100814466
 10
10.0199854417
 20
56.1450858948
 10
10.0432827854
 20
56.1973603628
 10
10.0620547166
 20
56.254599868
 10
10.0752102788
 20
56.3134778583
 10
10.0819849186
 20
56.3705725589
 10
10.0819849186
 20
56.4225658335
 10
10.0752102788
 20
56.4664360218
 10
10.0620547166
 20
56.4996335481
 10
10.0432827854
 20
56.5202290926
 10
10.0199854417
 20
56.5270257173
 10
9.9935166424
 20
56.5196284271
 10
9.9891273142
 20
56.5171682305
  0
LWPOLYLINE
  5
3F3
330
1F
100
AcDbEntity
  8
0
  6
SLD-Solid
 62
     8
370
    25
100
AcDbPolyline
 90
       19
 70
   128
 43
0.0
 10
9.8683872797
 20
54.2459882321
 10
9.8687745994
 20
54.2453292016
 10
9.8875465305
 20
54.2247336571
 10
9.9108438742
 20
54.2179370324
 10
9.9373126735
 20
54.2253343226
 10
9.965414658
 20
54.2464956243
 10
9.9935166424
 20
54.2801911193
 10
10.0199854417
 20
54.3244625481
 10
10.0432827854
 20
54.3767370161
 10
10.0620547166
 20
54.4339765213
 10
10.0752102788
 20
54.4928545116
 10
10.0819849186
 20
54.5499492122
 10
10.0819849186
 20
54.6019424868
 10
10.0752102788
 20
54.6458126752
 10
10.0620547166
 20
54.6790102014
 10
10.0432827854
 20
54.6996057459
 10
10.0199854417
 20
54.7064023706
 10
9.9935166424
 20
54.6990050804
 10
9.9891273142
 20
54.6965448838
  0
LWPOLYLINE
  5
3F4
330
1F
100
AcDbEntity
  8
0
  6
SLD-Solid
 62
     8
370
    25
100
AcDbPolyline
 90
       34
 70
   128
 43
0.0
 10
70.346057841
 20
40.516727206
 10
70.3075537927
 20
40.5238989358
 10
70.2476589843
 20
40.5231760196
 10
70.1850098504
 20
40.5088780334
 10
70.120191329
 20
40.4811384735
 10
70.0538086133
 20
40.4402163369
 10
69.9864815007
 20
40.3864937024
 10
69.9188386063
 20
40.3204721638
 10
69.8515114937
 20
40.2427681465
 10
69.785128778
 20
40.1541071519
 10
69.7203102566
 20
40.0553169838
 10
69.6576611227
 20
39.9473200194
 10
69.5977663143
 20
39.8311245973
 10
69.5411850531
 20
39.7078156027
 10
69.4884456232
 20
39.5785443387
 10
69.4400404383
 20
39.4445177761
 10
69.3964214446
 20
39.3069872848
 10
69.357995901
 20
39.16723695
 10
69.3251225763
 20
39.026571583
 10
69.2981083999
 20
38.8863045382
 10
69.277205596
 20
38.7477454514
 10
69.2626093284
 20
38.6121880114
 10
69.2544558785
 20
38.4808978815
 10
69.2528213728
 20
38.3551008822
 10
69.2577210724
 20
38.2359715463
 10
69.2691092299
 20
38.1246221523
 10
69.2868795174
 20
38.0220923394
 10
69.3108660183
 20
37.9293394009
 10
69.3408447772
 20
37.847229346
 10
69.3765358904
 20
37.7765288141
 10
69.4176061198
 20
37.7178979171
 10
69.4636720036
 20
37.6718840758
 10
69.514303437
 20
37.6389169092
 10
69.559262266
 20
37.6217396891
  0
LWPOLYLINE
  5
3F5
330
1F
100
AcDbEntity
  8
0
  6
SLD-Solid
 62
     8
370
    25
100
AcDbPolyline
 90
       27
 70
   128
 43
0.0
 10
69.7995562646
 20
37.7091353595
 10
69.8206408106
 20
37.7213678658
 10
69.8863310397
 20
37.7675865782
 10
69.9526600535
 20
37.8263408615
 10
70.0189890673
 20
37.8970648799
 10
70.0846792964
 20
37.9790775223
 10
70.149098108
 20
38.0715889623
 10
70.2116251138
 20
38.173708264
 10
70.2716581445
 20
38.2844519628
 10
70.3286190492
 20
38.4027535362
 10
70.3819592632
 20
38.5274736756
 10
70.4311650912
 20
38.6574112577
 10
70.4757626541
 20
38.7913149126
 10
70.5153224529
 20
38.927895075
 10
70.5494635053
 20
39.0658364031
 10
70.5778570142
 20
39.2038104466
 10
70.6002295346
 20
39.3404884401
 10
70.6163656069
 20
39.4745540997
 10
70.626109832
 20
39.6047162998
 10
70.6293683674
 20
39.7297215074
 10
70.626109832
 20
39.8483658539
 10
70.6163656069
 20
39.9595067294
 10
70.6002295346
 20
40.0620737865
 10
70.5778570142
 20
40.1550792484
 10
70.5494635053
 20
40.2376274217
 10
70.5153224529
 20
40.3089233222
 10
70.5090585059
 20
40.3197246876
  0
ARC
  5
3F6
330
1F
100
AcDbEntity
  8
0
  6
SLD-Solid
 62
     8
370
    25
100
AcDbCircle
 10
69.4255563181
 20
38.3583220525
 30
0.0
 40
0.6788258690598363
100
AcDbArc
 50
300.2347570396
 51
315.3448671379
  0
LWPOLYLINE
  5
3F7
330
1F
100
AcDbEntity
  8
0
  6
SLD-Solid
 62
     8
370
    25
100
AcDbPolyline
 90
       20
 70
   128
 43
0.0
 10
70.4495666143
 20
40.28193761
 10
70.4742772351
 20
40.2335441729
 10
70.503992957
 20
40.1560891164
 10
70.5277897975
 20
40.0679518431
 10
70.545431253
 20
39.9700083009
 10
70.5567419948
 20
39.8632318967
 10
70.5616096117
 20
39.7486838225
 10
70.559985727
 20
39.6275025084
 10
70.5518864797
 20
39.5008923087
 10
70.5373923637
 20
39.3701115326
 10
70.5166474281
 20
39.2364599381
 10
70.4898578453
 20
39.1012658148
 10
70.4572898623
 20
38.9658727827
 10
70.4192671543
 20
38.8316264385
 10
70.3761676081
 20
38.6998609827
 10
70.3284195663
 20
38.5718859597
 10
70.2764975704
 20
38.4489732426
 10
70.2209176446
 20
38.3323443933
 10
70.1622321671
 20
38.2231585218
 10
70.1103517273
 20
38.137029646
  0
LINE
  5
3F8
330
1F
100
AcDbEntity
  8
0
  6
SLD-Solid
 62
     8
370
    25
100
AcDbLine
 10
69.959019083
 20
37.9341863054
 30
0.0
 11
69.9084391474
 21
37.8812175213
 31
0.0
  0
LWPOLYLINE
  5
3F9
330
1F
100
AcDbEntity
  8
0
  6
SLD-Solid
 62
     8
370
    25
100
AcDbPolyline
 90
        7
 70
   128
 43
0.0
 10
67.2950682995
 20
38.8219694357
 10
67.2937262006
 20
38.7794079518
 10
67.2993902861
 20
38.7449419871
 10
67.3115061158
 20
38.7219453104
 10
67.3288877079
 20
38.7126689965
 10
67.349833631
 20
38.7180210757
 10
67.3504794498
 20
38.7183959008
  0
LWPOLYLINE
  5
3FA
330
1F
100
AcDbEntity
  8
0
  6
SLD-Solid
 62
     8
370
    25
100
AcDbPolyline
 90
        9
 70
   128
 43
0.0
 10
67.4252623711
 20
38.9935571122
 10
67.4190947466
 20
39.0022760479
 10
67.4017131545
 20
39.0115523618
 10
67.3807672313
 20
39.0062002825
 10
67.35830731
 20
38.986743709
 10
67.3365319241
 20
38.9550871861
 10
67.3175726001
 20
38.9143294749
 10
67.3032852088
 20
38.8684602241
 10
67.2950682995
 20
38.8219694357
  0
LWPOLYLINE
  5
3FB
330
1F
100
AcDbEntity
  8
0
  6
SLD-Solid
 62
     8
370
    25
100
AcDbPolyline
 90
       13
 70
   128
 43
0.0
 10
67.3120280085
 20
38.7118214551
 10
67.303640706
 20
38.7157969912
 10
67.2897179476
 20
38.7337761683
 10
67.2814799039
 20
38.7634386663
 10
67.2796585615
 20
38.8021488421
 10
67.2844157545
 20
38.8464671268
 10
67.2953287854
 20
38.8924556462
 10
67.3114279837
 20
38.9360281185
 10
67.3312828648
 20
38.9733129385
 10
67.3531292354
 20
39.0009971861
 10
67.3750259497
 20
39.0166209946
 10
67.3950273884
 20
39.01879612
 10
67.3953959868
 20
39.0186989018
  0
LWPOLYLINE
  5
3FC
330
1F
100
AcDbEntity
  8
0
  6
SLD-Solid
 62
     8
370
    25
100
AcDbPolyline
 90
       13
 70
   128
 43
0.0
 10
67.3905119589
 20
39.020026276
 10
67.3901433606
 20
39.0201234941
 10
67.3701419218
 20
39.0179483687
 10
67.3482452075
 20
39.0023245603
 10
67.3263988369
 20
38.9746403126
 10
67.3065439558
 20
38.9373554927
 10
67.2904447576
 20
38.8937830203
 10
67.2795317266
 20
38.8477945009
 10
67.2747745336
 20
38.8034762163
 10
67.2765958761
 20
38.7647660404
 10
67.2848339197
 20
38.7351035424
 10
67.2987566782
 20
38.7171243653
 10
67.3071116279
 20
38.7131575992
  0
LWPOLYLINE
  5
3FD
330
1F
100
AcDbEntity
  8
0
  6
SLD-Solid
 62
     8
370
    25
100
AcDbPolyline
 90
        7
 70
   128
 43
0.0
 10
67.2995206267
 20
40.6719143983
 10
67.2937584484
 20
40.626343347
 10
67.2949992979
 20
40.5862922082
 10
67.3031217121
 20
40.5556814665
 10
67.3173306125
 20
40.5375075145
 10
67.336235133
 20
40.5335493453
 10
67.3504794498
 20
40.5390192475
  0
LWPOLYLINE
  5
3FE
330
1F
100
AcDbEntity
  8
0
  6
SLD-Solid
 62
     8
370
    25
100
AcDbPolyline
 90
        8
 70
   128
 43
0.0
 10
67.4252623711
 20
40.8141804588
 10
67.4132702498
 20
40.8279605371
 10
67.3943657293
 20
40.8319187063
 10
67.3726160949
 20
40.8212736396
 10
67.3501503523
 20
40.7970673502
 10
67.3291676051
 20
40.7616693184
 10
67.3117217906
 20
40.7185445502
 10
67.2995206267
 20
40.6719143983
  0
LWPOLYLINE
  5
3FF
330
1F
100
AcDbEntity
  8
0
  6
SLD-Solid
 62
     8
370
    25
100
AcDbPolyline
 90
       13
 70
   128
 43
0.0
 10
67.3119956558
 20
40.5324535717
 10
67.3093537302
 20
40.5333289312
 10
67.2937861718
 20
40.5469949503
 10
67.2835418486
 20
40.5730022183
 10
67.2795310137
 20
40.6090398755
 10
67.2821100475
 20
40.6519058178
 10
67.2910497914
 20
40.6977912181
 10
67.30555591
 20
40.7426189573
 10
67.3243394709
 20
40.782405894
 10
67.3457314725
 20
40.8136167842
 10
67.3678311413
 20
40.8334784035
 10
67.388674825
 20
40.8402259597
 10
67.3951181229
 20
40.8393960828
  0
LWPOLYLINE
  5
400
330
1F
100
AcDbEntity
  8
0
  6
SLD-Solid
 62
     8
370
    25
100
AcDbPolyline
 90
       13
 70
   128
 43
0.0
 10
67.3905119589
 20
40.8406496226
 10
67.3837907971
 20
40.8415533338
 10
67.3629471135
 20
40.8348057776
 10
67.3408474446
 20
40.8149441584
 10
67.3194554431
 20
40.7837332681
 10
67.3006718821
 20
40.7439463314
 10
67.2861657635
 20
40.6991185923
 10
67.2772260196
 20
40.6532331919
 10
67.2746469858
 20
40.6103672496
 10
67.2786578207
 20
40.5743295925
 10
67.2889021439
 20
40.5483223244
 10
67.3044697024
 20
40.5346563053
 10
67.3071116279
 20
40.5337809459
  0
LWPOLYLINE
  5
401
330
1F
100
AcDbEntity
  8
0
  6
SLD-Solid
 62
     8
370
    25
100
AcDbPolyline
 90
        8
 70
   128
 43
0.0
 10
12.2320294967
 20
53.7850378897
 10
12.2399531088
 20
53.8307013145
 10
12.2536117795
 20
53.875987621
 10
12.2717918758
 20
53.9168729222
 10
12.2928780164
 20
53.9497243796
 10
12.3149966053
 20
53.9716229971
 10
12.3361823086
 20
53.9806229865
 10
12.3461653812
 20
53.9799001952
  0
LWPOLYLINE
  5
402
330
1F
100
AcDbEntity
  8
0
  6
SLD-Solid
 62
     8
370
    25
100
AcDbPolyline
 90
        5
 70
   128
 43
0.0
 10
12.2611964695
 20
53.6735149197
 10
12.2468370536
 20
53.6843923576
 10
12.2356314958
 20
53.7084822594
 10
12.2305449907
 20
53.7430547424
 10
12.2320294967
 20
53.7850378897
  0
LWPOLYLINE
  5
403
330
1F
100
AcDbEntity
  8
0
  6
SLD-Solid
 62
     8
370
    25
100
AcDbPolyline
 90
        5
 70
   128
 43
0.0
 10
12.2271454688
 20
53.7863652639
 10
12.2256609628
 20
53.7443821166
 10
12.2307474679
 20
53.7098096336
 10
12.2419530258
 20
53.6857197317
 10
12.2579133751
 20
53.6743501227
  0
LWPOLYLINE
  5
404
330
1F
100
AcDbEntity
  8
0
  6
SLD-Solid
 62
     8
370
    25
100
AcDbPolyline
 90
        8
 70
   128
 43
0.0
 10
12.3413137061
 20
53.9812187994
 10
12.3312982807
 20
53.9819503606
 10
12.3101125774
 20
53.9729503713
 10
12.2879939886
 20
53.9510517537
 10
12.2669078479
 20
53.9182002963
 10
12.2487277516
 20
53.8773149951
 10
12.235069081
 20
53.8320286886
 10
12.2271454688
 20
53.7863652639
  0
ARC
  5
405
330
1F
100
AcDbEntity
  8
0
  6
SLD-Solid
 62
     8
370
    25
100
AcDbCircle
 10
12.4893114021
 20
53.7767178741
 30
0.0
 40
0.2728957511287549
100
AcDbArc
 50
134.3273210525
 51
196.005747422
  0
LWPOLYLINE
  5
406
330
1F
100
AcDbEntity
  8
0
  6
SLD-Solid
 62
     8
370
    25
100
AcDbPolyline
 90
        7
 70
   128
 43
0.0
 10
12.2366235701
 20
55.6359163479
 10
12.2484789158
 20
55.6817852352
 10
12.2653117646
 20
55.7245704486
 10
12.285626444
 20
55.7604703341
 10
12.3076179056
 20
55.7862950294
 10
12.3293321116
 20
55.7997498968
 10
12.3445150376
 20
55.8009112919
  0
LWPOLYLINE
  5
407
330
1F
100
AcDbEntity
  8
0
  6
SLD-Solid
 62
     8
370
    25
100
AcDbPolyline
 90
        6
 70
   128
 43
0.0
 10
12.2630752668
 20
55.493572261
 10
12.2517829191
 20
55.4997084408
 10
12.2387312013
 20
55.5197691459
 10
12.2315231139
 20
55.5511420176
 10
12.230799127
 20
55.5910394385
 10
12.2366235701
 20
55.6359163479
  0
LWPOLYLINE
  5
408
330
1F
100
AcDbEntity
  8
0
  6
SLD-Solid
 62
     8
370
    25
100
AcDbPolyline
 90
        6
 70
   128
 43
0.0
 10
12.2317395422
 20
55.637243722
 10
12.2259150992
 20
55.5923668127
 10
12.2266390861
 20
55.5524693917
 10
12.2338471735
 20
55.52109652
 10
12.2468988912
 20
55.5010358149
 10
12.2579133751
 20
55.4949734693
  0
LWPOLYLINE
  5
409
330
1F
100
AcDbEntity
  8
0
  6
SLD-Solid
 62
     8
370
    25
100
AcDbPolyline
 90
        7
 70
   128
 43
0.0
 10
12.3413137061
 20
55.8018421461
 10
12.3244480838
 20
55.801077271
 10
12.3027338778
 20
55.7876224035
 10
12.2807424161
 20
55.7617977082
 10
12.2604277367
 20
55.7258978227
 10
12.2435948879
 20
55.6831126093
 10
12.2317395422
 20
55.637243722
  0
ARC
  5
40A
330
1F
100
AcDbEntity
  8
0
  6
SLD-Solid
 62
     8
370
    25
100
AcDbCircle
 10
12.4964487219
 20
55.5955720888
 30
0.0
 40
0.2799910952530446
100
AcDbArc
 50
136.2455811872
 51
194.4718144318
  0
INSERT
  5
410
330
1F
100
AcDbEntity
  8
NOTES
100
AcDbBlockReference
  2
SW_NOTE_0_3
 10
9.0069494616
 20
52.4714168124
 30
0.0
  0
MTEXT
  5
411
330
1F
100
AcDbEntity
  8
NOTES
100
AcDbMText
 10
58.5731787751
 20
44.6496097607
 30
0.0
 40
0.5
 41
0.0
 71
     1
 72
     1
  1
installation hardware
  7
SLDTEXTSTYLE1
 73
     1
 44
1.0
  0
LEADER
  5
413
330
1F
100
AcDbEntity
  8
NOTES
100
AcDbLeader
  3
SLDDIMSTYLE4
 76
     3
 10
68.1871738537
 20
40.5370869826
 30
0.0
 10
65.8443849187
 20
44.4070645453
 30
0.0
 10
65.3443849187
 20
44.4070645453
 30
0.0
  0
MTEXT
  5
414
330
1F
100
AcDbEntity
  8
NOTES
100
AcDbMText
 10
62.216496888
 20
36.6282086463
 30
0.0
 40
0.5
 41
0.0
 71
     1
 72
     1
  1
mounting flange
  7
SLDTEXTSTYLE1
 73
     1
 44
1.0
  0
LEADER
  5
415
330
1F
100
AcDbEntity
  8
NOTES
100
AcDbLeader
  3
SLDDIMSTYLE4
 76
     3
 10
69.4166487023
 20
37.7190522084
 30
0.0
 10
68.0899288365
 20
36.3841919155
 30
0.0
 10
67.5899288365
 20
36.3841919155
 30
0.0
  0
MTEXT
  5
416
330
1F
100
AcDbEntity
  8
NOTES
100
AcDbMText
 10
52.0660766355
 20
41.935880141
 30
0.0
 40
0.5
 41
0.0
 71
     1
 72
     1
  1
rod
  7
SLDTEXTSTYLE1
 73
     1
 44
1.0
  0
LEADER
  5
417
330
1F
100
AcDbEntity
  8
NOTES
100
AcDbLeader
  3
SLDDIMSTYLE4
 76
     3
 10
54.2984935841
 20
42.6739567314
 30
0.0
 10
53.6781070841
 20
41.6917097013
 30
0.0
 10
53.1781070841
 20
41.6917097013
 30
0.0
  0
ENDSEC
  0
SECTION
  2
OBJECTS
  0
DICTIONARY
  5
C
330
0
100
AcDbDictionary
281
     1
  3
ACAD_GROUP
350
D
  3
ACAD_LAYOUT
350
1A
  3
ACAD_MLINESTYLE
350
17
  3
ACAD_PLOTSETTINGS
350
19
  3
ACAD_PLOTSTYLENAME
350
E
  3
ACAD_SCALELIST
350
47
  3
DWGPROPS
350
418
  0
DICTIONARY
  5
D
102
{ACAD_REACTORS
330
C
102
}
330
C
100
AcDbDictionary
281
     1
  0
DICTIONARY
  5
1A
102
{ACAD_REACTORS
330
C
102
}
330
C
100
AcDbDictionary
281
     1
  3
Layout1
350
1E
  3
Layout2
350
26
  3
Model
350
22
  0
DICTIONARY
  5
17
102
{ACAD_REACTORS
330
C
102
}
330
C
100
AcDbDictionary
281
     1
  3
Standard
350
18
  0
DICTIONARY
  5
19
102
{ACAD_REACTORS
330
C
102
}
330
C
100
AcDbDictionary
281
     1
  0
ACDBDICTIONARYWDFLT
  5
E
102
{ACAD_REACTORS
330
C
102
}
330
C
100
AcDbDictionary
281
     1
  3
Normal
350
F
100
AcDbDictionaryWithDefault
340
F
  0
DICTIONARY
  5
47
102
{ACAD_REACTORS
330
C
102
}
330
C
100
AcDbDictionary
281
     1
  3
A0
350
48
  3
A1
350
49
  3
A2
350
4A
  3
A3
350
4B
  3
A4
350
4C
  3
A5
350
4D
  3
A6
350
4E
  3
A7
350
4F
  3
A8
350
50
  3
A9
350
51
  3
B0
350
52
  3
B1
350
53
  3
B2
350
54
  3
B3
350
55
  3
B4
350
56
  3
B5
350
57
  3
B6
350
58
  3
B7
350
59
  3
B8
350
5A
  3
B9
350
5B
  3
C0
350
5C
  3
C1
350
5D
  3
C2
350
5E
  3
C3
350
5F
  3
C4
350
60
  3
C5
350
61
  3
C6
350
62
  3
C7
350
63
  3
C8
350
64
  3
C9
350
65
  3
D0
350
66
  3
D1
350
67
  3
D2
350
68
  0
XRECORD
  5
418
102
{ACAD_REACTORS
330
C
102
}
330
C
100
AcDbXrecord
280
     1
  1
DWGPROPS COOKIE
  2

  3

  4

  6

  7

  8
carl
  9

300
=
301
=
302
=
303
=
304
=
305
=
306
=
307
=
308
=
309
=
 40
0.0
 41
2459480.604886296
 42
2459480.604891724
  1

 90
        0
  0
LAYOUT
  5
1E
102
{ACAD_REACTORS
330
1A
102
}
330
1A
100
AcDbPlotSettings
  1

  2
none_device
  4

  6

 40
0.0
 41
0.0
 42
0.0
 43
0.0
 44
0.0
 45
0.0
 46
0.0
 47
0.0
 48
0.0
 49
0.0
140
0.0
141
0.0
142
1.0
143
1.0
 70
   688
 72
     0
 73
     0
 74
     5
  7

 75
    16
147
1.0
148
0.0
149
0.0
100
AcDbLayout
  1
Layout1
 70
     1
 71
     1
 10
0.0
 20
0.0
 11
12.0
 21
9.0
 12
0.0
 22
0.0
 32
0.0
 14
1.0000000000E+20
 24
1.0000000000E+20
 34
1.0000000000E+20
 15
-1.0000000000E+20
 25
-1.0000000000E+20
 35
-1.0000000000E+20
146
0.0
 13
0.0
 23
0.0
 33
0.0
 16
1.0
 26
0.0
 36
0.0
 17
0.0
 27
1.0
 37
0.0
 76
     0
330
1B
  0
LAYOUT
  5
26
102
{ACAD_REACTORS
330
1A
102
}
330
1A
100
AcDbPlotSettings
  1

  2
none_device
  4

  6

 40
0.0
 41
0.0
 42
0.0
 43
0.0
 44
0.0
 45
0.0
 46
0.0
 47
0.0
 48
0.0
 49
0.0
140
0.0
141
0.0
142
1.0
143
1.0
 70
   688
 72
     0
 73
     0
 74
     5
  7

 75
    16
147
1.0
148
0.0
149
0.0
100
AcDbLayout
  1
Layout2
 70
     1
 71
     2
 10
0.0
 20
0.0
 11
0.0
 21
0.0
 12
0.0
 22
0.0
 32
0.0
 14
0.0
 24
0.0
 34
0.0
 15
0.0
 25
0.0
 35
0.0
146
0.0
 13
0.0
 23
0.0
 33
0.0
 16
1.0
 26
0.0
 36
0.0
 17
0.0
 27
1.0
 37
0.0
 76
     0
330
23
  0
LAYOUT
  5
22
102
{ACAD_REACTORS
330
1A
102
}
330
1A
100
AcDbPlotSettings
  1

  2
none_device
  4
Letter_(8.50_x_11.00_Inches)
  6

 40
6.35
 41
6.35
 42
6.35000508
 43
6.35000508
 44
215.9
 45
279.4
 46
0.0
 47
0.0
 48
0.0
 49
0.0
140
0.0
141
0.0
142
1.0
143
1.0
 70
  1712
 72
     0
 73
     0
 74
     0
  7

 75
     0
147
1.0
148
0.0
149
0.0
100
AcDbLayout
  1
Model
 70
     1
 71
     0
 10
0.0
 20
0.0
 11
90.0
 21
120.0
 12
0.0
 22
0.0
 32
0.0
 14
0.0
 24
0.0
 34
0.0
 15
90.0
 25
120.0
 35
0.0
146
0.0
 13
0.0
 23
0.0
 33
0.0
 16
1.0
 26
0.0
 36
0.0
 17
0.0
 27
1.0
 37
0.0
 76
     0
330
1F
331
29
  0
MLINESTYLE
  5
18
102
{ACAD_REACTORS
330
17
102
}
330
17
100
AcDbMlineStyle
  2
Standard
 70
     0
  3

 62
   256
 51
90.0
 52
90.0
 71
     2
 49
0.5
 62
   256
  6
BYLAYER
 49
-0.5
 62
   256
  6
BYLAYER
  0
ACDBPLACEHOLDER
  5
F
102
{ACAD_REACTORS
330
E
102
}
330
E
  0
SCALE
  5
48
102
{ACAD_REACTORS
330
47
102
}
330
47
100
AcDbScale
 70
     0
300
1:1
140
1.0
141
1.0
290
     1
  0
SCALE
  5
49
102
{ACAD_REACTORS
330
47
102
}
330
47
100
AcDbScale
 70
     0
300
1:2
140
1.0
141
2.0
290
     0
  0
SCALE
  5
4A
102
{ACAD_REACTORS
330
47
102
}
330
47
100
AcDbScale
 70
     0
300
1:4
140
1.0
141
4.0
290
     0
  0
SCALE
  5
4B
102
{ACAD_REACTORS
330
47
102
}
330
47
100
AcDbScale
 70
     0
300
1:5
140
1.0
141
5.0
290
     0
  0
SCALE
  5
4C
102
{ACAD_REACTORS
330
47
102
}
330
47
100
AcDbScale
 70
     0
300
1:8
140
1.0
141
8.0
290
     0
  0
SCALE
  5
4D
102
{ACAD_REACTORS
330
47
102
}
330
47
100
AcDbScale
 70
     0
300
1:10
140
1.0
141
10.0
290
     0
  0
SCALE
  5
4E
102
{ACAD_REACTORS
330
47
102
}
330
47
100
AcDbScale
 70
     0
300
1:16
140
1.0
141
16.0
290
     0
  0
SCALE
  5
4F
102
{ACAD_REACTORS
330
47
102
}
330
47
100
AcDbScale
 70
     0
300
1:20
140
1.0
141
20.0
290
     0
  0
SCALE
  5
50
102
{ACAD_REACTORS
330
47
102
}
330
47
100
AcDbScale
 70
     0
300
1:30
140
1.0
141
30.0
290
     0
  0
SCALE
  5
51
102
{ACAD_REACTORS
330
47
102
}
330
47
100
AcDbScale
 70
     0
300
1:40
140
1.0
141
40.0
290
     0
  0
SCALE
  5
52
102
{ACAD_REACTORS
330
47
102
}
330
47
100
AcDbScale
 70
     0
300
1:50
140
1.0
141
50.0
290
     0
  0
SCALE
  5
53
102
{ACAD_REACTORS
330
47
102
}
330
47
100
AcDbScale
 70
     0
300
1:100
140
1.0
141
100.0
290
     0
  0
SCALE
  5
54
102
{ACAD_REACTORS
330
47
102
}
330
47
100
AcDbScale
 70
     0
300
2:1
140
2.0
141
1.0
290
     0
  0
SCALE
  5
55
102
{ACAD_REACTORS
330
47
102
}
330
47
100
AcDbScale
 70
     0
300
4:1
140
4.0
141
1.0
290
     0
  0
SCALE
  5
56
102
{ACAD_REACTORS
330
47
102
}
330
47
100
AcDbScale
 70
     0
300
8:1
140
8.0
141
1.0
290
     0
  0
SCALE
  5
57
102
{ACAD_REACTORS
330
47
102
}
330
47
100
AcDbScale
 70
     0
300
10:1
140
10.0
141
1.0
290
     0
  0
SCALE
  5
58
102
{ACAD_REACTORS
330
47
102
}
330
47
100
AcDbScale
 70
     0
300
100:1
140
100.0
141
1.0
290
     0
  0
SCALE
  5
59
102
{ACAD_REACTORS
330
47
102
}
330
47
100
AcDbScale
 70
     0
300
1/128" = 1'-0"
140
0.0078125
141
12.0
290
     0
  0
SCALE
  5
5A
102
{ACAD_REACTORS
330
47
102
}
330
47
100
AcDbScale
 70
     0
300
1/64" = 1'-0"
140
0.015625
141
12.0
290
     0
  0
SCALE
  5
5B
102
{ACAD_REACTORS
330
47
102
}
330
47
100
AcDbScale
 70
     0
300
1/32" = 1'-0"
140
0.03125
141
12.0
290
     0
  0
SCALE
  5
5C
102
{ACAD_REACTORS
330
47
102
}
330
47
100
AcDbScale
 70
     0
300
1/16" = 1'-0"
140
0.0625
141
12.0
290
     0
  0
SCALE
  5
5D
102
{ACAD_REACTORS
330
47
102
}
330
47
100
AcDbScale
 70
     0
300
3/32" = 1'-0"
140
0.09375
141
12.0
290
     0
  0
SCALE
  5
5E
102
{ACAD_REACTORS
330
47
102
}
330
47
100
AcDbScale
 70
     0
300
1/8" = 1'-0"
140
0.125
141
12.0
290
     0
  0
SCALE
  5
5F
102
{ACAD_REACTORS
330
47
102
}
330
47
100
AcDbScale
 70
     0
300
3/16" = 1'-0"
140
0.1875
141
12.0
290
     0
  0
SCALE
  5
60
102
{ACAD_REACTORS
330
47
102
}
330
47
100
AcDbScale
 70
     0
300
1/4" = 1'-0"
140
0.25
141
12.0
290
     0
  0
SCALE
  5
61
102
{ACAD_REACTORS
330
47
102
}
330
47
100
AcDbScale
 70
     0
300
3/8" = 1'-0"
140
0.375
141
12.0
290
     0
  0
SCALE
  5
62
102
{ACAD_REACTORS
330
47
102
}
330
47
100
AcDbScale
 70
     0
300
1/2" = 1'-0"
140
0.5
141
12.0
290
     0
  0
SCALE
  5
63
102
{ACAD_REACTORS
330
47
102
}
330
47
100
AcDbScale
 70
     0
300
3/4" = 1'-0"
140
0.75
141
12.0
290
     0
  0
SCALE
  5
64
102
{ACAD_REACTORS
330
47
102
}
330
47
100
AcDbScale
 70
     0
300
1" = 1'-0"
140
1.0
141
12.0
290
     0
  0
SCALE
  5
65
102
{ACAD_REACTORS
330
47
102
}
330
47
100
AcDbScale
 70
     0
300
1-1/2" = 1'-0"
140
1.5
141
12.0
290
     0
  0
SCALE
  5
66
102
{ACAD_REACTORS
330
47
102
}
330
47
100
AcDbScale
 70
     0
300
3" = 1'-0"
140
3.0
141
12.0
290
     0
  0
SCALE
  5
67
102
{ACAD_REACTORS
330
47
102
}
330
47
100
AcDbScale
 70
     0
300
6" = 1'-0"
140
6.0
141
12.0
290
     0
  0
SCALE
  5
68
102
{ACAD_REACTORS
330
47
102
}
330
47
100
AcDbScale
 70
     0
300
1'-0" = 1'-0"
140
12.0
141
12.0
290
     0
  0
ENDSEC
  0
EOF
