  0
SECTION
  2
HEADER
  9
$ACADVER
  1
AC1015
  9
$ACADMAINTVER
 70
     6
  9
$DWGCODEPAGE
  3
ANSI_1252
  9
$INSBASE
 10
0.0
 20
0.0
 30
0.0
  9
$EXTMIN
 10
0.0
 20
0.0
 30
0.0
  9
$EXTMAX
 10
90.0
 20
120.0
 30
0.0
  9
$LIMMIN
 10
0.0
 20
0.0
  9
$LIMMAX
 10
90.0
 20
120.0
  9
$ORTHOMODE
 70
     0
  9
$REGENMODE
 70
     1
  9
$FILLMODE
 70
     1
  9
$QTEXTMODE
 70
     0
  9
$MIRRTEXT
 70
     1
  9
$LTSCALE
 40
1.0
  9
$ATTMODE
 70
     1
  9
$TEXTSIZE
 40
0.5
  9
$TRACEWID
 40
0.05
  9
$TEXTSTYLE
  7
STANDARD
  9
$CLAYER
  8
0
  9
$CELTYPE
  6
ByLayer
  9
$CECOLOR
 62
   256
  9
$CELTSCALE
 40
1.0
  9
$DISPSILH
 70
     0
  9
$DIMSCALE
 40
1.0
  9
$DIMASZ
 40
0.3
  9
$DIMEXO
 40
0.1666666667
  9
$DIMDLI
 40
0.38
  9
$DIMRND
 40
0.0
  9
$DIMDLE
 40
0.0
  9
$DIMEXE
 40
0.375
  9
$DIMTP
 40
0.0
  9
$DIMTM
 40
0.0
  9
$DIMTXT
 40
0.5
  9
$DIMCEN
 40
0.09
  9
$DIMTSZ
 40
0.0
  9
$DIMTOL
 70
     0
  9
$DIMLIM
 70
     0
  9
$DIMTIH
 70
     1
  9
$DIMTOH
 70
     1
  9
$DIMSE1
 70
     0
  9
$DIMSE2
 70
     0
  9
$DIMTAD
 70
     0
  9
$DIMZIN
 70
     1
  9
$DIMBLK
  1

  9
$DIMASO
 70
     1
  9
$DIMSHO
 70
     1
  9
$DIMPOST
  1

  9
$DIMAPOST
  1

  9
$DIMALT
 70
     0
  9
$DIMALTD
 70
     2
  9
$DIMALTF
 40
25.4
  9
$DIMLFAC
 40
1.0
  9
$DIMTOFL
 70
     0
  9
$DIMTVP
 40
0.0
  9
$DIMTIX
 70
     0
  9
$DIMSOXD
 70
     0
  9
$DIMSAH
 70
     0
  9
$DIMBLK1
  1

  9
$DIMBLK2
  1

  9
$DIMSTYLE
  2
Standard
  9
$DIMCLRD
 70
     0
  9
$DIMCLRE
 70
     0
  9
$DIMCLRT
 70
     0
  9
$DIMTFAC
 40
1.0
  9
$DIMGAP
 40
0.125
  9
$DIMJUST
 70
     0
  9
$DIMSD1
 70
     0
  9
$DIMSD2
 70
     0
  9
$DIMTOLJ
 70
     1
  9
$DIMTZIN
 70
     1
  9
$DIMALTZ
 70
     0
  9
$DIMALTTZ
 70
     0
  9
$DIMUPT
 70
     0
  9
$DIMDEC
 70
     2
  9
$DIMTDEC
 70
     2
  9
$DIMALTU
 70
     2
  9
$DIMALTTD
 70
     2
  9
$DIMTXSTY
  7
STANDARD
  9
$DIMAUNIT
 70
     0
  9
$DIMADEC
 70
     2
  9
$DIMALTRND
 40
0.0
  9
$DIMAZIN
 70
     0
  9
$DIMDSEP
 70
    46
  9
$DIMATFIT
 70
     3
  9
$DIMFRAC
 70
     0
  9
$DIMLDRBLK
  1

  9
$DIMLUNIT
 70
     2
  9
$DIMLWD
 70
    -2
  9
$DIMLWE
 70
    -2
  9
$DIMTMOVE
 70
     0
  9
$LUNITS
 70
     2
  9
$LUPREC
 70
     4
  9
$SKETCHINC
 40
0.1
  9
$FILLETRAD
 40
0.5
  9
$AUNITS
 70
     0
  9
$AUPREC
 70
     2
  9
$MENU
  1
.
  9
$ELEVATION
 40
0.0
  9
$PELEVATION
 40
0.0
  9
$THICKNESS
 40
0.0
  9
$LIMCHECK
 70
     0
  9
$CHAMFERA
 40
0.0
  9
$CHAMFERB
 40
0.0
  9
$CHAMFERC
 40
0.0
  9
$CHAMFERD
 40
0.0
  9
$SKPOLY
 70
     0
  9
$TDCREATE
 40
2459480.434532905
  9
$TDUCREATE
 40
2459480.601199572
  9
$TDUPDATE
 40
2459480.434537975
  9
$TDUUPDATE
 40
2459480.601204641
  9
$TDINDWG
 40
0.0000000116
  9
$TDUSRTIMER
 40
0.0000000116
  9
$USRTIMER
 70
     1
  9
$ANGBASE
 50
0.0
  9
$ANGDIR
 70
     0
  9
$PDMODE
 70
     0
  9
$PDSIZE
 40
-1.0
  9
$PLINEWID
 40
0.0
  9
$SPLFRAME
 70
     0
  9
$SPLINETYPE
 70
     6
  9
$SPLINESEGS
 70
     8
  9
$HANDSEED
  5
41F
  9
$SURFTAB1
 70
     6
  9
$SURFTAB2
 70
     6
  9
$SURFTYPE
 70
     6
  9
$SURFU
 70
     6
  9
$SURFV
 70
     6
  9
$UCSBASE
  2

  9
$UCSNAME
  2

  9
$UCSORG
 10
0.0
 20
0.0
 30
0.0
  9
$UCSXDIR
 10
1.0
 20
0.0
 30
0.0
  9
$UCSYDIR
 10
0.0
 20
1.0
 30
0.0
  9
$UCSORTHOREF
  2

  9
$UCSORTHOVIEW
 70
     0
  9
$UCSORGTOP
 10
0.0
 20
0.0
 30
0.0
  9
$UCSORGBOTTOM
 10
0.0
 20
0.0
 30
0.0
  9
$UCSORGLEFT
 10
0.0
 20
0.0
 30
0.0
  9
$UCSORGRIGHT
 10
0.0
 20
0.0
 30
0.0
  9
$UCSORGFRONT
 10
0.0
 20
0.0
 30
0.0
  9
$UCSORGBACK
 10
0.0
 20
0.0
 30
0.0
  9
$PUCSBASE
  2

  9
$PUCSNAME
  2

  9
$PUCSORG
 10
0.0
 20
0.0
 30
0.0
  9
$PUCSXDIR
 10
1.0
 20
0.0
 30
0.0
  9
$PUCSYDIR
 10
0.0
 20
1.0
 30
0.0
  9
$PUCSORTHOREF
  2

  9
$PUCSORTHOVIEW
 70
     0
  9
$PUCSORGTOP
 10
0.0
 20
0.0
 30
0.0
  9
$PUCSORGBOTTOM
 10
0.0
 20
0.0
 30
0.0
  9
$PUCSORGLEFT
 10
0.0
 20
0.0
 30
0.0
  9
$PUCSORGRIGHT
 10
0.0
 20
0.0
 30
0.0
  9
$PUCSORGFRONT
 10
0.0
 20
0.0
 30
0.0
  9
$PUCSORGBACK
 10
0.0
 20
0.0
 30
0.0
  9
$USERI1
 70
     0
  9
$USERI2
 70
     0
  9
$USERI3
 70
     0
  9
$USERI4
 70
     0
  9
$USERI5
 70
     0
  9
$USERR1
 40
0.0
  9
$USERR2
 40
0.0
  9
$USERR3
 40
0.0
  9
$USERR4
 40
0.0
  9
$USERR5
 40
0.0
  9
$WORLDVIEW
 70
     1
  9
$SHADEDGE
 70
     3
  9
$SHADEDIF
 70
    70
  9
$TILEMODE
 70
     1
  9
$MAXACTVP
 70
    64
  9
$PINSBASE
 10
0.0
 20
0.0
 30
0.0
  9
$PLIMCHECK
 70
     0
  9
$PEXTMIN
 10
1.0000000000E+20
 20
1.0000000000E+20
 30
1.0000000000E+20
  9
$PEXTMAX
 10
-1.0000000000E+20
 20
-1.0000000000E+20
 30
-1.0000000000E+20
  9
$PLIMMIN
 10
0.0
 20
0.0
  9
$PLIMMAX
 10
12.0
 20
9.0
  9
$UNITMODE
 70
     0
  9
$VISRETAIN
 70
     1
  9
$PLINEGEN
 70
     0
  9
$PSLTSCALE
 70
     1
  9
$TREEDEPTH
 70
  3020
  9
$CMLSTYLE
  2
Standard
  9
$CMLJUST
 70
     0
  9
$CMLSCALE
 40
1.0
  9
$PROXYGRAPHICS
 70
     1
  9
$MEASUREMENT
 70
     0
  9
$CELWEIGHT
370
    -1
  9
$ENDCAPS
280
     0
  9
$JOINSTYLE
280
     0
  9
$LWDISPLAY
290
     1
  9
$INSUNITS
 70
     1
  9
$HYPERLINKBASE
  1

  9
$STYLESHEET
  1

  9
$XEDIT
290
     1
  9
$CEPSNTYPE
380
     0
  9
$PSTYLEMODE
290
     1
  9
$FINGERPRINTGUID
  2
{47f47981-0670-49b7-b9e3-743865d17b0f}
  9
$VERSIONGUID
  2
{FAEB1C32-E019-11D5-929B-00C0DF256EC4}
  9
$EXTNAMES
290
     1
  9
$PSVPSCALE
 40
0.0
  9
$OLESTARTUP
290
     0
  0
ENDSEC
  0
SECTION
  2
CLASSES
  0
CLASS
  1
ACDBDICTIONARYWDFLT
  2
AcDbDictionaryWithDefault
  3
ObjectDBX Classes
 90
        0
280
     0
281
     0
  0
CLASS
  1
VISUALSTYLE
  2
AcDbVisualStyle
  3
ObjectDBX Classes
 90
     4095
280
     0
281
     0
  0
CLASS
  1
MATERIAL
  2
AcDbMaterial
  3
ObjectDBX Classes
 90
     1153
280
     0
281
     0
  0
CLASS
  1
SCALE
  2
AcDbScale
  3
ObjectDBX Classes
 90
     1153
280
     0
281
     0
  0
CLASS
  1
TABLESTYLE
  2
AcDbTableStyle
  3
ObjectDBX Classes
 90
     4095
280
     0
281
     0
  0
CLASS
  1
MLEADERSTYLE
  2
AcDbMLeaderStyle
  3
ACDB_MLEADERSTYLE_CLASS
 90
     4095
280
     0
281
     0
  0
CLASS
  1
SUN
  2
AcDbSun
  3
SCENEOE
 90
     1153
280
     0
281
     0
  0
CLASS
  1
ACDBPLACEHOLDER
  2
AcDbPlaceHolder
  3
ObjectDBX Classes
 90
        0
280
     0
281
     0
  0
CLASS
  1
LAYOUT
  2
AcDbLayout
  3
ObjectDBX Classes
 90
        0
280
     0
281
     0
  0
ENDSEC
  0
SECTION
  2
TABLES
  0
TABLE
  2
VPORT
  5
8
330
0
100
AcDbSymbolTable
 70
     1
  0
VPORT
  5
29
330
8
100
AcDbSymbolTableRecord
100
AcDbViewportTableRecord
  2
*Active
 70
     0
 10
0.0
 20
0.0
 11
1.0
 21
1.0
 12
45.0
 22
60.0
 13
0.0
 23
0.0
 14
0.5
 24
0.5
 15
0.5
 25
0.5
 16
0.0
 26
0.0
 36
1.0
 17
0.0
 27
0.0
 37
0.0
 40
120.0
 41
0.75
 42
50.0
 43
0.0
 44
0.0
 50
0.0
 51
0.0
 71
     0
 72
  2000
 73
     1
 74
     3
 75
     0
 76
     0
 77
     0
 78
     0
281
     0
 65
     1
110
0.0
120
0.0
130
0.0
111
1.0
121
0.0
131
0.0
112
0.0
122
1.0
132
0.0
 79
     0
146
0.0
  0
ENDTAB
  0
TABLE
  2
LTYPE
  5
5
330
0
100
AcDbSymbolTable
 70
     8
  0
LTYPE
  5
14
330
5
100
AcDbSymbolTableRecord
100
AcDbLinetypeTableRecord
  2
ByBlock
 70
     0
  3

 72
    65
 73
     0
 40
0.0
  0
LTYPE
  5
15
330
5
100
AcDbSymbolTableRecord
100
AcDbLinetypeTableRecord
  2
ByLayer
 70
     0
  3

 72
    65
 73
     0
 40
0.0
  0
LTYPE
  5
16
330
5
100
AcDbSymbolTableRecord
100
AcDbLinetypeTableRecord
  2
Continuous
 70
     0
  3
Solid line
 72
    65
 73
     0
 40
0.0
  0
LTYPE
  5
6E
330
5
100
AcDbSymbolTableRecord
100
AcDbLinetypeTableRecord
  2
SLD-Solid
 70
     0
  3
SolidWorks Line Style
 72
    65
 73
     0
 40
0.0
  0
LTYPE
  5
6F
330
5
100
AcDbSymbolTableRecord
100
AcDbLinetypeTableRecord
  2
SLD-Dashed
 70
     0
  3
SolidWorks Line Style
 72
    65
 73
     2
 40
0.075
 49
0.05
 74
     0
 49
-0.025
 74
     0
  0
LTYPE
  5
70
330
5
100
AcDbSymbolTableRecord
100
AcDbLinetypeTableRecord
  2
SLD-Phantom
 70
     0
  3
SolidWorks Line Style
 72
    65
 73
     6
 40
0.5
 49
0.25
 74
     0
 49
-0.05
 74
     0
 49
0.05
 74
     0
 49
-0.05
 74
     0
 49
0.05
 74
     0
 49
-0.05
 74
     0
  0
LTYPE
  5
71
330
5
100
AcDbSymbolTableRecord
100
AcDbLinetypeTableRecord
  2
SLD-Chain
 70
     0
  3
SolidWorks Line Style
 72
    65
 73
     4
 40
0.4
 49
0.25
 74
     0
 49
-0.05
 74
     0
 49
0.05
 74
     0
 49
-0.05
 74
     0
  0
LTYPE
  5
72
330
5
100
AcDbSymbolTableRecord
100
AcDbLinetypeTableRecord
  2
SLD-Center
 70
     0
  3
SolidWorks Line Style
 72
    65
 73
     4
 40
0.75
 49
0.6
 74
     0
 49
-0.05
 74
     0
 49
0.05
 74
     0
 49
-0.05
 74
     0
  0
LTYPE
  5
73
330
5
100
AcDbSymbolTableRecord
100
AcDbLinetypeTableRecord
  2
SLD-Stitch
 70
     0
  3
SolidWorks Line Style
 72
    65
 73
     2
 40
0.025
 49
0.0
 74
     0
 49
-0.025
 74
     0
  0
LTYPE
  5
74
330
5
100
AcDbSymbolTableRecord
100
AcDbLinetypeTableRecord
  2
SLD-Thin-Thick-Chain
 70
     0
  3
SolidWorks Line Style
 72
    65
 73
     4
 40
0.4
 49
0.25
 74
     0
 49
-0.05
 74
     0
 49
0.05
 74
     0
 49
-0.05
 74
     0
  0
ENDTAB
  0
TABLE
  2
LAYER
  5
2
330
0
100
AcDbSymbolTable
 70
     6
  0
LAYER
  5
10
330
2
100
AcDbSymbolTableRecord
100
AcDbLayerTableRecord
  2
0
 70
     0
 62
     7
  6
Continuous
370
    -3
390
F
  0
LAYER
  5
75
330
2
100
AcDbSymbolTableRecord
100
AcDbLayerTableRecord
  2
FORMAT
 70
     0
 62
     7
  6
SLD-Solid
370
    -3
390
F
  0
LAYER
  5
76
330
2
100
AcDbSymbolTableRecord
100
AcDbLayerTableRecord
  2
NOTES
 70
     0
 62
     1
  6
SLD-Solid
370
    -3
390
F
  0
LAYER
  5
77
330
2
100
AcDbSymbolTableRecord
100
AcDbLayerTableRecord
  2
OBJECT
 70
     0
 62
     7
  6
SLD-Solid
370
    25
390
F
  0
LAYER
  5
78
330
2
100
AcDbSymbolTableRecord
100
AcDbLayerTableRecord
  2
DIMS
 70
     0
 62
     5
  6
SLD-Solid
370
    -3
390
F
  0
LAYER
  5
79
330
2
100
AcDbSymbolTableRecord
100
AcDbLayerTableRecord
  2
TITLE
 70
     0
 62
     8
  6
SLD-Solid
370
    -3
390
F
  0
ENDTAB
  0
TABLE
  2
STYLE
  5
3
330
0
100
AcDbSymbolTable
 70
     5
  0
STYLE
  5
11
330
3
100
AcDbSymbolTableRecord
100
AcDbTextStyleTableRecord
  2
STANDARD
 70
     0
 40
0.0
 41
1.0
 50
0.0
 71
     0
 42
0.5
  3
GOTHIC.TTF
  4

1001
ACAD
1000
CENTURY GOTHIC
1071
       34
  0
STYLE
  5
15D
330
3
100
AcDbSymbolTableRecord
100
AcDbTextStyleTableRecord
  2
SLDTEXTSTYLE0
 70
     0
 40
0.0
 41
0.948
 50
0.0
 71
     0
 42
0.5
  3
ARIAL.TTF
  4

1001
ACAD
1000
Arial
1071
      290
  0
STYLE
  5
161
330
3
100
AcDbSymbolTableRecord
100
AcDbTextStyleTableRecord
  2
SLDTEXTSTYLE1
 70
     0
 40
0.0
 41
0.913
 50
0.0
 71
     0
 42
0.5
  3
GOTHIC.TTF
  4

1001
ACAD
1000
Century Gothic
1071
      290
  0
STYLE
  5
170
330
3
100
AcDbSymbolTableRecord
100
AcDbTextStyleTableRecord
  2
SLDTEXTSTYLE2
 70
     0
 40
0.0
 41
0.87
 50
0.0
 71
     0
 42
0.5
  3
ARIALNB.TTF
  4

1001
ACAD
1000
Arial Narrow
1071
 33554722
  0
STYLE
  5
172
330
3
100
AcDbSymbolTableRecord
100
AcDbTextStyleTableRecord
  2
SLDTEXTSTYLE3
 70
     0
 40
0.0
 41
0.87
 50
0.0
 71
     0
 42
0.5
  3
ARIALN.TTF
  4

1001
ACAD
1000
Arial Narrow
1071
      290
  0
ENDTAB
  0
TABLE
  2
VIEW
  5
6
330
0
100
AcDbSymbolTable
 70
     0
  0
ENDTAB
  0
TABLE
  2
UCS
  5
7
330
0
100
AcDbSymbolTable
 70
     0
  0
ENDTAB
  0
TABLE
  2
APPID
  5
9
330
0
100
AcDbSymbolTable
 70
     1
  0
APPID
  5
12
330
9
100
AcDbSymbolTableRecord
100
AcDbRegAppTableRecord
  2
ACAD
 70
     0
  0
ENDTAB
  0
TABLE
  2
DIMSTYLE
  5
A
330
0
100
AcDbSymbolTable
 70
     7
100
AcDbDimStyleTable
  0
DIMSTYLE
105
27
330
A
100
AcDbSymbolTableRecord
100
AcDbDimStyleTableRecord
  2
Standard
 70
     0
178
     0
340
11
  0
DIMSTYLE
105
277
102
{ACAD_REACTORS
330
276
102
}
330
A
100
AcDbSymbolTableRecord
100
AcDbDimStyleTableRecord
  2
SLDDIMSTYLE0
 70
     0
 41
0.3
 44
0.0
 45
0.000000001
 78
    12
 79
     3
140
0.5
147
0.125
173
     1
178
     0
271
     2
272
     2
276
     2
277
     5
284
    12
340
161
341
278
343
278
344
278
  0
DIMSTYLE
105
289
102
{ACAD_REACTORS
330
288
330
298
102
}
330
A
100
AcDbSymbolTableRecord
100
AcDbDimStyleTableRecord
  2
SLDDIMSTYLE1
 70
     0
 41
0.3
 44
0.0
 45
0.000000001
 78
    12
 79
     3
140
0.5
147
0.125
172
     1
173
     1
178
     0
271
     6
272
     2
276
     2
277
     5
284
    12
289
     0
340
161
341
278
343
278
344
278
  0
DIMSTYLE
105
2B9
102
{ACAD_REACTORS
330
2B8
102
}
330
A
100
AcDbSymbolTableRecord
100
AcDbDimStyleTableRecord
  2
SLDDIMSTYLE2
 70
     0
 41
0.3
 44
0.0
 45
0.000000001
 78
    12
 79
     3
140
0.5
141
0.0
147
0.125
173
     1
178
     0
271
     2
272
     2
276
     2
277
     5
284
    12
340
161
341
278
343
278
344
278
  0
DIMSTYLE
105
2C3
102
{ACAD_REACTORS
330
2C2
102
}
330
A
100
AcDbSymbolTableRecord
100
AcDbDimStyleTableRecord
  2
SLDDIMSTYLE3
 70
     0
 41
0.3
 44
0.0
 45
0.000000001
 78
    12
 79
     3
140
0.5
147
0.125
173
     1
178
     0
271
     6
272
     2
276
     2
277
     5
284
    12
340
161
341
278
343
278
344
278
  0
DIMSTYLE
105
412
330
A
100
AcDbSymbolTableRecord
100
AcDbDimStyleTableRecord
  2
SLDDIMSTYLE4
 70
     0
 41
0.3
 44
0.0
 45
0.000000001
146
0.3
147
0.0
173
     1
178
     0
271
     0
272
     0
276
     2
277
     5
340
11
341
278
343
278
344
278
  0
DIMSTYLE
105
417
330
A
100
AcDbSymbolTableRecord
100
AcDbDimStyleTableRecord
  2
SLDDIMSTYLE5
 70
     0
 41
0.0666666667
 44
0.0
 45
0.000000001
146
0.2
147
0.0
173
     1
178
     0
271
     0
272
     0
276
     2
277
     5
340
11
341
418
343
418
344
418
  0
ENDTAB
  0
TABLE
  2
BLOCK_RECORD
  5
1
330
0
100
AcDbSymbolTable
 70
    12
  0
BLOCK_RECORD
  5
1F
330
1
100
AcDbSymbolTableRecord
100
AcDbBlockTableRecord
  2
*Model_Space
340
22
  0
BLOCK_RECORD
  5
1B
330
1
100
AcDbSymbolTableRecord
100
AcDbBlockTableRecord
  2
*Paper_Space
340
1E
  0
BLOCK_RECORD
  5
23
330
1
100
AcDbSymbolTableRecord
100
AcDbBlockTableRecord
  2
*Paper_Space0
340
26
  0
BLOCK_RECORD
  5
167
330
1
100
AcDbSymbolTableRecord
100
AcDbBlockTableRecord
  2
SW_NOTE_0
340
0
102
{BLKREFS
331
16C
102
}
  0
BLOCK_RECORD
  5
16D
330
1
100
AcDbSymbolTableRecord
100
AcDbBlockTableRecord
  2
SW_NOTE_0_1
340
0
102
{BLKREFS
331
176
102
}
  0
BLOCK_RECORD
  5
278
330
1
100
AcDbSymbolTableRecord
100
AcDbBlockTableRecord
  2
_Open90
340
0
102
{BLKREFS
331
281
331
282
331
28D
331
28E
331
29C
331
29D
331
2BD
331
2C7
331
2C8
102
}
  0
BLOCK_RECORD
  5
27E
330
1
100
AcDbSymbolTableRecord
100
AcDbBlockTableRecord
  2
_D
340
0
  0
BLOCK_RECORD
  5
28A
330
1
100
AcDbSymbolTableRecord
100
AcDbBlockTableRecord
  2
_D_1
340
0
  0
BLOCK_RECORD
  5
299
330
1
100
AcDbSymbolTableRecord
100
AcDbBlockTableRecord
  2
_D_2
340
0
  0
BLOCK_RECORD
  5
2BA
330
1
100
AcDbSymbolTableRecord
100
AcDbBlockTableRecord
  2
_D_3
340
0
  0
BLOCK_RECORD
  5
2C4
330
1
100
AcDbSymbolTableRecord
100
AcDbBlockTableRecord
  2
_D_4
340
0
  0
BLOCK_RECORD
  5
355
330
1
100
AcDbSymbolTableRecord
100
AcDbBlockTableRecord
  2
SW_NOTE_0_2
340
0
102
{BLKREFS
331
35A
102
}
  0
BLOCK_RECORD
  5
40B
330
1
100
AcDbSymbolTableRecord
100
AcDbBlockTableRecord
  2
SW_NOTE_0_3
340
0
102
{BLKREFS
331
410
102
}
  0
BLOCK_RECORD
  5
418
330
1
100
AcDbSymbolTableRecord
100
AcDbBlockTableRecord
  2
_Origin
340
0
  0
ENDTAB
  0
ENDSEC
  0
SECTION
  2
BLOCKS
  0
BLOCK
  5
20
330
1F
100
AcDbEntity
  8
0
100
AcDbBlockBegin
  2
*Model_Space
 70
     0
 10
0.0
 20
0.0
 30
0.0
  3
*Model_Space
  1

  0
ENDBLK
  5
21
330
1F
100
AcDbEntity
  8
0
100
AcDbBlockEnd
  0
BLOCK
  5
1C
330
1B
100
AcDbEntity
 67
     1
  8
0
100
AcDbBlockBegin
  2
*Paper_Space
 70
     0
 10
0.0
 20
0.0
 30
0.0
  3
*Paper_Space
  1

  0
ENDBLK
  5
1D
330
1B
100
AcDbEntity
 67
     1
  8
0
100
AcDbBlockEnd
  0
BLOCK
  5
24
330
23
100
AcDbEntity
  8
0
100
AcDbBlockBegin
  2
*Paper_Space0
 70
     0
 10
0.0
 20
0.0
 30
0.0
  3
*Paper_Space0
  1

  0
ENDBLK
  5
25
330
23
100
AcDbEntity
  8
0
100
AcDbBlockEnd
  0
BLOCK
  5
168
330
167
100
AcDbEntity
  8
0
100
AcDbBlockBegin
  2
SW_NOTE_0
 70
     0
 10
0.0
 20
0.0
 30
0.0
  3
SW_NOTE_0
  1

  0
MTEXT
  5
16A
330
167
100
AcDbEntity
  8
NOTES
 62
     0
100
AcDbMText
 10
0.0
 20
0.3759780908
 30
0.0
 40
0.2916666667
 41
0.0
 71
     1
 72
     1
  1
FROST PRODUCTS LTD.
  7
SLDTEXTSTYLE0
 73
     1
 44
1.0
  0
MTEXT
  5
16B
330
167
100
AcDbEntity
  8
NOTES
 62
     0
100
AcDbMText
 10
0.0
 20
-0.0495142709
 30
0.0
 40
0.2291666667
 41
0.0
 71
     1
 72
     1
  1
5280 JOHN LUCAS DRIVE, BURLINGTON, ON, L7L 5Z9
  7
SLDTEXTSTYLE0
 73
     1
 44
1.0
  0
ENDBLK
  5
169
330
167
100
AcDbEntity
  8
0
100
AcDbBlockEnd
  0
BLOCK
  5
16E
330
16D
100
AcDbEntity
  8
0
100
AcDbBlockBegin
  2
SW_NOTE_0_1
 70
     0
 10
0.0
 20
0.0
 30
0.0
  3
SW_NOTE_0_1
  1

  0
MTEXT
  5
171
330
16D
100
AcDbEntity
  8
NOTES
 62
     0
100
AcDbMText
 10
0.0
 20
0.2381282771
 30
0.0
 40
0.184729064
 41
0.0
 71
     1
 72
     1
  1
PROPRIETARY AND CONFIDENTIAL
  7
SLDTEXTSTYLE2
 73
     1
 44
1.0
  0
MTEXT
  5
173
330
16D
100
AcDbEntity
  8
NOTES
 62
     0
100
AcDbMText
 10
0.0
 20
-0.0504364796
 30
0.0
 40
0.25
 41
0.0
 71
     1
 72
     1
  1
THE INFORMATION CONTAINED IN THIS DRAWING IS THE SOLE PROPERTY OF 
  7
SLDTEXTSTYLE3
 73
     1
 44
1.0
  0
MTEXT
  5
174
330
16D
100
AcDbEntity
  8
NOTES
 62
     0
100
AcDbMText
 10
0.0
 20
-0.4231398941
 30
0.0
 40
0.25
 41
0.0
 71
     1
 72
     1
  1
FROST PRODUCTS LTD.  ANY REPRODUCTION IN PART OR AS A WHOLE WITHOUT 
  7
SLDTEXTSTYLE3
 73
     1
 44
1.0
  0
MTEXT
  5
175
330
16D
100
AcDbEntity
  8
NOTES
 62
     0
100
AcDbMText
 10
0.0
 20
-0.7958433086
 30
0.0
 40
0.25
 41
0.0
 71
     1
 72
     1
  1
THE WRITTEN PERMISSION OF FROST PRODUCTS LTD. IS PROHIBITED.
  7
SLDTEXTSTYLE3
 73
     1
 44
1.0
  0
ENDBLK
  5
16F
330
16D
100
AcDbEntity
  8
0
100
AcDbBlockEnd
  0
BLOCK
  5
279
330
278
100
AcDbEntity
  8
0
100
AcDbBlockBegin
  2
_Open90
 70
     0
 10
0.0
 20
0.0
 30
0.0
  3
_Open90
  1

  0
LINE
  5
27B
330
278
100
AcDbEntity
  8
0
  6
ByBlock
 62
     0
370
    -2
100
AcDbLine
 10
-0.5
 20
0.5
 30
0.0
 11
0.0
 21
0.0
 31
0.0
  0
LINE
  5
27C
330
278
100
AcDbEntity
  8
0
  6
ByBlock
 62
     0
370
    -2
100
AcDbLine
 10
0.0
 20
0.0
 30
0.0
 11
-0.5
 21
-0.5
 31
0.0
  0
LINE
  5
27D
330
278
100
AcDbEntity
  8
0
  6
ByBlock
 62
     0
370
    -2
100
AcDbLine
 10
0.0
 20
0.0
 30
0.0
 11
-1.0
 21
0.0
 31
0.0
  0
ENDBLK
  5
27A
330
278
100
AcDbEntity
  8
0
100
AcDbBlockEnd
  0
BLOCK
  5
27F
330
27E
100
AcDbEntity
  8
0
100
AcDbBlockBegin
  2
_D
 70
     0
 10
0.0
 20
0.0
 30
0.0
  3
_D
  1

  0
INSERT
  5
281
330
27E
100
AcDbEntity
  8
DIMS
100
AcDbBlockReference
  2
_Open90
 10
57.6397559596
 20
31.046297997
 30
0.0
 41
0.3
 42
0.3
 50
0.0
  0
INSERT
  5
282
330
27E
100
AcDbEntity
  8
DIMS
100
AcDbBlockReference
  2
_Open90
 10
21.6397559596
 20
31.046297997
 30
0.0
 41
0.3
 42
0.3
 50
180.0
  0
LINE
  5
283
330
27E
100
AcDbEntity
  8
DIMS
100
AcDbLine
 10
57.6397559596
 20
28.0565000968
 30
0.0
 11
57.6397559596
 21
31.421297997
 31
0.0
  0
LINE
  5
284
330
27E
100
AcDbEntity
  8
DIMS
100
AcDbLine
 10
21.6397559596
 20
28.0565000968
 30
0.0
 11
21.6397559596
 21
31.421297997
 31
0.0
  0
LINE
  5
285
330
27E
100
AcDbEntity
  8
DIMS
100
AcDbLine
 10
57.6397559596
 20
31.046297997
 30
0.0
 11
40.6015239555
 21
31.046297997
 31
0.0
  0
LINE
  5
286
330
27E
100
AcDbEntity
  8
DIMS
100
AcDbLine
 10
21.6397559596
 20
31.046297997
 30
0.0
 11
39.6563851005
 21
31.046297997
 31
0.0
  0
MTEXT
  5
287
330
27E
100
AcDbEntity
  8
DIMS
100
AcDbMText
 10
39.6563851005
 20
31.2880949151
 30
0.0
 40
0.5
 41
0.0
 71
     1
 72
     1
  1
36"
  7
SLDTEXTSTYLE1
 73
     1
 44
1.0
  0
ENDBLK
  5
280
330
27E
100
AcDbEntity
  8
0
100
AcDbBlockEnd
  0
BLOCK
  5
28B
330
28A
100
AcDbEntity
  8
0
100
AcDbBlockBegin
  2
_D_1
 70
     0
 10
0.0
 20
0.0
 30
0.0
  3
_D_1
  1

  0
INSERT
  5
28D
330
28A
100
AcDbEntity
  8
DIMS
100
AcDbBlockReference
  2
_Open90
 10
54.157778009
 20
27.8898334301
 30
0.0
 41
0.3
 42
0.3
 50
270.0
  0
INSERT
  5
28E
330
28A
100
AcDbEntity
  8
DIMS
100
AcDbBlockReference
  2
_Open90
 10
54.157778009
 20
26.6358334301
 30
0.0
 41
0.3
 42
0.3
 50
90.0
  0
LINE
  5
28F
330
28A
100
AcDbEntity
  8
DIMS
100
AcDbLine
 10
53.0622918936
 20
29.2078189159
 30
0.0
 11
53.578264143
 21
29.2078189159
 31
0.0
  0
LINE
  5
290
330
28A
100
AcDbEntity
  8
DIMS
100
AcDbLine
 10
53.857778009
 20
29.1565342175
 30
0.0
 11
54.157778009
 21
29.1565342175
 31
0.0
  0
LINE
  5
291
330
28A
100
AcDbEntity
  8
DIMS
100
AcDbLine
 10
54.157778009
 20
29.1565342175
 30
0.0
 11
54.157778009
 21
27.8898334301
 31
0.0
  0
LINE
  5
292
330
28A
100
AcDbEntity
  8
DIMS
100
AcDbLine
 10
54.157778009
 20
26.6358334301
 30
0.0
 11
54.157778009
 21
26.3358334301
 31
0.0
  0
MTEXT
  5
293
330
28A
100
AcDbEntity
  8
DIMS
100
AcDbMText
 10
51.8655210638
 20
29.4295810871
 30
0.0
 40
0.5
 41
0.0
 71
     1
 72
     1
  1
%%c
  7
SLDTEXTSTYLE1
 73
     1
 44
1.0
  0
MTEXT
  5
294
330
28A
100
AcDbEntity
  8
DIMS
100
AcDbMText
 10
52.6195835461
 20
29.4372199763
 30
0.0
 40
0.5
 41
0.0
 71
     1
 72
     1
  1
1
  7
SLDTEXTSTYLE1
 73
     1
 44
1.0
  0
MTEXT
  5
295
330
28A
100
AcDbEntity
  8
DIMS
100
AcDbMText
 10
53.1355557955
 20
29.8025324754
 30
0.0
 40
0.5
 41
0.0
 71
     1
 72
     1
  1
1
  7
SLDTEXTSTYLE1
 73
     1
 44
1.0
  0
MTEXT
  5
296
330
28A
100
AcDbEntity
  8
DIMS
100
AcDbMText
 10
53.1355557955
 20
29.1413518968
 30
0.0
 40
0.5
 41
0.0
 71
     1
 72
     1
  1
4
  7
SLDTEXTSTYLE1
 73
     1
 44
1.0
  0
MTEXT
  5
297
330
28A
100
AcDbEntity
  8
DIMS
100
AcDbMText
 10
53.651528045
 20
29.4372199763
 30
0.0
 40
0.5
 41
0.0
 71
     1
 72
     1
  1
"
  7
SLDTEXTSTYLE1
 73
     1
 44
1.0
  0
ENDBLK
  5
28C
330
28A
100
AcDbEntity
  8
0
100
AcDbBlockEnd
  0
BLOCK
  5
29A
330
299
100
AcDbEntity
  8
0
100
AcDbBlockBegin
  2
_D_2
 70
     0
 10
0.0
 20
0.0
 30
0.0
  3
_D_2
  1

  0
INSERT
  5
29C
330
299
100
AcDbEntity
  8
DIMS
100
AcDbBlockReference
  2
_Open90
 10
57.6397559596
 20
29.8651956348
 30
0.0
 41
0.3
 42
0.3
 50
180.0
  0
INSERT
  5
29D
330
299
100
AcDbEntity
  8
DIMS
100
AcDbBlockReference
  2
_Open90
 10
57.0837559596
 20
29.8651956348
 30
0.0
 41
0.3
 42
0.3
 50
0.0
  0
LINE
  5
29E
330
299
100
AcDbEntity
  8
DIMS
100
AcDbLine
 10
55.1118477456
 20
29.9164803332
 30
0.0
 11
55.9972644405
 21
29.9164803332
 31
0.0
  0
LINE
  5
29F
330
299
100
AcDbEntity
  8
DIMS
100
AcDbLine
 10
57.6397559596
 20
28.9295000968
 30
0.0
 11
57.6397559596
 21
30.2401956348
 31
0.0
  0
LINE
  5
2A0
330
299
100
AcDbEntity
  8
DIMS
100
AcDbLine
 10
57.0837559596
 20
28.8295000968
 30
0.0
 11
57.0837559596
 21
30.2401956348
 31
0.0
  0
LINE
  5
2A1
330
299
100
AcDbEntity
  8
DIMS
100
AcDbLine
 10
57.6397559596
 20
29.8651956348
 30
0.0
 11
57.9397559596
 21
29.8651956348
 31
0.0
  0
LINE
  5
2A2
330
299
100
AcDbEntity
  8
DIMS
100
AcDbLine
 10
57.0837559596
 20
29.8651956348
 30
0.0
 11
56.2767783798
 21
29.8651956348
 31
0.0
  0
MTEXT
  5
2A3
330
299
100
AcDbEntity
  8
DIMS
100
AcDbMText
 10
55.3698338703
 20
30.5111938927
 30
0.0
 40
0.5
 41
0.0
 71
     1
 72
     1
  1
9
  7
SLDTEXTSTYLE1
 73
     1
 44
1.0
  0
MTEXT
  5
2A4
330
299
100
AcDbEntity
  8
DIMS
100
AcDbMText
 10
55.1851116475
 20
29.8500133141
 30
0.0
 40
0.5
 41
0.0
 71
     1
 72
     1
  1
16
  7
SLDTEXTSTYLE1
 73
     1
 44
1.0
  0
MTEXT
  5
2A5
330
299
100
AcDbEntity
  8
DIMS
100
AcDbMText
 10
56.0705283425
 20
30.1458813936
 30
0.0
 40
0.5
 41
0.0
 71
     1
 72
     1
  1
"
  7
SLDTEXTSTYLE1
 73
     1
 44
1.0
  0
ENDBLK
  5
29B
330
299
100
AcDbEntity
  8
0
100
AcDbBlockEnd
  0
BLOCK
  5
2BB
330
2BA
100
AcDbEntity
  8
0
100
AcDbBlockBegin
  2
_D_3
 70
     0
 10
0.0
 20
0.0
 30
0.0
  3
_D_3
  1

  0
INSERT
  5
2BD
330
2BA
100
AcDbEntity
  8
DIMS
100
AcDbBlockReference
  2
_Open90
 10
63.033832472
 20
28.5618715358
 30
0.0
 41
0.3
 42
0.3
 50
300.0
  0
LINE
  5
2BE
330
2BA
100
AcDbEntity
  8
DIMS
100
AcDbLine
 10
63.033832472
 20
28.5618715358
 30
0.0
 11
62.2535546594
 21
29.9133523512
 31
0.0
  0
LINE
  5
2BF
330
2BA
100
AcDbEntity
  8
DIMS
100
AcDbLine
 10
62.2535546594
 20
29.9133523512
 30
0.0
 11
61.9535546594
 21
29.9133523512
 31
0.0
  0
MTEXT
  5
2C0
330
2BA
100
AcDbEntity
  8
DIMS
100
AcDbMText
 10
60.6237977675
 20
30.1513297925
 30
0.0
 40
0.5
 41
0.0
 71
     1
 72
     1
  1
%%c
  7
SLDTEXTSTYLE1
 73
     1
 44
1.0
  0
MTEXT
  5
2C1
330
2BA
100
AcDbEntity
  8
DIMS
100
AcDbMText
 10
61.3778602499
 20
30.1589686818
 30
0.0
 40
0.5
 41
0.0
 71
     1
 72
     1
  1
3"
  7
SLDTEXTSTYLE1
 73
     1
 44
1.0
  0
ENDBLK
  5
2BC
330
2BA
100
AcDbEntity
  8
0
100
AcDbBlockEnd
  0
BLOCK
  5
2C5
330
2C4
100
AcDbEntity
  8
0
100
AcDbBlockBegin
  2
_D_4
 70
     0
 10
0.0
 20
0.0
 30
0.0
  3
_D_4
  1

  0
INSERT
  5
2C7
330
2C4
100
AcDbEntity
  8
DIMS
100
AcDbBlockReference
  2
_Open90
 10
67.3470272845
 20
28.3248334301
 30
0.0
 41
0.3
 42
0.3
 50
90.0
  0
INSERT
  5
2C8
330
2C4
100
AcDbEntity
  8
DIMS
100
AcDbBlockReference
  2
_Open90
 10
67.3470272845
 20
26.2008334301
 30
0.0
 41
0.3
 42
0.3
 50
270.0
  0
LINE
  5
2C9
330
2C4
100
AcDbEntity
  8
DIMS
100
AcDbLine
 10
67.1706383638
 20
27.2616326529
 30
0.0
 11
67.6866106133
 21
27.2616326529
 31
0.0
  0
LINE
  5
2CA
330
2C4
100
AcDbEntity
  8
DIMS
100
AcDbLine
 10
63.9504991387
 20
28.3248334301
 30
0.0
 11
67.7220272845
 21
28.3248334301
 31
0.0
  0
LINE
  5
2CB
330
2C4
100
AcDbEntity
  8
DIMS
100
AcDbLine
 10
63.9504991387
 20
26.2008334301
 30
0.0
 11
67.7220272845
 21
26.2008334301
 31
0.0
  0
LINE
  5
2CC
330
2C4
100
AcDbEntity
  8
DIMS
100
AcDbLine
 10
67.3470272845
 20
28.3248334301
 30
0.0
 11
67.3470272845
 21
27.8642021078
 31
0.0
  0
LINE
  5
2CD
330
2C4
100
AcDbEntity
  8
DIMS
100
AcDbLine
 10
67.3470272845
 20
26.2008334301
 30
0.0
 11
67.3470272845
 21
26.5564938012
 31
0.0
  0
MTEXT
  5
2CE
330
2C4
100
AcDbEntity
  8
DIMS
100
AcDbMText
 10
66.7279300164
 20
27.4910337133
 30
0.0
 40
0.5
 41
0.0
 71
     1
 72
     1
  1
2
  7
SLDTEXTSTYLE1
 73
     1
 44
1.0
  0
MTEXT
  5
2CF
330
2C4
100
AcDbEntity
  8
DIMS
100
AcDbMText
 10
67.2439022658
 20
27.8563462123
 30
0.0
 40
0.5
 41
0.0
 71
     1
 72
     1
  1
1
  7
SLDTEXTSTYLE1
 73
     1
 44
1.0
  0
MTEXT
  5
2D0
330
2C4
100
AcDbEntity
  8
DIMS
100
AcDbMText
 10
67.2439022658
 20
27.1951656338
 30
0.0
 40
0.5
 41
0.0
 71
     1
 72
     1
  1
8
  7
SLDTEXTSTYLE1
 73
     1
 44
1.0
  0
MTEXT
  5
2D1
330
2C4
100
AcDbEntity
  8
DIMS
100
AcDbMText
 10
67.7598745153
 20
27.4910337133
 30
0.0
 40
0.5
 41
0.0
 71
     1
 72
     1
  1
"
  7
SLDTEXTSTYLE1
 73
     1
 44
1.0
  0
ENDBLK
  5
2C6
330
2C4
100
AcDbEntity
  8
0
100
AcDbBlockEnd
  0
BLOCK
  5
356
330
355
100
AcDbEntity
  8
0
100
AcDbBlockBegin
  2
SW_NOTE_0_2
 70
     0
 10
0.0
 20
0.0
 30
0.0
  3
SW_NOTE_0_2
  1

  0
MTEXT
  5
358
330
355
100
AcDbEntity
  8
NOTES
 62
     0
100
AcDbMText
 10
0.0
 20
0.638671875
 30
0.0
 40
0.5
 41
0.0
 71
     1
 72
     1
  1
3D view
  7
SLDTEXTSTYLE1
 73
     1
 44
1.0
  0
MTEXT
  5
359
330
355
100
AcDbEntity
  8
NOTES
 62
     0
100
AcDbMText
 10
0.0
 20
-0.3613281862
 30
0.0
 40
0.5
 41
0.0
 71
     1
 72
     1
  1
code 1145-36SS
  7
SLDTEXTSTYLE1
 73
     1
 44
1.0
  0
ENDBLK
  5
357
330
355
100
AcDbEntity
  8
0
100
AcDbBlockEnd
  0
BLOCK
  5
40C
330
40B
100
AcDbEntity
  8
0
100
AcDbBlockBegin
  2
SW_NOTE_0_3
 70
     0
 10
0.0
 20
0.0
 30
0.0
  3
SW_NOTE_0_3
  1

  0
MTEXT
  5
40E
330
40B
100
AcDbEntity
  8
NOTES
 62
     0
100
AcDbMText
 10
0.0
 20
0.638671875
 30
0.0
 40
0.5
 41
0.0
 71
     1
 72
     1
  1
3D view
  7
SLDTEXTSTYLE1
 73
     1
 44
1.0
  0
MTEXT
  5
40F
330
40B
100
AcDbEntity
  8
NOTES
 62
     0
100
AcDbMText
 10
0.0
 20
-0.3613281862
 30
0.0
 40
0.5
 41
0.0
 71
     1
 72
     1
  1
assembly
  7
SLDTEXTSTYLE1
 73
     1
 44
1.0
  0
ENDBLK
  5
40D
330
40B
100
AcDbEntity
  8
0
100
AcDbBlockEnd
  0
BLOCK
  5
419
330
418
100
AcDbEntity
  8
0
100
AcDbBlockBegin
  2
_Origin
 70
     0
 10
0.0
 20
0.0
 30
0.0
  3
_Origin
  1

  0
CIRCLE
  5
41B
330
418
100
AcDbEntity
  8
0
  6
ByBlock
 62
     0
370
    -2
100
AcDbCircle
 10
0.0
 20
0.0
 30
0.0
 40
0.5
  0
LINE
  5
41C
330
418
100
AcDbEntity
  8
0
  6
ByBlock
 62
     0
370
    -2
100
AcDbLine
 10
0.0
 20
0.0
 30
0.0
 11
-1.0
 21
0.0
 31
0.0
  0
ENDBLK
  5
41A
330
418
100
AcDbEntity
  8
0
100
AcDbBlockEnd
  0
ENDSEC
  0
SECTION
  2
ENTITIES
  0
LINE
  5
7A
330
1F
100
AcDbEntity
  8
TITLE
370
    35
100
AcDbLine
 10
72.5182230965
 20
1.4876117645
 30
0.0
 11
89.4999864512
 21
1.4876117645
 31
0.0
  0
LINE
  5
7B
330
1F
100
AcDbEntity
  8
TITLE
370
    35
100
AcDbLine
 10
89.4999317442
 20
5.4753603936
 30
0.0
 11
79.3105350723
 21
5.4753603936
 31
0.0
  0
LINE
  5
7C
330
1F
100
AcDbEntity
  8
TITLE
  6
SLD-Solid
370
    18
100
AcDbLine
 10
0.5
 20
0.5
 30
0.0
 11
0.5
 21
119.5
 31
0.0
  0
LINE
  5
7D
330
1F
100
AcDbEntity
  8
TITLE
  6
SLD-Solid
370
    18
100
AcDbLine
 10
0.5
 20
119.5
 30
0.0
 11
89.5
 21
119.5
 31
0.0
  0
LINE
  5
7E
330
1F
100
AcDbEntity
  8
TITLE
370
    35
100
AcDbLine
 10
72.5182230965
 20
2.5427877231
 30
0.0
 11
65.5059791203
 21
2.5427877231
 31
0.0
  0
LINE
  5
7F
330
1F
100
AcDbEntity
  8
TITLE
370
    35
100
AcDbLine
 10
72.5182230965
 20
1.4876117645
 30
0.0
 11
65.5059791203
 21
1.4876117645
 31
0.0
  0
LINE
  5
80
330
1F
100
AcDbEntity
  8
TITLE
  6
SLD-Solid
370
    18
100
AcDbLine
 10
89.5
 20
119.5
 30
0.0
 11
89.5
 21
0.5
 31
0.0
  0
LINE
  5
81
330
1F
100
AcDbEntity
  8
TITLE
  6
SLD-Solid
370
    18
100
AcDbLine
 10
89.5
 20
0.5
 30
0.0
 11
0.5
 21
0.5
 31
0.0
  0
LINE
  5
82
330
1F
100
AcDbEntity
  8
TITLE
370
    35
100
AcDbLine
 10
72.5182230965
 20
1.4876117645
 30
0.0
 11
72.5182230965
 21
3.5979636817
 31
0.0
  0
LINE
  5
83
330
1F
100
AcDbEntity
  8
TITLE
370
    35
100
AcDbLine
 10
65.5059791203
 20
3.5979636817
 30
0.0
 11
65.5059791203
 21
0.5
 31
0.0
  0
LINE
  5
84
330
1F
100
AcDbEntity
  8
TITLE
370
    35
100
AcDbLine
 10
65.5059791203
 20
0.5
 30
0.0
 11
89.5
 21
0.5
 31
0.0
  0
LINE
  5
85
330
1F
100
AcDbEntity
  8
TITLE
370
    35
100
AcDbLine
 10
89.4999317442
 20
5.4753603936
 30
0.0
 11
89.5
 21
0.5
 31
0.0
  0
LINE
  5
86
330
1F
100
AcDbEntity
  8
TITLE
  6
SLD-Solid
370
    18
100
AcDbLine
 10
0.4999606299
 20
60.0
 30
0.0
 11
0.5000393701
 21
60.0
 31
0.0
  0
LINE
  5
87
330
1F
100
AcDbEntity
  8
TITLE
370
    35
100
AcDbLine
 10
72.5182230965
 20
3.5979636817
 30
0.0
 11
65.5059791203
 21
3.5979636817
 31
0.0
  0
LINE
  5
88
330
1F
100
AcDbEntity
  8
TITLE
370
    35
100
AcDbLine
 10
72.5182230965
 20
3.5979636817
 30
0.0
 11
89.4997615643
 21
3.5979648343
 31
0.0
  0
LINE
  5
89
330
1F
100
AcDbEntity
  8
TITLE
370
    35
100
AcDbLine
 10
79.3105350723
 20
5.4753603936
 30
0.0
 11
79.3105350723
 21
0.4636772425
 31
0.0
  0
LINE
  5
8A
330
1F
100
AcDbEntity
  8
TITLE
  6
SLD-Solid
370
    18
100
AcDbLine
 10
45.0
 20
119.5000393701
 30
0.0
 11
45.0
 21
119.4999606299
 31
0.0
  0
LINE
  5
8B
330
1F
100
AcDbEntity
  8
TITLE
  6
SLD-Solid
370
    18
100
AcDbLine
 10
89.5000393701
 20
60.0
 30
0.0
 11
89.4999606299
 21
60.0
 31
0.0
  0
LINE
  5
8C
330
1F
100
AcDbEntity
  8
TITLE
  6
SLD-Solid
370
    18
100
AcDbLine
 10
45.0
 20
0.4999606299
 30
0.0
 11
45.0
 21
0.5000393701
 31
0.0
  0
LINE
  5
8D
330
1F
100
AcDbEntity
  8
TITLE
  6
SLD-Solid
370
    18
100
AcDbLine
 10
0.5
 20
2.9133858268
 30
0.0
 11
0.1653543307
 21
2.9133858268
 31
0.0
  0
LINE
  5
8E
330
1F
100
AcDbEntity
  8
TITLE
  6
SLD-Solid
370
    18
100
AcDbLine
 10
89.5
 20
2.9133858268
 30
0.0
 11
89.8346456693
 21
2.9133858268
 31
0.0
  0
LINE
  5
8F
330
1F
100
AcDbEntity
  8
TITLE
  6
SLD-Solid
370
    18
100
AcDbLine
 10
0.5
 20
4.8818897638
 30
0.0
 11
0.1653543307
 21
4.8818897638
 31
0.0
  0
LINE
  5
90
330
1F
100
AcDbEntity
  8
TITLE
  6
SLD-Solid
370
    18
100
AcDbLine
 10
89.5
 20
4.8818897638
 30
0.0
 11
89.8346456693
 21
4.8818897638
 31
0.0
  0
LINE
  5
91
330
1F
100
AcDbEntity
  8
TITLE
  6
SLD-Solid
370
    18
100
AcDbLine
 10
0.5
 20
6.8503937008
 30
0.0
 11
0.1653543307
 21
6.8503937008
 31
0.0
  0
LINE
  5
92
330
1F
100
AcDbEntity
  8
TITLE
  6
SLD-Solid
370
    18
100
AcDbLine
 10
89.5
 20
6.8503937008
 30
0.0
 11
89.8346456693
 21
6.8503937008
 31
0.0
  0
LINE
  5
93
330
1F
100
AcDbEntity
  8
TITLE
  6
SLD-Solid
370
    18
100
AcDbLine
 10
0.5
 20
8.8188976378
 30
0.0
 11
0.1653543307
 21
8.8188976378
 31
0.0
  0
LINE
  5
94
330
1F
100
AcDbEntity
  8
TITLE
  6
SLD-Solid
370
    18
100
AcDbLine
 10
89.5
 20
8.8188976378
 30
0.0
 11
89.8346456693
 21
8.8188976378
 31
0.0
  0
LINE
  5
95
330
1F
100
AcDbEntity
  8
TITLE
  6
SLD-Solid
370
    18
100
AcDbLine
 10
0.5
 20
10.7874015748
 30
0.0
 11
0.1653543307
 21
10.7874015748
 31
0.0
  0
LINE
  5
96
330
1F
100
AcDbEntity
  8
TITLE
  6
SLD-Solid
370
    18
100
AcDbLine
 10
89.5
 20
10.7874015748
 30
0.0
 11
89.8346456693
 21
10.7874015748
 31
0.0
  0
LINE
  5
97
330
1F
100
AcDbEntity
  8
TITLE
  6
SLD-Solid
370
    18
100
AcDbLine
 10
0.5
 20
12.7559055118
 30
0.0
 11
0.1653543307
 21
12.7559055118
 31
0.0
  0
LINE
  5
98
330
1F
100
AcDbEntity
  8
TITLE
  6
SLD-Solid
370
    18
100
AcDbLine
 10
89.5
 20
12.7559055118
 30
0.0
 11
89.8346456693
 21
12.7559055118
 31
0.0
  0
LINE
  5
99
330
1F
100
AcDbEntity
  8
TITLE
  6
SLD-Solid
370
    18
100
AcDbLine
 10
0.5
 20
14.7244094488
 30
0.0
 11
0.1653543307
 21
14.7244094488
 31
0.0
  0
LINE
  5
9A
330
1F
100
AcDbEntity
  8
TITLE
  6
SLD-Solid
370
    18
100
AcDbLine
 10
89.5
 20
14.7244094488
 30
0.0
 11
89.8346456693
 21
14.7244094488
 31
0.0
  0
LINE
  5
9B
330
1F
100
AcDbEntity
  8
TITLE
  6
SLD-Solid
370
    18
100
AcDbLine
 10
0.5
 20
16.6929133858
 30
0.0
 11
0.1653543307
 21
16.6929133858
 31
0.0
  0
LINE
  5
9C
330
1F
100
AcDbEntity
  8
TITLE
  6
SLD-Solid
370
    18
100
AcDbLine
 10
89.5
 20
16.6929133858
 30
0.0
 11
89.8346456693
 21
16.6929133858
 31
0.0
  0
LINE
  5
9D
330
1F
100
AcDbEntity
  8
TITLE
  6
SLD-Solid
370
    18
100
AcDbLine
 10
0.5
 20
18.6614173228
 30
0.0
 11
0.1653543307
 21
18.6614173228
 31
0.0
  0
LINE
  5
9E
330
1F
100
AcDbEntity
  8
TITLE
  6
SLD-Solid
370
    18
100
AcDbLine
 10
89.5
 20
18.6614173228
 30
0.0
 11
89.8346456693
 21
18.6614173228
 31
0.0
  0
LINE
  5
9F
330
1F
100
AcDbEntity
  8
TITLE
  6
SLD-Solid
370
    18
100
AcDbLine
 10
0.5
 20
20.6299212598
 30
0.0
 11
0.1653543307
 21
20.6299212598
 31
0.0
  0
LINE
  5
A0
330
1F
100
AcDbEntity
  8
TITLE
  6
SLD-Solid
370
    18
100
AcDbLine
 10
89.5
 20
20.6299212598
 30
0.0
 11
89.8346456693
 21
20.6299212598
 31
0.0
  0
LINE
  5
A1
330
1F
100
AcDbEntity
  8
TITLE
  6
SLD-Solid
370
    18
100
AcDbLine
 10
0.5
 20
22.5984251969
 30
0.0
 11
0.1653543307
 21
22.5984251969
 31
0.0
  0
LINE
  5
A2
330
1F
100
AcDbEntity
  8
TITLE
  6
SLD-Solid
370
    18
100
AcDbLine
 10
89.5
 20
22.5984251969
 30
0.0
 11
89.8346456693
 21
22.5984251969
 31
0.0
  0
LINE
  5
A3
330
1F
100
AcDbEntity
  8
TITLE
  6
SLD-Solid
370
    18
100
AcDbLine
 10
0.5
 20
24.5669291339
 30
0.0
 11
0.1653543307
 21
24.5669291339
 31
0.0
  0
LINE
  5
A4
330
1F
100
AcDbEntity
  8
TITLE
  6
SLD-Solid
370
    18
100
AcDbLine
 10
89.5
 20
24.5669291339
 30
0.0
 11
89.8346456693
 21
24.5669291339
 31
0.0
  0
LINE
  5
A5
330
1F
100
AcDbEntity
  8
TITLE
  6
SLD-Solid
370
    18
100
AcDbLine
 10
0.5
 20
26.5354330709
 30
0.0
 11
0.1653543307
 21
26.5354330709
 31
0.0
  0
LINE
  5
A6
330
1F
100
AcDbEntity
  8
TITLE
  6
SLD-Solid
370
    18
100
AcDbLine
 10
89.5
 20
26.5354330709
 30
0.0
 11
89.8346456693
 21
26.5354330709
 31
0.0
  0
LINE
  5
A7
330
1F
100
AcDbEntity
  8
TITLE
  6
SLD-Solid
370
    18
100
AcDbLine
 10
0.5
 20
28.5039370079
 30
0.0
 11
0.1653543307
 21
28.5039370079
 31
0.0
  0
LINE
  5
A8
330
1F
100
AcDbEntity
  8
TITLE
  6
SLD-Solid
370
    18
100
AcDbLine
 10
89.5
 20
28.5039370079
 30
0.0
 11
89.8346456693
 21
28.5039370079
 31
0.0
  0
LINE
  5
A9
330
1F
100
AcDbEntity
  8
TITLE
  6
SLD-Solid
370
    18
100
AcDbLine
 10
0.5
 20
30.4724409449
 30
0.0
 11
0.1653543307
 21
30.4724409449
 31
0.0
  0
LINE
  5
AA
330
1F
100
AcDbEntity
  8
TITLE
  6
SLD-Solid
370
    18
100
AcDbLine
 10
89.5
 20
30.4724409449
 30
0.0
 11
89.8346456693
 21
30.4724409449
 31
0.0
  0
LINE
  5
AB
330
1F
100
AcDbEntity
  8
TITLE
  6
SLD-Solid
370
    18
100
AcDbLine
 10
0.5
 20
32.4409448819
 30
0.0
 11
0.1653543307
 21
32.4409448819
 31
0.0
  0
LINE
  5
AC
330
1F
100
AcDbEntity
  8
TITLE
  6
SLD-Solid
370
    18
100
AcDbLine
 10
89.5
 20
32.4409448819
 30
0.0
 11
89.8346456693
 21
32.4409448819
 31
0.0
  0
LINE
  5
AD
330
1F
100
AcDbEntity
  8
TITLE
  6
SLD-Solid
370
    18
100
AcDbLine
 10
0.5
 20
34.4094488189
 30
0.0
 11
0.1653543307
 21
34.4094488189
 31
0.0
  0
LINE
  5
AE
330
1F
100
AcDbEntity
  8
TITLE
  6
SLD-Solid
370
    18
100
AcDbLine
 10
89.5
 20
34.4094488189
 30
0.0
 11
89.8346456693
 21
34.4094488189
 31
0.0
  0
LINE
  5
AF
330
1F
100
AcDbEntity
  8
TITLE
  6
SLD-Solid
370
    18
100
AcDbLine
 10
0.5
 20
36.3779527559
 30
0.0
 11
0.1653543307
 21
36.3779527559
 31
0.0
  0
LINE
  5
B0
330
1F
100
AcDbEntity
  8
TITLE
  6
SLD-Solid
370
    18
100
AcDbLine
 10
89.5
 20
36.3779527559
 30
0.0
 11
89.8346456693
 21
36.3779527559
 31
0.0
  0
LINE
  5
B1
330
1F
100
AcDbEntity
  8
TITLE
  6
SLD-Solid
370
    18
100
AcDbLine
 10
0.5
 20
38.3464566929
 30
0.0
 11
0.1653543307
 21
38.3464566929
 31
0.0
  0
LINE
  5
B2
330
1F
100
AcDbEntity
  8
TITLE
  6
SLD-Solid
370
    18
100
AcDbLine
 10
89.5
 20
38.3464566929
 30
0.0
 11
89.8346456693
 21
38.3464566929
 31
0.0
  0
LINE
  5
B3
330
1F
100
AcDbEntity
  8
TITLE
  6
SLD-Solid
370
    18
100
AcDbLine
 10
0.5
 20
40.3149606299
 30
0.0
 11
0.1653543307
 21
40.3149606299
 31
0.0
  0
LINE
  5
B4
330
1F
100
AcDbEntity
  8
TITLE
  6
SLD-Solid
370
    18
100
AcDbLine
 10
89.5
 20
40.3149606299
 30
0.0
 11
89.8346456693
 21
40.3149606299
 31
0.0
  0
LINE
  5
B5
330
1F
100
AcDbEntity
  8
TITLE
  6
SLD-Solid
370
    18
100
AcDbLine
 10
0.5
 20
42.2834645669
 30
0.0
 11
0.1653543307
 21
42.2834645669
 31
0.0
  0
LINE
  5
B6
330
1F
100
AcDbEntity
  8
TITLE
  6
SLD-Solid
370
    18
100
AcDbLine
 10
89.5
 20
42.2834645669
 30
0.0
 11
89.8346456693
 21
42.2834645669
 31
0.0
  0
LINE
  5
B7
330
1F
100
AcDbEntity
  8
TITLE
  6
SLD-Solid
370
    18
100
AcDbLine
 10
0.5
 20
44.2519685039
 30
0.0
 11
0.1653543307
 21
44.2519685039
 31
0.0
  0
LINE
  5
B8
330
1F
100
AcDbEntity
  8
TITLE
  6
SLD-Solid
370
    18
100
AcDbLine
 10
89.5
 20
44.2519685039
 30
0.0
 11
89.8346456693
 21
44.2519685039
 31
0.0
  0
LINE
  5
B9
330
1F
100
AcDbEntity
  8
TITLE
  6
SLD-Solid
370
    18
100
AcDbLine
 10
0.5
 20
46.2204724409
 30
0.0
 11
0.1653543307
 21
46.2204724409
 31
0.0
  0
LINE
  5
BA
330
1F
100
AcDbEntity
  8
TITLE
  6
SLD-Solid
370
    18
100
AcDbLine
 10
89.5
 20
46.2204724409
 30
0.0
 11
89.8346456693
 21
46.2204724409
 31
0.0
  0
LINE
  5
BB
330
1F
100
AcDbEntity
  8
TITLE
  6
SLD-Solid
370
    18
100
AcDbLine
 10
0.5
 20
48.188976378
 30
0.0
 11
0.1653543307
 21
48.188976378
 31
0.0
  0
LINE
  5
BC
330
1F
100
AcDbEntity
  8
TITLE
  6
SLD-Solid
370
    18
100
AcDbLine
 10
89.5
 20
48.188976378
 30
0.0
 11
89.8346456693
 21
48.188976378
 31
0.0
  0
LINE
  5
BD
330
1F
100
AcDbEntity
  8
TITLE
  6
SLD-Solid
370
    18
100
AcDbLine
 10
0.5
 20
50.157480315
 30
0.0
 11
0.1653543307
 21
50.157480315
 31
0.0
  0
LINE
  5
BE
330
1F
100
AcDbEntity
  8
TITLE
  6
SLD-Solid
370
    18
100
AcDbLine
 10
89.5
 20
50.157480315
 30
0.0
 11
89.8346456693
 21
50.157480315
 31
0.0
  0
LINE
  5
BF
330
1F
100
AcDbEntity
  8
TITLE
  6
SLD-Solid
370
    18
100
AcDbLine
 10
0.5
 20
52.125984252
 30
0.0
 11
0.1653543307
 21
52.125984252
 31
0.0
  0
LINE
  5
C0
330
1F
100
AcDbEntity
  8
TITLE
  6
SLD-Solid
370
    18
100
AcDbLine
 10
89.5
 20
52.125984252
 30
0.0
 11
89.8346456693
 21
52.125984252
 31
0.0
  0
LINE
  5
C1
330
1F
100
AcDbEntity
  8
TITLE
  6
SLD-Solid
370
    18
100
AcDbLine
 10
0.5
 20
54.094488189
 30
0.0
 11
0.1653543307
 21
54.094488189
 31
0.0
  0
LINE
  5
C2
330
1F
100
AcDbEntity
  8
TITLE
  6
SLD-Solid
370
    18
100
AcDbLine
 10
89.5
 20
54.094488189
 30
0.0
 11
89.8346456693
 21
54.094488189
 31
0.0
  0
LINE
  5
C3
330
1F
100
AcDbEntity
  8
TITLE
  6
SLD-Solid
370
    18
100
AcDbLine
 10
0.5
 20
56.062992126
 30
0.0
 11
0.1653543307
 21
56.062992126
 31
0.0
  0
LINE
  5
C4
330
1F
100
AcDbEntity
  8
TITLE
  6
SLD-Solid
370
    18
100
AcDbLine
 10
89.5
 20
56.062992126
 30
0.0
 11
89.8346456693
 21
56.062992126
 31
0.0
  0
LINE
  5
C5
330
1F
100
AcDbEntity
  8
TITLE
  6
SLD-Solid
370
    18
100
AcDbLine
 10
0.5
 20
58.031496063
 30
0.0
 11
0.1653543307
 21
58.031496063
 31
0.0
  0
LINE
  5
C6
330
1F
100
AcDbEntity
  8
TITLE
  6
SLD-Solid
370
    18
100
AcDbLine
 10
89.5
 20
58.031496063
 30
0.0
 11
89.8346456693
 21
58.031496063
 31
0.0
  0
LINE
  5
C7
330
1F
100
AcDbEntity
  8
TITLE
  6
SLD-Solid
370
    18
100
AcDbLine
 10
0.5
 20
60.0
 30
0.0
 11
0.1653543307
 21
60.0
 31
0.0
  0
LINE
  5
C8
330
1F
100
AcDbEntity
  8
TITLE
  6
SLD-Solid
370
    18
100
AcDbLine
 10
89.5
 20
60.0
 30
0.0
 11
89.8346456693
 21
60.0
 31
0.0
  0
LINE
  5
C9
330
1F
100
AcDbEntity
  8
TITLE
  6
SLD-Solid
370
    18
100
AcDbLine
 10
0.5
 20
61.968503937
 30
0.0
 11
0.1653543307
 21
61.968503937
 31
0.0
  0
LINE
  5
CA
330
1F
100
AcDbEntity
  8
TITLE
  6
SLD-Solid
370
    18
100
AcDbLine
 10
89.5
 20
61.968503937
 30
0.0
 11
89.8346456693
 21
61.968503937
 31
0.0
  0
LINE
  5
CB
330
1F
100
AcDbEntity
  8
TITLE
  6
SLD-Solid
370
    18
100
AcDbLine
 10
0.5
 20
63.937007874
 30
0.0
 11
0.1653543307
 21
63.937007874
 31
0.0
  0
LINE
  5
CC
330
1F
100
AcDbEntity
  8
TITLE
  6
SLD-Solid
370
    18
100
AcDbLine
 10
89.5
 20
63.937007874
 30
0.0
 11
89.8346456693
 21
63.937007874
 31
0.0
  0
LINE
  5
CD
330
1F
100
AcDbEntity
  8
TITLE
  6
SLD-Solid
370
    18
100
AcDbLine
 10
0.5
 20
65.905511811
 30
0.0
 11
0.1653543307
 21
65.905511811
 31
0.0
  0
LINE
  5
CE
330
1F
100
AcDbEntity
  8
TITLE
  6
SLD-Solid
370
    18
100
AcDbLine
 10
89.5
 20
65.905511811
 30
0.0
 11
89.8346456693
 21
65.905511811
 31
0.0
  0
LINE
  5
CF
330
1F
100
AcDbEntity
  8
TITLE
  6
SLD-Solid
370
    18
100
AcDbLine
 10
0.5
 20
67.874015748
 30
0.0
 11
0.1653543307
 21
67.874015748
 31
0.0
  0
LINE
  5
D0
330
1F
100
AcDbEntity
  8
TITLE
  6
SLD-Solid
370
    18
100
AcDbLine
 10
89.5
 20
67.874015748
 30
0.0
 11
89.8346456693
 21
67.874015748
 31
0.0
  0
LINE
  5
D1
330
1F
100
AcDbEntity
  8
TITLE
  6
SLD-Solid
370
    18
100
AcDbLine
 10
0.5
 20
69.842519685
 30
0.0
 11
0.1653543307
 21
69.842519685
 31
0.0
  0
LINE
  5
D2
330
1F
100
AcDbEntity
  8
TITLE
  6
SLD-Solid
370
    18
100
AcDbLine
 10
89.5
 20
69.842519685
 30
0.0
 11
89.8346456693
 21
69.842519685
 31
0.0
  0
LINE
  5
D3
330
1F
100
AcDbEntity
  8
TITLE
  6
SLD-Solid
370
    18
100
AcDbLine
 10
0.5
 20
71.811023622
 30
0.0
 11
0.1653543307
 21
71.811023622
 31
0.0
  0
LINE
  5
D4
330
1F
100
AcDbEntity
  8
TITLE
  6
SLD-Solid
370
    18
100
AcDbLine
 10
89.5
 20
71.811023622
 30
0.0
 11
89.8346456693
 21
71.811023622
 31
0.0
  0
LINE
  5
D5
330
1F
100
AcDbEntity
  8
TITLE
  6
SLD-Solid
370
    18
100
AcDbLine
 10
0.5
 20
73.7795275591
 30
0.0
 11
0.1653543307
 21
73.7795275591
 31
0.0
  0
LINE
  5
D6
330
1F
100
AcDbEntity
  8
TITLE
  6
SLD-Solid
370
    18
100
AcDbLine
 10
89.5
 20
73.7795275591
 30
0.0
 11
89.8346456693
 21
73.7795275591
 31
0.0
  0
LINE
  5
D7
330
1F
100
AcDbEntity
  8
TITLE
  6
SLD-Solid
370
    18
100
AcDbLine
 10
0.5
 20
75.7480314961
 30
0.0
 11
0.1653543307
 21
75.7480314961
 31
0.0
  0
LINE
  5
D8
330
1F
100
AcDbEntity
  8
TITLE
  6
SLD-Solid
370
    18
100
AcDbLine
 10
89.5
 20
75.7480314961
 30
0.0
 11
89.8346456693
 21
75.7480314961
 31
0.0
  0
LINE
  5
D9
330
1F
100
AcDbEntity
  8
TITLE
  6
SLD-Solid
370
    18
100
AcDbLine
 10
0.5
 20
77.7165354331
 30
0.0
 11
0.1653543307
 21
77.7165354331
 31
0.0
  0
LINE
  5
DA
330
1F
100
AcDbEntity
  8
TITLE
  6
SLD-Solid
370
    18
100
AcDbLine
 10
89.5
 20
77.7165354331
 30
0.0
 11
89.8346456693
 21
77.7165354331
 31
0.0
  0
LINE
  5
DB
330
1F
100
AcDbEntity
  8
TITLE
  6
SLD-Solid
370
    18
100
AcDbLine
 10
0.5
 20
79.6850393701
 30
0.0
 11
0.1653543307
 21
79.6850393701
 31
0.0
  0
LINE
  5
DC
330
1F
100
AcDbEntity
  8
TITLE
  6
SLD-Solid
370
    18
100
AcDbLine
 10
89.5
 20
79.6850393701
 30
0.0
 11
89.8346456693
 21
79.6850393701
 31
0.0
  0
LINE
  5
DD
330
1F
100
AcDbEntity
  8
TITLE
  6
SLD-Solid
370
    18
100
AcDbLine
 10
0.5
 20
81.6535433071
 30
0.0
 11
0.1653543307
 21
81.6535433071
 31
0.0
  0
LINE
  5
DE
330
1F
100
AcDbEntity
  8
TITLE
  6
SLD-Solid
370
    18
100
AcDbLine
 10
89.5
 20
81.6535433071
 30
0.0
 11
89.8346456693
 21
81.6535433071
 31
0.0
  0
LINE
  5
DF
330
1F
100
AcDbEntity
  8
TITLE
  6
SLD-Solid
370
    18
100
AcDbLine
 10
0.5
 20
83.6220472441
 30
0.0
 11
0.1653543307
 21
83.6220472441
 31
0.0
  0
LINE
  5
E0
330
1F
100
AcDbEntity
  8
TITLE
  6
SLD-Solid
370
    18
100
AcDbLine
 10
89.5
 20
83.6220472441
 30
0.0
 11
89.8346456693
 21
83.6220472441
 31
0.0
  0
LINE
  5
E1
330
1F
100
AcDbEntity
  8
TITLE
  6
SLD-Solid
370
    18
100
AcDbLine
 10
0.5
 20
85.5905511811
 30
0.0
 11
0.1653543307
 21
85.5905511811
 31
0.0
  0
LINE
  5
E2
330
1F
100
AcDbEntity
  8
TITLE
  6
SLD-Solid
370
    18
100
AcDbLine
 10
89.5
 20
85.5905511811
 30
0.0
 11
89.8346456693
 21
85.5905511811
 31
0.0
  0
LINE
  5
E3
330
1F
100
AcDbEntity
  8
TITLE
  6
SLD-Solid
370
    18
100
AcDbLine
 10
0.5
 20
87.5590551181
 30
0.0
 11
0.1653543307
 21
87.5590551181
 31
0.0
  0
LINE
  5
E4
330
1F
100
AcDbEntity
  8
TITLE
  6
SLD-Solid
370
    18
100
AcDbLine
 10
89.5
 20
87.5590551181
 30
0.0
 11
89.8346456693
 21
87.5590551181
 31
0.0
  0
LINE
  5
E5
330
1F
100
AcDbEntity
  8
TITLE
  6
SLD-Solid
370
    18
100
AcDbLine
 10
0.5
 20
89.5275590551
 30
0.0
 11
0.1653543307
 21
89.5275590551
 31
0.0
  0
LINE
  5
E6
330
1F
100
AcDbEntity
  8
TITLE
  6
SLD-Solid
370
    18
100
AcDbLine
 10
89.5
 20
89.5275590551
 30
0.0
 11
89.8346456693
 21
89.5275590551
 31
0.0
  0
LINE
  5
E7
330
1F
100
AcDbEntity
  8
TITLE
  6
SLD-Solid
370
    18
100
AcDbLine
 10
0.5
 20
91.4960629921
 30
0.0
 11
0.1653543307
 21
91.4960629921
 31
0.0
  0
LINE
  5
E8
330
1F
100
AcDbEntity
  8
TITLE
  6
SLD-Solid
370
    18
100
AcDbLine
 10
89.5
 20
91.4960629921
 30
0.0
 11
89.8346456693
 21
91.4960629921
 31
0.0
  0
LINE
  5
E9
330
1F
100
AcDbEntity
  8
TITLE
  6
SLD-Solid
370
    18
100
AcDbLine
 10
0.5
 20
93.4645669291
 30
0.0
 11
0.1653543307
 21
93.4645669291
 31
0.0
  0
LINE
  5
EA
330
1F
100
AcDbEntity
  8
TITLE
  6
SLD-Solid
370
    18
100
AcDbLine
 10
89.5
 20
93.4645669291
 30
0.0
 11
89.8346456693
 21
93.4645669291
 31
0.0
  0
LINE
  5
EB
330
1F
100
AcDbEntity
  8
TITLE
  6
SLD-Solid
370
    18
100
AcDbLine
 10
0.5
 20
95.4330708661
 30
0.0
 11
0.1653543307
 21
95.4330708661
 31
0.0
  0
LINE
  5
EC
330
1F
100
AcDbEntity
  8
TITLE
  6
SLD-Solid
370
    18
100
AcDbLine
 10
89.5
 20
95.4330708661
 30
0.0
 11
89.8346456693
 21
95.4330708661
 31
0.0
  0
LINE
  5
ED
330
1F
100
AcDbEntity
  8
TITLE
  6
SLD-Solid
370
    18
100
AcDbLine
 10
0.5
 20
97.4015748031
 30
0.0
 11
0.1653543307
 21
97.4015748031
 31
0.0
  0
LINE
  5
EE
330
1F
100
AcDbEntity
  8
TITLE
  6
SLD-Solid
370
    18
100
AcDbLine
 10
89.5
 20
97.4015748031
 30
0.0
 11
89.8346456693
 21
97.4015748031
 31
0.0
  0
LINE
  5
EF
330
1F
100
AcDbEntity
  8
TITLE
  6
SLD-Solid
370
    18
100
AcDbLine
 10
0.5
 20
99.3700787402
 30
0.0
 11
0.1653543307
 21
99.3700787402
 31
0.0
  0
LINE
  5
F0
330
1F
100
AcDbEntity
  8
TITLE
  6
SLD-Solid
370
    18
100
AcDbLine
 10
89.5
 20
99.3700787402
 30
0.0
 11
89.8346456693
 21
99.3700787402
 31
0.0
  0
LINE
  5
F1
330
1F
100
AcDbEntity
  8
TITLE
  6
SLD-Solid
370
    18
100
AcDbLine
 10
0.5
 20
101.3385826772
 30
0.0
 11
0.1653543307
 21
101.3385826772
 31
0.0
  0
LINE
  5
F2
330
1F
100
AcDbEntity
  8
TITLE
  6
SLD-Solid
370
    18
100
AcDbLine
 10
89.5
 20
101.3385826772
 30
0.0
 11
89.8346456693
 21
101.3385826772
 31
0.0
  0
LINE
  5
F3
330
1F
100
AcDbEntity
  8
TITLE
  6
SLD-Solid
370
    18
100
AcDbLine
 10
0.5
 20
103.3070866142
 30
0.0
 11
0.1653543307
 21
103.3070866142
 31
0.0
  0
LINE
  5
F4
330
1F
100
AcDbEntity
  8
TITLE
  6
SLD-Solid
370
    18
100
AcDbLine
 10
89.5
 20
103.3070866142
 30
0.0
 11
89.8346456693
 21
103.3070866142
 31
0.0
  0
LINE
  5
F5
330
1F
100
AcDbEntity
  8
TITLE
  6
SLD-Solid
370
    18
100
AcDbLine
 10
0.5
 20
105.2755905512
 30
0.0
 11
0.1653543307
 21
105.2755905512
 31
0.0
  0
LINE
  5
F6
330
1F
100
AcDbEntity
  8
TITLE
  6
SLD-Solid
370
    18
100
AcDbLine
 10
89.5
 20
105.2755905512
 30
0.0
 11
89.8346456693
 21
105.2755905512
 31
0.0
  0
LINE
  5
F7
330
1F
100
AcDbEntity
  8
TITLE
  6
SLD-Solid
370
    18
100
AcDbLine
 10
0.5
 20
107.2440944882
 30
0.0
 11
0.1653543307
 21
107.2440944882
 31
0.0
  0
LINE
  5
F8
330
1F
100
AcDbEntity
  8
TITLE
  6
SLD-Solid
370
    18
100
AcDbLine
 10
89.5
 20
107.2440944882
 30
0.0
 11
89.8346456693
 21
107.2440944882
 31
0.0
  0
LINE
  5
F9
330
1F
100
AcDbEntity
  8
TITLE
  6
SLD-Solid
370
    18
100
AcDbLine
 10
0.5
 20
109.2125984252
 30
0.0
 11
0.1653543307
 21
109.2125984252
 31
0.0
  0
LINE
  5
FA
330
1F
100
AcDbEntity
  8
TITLE
  6
SLD-Solid
370
    18
100
AcDbLine
 10
89.5
 20
109.2125984252
 30
0.0
 11
89.8346456693
 21
109.2125984252
 31
0.0
  0
LINE
  5
FB
330
1F
100
AcDbEntity
  8
TITLE
  6
SLD-Solid
370
    18
100
AcDbLine
 10
0.5
 20
111.1811023622
 30
0.0
 11
0.1653543307
 21
111.1811023622
 31
0.0
  0
LINE
  5
FC
330
1F
100
AcDbEntity
  8
TITLE
  6
SLD-Solid
370
    18
100
AcDbLine
 10
89.5
 20
111.1811023622
 30
0.0
 11
89.8346456693
 21
111.1811023622
 31
0.0
  0
LINE
  5
FD
330
1F
100
AcDbEntity
  8
TITLE
  6
SLD-Solid
370
    18
100
AcDbLine
 10
0.5
 20
113.1496062992
 30
0.0
 11
0.1653543307
 21
113.1496062992
 31
0.0
  0
LINE
  5
FE
330
1F
100
AcDbEntity
  8
TITLE
  6
SLD-Solid
370
    18
100
AcDbLine
 10
89.5
 20
113.1496062992
 30
0.0
 11
89.8346456693
 21
113.1496062992
 31
0.0
  0
LINE
  5
FF
330
1F
100
AcDbEntity
  8
TITLE
  6
SLD-Solid
370
    18
100
AcDbLine
 10
0.5
 20
115.1181102362
 30
0.0
 11
0.1653543307
 21
115.1181102362
 31
0.0
  0
LINE
  5
100
330
1F
100
AcDbEntity
  8
TITLE
  6
SLD-Solid
370
    18
100
AcDbLine
 10
89.5
 20
115.1181102362
 30
0.0
 11
89.8346456693
 21
115.1181102362
 31
0.0
  0
LINE
  5
101
330
1F
100
AcDbEntity
  8
TITLE
  6
SLD-Solid
370
    18
100
AcDbLine
 10
0.5
 20
117.0866141732
 30
0.0
 11
0.1653543307
 21
117.0866141732
 31
0.0
  0
LINE
  5
102
330
1F
100
AcDbEntity
  8
TITLE
  6
SLD-Solid
370
    18
100
AcDbLine
 10
89.5
 20
117.0866141732
 30
0.0
 11
89.8346456693
 21
117.0866141732
 31
0.0
  0
LINE
  5
103
330
1F
100
AcDbEntity
  8
TITLE
  6
SLD-Solid
370
    18
100
AcDbLine
 10
1.6929133858
 20
119.5
 30
0.0
 11
1.6929133858
 21
119.8346456693
 31
0.0
  0
LINE
  5
104
330
1F
100
AcDbEntity
  8
TITLE
  6
SLD-Solid
370
    18
100
AcDbLine
 10
1.6929133858
 20
0.5
 30
0.0
 11
1.6929133858
 21
0.1653543307
 31
0.0
  0
LINE
  5
105
330
1F
100
AcDbEntity
  8
TITLE
  6
SLD-Solid
370
    18
100
AcDbLine
 10
3.6614173228
 20
119.5
 30
0.0
 11
3.6614173228
 21
119.8346456693
 31
0.0
  0
LINE
  5
106
330
1F
100
AcDbEntity
  8
TITLE
  6
SLD-Solid
370
    18
100
AcDbLine
 10
3.6614173228
 20
0.5
 30
0.0
 11
3.6614173228
 21
0.1653543307
 31
0.0
  0
LINE
  5
107
330
1F
100
AcDbEntity
  8
TITLE
  6
SLD-Solid
370
    18
100
AcDbLine
 10
5.6299212598
 20
119.5
 30
0.0
 11
5.6299212598
 21
119.8346456693
 31
0.0
  0
LINE
  5
108
330
1F
100
AcDbEntity
  8
TITLE
  6
SLD-Solid
370
    18
100
AcDbLine
 10
5.6299212598
 20
0.5
 30
0.0
 11
5.6299212598
 21
0.1653543307
 31
0.0
  0
LINE
  5
109
330
1F
100
AcDbEntity
  8
TITLE
  6
SLD-Solid
370
    18
100
AcDbLine
 10
7.5984251969
 20
119.5
 30
0.0
 11
7.5984251969
 21
119.8346456693
 31
0.0
  0
LINE
  5
10A
330
1F
100
AcDbEntity
  8
TITLE
  6
SLD-Solid
370
    18
100
AcDbLine
 10
7.5984251969
 20
0.5
 30
0.0
 11
7.5984251969
 21
0.1653543307
 31
0.0
  0
LINE
  5
10B
330
1F
100
AcDbEntity
  8
TITLE
  6
SLD-Solid
370
    18
100
AcDbLine
 10
9.5669291339
 20
119.5
 30
0.0
 11
9.5669291339
 21
119.8346456693
 31
0.0
  0
LINE
  5
10C
330
1F
100
AcDbEntity
  8
TITLE
  6
SLD-Solid
370
    18
100
AcDbLine
 10
9.5669291339
 20
0.5
 30
0.0
 11
9.5669291339
 21
0.1653543307
 31
0.0
  0
LINE
  5
10D
330
1F
100
AcDbEntity
  8
TITLE
  6
SLD-Solid
370
    18
100
AcDbLine
 10
11.5354330709
 20
119.5
 30
0.0
 11
11.5354330709
 21
119.8346456693
 31
0.0
  0
LINE
  5
10E
330
1F
100
AcDbEntity
  8
TITLE
  6
SLD-Solid
370
    18
100
AcDbLine
 10
11.5354330709
 20
0.5
 30
0.0
 11
11.5354330709
 21
0.1653543307
 31
0.0
  0
LINE
  5
10F
330
1F
100
AcDbEntity
  8
TITLE
  6
SLD-Solid
370
    18
100
AcDbLine
 10
13.5039370079
 20
119.5
 30
0.0
 11
13.5039370079
 21
119.8346456693
 31
0.0
  0
LINE
  5
110
330
1F
100
AcDbEntity
  8
TITLE
  6
SLD-Solid
370
    18
100
AcDbLine
 10
13.5039370079
 20
0.5
 30
0.0
 11
13.5039370079
 21
0.1653543307
 31
0.0
  0
LINE
  5
111
330
1F
100
AcDbEntity
  8
TITLE
  6
SLD-Solid
370
    18
100
AcDbLine
 10
15.4724409449
 20
119.5
 30
0.0
 11
15.4724409449
 21
119.8346456693
 31
0.0
  0
LINE
  5
112
330
1F
100
AcDbEntity
  8
TITLE
  6
SLD-Solid
370
    18
100
AcDbLine
 10
15.4724409449
 20
0.5
 30
0.0
 11
15.4724409449
 21
0.1653543307
 31
0.0
  0
LINE
  5
113
330
1F
100
AcDbEntity
  8
TITLE
  6
SLD-Solid
370
    18
100
AcDbLine
 10
17.4409448819
 20
119.5
 30
0.0
 11
17.4409448819
 21
119.8346456693
 31
0.0
  0
LINE
  5
114
330
1F
100
AcDbEntity
  8
TITLE
  6
SLD-Solid
370
    18
100
AcDbLine
 10
17.4409448819
 20
0.5
 30
0.0
 11
17.4409448819
 21
0.1653543307
 31
0.0
  0
LINE
  5
115
330
1F
100
AcDbEntity
  8
TITLE
  6
SLD-Solid
370
    18
100
AcDbLine
 10
19.4094488189
 20
119.5
 30
0.0
 11
19.4094488189
 21
119.8346456693
 31
0.0
  0
LINE
  5
116
330
1F
100
AcDbEntity
  8
TITLE
  6
SLD-Solid
370
    18
100
AcDbLine
 10
19.4094488189
 20
0.5
 30
0.0
 11
19.4094488189
 21
0.1653543307
 31
0.0
  0
LINE
  5
117
330
1F
100
AcDbEntity
  8
TITLE
  6
SLD-Solid
370
    18
100
AcDbLine
 10
21.3779527559
 20
119.5
 30
0.0
 11
21.3779527559
 21
119.8346456693
 31
0.0
  0
LINE
  5
118
330
1F
100
AcDbEntity
  8
TITLE
  6
SLD-Solid
370
    18
100
AcDbLine
 10
21.3779527559
 20
0.5
 30
0.0
 11
21.3779527559
 21
0.1653543307
 31
0.0
  0
LINE
  5
119
330
1F
100
AcDbEntity
  8
TITLE
  6
SLD-Solid
370
    18
100
AcDbLine
 10
23.3464566929
 20
119.5
 30
0.0
 11
23.3464566929
 21
119.8346456693
 31
0.0
  0
LINE
  5
11A
330
1F
100
AcDbEntity
  8
TITLE
  6
SLD-Solid
370
    18
100
AcDbLine
 10
23.3464566929
 20
0.5
 30
0.0
 11
23.3464566929
 21
0.1653543307
 31
0.0
  0
LINE
  5
11B
330
1F
100
AcDbEntity
  8
TITLE
  6
SLD-Solid
370
    18
100
AcDbLine
 10
25.3149606299
 20
119.5
 30
0.0
 11
25.3149606299
 21
119.8346456693
 31
0.0
  0
LINE
  5
11C
330
1F
100
AcDbEntity
  8
TITLE
  6
SLD-Solid
370
    18
100
AcDbLine
 10
25.3149606299
 20
0.5
 30
0.0
 11
25.3149606299
 21
0.1653543307
 31
0.0
  0
LINE
  5
11D
330
1F
100
AcDbEntity
  8
TITLE
  6
SLD-Solid
370
    18
100
AcDbLine
 10
27.2834645669
 20
119.5
 30
0.0
 11
27.2834645669
 21
119.8346456693
 31
0.0
  0
LINE
  5
11E
330
1F
100
AcDbEntity
  8
TITLE
  6
SLD-Solid
370
    18
100
AcDbLine
 10
27.2834645669
 20
0.5
 30
0.0
 11
27.2834645669
 21
0.1653543307
 31
0.0
  0
LINE
  5
11F
330
1F
100
AcDbEntity
  8
TITLE
  6
SLD-Solid
370
    18
100
AcDbLine
 10
29.2519685039
 20
119.5
 30
0.0
 11
29.2519685039
 21
119.8346456693
 31
0.0
  0
LINE
  5
120
330
1F
100
AcDbEntity
  8
TITLE
  6
SLD-Solid
370
    18
100
AcDbLine
 10
29.2519685039
 20
0.5
 30
0.0
 11
29.2519685039
 21
0.1653543307
 31
0.0
  0
LINE
  5
121
330
1F
100
AcDbEntity
  8
TITLE
  6
SLD-Solid
370
    18
100
AcDbLine
 10
31.2204724409
 20
119.5
 30
0.0
 11
31.2204724409
 21
119.8346456693
 31
0.0
  0
LINE
  5
122
330
1F
100
AcDbEntity
  8
TITLE
  6
SLD-Solid
370
    18
100
AcDbLine
 10
31.2204724409
 20
0.5
 30
0.0
 11
31.2204724409
 21
0.1653543307
 31
0.0
  0
LINE
  5
123
330
1F
100
AcDbEntity
  8
TITLE
  6
SLD-Solid
370
    18
100
AcDbLine
 10
33.188976378
 20
119.5
 30
0.0
 11
33.188976378
 21
119.8346456693
 31
0.0
  0
LINE
  5
124
330
1F
100
AcDbEntity
  8
TITLE
  6
SLD-Solid
370
    18
100
AcDbLine
 10
33.188976378
 20
0.5
 30
0.0
 11
33.188976378
 21
0.1653543307
 31
0.0
  0
LINE
  5
125
330
1F
100
AcDbEntity
  8
TITLE
  6
SLD-Solid
370
    18
100
AcDbLine
 10
35.157480315
 20
119.5
 30
0.0
 11
35.157480315
 21
119.8346456693
 31
0.0
  0
LINE
  5
126
330
1F
100
AcDbEntity
  8
TITLE
  6
SLD-Solid
370
    18
100
AcDbLine
 10
35.157480315
 20
0.5
 30
0.0
 11
35.157480315
 21
0.1653543307
 31
0.0
  0
LINE
  5
127
330
1F
100
AcDbEntity
  8
TITLE
  6
SLD-Solid
370
    18
100
AcDbLine
 10
37.125984252
 20
119.5
 30
0.0
 11
37.125984252
 21
119.8346456693
 31
0.0
  0
LINE
  5
128
330
1F
100
AcDbEntity
  8
TITLE
  6
SLD-Solid
370
    18
100
AcDbLine
 10
37.125984252
 20
0.5
 30
0.0
 11
37.125984252
 21
0.1653543307
 31
0.0
  0
LINE
  5
129
330
1F
100
AcDbEntity
  8
TITLE
  6
SLD-Solid
370
    18
100
AcDbLine
 10
39.094488189
 20
119.5
 30
0.0
 11
39.094488189
 21
119.8346456693
 31
0.0
  0
LINE
  5
12A
330
1F
100
AcDbEntity
  8
TITLE
  6
SLD-Solid
370
    18
100
AcDbLine
 10
39.094488189
 20
0.5
 30
0.0
 11
39.094488189
 21
0.1653543307
 31
0.0
  0
LINE
  5
12B
330
1F
100
AcDbEntity
  8
TITLE
  6
SLD-Solid
370
    18
100
AcDbLine
 10
41.062992126
 20
119.5
 30
0.0
 11
41.062992126
 21
119.8346456693
 31
0.0
  0
LINE
  5
12C
330
1F
100
AcDbEntity
  8
TITLE
  6
SLD-Solid
370
    18
100
AcDbLine
 10
41.062992126
 20
0.5
 30
0.0
 11
41.062992126
 21
0.1653543307
 31
0.0
  0
LINE
  5
12D
330
1F
100
AcDbEntity
  8
TITLE
  6
SLD-Solid
370
    18
100
AcDbLine
 10
43.031496063
 20
119.5
 30
0.0
 11
43.031496063
 21
119.8346456693
 31
0.0
  0
LINE
  5
12E
330
1F
100
AcDbEntity
  8
TITLE
  6
SLD-Solid
370
    18
100
AcDbLine
 10
43.031496063
 20
0.5
 30
0.0
 11
43.031496063
 21
0.1653543307
 31
0.0
  0
LINE
  5
12F
330
1F
100
AcDbEntity
  8
TITLE
  6
SLD-Solid
370
    18
100
AcDbLine
 10
45.0
 20
119.5
 30
0.0
 11
45.0
 21
119.8346456693
 31
0.0
  0
LINE
  5
130
330
1F
100
AcDbEntity
  8
TITLE
  6
SLD-Solid
370
    18
100
AcDbLine
 10
45.0
 20
0.5
 30
0.0
 11
45.0
 21
0.1653543307
 31
0.0
  0
LINE
  5
131
330
1F
100
AcDbEntity
  8
TITLE
  6
SLD-Solid
370
    18
100
AcDbLine
 10
46.968503937
 20
119.5
 30
0.0
 11
46.968503937
 21
119.8346456693
 31
0.0
  0
LINE
  5
132
330
1F
100
AcDbEntity
  8
TITLE
  6
SLD-Solid
370
    18
100
AcDbLine
 10
46.968503937
 20
0.5
 30
0.0
 11
46.968503937
 21
0.1653543307
 31
0.0
  0
LINE
  5
133
330
1F
100
AcDbEntity
  8
TITLE
  6
SLD-Solid
370
    18
100
AcDbLine
 10
48.937007874
 20
119.5
 30
0.0
 11
48.937007874
 21
119.8346456693
 31
0.0
  0
LINE
  5
134
330
1F
100
AcDbEntity
  8
TITLE
  6
SLD-Solid
370
    18
100
AcDbLine
 10
48.937007874
 20
0.5
 30
0.0
 11
48.937007874
 21
0.1653543307
 31
0.0
  0
LINE
  5
135
330
1F
100
AcDbEntity
  8
TITLE
  6
SLD-Solid
370
    18
100
AcDbLine
 10
50.905511811
 20
119.5
 30
0.0
 11
50.905511811
 21
119.8346456693
 31
0.0
  0
LINE
  5
136
330
1F
100
AcDbEntity
  8
TITLE
  6
SLD-Solid
370
    18
100
AcDbLine
 10
50.905511811
 20
0.5
 30
0.0
 11
50.905511811
 21
0.1653543307
 31
0.0
  0
LINE
  5
137
330
1F
100
AcDbEntity
  8
TITLE
  6
SLD-Solid
370
    18
100
AcDbLine
 10
52.874015748
 20
119.5
 30
0.0
 11
52.874015748
 21
119.8346456693
 31
0.0
  0
LINE
  5
138
330
1F
100
AcDbEntity
  8
TITLE
  6
SLD-Solid
370
    18
100
AcDbLine
 10
52.874015748
 20
0.5
 30
0.0
 11
52.874015748
 21
0.1653543307
 31
0.0
  0
LINE
  5
139
330
1F
100
AcDbEntity
  8
TITLE
  6
SLD-Solid
370
    18
100
AcDbLine
 10
54.842519685
 20
119.5
 30
0.0
 11
54.842519685
 21
119.8346456693
 31
0.0
  0
LINE
  5
13A
330
1F
100
AcDbEntity
  8
TITLE
  6
SLD-Solid
370
    18
100
AcDbLine
 10
54.842519685
 20
0.5
 30
0.0
 11
54.842519685
 21
0.1653543307
 31
0.0
  0
LINE
  5
13B
330
1F
100
AcDbEntity
  8
TITLE
  6
SLD-Solid
370
    18
100
AcDbLine
 10
56.811023622
 20
119.5
 30
0.0
 11
56.811023622
 21
119.8346456693
 31
0.0
  0
LINE
  5
13C
330
1F
100
AcDbEntity
  8
TITLE
  6
SLD-Solid
370
    18
100
AcDbLine
 10
56.811023622
 20
0.5
 30
0.0
 11
56.811023622
 21
0.1653543307
 31
0.0
  0
LINE
  5
13D
330
1F
100
AcDbEntity
  8
TITLE
  6
SLD-Solid
370
    18
100
AcDbLine
 10
58.7795275591
 20
119.5
 30
0.0
 11
58.7795275591
 21
119.8346456693
 31
0.0
  0
LINE
  5
13E
330
1F
100
AcDbEntity
  8
TITLE
  6
SLD-Solid
370
    18
100
AcDbLine
 10
58.7795275591
 20
0.5
 30
0.0
 11
58.7795275591
 21
0.1653543307
 31
0.0
  0
LINE
  5
13F
330
1F
100
AcDbEntity
  8
TITLE
  6
SLD-Solid
370
    18
100
AcDbLine
 10
60.7480314961
 20
119.5
 30
0.0
 11
60.7480314961
 21
119.8346456693
 31
0.0
  0
LINE
  5
140
330
1F
100
AcDbEntity
  8
TITLE
  6
SLD-Solid
370
    18
100
AcDbLine
 10
60.7480314961
 20
0.5
 30
0.0
 11
60.7480314961
 21
0.1653543307
 31
0.0
  0
LINE
  5
141
330
1F
100
AcDbEntity
  8
TITLE
  6
SLD-Solid
370
    18
100
AcDbLine
 10
62.7165354331
 20
119.5
 30
0.0
 11
62.7165354331
 21
119.8346456693
 31
0.0
  0
LINE
  5
142
330
1F
100
AcDbEntity
  8
TITLE
  6
SLD-Solid
370
    18
100
AcDbLine
 10
62.7165354331
 20
0.5
 30
0.0
 11
62.7165354331
 21
0.1653543307
 31
0.0
  0
LINE
  5
143
330
1F
100
AcDbEntity
  8
TITLE
  6
SLD-Solid
370
    18
100
AcDbLine
 10
64.6850393701
 20
119.5
 30
0.0
 11
64.6850393701
 21
119.8346456693
 31
0.0
  0
LINE
  5
144
330
1F
100
AcDbEntity
  8
TITLE
  6
SLD-Solid
370
    18
100
AcDbLine
 10
64.6850393701
 20
0.5
 30
0.0
 11
64.6850393701
 21
0.1653543307
 31
0.0
  0
LINE
  5
145
330
1F
100
AcDbEntity
  8
TITLE
  6
SLD-Solid
370
    18
100
AcDbLine
 10
66.6535433071
 20
119.5
 30
0.0
 11
66.6535433071
 21
119.8346456693
 31
0.0
  0
LINE
  5
146
330
1F
100
AcDbEntity
  8
TITLE
  6
SLD-Solid
370
    18
100
AcDbLine
 10
66.6535433071
 20
0.5
 30
0.0
 11
66.6535433071
 21
0.1653543307
 31
0.0
  0
LINE
  5
147
330
1F
100
AcDbEntity
  8
TITLE
  6
SLD-Solid
370
    18
100
AcDbLine
 10
68.6220472441
 20
119.5
 30
0.0
 11
68.6220472441
 21
119.8346456693
 31
0.0
  0
LINE
  5
148
330
1F
100
AcDbEntity
  8
TITLE
  6
SLD-Solid
370
    18
100
AcDbLine
 10
68.6220472441
 20
0.5
 30
0.0
 11
68.6220472441
 21
0.1653543307
 31
0.0
  0
LINE
  5
149
330
1F
100
AcDbEntity
  8
TITLE
  6
SLD-Solid
370
    18
100
AcDbLine
 10
70.5905511811
 20
119.5
 30
0.0
 11
70.5905511811
 21
119.8346456693
 31
0.0
  0
LINE
  5
14A
330
1F
100
AcDbEntity
  8
TITLE
  6
SLD-Solid
370
    18
100
AcDbLine
 10
70.5905511811
 20
0.5
 30
0.0
 11
70.5905511811
 21
0.1653543307
 31
0.0
  0
LINE
  5
14B
330
1F
100
AcDbEntity
  8
TITLE
  6
SLD-Solid
370
    18
100
AcDbLine
 10
72.5590551181
 20
119.5
 30
0.0
 11
72.5590551181
 21
119.8346456693
 31
0.0
  0
LINE
  5
14C
330
1F
100
AcDbEntity
  8
TITLE
  6
SLD-Solid
370
    18
100
AcDbLine
 10
72.5590551181
 20
0.5
 30
0.0
 11
72.5590551181
 21
0.1653543307
 31
0.0
  0
LINE
  5
14D
330
1F
100
AcDbEntity
  8
TITLE
  6
SLD-Solid
370
    18
100
AcDbLine
 10
74.5275590551
 20
119.5
 30
0.0
 11
74.5275590551
 21
119.8346456693
 31
0.0
  0
LINE
  5
14E
330
1F
100
AcDbEntity
  8
TITLE
  6
SLD-Solid
370
    18
100
AcDbLine
 10
74.5275590551
 20
0.5
 30
0.0
 11
74.5275590551
 21
0.1653543307
 31
0.0
  0
LINE
  5
14F
330
1F
100
AcDbEntity
  8
TITLE
  6
SLD-Solid
370
    18
100
AcDbLine
 10
76.4960629921
 20
119.5
 30
0.0
 11
76.4960629921
 21
119.8346456693
 31
0.0
  0
LINE
  5
150
330
1F
100
AcDbEntity
  8
TITLE
  6
SLD-Solid
370
    18
100
AcDbLine
 10
76.4960629921
 20
0.5
 30
0.0
 11
76.4960629921
 21
0.1653543307
 31
0.0
  0
LINE
  5
151
330
1F
100
AcDbEntity
  8
TITLE
  6
SLD-Solid
370
    18
100
AcDbLine
 10
78.4645669291
 20
119.5
 30
0.0
 11
78.4645669291
 21
119.8346456693
 31
0.0
  0
LINE
  5
152
330
1F
100
AcDbEntity
  8
TITLE
  6
SLD-Solid
370
    18
100
AcDbLine
 10
78.4645669291
 20
0.5
 30
0.0
 11
78.4645669291
 21
0.1653543307
 31
0.0
  0
LINE
  5
153
330
1F
100
AcDbEntity
  8
TITLE
  6
SLD-Solid
370
    18
100
AcDbLine
 10
80.4330708661
 20
119.5
 30
0.0
 11
80.4330708661
 21
119.8346456693
 31
0.0
  0
LINE
  5
154
330
1F
100
AcDbEntity
  8
TITLE
  6
SLD-Solid
370
    18
100
AcDbLine
 10
80.4330708661
 20
0.5
 30
0.0
 11
80.4330708661
 21
0.1653543307
 31
0.0
  0
LINE
  5
155
330
1F
100
AcDbEntity
  8
TITLE
  6
SLD-Solid
370
    18
100
AcDbLine
 10
82.4015748031
 20
119.5
 30
0.0
 11
82.4015748031
 21
119.8346456693
 31
0.0
  0
LINE
  5
156
330
1F
100
AcDbEntity
  8
TITLE
  6
SLD-Solid
370
    18
100
AcDbLine
 10
82.4015748031
 20
0.5
 30
0.0
 11
82.4015748031
 21
0.1653543307
 31
0.0
  0
LINE
  5
157
330
1F
100
AcDbEntity
  8
TITLE
  6
SLD-Solid
370
    18
100
AcDbLine
 10
84.3700787402
 20
119.5
 30
0.0
 11
84.3700787402
 21
119.8346456693
 31
0.0
  0
LINE
  5
158
330
1F
100
AcDbEntity
  8
TITLE
  6
SLD-Solid
370
    18
100
AcDbLine
 10
84.3700787402
 20
0.5
 30
0.0
 11
84.3700787402
 21
0.1653543307
 31
0.0
  0
LINE
  5
159
330
1F
100
AcDbEntity
  8
TITLE
  6
SLD-Solid
370
    18
100
AcDbLine
 10
86.3385826772
 20
119.5
 30
0.0
 11
86.3385826772
 21
119.8346456693
 31
0.0
  0
LINE
  5
15A
330
1F
100
AcDbEntity
  8
TITLE
  6
SLD-Solid
370
    18
100
AcDbLine
 10
86.3385826772
 20
0.5
 30
0.0
 11
86.3385826772
 21
0.1653543307
 31
0.0
  0
LINE
  5
15B
330
1F
100
AcDbEntity
  8
TITLE
  6
SLD-Solid
370
    18
100
AcDbLine
 10
88.3070866142
 20
119.5
 30
0.0
 11
88.3070866142
 21
119.8346456693
 31
0.0
  0
LINE
  5
15C
330
1F
100
AcDbEntity
  8
TITLE
  6
SLD-Solid
370
    18
100
AcDbLine
 10
88.3070866142
 20
0.5
 30
0.0
 11
88.3070866142
 21
0.1653543307
 31
0.0
  0
MTEXT
  5
15E
330
1F
100
AcDbEntity
  8
NOTES
100
AcDbMText
 10
66.408297803
 20
1.0702903347
 30
0.0
 40
0.25
 41
0.0
 71
     1
 72
     1
  1
UNLESS OTHERWISE SPECIFIED DIMENSIONS ARE IN INCHES.
  7
SLDTEXTSTYLE0
 73
     1
 44
1.0
  0
MTEXT
  5
15F
330
1F
100
AcDbEntity
  8
NOTES
100
AcDbMText
 10
66.4368251132
 20
3.2193045501
 30
0.0
 40
0.25
 41
0.0
 71
     1
 72
     1
  1
DATE:
  7
SLDTEXTSTYLE0
 73
     1
 44
1.0
  0
MTEXT
  5
160
330
1F
100
AcDbEntity
  8
NOTES
100
AcDbMText
 10
68.7130669976
 20
2.1722148141
 30
0.0
 40
0.25
 41
0.0
 71
     2
 72
     1
  1
DO NOT SCALE DRAWING
  7
SLDTEXTSTYLE0
 73
     1
 44
1.0
  0
MTEXT
  5
162
330
1F
100
AcDbEntity
  8
NOTES
100
AcDbMText
 10
72.8307373075
 20
3.2682755553
 30
0.0
 40
0.25
 41
0.0
 71
     1
 72
     1
  1
TITLE:
  7
SLDTEXTSTYLE1
 73
     1
 44
1.0
  0
MTEXT
  5
163
330
1F
100
AcDbEntity
  8
NOTES
100
AcDbMText
 10
80.1561831052
 20
3.2682755553
 30
0.0
 40
0.25
 41
0.0
 71
     1
 72
     1
  1
DWG NO.
  7
SLDTEXTSTYLE1
 73
     1
 44
1.0
  0
MTEXT
  5
164
330
1F
100
AcDbEntity
  8
NOTES
100
AcDbMText
 10
80.1831753203
 20
1.0645815577
 30
0.0
 40
0.25
 41
0.0
 71
     1
 72
     1
  1
SCALE:     1:1
  7
SLDTEXTSTYLE1
 73
     1
 44
1.0
  0
MTEXT
  5
165
330
1F
100
AcDbEntity
  8
NOTES
100
AcDbMText
 10
84.1859792576
 20
2.6510344295
 30
0.0
 40
0.25
 41
0.0
 71
     2
 72
     1
  1
1145-36SS CAD
  7
SLDTEXTSTYLE1
 73
     1
 44
1.0
  0
MTEXT
  5
166
330
1F
100
AcDbEntity
  8
NOTES
100
AcDbMText
 10
75.9566604554
 20
2.6388861441
 30
0.0
 40
0.25
 41
0.0
 71
     2
 72
     1
  1
1145-36SS
  7
SLDTEXTSTYLE1
 73
     1
 44
1.0
  0
INSERT
  5
16C
330
1F
100
AcDbEntity
  8
NOTES
100
AcDbBlockReference
  2
SW_NOTE_0
 10
80.266131557
 20
4.6105227838
 30
0.0
  0
INSERT
  5
176
330
1F
100
AcDbEntity
  8
NOTES
100
AcDbBlockReference
  2
SW_NOTE_0_1
 10
66.6159726246
 20
5.1481526848
 30
0.0
  0
MTEXT
  5
177
330
1F
100
AcDbEntity
  8
NOTES
100
AcDbMText
 10
69.5187894602
 20
3.2135957731
 30
0.0
 40
0.25
 41
0.0
 71
     2
 72
     1
  1
September 22, 2021
  7
SLDTEXTSTYLE1
 73
     1
 44
1.0
  0
MTEXT
  5
178
330
1F
100
AcDbEntity
  8
TITLE
100
AcDbMText
 10
0.3276279776
 20
1.7865708579
 30
0.0
 40
0.125
 41
0.0
 71
     2
 72
     1
  1
A
  7
SLDTEXTSTYLE1
 73
     1
 44
1.0
  0
MTEXT
  5
179
330
1F
100
AcDbEntity
  8
TITLE
100
AcDbMText
 10
89.6622736469
 20
1.7865708579
 30
0.0
 40
0.125
 41
0.0
 71
     2
 72
     1
  1
A
  7
SLDTEXTSTYLE1
 73
     1
 44
1.0
  0
MTEXT
  5
17A
330
1F
100
AcDbEntity
  8
TITLE
100
AcDbMText
 10
0.3317512413
 20
3.9775157398
 30
0.0
 40
0.125
 41
0.0
 71
     2
 72
     1
  1
B
  7
SLDTEXTSTYLE1
 73
     1
 44
1.0
  0
MTEXT
  5
17B
330
1F
100
AcDbEntity
  8
TITLE
100
AcDbMText
 10
89.6663969106
 20
3.9775157398
 30
0.0
 40
0.125
 41
0.0
 71
     2
 72
     1
  1
B
  7
SLDTEXTSTYLE1
 73
     1
 44
1.0
  0
MTEXT
  5
17C
330
1F
100
AcDbEntity
  8
TITLE
100
AcDbMText
 10
0.3313750817
 20
5.9460196768
 30
0.0
 40
0.125
 41
0.0
 71
     2
 72
     1
  1
C
  7
SLDTEXTSTYLE1
 73
     1
 44
1.0
  0
MTEXT
  5
17D
330
1F
100
AcDbEntity
  8
TITLE
100
AcDbMText
 10
89.666020751
 20
5.9460196768
 30
0.0
 40
0.125
 41
0.0
 71
     2
 72
     1
  1
C
  7
SLDTEXTSTYLE1
 73
     1
 44
1.0
  0
MTEXT
  5
17E
330
1F
100
AcDbEntity
  8
TITLE
100
AcDbMText
 10
0.3311870028
 20
7.9145236138
 30
0.0
 40
0.125
 41
0.0
 71
     2
 72
     1
  1
D
  7
SLDTEXTSTYLE1
 73
     1
 44
1.0
  0
MTEXT
  5
17F
330
1F
100
AcDbEntity
  8
TITLE
100
AcDbMText
 10
89.6658326721
 20
7.9145236138
 30
0.0
 40
0.125
 41
0.0
 71
     2
 72
     1
  1
D
  7
SLDTEXTSTYLE1
 73
     1
 44
1.0
  0
MTEXT
  5
180
330
1F
100
AcDbEntity
  8
TITLE
100
AcDbMText
 10
0.332923116
 20
9.8830275508
 30
0.0
 40
0.125
 41
0.0
 71
     2
 72
     1
  1
E
  7
SLDTEXTSTYLE1
 73
     1
 44
1.0
  0
MTEXT
  5
181
330
1F
100
AcDbEntity
  8
TITLE
100
AcDbMText
 10
89.6675687853
 20
9.8830275508
 30
0.0
 40
0.125
 41
0.0
 71
     2
 72
     1
  1
E
  7
SLDTEXTSTYLE1
 73
     1
 44
1.0
  0
MTEXT
  5
182
330
1F
100
AcDbEntity
  8
TITLE
100
AcDbMText
 10
0.3313461474
 20
11.8515314878
 30
0.0
 40
0.125
 41
0.0
 71
     2
 72
     1
  1
F
  7
SLDTEXTSTYLE1
 73
     1
 44
1.0
  0
MTEXT
  5
183
330
1F
100
AcDbEntity
  8
TITLE
100
AcDbMText
 10
89.6659918167
 20
11.8515314878
 30
0.0
 40
0.125
 41
0.0
 71
     2
 72
     1
  1
F
  7
SLDTEXTSTYLE1
 73
     1
 44
1.0
  0
MTEXT
  5
184
330
1F
100
AcDbEntity
  8
TITLE
100
AcDbMText
 10
0.3322576054
 20
13.8200354248
 30
0.0
 40
0.125
 41
0.0
 71
     2
 72
     1
  1
G
  7
SLDTEXTSTYLE1
 73
     1
 44
1.0
  0
MTEXT
  5
185
330
1F
100
AcDbEntity
  8
TITLE
100
AcDbMText
 10
89.6669032747
 20
13.8200354248
 30
0.0
 40
0.125
 41
0.0
 71
     2
 72
     1
  1
G
  7
SLDTEXTSTYLE1
 73
     1
 44
1.0
  0
MTEXT
  5
186
330
1F
100
AcDbEntity
  8
TITLE
100
AcDbMText
 10
0.3323733457
 20
15.7885393618
 30
0.0
 40
0.125
 41
0.0
 71
     2
 72
     1
  1
H
  7
SLDTEXTSTYLE1
 73
     1
 44
1.0
  0
MTEXT
  5
187
330
1F
100
AcDbEntity
  8
TITLE
100
AcDbMText
 10
89.667019015
 20
15.7885393618
 30
0.0
 40
0.125
 41
0.0
 71
     2
 72
     1
  1
H
  7
SLDTEXTSTYLE1
 73
     1
 44
1.0
  0
MTEXT
  5
188
330
1F
100
AcDbEntity
  8
TITLE
100
AcDbMText
 10
0.3315776306
 20
17.7570432988
 30
0.0
 40
0.125
 41
0.0
 71
     2
 72
     1
  1
J
  7
SLDTEXTSTYLE1
 73
     1
 44
1.0
  0
MTEXT
  5
189
330
1F
100
AcDbEntity
  8
TITLE
100
AcDbMText
 10
89.6662232999
 20
17.7570432988
 30
0.0
 40
0.125
 41
0.0
 71
     2
 72
     1
  1
J
  7
SLDTEXTSTYLE1
 73
     1
 44
1.0
  0
MTEXT
  5
18A
330
1F
100
AcDbEntity
  8
TITLE
100
AcDbMText
 10
0.3323154765
 20
19.7255472359
 30
0.0
 40
0.125
 41
0.0
 71
     2
 72
     1
  1
K
  7
SLDTEXTSTYLE1
 73
     1
 44
1.0
  0
MTEXT
  5
18B
330
1F
100
AcDbEntity
  8
TITLE
100
AcDbMText
 10
89.6669611458
 20
19.7255472359
 30
0.0
 40
0.125
 41
0.0
 71
     2
 72
     1
  1
K
  7
SLDTEXTSTYLE1
 73
     1
 44
1.0
  0
MTEXT
  5
18C
330
1F
100
AcDbEntity
  8
TITLE
100
AcDbMText
 10
0.3312448739
 20
21.6940511729
 30
0.0
 40
0.125
 41
0.0
 71
     2
 72
     1
  1
L
  7
SLDTEXTSTYLE1
 73
     1
 44
1.0
  0
MTEXT
  5
18D
330
1F
100
AcDbEntity
  8
TITLE
100
AcDbMText
 10
89.6658905432
 20
21.6940511729
 30
0.0
 40
0.125
 41
0.0
 71
     2
 72
     1
  1
L
  7
SLDTEXTSTYLE1
 73
     1
 44
1.0
  0
MTEXT
  5
18E
330
1F
100
AcDbEntity
  8
TITLE
100
AcDbMText
 10
0.3283224192
 20
23.6625551099
 30
0.0
 40
0.125
 41
0.0
 71
     2
 72
     1
  1
M
  7
SLDTEXTSTYLE1
 73
     1
 44
1.0
  0
MTEXT
  5
18F
330
1F
100
AcDbEntity
  8
TITLE
100
AcDbMText
 10
89.6629680885
 20
23.6625551099
 30
0.0
 40
0.125
 41
0.0
 71
     2
 72
     1
  1
M
  7
SLDTEXTSTYLE1
 73
     1
 44
1.0
  0
MTEXT
  5
190
330
1F
100
AcDbEntity
  8
TITLE
100
AcDbMText
 10
0.3315342276
 20
25.6310590469
 30
0.0
 40
0.125
 41
0.0
 71
     2
 72
     1
  1
N
  7
SLDTEXTSTYLE1
 73
     1
 44
1.0
  0
MTEXT
  5
191
330
1F
100
AcDbEntity
  8
TITLE
100
AcDbMText
 10
89.6661798969
 20
25.6310590469
 30
0.0
 40
0.125
 41
0.0
 71
     2
 72
     1
  1
N
  7
SLDTEXTSTYLE1
 73
     1
 44
1.0
  0
MTEXT
  5
192
330
1F
100
AcDbEntity
  8
TITLE
100
AcDbMText
 10
0.3321997349
 20
27.5995629839
 30
0.0
 40
0.125
 41
0.0
 71
     2
 72
     1
  1
P
  7
SLDTEXTSTYLE1
 73
     1
 44
1.0
  0
MTEXT
  5
193
330
1F
100
AcDbEntity
  8
TITLE
100
AcDbMText
 10
89.6668454042
 20
27.5995629839
 30
0.0
 40
0.125
 41
0.0
 71
     2
 72
     1
  1
P
  7
SLDTEXTSTYLE1
 73
     1
 44
1.0
  0
MTEXT
  5
194
330
1F
100
AcDbEntity
  8
TITLE
100
AcDbMText
 10
0.3309265867
 20
29.5680669209
 30
0.0
 40
0.125
 41
0.0
 71
     2
 72
     1
  1
R
  7
SLDTEXTSTYLE1
 73
     1
 44
1.0
  0
MTEXT
  5
195
330
1F
100
AcDbEntity
  8
TITLE
100
AcDbMText
 10
89.665572256
 20
29.5680669209
 30
0.0
 40
0.125
 41
0.0
 71
     2
 72
     1
  1
R
  7
SLDTEXTSTYLE1
 73
     1
 44
1.0
  0
MTEXT
  5
196
330
1F
100
AcDbEntity
  8
TITLE
100
AcDbMText
 10
0.3323010071
 20
31.5365708579
 30
0.0
 40
0.125
 41
0.0
 71
     2
 72
     1
  1
T
  7
SLDTEXTSTYLE1
 73
     1
 44
1.0
  0
MTEXT
  5
197
330
1F
100
AcDbEntity
  8
TITLE
100
AcDbMText
 10
89.6669466764
 20
31.5365708579
 30
0.0
 40
0.125
 41
0.0
 71
     2
 72
     1
  1
T
  7
SLDTEXTSTYLE1
 73
     1
 44
1.0
  0
MTEXT
  5
198
330
1F
100
AcDbEntity
  8
TITLE
100
AcDbMText
 10
0.3328507755
 20
33.5050747949
 30
0.0
 40
0.125
 41
0.0
 71
     2
 72
     1
  1
U
  7
SLDTEXTSTYLE1
 73
     1
 44
1.0
  0
MTEXT
  5
199
330
1F
100
AcDbEntity
  8
TITLE
100
AcDbMText
 10
89.6674964448
 20
33.5050747949
 30
0.0
 40
0.125
 41
0.0
 71
     2
 72
     1
  1
U
  7
SLDTEXTSTYLE1
 73
     1
 44
1.0
  0
MTEXT
  5
19A
330
1F
100
AcDbEntity
  8
TITLE
100
AcDbMText
 10
0.3307529773
 20
35.4735787319
 30
0.0
 40
0.125
 41
0.0
 71
     2
 72
     1
  1
V
  7
SLDTEXTSTYLE1
 73
     1
 44
1.0
  0
MTEXT
  5
19B
330
1F
100
AcDbEntity
  8
TITLE
100
AcDbMText
 10
89.6653986466
 20
35.4735787319
 30
0.0
 40
0.125
 41
0.0
 71
     2
 72
     1
  1
V
  7
SLDTEXTSTYLE1
 73
     1
 44
1.0
  0
MTEXT
  5
19C
330
1F
100
AcDbEntity
  8
TITLE
100
AcDbMText
 10
0.3327784409
 20
37.4420826689
 30
0.0
 40
0.125
 41
0.0
 71
     2
 72
     1
  1
W
  7
SLDTEXTSTYLE1
 73
     1
 44
1.0
  0
MTEXT
  5
19D
330
1F
100
AcDbEntity
  8
TITLE
100
AcDbMText
 10
89.6674241102
 20
37.4420826689
 30
0.0
 40
0.125
 41
0.0
 71
     2
 72
     1
  1
W
  7
SLDTEXTSTYLE1
 73
     1
 44
1.0
  0
MTEXT
  5
19E
330
1F
100
AcDbEntity
  8
TITLE
100
AcDbMText
 10
0.3321997349
 20
39.4105866059
 30
0.0
 40
0.125
 41
0.0
 71
     2
 72
     1
  1
Y
  7
SLDTEXTSTYLE1
 73
     1
 44
1.0
  0
MTEXT
  5
19F
330
1F
100
AcDbEntity
  8
TITLE
100
AcDbMText
 10
89.6668454042
 20
39.4105866059
 30
0.0
 40
0.125
 41
0.0
 71
     2
 72
     1
  1
Y
  7
SLDTEXTSTYLE1
 73
     1
 44
1.0
  0
MTEXT
  5
1A0
330
1F
100
AcDbEntity
  8
TITLE
100
AcDbMText
 10
0.3225787898
 20
41.3790905429
 30
0.0
 40
0.125
 41
0.0
 71
     2
 72
     1
  1
AA
  7
SLDTEXTSTYLE1
 73
     1
 44
1.0
  0
MTEXT
  5
1A1
330
1F
100
AcDbEntity
  8
TITLE
100
AcDbMText
 10
89.6572244591
 20
41.3790905429
 30
0.0
 40
0.125
 41
0.0
 71
     2
 72
     1
  1
AA
  7
SLDTEXTSTYLE1
 73
     1
 44
1.0
  0
MTEXT
  5
1A2
330
1F
100
AcDbEntity
  8
TITLE
100
AcDbMText
 10
0.3267020535
 20
43.34759448
 30
0.0
 40
0.125
 41
0.0
 71
     2
 72
     1
  1
AB
  7
SLDTEXTSTYLE1
 73
     1
 44
1.0
  0
MTEXT
  5
1A3
330
1F
100
AcDbEntity
  8
TITLE
100
AcDbMText
 10
89.6613477228
 20
43.34759448
 30
0.0
 40
0.125
 41
0.0
 71
     2
 72
     1
  1
AB
  7
SLDTEXTSTYLE1
 73
     1
 44
1.0
  0
MTEXT
  5
1A4
330
1F
100
AcDbEntity
  8
TITLE
100
AcDbMText
 10
0.3263258985
 20
45.316098417
 30
0.0
 40
0.125
 41
0.0
 71
     2
 72
     1
  1
AC
  7
SLDTEXTSTYLE1
 73
     1
 44
1.0
  0
MTEXT
  5
1A5
330
1F
100
AcDbEntity
  8
TITLE
100
AcDbMText
 10
89.6609715678
 20
45.316098417
 30
0.0
 40
0.125
 41
0.0
 71
     2
 72
     1
  1
AC
  7
SLDTEXTSTYLE1
 73
     1
 44
1.0
  0
MTEXT
  5
1A6
330
1F
100
AcDbEntity
  8
TITLE
100
AcDbMText
 10
0.3261378197
 20
47.284602354
 30
0.0
 40
0.125
 41
0.0
 71
     2
 72
     1
  1
AD
  7
SLDTEXTSTYLE1
 73
     1
 44
1.0
  0
MTEXT
  5
1A7
330
1F
100
AcDbEntity
  8
TITLE
100
AcDbMText
 10
89.6607834889
 20
47.284602354
 30
0.0
 40
0.125
 41
0.0
 71
     2
 72
     1
  1
AD
  7
SLDTEXTSTYLE1
 73
     1
 44
1.0
  0
MTEXT
  5
1A8
330
1F
100
AcDbEntity
  8
TITLE
100
AcDbMText
 10
0.3278739283
 20
49.253106291
 30
0.0
 40
0.125
 41
0.0
 71
     2
 72
     1
  1
AE
  7
SLDTEXTSTYLE1
 73
     1
 44
1.0
  0
MTEXT
  5
1A9
330
1F
100
AcDbEntity
  8
TITLE
100
AcDbMText
 10
89.6625195976
 20
49.253106291
 30
0.0
 40
0.125
 41
0.0
 71
     2
 72
     1
  1
AE
  7
SLDTEXTSTYLE1
 73
     1
 44
1.0
  0
MTEXT
  5
1AA
330
1F
100
AcDbEntity
  8
TITLE
100
AcDbMText
 10
0.3262969596
 20
51.221610228
 30
0.0
 40
0.125
 41
0.0
 71
     2
 72
     1
  1
AF
  7
SLDTEXTSTYLE1
 73
     1
 44
1.0
  0
MTEXT
  5
1AB
330
1F
100
AcDbEntity
  8
TITLE
100
AcDbMText
 10
89.6609426289
 20
51.221610228
 30
0.0
 40
0.125
 41
0.0
 71
     2
 72
     1
  1
AF
  7
SLDTEXTSTYLE1
 73
     1
 44
1.0
  0
MTEXT
  5
1AC
330
1F
100
AcDbEntity
  8
TITLE
100
AcDbMText
 10
0.3272084177
 20
53.190114165
 30
0.0
 40
0.125
 41
0.0
 71
     2
 72
     1
  1
AG
  7
SLDTEXTSTYLE1
 73
     1
 44
1.0
  0
MTEXT
  5
1AD
330
1F
100
AcDbEntity
  8
TITLE
100
AcDbMText
 10
89.661854087
 20
53.190114165
 30
0.0
 40
0.125
 41
0.0
 71
     2
 72
     1
  1
AG
  7
SLDTEXTSTYLE1
 73
     1
 44
1.0
  0
MTEXT
  5
1AE
330
1F
100
AcDbEntity
  8
TITLE
100
AcDbMText
 10
0.3273241625
 20
55.158618102
 30
0.0
 40
0.125
 41
0.0
 71
     2
 72
     1
  1
AH
  7
SLDTEXTSTYLE1
 73
     1
 44
1.0
  0
MTEXT
  5
1AF
330
1F
100
AcDbEntity
  8
TITLE
100
AcDbMText
 10
89.6619698318
 20
55.158618102
 30
0.0
 40
0.125
 41
0.0
 71
     2
 72
     1
  1
AH
  7
SLDTEXTSTYLE1
 73
     1
 44
1.0
  0
MTEXT
  5
1B0
330
1F
100
AcDbEntity
  8
TITLE
100
AcDbMText
 10
0.3265284428
 20
57.127122039
 30
0.0
 40
0.125
 41
0.0
 71
     2
 72
     1
  1
AJ
  7
SLDTEXTSTYLE1
 73
     1
 44
1.0
  0
MTEXT
  5
1B1
330
1F
100
AcDbEntity
  8
TITLE
100
AcDbMText
 10
89.6611741121
 20
57.127122039
 30
0.0
 40
0.125
 41
0.0
 71
     2
 72
     1
  1
AJ
  7
SLDTEXTSTYLE1
 73
     1
 44
1.0
  0
MTEXT
  5
1B2
330
1F
100
AcDbEntity
  8
TITLE
100
AcDbMText
 10
0.3272662887
 20
59.095625976
 30
0.0
 40
0.125
 41
0.0
 71
     2
 72
     1
  1
AK
  7
SLDTEXTSTYLE1
 73
     1
 44
1.0
  0
MTEXT
  5
1B3
330
1F
100
AcDbEntity
  8
TITLE
100
AcDbMText
 10
89.661911958
 20
59.095625976
 30
0.0
 40
0.125
 41
0.0
 71
     2
 72
     1
  1
AK
  7
SLDTEXTSTYLE1
 73
     1
 44
1.0
  0
MTEXT
  5
1B4
330
1F
100
AcDbEntity
  8
TITLE
100
AcDbMText
 10
0.3261956816
 20
61.064129913
 30
0.0
 40
0.125
 41
0.0
 71
     2
 72
     1
  1
AL
  7
SLDTEXTSTYLE1
 73
     1
 44
1.0
  0
MTEXT
  5
1B5
330
1F
100
AcDbEntity
  8
TITLE
100
AcDbMText
 10
89.6608413509
 20
61.064129913
 30
0.0
 40
0.125
 41
0.0
 71
     2
 72
     1
  1
AL
  7
SLDTEXTSTYLE1
 73
     1
 44
1.0
  0
MTEXT
  5
1B6
330
1F
100
AcDbEntity
  8
TITLE
100
AcDbMText
 10
0.3232732315
 20
63.03263385
 30
0.0
 40
0.125
 41
0.0
 71
     2
 72
     1
  1
AM
  7
SLDTEXTSTYLE1
 73
     1
 44
1.0
  0
MTEXT
  5
1B7
330
1F
100
AcDbEntity
  8
TITLE
100
AcDbMText
 10
89.6579189008
 20
63.03263385
 30
0.0
 40
0.125
 41
0.0
 71
     2
 72
     1
  1
AM
  7
SLDTEXTSTYLE1
 73
     1
 44
1.0
  0
MTEXT
  5
1B8
330
1F
100
AcDbEntity
  8
TITLE
100
AcDbMText
 10
0.3264850398
 20
65.001137787
 30
0.0
 40
0.125
 41
0.0
 71
     2
 72
     1
  1
AN
  7
SLDTEXTSTYLE1
 73
     1
 44
1.0
  0
MTEXT
  5
1B9
330
1F
100
AcDbEntity
  8
TITLE
100
AcDbMText
 10
89.6611307091
 20
65.001137787
 30
0.0
 40
0.125
 41
0.0
 71
     2
 72
     1
  1
AN
  7
SLDTEXTSTYLE1
 73
     1
 44
1.0
  0
MTEXT
  5
1BA
330
1F
100
AcDbEntity
  8
TITLE
100
AcDbMText
 10
0.3271505426
 20
66.969641724
 30
0.0
 40
0.125
 41
0.0
 71
     2
 72
     1
  1
AP
  7
SLDTEXTSTYLE1
 73
     1
 44
1.0
  0
MTEXT
  5
1BB
330
1F
100
AcDbEntity
  8
TITLE
100
AcDbMText
 10
89.6617962119
 20
66.969641724
 30
0.0
 40
0.125
 41
0.0
 71
     2
 72
     1
  1
AP
  7
SLDTEXTSTYLE1
 73
     1
 44
1.0
  0
MTEXT
  5
1BC
330
1F
100
AcDbEntity
  8
TITLE
100
AcDbMText
 10
0.325877399
 20
68.9381456611
 30
0.0
 40
0.125
 41
0.0
 71
     2
 72
     1
  1
AR
  7
SLDTEXTSTYLE1
 73
     1
 44
1.0
  0
MTEXT
  5
1BD
330
1F
100
AcDbEntity
  8
TITLE
100
AcDbMText
 10
89.6605230682
 20
68.9381456611
 30
0.0
 40
0.125
 41
0.0
 71
     2
 72
     1
  1
AR
  7
SLDTEXTSTYLE1
 73
     1
 44
1.0
  0
MTEXT
  5
1BE
330
1F
100
AcDbEntity
  8
TITLE
100
AcDbMText
 10
0.3272518193
 20
70.9066495981
 30
0.0
 40
0.125
 41
0.0
 71
     2
 72
     1
  1
AT
  7
SLDTEXTSTYLE1
 73
     1
 44
1.0
  0
MTEXT
  5
1BF
330
1F
100
AcDbEntity
  8
TITLE
100
AcDbMText
 10
89.6618974886
 20
70.9066495981
 30
0.0
 40
0.125
 41
0.0
 71
     2
 72
     1
  1
AT
  7
SLDTEXTSTYLE1
 73
     1
 44
1.0
  0
MTEXT
  5
1C0
330
1F
100
AcDbEntity
  8
TITLE
100
AcDbMText
 10
0.3278015877
 20
72.8751535351
 30
0.0
 40
0.125
 41
0.0
 71
     2
 72
     1
  1
AU
  7
SLDTEXTSTYLE1
 73
     1
 44
1.0
  0
MTEXT
  5
1C1
330
1F
100
AcDbEntity
  8
TITLE
100
AcDbMText
 10
89.662447257
 20
72.8751535351
 30
0.0
 40
0.125
 41
0.0
 71
     2
 72
     1
  1
AU
  7
SLDTEXTSTYLE1
 73
     1
 44
1.0
  0
MTEXT
  5
1C2
330
1F
100
AcDbEntity
  8
TITLE
100
AcDbMText
 10
0.3257037895
 20
74.8436574721
 30
0.0
 40
0.125
 41
0.0
 71
     2
 72
     1
  1
AV
  7
SLDTEXTSTYLE1
 73
     1
 44
1.0
  0
MTEXT
  5
1C3
330
1F
100
AcDbEntity
  8
TITLE
100
AcDbMText
 10
89.6603494588
 20
74.8436574721
 30
0.0
 40
0.125
 41
0.0
 71
     2
 72
     1
  1
AV
  7
SLDTEXTSTYLE1
 73
     1
 44
1.0
  0
MTEXT
  5
1C4
330
1F
100
AcDbEntity
  8
TITLE
100
AcDbMText
 10
0.3277292486
 20
76.8121614091
 30
0.0
 40
0.125
 41
0.0
 71
     2
 72
     1
  1
AW
  7
SLDTEXTSTYLE1
 73
     1
 44
1.0
  0
MTEXT
  5
1C5
330
1F
100
AcDbEntity
  8
TITLE
100
AcDbMText
 10
89.6623749179
 20
76.8121614091
 30
0.0
 40
0.125
 41
0.0
 71
     2
 72
     1
  1
AW
  7
SLDTEXTSTYLE1
 73
     1
 44
1.0
  0
MTEXT
  5
1C6
330
1F
100
AcDbEntity
  8
TITLE
100
AcDbMText
 10
0.3271505426
 20
78.7806653461
 30
0.0
 40
0.125
 41
0.0
 71
     2
 72
     1
  1
AY
  7
SLDTEXTSTYLE1
 73
     1
 44
1.0
  0
MTEXT
  5
1C7
330
1F
100
AcDbEntity
  8
TITLE
100
AcDbMText
 10
89.6617962119
 20
78.7806653461
 30
0.0
 40
0.125
 41
0.0
 71
     2
 72
     1
  1
AY
  7
SLDTEXTSTYLE1
 73
     1
 44
1.0
  0
MTEXT
  5
1C8
330
1F
100
AcDbEntity
  8
TITLE
100
AcDbMText
 10
0.3267020535
 20
80.7491692831
 30
0.0
 40
0.125
 41
0.0
 71
     2
 72
     1
  1
BA
  7
SLDTEXTSTYLE1
 73
     1
 44
1.0
  0
MTEXT
  5
1C9
330
1F
100
AcDbEntity
  8
TITLE
100
AcDbMText
 10
89.6613477228
 20
80.7491692831
 30
0.0
 40
0.125
 41
0.0
 71
     2
 72
     1
  1
BA
  7
SLDTEXTSTYLE1
 73
     1
 44
1.0
  0
MTEXT
  5
1CA
330
1F
100
AcDbEntity
  8
TITLE
100
AcDbMText
 10
0.3308253173
 20
82.7176732201
 30
0.0
 40
0.125
 41
0.0
 71
     2
 72
     1
  1
BB
  7
SLDTEXTSTYLE1
 73
     1
 44
1.0
  0
MTEXT
  5
1CB
330
1F
100
AcDbEntity
  8
TITLE
100
AcDbMText
 10
89.6654709865
 20
82.7176732201
 30
0.0
 40
0.125
 41
0.0
 71
     2
 72
     1
  1
BB
  7
SLDTEXTSTYLE1
 73
     1
 44
1.0
  0
MTEXT
  5
1CC
330
1F
100
AcDbEntity
  8
TITLE
100
AcDbMText
 10
0.3304491531
 20
84.6861771571
 30
0.0
 40
0.125
 41
0.0
 71
     2
 72
     1
  1
BC
  7
SLDTEXTSTYLE1
 73
     1
 44
1.0
  0
MTEXT
  5
1CD
330
1F
100
AcDbEntity
  8
TITLE
100
AcDbMText
 10
89.6650948224
 20
84.6861771571
 30
0.0
 40
0.125
 41
0.0
 71
     2
 72
     1
  1
BC
  7
SLDTEXTSTYLE1
 73
     1
 44
1.0
  0
MTEXT
  5
1CE
330
1F
100
AcDbEntity
  8
TITLE
100
AcDbMText
 10
0.3302610742
 20
86.6546810941
 30
0.0
 40
0.125
 41
0.0
 71
     2
 72
     1
  1
BD
  7
SLDTEXTSTYLE1
 73
     1
 44
1.0
  0
MTEXT
  5
1CF
330
1F
100
AcDbEntity
  8
TITLE
100
AcDbMText
 10
89.6649067435
 20
86.6546810941
 30
0.0
 40
0.125
 41
0.0
 71
     2
 72
     1
  1
BD
  7
SLDTEXTSTYLE1
 73
     1
 44
1.0
  0
MTEXT
  5
1D0
330
1F
100
AcDbEntity
  8
TITLE
100
AcDbMText
 10
0.331997192
 20
88.6231850311
 30
0.0
 40
0.125
 41
0.0
 71
     2
 72
     1
  1
BE
  7
SLDTEXTSTYLE1
 73
     1
 44
1.0
  0
MTEXT
  5
1D1
330
1F
100
AcDbEntity
  8
TITLE
100
AcDbMText
 10
89.6666428613
 20
88.6231850311
 30
0.0
 40
0.125
 41
0.0
 71
     2
 72
     1
  1
BE
  7
SLDTEXTSTYLE1
 73
     1
 44
1.0
  0
MTEXT
  5
1D2
330
1F
100
AcDbEntity
  8
TITLE
100
AcDbMText
 10
0.3304202234
 20
90.5916889681
 30
0.0
 40
0.125
 41
0.0
 71
     2
 72
     1
  1
BF
  7
SLDTEXTSTYLE1
 73
     1
 44
1.0
  0
MTEXT
  5
1D3
330
1F
100
AcDbEntity
  8
TITLE
100
AcDbMText
 10
89.6650658926
 20
90.5916889681
 30
0.0
 40
0.125
 41
0.0
 71
     2
 72
     1
  1
BF
  7
SLDTEXTSTYLE1
 73
     1
 44
1.0
  0
MTEXT
  5
1D4
330
1F
100
AcDbEntity
  8
TITLE
100
AcDbMText
 10
0.3313316814
 20
92.5601929051
 30
0.0
 40
0.125
 41
0.0
 71
     2
 72
     1
  1
BG
  7
SLDTEXTSTYLE1
 73
     1
 44
1.0
  0
MTEXT
  5
1D5
330
1F
100
AcDbEntity
  8
TITLE
100
AcDbMText
 10
89.6659773507
 20
92.5601929051
 30
0.0
 40
0.125
 41
0.0
 71
     2
 72
     1
  1
BG
  7
SLDTEXTSTYLE1
 73
     1
 44
1.0
  0
MTEXT
  5
1D6
330
1F
100
AcDbEntity
  8
TITLE
100
AcDbMText
 10
0.331447417
 20
94.5286968422
 30
0.0
 40
0.125
 41
0.0
 71
     2
 72
     1
  1
BH
  7
SLDTEXTSTYLE1
 73
     1
 44
1.0
  0
MTEXT
  5
1D7
330
1F
100
AcDbEntity
  8
TITLE
100
AcDbMText
 10
89.6660930863
 20
94.5286968422
 30
0.0
 40
0.125
 41
0.0
 71
     2
 72
     1
  1
BH
  7
SLDTEXTSTYLE1
 73
     1
 44
1.0
  0
MTEXT
  5
1D8
330
1F
100
AcDbEntity
  8
TITLE
100
AcDbMText
 10
0.3306517065
 20
96.4972007792
 30
0.0
 40
0.125
 41
0.0
 71
     2
 72
     1
  1
BJ
  7
SLDTEXTSTYLE1
 73
     1
 44
1.0
  0
MTEXT
  5
1D9
330
1F
100
AcDbEntity
  8
TITLE
100
AcDbMText
 10
89.6652973758
 20
96.4972007792
 30
0.0
 40
0.125
 41
0.0
 71
     2
 72
     1
  1
BJ
  7
SLDTEXTSTYLE1
 73
     1
 44
1.0
  0
MTEXT
  5
1DA
330
1F
100
AcDbEntity
  8
TITLE
100
AcDbMText
 10
0.3313895525
 20
98.4657047162
 30
0.0
 40
0.125
 41
0.0
 71
     2
 72
     1
  1
BK
  7
SLDTEXTSTYLE1
 73
     1
 44
1.0
  0
MTEXT
  5
1DB
330
1F
100
AcDbEntity
  8
TITLE
100
AcDbMText
 10
89.6660352218
 20
98.4657047162
 30
0.0
 40
0.125
 41
0.0
 71
     2
 72
     1
  1
BK
  7
SLDTEXTSTYLE1
 73
     1
 44
1.0
  0
MTEXT
  5
1DC
330
1F
100
AcDbEntity
  8
TITLE
100
AcDbMText
 10
0.3303189545
 20
100.4342086532
 30
0.0
 40
0.125
 41
0.0
 71
     2
 72
     1
  1
BL
  7
SLDTEXTSTYLE1
 73
     1
 44
1.0
  0
MTEXT
  5
1DD
330
1F
100
AcDbEntity
  8
TITLE
100
AcDbMText
 10
89.6649646237
 20
100.4342086532
 30
0.0
 40
0.125
 41
0.0
 71
     2
 72
     1
  1
BL
  7
SLDTEXTSTYLE1
 73
     1
 44
1.0
  0
MTEXT
  5
1DE
330
1F
100
AcDbEntity
  8
TITLE
100
AcDbMText
 10
0.3273964952
 20
102.4027125902
 30
0.0
 40
0.125
 41
0.0
 71
     2
 72
     1
  1
BM
  7
SLDTEXTSTYLE1
 73
     1
 44
1.0
  0
MTEXT
  5
1DF
330
1F
100
AcDbEntity
  8
TITLE
100
AcDbMText
 10
89.6620421645
 20
102.4027125902
 30
0.0
 40
0.125
 41
0.0
 71
     2
 72
     1
  1
BM
  7
SLDTEXTSTYLE1
 73
     1
 44
1.0
  0
MTEXT
  5
1E0
330
1F
100
AcDbEntity
  8
TITLE
100
AcDbMText
 10
0.3306083035
 20
104.3712165272
 30
0.0
 40
0.125
 41
0.0
 71
     2
 72
     1
  1
BN
  7
SLDTEXTSTYLE1
 73
     1
 44
1.0
  0
MTEXT
  5
1E1
330
1F
100
AcDbEntity
  8
TITLE
100
AcDbMText
 10
89.6652539728
 20
104.3712165272
 30
0.0
 40
0.125
 41
0.0
 71
     2
 72
     1
  1
BN
  7
SLDTEXTSTYLE1
 73
     1
 44
1.0
  0
MTEXT
  5
1E2
330
1F
100
AcDbEntity
  8
TITLE
100
AcDbMText
 10
0.3312738155
 20
106.3397204642
 30
0.0
 40
0.125
 41
0.0
 71
     2
 72
     1
  1
BP
  7
SLDTEXTSTYLE1
 73
     1
 44
1.0
  0
MTEXT
  5
1E3
330
1F
100
AcDbEntity
  8
TITLE
100
AcDbMText
 10
89.6659194848
 20
106.3397204642
 30
0.0
 40
0.125
 41
0.0
 71
     2
 72
     1
  1
BP
  7
SLDTEXTSTYLE1
 73
     1
 44
1.0
  0
MTEXT
  5
1E4
330
1F
100
AcDbEntity
  8
TITLE
100
AcDbMText
 10
0.3300006627
 20
108.3082244012
 30
0.0
 40
0.125
 41
0.0
 71
     2
 72
     1
  1
BR
  7
SLDTEXTSTYLE1
 73
     1
 44
1.0
  0
MTEXT
  5
1E5
330
1F
100
AcDbEntity
  8
TITLE
100
AcDbMText
 10
89.664646332
 20
108.3082244012
 30
0.0
 40
0.125
 41
0.0
 71
     2
 72
     1
  1
BR
  7
SLDTEXTSTYLE1
 73
     1
 44
1.0
  0
MTEXT
  5
1E6
330
1F
100
AcDbEntity
  8
TITLE
100
AcDbMText
 10
0.331375083
 20
110.2767283382
 30
0.0
 40
0.125
 41
0.0
 71
     2
 72
     1
  1
BT
  7
SLDTEXTSTYLE1
 73
     1
 44
1.0
  0
MTEXT
  5
1E7
330
1F
100
AcDbEntity
  8
TITLE
100
AcDbMText
 10
89.6660207523
 20
110.2767283382
 30
0.0
 40
0.125
 41
0.0
 71
     2
 72
     1
  1
BT
  7
SLDTEXTSTYLE1
 73
     1
 44
1.0
  0
MTEXT
  5
1E8
330
1F
100
AcDbEntity
  8
TITLE
100
AcDbMText
 10
0.3319248515
 20
112.2452322752
 30
0.0
 40
0.125
 41
0.0
 71
     2
 72
     1
  1
BU
  7
SLDTEXTSTYLE1
 73
     1
 44
1.0
  0
MTEXT
  5
1E9
330
1F
100
AcDbEntity
  8
TITLE
100
AcDbMText
 10
89.6665705208
 20
112.2452322752
 30
0.0
 40
0.125
 41
0.0
 71
     2
 72
     1
  1
BU
  7
SLDTEXTSTYLE1
 73
     1
 44
1.0
  0
MTEXT
  5
1EA
330
1F
100
AcDbEntity
  8
TITLE
100
AcDbMText
 10
0.3298270533
 20
114.2137362122
 30
0.0
 40
0.125
 41
0.0
 71
     2
 72
     1
  1
BV
  7
SLDTEXTSTYLE1
 73
     1
 44
1.0
  0
MTEXT
  5
1EB
330
1F
100
AcDbEntity
  8
TITLE
100
AcDbMText
 10
89.6644727226
 20
114.2137362122
 30
0.0
 40
0.125
 41
0.0
 71
     2
 72
     1
  1
BV
  7
SLDTEXTSTYLE1
 73
     1
 44
1.0
  0
MTEXT
  5
1EC
330
1F
100
AcDbEntity
  8
TITLE
100
AcDbMText
 10
0.3318525215
 20
116.1822401492
 30
0.0
 40
0.125
 41
0.0
 71
     2
 72
     1
  1
BW
  7
SLDTEXTSTYLE1
 73
     1
 44
1.0
  0
MTEXT
  5
1ED
330
1F
100
AcDbEntity
  8
TITLE
100
AcDbMText
 10
89.6664981907
 20
116.1822401492
 30
0.0
 40
0.125
 41
0.0
 71
     2
 72
     1
  1
BW
  7
SLDTEXTSTYLE1
 73
     1
 44
1.0
  0
MTEXT
  5
1EE
330
1F
100
AcDbEntity
  8
TITLE
100
AcDbMText
 10
0.3312738155
 20
118.3731850311
 30
0.0
 40
0.125
 41
0.0
 71
     2
 72
     1
  1
BY
  7
SLDTEXTSTYLE1
 73
     1
 44
1.0
  0
MTEXT
  5
1EF
330
1F
100
AcDbEntity
  8
TITLE
100
AcDbMText
 10
89.6659194848
 20
118.3731850311
 30
0.0
 40
0.125
 41
0.0
 71
     2
 72
     1
  1
BY
  7
SLDTEXTSTYLE1
 73
     1
 44
1.0
  0
MTEXT
  5
1F0
330
1F
100
AcDbEntity
  8
TITLE
100
AcDbMText
 10
1.0939393315
 20
0.4125551099
 30
0.0
 40
0.125
 41
0.0
 71
     2
 72
     1
  1
46
  7
SLDTEXTSTYLE1
 73
     1
 44
1.0
  0
MTEXT
  5
1F1
330
1F
100
AcDbEntity
  8
TITLE
100
AcDbMText
 10
1.0939393315
 20
119.7472007792
 30
0.0
 40
0.125
 41
0.0
 71
     2
 72
     1
  1
46
  7
SLDTEXTSTYLE1
 73
     1
 44
1.0
  0
MTEXT
  5
1F2
330
1F
100
AcDbEntity
  8
TITLE
100
AcDbMText
 10
2.674647993
 20
0.4125551099
 30
0.0
 40
0.125
 41
0.0
 71
     2
 72
     1
  1
45
  7
SLDTEXTSTYLE1
 73
     1
 44
1.0
  0
MTEXT
  5
1F3
330
1F
100
AcDbEntity
  8
TITLE
100
AcDbMText
 10
2.674647993
 20
119.7472007792
 30
0.0
 40
0.125
 41
0.0
 71
     2
 72
     1
  1
45
  7
SLDTEXTSTYLE1
 73
     1
 44
1.0
  0
MTEXT
  5
1F4
330
1F
100
AcDbEntity
  8
TITLE
100
AcDbMText
 10
4.64315193
 20
0.4125551099
 30
0.0
 40
0.125
 41
0.0
 71
     2
 72
     1
  1
44
  7
SLDTEXTSTYLE1
 73
     1
 44
1.0
  0
MTEXT
  5
1F5
330
1F
100
AcDbEntity
  8
TITLE
100
AcDbMText
 10
4.64315193
 20
119.7472007792
 30
0.0
 40
0.125
 41
0.0
 71
     2
 72
     1
  1
44
  7
SLDTEXTSTYLE1
 73
     1
 44
1.0
  0
MTEXT
  5
1F6
330
1F
100
AcDbEntity
  8
TITLE
100
AcDbMText
 10
6.611655867
 20
0.4125551099
 30
0.0
 40
0.125
 41
0.0
 71
     2
 72
     1
  1
43
  7
SLDTEXTSTYLE1
 73
     1
 44
1.0
  0
MTEXT
  5
1F7
330
1F
100
AcDbEntity
  8
TITLE
100
AcDbMText
 10
6.611655867
 20
119.7472007792
 30
0.0
 40
0.125
 41
0.0
 71
     2
 72
     1
  1
43
  7
SLDTEXTSTYLE1
 73
     1
 44
1.0
  0
MTEXT
  5
1F8
330
1F
100
AcDbEntity
  8
TITLE
100
AcDbMText
 10
8.580159804
 20
0.4125551099
 30
0.0
 40
0.125
 41
0.0
 71
     2
 72
     1
  1
42
  7
SLDTEXTSTYLE1
 73
     1
 44
1.0
  0
MTEXT
  5
1F9
330
1F
100
AcDbEntity
  8
TITLE
100
AcDbMText
 10
8.580159804
 20
119.7472007792
 30
0.0
 40
0.125
 41
0.0
 71
     2
 72
     1
  1
42
  7
SLDTEXTSTYLE1
 73
     1
 44
1.0
  0
MTEXT
  5
1FA
330
1F
100
AcDbEntity
  8
TITLE
100
AcDbMText
 10
10.548663741
 20
0.4125551099
 30
0.0
 40
0.125
 41
0.0
 71
     2
 72
     1
  1
41
  7
SLDTEXTSTYLE1
 73
     1
 44
1.0
  0
MTEXT
  5
1FB
330
1F
100
AcDbEntity
  8
TITLE
100
AcDbMText
 10
10.548663741
 20
119.7472007792
 30
0.0
 40
0.125
 41
0.0
 71
     2
 72
     1
  1
41
  7
SLDTEXTSTYLE1
 73
     1
 44
1.0
  0
MTEXT
  5
1FC
330
1F
100
AcDbEntity
  8
TITLE
100
AcDbMText
 10
12.517167678
 20
0.4125551099
 30
0.0
 40
0.125
 41
0.0
 71
     2
 72
     1
  1
40
  7
SLDTEXTSTYLE1
 73
     1
 44
1.0
  0
MTEXT
  5
1FD
330
1F
100
AcDbEntity
  8
TITLE
100
AcDbMText
 10
12.517167678
 20
119.7472007792
 30
0.0
 40
0.125
 41
0.0
 71
     2
 72
     1
  1
40
  7
SLDTEXTSTYLE1
 73
     1
 44
1.0
  0
MTEXT
  5
1FE
330
1F
100
AcDbEntity
  8
TITLE
100
AcDbMText
 10
14.485671615
 20
0.4125551099
 30
0.0
 40
0.125
 41
0.0
 71
     2
 72
     1
  1
39
  7
SLDTEXTSTYLE1
 73
     1
 44
1.0
  0
MTEXT
  5
1FF
330
1F
100
AcDbEntity
  8
TITLE
100
AcDbMText
 10
14.485671615
 20
119.7472007792
 30
0.0
 40
0.125
 41
0.0
 71
     2
 72
     1
  1
39
  7
SLDTEXTSTYLE1
 73
     1
 44
1.0
  0
MTEXT
  5
200
330
1F
100
AcDbEntity
  8
TITLE
100
AcDbMText
 10
16.454175552
 20
0.4125551099
 30
0.0
 40
0.125
 41
0.0
 71
     2
 72
     1
  1
38
  7
SLDTEXTSTYLE1
 73
     1
 44
1.0
  0
MTEXT
  5
201
330
1F
100
AcDbEntity
  8
TITLE
100
AcDbMText
 10
16.454175552
 20
119.7472007792
 30
0.0
 40
0.125
 41
0.0
 71
     2
 72
     1
  1
38
  7
SLDTEXTSTYLE1
 73
     1
 44
1.0
  0
MTEXT
  5
202
330
1F
100
AcDbEntity
  8
TITLE
100
AcDbMText
 10
18.422679489
 20
0.4125551099
 30
0.0
 40
0.125
 41
0.0
 71
     2
 72
     1
  1
37
  7
SLDTEXTSTYLE1
 73
     1
 44
1.0
  0
MTEXT
  5
203
330
1F
100
AcDbEntity
  8
TITLE
100
AcDbMText
 10
18.422679489
 20
119.7472007792
 30
0.0
 40
0.125
 41
0.0
 71
     2
 72
     1
  1
37
  7
SLDTEXTSTYLE1
 73
     1
 44
1.0
  0
MTEXT
  5
204
330
1F
100
AcDbEntity
  8
TITLE
100
AcDbMText
 10
20.391183426
 20
0.4125551099
 30
0.0
 40
0.125
 41
0.0
 71
     2
 72
     1
  1
36
  7
SLDTEXTSTYLE1
 73
     1
 44
1.0
  0
MTEXT
  5
205
330
1F
100
AcDbEntity
  8
TITLE
100
AcDbMText
 10
20.391183426
 20
119.7472007792
 30
0.0
 40
0.125
 41
0.0
 71
     2
 72
     1
  1
36
  7
SLDTEXTSTYLE1
 73
     1
 44
1.0
  0
MTEXT
  5
206
330
1F
100
AcDbEntity
  8
TITLE
100
AcDbMText
 10
22.359687363
 20
0.4125551099
 30
0.0
 40
0.125
 41
0.0
 71
     2
 72
     1
  1
35
  7
SLDTEXTSTYLE1
 73
     1
 44
1.0
  0
MTEXT
  5
207
330
1F
100
AcDbEntity
  8
TITLE
100
AcDbMText
 10
22.359687363
 20
119.7472007792
 30
0.0
 40
0.125
 41
0.0
 71
     2
 72
     1
  1
35
  7
SLDTEXTSTYLE1
 73
     1
 44
1.0
  0
MTEXT
  5
208
330
1F
100
AcDbEntity
  8
TITLE
100
AcDbMText
 10
24.3281913
 20
0.4125551099
 30
0.0
 40
0.125
 41
0.0
 71
     2
 72
     1
  1
34
  7
SLDTEXTSTYLE1
 73
     1
 44
1.0
  0
MTEXT
  5
209
330
1F
100
AcDbEntity
  8
TITLE
100
AcDbMText
 10
24.3281913
 20
119.7472007792
 30
0.0
 40
0.125
 41
0.0
 71
     2
 72
     1
  1
34
  7
SLDTEXTSTYLE1
 73
     1
 44
1.0
  0
MTEXT
  5
20A
330
1F
100
AcDbEntity
  8
TITLE
100
AcDbMText
 10
26.2966952371
 20
0.4125551099
 30
0.0
 40
0.125
 41
0.0
 71
     2
 72
     1
  1
33
  7
SLDTEXTSTYLE1
 73
     1
 44
1.0
  0
MTEXT
  5
20B
330
1F
100
AcDbEntity
  8
TITLE
100
AcDbMText
 10
26.2966952371
 20
119.7472007792
 30
0.0
 40
0.125
 41
0.0
 71
     2
 72
     1
  1
33
  7
SLDTEXTSTYLE1
 73
     1
 44
1.0
  0
MTEXT
  5
20C
330
1F
100
AcDbEntity
  8
TITLE
100
AcDbMText
 10
28.2651991741
 20
0.4125551099
 30
0.0
 40
0.125
 41
0.0
 71
     2
 72
     1
  1
32
  7
SLDTEXTSTYLE1
 73
     1
 44
1.0
  0
MTEXT
  5
20D
330
1F
100
AcDbEntity
  8
TITLE
100
AcDbMText
 10
28.2651991741
 20
119.7472007792
 30
0.0
 40
0.125
 41
0.0
 71
     2
 72
     1
  1
32
  7
SLDTEXTSTYLE1
 73
     1
 44
1.0
  0
MTEXT
  5
20E
330
1F
100
AcDbEntity
  8
TITLE
100
AcDbMText
 10
30.2337031111
 20
0.4125551099
 30
0.0
 40
0.125
 41
0.0
 71
     2
 72
     1
  1
31
  7
SLDTEXTSTYLE1
 73
     1
 44
1.0
  0
MTEXT
  5
20F
330
1F
100
AcDbEntity
  8
TITLE
100
AcDbMText
 10
30.2337031111
 20
119.7472007792
 30
0.0
 40
0.125
 41
0.0
 71
     2
 72
     1
  1
31
  7
SLDTEXTSTYLE1
 73
     1
 44
1.0
  0
MTEXT
  5
210
330
1F
100
AcDbEntity
  8
TITLE
100
AcDbMText
 10
32.2022070481
 20
0.4125551099
 30
0.0
 40
0.125
 41
0.0
 71
     2
 72
     1
  1
30
  7
SLDTEXTSTYLE1
 73
     1
 44
1.0
  0
MTEXT
  5
211
330
1F
100
AcDbEntity
  8
TITLE
100
AcDbMText
 10
32.2022070481
 20
119.7472007792
 30
0.0
 40
0.125
 41
0.0
 71
     2
 72
     1
  1
30
  7
SLDTEXTSTYLE1
 73
     1
 44
1.0
  0
MTEXT
  5
212
330
1F
100
AcDbEntity
  8
TITLE
100
AcDbMText
 10
34.1707109851
 20
0.4125551099
 30
0.0
 40
0.125
 41
0.0
 71
     2
 72
     1
  1
29
  7
SLDTEXTSTYLE1
 73
     1
 44
1.0
  0
MTEXT
  5
213
330
1F
100
AcDbEntity
  8
TITLE
100
AcDbMText
 10
34.1707109851
 20
119.7472007792
 30
0.0
 40
0.125
 41
0.0
 71
     2
 72
     1
  1
29
  7
SLDTEXTSTYLE1
 73
     1
 44
1.0
  0
MTEXT
  5
214
330
1F
100
AcDbEntity
  8
TITLE
100
AcDbMText
 10
36.1392149221
 20
0.4125551099
 30
0.0
 40
0.125
 41
0.0
 71
     2
 72
     1
  1
28
  7
SLDTEXTSTYLE1
 73
     1
 44
1.0
  0
MTEXT
  5
215
330
1F
100
AcDbEntity
  8
TITLE
100
AcDbMText
 10
36.1392149221
 20
119.7472007792
 30
0.0
 40
0.125
 41
0.0
 71
     2
 72
     1
  1
28
  7
SLDTEXTSTYLE1
 73
     1
 44
1.0
  0
MTEXT
  5
216
330
1F
100
AcDbEntity
  8
TITLE
100
AcDbMText
 10
38.1077188591
 20
0.4125551099
 30
0.0
 40
0.125
 41
0.0
 71
     2
 72
     1
  1
27
  7
SLDTEXTSTYLE1
 73
     1
 44
1.0
  0
MTEXT
  5
217
330
1F
100
AcDbEntity
  8
TITLE
100
AcDbMText
 10
38.1077188591
 20
119.7472007792
 30
0.0
 40
0.125
 41
0.0
 71
     2
 72
     1
  1
27
  7
SLDTEXTSTYLE1
 73
     1
 44
1.0
  0
MTEXT
  5
218
330
1F
100
AcDbEntity
  8
TITLE
100
AcDbMText
 10
40.0762227961
 20
0.4125551099
 30
0.0
 40
0.125
 41
0.0
 71
     2
 72
     1
  1
26
  7
SLDTEXTSTYLE1
 73
     1
 44
1.0
  0
MTEXT
  5
219
330
1F
100
AcDbEntity
  8
TITLE
100
AcDbMText
 10
40.0762227961
 20
119.7472007792
 30
0.0
 40
0.125
 41
0.0
 71
     2
 72
     1
  1
26
  7
SLDTEXTSTYLE1
 73
     1
 44
1.0
  0
MTEXT
  5
21A
330
1F
100
AcDbEntity
  8
TITLE
100
AcDbMText
 10
42.0447267331
 20
0.4125551099
 30
0.0
 40
0.125
 41
0.0
 71
     2
 72
     1
  1
25
  7
SLDTEXTSTYLE1
 73
     1
 44
1.0
  0
MTEXT
  5
21B
330
1F
100
AcDbEntity
  8
TITLE
100
AcDbMText
 10
42.0447267331
 20
119.7472007792
 30
0.0
 40
0.125
 41
0.0
 71
     2
 72
     1
  1
25
  7
SLDTEXTSTYLE1
 73
     1
 44
1.0
  0
MTEXT
  5
21C
330
1F
100
AcDbEntity
  8
TITLE
100
AcDbMText
 10
44.0132306701
 20
0.4125551099
 30
0.0
 40
0.125
 41
0.0
 71
     2
 72
     1
  1
24
  7
SLDTEXTSTYLE1
 73
     1
 44
1.0
  0
MTEXT
  5
21D
330
1F
100
AcDbEntity
  8
TITLE
100
AcDbMText
 10
44.0132306701
 20
119.7472007792
 30
0.0
 40
0.125
 41
0.0
 71
     2
 72
     1
  1
24
  7
SLDTEXTSTYLE1
 73
     1
 44
1.0
  0
MTEXT
  5
21E
330
1F
100
AcDbEntity
  8
TITLE
100
AcDbMText
 10
45.9817346071
 20
0.4125551099
 30
0.0
 40
0.125
 41
0.0
 71
     2
 72
     1
  1
23
  7
SLDTEXTSTYLE1
 73
     1
 44
1.0
  0
MTEXT
  5
21F
330
1F
100
AcDbEntity
  8
TITLE
100
AcDbMText
 10
45.9817346071
 20
119.7472007792
 30
0.0
 40
0.125
 41
0.0
 71
     2
 72
     1
  1
23
  7
SLDTEXTSTYLE1
 73
     1
 44
1.0
  0
MTEXT
  5
220
330
1F
100
AcDbEntity
  8
TITLE
100
AcDbMText
 10
47.9502385441
 20
0.4125551099
 30
0.0
 40
0.125
 41
0.0
 71
     2
 72
     1
  1
22
  7
SLDTEXTSTYLE1
 73
     1
 44
1.0
  0
MTEXT
  5
221
330
1F
100
AcDbEntity
  8
TITLE
100
AcDbMText
 10
47.9502385441
 20
119.7472007792
 30
0.0
 40
0.125
 41
0.0
 71
     2
 72
     1
  1
22
  7
SLDTEXTSTYLE1
 73
     1
 44
1.0
  0
MTEXT
  5
222
330
1F
100
AcDbEntity
  8
TITLE
100
AcDbMText
 10
49.9187424811
 20
0.4125551099
 30
0.0
 40
0.125
 41
0.0
 71
     2
 72
     1
  1
21
  7
SLDTEXTSTYLE1
 73
     1
 44
1.0
  0
MTEXT
  5
223
330
1F
100
AcDbEntity
  8
TITLE
100
AcDbMText
 10
49.9187424811
 20
119.7472007792
 30
0.0
 40
0.125
 41
0.0
 71
     2
 72
     1
  1
21
  7
SLDTEXTSTYLE1
 73
     1
 44
1.0
  0
MTEXT
  5
224
330
1F
100
AcDbEntity
  8
TITLE
100
AcDbMText
 10
51.8872464182
 20
0.4125551099
 30
0.0
 40
0.125
 41
0.0
 71
     2
 72
     1
  1
20
  7
SLDTEXTSTYLE1
 73
     1
 44
1.0
  0
MTEXT
  5
225
330
1F
100
AcDbEntity
  8
TITLE
100
AcDbMText
 10
51.8872464182
 20
119.7472007792
 30
0.0
 40
0.125
 41
0.0
 71
     2
 72
     1
  1
20
  7
SLDTEXTSTYLE1
 73
     1
 44
1.0
  0
MTEXT
  5
226
330
1F
100
AcDbEntity
  8
TITLE
100
AcDbMText
 10
53.8557503552
 20
0.4125551099
 30
0.0
 40
0.125
 41
0.0
 71
     2
 72
     1
  1
19
  7
SLDTEXTSTYLE1
 73
     1
 44
1.0
  0
MTEXT
  5
227
330
1F
100
AcDbEntity
  8
TITLE
100
AcDbMText
 10
53.8557503552
 20
119.7472007792
 30
0.0
 40
0.125
 41
0.0
 71
     2
 72
     1
  1
19
  7
SLDTEXTSTYLE1
 73
     1
 44
1.0
  0
MTEXT
  5
228
330
1F
100
AcDbEntity
  8
TITLE
100
AcDbMText
 10
55.8242542922
 20
0.4125551099
 30
0.0
 40
0.125
 41
0.0
 71
     2
 72
     1
  1
18
  7
SLDTEXTSTYLE1
 73
     1
 44
1.0
  0
MTEXT
  5
229
330
1F
100
AcDbEntity
  8
TITLE
100
AcDbMText
 10
55.8242542922
 20
119.7472007792
 30
0.0
 40
0.125
 41
0.0
 71
     2
 72
     1
  1
18
  7
SLDTEXTSTYLE1
 73
     1
 44
1.0
  0
MTEXT
  5
22A
330
1F
100
AcDbEntity
  8
TITLE
100
AcDbMText
 10
57.7927582292
 20
0.4125551099
 30
0.0
 40
0.125
 41
0.0
 71
     2
 72
     1
  1
17
  7
SLDTEXTSTYLE1
 73
     1
 44
1.0
  0
MTEXT
  5
22B
330
1F
100
AcDbEntity
  8
TITLE
100
AcDbMText
 10
57.7927582292
 20
119.7472007792
 30
0.0
 40
0.125
 41
0.0
 71
     2
 72
     1
  1
17
  7
SLDTEXTSTYLE1
 73
     1
 44
1.0
  0
MTEXT
  5
22C
330
1F
100
AcDbEntity
  8
TITLE
100
AcDbMText
 10
59.7612621662
 20
0.4125551099
 30
0.0
 40
0.125
 41
0.0
 71
     2
 72
     1
  1
16
  7
SLDTEXTSTYLE1
 73
     1
 44
1.0
  0
MTEXT
  5
22D
330
1F
100
AcDbEntity
  8
TITLE
100
AcDbMText
 10
59.7612621662
 20
119.7472007792
 30
0.0
 40
0.125
 41
0.0
 71
     2
 72
     1
  1
16
  7
SLDTEXTSTYLE1
 73
     1
 44
1.0
  0
MTEXT
  5
22E
330
1F
100
AcDbEntity
  8
TITLE
100
AcDbMText
 10
61.7297661032
 20
0.4125551099
 30
0.0
 40
0.125
 41
0.0
 71
     2
 72
     1
  1
15
  7
SLDTEXTSTYLE1
 73
     1
 44
1.0
  0
MTEXT
  5
22F
330
1F
100
AcDbEntity
  8
TITLE
100
AcDbMText
 10
61.7297661032
 20
119.7472007792
 30
0.0
 40
0.125
 41
0.0
 71
     2
 72
     1
  1
15
  7
SLDTEXTSTYLE1
 73
     1
 44
1.0
  0
MTEXT
  5
230
330
1F
100
AcDbEntity
  8
TITLE
100
AcDbMText
 10
63.6982700402
 20
0.4125551099
 30
0.0
 40
0.125
 41
0.0
 71
     2
 72
     1
  1
14
  7
SLDTEXTSTYLE1
 73
     1
 44
1.0
  0
MTEXT
  5
231
330
1F
100
AcDbEntity
  8
TITLE
100
AcDbMText
 10
63.6982700402
 20
119.7472007792
 30
0.0
 40
0.125
 41
0.0
 71
     2
 72
     1
  1
14
  7
SLDTEXTSTYLE1
 73
     1
 44
1.0
  0
MTEXT
  5
232
330
1F
100
AcDbEntity
  8
TITLE
100
AcDbMText
 10
65.6667739772
 20
0.4125551099
 30
0.0
 40
0.125
 41
0.0
 71
     2
 72
     1
  1
13
  7
SLDTEXTSTYLE1
 73
     1
 44
1.0
  0
MTEXT
  5
233
330
1F
100
AcDbEntity
  8
TITLE
100
AcDbMText
 10
65.6667739772
 20
119.7472007792
 30
0.0
 40
0.125
 41
0.0
 71
     2
 72
     1
  1
13
  7
SLDTEXTSTYLE1
 73
     1
 44
1.0
  0
MTEXT
  5
234
330
1F
100
AcDbEntity
  8
TITLE
100
AcDbMText
 10
67.6352779142
 20
0.4125551099
 30
0.0
 40
0.125
 41
0.0
 71
     2
 72
     1
  1
12
  7
SLDTEXTSTYLE1
 73
     1
 44
1.0
  0
MTEXT
  5
235
330
1F
100
AcDbEntity
  8
TITLE
100
AcDbMText
 10
67.6352779142
 20
119.7472007792
 30
0.0
 40
0.125
 41
0.0
 71
     2
 72
     1
  1
12
  7
SLDTEXTSTYLE1
 73
     1
 44
1.0
  0
MTEXT
  5
236
330
1F
100
AcDbEntity
  8
TITLE
100
AcDbMText
 10
69.6037818512
 20
0.4125551099
 30
0.0
 40
0.125
 41
0.0
 71
     2
 72
     1
  1
11
  7
SLDTEXTSTYLE1
 73
     1
 44
1.0
  0
MTEXT
  5
237
330
1F
100
AcDbEntity
  8
TITLE
100
AcDbMText
 10
69.6037818512
 20
119.7472007792
 30
0.0
 40
0.125
 41
0.0
 71
     2
 72
     1
  1
11
  7
SLDTEXTSTYLE1
 73
     1
 44
1.0
  0
MTEXT
  5
238
330
1F
100
AcDbEntity
  8
TITLE
100
AcDbMText
 10
71.5722857882
 20
0.4125551099
 30
0.0
 40
0.125
 41
0.0
 71
     2
 72
     1
  1
10
  7
SLDTEXTSTYLE1
 73
     1
 44
1.0
  0
MTEXT
  5
239
330
1F
100
AcDbEntity
  8
TITLE
100
AcDbMText
 10
71.5722857882
 20
119.7472007792
 30
0.0
 40
0.125
 41
0.0
 71
     2
 72
     1
  1
10
  7
SLDTEXTSTYLE1
 73
     1
 44
1.0
  0
MTEXT
  5
23A
330
1F
100
AcDbEntity
  8
TITLE
100
AcDbMText
 10
73.5420484059
 20
0.4125551099
 30
0.0
 40
0.125
 41
0.0
 71
     2
 72
     1
  1
9
  7
SLDTEXTSTYLE1
 73
     1
 44
1.0
  0
MTEXT
  5
23B
330
1F
100
AcDbEntity
  8
TITLE
100
AcDbMText
 10
73.5420484059
 20
119.7472007792
 30
0.0
 40
0.125
 41
0.0
 71
     2
 72
     1
  1
9
  7
SLDTEXTSTYLE1
 73
     1
 44
1.0
  0
MTEXT
  5
23C
330
1F
100
AcDbEntity
  8
TITLE
100
AcDbMText
 10
75.5105523429
 20
0.4125551099
 30
0.0
 40
0.125
 41
0.0
 71
     2
 72
     1
  1
8
  7
SLDTEXTSTYLE1
 73
     1
 44
1.0
  0
MTEXT
  5
23D
330
1F
100
AcDbEntity
  8
TITLE
100
AcDbMText
 10
75.5105523429
 20
119.7472007792
 30
0.0
 40
0.125
 41
0.0
 71
     2
 72
     1
  1
8
  7
SLDTEXTSTYLE1
 73
     1
 44
1.0
  0
MTEXT
  5
23E
330
1F
100
AcDbEntity
  8
TITLE
100
AcDbMText
 10
77.4790562799
 20
0.4125551099
 30
0.0
 40
0.125
 41
0.0
 71
     2
 72
     1
  1
7
  7
SLDTEXTSTYLE1
 73
     1
 44
1.0
  0
MTEXT
  5
23F
330
1F
100
AcDbEntity
  8
TITLE
100
AcDbMText
 10
77.4790562799
 20
119.7472007792
 30
0.0
 40
0.125
 41
0.0
 71
     2
 72
     1
  1
7
  7
SLDTEXTSTYLE1
 73
     1
 44
1.0
  0
MTEXT
  5
240
330
1F
100
AcDbEntity
  8
TITLE
100
AcDbMText
 10
79.447560217
 20
0.4125551099
 30
0.0
 40
0.125
 41
0.0
 71
     2
 72
     1
  1
6
  7
SLDTEXTSTYLE1
 73
     1
 44
1.0
  0
MTEXT
  5
241
330
1F
100
AcDbEntity
  8
TITLE
100
AcDbMText
 10
79.447560217
 20
119.7472007792
 30
0.0
 40
0.125
 41
0.0
 71
     2
 72
     1
  1
6
  7
SLDTEXTSTYLE1
 73
     1
 44
1.0
  0
MTEXT
  5
242
330
1F
100
AcDbEntity
  8
TITLE
100
AcDbMText
 10
81.416064154
 20
0.4125551099
 30
0.0
 40
0.125
 41
0.0
 71
     2
 72
     1
  1
5
  7
SLDTEXTSTYLE1
 73
     1
 44
1.0
  0
MTEXT
  5
243
330
1F
100
AcDbEntity
  8
TITLE
100
AcDbMText
 10
81.416064154
 20
119.7472007792
 30
0.0
 40
0.125
 41
0.0
 71
     2
 72
     1
  1
5
  7
SLDTEXTSTYLE1
 73
     1
 44
1.0
  0
MTEXT
  5
244
330
1F
100
AcDbEntity
  8
TITLE
100
AcDbMText
 10
83.384568091
 20
0.4125551099
 30
0.0
 40
0.125
 41
0.0
 71
     2
 72
     1
  1
4
  7
SLDTEXTSTYLE1
 73
     1
 44
1.0
  0
MTEXT
  5
245
330
1F
100
AcDbEntity
  8
TITLE
100
AcDbMText
 10
83.384568091
 20
119.7472007792
 30
0.0
 40
0.125
 41
0.0
 71
     2
 72
     1
  1
4
  7
SLDTEXTSTYLE1
 73
     1
 44
1.0
  0
MTEXT
  5
246
330
1F
100
AcDbEntity
  8
TITLE
100
AcDbMText
 10
85.353072028
 20
0.4125551099
 30
0.0
 40
0.125
 41
0.0
 71
     2
 72
     1
  1
3
  7
SLDTEXTSTYLE1
 73
     1
 44
1.0
  0
MTEXT
  5
247
330
1F
100
AcDbEntity
  8
TITLE
100
AcDbMText
 10
85.353072028
 20
119.7472007792
 30
0.0
 40
0.125
 41
0.0
 71
     2
 72
     1
  1
3
  7
SLDTEXTSTYLE1
 73
     1
 44
1.0
  0
MTEXT
  5
248
330
1F
100
AcDbEntity
  8
TITLE
100
AcDbMText
 10
87.321575965
 20
0.4125551099
 30
0.0
 40
0.125
 41
0.0
 71
     2
 72
     1
  1
2
  7
SLDTEXTSTYLE1
 73
     1
 44
1.0
  0
MTEXT
  5
249
330
1F
100
AcDbEntity
  8
TITLE
100
AcDbMText
 10
87.321575965
 20
119.7472007792
 30
0.0
 40
0.125
 41
0.0
 71
     2
 72
     1
  1
2
  7
SLDTEXTSTYLE1
 73
     1
 44
1.0
  0
MTEXT
  5
24A
330
1F
100
AcDbEntity
  8
TITLE
100
AcDbMText
 10
88.9022846264
 20
0.4125551099
 30
0.0
 40
0.125
 41
0.0
 71
     2
 72
     1
  1
1
  7
SLDTEXTSTYLE1
 73
     1
 44
1.0
  0
MTEXT
  5
24B
330
1F
100
AcDbEntity
  8
TITLE
100
AcDbMText
 10
88.9022846264
 20
119.7472007792
 30
0.0
 40
0.125
 41
0.0
 71
     2
 72
     1
  1
1
  7
SLDTEXTSTYLE1
 73
     1
 44
1.0
  0
LINE
  5
24C
330
1F
100
AcDbEntity
  8
0
  6
SLD-Solid
 62
     7
370
    25
100
AcDbLine
 10
57.0837559596
 20
27.8898334301
 30
0.0
 11
22.1957559596
 21
27.8898334301
 31
0.0
  0
LINE
  5
24D
330
1F
100
AcDbEntity
  8
0
  6
SLD-Solid
 62
     7
370
    25
100
AcDbLine
 10
22.1957559596
 20
26.6358334301
 30
0.0
 11
57.0837559596
 21
26.6358334301
 31
0.0
  0
ARC
  5
24E
330
1F
100
AcDbEntity
  8
0
  6
SLD-Solid
 62
     7
370
    25
100
AcDbCircle
 10
22.0957559596
 20
28.6628334301
 30
0.0
 40
0.0999999999999979
100
AcDbArc
 50
0.0
 51
90.0
  0
ARC
  5
24F
330
1F
100
AcDbEntity
  8
0
  6
SLD-Solid
 62
     7
370
    25
100
AcDbCircle
 10
22.0957559596
 20
25.8628334301
 30
0.0
 40
0.1000000000000014
100
AcDbArc
 50
270.0
 51
0.0
  0
LINE
  5
250
330
1F
100
AcDbEntity
  8
0
  6
SLD-Solid
 62
     7
370
    25
100
AcDbLine
 10
21.6397559596
 20
25.7628334301
 30
0.0
 11
22.0957559596
 21
25.7628334301
 31
0.0
  0
LINE
  5
251
330
1F
100
AcDbEntity
  8
0
  6
SLD-Solid
 62
     7
370
    25
100
AcDbLine
 10
22.0957559596
 20
28.7628334301
 30
0.0
 11
21.6397559596
 21
28.7628334301
 31
0.0
  0
ARC
  5
252
330
1F
100
AcDbEntity
  8
0
  6
SLD-Solid
 62
     7
370
    25
100
AcDbCircle
 10
57.1837559596
 20
25.8628334301
 30
0.0
 40
0.1000000000000014
100
AcDbArc
 50
180.0
 51
270.0
  0
ARC
  5
253
330
1F
100
AcDbEntity
  8
0
  6
SLD-Solid
 62
     7
370
    25
100
AcDbCircle
 10
57.1837559596
 20
28.6628334301
 30
0.0
 40
0.1000000000000014
100
AcDbArc
 50
90.0
 51
180.0
  0
LINE
  5
254
330
1F
100
AcDbEntity
  8
0
  6
SLD-Solid
 62
     7
370
    25
100
AcDbLine
 10
57.6397559596
 20
28.7628334301
 30
0.0
 11
57.1837559596
 21
28.7628334301
 31
0.0
  0
LINE
  5
255
330
1F
100
AcDbEntity
  8
0
  6
SLD-Solid
 62
     7
370
    25
100
AcDbLine
 10
57.1837559596
 20
25.7628334301
 30
0.0
 11
57.6397559596
 21
25.7628334301
 31
0.0
  0
LINE
  5
256
330
1F
100
AcDbEntity
  8
0
  6
SLD-Solid
 62
     7
370
    25
100
AcDbLine
 10
57.6397559596
 20
28.2498334301
 30
0.0
 11
58.5866886444
 21
28.2498334301
 31
0.0
  0
LINE
  5
257
330
1F
100
AcDbEntity
  8
0
  6
SLD-Solid
 62
     7
370
    25
100
AcDbLine
 10
58.5866886444
 20
28.3998334301
 30
0.0
 11
57.6397559596
 21
28.3998334301
 31
0.0
  0
LINE
  5
258
330
1F
100
AcDbEntity
  8
0
  6
SLD-Solid
 62
     7
370
    25
100
AcDbLine
 10
58.5866886444
 20
28.2498334301
 30
0.0
 11
58.6866886444
 21
28.2842661914
 31
0.0
  0
LINE
  5
259
330
1F
100
AcDbEntity
  8
0
  6
SLD-Solid
 62
     7
370
    25
100
AcDbLine
 10
58.6866886444
 20
28.3654006688
 30
0.0
 11
58.5866886444
 21
28.3998334301
 31
0.0
  0
LINE
  5
25A
330
1F
100
AcDbEntity
  8
0
  6
SLD-Solid
 62
     7
370
    25
100
AcDbLine
 10
21.6397559596
 20
28.3998334301
 30
0.0
 11
20.6928232747
 21
28.3998334301
 31
0.0
  0
LINE
  5
25B
330
1F
100
AcDbEntity
  8
0
  6
SLD-Solid
 62
     7
370
    25
100
AcDbLine
 10
20.6928232747
 20
28.2498334301
 30
0.0
 11
21.6397559596
 21
28.2498334301
 31
0.0
  0
LINE
  5
25C
330
1F
100
AcDbEntity
  8
0
  6
SLD-Solid
 62
     7
370
    25
100
AcDbLine
 10
20.6928232747
 20
28.3998334301
 30
0.0
 11
20.5928232747
 21
28.3654006688
 31
0.0
  0
LINE
  5
25D
330
1F
100
AcDbEntity
  8
0
  6
SLD-Solid
 62
     7
370
    25
100
AcDbLine
 10
20.5928232747
 20
28.2842661914
 30
0.0
 11
20.6928232747
 21
28.2498334301
 31
0.0
  0
LINE
  5
25E
330
1F
100
AcDbEntity
  8
0
  6
SLD-Solid
 62
     7
370
    25
100
AcDbLine
 10
57.6397559596
 20
26.1258334301
 30
0.0
 11
58.5866886444
 21
26.1258334301
 31
0.0
  0
LINE
  5
25F
330
1F
100
AcDbEntity
  8
0
  6
SLD-Solid
 62
     7
370
    25
100
AcDbLine
 10
58.5866886444
 20
26.2758334301
 30
0.0
 11
57.6397559596
 21
26.2758334301
 31
0.0
  0
LINE
  5
260
330
1F
100
AcDbEntity
  8
0
  6
SLD-Solid
 62
     7
370
    25
100
AcDbLine
 10
58.5866886444
 20
26.1258334301
 30
0.0
 11
58.6866886444
 21
26.1602661914
 31
0.0
  0
LINE
  5
261
330
1F
100
AcDbEntity
  8
0
  6
SLD-Solid
 62
     7
370
    25
100
AcDbLine
 10
58.6866886444
 20
26.2414006688
 30
0.0
 11
58.5866886444
 21
26.2758334301
 31
0.0
  0
LINE
  5
262
330
1F
100
AcDbEntity
  8
0
  6
SLD-Solid
 62
     7
370
    25
100
AcDbLine
 10
21.6397559596
 20
26.2758334301
 30
0.0
 11
20.6928232747
 21
26.2758334301
 31
0.0
  0
LINE
  5
263
330
1F
100
AcDbEntity
  8
0
  6
SLD-Solid
 62
     7
370
    25
100
AcDbLine
 10
20.6928232747
 20
26.1258334301
 30
0.0
 11
21.6397559596
 21
26.1258334301
 31
0.0
  0
LINE
  5
264
330
1F
100
AcDbEntity
  8
0
  6
SLD-Solid
 62
     7
370
    25
100
AcDbLine
 10
20.6928232747
 20
26.2758334301
 30
0.0
 11
20.5928232747
 21
26.2414006688
 31
0.0
  0
LINE
  5
265
330
1F
100
AcDbEntity
  8
0
  6
SLD-Solid
 62
     7
370
    25
100
AcDbLine
 10
20.5928232747
 20
26.1602661914
 30
0.0
 11
20.6928232747
 21
26.1258334301
 31
0.0
  0
LINE
  5
266
330
1F
100
AcDbEntity
  8
0
  6
SLD-Solid
 62
     7
370
    25
100
AcDbLine
 10
22.1957559596
 20
28.6628334301
 30
0.0
 11
22.1957559596
 21
25.8628334327
 31
0.0
  0
LINE
  5
267
330
1F
100
AcDbEntity
  8
0
  6
SLD-Solid
 62
     7
370
    25
100
AcDbLine
 10
21.6397559596
 20
28.7628334301
 30
0.0
 11
21.6397559596
 21
25.7628334301
 31
0.0
  0
LINE
  5
268
330
1F
100
AcDbEntity
  8
0
  6
SLD-Solid
 62
     7
370
    25
100
AcDbLine
 10
57.0837559596
 20
25.8628334301
 30
0.0
 11
57.0837559596
 21
28.6628334275
 31
0.0
  0
LINE
  5
269
330
1F
100
AcDbEntity
  8
0
  6
SLD-Solid
 62
     7
370
    25
100
AcDbLine
 10
57.6397559596
 20
25.7628334301
 30
0.0
 11
57.6397559596
 21
28.7628334301
 31
0.0
  0
LINE
  5
26A
330
1F
100
AcDbEntity
  8
0
  6
SLD-Solid
 62
     7
370
    25
100
AcDbLine
 10
58.5866886444
 20
28.2498334301
 30
0.0
 11
58.5866886444
 21
28.3998334301
 31
0.0
  0
LINE
  5
26B
330
1F
100
AcDbEntity
  8
0
  6
SLD-Solid
 62
     7
370
    25
100
AcDbLine
 10
58.6866886444
 20
28.3654006688
 30
0.0
 11
58.6866886444
 21
28.2842661914
 31
0.0
  0
LINE
  5
26C
330
1F
100
AcDbEntity
  8
0
  6
SLD-Solid
 62
     7
370
    25
100
AcDbLine
 10
20.6928232747
 20
28.3551455469
 30
0.0
 11
20.6928232747
 21
28.2498334301
 31
0.0
  0
LINE
  5
26D
330
1F
100
AcDbEntity
  8
0
  6
SLD-Solid
 62
     7
370
    25
100
AcDbLine
 10
20.6928232747
 20
28.3998334301
 30
0.0
 11
20.6928232747
 21
28.3551455469
 31
0.0
  0
LINE
  5
26E
330
1F
100
AcDbEntity
  8
0
  6
SLD-Solid
 62
     7
370
    25
100
AcDbLine
 10
20.5928232747
 20
28.3412291485
 30
0.0
 11
20.5928232747
 21
28.3654006688
 31
0.0
  0
LINE
  5
26F
330
1F
100
AcDbEntity
  8
0
  6
SLD-Solid
 62
     7
370
    25
100
AcDbLine
 10
20.5928232747
 20
28.2842661914
 30
0.0
 11
20.5928232747
 21
28.3412291485
 31
0.0
  0
LINE
  5
270
330
1F
100
AcDbEntity
  8
0
  6
SLD-Solid
 62
     7
370
    25
100
AcDbLine
 10
58.5866886444
 20
26.1258334301
 30
0.0
 11
58.5866886444
 21
26.2758334301
 31
0.0
  0
LINE
  5
271
330
1F
100
AcDbEntity
  8
0
  6
SLD-Solid
 62
     7
370
    25
100
AcDbLine
 10
58.6866886444
 20
26.2414006688
 30
0.0
 11
58.6866886444
 21
26.1602661914
 31
0.0
  0
LINE
  5
272
330
1F
100
AcDbEntity
  8
0
  6
SLD-Solid
 62
     7
370
    25
100
AcDbLine
 10
20.6928232747
 20
26.216963712
 30
0.0
 11
20.6928232747
 21
26.1258334301
 31
0.0
  0
LINE
  5
273
330
1F
100
AcDbEntity
  8
0
  6
SLD-Solid
 62
     7
370
    25
100
AcDbLine
 10
20.6928232747
 20
26.2758334301
 30
0.0
 11
20.6928232747
 21
26.216963712
 31
0.0
  0
LINE
  5
274
330
1F
100
AcDbEntity
  8
0
  6
SLD-Solid
 62
     7
370
    25
100
AcDbLine
 10
20.5928232747
 20
26.2095582434
 30
0.0
 11
20.5928232747
 21
26.2414006688
 31
0.0
  0
LINE
  5
275
330
1F
100
AcDbEntity
  8
0
  6
SLD-Solid
 62
     7
370
    25
100
AcDbLine
 10
20.5928232747
 20
26.1602661914
 30
0.0
 11
20.5928232747
 21
26.2095582434
 31
0.0
  0
DIMENSION
  5
276
330
1F
100
AcDbEntity
  8
DIMS
100
AcDbDimension
  2
_D
 10
21.6397559596
 20
31.046297997
 30
0.0
 11
40.128954528
 21
31.046297997
 31
0.0
 70
   160
  1
<>
 71
     2
 42
-1.0
  3
SLDDIMSTYLE0
100
AcDbAlignedDimension
 13
57.6397559596
 23
27.8898334301
 33
0.0
 14
21.6397559596
 24
27.8898334301
 34
0.0
100
AcDbRotatedDimension
  0
DIMENSION
  5
288
330
1F
100
AcDbEntity
  8
DIMS
100
AcDbDimension
  2
_D_1
 10
54.157778009
 20
26.6358334301
 30
0.0
 11
54.157778009
 21
29.1565342175
 31
0.0
 70
   160
  1
%%c<>
 71
     2
 42
-1.0
  3
SLDDIMSTYLE1
100
AcDbAlignedDimension
 13
57.6397559596
 23
27.8898334301
 33
0.0
 14
57.6397559596
 24
26.6358334301
 34
0.0
 50
90.0
100
AcDbRotatedDimension
  0
DIMENSION
  5
298
330
1F
100
AcDbEntity
  8
DIMS
100
AcDbDimension
  2
_D_2
 10
57.0837559596
 20
29.8651956348
 30
0.0
 11
55.6576811117
 21
29.8651956348
 31
0.0
 70
   160
  1
<>
 71
     2
 42
-1.0
  3
SLDDIMSTYLE1
100
AcDbAlignedDimension
 13
57.6397559596
 23
28.7628334301
 33
0.0
 14
57.0837559596
 24
28.6628334301
 34
0.0
100
AcDbRotatedDimension
  0
MTEXT
  5
2A6
330
1F
100
AcDbEntity
  8
NOTES
100
AcDbMText
 10
22.6388505286
 20
25.421046557
 30
0.0
 40
0.5
 41
0.0
 71
     1
 72
     1
  1
Front view
  7
SLDTEXTSTYLE1
 73
     1
 44
1.0
  0
CIRCLE
  5
2A7
330
1F
100
AcDbEntity
  8
0
  6
SLD-Solid
 62
     7
370
    25
100
AcDbCircle
 10
63.783832472
 20
27.2628334301
 30
0.0
 40
0.5849999999999937
  0
CIRCLE
  5
2A8
330
1F
100
AcDbEntity
  8
0
  6
SLD-Solid
 62
     7
370
    25
100
AcDbCircle
 10
63.783832472
 20
27.2628334301
 30
0.0
 40
0.6269999999999953
  0
CIRCLE
  5
2A9
330
1F
100
AcDbEntity
  8
0
  6
SLD-Solid
 62
     7
370
    25
100
AcDbCircle
 10
63.783832472
 20
27.2628334301
 30
0.0
 40
1.5
  0
CIRCLE
  5
2AA
330
1F
100
AcDbEntity
  8
0
  6
SLD-Solid
 62
     7
370
    25
100
AcDbCircle
 10
63.783832472
 20
27.2628334301
 30
0.0
 40
1.449999999999999
  0
CIRCLE
  5
2AB
330
1F
100
AcDbEntity
  8
0
  6
SLD-Solid
 62
     7
370
    25
100
AcDbCircle
 10
63.783832472
 20
26.2008334301
 30
0.0
 40
0.1120000000000019
  0
CIRCLE
  5
2AC
330
1F
100
AcDbEntity
  8
0
  6
SLD-Solid
 62
     7
370
    25
100
AcDbCircle
 10
63.783832472
 20
26.2008334301
 30
0.0
 40
0.1782506496674401
  0
CIRCLE
  5
2AD
330
1F
100
AcDbEntity
  8
0
  6
SLD-Solid
 62
     7
370
    25
100
AcDbCircle
 10
63.783832472
 20
26.2008334301
 30
0.0
 40
0.3042972266507888
  0
CIRCLE
  5
2AE
330
1F
100
AcDbEntity
  8
0
  6
SLD-Solid
 62
     7
370
    25
100
AcDbCircle
 10
63.783832472
 20
28.3248334301
 30
0.0
 40
0.1782506496674365
  0
CIRCLE
  5
2AF
330
1F
100
AcDbEntity
  8
0
  6
SLD-Solid
 62
     7
370
    25
100
AcDbCircle
 10
63.783832472
 20
28.3248334301
 30
0.0
 40
0.1119999999999983
  0
CIRCLE
  5
2B0
330
1F
100
AcDbEntity
  8
0
  6
SLD-Solid
 62
     7
370
    25
100
AcDbCircle
 10
63.783832472
 20
28.3248334301
 30
0.0
 40
0.3042972266507959
  0
CIRCLE
  5
2B1
330
1F
100
AcDbEntity
  8
0
  6
SLD-Solid
 62
     7
370
    25
100
AcDbCircle
 10
63.783832472
 20
27.2628334301
 30
0.0
 40
0.6424999999999947
  0
CIRCLE
  5
2B2
330
1F
100
AcDbEntity
  8
0
  6
SLD-Solid
 62
     7
370
    25
100
AcDbCircle
 10
63.783832472
 20
28.3248334301
 30
0.0
 40
0.0405672386710332
  0
CIRCLE
  5
2B3
330
1F
100
AcDbEntity
  8
0
  6
SLD-Solid
 62
     7
370
    25
100
AcDbCircle
 10
63.783832472
 20
28.3248334301
 30
0.0
 40
0.0749999999999988
  0
CIRCLE
  5
2B4
330
1F
100
AcDbEntity
  8
0
  6
SLD-Solid
 62
     7
370
    25
100
AcDbCircle
 10
63.783832472
 20
28.3248334301
 30
0.0
 40
0.0833720538099962
  0
CIRCLE
  5
2B5
330
1F
100
AcDbEntity
  8
0
  6
SLD-Solid
 62
     7
370
    25
100
AcDbCircle
 10
63.783832472
 20
26.2008334301
 30
0.0
 40
0.0405672386710286
  0
CIRCLE
  5
2B6
330
1F
100
AcDbEntity
  8
0
  6
SLD-Solid
 62
     7
370
    25
100
AcDbCircle
 10
63.783832472
 20
26.2008334301
 30
0.0
 40
0.0750000000000007
  0
CIRCLE
  5
2B7
330
1F
100
AcDbEntity
  8
0
  6
SLD-Solid
 62
     7
370
    25
100
AcDbCircle
 10
63.783832472
 20
26.2008334301
 30
0.0
 40
0.083372053809989
  0
DIMENSION
  5
2B8
330
1F
100
AcDbEntity
  8
DIMS
100
AcDbDimension
  2
_D_3
 10
64.533832472
 20
25.9637953244
 30
0.0
 11
61.2886762135
 21
29.9133523512
 31
0.0
 70
   163
  1
<>
 71
     1
 42
-1.0
  3
SLDDIMSTYLE2
100
AcDbDiametricDimension
 15
63.033832472
 25
28.5618715358
 35
0.0
 40
0.0
  0
DIMENSION
  5
2C2
330
1F
100
AcDbEntity
  8
DIMS
100
AcDbDimension
  2
_D_4
 10
67.3470272845
 20
26.2008334301
 30
0.0
 11
67.3470272845
 21
27.2103479545
 31
0.0
 70
   160
  1
<>
 71
     2
 42
-1.0
  3
SLDDIMSTYLE3
100
AcDbAlignedDimension
 13
63.783832472
 23
28.3248334301
 33
0.0
 14
63.783832472
 24
26.2008334301
 34
0.0
 50
90.0
100
AcDbRotatedDimension
  0
MTEXT
  5
2D2
330
1F
100
AcDbEntity
  8
NOTES
100
AcDbMText
 10
62.671763148
 20
25.1253395709
 30
0.0
 40
0.5
 41
0.0
 71
     1
 72
     1
  1
Side view
  7
SLDTEXTSTYLE1
 73
     1
 44
1.0
  0
LINE
  5
2D3
330
1F
100
AcDbEntity
  8
0
  6
SLD-Solid
 62
     7
370
    25
100
AcDbLine
 10
55.7371853478
 20
35.6722805378
 30
0.0
 11
55.235518745
 21
35.808622771
 31
0.0
  0
LINE
  5
2D4
330
1F
100
AcDbEntity
  8
0
  6
SLD-Solid
 62
     7
370
    25
100
AcDbLine
 10
54.7529218855
 20
35.9397822566
 30
0.0
 11
24.3357184098
 21
44.2065263994
 31
0.0
  0
LINE
  5
2D5
330
1F
100
AcDbEntity
  8
0
  6
SLD-Solid
 62
     7
370
    25
100
AcDbLine
 10
24.0068378595
 20
42.9964216174
 30
0.0
 11
54.423779059
 21
34.7297487555
 31
0.0
  0
LINE
  5
2D6
330
1F
100
AcDbEntity
  8
0
  6
SLD-Solid
 62
     7
370
    25
100
AcDbLine
 10
54.9066381946
 20
34.5985179889
 30
0.0
 11
55.4083047974
 21
34.4621757557
 31
0.0
  0
SPLINE
  5
2D7
330
1F
100
AcDbEntity
  8
0
  6
SLD-Solid
 62
     7
370
    25
100
AcDbSpline
210
0.0
220
0.0
230
1.0
 70
     8
 71
     3
 72
    21
 73
    17
 74
     0
 42
0.00000001
 43
0.00000001
 40
0.0
 40
0.0
 40
0.0
 40
0.0
 40
0.0192459515699146
 40
0.0909959172938767
 40
0.1627592930926323
 40
0.2361855675245911
 40
0.3125741268751806
 40
0.392283124062262
 40
0.4746200878456254
 40
0.5583394267320858
 40
0.6423220006721067
 40
0.7259802317064945
 40
0.8092044101407365
 40
0.892017493023937
 40
0.9744850666590115
 40
1.0
 40
1.0
 40
1.0
 40
1.0
 10
23.73983379920066
 20
42.16564846382515
 30
0.0
 10
23.74518301203695
 20
42.16372966022067
 30
0.0
 10
23.77047438446247
 20
42.15465745127
 30
0.0
 10
23.81904069047258
 20
42.15061028822492
 30
0.0
 10
23.88355995538567
 20
42.15378118837958
 30
0.0
 10
23.94924330026828
 20
42.16958669635162
 30
0.0
 10
24.01597753620494
 20
42.19687285667735
 30
0.0
 10
24.08391109948832
 20
42.23632628288728
 30
0.0
 10
24.15255546488374
 20
42.28796276338285
 30
0.0
 10
24.22106933564546
 20
42.35136378026041
 30
0.0
 10
24.2885543509131
 20
42.42558683804979
 30
0.0
 10
24.35429467529691
 20
42.50962243954102
 30
0.0
 10
24.41790044701535
 20
42.60235914196949
 30
0.0
 10
24.47871406779324
 20
42.70353437837842
 30
0.0
 10
24.52404178642906
 20
42.7857362266089
 30
0.0
 10
24.54788259139123
 20
42.83597535875415
 30
0.0
 10
24.55351587928609
 20
42.84784624547175
 30
0.0
  0
SPLINE
  5
2D8
330
1F
100
AcDbEntity
  8
0
  6
SLD-Solid
 62
     7
370
    25
100
AcDbSpline
210
0.0
220
0.0
230
1.0
 70
     8
 71
     3
 72
    21
 73
    17
 74
     0
 42
0.00000001
 43
0.00000001
 40
0.0
 40
0.0
 40
0.0
 40
0.0
 40
0.0114674686468235
 40
0.0936429563603876
 40
0.1760692329779124
 40
0.2588200693265926
 40
0.341979835333047
 40
0.4256352331503175
 40
0.5098466610662764
 40
0.5945709005446682
 40
0.6793652794231692
 40
0.7630567308957964
 40
0.8357706233615632
 40
0.9132684723771182
 40
0.9874152716893403
 40
1.0
 40
1.0
 40
1.0
 40
1.0
 10
24.88265870578972
 20
44.05787974650838
 30
0.0
 10
24.88320891482274
 20
44.06377830521328
 30
0.0
 10
24.887701902949
 20
44.11194573364965
 30
0.0
 10
24.89047560300794
 20
44.19889834648081
 30
0.0
 10
24.89045349988865
 20
44.3173786735071
 30
0.0
 10
24.88369640959651
 20
44.43004915451019
 30
0.0
 10
24.87081757362364
 20
44.53657452758988
 30
0.0
 10
24.85146785564607
 20
44.63610996575762
 30
0.0
 10
24.82548919809754
 20
44.72799204459248
 30
0.0
 10
24.79259846018143
 20
44.81140401707677
 30
0.0
 10
24.75260238662994
 20
44.88530168509067
 30
0.0
 10
24.70711760546475
 20
44.946103149705
 30
0.0
 10
24.65596123831314
 20
44.99580593678343
 30
0.0
 10
24.59999260600317
 20
45.03216152485276
 30
0.0
 10
24.55549497985192
 20
45.05317374447468
 30
0.0
 10
24.53030635901926
 20
45.05769193019965
 30
0.0
 10
24.52665149488407
 20
45.05834751809674
 30
0.0
  0
LINE
  5
2D9
330
1F
100
AcDbEntity
  8
0
  6
SLD-Solid
 62
     7
370
    25
100
AcDbLine
 10
23.3402949047
 20
42.2729065969
 30
0.0
 11
23.7435895682
 21
42.1632997489
 31
0.0
  0
LINE
  5
2DA
330
1F
100
AcDbEntity
  8
0
  6
SLD-Solid
 62
     7
370
    25
100
AcDbLine
 10
24.5303851432
 20
45.0582872658
 30
0.0
 11
24.1270904797
 21
45.1678941138
 31
0.0
  0
SPLINE
  5
2DB
330
1F
100
AcDbEntity
  8
0
  6
SLD-Solid
 62
     7
370
    25
100
AcDbSpline
210
0.0
220
0.0
230
1.0
 70
     8
 71
     3
 72
    19
 73
    15
 74
     0
 42
0.00000001
 43
0.00000001
 40
0.0
 40
0.0
 40
0.0
 40
0.0
 40
0.0559687513876587
 40
0.1282793472515464
 40
0.2050615546783614
 40
0.2872937394949011
 40
0.3740233339347588
 40
0.4638503446948377
 40
0.5554705246396671
 40
0.6477878122580365
 40
0.7396623330819808
 40
0.8299574712701635
 40
0.9175241812957178
 40
0.9999999999999999
 40
0.9999999999999999
 40
0.9999999999999999
 40
0.9999999999999999
 10
24.09693359884592
 20
44.29126794097893
 30
0.0
 10
24.09627689974404
 20
44.29239256341064
 30
0.0
 10
24.09477175749874
 20
44.29497017730885
 30
0.0
 10
24.08919033308398
 20
44.31262598486962
 30
0.0
 10
24.08501807334236
 20
44.34097325116461
 30
0.0
 10
24.08370331091526
 20
44.37953456077643
 30
0.0
 10
24.08671791359021
 20
44.4260956861857
 30
0.0
 10
24.09461044554807
 20
44.47817576839593
 30
0.0
 10
24.10739952617235
 20
44.53263310813613
 30
0.0
 10
24.12451169227746
 20
44.58617322320162
 30
0.0
 10
24.14494028908144
 20
44.63564576427502
 30
0.0
 10
24.16698199152288
 20
44.67773679739394
 30
0.0
 10
24.18908806578217
 20
44.7109244562343
 30
0.0
 10
24.20103873302471
 20
44.72370729222813
 30
0.0
 10
24.20683517155249
 20
44.72990735801066
 30
0.0
  0
SPLINE
  5
2DC
330
1F
100
AcDbEntity
  8
0
  6
SLD-Solid
 62
     7
370
    25
100
AcDbSpline
210
0.0
220
0.0
230
1.0
 70
     8
 71
     3
 72
     9
 73
     5
 74
     0
 42
0.00000001
 43
0.00000001
 40
0.0
 40
0.0
 40
0.0
 40
0.0
 40
0.4944575831257009
 40
1.0
 40
1.0
 40
1.0
 40
1.0
 10
24.20683517155249
 20
44.72990735801066
 30
0.0
 10
24.20971273865973
 20
44.7325183191547
 30
0.0
 10
24.21553238266043
 20
44.7377987744114
 30
0.0
 10
24.2171095410116
 20
44.73859906014706
 30
0.0
 10
24.21790686145625
 20
44.73900363853204
 30
0.0
  0
SPLINE
  5
2DD
330
1F
100
AcDbEntity
  8
0
  6
SLD-Solid
 62
     7
370
    25
100
AcDbSpline
210
0.0
220
0.0
230
1.0
 70
     8
 71
     3
 72
    19
 73
    15
 74
     0
 42
0.00000001
 43
0.00000001
 40
0.0
 40
0.0
 40
0.0
 40
0.0
 40
0.0559687513876859
 40
0.1282793472515723
 40
0.2050615546783855
 40
0.2872937394949219
 40
0.3740233339347768
 40
0.463850344694853
 40
0.5554705246396799
 40
0.6477878122580467
 40
0.7396623330819876
 40
0.829957471270168
 40
0.917524181295719
 40
0.9999999999999999
 40
0.9999999999999999
 40
0.9999999999999999
 40
0.9999999999999999
 10
24.09693359884593
 20
42.47064459428761
 30
0.0
 10
24.09627689974405
 20
42.4717692167193
 30
0.0
 10
24.09477175749875
 20
42.47434683061752
 30
0.0
 10
24.08919033308398
 20
42.49200263817828
 30
0.0
 10
24.08501807334238
 20
42.52034990447327
 30
0.0
 10
24.08370331091528
 20
42.5589112140851
 30
0.0
 10
24.08671791359022
 20
42.60547233949436
 30
0.0
 10
24.09461044554808
 20
42.6575524217046
 30
0.0
 10
24.10739952617237
 20
42.7120097614448
 30
0.0
 10
24.12451169227747
 20
42.76554987651029
 30
0.0
 10
24.14494028908145
 20
42.81502241758368
 30
0.0
 10
24.16698199152288
 20
42.85711345070261
 30
0.0
 10
24.18908806578218
 20
42.89030110954295
 30
0.0
 10
24.20103873302472
 20
42.90308394553679
 30
0.0
 10
24.20683517155249
 20
42.90928401131933
 30
0.0
  0
SPLINE
  5
2DE
330
1F
100
AcDbEntity
  8
0
  6
SLD-Solid
 62
     7
370
    25
100
AcDbSpline
210
0.0
220
0.0
230
1.0
 70
     8
 71
     3
 72
     9
 73
     5
 74
     0
 42
0.00000001
 43
0.00000001
 40
0.0
 40
0.0
 40
0.0
 40
0.0
 40
0.4944575831255573
 40
1.0
 40
1.0
 40
1.0
 40
1.0
 10
24.20683517155249
 20
42.90928401131933
 30
0.0
 10
24.20971273865974
 20
42.91189497246337
 30
0.0
 10
24.21553238266045
 20
42.91717542772007
 30
0.0
 10
24.21710954101161
 20
42.91797571345572
 30
0.0
 10
24.21790686145626
 20
42.91838029184071
 30
0.0
  0
LINE
  5
2DF
330
1F
100
AcDbEntity
  8
0
  6
SLD-Solid
 62
     7
370
    25
100
AcDbLine
 10
55.9661428601
 20
36.5147219052
 30
0.0
 11
55.5628481966
 21
36.6243287532
 31
0.0
  0
LINE
  5
2E0
330
1F
100
AcDbEntity
  8
0
  6
SLD-Solid
 62
     7
370
    25
100
AcDbLine
 10
54.7760526216
 20
33.7293412362
 30
0.0
 11
55.1793472851
 21
33.6197343883
 31
0.0
  0
SPLINE
  5
2E1
330
1F
100
AcDbEntity
  8
0
  6
SLD-Solid
 62
     7
370
    25
100
AcDbSpline
210
0.0
220
0.0
230
1.0
 70
     8
 71
     3
 72
    43
 73
    39
 74
     0
 42
0.00000001
 43
0.00000001
 40
0.0
 40
0.0
 40
0.0
 40
0.0
 40
0.0061774704910691
 40
0.0320473466482263
 40
0.0579220578874723
 40
0.0843963371023785
 40
0.1119386857332629
 40
0.1406782379411924
 40
0.1703653191089613
 40
0.2005508238280041
 40
0.2308312395085653
 40
0.2609947114287154
 40
0.2910016831066952
 40
0.3208604318428674
 40
0.3505946051681662
 40
0.3802300220576516
 40
0.4097903007059318
 40
0.4392959695524907
 40
0.4687648120992723
 40
0.4982125815378758
 40
0.5276537845000124
 40
0.5571005182762776
 40
0.5865642827308675
 40
0.6160600969417394
 40
0.6456046067566216
 40
0.6752169585824711
 40
0.7049196834558634
 40
0.7347393650667818
 40
0.7647064065441862
 40
0.7948520514466066
 40
0.8251980646019733
 40
0.8557288719925757
 40
0.8862849544700757
 40
0.9164435914892065
 40
0.9426464097046415
 40
0.9705731508125778
 40
0.9972923242435582
 40
0.9999999999999999
 40
0.9999999999999999
 40
0.9999999999999999
 40
0.9999999999999999
 10
55.5648331583905
 20
36.62257852196817
 30
0.0
 10
55.56006904191229
 20
36.62427890589527
 30
0.0
 10
55.53535386237879
 20
36.63310012053738
 30
0.0
 10
55.48738881650258
 20
36.63698800275309
 30
0.0
 10
55.42288007701851
 20
36.63385560526595
 30
0.0
 10
55.35719382131295
 20
36.61803947100243
 30
0.0
 10
55.29046042433077
 20
36.59075628779934
 30
0.0
 10
55.22252656146415
 20
36.55130213138629
 30
0.0
 10
55.15388251746771
 20
36.49966539800194
 30
0.0
 10
55.08536765231634
 20
36.4362662015529
 30
0.0
 10
55.01788630317546
 20
36.36203608565332
 30
0.0
 10
54.95213238154321
 20
36.27802675616168
 30
0.0
 10
54.88857697046285
 20
36.18519272401021
 30
0.0
 10
54.82757675771194
 20
36.08437811214003
 30
0.0
 10
54.76947585753155
 20
35.97641931773426
 30
0.0
 10
54.71462330980079
 20
35.86217870433251
 30
0.0
 10
54.6633722098842
 20
35.74255917578832
 30
0.0
 10
54.6160725899457
 20
35.6185063892331
 30
0.0
 10
54.57306332973203
 20
35.49100430344003
 30
0.0
 10
54.53466493159539
 20
35.36106718724218
 30
0.0
 10
54.50117442559044
 20
35.22973258976929
 30
0.0
 10
54.47286071972006
 20
35.09805171151871
 30
0.0
 10
54.44996020355601
 20
34.96707363855765
 30
0.0
 10
54.43267534683087
 20
34.83783010580007
 30
0.0
 10
54.42117616183727
 20
34.7113221028176
 30
0.0
 10
54.41560445295035
 20
34.58851143972687
 30
0.0
 10
54.41608063938532
 20
34.4703087547211
 30
0.0
 10
54.42271535278588
 20
34.35756345113588
 30
0.0
 10
54.43562721513594
 20
34.25105826013731
 30
0.0
 10
54.45496801838533
 20
34.15151741422891
 30
0.0
 10
54.48094904196579
 20
34.05963661987359
 30
0.0
 10
54.5138393129016
 20
33.97622497172998
 30
0.0
 10
54.55383487008093
 20
33.90232471725449
 30
0.0
 10
54.59932204378096
 20
33.84153272018472
 30
0.0
 10
54.65047031972671
 20
33.79179838097505
 30
0.0
 10
54.70646969799317
 20
33.75556256553769
 30
0.0
 10
54.74951474778297
 20
33.73489277122081
 30
0.0
 10
54.77320294726889
 20
33.73053064485929
 30
0.0
 10
54.77538258814901
 20
33.73012926910476
 30
0.0
  0
LINE
  5
2E2
330
1F
100
AcDbEntity
  8
0
  6
SLD-Solid
 62
     7
370
    25
100
AcDbLine
 10
55.0959617969
 20
33.9947411171
 30
0.0
 11
55.2363257495
 21
34.0774444457
 31
0.0
  0
LINE
  5
2E3
330
1F
100
AcDbEntity
  8
0
  6
SLD-Solid
 62
     7
370
    25
100
AcDbLine
 10
55.3228319582
 20
34.3957410939
 30
0.0
 11
55.264075725
 21
34.5013741271
 31
0.0
  0
LINE
  5
2E4
330
1F
100
AcDbEntity
  8
0
  6
SLD-Solid
 62
     7
370
    25
100
AcDbLine
 10
56.3951343858
 20
35.6771942729
 30
0.0
 11
56.4905064171
 21
35.6865506787
 31
0.0
  0
LINE
  5
2E5
330
1F
100
AcDbEntity
  8
0
  6
SLD-Solid
 62
     7
370
    25
100
AcDbLine
 10
56.5115434716
 20
35.7639558044
 30
0.0
 11
56.4340273236
 21
35.8202995128
 31
0.0
  0
LINE
  5
2E6
330
1F
100
AcDbEntity
  8
0
  6
SLD-Solid
 62
     7
370
    25
100
AcDbLine
 10
55.317499473
 20
35.9691895624
 30
0.0
 11
56.3905596097
 21
35.6775548101
 31
0.0
  0
LINE
  5
2E7
330
1F
100
AcDbEntity
  8
0
  6
SLD-Solid
 62
     7
370
    25
100
AcDbLine
 10
56.4298993885
 20
35.822304186
 30
0.0
 11
55.4010806035
 21
36.1019150868
 31
0.0
  0
SPLINE
  5
2E8
330
1F
100
AcDbEntity
  8
0
  6
SLD-Solid
 62
     7
370
    25
100
AcDbSpline
210
0.0
220
0.0
230
1.0
 70
     8
 71
     3
 72
    12
 73
     8
 74
     0
 42
0.00000001
 43
0.00000001
 40
0.0
 40
0.0
 40
0.0
 40
0.0
 40
0.2230522853757212
 40
0.4592908411197944
 40
0.701853956863987
 40
0.9104852558723868
 40
1.0
 40
1.0
 40
1.0
 40
1.0
 10
24.19154025018778
 20
44.53589326817736
 30
0.0
 10
24.19364520476397
 20
44.54938755674713
 30
0.0
 10
24.19797955335039
 20
44.57717388109291
 30
0.0
 10
24.19701211899003
 20
44.61556364673448
 30
0.0
 10
24.18970258978336
 20
44.64612511226996
 30
0.0
 10
24.17945367423951
 20
44.6665892422601
 30
0.0
 10
24.16911297212492
 20
44.67250486214549
 30
0.0
 10
24.16600830135971
 20
44.6742809554816
 30
0.0
  0
SPLINE
  5
2E9
330
1F
100
AcDbEntity
  8
0
  6
SLD-Solid
 62
     7
370
    25
100
AcDbSpline
210
0.0
220
0.0
230
1.0
 70
     8
 71
     3
 72
    11
 73
     7
 74
     0
 42
0.00000001
 43
0.00000001
 40
0.0
 40
0.0
 40
0.0
 40
0.0
 40
0.1770294047501004
 40
0.5808812530288526
 40
0.9814710464770323
 40
1.0
 40
1.0
 40
1.0
 40
1.0
 10
24.1561470918801
 20
44.43661976028319
 30
0.0
 10
24.15904827066839
 20
44.4414665470998
 30
0.0
 10
24.16856782123223
 20
44.45737016267805
 30
0.0
 10
24.18056846234258
 20
44.4911309331839
 30
0.0
 10
24.18962329823476
 20
44.52071635685338
 30
0.0
 10
24.19145909104173
 20
44.53525071416822
 30
0.0
 10
24.19154025018778
 20
44.53589326817736
 30
0.0
  0
SPLINE
  5
2EA
330
1F
100
AcDbEntity
  8
0
  6
SLD-Solid
 62
     7
370
    25
100
AcDbSpline
210
0.0
220
0.0
230
1.0
 70
     8
 71
     3
 72
    12
 73
     8
 74
     0
 42
0.00000001
 43
0.00000001
 40
0.0
 40
0.0
 40
0.0
 40
0.0
 40
0.0993401053988595
 40
0.3253200765666734
 40
0.5607865932634095
 40
0.8367855128080675
 40
1.0
 40
1.0
 40
1.0
 40
1.0
 10
24.07147341562335
 20
44.37561449436603
 30
0.0
 10
24.07461917537982
 20
44.37448617578666
 30
0.0
 10
24.08492094424472
 20
44.37079114561574
 30
0.0
 10
24.10384831013392
 20
44.37687007908672
 30
0.0
 10
24.12469401299863
 20
44.39133937895195
 30
0.0
 10
24.14264670188133
 20
44.41141174261243
 30
0.0
 10
24.15248946039798
 20
44.42979020654121
 30
0.0
 10
24.1561470918801
 20
44.43661976028319
 30
0.0
  0
LINE
  5
2EB
330
1F
100
AcDbEntity
  8
0
  6
SLD-Solid
 62
     7
370
    25
100
AcDbLine
 10
23.5367265051
 20
44.7619637602
 30
0.0
 11
22.9158781551
 21
44.9306970386
 31
0.0
  0
LINE
  5
2EC
330
1F
100
AcDbEntity
  8
0
  6
SLD-Solid
 62
     7
370
    25
100
AcDbLine
 10
22.8765383763
 20
44.7859476628
 30
0.0
 11
23.4554292615
 21
44.6286175243
 31
0.0
  0
LINE
  5
2ED
330
1F
100
AcDbEntity
  8
0
  6
SLD-Solid
 62
     7
370
    25
100
AcDbLine
 10
22.911303379
 20
44.9310575758
 30
0.0
 11
22.8159313477
 21
44.92170117
 31
0.0
  0
LINE
  5
2EE
330
1F
100
AcDbEntity
  8
0
  6
SLD-Solid
 62
     7
370
    25
100
AcDbLine
 10
22.7948942932
 20
44.8442960444
 30
0.0
 11
22.8724104412
 21
44.787952336
 31
0.0
  0
LINE
  5
2EF
330
1F
100
AcDbEntity
  8
0
  6
SLD-Solid
 62
     7
370
    25
100
AcDbLine
 10
56.3951343858
 20
33.8565709262
 30
0.0
 11
56.4905064171
 21
33.8659273321
 31
0.0
  0
LINE
  5
2F0
330
1F
100
AcDbEntity
  8
0
  6
SLD-Solid
 62
     7
370
    25
100
AcDbLine
 10
56.5115434716
 20
33.9433324577
 30
0.0
 11
56.4340273236
 21
33.9996761661
 31
0.0
  0
LINE
  5
2F1
330
1F
100
AcDbEntity
  8
0
  6
SLD-Solid
 62
     7
370
    25
100
AcDbLine
 10
55.2629265046
 20
34.1633979792
 30
0.0
 11
56.3905596097
 21
33.8569314634
 31
0.0
  0
LINE
  5
2F2
330
1F
100
AcDbEntity
  8
0
  6
SLD-Solid
 62
     7
370
    25
100
AcDbLine
 10
56.4298993885
 20
34.0016808393
 30
0.0
 11
55.3022662833
 21
34.308147355
 31
0.0
  0
LINE
  5
2F3
330
1F
100
AcDbEntity
  8
0
  6
SLD-Solid
 62
     7
370
    25
100
AcDbLine
 10
55.2426978239
 20
34.1392326114
 30
0.0
 11
55.2745775605
 21
34.1580163538
 31
0.0
  0
LINE
  5
2F4
330
1F
100
AcDbEntity
  8
0
  6
SLD-Solid
 62
     7
370
    25
100
AcDbLine
 10
55.3150385647
 20
34.3068912406
 30
0.0
 11
55.297052158
 21
34.3392275323
 31
0.0
  0
SPLINE
  5
2F5
330
1F
100
AcDbEntity
  8
0
  6
SLD-Solid
 62
     7
370
    25
100
AcDbSpline
210
0.0
220
0.0
230
1.0
 70
     8
 71
     3
 72
    14
 73
    10
 74
     0
 42
0.00000001
 43
0.00000001
 40
0.0
 40
0.0
 40
0.0
 40
0.0
 40
0.0161507734350877
 40
0.2053435956823799
 40
0.3957995999602925
 40
0.5899852153013017
 40
0.7713140163201133
 40
0.9249564080582775
 40
0.9999999999999999
 40
0.9999999999999999
 40
0.9999999999999999
 40
0.9999999999999999
 10
24.18678020164024
 20
42.69405366261564
 30
0.0
 10
24.18714891036117
 20
42.69524234533682
 30
0.0
 10
24.19183673381574
 20
42.7103554533915
 30
0.0
 10
24.19606459999936
 20
42.74069103246509
 30
0.0
 10
24.19811840488901
 20
42.78099769626856
 30
0.0
 10
24.19329923024297
 20
42.81541312160305
 30
0.0
 10
24.18251553444026
 20
42.84025069282394
 30
0.0
 10
24.16844051533727
 20
42.85628720040475
 30
0.0
 10
24.15729863514156
 20
42.8585122339784
 30
0.0
 10
24.15364241320168
 20
42.85924238153213
 30
0.0
  0
SPLINE
  5
2F6
330
1F
100
AcDbEntity
  8
0
  6
SLD-Solid
 62
     7
370
    25
100
AcDbSpline
210
0.0
220
0.0
230
1.0
 70
     8
 71
     3
 72
    13
 73
     9
 74
     0
 42
0.00000001
 43
0.00000001
 40
0.0
 40
0.0
 40
0.0
 40
0.0
 40
0.075174188725409
 40
0.234279002694997
 40
0.4183461971027689
 40
0.6209955812915
 40
0.8201158481775759
 40
1.0
 40
1.0
 40
1.0
 40
1.0
 10
24.08457182455004
 20
42.55381276873911
 30
0.0
 10
24.08814306058932
 20
42.55372496901158
 30
0.0
 10
24.09927275326521
 20
42.55345134274502
 30
0.0
 10
24.1170257765546
 20
42.5646063490448
 30
0.0
 10
24.13793772556308
 20
42.58470865590574
 30
0.0
 10
24.15811581394143
 20
42.6159828396453
 30
0.0
 10
24.17552665153113
 20
42.65374913132538
 30
0.0
 10
24.1831581284344
 20
42.6810812262338
 30
0.0
 10
24.18678020164024
 20
42.69405366261564
 30
0.0
  0
LINE
  5
2F7
330
1F
100
AcDbEntity
  8
0
  6
SLD-Solid
 62
     7
370
    25
100
AcDbLine
 10
23.0339969107
 20
43.0779715451
 30
0.0
 11
22.9158781551
 21
43.1100736919
 31
0.0
  0
LINE
  5
2F8
330
1F
100
AcDbEntity
  8
0
  6
SLD-Solid
 62
     7
370
    25
100
AcDbLine
 10
22.8765383763
 20
42.9653243161
 30
0.0
 11
23.0366145968
 21
42.9218190294
 31
0.0
  0
LINE
  5
2F9
330
1F
100
AcDbEntity
  8
0
  6
SLD-Solid
 62
     7
370
    25
100
AcDbLine
 10
22.911303379
 20
43.1104342291
 30
0.0
 11
22.8159313477
 21
43.1010778233
 31
0.0
  0
LINE
  5
2FA
330
1F
100
AcDbEntity
  8
0
  6
SLD-Solid
 62
     7
370
    25
100
AcDbLine
 10
22.7948942932
 20
43.0236726977
 30
0.0
 11
22.8724104412
 21
42.9673289893
 31
0.0
  0
LWPOLYLINE
  5
2FB
330
1F
100
AcDbEntity
  8
0
  6
SLD-Solid
 62
     7
370
    25
100
AcDbPolyline
 90
       43
 70
   128
 43
0.0
 10
55.2801270637
 20
34.7816239994
 10
55.2833953651
 20
34.8649158182
 10
55.2931272608
 20
34.9527269601
 10
55.3091053564
 20
35.0430958693
 10
55.3309727276
 20
35.1340038537
 10
55.3582408935
 20
35.2234201791
 10
55.3903007282
 20
35.3093474327
 10
55.4264360682
 20
35.3898661415
 10
55.4658397095
 20
35.4631776506
 10
55.50763144
 20
35.5276443021
 10
55.5508777014
 20
35.5818260175
 10
55.5946124438
 20
35.6245124668
 10
55.6378587052
 20
35.6547501053
 10
55.6796504357
 20
35.671863474
 10
55.719054077
 20
35.6754702887
 10
55.755189417
 20
35.6654899791
 10
55.7872492517
 20
35.6421454887
 10
55.8145174176
 20
35.6059582949
 10
55.8363847888
 20
35.5577367598
 10
55.8523628843
 20
35.4985580728
 10
55.8620947801
 20
35.4297441881
 10
55.8653630814
 20
35.352832294
 10
55.8620947801
 20
35.2695404752
 10
55.8523628843
 20
35.1817293333
 10
55.8363847888
 20
35.0913604241
 10
55.8145174176
 20
35.0004524397
 10
55.7872492517
 20
34.9110361143
 10
55.755189417
 20
34.8251088607
 10
55.719054077
 20
34.744590152
 10
55.6796504357
 20
34.6712786429
 10
55.6378587052
 20
34.6068119914
 10
55.5946124438
 20
34.552630276
 10
55.5508777014
 20
34.5099438267
 10
55.50763144
 20
34.4797061882
 10
55.4658397095
 20
34.4625928194
 10
55.4264360682
 20
34.4589860047
 10
55.3903007282
 20
34.4689663144
 10
55.3582408935
 20
34.4923108048
 10
55.3309727276
 20
34.5284979986
 10
55.3091053564
 20
34.5767195337
 10
55.2931272608
 20
34.6358982206
 10
55.2833953651
 20
34.7047121054
 10
55.2801270637
 20
34.7816239994
  0
LWPOLYLINE
  5
2FC
330
1F
100
AcDbEntity
  8
0
  6
SLD-Solid
 62
     7
370
    25
100
AcDbPolyline
 90
       41
 70
   128
 43
0.0
 10
55.2997282701
 20
34.8007553777
 10
55.30308956
 20
34.882479047
 10
55.3130906635
 20
34.9687518522
 10
55.3294853203
 20
35.0574494706
 10
55.3518698396
 20
35.1463878725
 10
55.3796930401
 20
35.2333770992
 10
55.4122698224
 20
35.3162751872
 10
55.448798038
 20
35.3930409106
 10
55.4883782409
 20
35.4617840425
 10
55.5300358351
 20
35.5208118987
 10
55.5727450726
 20
35.5686710176
 10
55.61545431
 20
35.6041829489
 10
55.6571119043
 20
35.6264732708
 10
55.6966921072
 20
35.6349931218
 10
55.7332203227
 20
35.6295327147
 10
55.765797105
 20
35.6102265031
 10
55.7936203056
 20
35.5775498697
 10
55.8160048249
 20
35.532307422
 10
55.8323994817
 20
35.4756131789
 10
55.8424005852
 20
35.408863141
 10
55.8457618751
 20
35.3337009157
 10
55.8424005852
 20
35.2519772465
 10
55.8323994817
 20
35.1657044412
 10
55.8160048249
 20
35.0770068228
 10
55.7936203056
 20
34.988068421
 10
55.765797105
 20
34.9010791943
 10
55.7332203227
 20
34.8181811062
 10
55.6966921072
 20
34.7414153828
 10
55.6571119043
 20
34.6726722509
 10
55.61545431
 20
34.6136443947
 10
55.5727450726
 20
34.5657852758
 10
55.5300358351
 20
34.5302733446
 10
55.4883782409
 20
34.5079830226
 10
55.448798038
 20
34.4994631717
 10
55.4122698224
 20
34.5049235787
 10
55.3796930401
 20
34.5242297904
 10
55.3518698396
 20
34.5569064237
 10
55.3294853203
 20
34.6021488715
 10
55.3130906635
 20
34.6588431145
 10
55.30308956
 20
34.7255931524
 10
55.2997282701
 20
34.8007553777
  0
LINE
  5
2FD
330
1F
100
AcDbEntity
  8
0
  6
SLD-Solid
 62
     7
370
    25
100
AcDbLine
 10
23.7435895682
 20
42.1632997489
 30
0.0
 11
23.7405353866
 21
42.1641515099
 31
0.0
  0
LWPOLYLINE
  5
2FE
330
1F
100
AcDbEntity
  8
0
  6
SLD-Solid
 62
     7
370
    25
100
AcDbPolyline
 90
       28
 70
   128
 43
0.0
 10
23.7336926922
 20
45.0061513064
 10
23.6661287894
 20
44.9342045109
 10
23.5991957126
 20
44.8509247531
 10
23.5335183978
 20
44.7570895935
 10
23.4697100565
 20
44.6535751459
 10
23.4083664499
 20
44.5413478966
 10
23.3500603268
 20
44.4214556814
 10
23.2953360757
 20
44.2950179015
 10
23.2447046423
 20
44.1632150723
 10
23.1986387585
 20
44.0272778015
 10
23.1575685291
 20
43.8884752987
 10
23.1218774159
 20
43.7481035253
 10
23.091898657
 20
43.607473095
 10
23.0679121561
 20
43.467897036
 10
23.0501418686
 20
43.3306785325
 10
23.0387537111
 20
43.1970987567
 10
23.0338540115
 20
43.0684049069
 10
23.0354885172
 20
42.9457985629
 10
23.0436419671
 20
42.8304244671
 10
23.0582382347
 20
42.7233598365
 10
23.0791410386
 20
42.6256043045
 10
23.106155215
 20
42.5380705883
 10
23.1390285397
 20
42.4615759665
 10
23.1774540833
 20
42.3968346489
 10
23.221073077
 20
42.3444511077
 10
23.2694782619
 20
42.3049144338
 10
23.3222176918
 20
42.2785937707
 10
23.3402949047
 20
42.2729065969
  0
LWPOLYLINE
  5
2FF
330
1F
100
AcDbEntity
  8
0
  6
SLD-Solid
 62
     7
370
    25
100
AcDbPolyline
 90
        8
 70
   128
 43
0.0
 10
24.1270904797
 20
45.1678941138
 10
24.1173250576
 20
45.1703295802
 10
24.0590189345
 20
45.1764046682
 10
23.9976753279
 20
45.1688854363
 10
23.9338669866
 20
45.1478420894
 10
23.8681896718
 20
45.1134711037
 10
23.801256595
 20
45.0660933917
 10
23.7336926922
 20
45.0061513064
  0
LWPOLYLINE
  5
300
330
1F
100
AcDbEntity
  8
0
  6
SLD-Solid
 62
     7
370
    25
100
AcDbPolyline
 90
       31
 70
   128
 43
0.0
 10
24.2254291679
 20
44.7774339058
 10
24.2571665506
 20
44.8022839095
 10
24.2875168574
 20
44.8137945392
 10
24.3151536342
 20
44.8114627252
 10
24.3388690213
 20
44.7953903788
 10
24.3576265425
 20
44.7662799389
 10
24.370606404
 20
44.7254036712
 10
24.3772413237
 20
44.6745480649
 10
24.3772413237
 20
44.6159357539
 10
24.370606404
 20
44.5521283775
 10
24.3576265425
 20
44.4859146243
 10
24.3388690213
 20
44.4201883529
 10
24.3151536342
 20
44.3578221169
 10
24.2875168574
 20
44.30154162
 10
24.2571665506
 20
44.2538065899
 10
24.2254291679
 20
44.2167032766
 10
24.1936917851
 20
44.191853273
 10
24.1633414783
 20
44.1803426433
 10
24.1357047015
 20
44.1826744573
 10
24.1119893144
 20
44.1987468037
 10
24.0932317932
 20
44.2278572436
 10
24.0802519317
 20
44.2687335113
 10
24.073617012
 20
44.3195891176
 10
24.073617012
 20
44.3782014286
 10
24.0802519317
 20
44.442008805
 10
24.0932317932
 20
44.5082225582
 10
24.1119893144
 20
44.5739488296
 10
24.1357047015
 20
44.6363150656
 10
24.1633414783
 20
44.6925955625
 10
24.1936917851
 20
44.7403305926
 10
24.2254291679
 20
44.7774339058
  0
LWPOLYLINE
  5
301
330
1F
100
AcDbEntity
  8
0
  6
SLD-Solid
 62
     7
370
    25
100
AcDbPolyline
 90
       20
 70
   128
 43
0.0
 10
24.2254291679
 20
44.1374869086
 10
24.1807385779
 20
44.0877163238
 10
24.137046302
 20
44.0267551337
 10
24.0953283532
 20
43.9559651106
 10
24.0565166416
 20
43.8769275865
 10
24.0214781567
 20
43.7914081292
 10
23.9909956004
 20
43.7013171019
 10
23.9657499026
 20
43.6086669895
 10
23.9463050105
 20
43.5155274423
 10
23.9330952908
 20
43.4239790439
 10
23.9264158269
 20
43.3360668342
 10
23.9264158269
 20
43.2537546267
 10
23.9330952908
 20
43.1788811401
 10
23.9463050105
 20
43.1131189244
 10
23.9657499026
 20
43.0579369988
 10
23.9909956004
 20
43.0145680364
 10
24.0214781567
 20
42.983980828
 10
24.0565166416
 20
42.9668586415
 10
24.0953283532
 20
42.9635839581
 10
24.1151399259
 20
42.9669874363
  0
LWPOLYLINE
  5
302
330
1F
100
AcDbEntity
  8
0
  6
SLD-Solid
 62
     7
370
    25
100
AcDbPolyline
 90
        7
 70
   128
 43
0.0
 10
24.4440204763
 20
44.1770922184
 10
24.429380179
 20
44.1895330077
 10
24.3943416941
 20
44.2066551943
 10
24.3555299825
 20
44.2099298777
 10
24.3138120337
 20
44.1992839069
 10
24.2701197578
 20
44.1749550954
 10
24.2254291679
 20
44.1374869086
  0
LWPOLYLINE
  5
303
330
1F
100
AcDbEntity
  8
0
  6
SLD-Solid
 62
     7
370
    25
100
AcDbPolyline
 90
        3
 70
   128
 43
0.0
 10
24.3711532138
 20
44.2103073873
 10
24.3851592729
 20
44.2015513025
 10
24.3997995702
 20
44.1891105132
  0
LWPOLYLINE
  5
304
330
1F
100
AcDbEntity
  8
0
  6
SLD-Solid
 62
     7
370
    25
100
AcDbPolyline
 90
        3
 70
   128
 43
0.0
 10
24.0709190198
 20
42.9790057311
 10
24.0511074471
 20
42.9756022528
 10
24.0354842158
 20
42.9752247432
  0
LWPOLYLINE
  5
305
330
1F
100
AcDbEntity
  8
0
  6
SLD-Solid
 62
     7
370
    25
100
AcDbPolyline
 90
       49
 70
   128
 43
0.0
 10
55.5727450726
 20
33.7814771957
 10
55.5051811698
 20
33.7215351104
 10
55.438248093
 20
33.6741573984
 10
55.3725707782
 20
33.6397864126
 10
55.3087624369
 20
33.6187430658
 10
55.2474188303
 20
33.6112238338
 10
55.1891127072
 20
33.6172989218
 10
55.1343884561
 20
33.6369116084
 10
55.0837570227
 20
33.669878775
 10
55.0376911389
 20
33.7158926163
 10
54.9966209095
 20
33.7745235133
 10
54.9609297962
 20
33.8452240452
 10
54.9309510373
 20
33.9273341001
 10
54.9069645364
 20
34.0200870386
 10
54.889194249
 20
34.1226168515
 10
54.8778060915
 20
34.2339662455
 10
54.8729063919
 20
34.3530955814
 10
54.8745408976
 20
34.4788925807
 10
54.8826943475
 20
34.6101827106
 10
54.8972906151
 20
34.7457401506
 10
54.918193419
 20
34.8842992374
 10
54.9452075954
 20
35.0245662821
 10
54.97808092
 20
35.1652316492
 10
55.0165064637
 20
35.304981984
 10
55.0601254574
 20
35.4425124753
 10
55.1085306422
 20
35.5765390379
 10
55.1612700722
 20
35.7058103019
 10
55.2178513334
 20
35.8291192964
 10
55.2777461418
 20
35.9453147186
 10
55.3403952757
 20
36.053311683
 10
55.4052137971
 20
36.1521018511
 10
55.4715965128
 20
36.2407628457
 10
55.5389236254
 20
36.318466863
 10
55.6065665198
 20
36.3844884016
 10
55.6738936324
 20
36.4382110361
 10
55.7402763481
 20
36.4791331727
 10
55.8050948695
 20
36.5068727325
 10
55.8677440034
 20
36.5211707188
 10
55.9276388118
 20
36.5218936349
 10
55.984220073
 20
36.5090347314
 10
56.0369595029
 20
36.4827140682
 10
56.0853646878
 20
36.4431773944
 10
56.1289836815
 20
36.3907938532
 10
56.1674092251
 20
36.3260525355
 10
56.2002825498
 20
36.2495579138
 10
56.2272967261
 20
36.1620241976
 10
56.24819953
 20
36.0642686656
 10
56.2627957977
 20
35.9572040349
 10
56.269823168
 20
35.8658094727
  0
ARC
  5
306
330
1F
100
AcDbEntity
  8
0
  6
SLD-Solid
 62
     7
370
    25
100
AcDbCircle
 10
52.8121117816
 20
35.817509122
 30
0.0
 40
3.462009442484944
100
AcDbArc
 50
331.3762010058
 51
358.2147726768
  0
ARC
  5
307
330
1F
100
AcDbEntity
  8
0
  6
SLD-Solid
 62
     7
370
    25
100
AcDbCircle
 10
54.5189910722
 20
34.8329867011
 30
0.0
 40
1.488646947234001
100
AcDbArc
 50
315.0610850091
 51
327.158336859
  0
LWPOLYLINE
  5
308
330
1F
100
AcDbEntity
  8
0
  6
SLD-Solid
 62
     7
370
    25
100
AcDbPolyline
 90
       48
 70
   128
 43
0.0
 10
55.5727450726
 20
33.8243355607
 10
55.5064160588
 20
33.7655812774
 10
55.4407258297
 20
33.7193625649
 10
55.3763070181
 20
33.6861245349
 10
55.3137800123
 20
33.6661872876
 10
55.2537469816
 20
33.6597428297
 10
55.1967860769
 20
33.6668532248
 10
55.1434458629
 20
33.6874499959
 10
55.0942400349
 20
33.7213347848
 10
55.049642472
 20
33.7681812626
 10
55.0100826731
 20
33.827538272
 10
54.9759416208
 20
33.8988341726
 10
54.9475481119
 20
33.9813823459
 10
54.9251755914
 20
34.0743878078
 10
54.9090395191
 20
34.1769548649
 10
54.8992952941
 20
34.2880957404
 10
54.8960367586
 20
34.4067400868
 10
54.8992952941
 20
34.5317452944
 10
54.9090395191
 20
34.6619074946
 10
54.9251755914
 20
34.7959731542
 10
54.9475481119
 20
34.9326511476
 10
54.9759416208
 20
35.0706251911
 10
55.0100826731
 20
35.2085665193
 10
55.049642472
 20
35.3451466816
 10
55.0942400349
 20
35.4790503366
 10
55.1434458629
 20
35.6089879187
 10
55.1967860769
 20
35.733708058
 10
55.2537469816
 20
35.8520096315
 10
55.3137800123
 20
35.9627533303
 10
55.3763070181
 20
36.064872632
 10
55.4407258297
 20
36.1573840719
 10
55.5064160588
 20
36.2393967144
 10
55.5727450726
 20
36.3101207327
 10
55.6390740864
 20
36.3688750161
 10
55.7047643155
 20
36.4150937285
 10
55.7691831271
 20
36.4483317585
 10
55.8317101329
 20
36.4682690058
 10
55.8917431636
 20
36.4747134638
 10
55.9487040683
 20
36.4676030687
 10
56.0020442823
 20
36.4470062976
 10
56.0512501103
 20
36.4131215086
 10
56.0958476731
 20
36.3662750308
 10
56.135407472
 20
36.3069180214
 10
56.1695485244
 20
36.2356221208
 10
56.1979420333
 20
36.1530739476
 10
56.2203145537
 20
36.0600684857
 10
56.236450626
 20
35.9575014286
 10
56.24452145
 20
35.8726859375
  0
ARC
  5
309
330
1F
100
AcDbEntity
  8
0
  6
SLD-Solid
 62
     7
370
    25
100
AcDbCircle
 10
52.940874793
 20
35.7825140946
 30
0.0
 40
3.309218508197955
100
AcDbArc
 50
330.7441873145
 51
358.8467863681
  0
ARC
  5
30A
330
1F
100
AcDbEntity
  8
0
  6
SLD-Solid
 62
     7
370
    25
100
AcDbCircle
 10
54.5747529051
 20
34.82204595
 30
0.0
 40
1.411174825208538
100
AcDbArc
 50
315.0080897335
 51
325.9811038581
  0
LWPOLYLINE
  5
30B
330
1F
100
AcDbEntity
  8
0
  6
SLD-Solid
 62
     7
370
    25
100
AcDbPolyline
 90
       16
 70
   128
 43
0.0
 10
55.0959617969
 20
33.9947411171
 10
55.0947006667
 20
33.994009049
 10
55.0655993249
 20
33.9836145408
 10
55.0392862239
 20
33.9870104949
 10
55.0169917351
 20
34.0040381202
 10
54.9997583241
 20
34.0339012239
 10
54.9883918059
 20
34.0752034405
 10
54.9834236664
 20
34.1260135241
 10
54.9850862102
 20
34.1839556518
 10
54.9933016986
 20
34.2463205141
 10
55.0076859845
 20
34.3101919992
 10
55.0275664747
 20
34.3725835477
 10
55.0520135795
 20
34.4305777999
 10
55.0798841796
 20
34.4814630092
 10
55.1098750766
 20
34.5228598396
 10
55.1250168096
 20
34.5391673606
  0
ARC
  5
30C
330
1F
100
AcDbEntity
  8
0
  6
SLD-Solid
 62
     7
370
    25
100
AcDbCircle
 10
55.26433516
 20
35.7010199807
 30
0.0
 40
0.1114822867857734
100
AcDbArc
 50
44.5213627488
 51
107.0982790098
  0
ARC
  5
30D
330
1F
100
AcDbEntity
  8
0
  6
SLD-Solid
 62
     7
370
    25
100
AcDbCircle
 10
54.9859574549
 20
34.6767382768
 30
0.0
 40
0.1114876125020031
100
AcDbArc
 50
222.4943580223
 51
285.0679475844
  0
LWPOLYLINE
  5
30E
330
1F
100
AcDbEntity
  8
0
  6
SLD-Solid
 62
     7
370
    25
100
AcDbPolyline
 90
        3
 70
   128
 43
0.0
 10
54.970719355
 20
34.5811021026
 10
54.9509077822
 20
34.5776986244
 10
54.9352845509
 20
34.5773211147
  0
LWPOLYLINE
  5
30F
330
1F
100
AcDbEntity
  8
0
  6
SLD-Solid
 62
     7
370
    25
100
AcDbPolyline
 90
        3
 70
   128
 43
0.0
 10
55.270953549
 20
35.8124037589
 10
55.2849596081
 20
35.803647674
 10
55.2995999053
 20
35.7912068847
  0
LWPOLYLINE
  5
310
330
1F
100
AcDbEntity
  8
0
  6
SLD-Solid
 62
     7
370
    25
100
AcDbPolyline
 90
        8
 70
   128
 43
0.0
 10
55.2534701307
 20
34.3964791896
 10
55.2769071117
 20
34.4131653075
 10
55.2984453679
 20
34.4161214274
 10
55.3163399978
 20
34.405108062
 10
55.329141285
 20
34.3810174486
 10
55.3358121453
 20
34.3458012655
 10
55.3358121453
 20
34.3023125184
 10
55.3355632485
 20
34.2990979533
  0
LWPOLYLINE
  5
311
330
1F
100
AcDbEntity
  8
0
  6
SLD-Solid
 62
     7
370
    25
100
AcDbPolyline
 90
       15
 70
   128
 43
0.0
 10
55.2962234698
 20
34.1543485775
 10
55.2769071117
 20
34.1199622391
 10
55.2534701307
 20
34.0908979331
 10
55.2300331497
 20
34.0742118152
 10
55.2084948935
 20
34.0712556953
 10
55.1906002635
 20
34.0822690607
 10
55.1777989763
 20
34.1063596741
 10
55.171128116
 20
34.1415758572
 10
55.171128116
 20
34.1850646043
 10
55.1777989763
 20
34.2333027157
 10
55.1906002635
 20
34.2823822266
 10
55.2084948935
 20
34.3283270068
 10
55.2300331497
 20
34.3674148836
 10
55.2534701307
 20
34.3964791896
 10
55.2534701307
 20
34.3964791896
  0
LWPOLYLINE
  5
312
330
1F
100
AcDbEntity
  8
0
  6
SLD-Solid
 62
     7
370
    25
100
AcDbPolyline
 90
       13
 70
   128
 43
0.0
 10
55.2426978239
 20
34.1392326114
 10
55.2345880708
 20
34.1357392053
 10
55.2182561378
 20
34.1383717456
 10
55.2066800497
 20
34.1552279054
 10
55.2014232212
 20
34.184031167
 10
55.2031956163
 20
34.2208914903
 10
55.2117578631
 20
34.2608306844
 10
55.2259535828
 20
34.2984547397
 10
55.2438655648
 20
34.3286823192
 10
55.2630746966
 20
34.3474310207
 10
55.2809866785
 20
34.3521687283
 10
55.2951823982
 20
34.3422555881
 10
55.297052158
 20
34.3392275323
  0
LWPOLYLINE
  5
313
330
1F
100
AcDbEntity
  8
0
  6
SLD-Solid
 62
     7
370
    25
100
AcDbPolyline
 90
       17
 70
   128
 43
0.0
 10
56.5159886741
 20
35.7287413119
 10
56.5175986878
 20
35.7435542855
 10
56.51632718
 20
35.7556784745
 10
56.5123677262
 20
35.7632680812
 10
56.5063231174
 20
35.7651676566
 10
56.4991135905
 20
35.7610880076
 10
56.4918367306
 20
35.7516502239
 10
56.4856003736
 20
35.7382911224
 10
56.4813539484
 20
35.7230445052
 10
56.4797439347
 20
35.7082315317
 10
56.4810154425
 20
35.6961073426
 10
56.4849748963
 20
35.688517736
 10
56.4910195051
 20
35.6866181606
 10
56.498229032
 20
35.6906978096
 10
56.5055058919
 20
35.7001355933
 10
56.5117422489
 20
35.7134946948
 10
56.5159886741
 20
35.7287413119
  0
LWPOLYLINE
  5
314
330
1F
100
AcDbEntity
  8
0
  6
SLD-Solid
 62
     7
370
    25
100
AcDbPolyline
 90
       10
 70
   128
 43
0.0
 10
56.3951343858
 20
35.6771942729
 10
56.3849078071
 20
35.6808309339
 10
56.3775876384
 20
35.6948624657
 10
56.375236897
 20
35.7172774539
 10
56.3782134621
 20
35.7446634199
 10
56.3860641786
 20
35.7728510985
 10
56.3975938461
 20
35.7975491713
 10
56.4110471772
 20
35.8149975804
 10
56.4243760243
 20
35.8225399639
 10
56.4340273236
 20
35.8202995128
  0
LINE
  5
315
330
1F
100
AcDbEntity
  8
0
  6
SLD-Solid
 62
     7
370
    25
100
AcDbLine
 10
24.1632257111
 20
44.5003682124
 30
0.0
 11
24.1745429312
 21
44.558456585
 31
0.0
  0
LINE
  5
316
330
1F
100
AcDbEntity
  8
0
  6
SLD-Solid
 62
     7
370
    25
100
AcDbLine
 10
24.1745429312
 20
44.558456585
 30
0.0
 11
24.1484365703
 21
44.5541625452
 31
0.0
  0
LINE
  5
317
330
1F
100
AcDbEntity
  8
0
  6
SLD-Solid
 62
     7
370
    25
100
AcDbLine
 10
24.1484365703
 20
44.5541625452
 30
0.0
 11
24.1599718609
 21
44.6133702177
 31
0.0
  0
LINE
  5
318
330
1F
100
AcDbEntity
  8
0
  6
SLD-Solid
 62
     7
370
    25
100
AcDbLine
 10
24.1599718609
 20
44.6133702177
 30
0.0
 11
24.1343590314
 21
44.6091573551
 31
0.0
  0
LINE
  5
319
330
1F
100
AcDbEntity
  8
0
  6
SLD-Solid
 62
     7
370
    25
100
AcDbLine
 10
24.1343590314
 20
44.6091573551
 30
0.0
 11
24.1228237407
 21
44.5499496827
 31
0.0
  0
LINE
  5
31A
330
1F
100
AcDbEntity
  8
0
  6
SLD-Solid
 62
     7
370
    25
100
AcDbLine
 10
24.1228237407
 20
44.5499496827
 30
0.0
 11
24.1132090395
 21
44.5483682325
 31
0.0
  0
LINE
  5
31B
330
1F
100
AcDbEntity
  8
0
  6
SLD-Solid
 62
     7
370
    25
100
AcDbLine
 10
24.0980537187
 20
44.4896485593
 30
0.0
 11
24.1115065206
 21
44.49186131
 31
0.0
  0
LINE
  5
31C
330
1F
100
AcDbEntity
  8
0
  6
SLD-Solid
 62
     7
370
    25
100
AcDbLine
 10
24.1115065206
 20
44.49186131
 30
0.0
 11
24.0999712299
 21
44.4326536375
 31
0.0
  0
LINE
  5
31D
330
1F
100
AcDbEntity
  8
0
  6
SLD-Solid
 62
     7
370
    25
100
AcDbLine
 10
24.0999712299
 20
44.4326536375
 30
0.0
 11
24.1255840595
 21
44.4368665001
 31
0.0
  0
LINE
  5
31E
330
1F
100
AcDbEntity
  8
0
  6
SLD-Solid
 62
     7
370
    25
100
AcDbLine
 10
24.1255840595
 20
44.4368665001
 30
0.0
 11
24.1371193502
 21
44.4960741725
 31
0.0
  0
LINE
  5
31F
330
1F
100
AcDbEntity
  8
0
  6
SLD-Solid
 62
     7
370
    25
100
AcDbLine
 10
24.1371193502
 20
44.4960741725
 30
0.0
 11
24.1632257111
 21
44.5003682124
 31
0.0
  0
LINE
  5
320
330
1F
100
AcDbEntity
  8
0
  6
SLD-Solid
 62
     7
370
    25
100
AcDbLine
 10
24.0993495653
 20
44.4951653099
 30
0.0
 11
24.1115065206
 21
44.49186131
 31
0.0
  0
LWPOLYLINE
  5
321
330
1F
100
AcDbEntity
  8
0
  6
SLD-Solid
 62
     7
370
    25
100
AcDbPolyline
 90
        5
 70
   128
 43
0.0
 10
22.8641922287
 20
44.8530562725
 10
22.8612156636
 20
44.8256703065
 10
22.863566405
 20
44.8032553183
 10
22.8708865737
 20
44.7892237866
 10
22.8765383763
 20
44.7859476628
  0
LWPOLYLINE
  5
322
330
1F
100
AcDbEntity
  8
0
  6
SLD-Solid
 62
     7
370
    25
100
AcDbPolyline
 90
        6
 70
   128
 43
0.0
 10
22.9158781551
 20
44.9306970386
 10
22.9103547909
 20
44.9309328165
 10
22.8970259438
 20
44.9233904331
 10
22.8835726127
 20
44.9059420239
 10
22.8720429453
 20
44.8812439511
 10
22.8641922287
 20
44.8530562725
  0
LINE
  5
323
330
1F
100
AcDbEntity
  8
0
  6
SLD-Solid
 62
     7
370
    25
100
AcDbLine
 10
24.1020387363
 20
44.4432656144
 30
0.0
 11
24.1255840595
 21
44.4368665001
 31
0.0
  0
LINE
  5
324
330
1F
100
AcDbEntity
  8
0
  6
SLD-Solid
 62
     7
370
    25
100
AcDbLine
 10
24.1248912471
 20
44.5605616596
 30
0.0
 11
24.1484365703
 21
44.5541625452
 31
0.0
  0
LINE
  5
325
330
1F
100
AcDbEntity
  8
0
  6
SLD-Solid
 62
     7
370
    25
100
AcDbLine
 10
24.1043314373
 20
44.516374414
 30
0.0
 11
24.1632257111
 21
44.5003682124
 31
0.0
  0
LINE
  5
326
330
1F
100
AcDbEntity
  8
0
  6
SLD-Solid
 62
     7
370
    25
100
AcDbLine
 10
24.1371193502
 20
44.4960741725
 30
0.0
 11
24.1018167315
 21
44.5056686679
 31
0.0
  0
LWPOLYLINE
  5
327
330
1F
100
AcDbEntity
  8
0
  6
SLD-Solid
 62
     7
370
    25
100
AcDbPolyline
 90
        6
 70
   128
 43
0.0
 10
22.7904490907
 20
44.8795105368
 10
22.7946955159
 20
44.894757154
 10
22.8009318729
 20
44.9081162555
 10
22.8082087328
 20
44.9175540392
 10
22.8154182597
 20
44.9216336881
 10
22.8159313477
 20
44.92170117
  0
LWPOLYLINE
  5
328
330
1F
100
AcDbEntity
  8
0
  6
SLD-Solid
 62
     7
370
    25
100
AcDbPolyline
 90
        5
 70
   128
 43
0.0
 10
22.7948942932
 20
44.8442960444
 10
22.7940700386
 20
44.8449837676
 10
22.7901105848
 20
44.8525733742
 10
22.788839077
 20
44.8646975632
 10
22.7904490907
 20
44.8795105368
  0
LWPOLYLINE
  5
329
330
1F
100
AcDbEntity
  8
0
  6
SLD-Solid
 62
     7
370
    25
100
AcDbPolyline
 90
       17
 70
   128
 43
0.0
 10
56.5171608054
 20
33.9158372503
 10
56.5173115984
 20
33.9295493184
 10
56.5146245766
 20
33.9395650137
 10
56.5095088148
 20
33.9443595374
 10
56.5027431414
 20
33.9432029666
 10
56.4953575687
 20
33.9362713788
 10
56.4884764833
 20
33.9246200455
 10
56.483147468
 20
33.9100227764
 10
56.4801818171
 20
33.8947018735
 10
56.4800310241
 20
33.8809898054
 10
56.4827180459
 20
33.8709741101
 10
56.4878338077
 20
33.8661795864
 10
56.4945994811
 20
33.8673361572
 10
56.5019850538
 20
33.874267745
 10
56.5088661392
 20
33.8859190783
 10
56.5141951545
 20
33.9005163474
 10
56.5171608054
 20
33.9158372503
  0
LWPOLYLINE
  5
32A
330
1F
100
AcDbEntity
  8
0
  6
SLD-Solid
 62
     7
370
    25
100
AcDbPolyline
 90
       11
 70
   128
 43
0.0
 10
56.3951343858
 20
33.8565709262
 10
56.3901933124
 20
33.8570372897
 10
56.3807353816
 20
33.865901321
 10
56.3757676629
 20
33.8844181629
 10
56.3760464464
 20
33.9097687942
 10
56.3815292897
 20
33.938093811
 10
56.3913814798
 20
33.9650809863
 10
56.4041031099
 20
33.9866217673
 10
56.4177574273
 20
33.9994367653
 10
56.4302656858
 20
34.0015750131
 10
56.4340273236
 20
33.9996761661
  0
LWPOLYLINE
  5
32B
330
1F
100
AcDbEntity
  8
0
  6
SLD-Solid
 62
     7
370
    25
100
AcDbPolyline
 90
       10
 70
   128
 43
0.0
 10
55.3022662833
 20
34.308147355
 10
55.2901243222
 20
34.305903281
 10
55.2764700048
 20
34.293088283
 10
55.2637483746
 20
34.271547502
 10
55.2538961846
 20
34.2445603267
 10
55.2484133412
 20
34.2162353099
 10
55.2481345578
 20
34.1908846786
 10
55.2531022765
 20
34.1723678367
 10
55.2625602072
 20
34.1635038054
 10
55.2629265046
 20
34.1633979792
  0
LWPOLYLINE
  5
32C
330
1F
100
AcDbEntity
  8
0
  6
SLD-Solid
 62
     7
370
    25
100
AcDbPolyline
 90
       13
 70
   128
 43
0.0
 10
55.3163228684
 20
34.3043270764
 10
55.3153828626
 20
34.3062552128
 10
55.3048691678
 20
34.3161087128
 10
55.2909646451
 20
34.313731778
 10
55.275786132
 20
34.2994862752
 10
55.2616444196
 20
34.2755409533
 10
55.2506924553
 20
34.2455412702
 10
55.2445975765
 20
34.2140544059
 10
55.2442876732
 20
34.1858739499
 10
55.2498099253
 20
34.1652901213
 10
55.2603236201
 20
34.1554366214
 10
55.2742281428
 20
34.1578135562
 10
55.2769830897
 20
34.1595777005
  0
LINE
  5
32D
330
1F
100
AcDbEntity
  8
0
  6
SLD-Solid
 62
     7
370
    25
100
AcDbLine
 10
24.1685069736
 20
42.6980823348
 30
0.0
 11
24.1745293162
 21
42.754186826
 31
0.0
  0
LINE
  5
32E
330
1F
100
AcDbEntity
  8
0
  6
SLD-Solid
 62
     7
370
    25
100
AcDbLine
 10
24.1745293162
 20
42.754186826
 30
0.0
 11
24.1466559378
 21
42.7382557693
 31
0.0
  0
LINE
  5
32F
330
1F
100
AcDbEntity
  8
0
  6
SLD-Solid
 62
     7
370
    25
100
AcDbLine
 10
24.1466559378
 20
42.7382557693
 30
0.0
 11
24.1527943244
 21
42.795441333
 31
0.0
  0
LINE
  5
330
330
1F
100
AcDbEntity
  8
0
  6
SLD-Solid
 62
     7
370
    25
100
AcDbLine
 10
24.1527943244
 20
42.795441333
 30
0.0
 11
24.1330022632
 21
42.7841291611
 31
0.0
  0
LINE
  5
331
330
1F
100
AcDbEntity
  8
0
  6
SLD-Solid
 62
     7
370
    25
100
AcDbLine
 10
24.123222625
 20
42.7590808232
 30
0.0
 11
24.1193094956
 21
42.7226258836
 31
0.0
  0
LINE
  5
332
330
1F
100
AcDbEntity
  8
0
  6
SLD-Solid
 62
     7
370
    25
100
AcDbLine
 10
24.1193094956
 20
42.7226258836
 30
0.0
 11
24.109844526
 21
42.7172161709
 31
0.0
  0
LINE
  5
333
330
1F
100
AcDbEntity
  8
0
  6
SLD-Solid
 62
     7
370
    25
100
AcDbLine
 10
24.0951335582
 20
42.6561456876
 30
0.0
 11
24.1132871531
 21
42.6665213925
 31
0.0
  0
LINE
  5
334
330
1F
100
AcDbEntity
  8
0
  6
SLD-Solid
 62
     7
370
    25
100
AcDbLine
 10
24.1132871531
 20
42.6665213925
 30
0.0
 11
24.1071487665
 21
42.6093358288
 31
0.0
  0
LINE
  5
335
330
1F
100
AcDbEntity
  8
0
  6
SLD-Solid
 62
     7
370
    25
100
AcDbLine
 10
24.1071487665
 20
42.6093358288
 30
0.0
 11
24.1344952087
 21
42.6249657146
 31
0.0
  0
LINE
  5
336
330
1F
100
AcDbEntity
  8
0
  6
SLD-Solid
 62
     7
370
    25
100
AcDbLine
 10
24.1344952087
 20
42.6249657146
 30
0.0
 11
24.1406335953
 21
42.6821512782
 31
0.0
  0
LINE
  5
337
330
1F
100
AcDbEntity
  8
0
  6
SLD-Solid
 62
     7
370
    25
100
AcDbLine
 10
24.1406335953
 20
42.6821512782
 30
0.0
 11
24.1685069736
 21
42.6980823348
 31
0.0
  0
LINE
  5
338
330
1F
100
AcDbEntity
  8
0
  6
SLD-Solid
 62
     7
370
    25
100
AcDbLine
 10
24.09841501
 20
42.6705633223
 30
0.0
 11
24.1132871531
 21
42.6665213925
 31
0.0
  0
LWPOLYLINE
  5
339
330
1F
100
AcDbEntity
  8
0
  6
SLD-Solid
 62
     7
370
    25
100
AcDbPolyline
 90
        5
 70
   128
 43
0.0
 10
22.862025213
 20
43.0181616468
 10
22.8617464295
 20
42.9928110155
 10
22.8667141482
 20
42.9742941736
 10
22.876172079
 20
42.9654301423
 10
22.8765383763
 20
42.9653243161
  0
LWPOLYLINE
  5
33A
330
1F
100
AcDbEntity
  8
0
  6
SLD-Solid
 62
     7
370
    25
100
AcDbPolyline
 90
        6
 70
   128
 43
0.0
 10
22.9158781551
 20
43.1100736919
 10
22.9037361939
 20
43.1078296179
 10
22.8900818765
 20
43.0950146199
 10
22.8773602464
 20
43.0734738389
 10
22.8675080563
 20
43.0464866636
 10
22.862025213
 20
43.0181616468
  0
LINE
  5
33B
330
1F
100
AcDbEntity
  8
0
  6
SLD-Solid
 62
     7
370
    25
100
AcDbLine
 10
24.1217148415
 20
42.7450342249
 30
0.0
 11
24.1466559378
 21
42.7382557693
 31
0.0
  0
LINE
  5
33C
330
1F
100
AcDbEntity
  8
0
  6
SLD-Solid
 62
     7
370
    25
100
AcDbLine
 10
24.1095541124
 20
42.6317441701
 30
0.0
 11
24.1344952087
 21
42.6249657146
 31
0.0
  0
LINE
  5
33D
330
1F
100
AcDbEntity
  8
0
  6
SLD-Solid
 62
     7
370
    25
100
AcDbLine
 10
24.1089064118
 20
42.7142804905
 30
0.0
 11
24.1685069736
 21
42.6980823348
 31
0.0
  0
LINE
  5
33E
330
1F
100
AcDbEntity
  8
0
  6
SLD-Solid
 62
     7
370
    25
100
AcDbLine
 10
24.1406335953
 20
42.6821512782
 30
0.0
 11
24.1035070584
 21
42.6922414754
 31
0.0
  0
LWPOLYLINE
  5
33F
330
1F
100
AcDbEntity
  8
0
  6
SLD-Solid
 62
     7
370
    25
100
AcDbPolyline
 90
        6
 70
   128
 43
0.0
 10
22.7892769594
 20
43.051167905
 10
22.7922426103
 20
43.0664888079
 10
22.7975716256
 20
43.081086077
 10
22.804452711
 20
43.0927374104
 10
22.8118382837
 20
43.0996689982
 10
22.8159313477
 20
43.1010778233
  0
ARC
  5
340
330
1F
100
AcDbEntity
  8
0
  6
SLD-Solid
 62
     7
370
    25
100
AcDbCircle
 10
22.8185304649
 20
43.0428230424
 30
0.0
 40
0.0304204587849066
100
AcDbArc
 50
164.0786572534
 51
219.0148571998
  0
LWPOLYLINE
  5
341
330
1F
100
AcDbEntity
  8
0
  6
SLD-Solid
 62
     8
370
    25
100
AcDbPolyline
 90
       38
 70
   128
 43
0.0
 10
24.2254291679
 20
44.7867911389
 10
24.160374171
 20
44.717332228
 10
24.0959657199
 20
44.6366371517
 10
24.0328439348
 20
44.545507894
 10
23.9716361482
 20
44.4448501384
 10
23.9129506707
 20
44.3356642668
 10
23.8573707448
 20
44.2190354175
 10
23.805448749
 20
44.0961227005
 10
23.7577007072
 20
43.9681476774
 10
23.714601161
 20
43.8363822217
 10
23.676578453
 20
43.7021358775
 10
23.64401047
 20
43.5667428454
 10
23.6172208872
 20
43.4315487221
 10
23.5964759516
 20
43.2978971276
 10
23.5819818356
 20
43.1671163514
 10
23.5738825883
 20
43.0405061518
 10
23.5722587036
 20
42.9193248377
 10
23.5771263204
 20
42.8047767634
 10
23.5884370622
 20
42.6980003593
 10
23.6060785178
 20
42.6000568171
 10
23.6298753583
 20
42.5119195438
 10
23.6595910802
 20
42.4344644872
 10
23.6949303551
 20
42.3684614305
 10
23.7355419657
 20
42.3145663417
 10
23.7810222953
 20
42.2733148544
 10
23.8309193401
 20
42.2451169444
 10
23.8847372008
 20
42.2302528552
 10
23.9419410113
 20
42.2288703129
 10
24.0019622545
 20
42.2409830576
 10
24.0642044123
 20
42.2664707076
 10
24.1280488941
 20
42.3050799552
 10
24.1928611849
 20
42.3564270842
 10
24.2579971508
 20
42.4200017838
 10
24.3228094416
 20
42.4951722202
 10
24.3866539234
 20
42.5811913156
 10
24.4488960812
 20
42.6772041739
 10
24.5089173244
 20
42.7822565759
 10
24.5442047382
 20
42.8503768141
  0
LWPOLYLINE
  5
342
330
1F
100
AcDbEntity
  8
0
  6
SLD-Solid
 62
     8
370
    25
100
AcDbPolyline
 90
       19
 70
   128
 43
0.0
 10
24.8730852885
 20
44.0604815962
 10
24.8737320153
 20
44.0703036709
 10
24.8785996321
 20
44.1943536316
 10
24.8769757474
 20
44.3123650233
 10
24.8688765001
 20
44.4231649956
 10
24.8543823841
 20
44.5256523686
 10
24.8336374485
 20
44.6188085768
 10
24.8068478657
 20
44.701707792
 10
24.7742798827
 20
44.7735261245
 10
24.7362571748
 20
44.8335498115
 10
24.6931576285
 20
44.8811823105
 10
24.6454095868
 20
44.9159502284
 10
24.5934875909
 20
44.937508026
 10
24.537907665
 20
44.9456414523
 10
24.4792221875
 20
44.9402696735
 10
24.4180144009
 20
44.9214460769
 10
24.3548926158
 20
44.8893577398
 10
24.2904841647
 20
44.8443235705
 10
24.2254291679
 20
44.7867911389
  0
LWPOLYLINE
  5
343
330
1F
100
AcDbEntity
  8
0
  6
SLD-Solid
 62
     8
370
    25
100
AcDbPolyline
 90
        8
 70
   128
 43
0.0
 10
24.1369873557
 20
44.8965444584
 10
24.2045512585
 20
44.9564865437
 10
24.2714843353
 20
45.0038642557
 10
24.3371616501
 20
45.0382352414
 10
24.4009699914
 20
45.0592785883
 10
24.462313598
 20
45.0667978203
 10
24.5206197211
 20
45.0607227322
 10
24.5277768313
 20
45.0589804274
  0
LWPOLYLINE
  5
344
330
1F
100
AcDbEntity
  8
0
  6
SLD-Solid
 62
     8
370
    25
100
AcDbPolyline
 90
       28
 70
   128
 43
0.0
 10
23.7405353866
 20
42.1641515099
 10
23.7255123553
 20
42.1689869227
 10
23.6727729253
 20
42.1953075859
 10
23.6243677404
 20
42.2348442597
 10
23.5807487468
 20
42.2872278009
 10
23.5423232031
 20
42.3519691185
 10
23.5094498785
 20
42.4284637403
 10
23.4824357021
 20
42.5159974565
 10
23.4615328982
 20
42.6137529885
 10
23.4469366306
 20
42.7208176192
 10
23.4387831807
 20
42.8361917149
 10
23.437148675
 20
42.9587980589
 10
23.4420483746
 20
43.0874919087
 10
23.4534365321
 20
43.2210716845
 10
23.4712068195
 20
43.358290188
 10
23.4951933204
 20
43.497866247
 10
23.5251720793
 20
43.6384966774
 10
23.5608631926
 20
43.7788684507
 10
23.601933422
 20
43.9176709535
 10
23.6479993058
 20
44.0536082244
 10
23.6986307392
 20
44.1854110535
 10
23.7533549903
 20
44.3118488334
 10
23.8116611134
 20
44.4317410487
 10
23.87300472
 20
44.5439682979
 10
23.9368130613
 20
44.6474827455
 10
24.0024903761
 20
44.7413179051
 10
24.0694234529
 20
44.8245976629
 10
24.1369873557
 20
44.8965444584
  0
LWPOLYLINE
  5
345
330
1F
100
AcDbEntity
  8
0
  6
SLD-Solid
 62
     8
370
    25
100
AcDbPolyline
 90
       25
 70
   128
 43
0.0
 10
24.3721270106
 20
42.8971438533
 10
24.3772413237
 20
42.8539247182
 10
24.3772413237
 20
42.7953124072
 10
24.370606404
 20
42.7315050308
 10
24.3576265425
 20
42.6652912776
 10
24.3388690213
 20
42.5995650062
 10
24.3151536342
 20
42.5371987702
 10
24.2875168574
 20
42.4809182733
 10
24.2571665506
 20
42.4331832432
 10
24.2254291679
 20
42.39607993
 10
24.1936917851
 20
42.3712299263
 10
24.1633414783
 20
42.3597192966
 10
24.1357047015
 20
42.3620511106
 10
24.1119893144
 20
42.378123457
 10
24.0932317932
 20
42.4072338969
 10
24.0802519317
 20
42.4481101646
 10
24.073617012
 20
42.4989657709
 10
24.073617012
 20
42.5575780819
 10
24.0802519317
 20
42.6213854583
 10
24.0932317932
 20
42.6875992115
 10
24.1119893144
 20
42.7533254829
 10
24.1357047015
 20
42.8156917189
 10
24.1633414783
 20
42.8719722158
 10
24.1936917851
 20
42.9197072459
 10
24.2106229043
 20
42.9410372088
  0
LWPOLYLINE
  5
346
330
1F
100
AcDbEntity
  8
0
  6
SLD-Solid
 62
     8
370
    25
100
AcDbPolyline
 90
       19
 70
   128
 43
0.0
 10
24.0979830268
 20
44.2891542898
 10
24.0983703465
 20
44.2884952593
 10
24.1171422777
 20
44.2678997147
 10
24.1404396214
 20
44.26110309
 10
24.1669084206
 20
44.2685003803
 10
24.1950104051
 20
44.2896616819
 10
24.2231123896
 20
44.323357177
 10
24.2495811888
 20
44.3676286058
 10
24.2728785325
 20
44.4199030738
 10
24.2916504637
 20
44.4771425789
 10
24.3048060259
 20
44.5360205692
 10
24.3115806657
 20
44.5931152699
 10
24.3115806657
 20
44.6451085445
 10
24.3048060259
 20
44.6889787328
 10
24.2916504637
 20
44.722176259
 10
24.2728785325
 20
44.7427718036
 10
24.2495811888
 20
44.7495684283
 10
24.2231123896
 20
44.742171138
 10
24.2187230614
 20
44.7397109414
  0
LWPOLYLINE
  5
347
330
1F
100
AcDbEntity
  8
0
  6
SLD-Solid
 62
     8
370
    25
100
AcDbPolyline
 90
       17
 70
   128
 43
0.0
 10
24.0979830268
 20
42.4685309431
 10
24.0983703465
 20
42.4678719126
 10
24.1171422777
 20
42.447276368
 10
24.1404396214
 20
42.4404797433
 10
24.1669084206
 20
42.4478770336
 10
24.1950104051
 20
42.4690383352
 10
24.2231123896
 20
42.5027338303
 10
24.2495811888
 20
42.5470052591
 10
24.2728785325
 20
42.5992797271
 10
24.2916504637
 20
42.6565192322
 10
24.3048060259
 20
42.7153972225
 10
24.3115806657
 20
42.7724919232
 10
24.3115806657
 20
42.8244851978
 10
24.3048060259
 20
42.8683553861
 10
24.2916504637
 20
42.9015529123
 10
24.2728785325
 20
42.9221484569
 10
24.2644796621
 20
42.926400096
  0
ARC
  5
348
330
1F
100
AcDbEntity
  8
0
  6
SLD-Solid
 62
     8
370
    25
100
AcDbCircle
 10
24.2507538322
 20
42.8705266658
 30
0.0
 40
0.0581733109197819
100
AcDbArc
 50
83.4073166307
 51
123.4088292722
  0
LWPOLYLINE
  5
349
330
1F
100
AcDbEntity
  8
0
  6
SLD-Solid
 62
     8
370
    25
100
AcDbPolyline
 90
       34
 70
   128
 43
0.0
 10
55.5628481966
 20
36.6243287532
 10
55.5243441483
 20
36.6315004829
 10
55.4644493399
 20
36.6307775667
 10
55.401800206
 20
36.6164795805
 10
55.3369816846
 20
36.5887400207
 10
55.2705989689
 20
36.5478178841
 10
55.2032718563
 20
36.4940952496
 10
55.1356289619
 20
36.428073711
 10
55.0683018493
 20
36.3503696937
 10
55.0019191336
 20
36.261708699
 10
54.9371006122
 20
36.1629185309
 10
54.8744514783
 20
36.0549215665
 10
54.8145566699
 20
35.9387261444
 10
54.7579754087
 20
35.8154171499
 10
54.7052359788
 20
35.6861458859
 10
54.6568307939
 20
35.5521193233
 10
54.6132118002
 20
35.414588832
 10
54.5747862566
 20
35.2748384972
 10
54.5419129319
 20
35.1341731301
 10
54.5148987556
 20
34.9939060854
 10
54.4939959516
 20
34.8553469986
 10
54.479399684
 20
34.7197895586
 10
54.4712462341
 20
34.5884994286
 10
54.4696117284
 20
34.4627024294
 10
54.474511428
 20
34.3435730935
 10
54.4858995855
 20
34.2322236994
 10
54.503669873
 20
34.1296938866
 10
54.5276563739
 20
34.0369409481
 10
54.5576351328
 20
33.9548308931
 10
54.593326246
 20
33.8841303613
 10
54.6343964754
 20
33.8254994643
 10
54.6804623592
 20
33.779485623
 10
54.7310937926
 20
33.7465184563
 10
54.7760526216
 20
33.7293412362
  0
ARC
  5
34A
330
1F
100
AcDbEntity
  8
0
  6
SLD-Solid
 62
     8
370
    25
100
AcDbCircle
 10
54.4740587878
 20
34.6827222753
 30
0.0
 40
1.021766485978597
100
AcDbArc
 50
302.0551687401
 51
328.058138054
  0
ARC
  5
34B
330
1F
100
AcDbEntity
  8
0
  6
SLD-Solid
 62
     8
370
    25
100
AcDbCircle
 10
53.167242054
 20
35.5804970629
 30
0.0
 40
2.607824963313467
100
AcDbArc
 50
329.9565830624
 51
335.5877265367
  0
ARC
  5
34C
330
1F
100
AcDbEntity
  8
0
  6
SLD-Solid
 62
     8
370
    25
100
AcDbCircle
 10
53.1442070361
 20
35.8473929564
 30
0.0
 40
2.702009860038628
100
AcDbArc
 50
354.1014654928
 51
359.5361722734
  0
ARC
  5
34D
330
1F
100
AcDbEntity
  8
0
  6
SLD-Solid
 62
     8
370
    25
100
AcDbCircle
 10
54.8336322343
 20
35.9585400755
 30
0.0
 40
1.00787448271111
100
AcDbArc
 50
1.3504221656
 51
27.7182184056
  0
ARC
  5
34E
330
1F
100
AcDbEntity
  8
0
  6
SLD-Solid
 62
     8
370
    25
100
AcDbCircle
 10
54.6423466738
 20
34.4659235997
 30
0.0
 40
0.6788258690589163
100
AcDbArc
 50
300.2347570395
 51
315.3448671379
  0
ARC
  5
34F
330
1F
100
AcDbEntity
  8
0
  6
SLD-Solid
 62
     8
370
    25
100
AcDbCircle
 10
54.7866597428
 20
35.9441276251
 30
0.0
 40
0.9860317663666499
100
AcDbArc
 50
3.3281475671
 51
26.8541732591
  0
LWPOLYLINE
  5
350
330
1F
100
AcDbEntity
  8
0
  6
SLD-Solid
 62
     8
370
    25
100
AcDbPolyline
 90
        3
 70
   128
 43
0.0
 10
55.7785344313
 20
35.8438901395
 10
55.7767760826
 20
35.7351040555
 10
55.772363859
 20
35.6550316448
  0
ARC
  5
351
330
1F
100
AcDbEntity
  8
0
  6
SLD-Solid
 62
     8
370
    25
100
AcDbCircle
 10
53.2727768131
 20
35.5342614622
 30
0.0
 40
2.425806208975025
100
AcDbArc
 50
329.230227653
 51
333.6944374798
  0
LINE
  5
352
330
1F
100
AcDbEntity
  8
0
  6
SLD-Solid
 62
     8
370
    25
100
AcDbLine
 10
55.1758094386
 20
34.0417878526
 30
0.0
 11
55.125229503
 21
33.9888190684
 31
0.0
  0
LWPOLYLINE
  5
353
330
1F
100
AcDbEntity
  8
0
  6
SLD-Solid
 62
     8
370
    25
100
AcDbPolyline
 90
       13
 70
   128
 43
0.0
 10
24.0851554804
 20
44.3931278551
 10
24.0899893673
 20
44.390162491
 10
24.1087428275
 20
44.3897061182
 10
24.1297967486
 20
44.4036954983
 10
24.1508696117
 20
44.4306146648
 10
24.169677845
 20
44.4675465085
 10
24.1841832847
 20
44.510488891
 10
24.1928140412
 20
44.5547883388
 10
24.1946348382
 20
44.5956443194
 10
24.1894483641
 20
44.6286294534
 10
24.1778166538
 20
44.6501692895
 10
24.1610001837
 20
44.6579296525
 10
24.1567141091
 20
44.6576644628
  0
LWPOLYLINE
  5
354
330
1F
100
AcDbEntity
  8
0
  6
SLD-Solid
 62
     8
370
    25
100
AcDbPolyline
 90
       12
 70
   128
 43
0.0
 10
24.0845688566
 20
42.5729745288
 10
24.1008945637
 20
42.5675015475
 10
24.121299053
 20
42.5758472433
 10
24.1426433415
 20
42.5979056565
 10
24.1626144443
 20
42.6312864158
 10
24.1790481824
 20
42.672372198
 10
24.1901637055
 20
42.716710721
 10
24.194756474
 20
42.7594972179
 10
24.1923287903
 20
42.7960951078
 10
24.1831437315
 20
42.8225384415
 10
24.1681966413
 20
42.8359616736
 10
24.1566236801
 20
42.8370278537
  0
INSERT
  5
35A
330
1F
100
AcDbEntity
  8
NOTES
100
AcDbBlockReference
  2
SW_NOTE_0_2
 10
23.0329717524
 20
39.8243502181
 30
0.0
  0
LINE
  5
35B
330
1F
100
AcDbEntity
  8
0
  6
SLD-Solid
 62
     7
370
    25
100
AcDbLine
 10
55.7371853478
 20
43.9038439336
 30
0.0
 11
23.8981329674
 21
52.5570161422
 31
0.0
  0
LINE
  5
35C
330
1F
100
AcDbEntity
  8
0
  6
SLD-Solid
 62
     7
370
    25
100
AcDbLine
 10
23.569252417
 20
51.3469113601
 30
0.0
 11
55.4083047974
 21
42.6937391515
 31
0.0
  0
SPLINE
  5
35D
330
1F
100
AcDbEntity
  8
0
  6
SLD-Solid
 62
     7
370
    25
100
AcDbSpline
210
0.0
220
0.0
230
1.0
 70
     8
 71
     3
 72
    43
 73
    39
 74
     0
 42
0.00000001
 43
0.00000001
 40
0.0
 40
0.0
 40
0.0
 40
0.0
 40
0.0069213223493338
 40
0.0327243926483097
 40
0.0585322855433542
 40
0.0849381981015394
 40
0.1124094219142985
 40
0.1410747576691873
 40
0.1706851755038098
 40
0.2007927297705527
 40
0.2309949499026188
 40
0.2610805282675345
 40
0.2910100105334207
 40
0.320791652625502
 40
0.3504490410077957
 40
0.380007927980948
 40
0.4094918707484078
 40
0.4389213447374223
 40
0.4683140875261693
 40
0.4976858116255173
 40
0.5270509862055381
 40
0.5564216773170214
 40
0.5858093551271427
 40
0.6152289999288865
 40
0.6446972145840734
 40
0.6742330960563546
 40
0.7038591171986036
 40
0.7336017930516041
 40
0.7634914482318783
 40
0.7935592456152042
 40
0.8238268938244495
 40
0.8542788590599403
 40
0.8847560341124434
 40
0.9148367900618928
 40
0.940971942636139
 40
0.9688265662783954
 40
0.9954767406426581
 40
1.0
 40
1.0
 40
1.0
 40
1.0
 10
19.81299726979033
 20
51.46444188641348
 30
0.0
 10
19.8183464826244
 20
51.46252308281328
 30
0.0
 10
19.8436378550394
 20
51.45345087388291
 30
0.0
 10
19.89220416129717
 20
51.44940371035922
 30
0.0
 10
19.95672342511975
 20
51.4525746126215
 30
0.0
 10
20.02240677418104
 20
51.46838011251743
 30
0.0
 10
20.08914099360812
 20
51.49566630475111
 30
0.0
 10
20.15707462232568
 20
51.53511960449682
 30
0.0
 10
20.22571873218778
 20
51.58675657885995
 30
0.0
 10
20.29423357920006
 20
51.65015570894461
 30
0.0
 10
20.36171493323929
 20
51.72438584276555
 30
0.0
 10
20.42746885356394
 20
51.80839516747306
 30
0.0
 10
20.49102426499211
 20
51.90122920089709
 30
0.0
 10
20.55202447765052
 20
52.0020438124288
 30
0.0
 10
20.61012537785554
 20
52.11000260692468
 30
0.0
 10
20.66497792557972
 20
52.22424322030241
 30
0.0
 10
20.71622902549807
 20
52.34386274885301
 30
0.0
 10
20.7635286454361
 20
52.46791553540652
 30
0.0
 10
20.80653790564989
 20
52.59541762120003
 30
0.0
 10
20.84493630378652
 20
52.72535473739784
 30
0.0
 10
20.87842680979138
 20
52.85668933487042
 30
0.0
 10
20.90674051566211
 20
52.9883702131223
 30
0.0
 10
20.9296410318249
 20
53.11934828607848
 30
0.0
 10
20.94692588855472
 20
53.24859181885433
 30
0.0
 10
20.95842507353077
 20
53.37509982176842
 30
0.0
 10
20.96399678248342
 20
53.49791048511526
 30
0.0
 10
20.96352059580193
 20
53.61611316916069
 30
0.0
 10
20.95688588332707
 20
53.72885847635174
 30
0.0
 10
20.94397401749607
 20
53.8353636537912
 30
0.0
 10
20.92463322735461
 20
53.93490455075821
 30
0.0
 10
20.89865215438116
 20
54.02678515271561
 30
0.0
 10
20.86576206916522
 20
54.11019752428423
 30
0.0
 10
20.82576582049297
 20
54.18409508522299
 30
0.0
 10
20.78028108440555
 20
54.24489657739949
 30
0.0
 10
20.72912470663392
 20
54.29459935798447
 30
0.0
 10
20.67315607721466
 20
54.33095494782128
 30
0.0
 10
20.62865845042187
 20
54.35196716705094
 30
0.0
 10
20.60346982960644
 20
54.35648535278644
 30
0.0
 10
20.59981496547374
 20
54.35714094068506
 30
0.0
  0
LINE
  5
35E
330
1F
100
AcDbEntity
  8
0
  6
SLD-Solid
 62
     7
370
    25
100
AcDbLine
 10
19.4134583753
 20
51.5717000195
 30
0.0
 11
19.8167530388
 21
51.4620931715
 31
0.0
  0
LINE
  5
35F
330
1F
100
AcDbEntity
  8
0
  6
SLD-Solid
 62
     7
370
    25
100
AcDbLine
 10
20.6035486138
 20
54.3570806884
 30
0.0
 11
20.2002539503
 21
54.4666875364
 31
0.0
  0
SPLINE
  5
360
330
1F
100
AcDbEntity
  8
0
  6
SLD-Solid
 62
     7
370
    25
100
AcDbSpline
210
0.0
220
0.0
230
1.0
 70
     8
 71
     3
 72
    19
 73
    15
 74
     0
 42
0.00000001
 43
0.00000001
 40
0.0
 40
0.0
 40
0.0
 40
0.0
 40
0.0559687513876577
 40
0.1282793472515461
 40
0.2050615546783607
 40
0.287293739494901
 40
0.3740233339347586
 40
0.4638503446948375
 40
0.555470524639667
 40
0.6477878122580365
 40
0.7396623330819809
 40
0.8299574712701637
 40
0.9175241812957182
 40
1.0
 40
1.0
 40
1.0
 40
1.0
 10
20.17009706943558
 20
53.59006136356727
 30
0.0
 10
20.1694403703337
 20
53.59118598599896
 30
0.0
 10
20.1679352280884
 20
53.59376359989718
 30
0.0
 10
20.16235380367364
 20
53.61141940745794
 30
0.0
 10
20.15818154393203
 20
53.63976667375292
 30
0.0
 10
20.15686678150494
 20
53.67832798336475
 30
0.0
 10
20.15988138417987
 20
53.72488910877401
 30
0.0
 10
20.16777391613774
 20
53.77696919098425
 30
0.0
 10
20.18056299676202
 20
53.83142653072446
 30
0.0
 10
20.19767516286713
 20
53.88496664578994
 30
0.0
 10
20.21810375967111
 20
53.93443918686334
 30
0.0
 10
20.24014546211254
 20
53.97653021998226
 30
0.0
 10
20.26225153637183
 20
54.00971787882261
 30
0.0
 10
20.27420220361438
 20
54.02250071481645
 30
0.0
 10
20.27999864214216
 20
54.02870078059898
 30
0.0
  0
SPLINE
  5
361
330
1F
100
AcDbEntity
  8
0
  6
SLD-Solid
 62
     7
370
    25
100
AcDbSpline
210
0.0
220
0.0
230
1.0
 70
     8
 71
     3
 72
     9
 73
     5
 74
     0
 42
0.00000001
 43
0.00000001
 40
0.0
 40
0.0
 40
0.0
 40
0.0
 40
0.494457583125695
 40
1.0
 40
1.0
 40
1.0
 40
1.0
 10
20.27999864214216
 20
54.02870078059898
 30
0.0
 10
20.2828762092494
 20
54.03131174174302
 30
0.0
 10
20.2886958532501
 20
54.03659219699972
 30
0.0
 10
20.29027301160128
 20
54.03739248273538
 30
0.0
 10
20.29107033204592
 20
54.03779706112037
 30
0.0
  0
SPLINE
  5
362
330
1F
100
AcDbEntity
  8
0
  6
SLD-Solid
 62
     7
370
    25
100
AcDbSpline
210
0.0
220
0.0
230
1.0
 70
     8
 71
     3
 72
    19
 73
    15
 74
     0
 42
0.00000001
 43
0.00000001
 40
0.0
 40
0.0
 40
0.0
 40
0.0
 40
0.0559687513876848
 40
0.1282793472515719
 40
0.2050615546783855
 40
0.2872937394949218
 40
0.3740233339347765
 40
0.4638503446948527
 40
0.5554705246396797
 40
0.6477878122580465
 40
0.7396623330819874
 40
0.8299574712701678
 40
0.9175241812957186
 40
0.9999999999999999
 40
0.9999999999999999
 40
0.9999999999999999
 40
0.9999999999999999
 10
20.1700970694356
 20
51.76943801687592
 30
0.0
 10
20.16944037033371
 20
51.77056263930763
 30
0.0
 10
20.16793522808841
 20
51.77314025320585
 30
0.0
 10
20.16235380367366
 20
51.7907960607666
 30
0.0
 10
20.15818154393204
 20
51.81914332706159
 30
0.0
 10
20.15686678150495
 20
51.85770463667342
 30
0.0
 10
20.15988138417988
 20
51.90426576208269
 30
0.0
 10
20.16777391613774
 20
51.95634584429292
 30
0.0
 10
20.18056299676203
 20
52.01080318403312
 30
0.0
 10
20.19767516286714
 20
52.06434329909861
 30
0.0
 10
20.21810375967111
 20
52.113815840172
 30
0.0
 10
20.24014546211256
 20
52.15590687329093
 30
0.0
 10
20.26225153637185
 20
52.18909453213128
 30
0.0
 10
20.27420220361439
 20
52.20187736812511
 30
0.0
 10
20.27999864214217
 20
52.20807743390765
 30
0.0
  0
SPLINE
  5
363
330
1F
100
AcDbEntity
  8
0
  6
SLD-Solid
 62
     7
370
    25
100
AcDbSpline
210
0.0
220
0.0
230
1.0
 70
     8
 71
     3
 72
     9
 73
     5
 74
     0
 42
0.00000001
 43
0.00000001
 40
0.0
 40
0.0
 40
0.0
 40
0.0
 40
0.4944575831255573
 40
1.0
 40
1.0
 40
1.0
 40
1.0
 10
20.27999864214217
 20
52.20807743390765
 30
0.0
 10
20.28287620924942
 20
52.21068839505168
 30
0.0
 10
20.28869585325012
 20
52.21596885030839
 30
0.0
 10
20.29027301160128
 20
52.21676913604404
 30
0.0
 10
20.29107033204593
 20
52.21717371442903
 30
0.0
  0
LINE
  5
364
330
1F
100
AcDbEntity
  8
0
  6
SLD-Solid
 62
     7
370
    25
100
AcDbLine
 10
59.4361962954
 20
43.8031991315
 30
0.0
 11
59.0329016319
 21
43.9128059795
 31
0.0
  0
LINE
  5
365
330
1F
100
AcDbEntity
  8
0
  6
SLD-Solid
 62
     7
370
    25
100
AcDbLine
 10
58.2461060569
 20
41.0178184626
 30
0.0
 11
58.6494007204
 21
40.9082116146
 31
0.0
  0
SPLINE
  5
366
330
1F
100
AcDbEntity
  8
0
  6
SLD-Solid
 62
     7
370
    25
100
AcDbSpline
210
0.0
220
0.0
230
1.0
 70
     8
 71
     3
 72
    43
 73
    39
 74
     0
 42
0.00000001
 43
0.00000001
 40
0.0
 40
0.0
 40
0.0
 40
0.0
 40
0.0061561194070162
 40
0.0319365819601604
 40
0.057721862883983
 40
0.0841046395070768
 40
0.1115517939963616
 40
0.1401920141887445
 40
0.1697764884130666
 40
0.1998576634959919
 40
0.2300334215013265
 40
0.2600926399369397
 40
0.2899958990394536
 40
0.3197514475005414
 40
0.3493828511185864
 40
0.3789158396309734
 40
0.4083739496011543
 40
0.4377776385165238
 40
0.4671446284142169
 40
0.49649061803835
 40
0.5258300638816149
 40
0.5551750214229515
 40
0.5845369507797747
 40
0.6139308191198636
 40
0.6433732147581918
 40
0.672883217926322
 40
0.7024832817871992
 40
0.7321998981500603
 40
0.762063365062058
 40
0.7921048180951535
 40
0.8223459468518798
 40
0.8527712311427335
 40
0.8832217031626405
 40
0.9132761034080189
 40
0.9393883572775827
 40
0.9672185756748717
 40
0.9938454000904106
 40
1.0
 40
1.0
 40
1.0
 40
1.0
 10
59.03488659372293
 20
43.91105574831916
 30
0.0
 10
59.03012247724472
 20
43.91275613224627
 30
0.0
 10
59.00540729771124
 20
43.92157734688837
 30
0.0
 10
58.957442251835
 20
43.92546522910409
 30
0.0
 10
58.89293351235094
 20
43.92233283161695
 30
0.0
 10
58.82724725664537
 20
43.90651669735343
 30
0.0
 10
58.7605138596632
 20
43.87923351415034
 30
0.0
 10
58.69257999679657
 20
43.83977935773729
 30
0.0
 10
58.62393595280013
 20
43.78814262435293
 30
0.0
 10
58.55542108764877
 20
43.72474342790389
 30
0.0
 10
58.48793973850788
 20
43.65051331200431
 30
0.0
 10
58.42218581687563
 20
43.56650398251268
 30
0.0
 10
58.35863040579528
 20
43.47366995036121
 30
0.0
 10
58.29763019304436
 20
43.37285533849102
 30
0.0
 10
58.23952929286398
 20
43.26489654408525
 30
0.0
 10
58.18467674513323
 20
43.15065593068351
 30
0.0
 10
58.13342564521663
 20
43.03103640213931
 30
0.0
 10
58.08612602527812
 20
42.9069836155841
 30
0.0
 10
58.04311676506446
 20
42.77948152979106
 30
0.0
 10
58.00471836692778
 20
42.64954441359305
 30
0.0
 10
57.97122786092299
 20
42.51820981612079
 30
0.0
 10
57.942914155052
 20
42.38652893786786
 30
0.0
 10
57.92001363889021
 20
42.25555086491556
 30
0.0
 10
57.90272878215667
 20
42.12630733212523
 30
0.0
 10
57.89122959719452
 20
41.9997993292653
 30
0.0
 10
57.88565788818979
 20
41.87698866571561
 30
0.0
 10
57.88613407506655
 20
41.7587859824308
 30
0.0
 10
57.89276878680823
 20
41.6460406723838
 30
0.0
 10
57.90568065539623
 20
41.53953550568362
 30
0.0
 10
57.9250214351558
 20
41.43999456827648
 30
0.0
 10
57.95100254725012
 20
41.34811411870457
 30
0.0
 10
57.98389248536981
 20
41.26470117415961
 30
0.0
 10
58.02388928172715
 20
41.19080574659029
 30
0.0
 10
58.0693720871454
 20
41.12999673397771
 30
0.0
 10
58.12053488182898
 20
41.08031894885904
 30
0.0
 10
58.17647915715227
 20
41.04386849376759
 30
0.0
 10
58.22227667952698
 20
41.02253096329682
 30
0.0
 10
58.24881238074544
 20
41.0178712629215
 30
0.0
 10
58.25379436757738
 20
41.01699642016836
 30
0.0
  0
LINE
  5
367
330
1F
100
AcDbEntity
  8
0
  6
SLD-Solid
 62
     7
370
    25
100
AcDbLine
 10
58.5660152322
 20
41.2832183434
 30
0.0
 11
58.7063791849
 21
41.3659216721
 31
0.0
  0
LINE
  5
368
330
1F
100
AcDbEntity
  8
0
  6
SLD-Solid
 62
     7
370
    25
100
AcDbLine
 10
58.7928853936
 20
41.6842183202
 30
0.0
 11
58.713692671
 21
41.8265924487
 31
0.0
  0
LINE
  5
369
330
1F
100
AcDbEntity
  8
0
  6
SLD-Solid
 62
     7
370
    25
100
AcDbLine
 10
57.5424319981
 20
43.5969467613
 30
0.0
 11
57.6378040294
 21
43.6063031672
 31
0.0
  0
LINE
  5
36A
330
1F
100
AcDbEntity
  8
0
  6
SLD-Solid
 62
     7
370
    25
100
AcDbLine
 10
57.6588410839
 20
43.6837082928
 30
0.0
 11
57.5813249359
 21
43.7400520012
 31
0.0
  0
LINE
  5
36B
330
1F
100
AcDbEntity
  8
0
  6
SLD-Solid
 62
     7
370
    25
100
AcDbLine
 10
56.4102241169
 20
43.9037738143
 30
0.0
 11
57.537857222
 21
43.5973072985
 31
0.0
  0
LINE
  5
36C
330
1F
100
AcDbEntity
  8
0
  6
SLD-Solid
 62
     7
370
    25
100
AcDbLine
 10
57.5771970008
 20
43.7420566744
 30
0.0
 11
56.4495638956
 21
44.0485231901
 31
0.0
  0
LINE
  5
36D
330
1F
100
AcDbEntity
  8
0
  6
SLD-Solid
 62
     7
370
    25
100
AcDbLine
 10
56.3431198505
 20
43.8519890549
 30
0.0
 11
56.4218751729
 21
43.8983921889
 31
0.0
  0
LINE
  5
36E
330
1F
100
AcDbEntity
  8
0
  6
SLD-Solid
 62
     7
370
    25
100
AcDbLine
 10
56.4623361771
 20
44.0472670757
 30
0.0
 11
56.4179027718
 21
44.1271502663
 31
0.0
  0
SPLINE
  5
36F
330
1F
100
AcDbEntity
  8
0
  6
SLD-Solid
 62
     7
370
    25
100
AcDbSpline
210
0.0
220
0.0
230
1.0
 70
     8
 71
     3
 72
     9
 73
     5
 74
     0
 42
0.00000001
 43
0.00000001
 40
0.0
 40
0.0
 40
0.0
 40
0.0
 40
0.4582136041432821
 40
1.0
 40
1.0
 40
1.0
 40
1.0
 10
56.30757244721794
 20
43.84591008870676
 30
0.0
 10
56.31363257235834
 20
43.84496343747212
 30
0.0
 10
56.32685811844778
 20
43.8428974769112
 30
0.0
 10
56.33878940410684
 20
43.84977578308308
 30
0.0
 10
56.345253612362
 20
43.85350235579354
 30
0.0
  0
SPLINE
  5
370
330
1F
100
AcDbEntity
  8
0
  6
SLD-Solid
 62
     7
370
    25
100
AcDbSpline
210
0.0
220
0.0
230
1.0
 70
     8
 71
     3
 72
    10
 73
     6
 74
     0
 42
0.00000001
 43
0.00000001
 40
0.0
 40
0.0
 40
0.0
 40
0.0
 40
0.2431401253886533
 40
0.737229612878334
 40
1.0
 40
1.0
 40
1.0
 40
1.0
 10
56.41946041891663
 20
44.12098815288446
 30
0.0
 10
56.41809838681623
 20
44.12478571712008
 30
0.0
 10
56.41396854441981
 20
44.13630038096596
 30
0.0
 10
56.40249775635844
 20
44.14777521363122
 30
0.0
 10
56.39110231539825
 20
44.1502153054224
 30
0.0
 10
56.38714598935564
 20
44.1510624686637
 30
0.0
  0
LINE
  5
371
330
1F
100
AcDbEntity
  8
0
  6
SLD-Solid
 62
     7
370
    25
100
AcDbLine
 10
56.2997520286
 20
43.8467507533
 30
0.0
 11
56.3046360565
 21
43.8454233791
 31
0.0
  0
LINE
  5
372
330
1F
100
AcDbEntity
  8
0
  6
SLD-Solid
 62
     7
370
    25
100
AcDbLine
 10
56.3880363874
 20
44.1522920559
 30
0.0
 11
56.3831523596
 21
44.1536194301
 31
0.0
  0
SPLINE
  5
373
330
1F
100
AcDbEntity
  8
0
  6
SLD-Solid
 62
     7
370
    25
100
AcDbSpline
210
0.0
220
0.0
230
1.0
 70
     8
 71
     3
 72
    14
 73
    10
 74
     0
 42
0.00000001
 43
0.00000001
 40
0.0
 40
0.0
 40
0.0
 40
0.0
 40
0.0664891553026706
 40
0.258031596782418
 40
0.4515332856384559
 40
0.6502153864617094
 40
0.8211041246661924
 40
0.9725245555527338
 40
1.0
 40
1.0
 40
1.0
 40
1.0
 10
56.26624630927881
 20
44.00879036876483
 30
0.0
 10
56.26490797807453
 20
44.00387363088281
 30
0.0
 10
56.25971417261719
 20
43.98479271880202
 30
0.0
 10
56.25623149560374
 20
43.9513926606888
 30
0.0
 10
56.25666219997188
 20
43.91261878160105
 30
0.0
 10
56.26377087020507
 20
43.88121679161881
 30
0.0
 10
56.27696712754528
 20
43.85979979997375
 30
0.0
 10
56.29113718585307
 20
43.84749034294889
 30
0.0
 10
56.29983539142071
 20
43.84734177729315
 30
0.0
 10
56.30117129177849
 20
43.84731896006825
 30
0.0
  0
SPLINE
  5
374
330
1F
100
AcDbEntity
  8
0
  6
SLD-Solid
 62
     7
370
    25
100
AcDbSpline
210
0.0
220
0.0
230
1.0
 70
     8
 71
     3
 72
    14
 73
    10
 74
     0
 42
0.00000001
 43
0.00000001
 40
0.0
 40
0.0
 40
0.0
 40
0.0
 40
0.0676378810000154
 40
0.2093287213869808
 40
0.3569676845275486
 40
0.5300207150863331
 40
0.7096415201882909
 40
0.8859478921273835
 40
1.0
 40
1.0
 40
1.0
 40
1.0
 10
56.38307814476885
 20
44.15215689255571
 30
0.0
 10
56.37966299931782
 20
44.15339671013946
 30
0.0
 10
56.36909365533415
 20
44.15723375272155
 30
0.0
 10
56.34990568684676
 20
44.15111995684814
 30
0.0
 10
56.32897449857077
 20
44.1368270291327
 30
0.0
 10
56.30810708420682
 20
44.1121568035743
 30
0.0
 10
56.28875290180414
 20
44.0777199368129
 30
0.0
 10
56.2740336713024
 20
44.0417388156152
 30
0.0
 10
56.26844250562135
 20
44.01808250880482
 30
0.0
 10
56.26624630927881
 20
44.00879036876483
 30
0.0
  0
SPLINE
  5
375
330
1F
100
AcDbEntity
  8
0
  6
SLD-Solid
 62
     7
370
    25
100
AcDbSpline
210
0.0
220
0.0
230
1.0
 70
     8
 71
     3
 72
    13
 73
     9
 74
     0
 42
0.00000001
 43
0.00000001
 40
0.0
 40
0.0
 40
0.0
 40
0.0
 40
0.1953686302436128
 40
0.4022869452418431
 40
0.6147448610652146
 40
0.7974823346784441
 40
0.9594016471174145
 40
1.0
 40
1.0
 40
1.0
 40
1.0
 10
22.76849768501639
 20
53.15420914110054
 30
0.0
 10
22.77060864720427
 20
53.16771668437953
 30
0.0
 10
22.77495536616842
 20
53.19553030172765
 30
0.0
 10
22.77389006179694
 20
53.2337041348812
 30
0.0
 10
22.76694829416282
 20
53.26507699984786
 30
0.0
 10
22.75373774428963
 20
53.28660291605144
 30
0.0
 10
22.73908699348284
 20
53.29901261955929
 30
0.0
 10
22.72985509475747
 20
53.29907103650574
 30
0.0
 10
22.72800439258966
 20
53.29908274724615
 30
0.0
  0
SPLINE
  5
376
330
1F
100
AcDbEntity
  8
0
  6
SLD-Solid
 62
     7
370
    25
100
AcDbSpline
210
0.0
220
0.0
230
1.0
 70
     8
 71
     3
 72
    11
 73
     7
 74
     0
 42
0.00000001
 43
0.00000001
 40
0.0
 40
0.0
 40
0.0
 40
0.0
 40
0.1770294047501022
 40
0.5808812530288539
 40
0.9814710464770349
 40
1.0
 40
1.0
 40
1.0
 40
1.0
 10
22.73310452670871
 20
53.05493563320637
 30
0.0
 10
22.736005705497
 20
53.05978242002298
 30
0.0
 10
22.74552525606083
 20
53.07568603560124
 30
0.0
 10
22.75752589717118
 20
53.10944680610708
 30
0.0
 10
22.76658073306339
 20
53.13903222977655
 30
0.0
 10
22.76841652587034
 20
53.15356658709139
 30
0.0
 10
22.76849768501639
 20
53.15420914110054
 30
0.0
  0
SPLINE
  5
377
330
1F
100
AcDbEntity
  8
0
  6
SLD-Solid
 62
     7
370
    25
100
AcDbSpline
210
0.0
220
0.0
230
1.0
 70
     8
 71
     3
 72
    12
 73
     8
 74
     0
 42
0.00000001
 43
0.00000001
 40
0.0
 40
0.0
 40
0.0
 40
0.0
 40
0.0993401053988586
 40
0.3253200765666728
 40
0.5607865932634089
 40
0.8367855128080676
 40
1.0
 40
1.0
 40
1.0
 40
1.0
 10
22.64843085045196
 20
52.99393036728921
 30
0.0
 10
22.65157661020843
 20
52.99280204870985
 30
0.0
 10
22.66187837907334
 20
52.98910701853891
 30
0.0
 10
22.68080574496254
 20
52.9951859520099
 30
0.0
 10
22.70165144782724
 20
53.00965525187514
 30
0.0
 10
22.71960413670995
 20
53.02972761553561
 30
0.0
 10
22.72944689522659
 20
53.04810607946438
 30
0.0
 10
22.73310452670871
 20
53.05493563320637
 30
0.0
  0
LINE
  5
378
330
1F
100
AcDbEntity
  8
0
  6
SLD-Solid
 62
     7
370
    25
100
AcDbLine
 10
22.7309407833
 20
53.2995694568
 30
0.0
 11
22.7260567555
 21
53.3008968309
 31
0.0
  0
LINE
  5
379
330
1F
100
AcDbEntity
  8
0
  6
SLD-Solid
 62
     7
370
    25
100
AcDbLine
 10
22.6426564245
 20
52.9940281541
 30
0.0
 11
22.6475404524
 21
52.99270078
 31
0.0
  0
SPLINE
  5
37A
330
1F
100
AcDbEntity
  8
0
  6
SLD-Solid
 62
     7
370
    25
100
AcDbSpline
210
0.0
220
0.0
230
1.0
 70
     8
 71
     3
 72
    10
 73
     6
 74
     0
 42
0.00000001
 43
0.00000001
 40
0.0
 40
0.0
 40
0.0
 40
0.0
 40
0.3906456192603341
 40
0.8372522641468789
 40
1.0
 40
1.0
 40
1.0
 40
1.0
 10
22.72463749230364
 20
53.30032862412671
 30
0.0
 10
22.71811276863312
 20
53.30123294070403
 30
0.0
 10
22.7041286372446
 20
53.3031711196174
 30
0.0
 10
22.68824047147916
 20
53.29632680078202
 30
0.0
 10
22.679943218031
 20
53.28846334251314
 30
0.0
 10
22.67772716895485
 20
53.28636315242722
 30
0.0
  0
SPLINE
  5
37B
330
1F
100
AcDbEntity
  8
0
  6
SLD-Solid
 62
     7
370
    25
100
AcDbSpline
210
0.0
220
0.0
230
1.0
 70
     8
 71
     3
 72
    10
 73
     6
 74
     0
 42
0.00000001
 43
0.00000001
 40
0.0
 40
0.0
 40
0.0
 40
0.0
 40
0.2739576769751357
 40
0.7598584326560032
 40
0.9999999999999999
 40
0.9999999999999999
 40
0.9999999999999999
 40
0.9999999999999999
 10
22.6105683115307
 20
53.02694396392239
 30
0.0
 10
22.61211432748518
 20
53.02258446771121
 30
0.0
 10
22.61640241049493
 20
53.01049281912236
 30
0.0
 10
22.62794562546921
 20
52.9986921761604
 30
0.0
 10
22.63905587674157
 20
52.99628640922304
 30
0.0
 10
22.64273063931328
 20
52.99549069163927
 30
0.0
  0
LINE
  5
37C
330
1F
100
AcDbEntity
  8
0
  6
SLD-Solid
 62
     7
370
    25
100
AcDbLine
 10
22.6875729614
 20
53.2943311552
 30
0.0
 11
22.6088176391
 21
53.2479280211
 31
0.0
  0
LINE
  5
37D
330
1F
100
AcDbEntity
  8
0
  6
SLD-Solid
 62
     7
370
    25
100
AcDbLine
 10
22.5683566349
 20
53.0990531344
 30
0.0
 11
22.6127900402
 21
53.0191699438
 31
0.0
  0
LINE
  5
37E
330
1F
100
AcDbEntity
  8
0
  6
SLD-Solid
 62
     7
370
    25
100
AcDbLine
 10
22.60641211
 20
53.2463666744
 30
0.0
 11
21.4928355899
 21
53.5490129115
 31
0.0
  0
LINE
  5
37F
330
1F
100
AcDbEntity
  8
0
  6
SLD-Solid
 62
     7
370
    25
100
AcDbLine
 10
21.4534958112
 20
53.4042635357
 30
0.0
 11
22.5670723312
 21
53.1016172986
 31
0.0
  0
LINE
  5
380
330
1F
100
AcDbEntity
  8
0
  6
SLD-Solid
 62
     7
370
    25
100
AcDbLine
 10
21.4882608139
 20
53.5493734488
 30
0.0
 11
21.3928887826
 21
53.5400170429
 31
0.0
  0
LINE
  5
381
330
1F
100
AcDbEntity
  8
0
  6
SLD-Solid
 62
     7
370
    25
100
AcDbLine
 10
21.371851728
 20
53.4626119173
 30
0.0
 11
21.449367876
 21
53.4062682089
 31
0.0
  0
LINE
  5
382
330
1F
100
AcDbEntity
  8
0
  6
SLD-Solid
 62
     7
370
    25
100
AcDbLine
 10
57.5424319981
 20
41.7763234146
 30
0.0
 11
57.6378040294
 21
41.7856798205
 31
0.0
  0
LINE
  5
383
330
1F
100
AcDbEntity
  8
0
  6
SLD-Solid
 62
     7
370
    25
100
AcDbLine
 10
57.6588410839
 20
41.8630849461
 30
0.0
 11
57.5813249359
 21
41.9194286545
 31
0.0
  0
LINE
  5
384
330
1F
100
AcDbEntity
  8
0
  6
SLD-Solid
 62
     7
370
    25
100
AcDbLine
 10
56.4102241169
 20
42.0831504676
 30
0.0
 11
57.537857222
 21
41.7766839519
 31
0.0
  0
LINE
  5
385
330
1F
100
AcDbEntity
  8
0
  6
SLD-Solid
 62
     7
370
    25
100
AcDbLine
 10
57.5771970008
 20
41.9214333277
 30
0.0
 11
56.4495638956
 21
42.2278998434
 31
0.0
  0
LINE
  5
386
330
1F
100
AcDbEntity
  8
0
  6
SLD-Solid
 62
     7
370
    25
100
AcDbLine
 10
56.3431198505
 20
42.0313657082
 30
0.0
 11
56.4218751729
 21
42.0777688423
 31
0.0
  0
LINE
  5
387
330
1F
100
AcDbEntity
  8
0
  6
SLD-Solid
 62
     7
370
    25
100
AcDbLine
 10
56.4623361771
 20
42.226643729
 30
0.0
 11
56.4179027718
 21
42.3065269196
 31
0.0
  0
SPLINE
  5
388
330
1F
100
AcDbEntity
  8
0
  6
SLD-Solid
 62
     7
370
    25
100
AcDbSpline
210
0.0
220
0.0
230
1.0
 70
     8
 71
     3
 72
    10
 73
     6
 74
     0
 42
0.00000001
 43
0.00000001
 40
0.0
 40
0.0
 40
0.0
 40
0.0
 40
0.2387493205675375
 40
0.7325839446086457
 40
1.0
 40
1.0
 40
1.0
 40
1.0
 10
56.30497699177731
 20
42.02618788811493
 30
0.0
 10
56.30843981485661
 20
42.02498666292463
 30
0.0
 10
56.31906522139133
 20
42.02130079573063
 30
0.0
 10
56.33469937926748
 20
42.02561947286797
 30
0.0
 10
56.34451510704695
 20
42.03303011206818
 30
0.0
 10
56.34796322640435
 20
42.03563335953499
 30
0.0
  0
SPLINE
  5
389
330
1F
100
AcDbEntity
  8
0
  6
SLD-Solid
 62
     7
370
    25
100
AcDbSpline
210
0.0
220
0.0
230
1.0
 70
     8
 71
     3
 72
     9
 73
     5
 74
     0
 42
0.00000001
 43
0.00000001
 40
0.0
 40
0.0
 40
0.0
 40
0.0
 40
0.5093694746659604
 40
1.0
 40
1.0
 40
1.0
 40
1.0
 10
56.41650884964841
 20
42.30724608553452
 30
0.0
 10
56.41335317699552
 20
42.31271297951957
 30
0.0
 10
56.40715792421763
 20
42.32344564854856
 30
0.0
 10
56.39587223842801
 20
42.32785214867832
 30
0.0
 10
56.3903351364803
 20
42.33001411215186
 30
0.0
  0
LINE
  5
38A
330
1F
100
AcDbEntity
  8
0
  6
SLD-Solid
 62
     7
370
    25
100
AcDbLine
 10
56.2997520286
 20
42.0261274066
 30
0.0
 11
56.3046360565
 21
42.0248000324
 31
0.0
  0
LINE
  5
38B
330
1F
100
AcDbEntity
  8
0
  6
SLD-Solid
 62
     7
370
    25
100
AcDbLine
 10
56.3880363874
 20
42.3316687092
 30
0.0
 11
56.3831523596
 21
42.3329960834
 31
0.0
  0
SPLINE
  5
38C
330
1F
100
AcDbEntity
  8
0
  6
SLD-Solid
 62
     7
370
    25
100
AcDbSpline
210
0.0
220
0.0
230
1.0
 70
     8
 71
     3
 72
    14
 73
    10
 74
     0
 42
0.00000001
 43
0.00000001
 40
0.0
 40
0.0
 40
0.0
 40
0.0
 40
0.0616698436532905
 40
0.2415165499318435
 40
0.422564037111802
 40
0.6071568927546352
 40
0.779528060060583
 40
0.9255805253213987
 40
1.0
 40
1.0
 40
1.0
 40
1.0
 10
56.27024560040856
 20
42.20347375202832
 30
0.0
 10
56.26871990640662
 20
42.19871022320976
 30
0.0
 10
56.26274485718046
 20
42.1800548970794
 30
0.0
 10
56.25754928108805
 20
42.14609744205647
 30
0.0
 10
56.25564985888448
 20
42.10575031027121
 30
0.0
 10
56.26042995277624
 20
42.07135123096569
 30
0.0
 10
56.27121442840104
 20
42.04649163318977
 30
0.0
 10
56.28542401402278
 20
42.03038041513499
 30
0.0
 10
56.29673403607152
 20
42.02814416284541
 30
0.0
 10
56.30055169150514
 20
42.02738932429006
 30
0.0
  0
SPLINE
  5
38D
330
1F
100
AcDbEntity
  8
0
  6
SLD-Solid
 62
     7
370
    25
100
AcDbSpline
210
0.0
220
0.0
230
1.0
 70
     8
 71
     3
 72
    14
 73
    10
 74
     0
 42
0.00000001
 43
0.00000001
 40
0.0
 40
0.0
 40
0.0
 40
0.0
 40
0.0127073121877515
 40
0.1674199958561155
 40
0.3189415894973419
 40
0.4942358118271949
 40
0.6872265634996048
 40
0.8768564019192736
 40
1.0
 40
1.0
 40
1.0
 40
1.0
 10
56.38313139524612
 20
42.33254894691796
 30
0.0
 10
56.38257802799018
 20
42.33284977606478
 30
0.0
 10
56.37528736397499
 20
42.33681322748305
 30
0.0
 10
56.35791960299962
 20
42.33348663837855
 30
0.0
 10
56.33678882032457
 20
42.32281840966061
 30
0.0
 10
56.3157618878552
 20
42.30184564968323
 30
0.0
 10
56.29567335439081
 20
42.27079871790048
 30
0.0
 10
56.27957537036174
 20
42.23639103363242
 30
0.0
 10
56.27288119697891
 20
42.21277266024754
 30
0.0
 10
56.27024560040856
 20
42.20347375202832
 30
0.0
  0
SPLINE
  5
38E
330
1F
100
AcDbEntity
  8
0
  6
SLD-Solid
 62
     7
370
    25
100
AcDbSpline
210
0.0
220
0.0
230
1.0
 70
     8
 71
     3
 72
    14
 73
    10
 74
     0
 42
0.00000001
 43
0.00000001
 40
0.0
 40
0.0
 40
0.0
 40
0.0
 40
0.0161507734350867
 40
0.2053435956823782
 40
0.3957995999602905
 40
0.5899852153012999
 40
0.7713140163201114
 40
0.9249564080582757
 40
1.0
 40
1.0
 40
1.0
 40
1.0
 10
22.76373763646885
 20
51.31236953553883
 30
0.0
 10
22.76410634518979
 20
51.31355821826001
 30
0.0
 10
22.76879416864437
 20
51.32867132631468
 30
0.0
 10
22.77302203482797
 20
51.35900690538828
 30
0.0
 10
22.77507583971762
 20
51.39931356919175
 30
0.0
 10
22.77025666507159
 20
51.43372899452623
 30
0.0
 10
22.75947296926887
 20
51.45856656574713
 30
0.0
 10
22.74539795016589
 20
51.47460307332793
 30
0.0
 10
22.73425606997018
 20
51.47682810690158
 30
0.0
 10
22.73059984803031
 20
51.4775582544553
 30
0.0
  0
SPLINE
  5
38F
330
1F
100
AcDbEntity
  8
0
  6
SLD-Solid
 62
     7
370
    25
100
AcDbSpline
210
0.0
220
0.0
230
1.0
 70
     8
 71
     3
 72
    14
 73
    10
 74
     0
 42
0.00000001
 43
0.00000001
 40
0.0
 40
0.0
 40
0.0
 40
0.0
 40
0.0284776764716052
 40
0.1736371979032487
 40
0.3158026719807822
 40
0.4802728680875066
 40
0.6613468724241562
 40
0.8392674923855031
 40
1.0
 40
1.0
 40
1.0
 40
1.0
 10
22.6452417033273
 20
51.17373203041838
 30
0.0
 10
22.64655396214042
 20
51.17298384370418
 30
0.0
 10
22.65455520983564
 20
51.16842191799053
 30
0.0
 10
22.67272890166974
 20
51.17145093304803
 30
0.0
 10
22.69392010105662
 20
51.18229579698212
 30
0.0
 10
22.71491512326405
 20
51.20322267773283
 30
0.0
 10
22.73506779931657
 20
51.23424462199402
 30
0.0
 10
22.75248528733034
 20
51.27207692492832
 30
0.0
 10
22.76011594980801
 20
51.29940093595287
 30
0.0
 10
22.76373763646885
 20
51.31236953553883
 30
0.0
  0
LINE
  5
390
330
1F
100
AcDbEntity
  8
0
  6
SLD-Solid
 62
     7
370
    25
100
AcDbLine
 10
22.7309407833
 20
51.4789461101
 30
0.0
 11
22.7260567555
 21
51.4802734842
 31
0.0
  0
LINE
  5
391
330
1F
100
AcDbEntity
  8
0
  6
SLD-Solid
 62
     7
370
    25
100
AcDbLine
 10
22.6426564245
 20
51.1734048074
 30
0.0
 11
22.6475404524
 21
51.1720774333
 31
0.0
  0
SPLINE
  5
392
330
1F
100
AcDbEntity
  8
0
  6
SLD-Solid
 62
     7
370
    25
100
AcDbSpline
210
0.0
220
0.0
230
1.0
 70
     8
 71
     3
 72
    10
 73
     6
 74
     0
 42
0.00000001
 43
0.00000001
 40
0.0
 40
0.0
 40
0.0
 40
0.0
 40
0.2306232983672584
 40
0.7294937823710491
 40
1.0
 40
1.0
 40
1.0
 40
1.0
 10
22.725257092577
 20
51.47901156652225
 30
0.0
 10
22.72194509298121
 20
51.4801536730778
 30
0.0
 10
22.71146877454569
 20
51.48376631601971
 30
0.0
 10
22.69598743411138
 20
51.479445568447
 30
0.0
 10
22.68616782265336
 20
51.47203561653222
 30
0.0
 10
22.68271533189239
 20
51.46943034129965
 30
0.0
  0
SPLINE
  5
393
330
1F
100
AcDbEntity
  8
0
  6
SLD-Solid
 62
     7
370
    25
100
AcDbSpline
210
0.0
220
0.0
230
1.0
 70
     8
 71
     3
 72
     9
 73
     5
 74
     0
 42
0.00000001
 43
0.00000001
 40
0.0
 40
0.0
 40
0.0
 40
0.0
 40
0.5260999341647243
 40
1.0
 40
1.0
 40
1.0
 40
1.0
 10
22.61169709409788
 20
51.20122984611202
 30
0.0
 10
22.61556243980437
 20
51.19448057406493
 30
0.0
 10
22.62290960990546
 20
51.18165169573061
 30
0.0
 10
22.63632149541165
 20
51.17635978210834
 30
0.0
 10
22.64267738883602
 20
51.17385194389435
 30
0.0
  0
LINE
  5
394
330
1F
100
AcDbEntity
  8
0
  6
SLD-Solid
 62
     7
370
    25
100
AcDbLine
 10
22.6875729614
 20
51.4737078085
 30
0.0
 11
22.6088176391
 21
51.4273046744
 31
0.0
  0
LINE
  5
395
330
1F
100
AcDbEntity
  8
0
  6
SLD-Solid
 62
     7
370
    25
100
AcDbLine
 10
22.5683566349
 20
51.2784297877
 30
0.0
 11
22.6127900402
 21
51.1985465971
 31
0.0
  0
LINE
  5
396
330
1F
100
AcDbEntity
  8
0
  6
SLD-Solid
 62
     7
370
    25
100
AcDbLine
 10
22.60641211
 20
51.4257433277
 30
0.0
 11
21.4928355899
 21
51.7283895648
 31
0.0
  0
LINE
  5
397
330
1F
100
AcDbEntity
  8
0
  6
SLD-Solid
 62
     7
370
    25
100
AcDbLine
 10
21.4534958112
 20
51.583640189
 30
0.0
 11
22.5670723312
 21
51.2809939519
 31
0.0
  0
LINE
  5
398
330
1F
100
AcDbEntity
  8
0
  6
SLD-Solid
 62
     7
370
    25
100
AcDbLine
 10
21.4882608139
 20
51.7287501021
 30
0.0
 11
21.3928887826
 21
51.7193936962
 31
0.0
  0
LINE
  5
399
330
1F
100
AcDbEntity
  8
0
  6
SLD-Solid
 62
     7
370
    25
100
AcDbLine
 10
21.371851728
 20
51.6419885706
 30
0.0
 11
21.449367876
 21
51.5856448622
 31
0.0
  0
LWPOLYLINE
  5
39A
330
1F
100
AcDbEntity
  8
0
  6
SLD-Solid
 62
     7
370
    25
100
AcDbPolyline
 90
       41
 70
   128
 43
0.0
 10
55.2997282701
 20
43.0323187736
 10
55.30308956
 20
43.1140424428
 10
55.3130906635
 20
43.200315248
 10
55.3294853203
 20
43.2890128664
 10
55.3518698396
 20
43.3779512683
 10
55.3796930401
 20
43.464940495
 10
55.4122698224
 20
43.5478385831
 10
55.448798038
 20
43.6246043065
 10
55.4883782409
 20
43.6933474383
 10
55.5300358351
 20
43.7523752945
 10
55.5727450726
 20
43.8002344134
 10
55.61545431
 20
43.8357463447
 10
55.6571119043
 20
43.8580366666
 10
55.6966921072
 20
43.8665565176
 10
55.7332203227
 20
43.8610961106
 10
55.765797105
 20
43.8417898989
 10
55.7936203056
 20
43.8091132656
 10
55.8160048249
 20
43.7638708178
 10
55.8323994817
 20
43.7071765747
 10
55.8424005852
 20
43.6404265368
 10
55.8457618751
 20
43.5652643115
 10
55.8424005852
 20
43.4835406423
 10
55.8323994817
 20
43.3972678371
 10
55.8160048249
 20
43.3085702187
 10
55.7936203056
 20
43.2196318168
 10
55.765797105
 20
43.1326425901
 10
55.7332203227
 20
43.049744502
 10
55.6966921072
 20
42.9729787786
 10
55.6571119043
 20
42.9042356468
 10
55.61545431
 20
42.8452077905
 10
55.5727450726
 20
42.7973486716
 10
55.5300358351
 20
42.7618367404
 10
55.4883782409
 20
42.7395464185
 10
55.448798038
 20
42.7310265675
 10
55.4122698224
 20
42.7364869745
 10
55.3796930401
 20
42.7557931862
 10
55.3518698396
 20
42.7884698195
 10
55.3294853203
 20
42.8337122673
 10
55.3130906635
 20
42.8904065104
 10
55.30308956
 20
42.9571565483
 10
55.2997282701
 20
43.0323187736
  0
LWPOLYLINE
  5
39B
330
1F
100
AcDbEntity
  8
0
  6
SLD-Solid
 62
     7
370
    25
100
AcDbPolyline
 90
       43
 70
   128
 43
0.0
 10
55.2801270637
 20
43.0131873953
 10
55.2833953651
 20
43.0964792141
 10
55.2931272608
 20
43.1842903559
 10
55.3091053564
 20
43.2746592651
 10
55.3309727276
 20
43.3655672495
 10
55.3582408935
 20
43.454983575
 10
55.3903007282
 20
43.5409108285
 10
55.4264360682
 20
43.6214295373
 10
55.4658397095
 20
43.6947410464
 10
55.50763144
 20
43.7592076979
 10
55.5508777014
 20
43.8133894133
 10
55.5946124438
 20
43.8560758626
 10
55.6378587052
 20
43.8863135011
 10
55.6796504357
 20
43.9034268699
 10
55.719054077
 20
43.9070336846
 10
55.755189417
 20
43.8970533749
 10
55.7872492517
 20
43.8737088845
 10
55.8145174176
 20
43.8375216907
 10
55.8363847888
 20
43.7893001556
 10
55.8523628843
 20
43.7301214686
 10
55.8620947801
 20
43.6613075839
 10
55.8653630814
 20
43.5843956898
 10
55.8620947801
 20
43.501103871
 10
55.8523628843
 20
43.4132927291
 10
55.8363847888
 20
43.3229238199
 10
55.8145174176
 20
43.2320158355
 10
55.7872492517
 20
43.1425995101
 10
55.755189417
 20
43.0566722566
 10
55.719054077
 20
42.9761535478
 10
55.6796504357
 20
42.9028420387
 10
55.6378587052
 20
42.8383753872
 10
55.5946124438
 20
42.7841936718
 10
55.5508777014
 20
42.7415072225
 10
55.50763144
 20
42.711269584
 10
55.4658397095
 20
42.6941562152
 10
55.4264360682
 20
42.6905494005
 10
55.3903007282
 20
42.7005297102
 10
55.3582408935
 20
42.7238742006
 10
55.3309727276
 20
42.7600613944
 10
55.3091053564
 20
42.8082829295
 10
55.2931272608
 20
42.8674616164
 10
55.2833953651
 20
42.9362755012
 10
55.2801270637
 20
43.0131873953
  0
LWPOLYLINE
  5
39C
330
1F
100
AcDbEntity
  8
0
  6
SLD-Solid
 62
     7
370
    25
100
AcDbPolyline
 90
       16
 70
   128
 43
0.0
 10
23.4410746833
 20
51.6663596039
 10
23.4443429847
 20
51.7496514227
 10
23.4540748805
 20
51.8374625646
 10
23.470052976
 20
51.9278314738
 10
23.4919203472
 20
52.0187394582
 10
23.5191885131
 20
52.1081557836
 10
23.5512483478
 20
52.1940830371
 10
23.5873836878
 20
52.2746017459
 10
23.6267873291
 20
52.347913255
 10
23.6685790596
 20
52.4123799065
 10
23.711825321
 20
52.4665616219
 10
23.7555600634
 20
52.5092480712
 10
23.7988063248
 20
52.5394857097
 10
23.8405980553
 20
52.5565990785
 10
23.8800016966
 20
52.5602058932
 10
23.8981329674
 20
52.5570161422
  0
LWPOLYLINE
  5
39D
330
1F
100
AcDbEntity
  8
0
  6
SLD-Solid
 62
     7
370
    25
100
AcDbPolyline
 90
        8
 70
   128
 43
0.0
 10
23.569252417
 20
51.3469113601
 10
23.5512483478
 20
51.3537019188
 10
23.5191885131
 20
51.3770464092
 10
23.4919203472
 20
51.413233603
 10
23.470052976
 20
51.4614551381
 10
23.4540748805
 20
51.5206338251
 10
23.4443429847
 20
51.5894477098
 10
23.4410746833
 20
51.6663596039
  0
LWPOLYLINE
  5
39E
330
1F
100
AcDbEntity
  8
0
  6
SLD-Solid
 62
     7
370
    25
100
AcDbPolyline
 90
       64
 70
   128
 43
0.0
 10
20.2985926384
 20
54.0855845615
 10
20.2335376416
 20
54.0161256506
 10
20.1691291905
 20
53.9354305743
 10
20.1060074054
 20
53.8443013166
 10
20.0447996188
 20
53.743643561
 10
19.9861141413
 20
53.6344576894
 10
19.9305342154
 20
53.5178288401
 10
19.8786122195
 20
53.3949161231
 10
19.8308641778
 20
53.2669411
 10
19.7877646315
 20
53.1351756443
 10
19.7497419236
 20
53.0009293001
 10
19.7171739406
 20
52.8655362679
 10
19.6903843578
 20
52.7303421447
 10
19.6696394222
 20
52.5966905502
 10
19.6551453062
 20
52.465909774
 10
19.6470460589
 20
52.3392995744
 10
19.6454221742
 20
52.2181182603
 10
19.650289791
 20
52.103570186
 10
19.6616005328
 20
51.9967937819
 10
19.6792419883
 20
51.8988502397
 10
19.7030388289
 20
51.8107129664
 10
19.7327545507
 20
51.7332579098
 10
19.7680938257
 20
51.6672548531
 10
19.8087054363
 20
51.6133597643
 10
19.8541857659
 20
51.572108277
 10
19.9040828107
 20
51.543910367
 10
19.9579006714
 20
51.5290462778
 10
20.0151044819
 20
51.5276637355
 10
20.0751257251
 20
51.5397764802
 10
20.1373678829
 20
51.5652641302
 10
20.2012123647
 20
51.6038733778
 10
20.2660246555
 20
51.6552205068
 10
20.3311606214
 20
51.7187952064
 10
20.3959729122
 20
51.7939656427
 10
20.459817394
 20
51.8799847382
 10
20.5220595518
 20
51.9759975964
 10
20.582080795
 20
52.0810499985
 10
20.6392846055
 20
52.1940978863
 10
20.6931024662
 20
52.3140177393
 10
20.742999511
 20
52.4396177401
 10
20.7884798406
 20
52.5696496193
 10
20.8290914512
 20
52.7028210619
 10
20.8644307261
 20
52.8378085502
 10
20.894146448
 20
52.9732705178
 10
20.9179432885
 20
53.1078606828
 10
20.9355847441
 20
53.2402414278
 10
20.9468954859
 20
53.3690970935
 10
20.9517631027
 20
53.4931470542
 10
20.950139218
 20
53.6111584459
 10
20.9420399707
 20
53.7219584181
 10
20.9275458547
 20
53.8244457912
 10
20.9068009191
 20
53.9176019994
 10
20.8800113363
 20
54.0005012146
 10
20.8474433533
 20
54.0723195471
 10
20.8094206453
 20
54.132343234
 10
20.7663210991
 20
54.179975733
 10
20.7185730573
 20
54.214743651
 10
20.6666510615
 20
54.2363014486
 10
20.6110711356
 20
54.2444348749
 10
20.5523856581
 20
54.2390630961
 10
20.4911778715
 20
54.2202394995
 10
20.4280560864
 20
54.1881511624
 10
20.3636476353
 20
54.1431169931
 10
20.2985926384
 20
54.0855845615
  0
LINE
  5
39F
330
1F
100
AcDbEntity
  8
0
  6
SLD-Solid
 62
     7
370
    25
100
AcDbLine
 10
19.8167530388
 20
51.4620931715
 30
0.0
 11
19.8136988572
 21
51.4629449325
 31
0.0
  0
LWPOLYLINE
  5
3A0
330
1F
100
AcDbEntity
  8
0
  6
SLD-Solid
 62
     7
370
    25
100
AcDbPolyline
 90
       28
 70
   128
 43
0.0
 10
19.8068561628
 20
54.304944729
 10
19.73929226
 20
54.2329979335
 10
19.6723591832
 20
54.1497181756
 10
19.6066818684
 20
54.0558830161
 10
19.5428735271
 20
53.9523685685
 10
19.4815299205
 20
53.8401413192
 10
19.4232237974
 20
53.720249104
 10
19.3684995463
 20
53.5938113241
 10
19.3178681129
 20
53.4620084949
 10
19.2718022291
 20
53.3260712241
 10
19.2307319997
 20
53.1872687212
 10
19.1950408864
 20
53.0468969479
 10
19.1650621276
 20
52.9062665176
 10
19.1410756266
 20
52.7666904586
 10
19.1233053392
 20
52.6294719551
 10
19.1119171817
 20
52.4958921793
 10
19.1070174821
 20
52.3671983295
 10
19.1086519878
 20
52.2445919855
 10
19.1168054377
 20
52.1292178897
 10
19.1314017053
 20
52.0221532591
 10
19.1523045092
 20
51.9243977271
 10
19.1793186856
 20
51.8368640109
 10
19.2121920102
 20
51.7603693891
 10
19.2506175539
 20
51.6956280715
 10
19.2942365476
 20
51.6432445303
 10
19.3426417324
 20
51.6037078564
 10
19.3953811624
 20
51.5773871933
 10
19.4134583753
 20
51.5717000195
  0
LWPOLYLINE
  5
3A1
330
1F
100
AcDbEntity
  8
0
  6
SLD-Solid
 62
     7
370
    25
100
AcDbPolyline
 90
        8
 70
   128
 43
0.0
 10
20.2002539503
 20
54.4666875364
 10
20.1904885282
 20
54.4691230028
 10
20.1321824051
 20
54.4751980908
 10
20.0708387985
 20
54.4676788589
 10
20.0070304572
 20
54.446635512
 10
19.9413531424
 20
54.4122645262
 10
19.8744200656
 20
54.3648868143
 10
19.8068561628
 20
54.304944729
  0
ARC
  5
3A2
330
1F
100
AcDbEntity
  8
0
  6
SLD-Solid
 62
     7
370
    25
100
AcDbCircle
 10
17.0544694631
 20
53.7672335064
 30
0.0
 40
3.433000541965853
100
AcDbArc
 50
334.3067665166
 51
355.284207166
  0
LWPOLYLINE
  5
3A3
330
1F
100
AcDbEntity
  8
0
  6
SLD-Solid
 62
     7
370
    25
100
AcDbPolyline
 90
       31
 70
   128
 43
0.0
 10
20.2985926384
 20
54.0762273284
 10
20.3303300212
 20
54.1010773321
 10
20.360680328
 20
54.1125879618
 10
20.3883171048
 20
54.1102561477
 10
20.4120324919
 20
54.0941838014
 10
20.4307900131
 20
54.0650733615
 10
20.4437698746
 20
54.0241970938
 10
20.4504047943
 20
53.9733414874
 10
20.4504047943
 20
53.9147291765
 10
20.4437698746
 20
53.8509218001
 10
20.4307900131
 20
53.7847080469
 10
20.4120324919
 20
53.7189817755
 10
20.3883171048
 20
53.6566155395
 10
20.360680328
 20
53.6003350425
 10
20.3303300212
 20
53.5526000125
 10
20.2985926384
 20
53.5154966992
 10
20.2668552557
 20
53.4906466955
 10
20.2365049489
 20
53.4791360659
 10
20.2088681721
 20
53.4814678799
 10
20.185152785
 20
53.4975402262
 10
20.1663952638
 20
53.5266506662
 10
20.1534154023
 20
53.5675269339
 10
20.1467804826
 20
53.6183825402
 10
20.1467804826
 20
53.6769948512
 10
20.1534154023
 20
53.7408022276
 10
20.1663952638
 20
53.8070159808
 10
20.185152785
 20
53.8727422522
 10
20.2088681721
 20
53.9351084882
 10
20.2365049489
 20
53.9913889851
 10
20.2668552557
 20
54.0391240151
 10
20.2985926384
 20
54.0762273284
  0
LWPOLYLINE
  5
3A4
330
1F
100
AcDbEntity
  8
0
  6
SLD-Solid
 62
     7
370
    25
100
AcDbPolyline
 90
       31
 70
   128
 43
0.0
 10
20.2985926384
 20
52.2556039817
 10
20.3303300212
 20
52.2804539854
 10
20.360680328
 20
52.2919646151
 10
20.3883171048
 20
52.2896328011
 10
20.4120324919
 20
52.2735604547
 10
20.4307900131
 20
52.2444500148
 10
20.4437698746
 20
52.2035737471
 10
20.4504047943
 20
52.1527181407
 10
20.4504047943
 20
52.0941058298
 10
20.4437698746
 20
52.0302984534
 10
20.4307900131
 20
51.9640847002
 10
20.4120324919
 20
51.8983584288
 10
20.3883171048
 20
51.8359921928
 10
20.360680328
 20
51.7797116959
 10
20.3303300212
 20
51.7319766658
 10
20.2985926384
 20
51.6948733525
 10
20.2668552557
 20
51.6700233489
 10
20.2365049489
 20
51.6585127192
 10
20.2088681721
 20
51.6608445332
 10
20.185152785
 20
51.6769168795
 10
20.1663952638
 20
51.7060273195
 10
20.1534154023
 20
51.7469035872
 10
20.1467804826
 20
51.7977591935
 10
20.1467804826
 20
51.8563715045
 10
20.1534154023
 20
51.9201788809
 10
20.1663952638
 20
51.9863926341
 10
20.185152785
 20
52.0521189055
 10
20.2088681721
 20
52.1144851415
 10
20.2365049489
 20
52.1707656384
 10
20.2668552557
 20
52.2185006685
 10
20.2985926384
 20
52.2556039817
  0
LWPOLYLINE
  5
3A5
330
1F
100
AcDbEntity
  8
0
  6
SLD-Solid
 62
     7
370
    25
100
AcDbPolyline
 90
       43
 70
   128
 43
0.0
 10
20.2985926384
 20
53.4362803312
 10
20.2539020485
 20
53.3865097464
 10
20.2102097726
 20
53.3255485563
 10
20.1684918238
 20
53.2547585332
 10
20.1296801122
 20
53.1757210091
 10
20.0946416273
 20
53.0902015517
 10
20.064159071
 20
53.0001105245
 10
20.0389133732
 20
52.9074604121
 10
20.0194684811
 20
52.8143208649
 10
20.0062587614
 20
52.7227724665
 10
19.9995792975
 20
52.6348602568
 10
19.9995792975
 20
52.5525480493
 10
20.0062587614
 20
52.4776745627
 10
20.0194684811
 20
52.411912347
 10
20.0389133732
 20
52.3567304214
 10
20.064159071
 20
52.313361459
 10
20.0946416273
 20
52.2827742506
 10
20.1296801122
 20
52.2656520641
 10
20.1684918238
 20
52.2623773807
 10
20.2102097726
 20
52.2730233514
 10
20.2539020485
 20
52.2973521629
 10
20.2985926384
 20
52.3348203498
 10
20.3432832284
 20
52.3845909346
 10
20.3869755043
 20
52.4455521246
 10
20.4286934531
 20
52.5163421478
 10
20.4675051647
 20
52.5953796719
 10
20.5025436496
 20
52.6808991292
 10
20.5330262059
 20
52.7709901564
 10
20.5582719037
 20
52.8636402688
 10
20.5777167958
 20
52.9567798161
 10
20.5909265155
 20
53.0483282145
 10
20.5976059794
 20
53.1362404242
 10
20.5976059794
 20
53.2185526317
 10
20.5909265155
 20
53.2934261183
 10
20.5777167958
 20
53.359188334
 10
20.5582719037
 20
53.4143702595
 10
20.5330262059
 20
53.457739222
 10
20.5025436496
 20
53.4883264303
 10
20.4675051647
 20
53.5054486169
 10
20.4286934531
 20
53.5087233003
 10
20.3869755043
 20
53.4980773295
 10
20.3432832284
 20
53.473748518
 10
20.2985926384
 20
53.4362803312
  0
LWPOLYLINE
  5
3A6
330
1F
100
AcDbEntity
  8
0
  6
SLD-Solid
 62
     7
370
    25
100
AcDbPolyline
 90
       22
 70
   128
 43
0.0
 10
20.4443166844
 20
53.5091008099
 10
20.4583227435
 20
53.5003447251
 10
20.4888052998
 20
53.4697575167
 10
20.5140509976
 20
53.4263885543
 10
20.5334958897
 20
53.3712066287
 10
20.5467056094
 20
53.305444413
 10
20.5533850733
 20
53.2305709264
 10
20.5533850733
 20
53.1482587189
 10
20.5467056094
 20
53.0603465092
 10
20.5334958897
 20
52.9687981108
 10
20.5140509976
 20
52.8756585636
 10
20.4888052998
 20
52.7830084512
 10
20.4583227435
 20
52.692917424
 10
20.4232842586
 20
52.6073979666
 10
20.3844725471
 20
52.5283604425
 10
20.3427545982
 20
52.4575704194
 10
20.2990623223
 20
52.3966092293
 10
20.2543717324
 20
52.3468386445
 10
20.2096811425
 20
52.3093704577
 10
20.1659888665
 20
52.2850416462
 10
20.1242709177
 20
52.2743956754
 10
20.1086476864
 20
52.2740181658
  0
LWPOLYLINE
  5
3A7
330
1F
100
AcDbEntity
  8
0
  6
SLD-Solid
 62
     7
370
    25
100
AcDbPolyline
 90
       66
 70
   128
 43
0.0
 10
59.0427985079
 20
41.069954422
 10
58.9752346051
 20
41.0100123367
 10
58.9083015283
 20
40.9626346247
 10
58.8426242135
 20
40.928263639
 10
58.7788158722
 20
40.9072202921
 10
58.7174722656
 20
40.8997010602
 10
58.6591661425
 20
40.9057761482
 10
58.6044418915
 20
40.9253888347
 10
58.553810458
 20
40.9583560014
 10
58.5077445742
 20
41.0043698426
 10
58.4666743449
 20
41.0630007396
 10
58.4309832316
 20
41.1337012715
 10
58.4010044727
 20
41.2158113264
 10
58.3770179718
 20
41.3085642649
 10
58.3592476843
 20
41.4110940778
 10
58.3478595268
 20
41.5224434719
 10
58.3429598273
 20
41.6415728078
 10
58.3445943329
 20
41.767369807
 10
58.3527477828
 20
41.8986599369
 10
58.3673440505
 20
42.0342173769
 10
58.3882468544
 20
42.1727764638
 10
58.4152610307
 20
42.3130435085
 10
58.4481343554
 20
42.4537088756
 10
58.486559899
 20
42.5934592104
 10
58.5301788927
 20
42.7309897016
 10
58.5785840776
 20
42.8650162642
 10
58.6313235075
 20
42.9942875283
 10
58.6879047687
 20
43.1175965228
 10
58.7477995771
 20
43.2337919449
 10
58.810448711
 20
43.3417889093
 10
58.8752672324
 20
43.4405790774
 10
58.9416499481
 20
43.529240072
 10
59.0089770607
 20
43.6069440894
 10
59.0766199551
 20
43.6729656279
 10
59.1439470677
 20
43.7266882624
 10
59.2103297835
 20
43.7676103991
 10
59.2751483048
 20
43.7953499589
 10
59.3377974388
 20
43.8096479451
 10
59.3976922471
 20
43.8103708613
 10
59.4542735083
 20
43.7975119577
 10
59.5070129383
 20
43.7711912946
 10
59.5554181232
 20
43.7316546207
 10
59.5990371168
 20
43.6792710795
 10
59.6374626605
 20
43.6145297619
 10
59.6703359851
 20
43.5380351401
 10
59.6973501615
 20
43.4505014239
 10
59.7182529654
 20
43.3527458919
 10
59.732849233
 20
43.2456812613
 10
59.7410026829
 20
43.1303071655
 10
59.7426371886
 20
43.0077008215
 10
59.7377374891
 20
42.8790069717
 10
59.7263493315
 20
42.7454271959
 10
59.7085790441
 20
42.6082086924
 10
59.6845925432
 20
42.4686326334
 10
59.6546137843
 20
42.3280022031
 10
59.618922671
 20
42.1876304298
 10
59.5778524416
 20
42.0488279269
 10
59.5317865578
 20
41.9128906561
 10
59.4811551244
 20
41.7810878269
 10
59.4264308733
 20
41.654650047
 10
59.3681247502
 20
41.5347578318
 10
59.3067811436
 20
41.4225305825
 10
59.2429728023
 20
41.3190161349
 10
59.1772954875
 20
41.2251809754
 10
59.1103624107
 20
41.1419012175
 10
59.0427985079
 20
41.069954422
  0
LWPOLYLINE
  5
3A8
330
1F
100
AcDbEntity
  8
0
  6
SLD-Solid
 62
     7
370
    25
100
AcDbPolyline
 90
       65
 70
   128
 43
0.0
 10
59.0427985079
 20
41.112812787
 10
58.9764694942
 20
41.0540585037
 10
58.910779265
 20
41.0078397913
 10
58.8463604534
 20
40.9746017612
 10
58.7838334476
 20
40.9546645139
 10
58.7238004169
 20
40.948220056
 10
58.6668395123
 20
40.9553304511
 10
58.6134992982
 20
40.9759272222
 10
58.5642934702
 20
41.0098120112
 10
58.5196959074
 20
41.056658489
 10
58.4801361085
 20
41.1160154984
 10
58.4459950561
 20
41.1873113989
 10
58.4176015472
 20
41.2698595722
 10
58.3952290268
 20
41.3628650341
 10
58.3790929545
 20
41.4654320912
 10
58.3693487295
 20
41.5765729667
 10
58.366090194
 20
41.6952173132
 10
58.3693487295
 20
41.8202225208
 10
58.3790929545
 20
41.9503847209
 10
58.3952290268
 20
42.0844503805
 10
58.4176015472
 20
42.221128374
 10
58.4459950561
 20
42.3591024175
 10
58.4801361085
 20
42.4970437456
 10
58.5196959074
 20
42.633623908
 10
58.5642934702
 20
42.7675275629
 10
58.6134992982
 20
42.897465145
 10
58.6668395123
 20
43.0221852844
 10
58.7238004169
 20
43.1404868578
 10
58.7838334476
 20
43.2512305566
 10
58.8463604534
 20
43.3533498583
 10
58.910779265
 20
43.4458612983
 10
58.9764694942
 20
43.5278739407
 10
59.0427985079
 20
43.5985979591
 10
59.1091275217
 20
43.6573522424
 10
59.1748177508
 20
43.7035709548
 10
59.2392365624
 20
43.7368089849
 10
59.3017635682
 20
43.7567462322
 10
59.3617965989
 20
43.7631906901
 10
59.4187575036
 20
43.756080295
 10
59.4720977176
 20
43.7354835239
 10
59.5213035456
 20
43.701598735
 10
59.5659011085
 20
43.6547522572
 10
59.6054609074
 20
43.5953952478
 10
59.6396019598
 20
43.5240993472
 10
59.6679954687
 20
43.4415511739
 10
59.6903679891
 20
43.348545712
 10
59.7065040614
 20
43.2459786549
 10
59.7162482864
 20
43.1348377794
 10
59.7195068219
 20
43.0161934329
 10
59.7162482864
 20
42.8911882254
 10
59.7065040614
 20
42.7610260252
 10
59.6903679891
 20
42.6269603656
 10
59.6679954687
 20
42.4902823722
 10
59.6396019598
 20
42.3523083286
 10
59.6054609074
 20
42.2143670005
 10
59.5659011085
 20
42.0777868382
 10
59.5213035456
 20
41.9438831832
 10
59.4720977176
 20
41.8139456011
 10
59.4187575036
 20
41.6892254618
 10
59.3617965989
 20
41.5709238883
 10
59.3017635682
 20
41.4601801895
 10
59.2392365624
 20
41.3580608878
 10
59.1748177508
 20
41.2655494479
 10
59.1091275217
 20
41.1835368054
 10
59.0427985079
 20
41.112812787
  0
LWPOLYLINE
  5
3A9
330
1F
100
AcDbEntity
  8
0
  6
SLD-Solid
 62
     7
370
    25
100
AcDbPolyline
 90
       21
 70
   128
 43
0.0
 10
58.5660152322
 20
41.2832183434
 10
58.5647541021
 20
41.2824862753
 10
58.5356527602
 20
41.2720917672
 10
58.5093396592
 20
41.2754877213
 10
58.4870451705
 20
41.2925153466
 10
58.4698117594
 20
41.3223784503
 10
58.4584452413
 20
41.3636806668
 10
58.4534771017
 20
41.4144907505
 10
58.4551396455
 20
41.4724328782
 10
58.4633551339
 20
41.5347977404
 10
58.4777394198
 20
41.5986692256
 10
58.49761991
 20
41.661060774
 10
58.5220670149
 20
41.7190550263
 10
58.5499376149
 20
41.7699402355
 10
58.5799285119
 20
41.811337066
 10
58.6106373648
 20
41.8413098478
 10
58.6406282618
 20
41.8584570871
 10
58.6684988618
 20
41.861976998
 10
58.6929459667
 20
41.8517049933
 10
58.7128264569
 20
41.8281213807
 10
58.713692671
 20
41.8265924487
  0
LWPOLYLINE
  5
3AA
330
1F
100
AcDbEntity
  8
0
  6
SLD-Solid
 62
     7
370
    25
100
AcDbPolyline
 90
       20
 70
   128
 43
0.0
 10
58.5952829384
 20
41.9266005251
 10
58.6399735283
 20
41.9763711098
 10
58.6836658042
 20
42.0373322999
 10
58.725383753
 20
42.1081223231
 10
58.7641954646
 20
42.1871598472
 10
58.7992339495
 20
42.2726793045
 10
58.8297165058
 20
42.3627703317
 10
58.8549622036
 20
42.4554204441
 10
58.8744070957
 20
42.5485599914
 10
58.8876168154
 20
42.6401083898
 10
58.8942962793
 20
42.7280205995
 10
58.8942962793
 20
42.810332807
 10
58.8876168154
 20
42.8852062936
 10
58.8744070957
 20
42.9509685093
 10
58.8549622036
 20
43.0061504348
 10
58.8297165058
 20
43.0495193973
 10
58.7992339495
 20
43.0801066056
 10
58.7641954646
 20
43.0972287922
 10
58.725383753
 20
43.1005034756
 10
58.701611508
 20
43.0960521826
  0
LWPOLYLINE
  5
3AB
330
1F
100
AcDbEntity
  8
0
  6
SLD-Solid
 62
     7
370
    25
100
AcDbPolyline
 90
        7
 70
   128
 43
0.0
 10
58.3738061838
 20
41.8899036583
 10
58.3913319272
 20
41.8745544259
 10
58.4263704121
 20
41.8574322394
 10
58.4651821237
 20
41.854157556
 10
58.5069000725
 20
41.8648035267
 10
58.5505923484
 20
41.8891323382
 10
58.5952829384
 20
41.9266005251
  0
ARC
  5
3AC
330
1F
100
AcDbEntity
  8
0
  6
SLD-Solid
 62
     7
370
    25
100
AcDbCircle
 10
58.3958151861
 20
42.0670722281
 30
0.0
 40
0.2014990355766761
100
AcDbArc
 50
272.708794927
 51
320.3951694633
  0
LWPOLYLINE
  5
3AD
330
1F
100
AcDbEntity
  8
0
  6
SLD-Solid
 62
     7
370
    25
100
AcDbPolyline
 90
       18
 70
   128
 43
0.0
 10
58.7410069843
 20
43.1008809852
 10
58.7550130434
 20
43.0921249004
 10
58.7854955997
 20
43.061537692
 10
58.8107412975
 20
43.0181687296
 10
58.8301861896
 20
42.962986804
 10
58.8433959093
 20
42.8972245883
 10
58.8500753732
 20
42.8223511017
 10
58.8500753732
 20
42.7400388942
 10
58.8433959093
 20
42.6521266845
 10
58.8301861896
 20
42.5605782861
 10
58.8107412975
 20
42.4674387389
 10
58.7854955997
 20
42.3747886265
 10
58.7550130434
 20
42.2846975992
 10
58.7199745586
 20
42.1991781419
 10
58.681162847
 20
42.1201406178
 10
58.6394448982
 20
42.0493505947
 10
58.5957526222
 20
41.9883894046
 10
58.5510620323
 20
41.9386188198
  0
LWPOLYLINE
  5
3AE
330
1F
100
AcDbEntity
  8
0
  6
SLD-Solid
 62
     7
370
    25
100
AcDbPolyline
 90
       23
 70
   128
 43
0.0
 10
58.723523566
 20
41.6849564159
 10
58.746960547
 20
41.7016425339
 10
58.7684988032
 20
41.7045986538
 10
58.7863934331
 20
41.6935852883
 10
58.7991947204
 20
41.669494675
 10
58.8058655807
 20
41.6342784919
 10
58.8058655807
 20
41.5907897448
 10
58.7991947204
 20
41.5425516334
 10
58.7863934331
 20
41.4934721225
 10
58.7684988032
 20
41.4475273422
 10
58.746960547
 20
41.4084394654
 10
58.723523566
 20
41.3793751595
 10
58.700086585
 20
41.3626890415
 10
58.6785483288
 20
41.3597329216
 10
58.6606536989
 20
41.3707462871
 10
58.6478524116
 20
41.3948369004
 10
58.6411815513
 20
41.4300530835
 10
58.6411815513
 20
41.4735418306
 10
58.6478524116
 20
41.521779942
 10
58.6606536989
 20
41.5708594529
 10
58.6785483288
 20
41.6168042332
 10
58.700086585
 20
41.65589211
 10
58.723523566
 20
41.6849564159
  0
LWPOLYLINE
  5
3AF
330
1F
100
AcDbEntity
  8
0
  6
SLD-Solid
 62
     7
370
    25
100
AcDbPolyline
 90
       18
 70
   128
 43
0.0
 10
58.723523566
 20
41.43616305
 10
58.7046415062
 20
41.4242164316
 10
58.6883095731
 20
41.4268489719
 10
58.676733485
 20
41.4437051318
 10
58.6714766565
 20
41.4725083934
 10
58.6732490516
 20
41.5093687167
 10
58.6818112984
 20
41.5493079107
 10
58.6960070181
 20
41.5869319661
 10
58.7139190001
 20
41.6171595456
 10
58.7331281319
 20
41.6359082471
 10
58.7510401139
 20
41.6406459546
 10
58.7652358335
 20
41.6307328145
 10
58.7737980804
 20
41.6075076512
 10
58.7755704754
 20
41.5741071518
 10
58.770313647
 20
41.5350422387
 10
58.7587375588
 20
41.495588845
 10
58.7424056258
 20
41.4610753701
 10
58.723523566
 20
41.43616305
  0
LWPOLYLINE
  5
3B0
330
1F
100
AcDbEntity
  8
0
  6
SLD-Solid
 62
     7
370
    25
100
AcDbPolyline
 90
       17
 70
   128
 43
0.0
 10
57.6632862864
 20
43.6484938003
 10
57.6648963001
 20
43.6633067739
 10
57.6636247923
 20
43.6754309629
 10
57.6596653385
 20
43.6830205696
 10
57.6536207297
 20
43.684920145
 10
57.6464112028
 20
43.680840496
 10
57.6391343429
 20
43.6714027123
 10
57.632897986
 20
43.6580436108
 10
57.6286515607
 20
43.6427969937
 10
57.6270415471
 20
43.6279840201
 10
57.6283130549
 20
43.6158598311
 10
57.6322725086
 20
43.6082702244
 10
57.6383171174
 20
43.606370649
 10
57.6455266443
 20
43.610450298
 10
57.6528035042
 20
43.6198880817
 10
57.6590398612
 20
43.6332471832
 10
57.6632862864
 20
43.6484938003
  0
LWPOLYLINE
  5
3B1
330
1F
100
AcDbEntity
  8
0
  6
SLD-Solid
 62
     7
370
    25
100
AcDbPolyline
 90
       10
 70
   128
 43
0.0
 10
57.5424319981
 20
43.5969467613
 10
57.5322054194
 20
43.6005834223
 10
57.5248852507
 20
43.6146149541
 10
57.5225345094
 20
43.6370299423
 10
57.5255110745
 20
43.6644159083
 10
57.533361791
 20
43.6926035869
 10
57.5448914584
 20
43.7173016597
 10
57.5583447896
 20
43.7347500688
 10
57.5716736366
 20
43.7422924523
 10
57.5813249359
 20
43.7400520012
  0
LWPOLYLINE
  5
3B2
330
1F
100
AcDbEntity
  8
0
  6
SLD-Solid
 62
     7
370
    25
100
AcDbPolyline
 90
       10
 70
   128
 43
0.0
 10
56.4495638956
 20
44.0485231901
 10
56.4440405314
 20
44.048758968
 10
56.4307116844
 20
44.0412165846
 10
56.4172583533
 20
44.0237681754
 10
56.4057286858
 20
43.9990701026
 10
56.3978779693
 20
43.970882424
 10
56.3949014042
 20
43.943496458
 10
56.3972521456
 20
43.9210814698
 10
56.4045723143
 20
43.9070499381
 10
56.4102241169
 20
43.9037738143
  0
LWPOLYLINE
  5
3B3
330
1F
100
AcDbEntity
  8
0
  6
SLD-Solid
 62
     7
370
    25
100
AcDbPolyline
 90
       12
 70
   128
 43
0.0
 10
56.4636204807
 20
44.0447029115
 10
56.4580422925
 20
44.0529603583
 10
56.445619671
 20
44.0568642844
 10
56.4308029597
 20
44.0484799644
 10
56.4158478684
 20
44.0290838349
 10
56.4030311743
 20
44.0016287809
 10
56.3943041029
 20
43.9702945855
 10
56.3909952716
 20
43.9398515958
 10
56.39360842
 20
43.914934481
 10
56.4017457201
 20
43.8993366461
 10
56.4141683415
 20
43.89543272
 10
56.424280702
 20
43.8999535356
  0
LINE
  5
3B4
330
1F
100
AcDbEntity
  8
0
  6
SLD-Solid
 62
     7
370
    25
100
AcDbLine
 10
56.3063187528
 20
43.8450268593
 30
0.0
 11
56.3046360565
 21
43.8454233791
 31
0.0
  0
LINE
  5
3B5
330
1F
100
AcDbEntity
  8
0
  6
SLD-Solid
 62
     7
370
    25
100
AcDbLine
 10
22.729258087
 20
53.2999659767
 30
0.0
 11
22.7309407833
 21
53.2995694568
 31
0.0
  0
LWPOLYLINE
  5
3B6
330
1F
100
AcDbEntity
  8
0
  6
SLD-Solid
 62
     7
370
    25
100
AcDbPolyline
 90
       20
 70
   128
 43
0.0
 10
22.6475925918
 20
53.1315680023
 10
22.6422945567
 20
53.088401554
 10
22.6440006643
 20
53.0509704857
 10
22.6525260314
 20
53.0233310346
 10
22.6669468022
 20
53.0084783639
 10
22.6857002623
 20
53.0080219911
 10
22.7067541834
 20
53.0220113712
 10
22.7278270465
 20
53.0489305378
 10
22.7466352798
 20
53.0858623815
 10
22.7611407195
 20
53.1288047639
 10
22.769771476
 20
53.1731042117
 10
22.7715922731
 20
53.2139601923
 10
22.766405799
 20
53.2469453263
 10
22.7547740887
 20
53.2684851625
 10
22.7379576185
 20
53.2762455254
 10
22.7177787139
 20
53.2693854595
 10
22.6964240723
 20
53.2486483591
 10
22.6762078005
 20
53.216281411
 10
22.6593206452
 20
53.1757920762
 10
22.6475925918
 20
53.1315680023
  0
LWPOLYLINE
  5
3B7
330
1F
100
AcDbEntity
  8
0
  6
SLD-Solid
 62
     7
370
    25
100
AcDbPolyline
 90
        3
 70
   128
 43
0.0
 10
22.6127900402
 20
53.0191699438
 10
22.610573261
 20
53.0235638175
 10
22.6100845995
 20
53.0246559596
  0
LWPOLYLINE
  5
3B8
330
1F
100
AcDbEntity
  8
0
  6
SLD-Solid
 62
     7
370
    25
100
AcDbPolyline
 90
        3
 70
   128
 43
0.0
 10
22.6789512273
 20
53.2882598694
 10
22.6800676438
 20
53.2891559906
 10
22.6875729614
 20
53.2943311552
  0
ARC
  5
3B9
330
1F
100
AcDbEntity
  8
0
  6
SLD-Solid
 62
     7
370
    25
100
AcDbCircle
 10
22.6914981505
 20
53.1516265409
 30
0.0
 40
0.12692534048571
100
AcDbArc
 50
130.6480392271
 51
174.2614119766
  0
ARC
  5
3BA
330
1F
100
AcDbEntity
  8
0
  6
SLD-Solid
 62
     7
370
    25
100
AcDbCircle
 10
22.6616711352
 20
53.1362619552
 30
0.0
 40
0.1004594063425344
100
AcDbArc
 50
163.7830398452
 51
201.7394636234
  0
LINE
  5
3BB
330
1F
100
AcDbEntity
  8
0
  6
SLD-Solid
 62
     7
370
    25
100
AcDbLine
 10
22.7401831459
 20
53.1186840853
 30
0.0
 11
22.7515003661
 21
53.176772458
 31
0.0
  0
LINE
  5
3BC
330
1F
100
AcDbEntity
  8
0
  6
SLD-Solid
 62
     7
370
    25
100
AcDbLine
 10
22.7515003661
 20
53.176772458
 30
0.0
 11
22.7253940051
 21
53.1724784181
 31
0.0
  0
LINE
  5
3BD
330
1F
100
AcDbEntity
  8
0
  6
SLD-Solid
 62
     7
370
    25
100
AcDbLine
 10
22.7253940051
 20
53.1724784181
 30
0.0
 11
22.7369292958
 21
53.2316860906
 31
0.0
  0
LINE
  5
3BE
330
1F
100
AcDbEntity
  8
0
  6
SLD-Solid
 62
     7
370
    25
100
AcDbLine
 10
22.7369292958
 20
53.2316860906
 30
0.0
 11
22.7113164662
 21
53.227473228
 31
0.0
  0
LINE
  5
3BF
330
1F
100
AcDbEntity
  8
0
  6
SLD-Solid
 62
     7
370
    25
100
AcDbLine
 10
22.7113164662
 20
53.227473228
 30
0.0
 11
22.6997811756
 21
53.1682655556
 31
0.0
  0
LINE
  5
3C0
330
1F
100
AcDbEntity
  8
0
  6
SLD-Solid
 62
     7
370
    25
100
AcDbLine
 10
22.6997811756
 20
53.1682655556
 30
0.0
 11
22.6736748146
 21
53.1639715158
 31
0.0
  0
LINE
  5
3C1
330
1F
100
AcDbEntity
  8
0
  6
SLD-Solid
 62
     7
370
    25
100
AcDbLine
 10
22.6736748146
 20
53.1639715158
 30
0.0
 11
22.6623575945
 21
53.1058831431
 31
0.0
  0
LINE
  5
3C2
330
1F
100
AcDbEntity
  8
0
  6
SLD-Solid
 62
     7
370
    25
100
AcDbLine
 10
22.6623575945
 20
53.1058831431
 30
0.0
 11
22.6884639554
 21
53.1101771829
 31
0.0
  0
LINE
  5
3C3
330
1F
100
AcDbEntity
  8
0
  6
SLD-Solid
 62
     7
370
    25
100
AcDbLine
 10
22.6884639554
 20
53.1101771829
 30
0.0
 11
22.6769286648
 21
53.0509695105
 31
0.0
  0
LINE
  5
3C4
330
1F
100
AcDbEntity
  8
0
  6
SLD-Solid
 62
     7
370
    25
100
AcDbLine
 10
22.6769286648
 20
53.0509695105
 30
0.0
 11
22.7025414943
 21
53.055182373
 31
0.0
  0
LINE
  5
3C5
330
1F
100
AcDbEntity
  8
0
  6
SLD-Solid
 62
     7
370
    25
100
AcDbLine
 10
22.7025414943
 20
53.055182373
 30
0.0
 11
22.714076785
 21
53.1143900455
 31
0.0
  0
LINE
  5
3C6
330
1F
100
AcDbEntity
  8
0
  6
SLD-Solid
 62
     7
370
    25
100
AcDbLine
 10
22.714076785
 20
53.1143900455
 30
0.0
 11
22.7401831459
 21
53.1186840853
 31
0.0
  0
LINE
  5
3C7
330
1F
100
AcDbEntity
  8
0
  6
SLD-Solid
 62
     7
370
    25
100
AcDbLine
 10
22.6644649394
 20
53.1166996012
 30
0.0
 11
22.6884639554
 21
53.1101771829
 31
0.0
  0
LWPOLYLINE
  5
3C8
330
1F
100
AcDbEntity
  8
0
  6
SLD-Solid
 62
     7
370
    25
100
AcDbPolyline
 90
        5
 70
   128
 43
0.0
 10
21.4411496636
 20
53.4713721454
 10
21.4381730985
 20
53.4439861795
 10
21.4405238398
 20
53.4215711912
 10
21.4478440086
 20
53.4075396595
 10
21.4534958112
 20
53.4042635357
  0
LWPOLYLINE
  5
3C9
330
1F
100
AcDbEntity
  8
0
  6
SLD-Solid
 62
     7
370
    25
100
AcDbPolyline
 90
        6
 70
   128
 43
0.0
 10
21.4928355899
 20
53.5490129115
 10
21.4873122257
 20
53.5492486895
 10
21.4739833787
 20
53.541706306
 10
21.4605300476
 20
53.5242578968
 10
21.4490003801
 20
53.4995598241
 10
21.4411496636
 20
53.4713721454
  0
LINE
  5
3CA
330
1F
100
AcDbEntity
  8
0
  6
SLD-Solid
 62
     7
370
    25
100
AcDbLine
 10
22.6789961711
 20
53.0615814873
 30
0.0
 11
22.7025414943
 21
53.055182373
 31
0.0
  0
LINE
  5
3CB
330
1F
100
AcDbEntity
  8
0
  6
SLD-Solid
 62
     7
370
    25
100
AcDbLine
 10
22.7018486819
 20
53.1788775325
 30
0.0
 11
22.7253940051
 21
53.1724784181
 31
0.0
  0
LINE
  5
3CC
330
1F
100
AcDbEntity
  8
0
  6
SLD-Solid
 62
     7
370
    25
100
AcDbLine
 10
22.714076785
 20
53.1143900455
 30
0.0
 11
22.6665324458
 21
53.1273115781
 31
0.0
  0
LINE
  5
3CD
330
1F
100
AcDbEntity
  8
0
  6
SLD-Solid
 62
     7
370
    25
100
AcDbLine
 10
22.6686397907
 20
53.1381280363
 30
0.0
 11
22.7401831459
 21
53.1186840853
 31
0.0
  0
LWPOLYLINE
  5
3CE
330
1F
100
AcDbEntity
  8
0
  6
SLD-Solid
 62
     7
370
    25
100
AcDbPolyline
 90
        6
 70
   128
 43
0.0
 10
21.3674065255
 20
53.4978264097
 10
21.3716529507
 20
53.5130730269
 10
21.3778893077
 20
53.5264321284
 10
21.3851661676
 20
53.5358699121
 10
21.3923756945
 20
53.5399495611
 10
21.3928887826
 20
53.5400170429
  0
LWPOLYLINE
  5
3CF
330
1F
100
AcDbEntity
  8
0
  6
SLD-Solid
 62
     7
370
    25
100
AcDbPolyline
 90
        5
 70
   128
 43
0.0
 10
21.371851728
 20
53.4626119173
 10
21.3710274734
 20
53.4632996405
 10
21.3670680196
 20
53.4708892471
 10
21.3657965118
 20
53.4830134362
 10
21.3674065255
 20
53.4978264097
  0
LWPOLYLINE
  5
3D0
330
1F
100
AcDbEntity
  8
0
  6
SLD-Solid
 62
     7
370
    25
100
AcDbPolyline
 90
       17
 70
   128
 43
0.0
 10
57.6644584177
 20
41.8355897387
 10
57.6646092107
 20
41.8493018068
 10
57.6619221889
 20
41.8593175021
 10
57.6568064272
 20
41.8641120258
 10
57.6500407537
 20
41.862955455
 10
57.642655181
 20
41.8560238672
 10
57.6357740956
 20
41.8443725339
 10
57.6304450803
 20
41.8297752648
 10
57.6274794295
 20
41.8144543619
 10
57.6273286365
 20
41.8007422938
 10
57.6300156582
 20
41.7907265985
 10
57.63513142
 20
41.7859320748
 10
57.6418970934
 20
41.7870886456
 10
57.6492826661
 20
41.7940202334
 10
57.6561637515
 20
41.8056715668
 10
57.6614927668
 20
41.8202688358
 10
57.6644584177
 20
41.8355897387
  0
LWPOLYLINE
  5
3D1
330
1F
100
AcDbEntity
  8
0
  6
SLD-Solid
 62
     7
370
    25
100
AcDbPolyline
 90
       11
 70
   128
 43
0.0
 10
57.5424319981
 20
41.7763234146
 10
57.5374909247
 20
41.7767897781
 10
57.528032994
 20
41.7856538094
 10
57.5230652752
 20
41.8041706513
 10
57.5233440587
 20
41.8295212826
 10
57.528826902
 20
41.8578462994
 10
57.5386790921
 20
41.8848334747
 10
57.5514007223
 20
41.9063742557
 10
57.5650550396
 20
41.9191892537
 10
57.5775632981
 20
41.9213275015
 10
57.5813249359
 20
41.9194286545
  0
LWPOLYLINE
  5
3D2
330
1F
100
AcDbEntity
  8
0
  6
SLD-Solid
 62
     7
370
    25
100
AcDbPolyline
 90
       10
 70
   128
 43
0.0
 10
56.4495638956
 20
42.2278998434
 10
56.4374219345
 20
42.2256557694
 10
56.4237676171
 20
42.2128407714
 10
56.411045987
 20
42.1912999904
 10
56.4011937969
 20
42.1643128151
 10
56.3957109536
 20
42.1359877983
 10
56.3954321701
 20
42.1106371671
 10
56.4003998888
 20
42.0921203251
 10
56.4098578195
 20
42.0832562938
 10
56.4102241169
 20
42.0831504676
  0
LWPOLYLINE
  5
3D3
330
1F
100
AcDbEntity
  8
0
  6
SLD-Solid
 62
     7
370
    25
100
AcDbPolyline
 90
       13
 70
   128
 43
0.0
 10
56.4636204807
 20
42.2240795648
 10
56.4626804749
 20
42.2260077013
 10
56.4521667801
 20
42.2358612012
 10
56.4382622574
 20
42.2334842664
 10
56.4230837443
 20
42.2192387637
 10
56.4089420319
 20
42.1952934417
 10
56.3979900676
 20
42.1652937586
 10
56.3918951888
 20
42.1338068943
 10
56.3915852855
 20
42.1056264383
 10
56.3971075376
 20
42.0850426097
 10
56.4076212324
 20
42.0751891098
 10
56.4215257551
 20
42.0775660446
 10
56.424280702
 20
42.0793301889
  0
LINE
  5
3D4
330
1F
100
AcDbEntity
  8
0
  6
SLD-Solid
 62
     7
370
    25
100
AcDbLine
 10
56.3880363874
 20
42.3316687092
 30
0.0
 11
56.3896373209
 21
42.331176538
 31
0.0
  0
LINE
  5
3D5
330
1F
100
AcDbEntity
  8
0
  6
SLD-Solid
 62
     7
370
    25
100
AcDbLine
 10
22.6475404524
 20
51.1720774333
 30
0.0
 11
22.6459395189
 21
51.1725696045
 31
0.0
  0
LWPOLYLINE
  5
3D6
330
1F
100
AcDbEntity
  8
0
  6
SLD-Solid
 62
     7
370
    25
100
AcDbPolyline
 90
       20
 70
   128
 43
0.0
 10
22.6435763892
 20
51.2844952186
 10
22.6424788782
 20
51.24425419
 10
22.6483655358
 20
51.2122977337
 10
22.6605984513
 20
51.1920888277
 10
22.6778519985
 20
51.1858174204
 10
22.6982564878
 20
51.1941631163
 10
22.7196007763
 20
51.2162215295
 10
22.7395718791
 20
51.2496022888
 10
22.7560056172
 20
51.2906880709
 10
22.7671211403
 20
51.3350265939
 10
22.7717139088
 20
51.3778130908
 10
22.7692862251
 20
51.4144109807
 10
22.7601011663
 20
51.4408543144
 10
22.7451540761
 20
51.4542775465
 10
22.7260647037
 20
51.4532260613
 10
22.7049016787
 20
51.4378138037
 10
22.6839583433
 20
51.4097109309
 10
22.6655042328
 20
51.3719628252
 10
22.6515391365
 20
51.3286600796
 10
22.6435763892
 20
51.2844952186
  0
LINE
  5
3D7
330
1F
100
AcDbEntity
  8
0
  6
SLD-Solid
 62
     7
370
    25
100
AcDbLine
 10
22.6127900402
 20
51.1985465971
 30
0.0
 11
22.6117377658
 21
51.2005259819
 31
0.0
  0
LINE
  5
3D8
330
1F
100
AcDbEntity
  8
0
  6
SLD-Solid
 62
     7
370
    25
100
AcDbLine
 10
22.6833667774
 20
51.4709911593
 30
0.0
 11
22.6875729614
 21
51.4737078085
 31
0.0
  0
ARC
  5
3D9
330
1F
100
AcDbEntity
  8
0
  6
SLD-Solid
 62
     7
370
    25
100
AcDbCircle
 10
22.7073382031
 20
51.3213470208
 30
0.0
 40
0.1446835370613039
100
AcDbArc
 50
132.9170099359
 51
177.4317915297
  0
ARC
  5
3DA
330
1F
100
AcDbEntity
  8
0
  6
SLD-Solid
 62
     7
370
    25
100
AcDbCircle
 10
22.6384828128
 20
51.3113303891
 30
0.0
 40
0.0774605086373644
100
AcDbArc
 50
167.7013106118
 51
205.1342277355
  0
LINE
  5
3DB
330
1F
100
AcDbEntity
  8
0
  6
SLD-Solid
 62
     7
370
    25
100
AcDbLine
 10
22.7454644085
 20
51.3163982078
 30
0.0
 11
22.751486751
 21
51.3725026989
 31
0.0
  0
LINE
  5
3DC
330
1F
100
AcDbEntity
  8
0
  6
SLD-Solid
 62
     7
370
    25
100
AcDbLine
 10
22.751486751
 20
51.3725026989
 30
0.0
 11
22.7236133726
 21
51.3565716423
 31
0.0
  0
LINE
  5
3DD
330
1F
100
AcDbEntity
  8
0
  6
SLD-Solid
 62
     7
370
    25
100
AcDbLine
 10
22.7236133726
 20
51.3565716423
 30
0.0
 11
22.7297517592
 21
51.4137572059
 31
0.0
  0
LINE
  5
3DE
330
1F
100
AcDbEntity
  8
0
  6
SLD-Solid
 62
     7
370
    25
100
AcDbLine
 10
22.7297517592
 20
51.4137572059
 30
0.0
 11
22.702405317
 21
51.3981273202
 31
0.0
  0
LINE
  5
3DF
330
1F
100
AcDbEntity
  8
0
  6
SLD-Solid
 62
     7
370
    25
100
AcDbLine
 10
22.702405317
 20
51.3981273202
 30
0.0
 11
22.6962669305
 21
51.3409417565
 31
0.0
  0
LINE
  5
3E0
330
1F
100
AcDbEntity
  8
0
  6
SLD-Solid
 62
     7
370
    25
100
AcDbLine
 10
22.6962669305
 20
51.3409417565
 30
0.0
 11
22.6683935521
 21
51.3250106999
 31
0.0
  0
LINE
  5
3E1
330
1F
100
AcDbEntity
  8
0
  6
SLD-Solid
 62
     7
370
    25
100
AcDbLine
 10
22.6683935521
 20
51.3250106999
 30
0.0
 11
22.6623712095
 21
51.2689062088
 31
0.0
  0
LINE
  5
3E2
330
1F
100
AcDbEntity
  8
0
  6
SLD-Solid
 62
     7
370
    25
100
AcDbLine
 10
22.6623712095
 20
51.2689062088
 30
0.0
 11
22.6902445879
 21
51.2848372654
 31
0.0
  0
LINE
  5
3E3
330
1F
100
AcDbEntity
  8
0
  6
SLD-Solid
 62
     7
370
    25
100
AcDbLine
 10
22.6902445879
 20
51.2848372654
 30
0.0
 11
22.6841062013
 21
51.2276517018
 31
0.0
  0
LINE
  5
3E4
330
1F
100
AcDbEntity
  8
0
  6
SLD-Solid
 62
     7
370
    25
100
AcDbLine
 10
22.6841062013
 20
51.2276517018
 30
0.0
 11
22.7114526435
 21
51.2432815875
 31
0.0
  0
LINE
  5
3E5
330
1F
100
AcDbEntity
  8
0
  6
SLD-Solid
 62
     7
370
    25
100
AcDbLine
 10
22.7114526435
 20
51.2432815875
 30
0.0
 11
22.7175910301
 21
51.3004671511
 31
0.0
  0
LINE
  5
3E6
330
1F
100
AcDbEntity
  8
0
  6
SLD-Solid
 62
     7
370
    25
100
AcDbLine
 10
22.7175910301
 20
51.3004671511
 30
0.0
 11
22.7454644085
 21
51.3163982078
 31
0.0
  0
LINE
  5
3E7
330
1F
100
AcDbEntity
  8
0
  6
SLD-Solid
 62
     7
370
    25
100
AcDbLine
 10
22.6648229038
 20
51.2917463344
 30
0.0
 11
22.6902445879
 21
51.2848372654
 31
0.0
  0
LWPOLYLINE
  5
3E8
330
1F
100
AcDbEntity
  8
0
  6
SLD-Solid
 62
     7
370
    25
100
AcDbPolyline
 90
        5
 70
   128
 43
0.0
 10
21.4389826478
 20
51.6364775198
 10
21.4387038644
 20
51.6111268885
 10
21.4436715831
 20
51.5926100465
 10
21.4531295138
 20
51.5837460152
 10
21.4534958112
 20
51.583640189
  0
LWPOLYLINE
  5
3E9
330
1F
100
AcDbEntity
  8
0
  6
SLD-Solid
 62
     7
370
    25
100
AcDbPolyline
 90
        6
 70
   128
 43
0.0
 10
21.4928355899
 20
51.7283895648
 10
21.4806936287
 20
51.7261454908
 10
21.4670393114
 20
51.7133304928
 10
21.4543176812
 20
51.6917897118
 10
21.4444654912
 20
51.6648025366
 10
21.4389826478
 20
51.6364775198
  0
LINE
  5
3EA
330
1F
100
AcDbEntity
  8
0
  6
SLD-Solid
 62
     7
370
    25
100
AcDbLine
 10
22.6986722764
 20
51.3633500978
 30
0.0
 11
22.7236133726
 21
51.3565716423
 31
0.0
  0
LINE
  5
3EB
330
1F
100
AcDbEntity
  8
0
  6
SLD-Solid
 62
     7
370
    25
100
AcDbLine
 10
22.6865115472
 20
51.250060043
 30
0.0
 11
22.7114526435
 21
51.2432815875
 31
0.0
  0
LINE
  5
3EC
330
1F
100
AcDbEntity
  8
0
  6
SLD-Solid
 62
     7
370
    25
100
AcDbLine
 10
22.7175910301
 20
51.3004671511
 30
0.0
 11
22.6672282497
 21
51.3141546757
 31
0.0
  0
LINE
  5
3ED
330
1F
100
AcDbEntity
  8
0
  6
SLD-Solid
 62
     7
370
    25
100
AcDbLine
 10
22.6830185765
 20
51.3333696469
 30
0.0
 11
22.7454644085
 21
51.3163982078
 31
0.0
  0
LWPOLYLINE
  5
3EE
330
1F
100
AcDbEntity
  8
0
  6
SLD-Solid
 62
     7
370
    25
100
AcDbPolyline
 90
        6
 70
   128
 43
0.0
 10
21.3662343943
 20
51.669483778
 10
21.3692000451
 20
51.6848046809
 10
21.3745290604
 20
51.6994019499
 10
21.3814101458
 20
51.7110532833
 10
21.3887957185
 20
51.7179848711
 10
21.3928887826
 20
51.7193936962
  0
ARC
  5
3EF
330
1F
100
AcDbEntity
  8
0
  6
SLD-Solid
 62
     7
370
    25
100
AcDbCircle
 10
21.3954878997
 20
51.6611389153
 30
0.0
 40
0.030420458784957
100
AcDbArc
 50
164.0786572534
 51
219.0148571998
  0
LWPOLYLINE
  5
3F0
330
1F
100
AcDbEntity
  8
0
  6
SLD-Solid
 62
     8
370
    25
100
AcDbPolyline
 90
        8
 70
   128
 43
0.0
 10
20.2101508263
 20
54.195337881
 10
20.2777147291
 20
54.2552799663
 10
20.3446478059
 20
54.3026576783
 10
20.4103251207
 20
54.337028664
 10
20.474133462
 20
54.3580720109
 10
20.5354770686
 20
54.3655912429
 10
20.5937831917
 20
54.3595161548
 10
20.6009403019
 20
54.35777385
  0
LWPOLYLINE
  5
3F1
330
1F
100
AcDbEntity
  8
0
  6
SLD-Solid
 62
     8
370
    25
100
AcDbPolyline
 90
       28
 70
   128
 43
0.0
 10
19.8136988572
 20
51.4629449325
 10
19.7986758259
 20
51.4677803453
 10
19.7459363959
 20
51.4941010084
 10
19.697531211
 20
51.5336376823
 10
19.6539122174
 20
51.5860212235
 10
19.6154866737
 20
51.6507625411
 10
19.5826133491
 20
51.7272571629
 10
19.5555991727
 20
51.8147908791
 10
19.5346963688
 20
51.9125464111
 10
19.5201001012
 20
52.0196110418
 10
19.5119466513
 20
52.1349851375
 10
19.5103121456
 20
52.2575914815
 10
19.5152118451
 20
52.3862853313
 10
19.5266000027
 20
52.5198651071
 10
19.5443702901
 20
52.6570836106
 10
19.568356791
 20
52.7966596696
 10
19.5983355499
 20
52.9372900999
 10
19.6340266632
 20
53.0776618733
 10
19.6750968926
 20
53.2164643761
 10
19.7211627764
 20
53.352401647
 10
19.7717942098
 20
53.4842044761
 10
19.8265184609
 20
53.610642256
 10
19.884824584
 20
53.7305344712
 10
19.9461681906
 20
53.8427617205
 10
20.0099765319
 20
53.9462761681
 10
20.0756538467
 20
54.0401113277
 10
20.1425869235
 20
54.1233910855
 10
20.2101508263
 20
54.195337881
  0
LWPOLYLINE
  5
3F2
330
1F
100
AcDbEntity
  8
0
  6
SLD-Solid
 62
     8
370
    25
100
AcDbPolyline
 90
       19
 70
   128
 43
0.0
 10
20.1711464974
 20
53.5879477124
 10
20.1715338171
 20
53.5872886819
 10
20.1903057483
 20
53.5666931373
 10
20.2136030919
 20
53.5598965126
 10
20.2400718912
 20
53.5672938029
 10
20.2681738757
 20
53.5884551045
 10
20.2962758602
 20
53.6221505996
 10
20.3227446594
 20
53.6664220284
 10
20.3460420031
 20
53.7186964964
 10
20.3648139343
 20
53.7759360015
 10
20.3779694965
 20
53.8348139918
 10
20.3847441363
 20
53.8919086925
 10
20.3847441363
 20
53.943901967
 10
20.3779694965
 20
53.9877721554
 10
20.3648139343
 20
54.0209696816
 10
20.3460420031
 20
54.0415652262
 10
20.3227446594
 20
54.0483618509
 10
20.2962758602
 20
54.0409645606
 10
20.2918865319
 20
54.038504364
  0
LWPOLYLINE
  5
3F3
330
1F
100
AcDbEntity
  8
0
  6
SLD-Solid
 62
     8
370
    25
100
AcDbPolyline
 90
       19
 70
   128
 43
0.0
 10
20.1711464974
 20
51.7673243657
 10
20.1715338171
 20
51.7666653352
 10
20.1903057483
 20
51.7460697906
 10
20.2136030919
 20
51.7392731659
 10
20.2400718912
 20
51.7466704562
 10
20.2681738757
 20
51.7678317578
 10
20.2962758602
 20
51.8015272529
 10
20.3227446594
 20
51.8457986817
 10
20.3460420031
 20
51.8980731497
 10
20.3648139343
 20
51.9553126548
 10
20.3779694965
 20
52.0141906451
 10
20.3847441363
 20
52.0712853458
 10
20.3847441363
 20
52.1232786204
 10
20.3779694965
 20
52.1671488087
 10
20.3648139343
 20
52.2003463349
 10
20.3460420031
 20
52.2209418795
 10
20.3227446594
 20
52.2277385042
 10
20.2962758602
 20
52.2203412139
 10
20.2918865319
 20
52.2178810173
  0
LWPOLYLINE
  5
3F4
330
1F
100
AcDbEntity
  8
0
  6
SLD-Solid
 62
     8
370
    25
100
AcDbPolyline
 90
       34
 70
   128
 43
0.0
 10
59.0329016319
 20
43.9128059795
 10
58.9943975837
 20
43.9199777093
 10
58.9345027753
 20
43.9192547931
 10
58.8718536413
 20
43.9049568069
 10
58.80703512
 20
43.877217247
 10
58.7406524042
 20
43.8362951104
 10
58.6733252916
 20
43.7825724759
 10
58.6056823973
 20
43.7165509373
 10
58.5383552847
 20
43.63884692
 10
58.4719725689
 20
43.5501859254
 10
58.4071540475
 20
43.4513957573
 10
58.3445049136
 20
43.3433987929
 10
58.2846101052
 20
43.2272033708
 10
58.228028844
 20
43.1038943762
 10
58.1752894141
 20
42.9746231122
 10
58.1268842292
 20
42.8405965496
 10
58.0832652355
 20
42.7030660583
 10
58.0448396919
 20
42.5633157236
 10
58.0119663672
 20
42.4226503565
 10
57.9849521909
 20
42.2823833117
 10
57.964049387
 20
42.1438242249
 10
57.9494531194
 20
42.0082667849
 10
57.9412996694
 20
41.876976655
 10
57.9396651638
 20
41.7511796557
 10
57.9445648633
 20
41.6320503198
 10
57.9559530209
 20
41.5207009258
 10
57.9737233083
 20
41.4181711129
 10
57.9977098092
 20
41.3254181744
 10
58.0276885681
 20
41.2433081195
 10
58.0633796814
 20
41.1726075876
 10
58.1044499107
 20
41.1139766906
 10
58.1505157945
 20
41.0679628494
 10
58.201147228
 20
41.0349956827
 10
58.2461060569
 20
41.0178184626
  0
LWPOLYLINE
  5
3F5
330
1F
100
AcDbEntity
  8
0
  6
SLD-Solid
 62
     8
370
    25
100
AcDbPolyline
 90
       27
 70
   128
 43
0.0
 10
58.4864000556
 20
41.105214133
 10
58.5074846016
 20
41.1174466393
 10
58.5731748307
 20
41.1636653517
 10
58.6395038444
 20
41.222419635
 10
58.7058328582
 20
41.2931436534
 10
58.7715230873
 20
41.3751562958
 10
58.8359418989
 20
41.4676677358
 10
58.8984689047
 20
41.5697870375
 10
58.9585019354
 20
41.6805307363
 10
59.0154628401
 20
41.7988323097
 10
59.0688030541
 20
41.9235524491
 10
59.1180088821
 20
42.0534900312
 10
59.162606445
 20
42.1873936861
 10
59.2021662439
 20
42.3239738485
 10
59.2363072963
 20
42.4619151766
 10
59.2647008052
 20
42.5998892201
 10
59.2870733256
 20
42.7365672136
 10
59.3032093979
 20
42.8706328732
 10
59.3129536229
 20
43.0007950734
 10
59.3162121584
 20
43.1258002809
 10
59.3129536229
 20
43.2444446274
 10
59.3032093979
 20
43.3555855029
 10
59.2870733256
 20
43.45815256
 10
59.2647008052
 20
43.5511580219
 10
59.2363072963
 20
43.6337061952
 10
59.2021662439
 20
43.7050020957
 10
59.1959022968
 20
43.7158034611
  0
ARC
  5
3F6
330
1F
100
AcDbEntity
  8
0
  6
SLD-Solid
 62
     8
370
    25
100
AcDbCircle
 10
58.1124001091
 20
41.754400826
 30
0.0
 40
0.6788258690584649
100
AcDbArc
 50
300.2347570395
 51
315.3448671379
  0
LWPOLYLINE
  5
3F7
330
1F
100
AcDbEntity
  8
0
  6
SLD-Solid
 62
     8
370
    25
100
AcDbPolyline
 90
       20
 70
   128
 43
0.0
 10
59.1364104053
 20
43.6780163835
 10
59.1611210261
 20
43.6296229464
 10
59.1908367479
 20
43.5521678899
 10
59.2146335884
 20
43.4640306166
 10
59.232275044
 20
43.3660870744
 10
59.2435857858
 20
43.2593106702
 10
59.2484534026
 20
43.144762596
 10
59.2468295179
 20
43.0235812819
 10
59.2387302706
 20
42.8969710822
 10
59.2242361546
 20
42.7661903061
 10
59.203491219
 20
42.6325387116
 10
59.1767016362
 20
42.4973445883
 10
59.1441336532
 20
42.3619515562
 10
59.1061109453
 20
42.227705212
 10
59.063011399
 20
42.0959397562
 10
59.0152633573
 20
41.9679647332
 10
58.9633413614
 20
41.8450520161
 10
58.9077614355
 20
41.7284231668
 10
58.849075958
 20
41.6192372953
 10
58.7971955183
 20
41.5331084196
  0
LINE
  5
3F8
330
1F
100
AcDbEntity
  8
0
  6
SLD-Solid
 62
     8
370
    25
100
AcDbLine
 10
58.6458628739
 20
41.3302650789
 30
0.0
 11
58.5952829384
 21
41.2772962948
 31
0.0
  0
LWPOLYLINE
  5
3F9
330
1F
100
AcDbEntity
  8
0
  6
SLD-Solid
 62
     8
370
    25
100
AcDbPolyline
 90
        7
 70
   128
 43
0.0
 10
56.2921610274
 20
43.9848842057
 10
56.2863988491
 20
43.9393131544
 10
56.2876396986
 20
43.8992620156
 10
56.2957621128
 20
43.8686512739
 10
56.3099710132
 20
43.8504773219
 10
56.3288755337
 20
43.8465191527
 10
56.3431198505
 20
43.8519890549
  0
LWPOLYLINE
  5
3FA
330
1F
100
AcDbEntity
  8
0
  6
SLD-Solid
 62
     8
370
    25
100
AcDbPolyline
 90
        8
 70
   128
 43
0.0
 10
56.4179027718
 20
44.1271502663
 10
56.4059106505
 20
44.1409303445
 10
56.38700613
 20
44.1448885137
 10
56.3652564956
 20
44.134243447
 10
56.342790753
 20
44.1100371576
 10
56.3218080058
 20
44.0746391258
 10
56.3043621913
 20
44.0315143576
 10
56.2921610274
 20
43.9848842057
  0
LWPOLYLINE
  5
3FB
330
1F
100
AcDbEntity
  8
0
  6
SLD-Solid
 62
     8
370
    25
100
AcDbPolyline
 90
       13
 70
   128
 43
0.0
 10
56.3046360565
 20
43.8454233791
 10
56.3019941309
 20
43.8462987386
 10
56.2864265724
 20
43.8599647577
 10
56.2761822492
 20
43.8859720257
 10
56.2721714144
 20
43.9220096829
 10
56.2747504481
 20
43.9648756252
 10
56.2836901921
 20
44.0107610256
 10
56.2981963107
 20
44.0555887647
 10
56.3169798716
 20
44.0953757014
 10
56.3383718731
 20
44.1265865916
 10
56.360471542
 20
44.1464482109
 10
56.3813152257
 20
44.1531957671
 10
56.3877585236
 20
44.1523658902
  0
LWPOLYLINE
  5
3FC
330
1F
100
AcDbEntity
  8
0
  6
SLD-Solid
 62
     8
370
    25
100
AcDbPolyline
 90
       13
 70
   128
 43
0.0
 10
56.3831523596
 20
44.1536194301
 10
56.3764311978
 20
44.1545231412
 10
56.3555875142
 20
44.147775585
 10
56.3334878453
 20
44.1279139658
 10
56.3120958438
 20
44.0967030755
 10
56.2933122828
 20
44.0569161388
 10
56.2788061642
 20
44.0120883997
 10
56.2698664203
 20
43.9662029993
 10
56.2672873865
 20
43.923337057
 10
56.2712982214
 20
43.8872993999
 10
56.2815425446
 20
43.8612921318
 10
56.2971101031
 20
43.8476261127
 10
56.2997520286
 20
43.8467507533
  0
LWPOLYLINE
  5
3FD
330
1F
100
AcDbEntity
  8
0
  6
SLD-Solid
 62
     8
370
    25
100
AcDbPolyline
 90
        7
 70
   128
 43
0.0
 10
22.6213666195
 20
53.1349710327
 10
22.6332219652
 20
53.18083992
 10
22.650054814
 20
53.2236251334
 10
22.6703694934
 20
53.2595250189
 10
22.692360955
 20
53.2853497142
 10
22.714075161
 20
53.2988045816
 10
22.729258087
 20
53.2999659767
  0
LWPOLYLINE
  5
3FE
330
1F
100
AcDbEntity
  8
0
  6
SLD-Solid
 62
     8
370
    25
100
AcDbPolyline
 90
        6
 70
   128
 43
0.0
 10
22.6478183162
 20
52.9926269458
 10
22.6365259685
 20
52.9987631256
 10
22.6234742507
 20
53.0188238307
 10
22.6162661633
 20
53.0501967024
 10
22.6155421764
 20
53.0900941233
 10
22.6213666195
 20
53.1349710327
  0
LWPOLYLINE
  5
3FF
330
1F
100
AcDbEntity
  8
0
  6
SLD-Solid
 62
     8
370
    25
100
AcDbPolyline
 90
        6
 70
   128
 43
0.0
 10
22.6164825916
 20
53.1362984068
 10
22.6106581486
 20
53.0914214975
 10
22.6113821355
 20
53.0515240765
 10
22.6185902229
 20
53.0201512048
 10
22.6316419406
 20
53.0000904997
 10
22.6426564245
 20
52.9940281541
  0
LWPOLYLINE
  5
400
330
1F
100
AcDbEntity
  8
0
  6
SLD-Solid
 62
     8
370
    25
100
AcDbPolyline
 90
        7
 70
   128
 43
0.0
 10
22.7260567555
 20
53.3008968309
 10
22.7091911332
 20
53.3001319558
 10
22.6874769272
 20
53.2866770883
 10
22.6654854655
 20
53.260852393
 10
22.6451707861
 20
53.2249525075
 10
22.6283379373
 20
53.1821672941
 10
22.6164825916
 20
53.1362984068
  0
ARC
  5
401
330
1F
100
AcDbEntity
  8
0
  6
SLD-Solid
 62
     8
370
    25
100
AcDbCircle
 10
22.8811917713
 20
53.0946267736
 30
0.0
 40
0.2799910952530493
100
AcDbArc
 50
136.2455811872
 51
194.4718144318
  0
LWPOLYLINE
  5
402
330
1F
100
AcDbEntity
  8
0
  6
SLD-Solid
 62
     8
370
    25
100
AcDbPolyline
 90
        7
 70
   128
 43
0.0
 10
56.2877087002
 20
42.1349392431
 10
56.2863666013
 20
42.0923777592
 10
56.2920306867
 20
42.0579117945
 10
56.3041465165
 20
42.0349151178
 10
56.3215281086
 20
42.0256388039
 10
56.3424740317
 20
42.0309908831
 10
56.3431198505
 20
42.0313657082
  0
LWPOLYLINE
  5
403
330
1F
100
AcDbEntity
  8
0
  6
SLD-Solid
 62
     8
370
    25
100
AcDbPolyline
 90
        9
 70
   128
 43
0.0
 10
56.4179027718
 20
42.3065269196
 10
56.4117351473
 20
42.3152458553
 10
56.3943535552
 20
42.3245221692
 10
56.373407632
 20
42.3191700899
 10
56.3509477107
 20
42.2997135164
 10
56.3291723248
 20
42.2680569935
 10
56.3102130008
 20
42.2272992823
 10
56.2959256095
 20
42.1814300316
 10
56.2877087002
 20
42.1349392431
  0
LWPOLYLINE
  5
404
330
1F
100
AcDbEntity
  8
0
  6
SLD-Solid
 62
     8
370
    25
100
AcDbPolyline
 90
       13
 70
   128
 43
0.0
 10
56.3046684092
 20
42.0247912626
 10
56.2962811067
 20
42.0287667986
 10
56.2823583483
 20
42.0467459757
 10
56.2741203046
 20
42.0764084737
 10
56.2722989622
 20
42.1151186495
 10
56.2770561552
 20
42.1594369342
 10
56.2879691861
 20
42.2054254536
 10
56.3040683844
 20
42.2489979259
 10
56.3239232654
 20
42.2862827459
 10
56.3457696361
 20
42.3139669935
 10
56.3676663504
 20
42.329590802
 10
56.3876677891
 20
42.3317659274
 10
56.3880363874
 20
42.3316687092
  0
LWPOLYLINE
  5
405
330
1F
100
AcDbEntity
  8
0
  6
SLD-Solid
 62
     8
370
    25
100
AcDbPolyline
 90
       13
 70
   128
 43
0.0
 10
56.3831523596
 20
42.3329960834
 10
56.3827837613
 20
42.3330933015
 10
56.3627823225
 20
42.3309181762
 10
56.3408856082
 20
42.3152943677
 10
56.3190392376
 20
42.28761012
 10
56.2991843565
 20
42.2503253001
 10
56.2830851583
 20
42.2067528277
 10
56.2721721273
 20
42.1607643083
 10
56.2674149343
 20
42.1164460237
 10
56.2692362768
 20
42.0777358478
 10
56.2774743204
 20
42.0480733498
 10
56.2913970789
 20
42.0300941727
 10
56.2997520286
 20
42.0261274066
  0
LWPOLYLINE
  5
406
330
1F
100
AcDbEntity
  8
0
  6
SLD-Solid
 62
     8
370
    25
100
AcDbPolyline
 90
        8
 70
   128
 43
0.0
 10
22.6167725461
 20
51.2840925745
 10
22.6246961582
 20
51.3297559993
 10
22.6383548289
 20
51.3750423058
 10
22.6565349252
 20
51.415927607
 10
22.6776210658
 20
51.4487790644
 10
22.6997396547
 20
51.4706776819
 10
22.720925358
 20
51.4796776713
 10
22.7309084306
 20
51.47895488
  0
LWPOLYLINE
  5
407
330
1F
100
AcDbEntity
  8
0
  6
SLD-Solid
 62
     8
370
    25
100
AcDbPolyline
 90
        5
 70
   128
 43
0.0
 10
22.6459395189
 20
51.1725696045
 10
22.631580103
 20
51.1834470424
 10
22.6203745452
 20
51.2075369442
 10
22.6152880401
 20
51.2421094272
 10
22.6167725461
 20
51.2840925745
  0
LWPOLYLINE
  5
408
330
1F
100
AcDbEntity
  8
0
  6
SLD-Solid
 62
     8
370
    25
100
AcDbPolyline
 90
        5
 70
   128
 43
0.0
 10
22.6118885182
 20
51.2854199487
 10
22.6104040122
 20
51.2434368014
 10
22.6154905173
 20
51.2088643184
 10
22.6266960752
 20
51.1847744165
 10
22.6426564245
 20
51.1734048074
  0
LWPOLYLINE
  5
409
330
1F
100
AcDbEntity
  8
0
  6
SLD-Solid
 62
     8
370
    25
100
AcDbPolyline
 90
        8
 70
   128
 43
0.0
 10
22.7260567555
 20
51.4802734842
 10
22.7160413301
 20
51.4810050454
 10
22.6948556268
 20
51.4720050561
 10
22.672737038
 20
51.4501064385
 10
22.6516508973
 20
51.4172549811
 10
22.633470801
 20
51.3763696799
 10
22.6198121304
 20
51.3310833734
 10
22.6118885182
 20
51.2854199487
  0
ARC
  5
40A
330
1F
100
AcDbEntity
  8
0
  6
SLD-Solid
 62
     8
370
    25
100
AcDbCircle
 10
22.8740544515
 20
51.2757725589
 30
0.0
 40
0.2728957511287611
100
AcDbArc
 50
134.3273210525
 51
196.005747422
  0
INSERT
  5
410
330
1F
100
AcDbEntity
  8
NOTES
100
AcDbBlockReference
  2
SW_NOTE_0_3
 10
19.5433163277
 20
49.3347885314
 30
0.0
  0
MTEXT
  5
411
330
1F
100
AcDbEntity
  8
NOTES
100
AcDbMText
 10
47.5658191757
 20
47.9625795681
 30
0.0
 40
0.5
 41
0.0
 71
     1
 72
     1
  1
installation hardware
  7
SLDTEXTSTYLE1
 73
     1
 44
1.0
  0
LEADER
  5
413
330
1F
100
AcDbEntity
  8
NOTES
100
AcDbLeader
  3
SLDDIMSTYLE4
 76
     3
 10
57.1798142544
 20
43.85005679
 30
0.0
 10
54.8341086609
 20
47.7178469166
 30
0.0
 10
54.3341086609
 20
47.7178469166
 30
0.0
  0
MTEXT
  5
414
330
1F
100
AcDbEntity
  8
NOTES
100
AcDbMText
 10
50.9033406789
 20
40.0242874198
 30
0.0
 40
0.5
 41
0.0
 71
     1
 72
     1
  1
mounting flange
  7
SLDTEXTSTYLE1
 73
     1
 44
1.0
  0
LEADER
  5
415
330
1F
100
AcDbEntity
  8
NOTES
100
AcDbLeader
  3
SLDDIMSTYLE4
 76
     3
 10
58.1034924932
 20
41.1151309819
 30
0.0
 10
56.7768058191
 20
39.7771022215
 30
0.0
 10
56.2768058191
 20
39.7771022215
 30
0.0
  0
MTEXT
  5
416
330
1F
100
AcDbEntity
  8
NOTES
100
AcDbMText
 10
45.8890960753
 20
43.910498742
 30
0.0
 40
0.5
 41
0.0
 71
     1
 72
     1
  1
rod
  7
SLDTEXTSTYLE1
 73
     1
 44
1.0
  0
LEADER
  5
41D
330
1F
100
AcDbEntity
  8
NOTES
100
AcDbLeader
  3
SLDDIMSTYLE5
 76
     3
 10
48.5904832927
 20
44.5704136209
 30
0.0
 10
47.5031129871
 20
43.6679131322
 30
0.0
 10
47.0031129871
 20
43.6679131322
 30
0.0
  0
ENDSEC
  0
SECTION
  2
OBJECTS
  0
DICTIONARY
  5
C
330
0
100
AcDbDictionary
281
     1
  3
ACAD_GROUP
350
D
  3
ACAD_LAYOUT
350
1A
  3
ACAD_MLINESTYLE
350
17
  3
ACAD_PLOTSETTINGS
350
19
  3
ACAD_PLOTSTYLENAME
350
E
  3
ACAD_SCALELIST
350
47
  3
DWGPROPS
350
41E
  0
DICTIONARY
  5
D
102
{ACAD_REACTORS
330
C
102
}
330
C
100
AcDbDictionary
281
     1
  0
DICTIONARY
  5
1A
102
{ACAD_REACTORS
330
C
102
}
330
C
100
AcDbDictionary
281
     1
  3
Layout1
350
1E
  3
Layout2
350
26
  3
Model
350
22
  0
DICTIONARY
  5
17
102
{ACAD_REACTORS
330
C
102
}
330
C
100
AcDbDictionary
281
     1
  3
Standard
350
18
  0
DICTIONARY
  5
19
102
{ACAD_REACTORS
330
C
102
}
330
C
100
AcDbDictionary
281
     1
  0
ACDBDICTIONARYWDFLT
  5
E
102
{ACAD_REACTORS
330
C
102
}
330
C
100
AcDbDictionary
281
     1
  3
Normal
350
F
100
AcDbDictionaryWithDefault
340
F
  0
DICTIONARY
  5
47
102
{ACAD_REACTORS
330
C
102
}
330
C
100
AcDbDictionary
281
     1
  3
A0
350
48
  3
A1
350
49
  3
A2
350
4A
  3
A3
350
4B
  3
A4
350
4C
  3
A5
350
4D
  3
A6
350
4E
  3
A7
350
4F
  3
A8
350
50
  3
A9
350
51
  3
B0
350
52
  3
B1
350
53
  3
B2
350
54
  3
B3
350
55
  3
B4
350
56
  3
B5
350
57
  3
B6
350
58
  3
B7
350
59
  3
B8
350
5A
  3
B9
350
5B
  3
C0
350
5C
  3
C1
350
5D
  3
C2
350
5E
  3
C3
350
5F
  3
C4
350
60
  3
C5
350
61
  3
C6
350
62
  3
C7
350
63
  3
C8
350
64
  3
C9
350
65
  3
D0
350
66
  3
D1
350
67
  3
D2
350
68
  0
XRECORD
  5
41E
102
{ACAD_REACTORS
330
C
102
}
330
C
100
AcDbXrecord
280
     1
  1
DWGPROPS COOKIE
  2

  3

  4

  6

  7

  8
carl
  9

300
=
301
=
302
=
303
=
304
=
305
=
306
=
307
=
308
=
309
=
 40
0.0
 41
2459480.601199572
 42
2459480.601204641
  1

 90
        0
  0
LAYOUT
  5
1E
102
{ACAD_REACTORS
330
1A
102
}
330
1A
100
AcDbPlotSettings
  1

  2
none_device
  4

  6

 40
0.0
 41
0.0
 42
0.0
 43
0.0
 44
0.0
 45
0.0
 46
0.0
 47
0.0
 48
0.0
 49
0.0
140
0.0
141
0.0
142
1.0
143
1.0
 70
   688
 72
     0
 73
     0
 74
     5
  7

 75
    16
147
1.0
148
0.0
149
0.0
100
AcDbLayout
  1
Layout1
 70
     1
 71
     1
 10
0.0
 20
0.0
 11
12.0
 21
9.0
 12
0.0
 22
0.0
 32
0.0
 14
1.0000000000E+20
 24
1.0000000000E+20
 34
1.0000000000E+20
 15
-1.0000000000E+20
 25
-1.0000000000E+20
 35
-1.0000000000E+20
146
0.0
 13
0.0
 23
0.0
 33
0.0
 16
1.0
 26
0.0
 36
0.0
 17
0.0
 27
1.0
 37
0.0
 76
     0
330
1B
  0
LAYOUT
  5
26
102
{ACAD_REACTORS
330
1A
102
}
330
1A
100
AcDbPlotSettings
  1

  2
none_device
  4

  6

 40
0.0
 41
0.0
 42
0.0
 43
0.0
 44
0.0
 45
0.0
 46
0.0
 47
0.0
 48
0.0
 49
0.0
140
0.0
141
0.0
142
1.0
143
1.0
 70
   688
 72
     0
 73
     0
 74
     5
  7

 75
    16
147
1.0
148
0.0
149
0.0
100
AcDbLayout
  1
Layout2
 70
     1
 71
     2
 10
0.0
 20
0.0
 11
0.0
 21
0.0
 12
0.0
 22
0.0
 32
0.0
 14
0.0
 24
0.0
 34
0.0
 15
0.0
 25
0.0
 35
0.0
146
0.0
 13
0.0
 23
0.0
 33
0.0
 16
1.0
 26
0.0
 36
0.0
 17
0.0
 27
1.0
 37
0.0
 76
     0
330
23
  0
LAYOUT
  5
22
102
{ACAD_REACTORS
330
1A
102
}
330
1A
100
AcDbPlotSettings
  1

  2
none_device
  4
Letter_(8.50_x_11.00_Inches)
  6

 40
6.35
 41
6.35
 42
6.35000508
 43
6.35000508
 44
215.9
 45
279.4
 46
0.0
 47
0.0
 48
0.0
 49
0.0
140
0.0
141
0.0
142
1.0
143
1.0
 70
  1712
 72
     0
 73
     0
 74
     0
  7

 75
     0
147
1.0
148
0.0
149
0.0
100
AcDbLayout
  1
Model
 70
     1
 71
     0
 10
0.0
 20
0.0
 11
90.0
 21
120.0
 12
0.0
 22
0.0
 32
0.0
 14
0.0
 24
0.0
 34
0.0
 15
90.0
 25
120.0
 35
0.0
146
0.0
 13
0.0
 23
0.0
 33
0.0
 16
1.0
 26
0.0
 36
0.0
 17
0.0
 27
1.0
 37
0.0
 76
     0
330
1F
331
29
  0
MLINESTYLE
  5
18
102
{ACAD_REACTORS
330
17
102
}
330
17
100
AcDbMlineStyle
  2
Standard
 70
     0
  3

 62
   256
 51
90.0
 52
90.0
 71
     2
 49
0.5
 62
   256
  6
BYLAYER
 49
-0.5
 62
   256
  6
BYLAYER
  0
ACDBPLACEHOLDER
  5
F
102
{ACAD_REACTORS
330
E
102
}
330
E
  0
SCALE
  5
48
102
{ACAD_REACTORS
330
47
102
}
330
47
100
AcDbScale
 70
     0
300
1:1
140
1.0
141
1.0
290
     1
  0
SCALE
  5
49
102
{ACAD_REACTORS
330
47
102
}
330
47
100
AcDbScale
 70
     0
300
1:2
140
1.0
141
2.0
290
     0
  0
SCALE
  5
4A
102
{ACAD_REACTORS
330
47
102
}
330
47
100
AcDbScale
 70
     0
300
1:4
140
1.0
141
4.0
290
     0
  0
SCALE
  5
4B
102
{ACAD_REACTORS
330
47
102
}
330
47
100
AcDbScale
 70
     0
300
1:5
140
1.0
141
5.0
290
     0
  0
SCALE
  5
4C
102
{ACAD_REACTORS
330
47
102
}
330
47
100
AcDbScale
 70
     0
300
1:8
140
1.0
141
8.0
290
     0
  0
SCALE
  5
4D
102
{ACAD_REACTORS
330
47
102
}
330
47
100
AcDbScale
 70
     0
300
1:10
140
1.0
141
10.0
290
     0
  0
SCALE
  5
4E
102
{ACAD_REACTORS
330
47
102
}
330
47
100
AcDbScale
 70
     0
300
1:16
140
1.0
141
16.0
290
     0
  0
SCALE
  5
4F
102
{ACAD_REACTORS
330
47
102
}
330
47
100
AcDbScale
 70
     0
300
1:20
140
1.0
141
20.0
290
     0
  0
SCALE
  5
50
102
{ACAD_REACTORS
330
47
102
}
330
47
100
AcDbScale
 70
     0
300
1:30
140
1.0
141
30.0
290
     0
  0
SCALE
  5
51
102
{ACAD_REACTORS
330
47
102
}
330
47
100
AcDbScale
 70
     0
300
1:40
140
1.0
141
40.0
290
     0
  0
SCALE
  5
52
102
{ACAD_REACTORS
330
47
102
}
330
47
100
AcDbScale
 70
     0
300
1:50
140
1.0
141
50.0
290
     0
  0
SCALE
  5
53
102
{ACAD_REACTORS
330
47
102
}
330
47
100
AcDbScale
 70
     0
300
1:100
140
1.0
141
100.0
290
     0
  0
SCALE
  5
54
102
{ACAD_REACTORS
330
47
102
}
330
47
100
AcDbScale
 70
     0
300
2:1
140
2.0
141
1.0
290
     0
  0
SCALE
  5
55
102
{ACAD_REACTORS
330
47
102
}
330
47
100
AcDbScale
 70
     0
300
4:1
140
4.0
141
1.0
290
     0
  0
SCALE
  5
56
102
{ACAD_REACTORS
330
47
102
}
330
47
100
AcDbScale
 70
     0
300
8:1
140
8.0
141
1.0
290
     0
  0
SCALE
  5
57
102
{ACAD_REACTORS
330
47
102
}
330
47
100
AcDbScale
 70
     0
300
10:1
140
10.0
141
1.0
290
     0
  0
SCALE
  5
58
102
{ACAD_REACTORS
330
47
102
}
330
47
100
AcDbScale
 70
     0
300
100:1
140
100.0
141
1.0
290
     0
  0
SCALE
  5
59
102
{ACAD_REACTORS
330
47
102
}
330
47
100
AcDbScale
 70
     0
300
1/128" = 1'-0"
140
0.0078125
141
12.0
290
     0
  0
SCALE
  5
5A
102
{ACAD_REACTORS
330
47
102
}
330
47
100
AcDbScale
 70
     0
300
1/64" = 1'-0"
140
0.015625
141
12.0
290
     0
  0
SCALE
  5
5B
102
{ACAD_REACTORS
330
47
102
}
330
47
100
AcDbScale
 70
     0
300
1/32" = 1'-0"
140
0.03125
141
12.0
290
     0
  0
SCALE
  5
5C
102
{ACAD_REACTORS
330
47
102
}
330
47
100
AcDbScale
 70
     0
300
1/16" = 1'-0"
140
0.0625
141
12.0
290
     0
  0
SCALE
  5
5D
102
{ACAD_REACTORS
330
47
102
}
330
47
100
AcDbScale
 70
     0
300
3/32" = 1'-0"
140
0.09375
141
12.0
290
     0
  0
SCALE
  5
5E
102
{ACAD_REACTORS
330
47
102
}
330
47
100
AcDbScale
 70
     0
300
1/8" = 1'-0"
140
0.125
141
12.0
290
     0
  0
SCALE
  5
5F
102
{ACAD_REACTORS
330
47
102
}
330
47
100
AcDbScale
 70
     0
300
3/16" = 1'-0"
140
0.1875
141
12.0
290
     0
  0
SCALE
  5
60
102
{ACAD_REACTORS
330
47
102
}
330
47
100
AcDbScale
 70
     0
300
1/4" = 1'-0"
140
0.25
141
12.0
290
     0
  0
SCALE
  5
61
102
{ACAD_REACTORS
330
47
102
}
330
47
100
AcDbScale
 70
     0
300
3/8" = 1'-0"
140
0.375
141
12.0
290
     0
  0
SCALE
  5
62
102
{ACAD_REACTORS
330
47
102
}
330
47
100
AcDbScale
 70
     0
300
1/2" = 1'-0"
140
0.5
141
12.0
290
     0
  0
SCALE
  5
63
102
{ACAD_REACTORS
330
47
102
}
330
47
100
AcDbScale
 70
     0
300
3/4" = 1'-0"
140
0.75
141
12.0
290
     0
  0
SCALE
  5
64
102
{ACAD_REACTORS
330
47
102
}
330
47
100
AcDbScale
 70
     0
300
1" = 1'-0"
140
1.0
141
12.0
290
     0
  0
SCALE
  5
65
102
{ACAD_REACTORS
330
47
102
}
330
47
100
AcDbScale
 70
     0
300
1-1/2" = 1'-0"
140
1.5
141
12.0
290
     0
  0
SCALE
  5
66
102
{ACAD_REACTORS
330
47
102
}
330
47
100
AcDbScale
 70
     0
300
3" = 1'-0"
140
3.0
141
12.0
290
     0
  0
SCALE
  5
67
102
{ACAD_REACTORS
330
47
102
}
330
47
100
AcDbScale
 70
     0
300
6" = 1'-0"
140
6.0
141
12.0
290
     0
  0
SCALE
  5
68
102
{ACAD_REACTORS
330
47
102
}
330
47
100
AcDbScale
 70
     0
300
1'-0" = 1'-0"
140
12.0
141
12.0
290
     0
  0
ENDSEC
  0
EOF
