  0
SECTION
  2
HEADER
  9
$ACADVER
  1
AC1015
  9
$ACADMAINTVER
 70
     6
  9
$DWGCODEPAGE
  3
ANSI_1252
  9
$INSBASE
 10
0.0
 20
0.0
 30
0.0
  9
$EXTMIN
 10
0.0
 20
0.0
 30
0.0
  9
$EXTMAX
 10
150.0
 20
100.0
 30
0.0
  9
$LIMMIN
 10
0.0
 20
0.0
  9
$LIMMAX
 10
150.0
 20
100.0
  9
$ORTHOMODE
 70
     0
  9
$REGENMODE
 70
     1
  9
$FILLMODE
 70
     1
  9
$QTEXTMODE
 70
     0
  9
$MIRRTEXT
 70
     1
  9
$LTSCALE
 40
1.0
  9
$ATTMODE
 70
     1
  9
$TEXTSIZE
 40
0.5
  9
$TRACEWID
 40
0.05
  9
$TEXTSTYLE
  7
STANDARD
  9
$CLAYER
  8
0
  9
$CELTYPE
  6
ByLayer
  9
$CECOLOR
 62
   256
  9
$CELTSCALE
 40
1.0
  9
$DISPSILH
 70
     0
  9
$DIMSCALE
 40
1.0
  9
$DIMASZ
 40
0.3
  9
$DIMEXO
 40
0.1666666667
  9
$DIMDLI
 40
0.38
  9
$DIMRND
 40
0.0
  9
$DIMDLE
 40
0.0
  9
$DIMEXE
 40
0.375
  9
$DIMTP
 40
0.0
  9
$DIMTM
 40
0.0
  9
$DIMTXT
 40
0.5
  9
$DIMCEN
 40
0.09
  9
$DIMTSZ
 40
0.0
  9
$DIMTOL
 70
     0
  9
$DIMLIM
 70
     0
  9
$DIMTIH
 70
     1
  9
$DIMTOH
 70
     1
  9
$DIMSE1
 70
     0
  9
$DIMSE2
 70
     0
  9
$DIMTAD
 70
     0
  9
$DIMZIN
 70
     1
  9
$DIMBLK
  1

  9
$DIMASO
 70
     1
  9
$DIMSHO
 70
     1
  9
$DIMPOST
  1

  9
$DIMAPOST
  1

  9
$DIMALT
 70
     0
  9
$DIMALTD
 70
     2
  9
$DIMALTF
 40
25.4
  9
$DIMLFAC
 40
1.0
  9
$DIMTOFL
 70
     0
  9
$DIMTVP
 40
0.0
  9
$DIMTIX
 70
     0
  9
$DIMSOXD
 70
     0
  9
$DIMSAH
 70
     0
  9
$DIMBLK1
  1

  9
$DIMBLK2
  1

  9
$DIMSTYLE
  2
Standard
  9
$DIMCLRD
 70
     0
  9
$DIMCLRE
 70
     0
  9
$DIMCLRT
 70
     0
  9
$DIMTFAC
 40
1.0
  9
$DIMGAP
 40
0.125
  9
$DIMJUST
 70
     0
  9
$DIMSD1
 70
     0
  9
$DIMSD2
 70
     0
  9
$DIMTOLJ
 70
     1
  9
$DIMTZIN
 70
     1
  9
$DIMALTZ
 70
     0
  9
$DIMALTTZ
 70
     0
  9
$DIMUPT
 70
     0
  9
$DIMDEC
 70
     2
  9
$DIMTDEC
 70
     2
  9
$DIMALTU
 70
     2
  9
$DIMALTTD
 70
     2
  9
$DIMTXSTY
  7
STANDARD
  9
$DIMAUNIT
 70
     0
  9
$DIMADEC
 70
     2
  9
$DIMALTRND
 40
0.0
  9
$DIMAZIN
 70
     0
  9
$DIMDSEP
 70
    46
  9
$DIMATFIT
 70
     3
  9
$DIMFRAC
 70
     0
  9
$DIMLDRBLK
  1

  9
$DIMLUNIT
 70
     2
  9
$DIMLWD
 70
    -2
  9
$DIMLWE
 70
    -2
  9
$DIMTMOVE
 70
     0
  9
$LUNITS
 70
     2
  9
$LUPREC
 70
     3
  9
$SKETCHINC
 40
0.1
  9
$FILLETRAD
 40
0.5
  9
$AUNITS
 70
     0
  9
$AUPREC
 70
     2
  9
$MENU
  1
.
  9
$ELEVATION
 40
0.0
  9
$PELEVATION
 40
0.0
  9
$THICKNESS
 40
0.0
  9
$LIMCHECK
 70
     0
  9
$CHAMFERA
 40
0.0
  9
$CHAMFERB
 40
0.0
  9
$CHAMFERC
 40
0.0
  9
$CHAMFERD
 40
0.0
  9
$SKPOLY
 70
     0
  9
$TDCREATE
 40
2459500.594818426
  9
$TDUCREATE
 40
2459500.761485093
  9
$TDUPDATE
 40
2459500.594824213
  9
$TDUUPDATE
 40
2459500.76149088
  9
$TDINDWG
 40
0.0000000116
  9
$TDUSRTIMER
 40
0.0000000116
  9
$USRTIMER
 70
     1
  9
$ANGBASE
 50
0.0
  9
$ANGDIR
 70
     0
  9
$PDMODE
 70
     0
  9
$PDSIZE
 40
-1.0
  9
$PLINEWID
 40
0.0
  9
$SPLFRAME
 70
     0
  9
$SPLINETYPE
 70
     6
  9
$SPLINESEGS
 70
     8
  9
$HANDSEED
  5
33A
  9
$SURFTAB1
 70
     6
  9
$SURFTAB2
 70
     6
  9
$SURFTYPE
 70
     6
  9
$SURFU
 70
     6
  9
$SURFV
 70
     6
  9
$UCSBASE
  2

  9
$UCSNAME
  2

  9
$UCSORG
 10
0.0
 20
0.0
 30
0.0
  9
$UCSXDIR
 10
1.0
 20
0.0
 30
0.0
  9
$UCSYDIR
 10
0.0
 20
1.0
 30
0.0
  9
$UCSORTHOREF
  2

  9
$UCSORTHOVIEW
 70
     0
  9
$UCSORGTOP
 10
0.0
 20
0.0
 30
0.0
  9
$UCSORGBOTTOM
 10
0.0
 20
0.0
 30
0.0
  9
$UCSORGLEFT
 10
0.0
 20
0.0
 30
0.0
  9
$UCSORGRIGHT
 10
0.0
 20
0.0
 30
0.0
  9
$UCSORGFRONT
 10
0.0
 20
0.0
 30
0.0
  9
$UCSORGBACK
 10
0.0
 20
0.0
 30
0.0
  9
$PUCSBASE
  2

  9
$PUCSNAME
  2

  9
$PUCSORG
 10
0.0
 20
0.0
 30
0.0
  9
$PUCSXDIR
 10
1.0
 20
0.0
 30
0.0
  9
$PUCSYDIR
 10
0.0
 20
1.0
 30
0.0
  9
$PUCSORTHOREF
  2

  9
$PUCSORTHOVIEW
 70
     0
  9
$PUCSORGTOP
 10
0.0
 20
0.0
 30
0.0
  9
$PUCSORGBOTTOM
 10
0.0
 20
0.0
 30
0.0
  9
$PUCSORGLEFT
 10
0.0
 20
0.0
 30
0.0
  9
$PUCSORGRIGHT
 10
0.0
 20
0.0
 30
0.0
  9
$PUCSORGFRONT
 10
0.0
 20
0.0
 30
0.0
  9
$PUCSORGBACK
 10
0.0
 20
0.0
 30
0.0
  9
$USERI1
 70
     0
  9
$USERI2
 70
     0
  9
$USERI3
 70
     0
  9
$USERI4
 70
     0
  9
$USERI5
 70
     0
  9
$USERR1
 40
0.0
  9
$USERR2
 40
0.0
  9
$USERR3
 40
0.0
  9
$USERR4
 40
0.0
  9
$USERR5
 40
0.0
  9
$WORLDVIEW
 70
     1
  9
$SHADEDGE
 70
     3
  9
$SHADEDIF
 70
    70
  9
$TILEMODE
 70
     1
  9
$MAXACTVP
 70
    64
  9
$PINSBASE
 10
0.0
 20
0.0
 30
0.0
  9
$PLIMCHECK
 70
     0
  9
$PEXTMIN
 10
1.0000000000E+20
 20
1.0000000000E+20
 30
1.0000000000E+20
  9
$PEXTMAX
 10
-1.0000000000E+20
 20
-1.0000000000E+20
 30
-1.0000000000E+20
  9
$PLIMMIN
 10
0.0
 20
0.0
  9
$PLIMMAX
 10
12.0
 20
9.0
  9
$UNITMODE
 70
     0
  9
$VISRETAIN
 70
     1
  9
$PLINEGEN
 70
     0
  9
$PSLTSCALE
 70
     1
  9
$TREEDEPTH
 70
  3020
  9
$CMLSTYLE
  2
Standard
  9
$CMLJUST
 70
     0
  9
$CMLSCALE
 40
1.0
  9
$PROXYGRAPHICS
 70
     1
  9
$MEASUREMENT
 70
     0
  9
$CELWEIGHT
370
    -1
  9
$ENDCAPS
280
     0
  9
$JOINSTYLE
280
     0
  9
$LWDISPLAY
290
     1
  9
$INSUNITS
 70
     1
  9
$HYPERLINKBASE
  1

  9
$STYLESHEET
  1

  9
$XEDIT
290
     1
  9
$CEPSNTYPE
380
     0
  9
$PSTYLEMODE
290
     1
  9
$FINGERPRINTGUID
  2
{70f5b697-2965-49fa-a35e-5b914f51b020}
  9
$VERSIONGUID
  2
{FAEB1C32-E019-11D5-929B-00C0DF256EC4}
  9
$EXTNAMES
290
     1
  9
$PSVPSCALE
 40
0.0
  9
$OLESTARTUP
290
     0
  0
ENDSEC
  0
SECTION
  2
CLASSES
  0
CLASS
  1
ACDBDICTIONARYWDFLT
  2
AcDbDictionaryWithDefault
  3
ObjectDBX Classes
 90
        0
280
     0
281
     0
  0
CLASS
  1
VISUALSTYLE
  2
AcDbVisualStyle
  3
ObjectDBX Classes
 90
     4095
280
     0
281
     0
  0
CLASS
  1
MATERIAL
  2
AcDbMaterial
  3
ObjectDBX Classes
 90
     1153
280
     0
281
     0
  0
CLASS
  1
SCALE
  2
AcDbScale
  3
ObjectDBX Classes
 90
     1153
280
     0
281
     0
  0
CLASS
  1
TABLESTYLE
  2
AcDbTableStyle
  3
ObjectDBX Classes
 90
     4095
280
     0
281
     0
  0
CLASS
  1
MLEADERSTYLE
  2
AcDbMLeaderStyle
  3
ACDB_MLEADERSTYLE_CLASS
 90
     4095
280
     0
281
     0
  0
CLASS
  1
SUN
  2
AcDbSun
  3
SCENEOE
 90
     1153
280
     0
281
     0
  0
CLASS
  1
ACDBPLACEHOLDER
  2
AcDbPlaceHolder
  3
ObjectDBX Classes
 90
        0
280
     0
281
     0
  0
CLASS
  1
LAYOUT
  2
AcDbLayout
  3
ObjectDBX Classes
 90
        0
280
     0
281
     0
  0
ENDSEC
  0
SECTION
  2
TABLES
  0
TABLE
  2
VPORT
  5
8
330
0
100
AcDbSymbolTable
 70
     1
  0
VPORT
  5
29
330
8
100
AcDbSymbolTableRecord
100
AcDbViewportTableRecord
  2
*Active
 70
     0
 10
0.0
 20
0.0
 11
1.0
 21
1.0
 12
75.0
 22
50.0
 13
0.0
 23
0.0
 14
0.5
 24
0.5
 15
0.5
 25
0.5
 16
0.0
 26
0.0
 36
1.0
 17
0.0
 27
0.0
 37
0.0
 40
100.0
 41
1.5
 42
50.0
 43
0.0
 44
0.0
 50
0.0
 51
0.0
 71
     0
 72
  2000
 73
     1
 74
     3
 75
     0
 76
     0
 77
     0
 78
     0
281
     0
 65
     1
110
0.0
120
0.0
130
0.0
111
1.0
121
0.0
131
0.0
112
0.0
122
1.0
132
0.0
 79
     0
146
0.0
  0
ENDTAB
  0
TABLE
  2
LTYPE
  5
5
330
0
100
AcDbSymbolTable
 70
     8
  0
LTYPE
  5
14
330
5
100
AcDbSymbolTableRecord
100
AcDbLinetypeTableRecord
  2
ByBlock
 70
     0
  3

 72
    65
 73
     0
 40
0.0
  0
LTYPE
  5
15
330
5
100
AcDbSymbolTableRecord
100
AcDbLinetypeTableRecord
  2
ByLayer
 70
     0
  3

 72
    65
 73
     0
 40
0.0
  0
LTYPE
  5
16
330
5
100
AcDbSymbolTableRecord
100
AcDbLinetypeTableRecord
  2
Continuous
 70
     0
  3
Solid line
 72
    65
 73
     0
 40
0.0
  0
LTYPE
  5
6E
330
5
100
AcDbSymbolTableRecord
100
AcDbLinetypeTableRecord
  2
SLD-Solid
 70
     0
  3
SolidWorks Line Style
 72
    65
 73
     0
 40
0.0
  0
LTYPE
  5
6F
330
5
100
AcDbSymbolTableRecord
100
AcDbLinetypeTableRecord
  2
SLD-Dashed
 70
     0
  3
SolidWorks Line Style
 72
    65
 73
     2
 40
0.075
 49
0.05
 74
     0
 49
-0.025
 74
     0
  0
LTYPE
  5
70
330
5
100
AcDbSymbolTableRecord
100
AcDbLinetypeTableRecord
  2
SLD-Phantom
 70
     0
  3
SolidWorks Line Style
 72
    65
 73
     6
 40
0.5
 49
0.25
 74
     0
 49
-0.05
 74
     0
 49
0.05
 74
     0
 49
-0.05
 74
     0
 49
0.05
 74
     0
 49
-0.05
 74
     0
  0
LTYPE
  5
71
330
5
100
AcDbSymbolTableRecord
100
AcDbLinetypeTableRecord
  2
SLD-Chain
 70
     0
  3
SolidWorks Line Style
 72
    65
 73
     4
 40
0.4
 49
0.25
 74
     0
 49
-0.05
 74
     0
 49
0.05
 74
     0
 49
-0.05
 74
     0
  0
LTYPE
  5
72
330
5
100
AcDbSymbolTableRecord
100
AcDbLinetypeTableRecord
  2
SLD-Center
 70
     0
  3
SolidWorks Line Style
 72
    65
 73
     4
 40
0.75
 49
0.6
 74
     0
 49
-0.05
 74
     0
 49
0.05
 74
     0
 49
-0.05
 74
     0
  0
LTYPE
  5
73
330
5
100
AcDbSymbolTableRecord
100
AcDbLinetypeTableRecord
  2
SLD-Stitch
 70
     0
  3
SolidWorks Line Style
 72
    65
 73
     2
 40
0.025
 49
0.0
 74
     0
 49
-0.025
 74
     0
  0
LTYPE
  5
74
330
5
100
AcDbSymbolTableRecord
100
AcDbLinetypeTableRecord
  2
SLD-Thin-Thick-Chain
 70
     0
  3
SolidWorks Line Style
 72
    65
 73
     4
 40
0.4
 49
0.25
 74
     0
 49
-0.05
 74
     0
 49
0.05
 74
     0
 49
-0.05
 74
     0
  0
ENDTAB
  0
TABLE
  2
LAYER
  5
2
330
0
100
AcDbSymbolTable
 70
     7
  0
LAYER
  5
10
330
2
100
AcDbSymbolTableRecord
100
AcDbLayerTableRecord
  2
0
 70
     0
 62
     7
  6
Continuous
370
    -3
390
F
  0
LAYER
  5
75
330
2
100
AcDbSymbolTableRecord
100
AcDbLayerTableRecord
  2
FORMAT
 70
     0
 62
     7
  6
SLD-Solid
370
    -3
390
F
  0
LAYER
  5
76
330
2
100
AcDbSymbolTableRecord
100
AcDbLayerTableRecord
  2
NOTES
 70
     0
 62
     1
  6
SLD-Solid
370
    -3
390
F
  0
LAYER
  5
77
330
2
100
AcDbSymbolTableRecord
100
AcDbLayerTableRecord
  2
OBJECT
 70
     0
 62
     7
  6
SLD-Solid
370
    -3
390
F
  0
LAYER
  5
78
330
2
100
AcDbSymbolTableRecord
100
AcDbLayerTableRecord
  2
DIMS
 70
     0
 62
     5
  6
SLD-Solid
370
    -3
390
F
  0
LAYER
  5
79
330
2
100
AcDbSymbolTableRecord
100
AcDbLayerTableRecord
  2
TITLE
 70
     0
 62
     7
  6
SLD-Solid
370
    -3
390
F
  0
LAYER
  5
7A
330
2
100
AcDbSymbolTableRecord
100
AcDbLayerTableRecord
  2
NOPE
 70
     0
 62
     6
  6
SLD-Solid
290
     0
370
    -3
390
F
  0
ENDTAB
  0
TABLE
  2
STYLE
  5
3
330
0
100
AcDbSymbolTable
 70
     5
  0
STYLE
  5
11
330
3
100
AcDbSymbolTableRecord
100
AcDbTextStyleTableRecord
  2
STANDARD
 70
     0
 40
0.0
 41
1.0
 50
0.0
 71
     0
 42
0.5
  3
GOTHIC.TTF
  4

1001
ACAD
1000
CENTURY GOTHIC
1071
       34
  0
STYLE
  5
186
330
3
100
AcDbSymbolTableRecord
100
AcDbTextStyleTableRecord
  2
SLDTEXTSTYLE0
 70
     0
 40
0.0
 41
0.913
 50
0.0
 71
     0
 42
0.5
  3
GOTHIC.TTF
  4

1001
ACAD
1000
Century Gothic
1071
      290
  0
STYLE
  5
18E
330
3
100
AcDbSymbolTableRecord
100
AcDbTextStyleTableRecord
  2
SLDTEXTSTYLE1
 70
     0
 40
0.0
 41
0.948
 50
0.0
 71
     0
 42
0.5
  3
ARIAL.TTF
  4

1001
ACAD
1000
Arial
1071
      290
  0
STYLE
  5
1A0
330
3
100
AcDbSymbolTableRecord
100
AcDbTextStyleTableRecord
  2
SLDTEXTSTYLE2
 70
     0
 40
0.0
 41
0.87
 50
0.0
 71
     0
 42
0.5
  3
ARIALNB.TTF
  4

1001
ACAD
1000
Arial Narrow
1071
 33554722
  0
STYLE
  5
1A2
330
3
100
AcDbSymbolTableRecord
100
AcDbTextStyleTableRecord
  2
SLDTEXTSTYLE3
 70
     0
 40
0.0
 41
0.87
 50
0.0
 71
     0
 42
0.5
  3
ARIALN.TTF
  4

1001
ACAD
1000
Arial Narrow
1071
      290
  0
ENDTAB
  0
TABLE
  2
VIEW
  5
6
330
0
100
AcDbSymbolTable
 70
     0
  0
ENDTAB
  0
TABLE
  2
UCS
  5
7
330
0
100
AcDbSymbolTable
 70
     0
  0
ENDTAB
  0
TABLE
  2
APPID
  5
9
330
0
100
AcDbSymbolTable
 70
     1
  0
APPID
  5
12
330
9
100
AcDbSymbolTableRecord
100
AcDbRegAppTableRecord
  2
ACAD
 70
     0
  0
ENDTAB
  0
TABLE
  2
DIMSTYLE
  5
A
330
0
100
AcDbSymbolTable
 70
     3
100
AcDbDimStyleTable
  0
DIMSTYLE
105
27
330
A
100
AcDbSymbolTableRecord
100
AcDbDimStyleTableRecord
  2
Standard
 70
     0
178
     0
340
11
  0
DIMSTYLE
105
2C4
102
{ACAD_REACTORS
330
2C3
102
}
330
A
100
AcDbSymbolTableRecord
100
AcDbDimStyleTableRecord
  2
SLDDIMSTYLE0
 70
     0
 41
0.3
 44
0.0
 45
0.000000001
 78
    12
 79
     3
140
0.5
147
0.125
173
     1
178
     0
271
     6
272
     2
276
     2
277
     5
284
    12
340
186
341
2C5
343
2C5
344
2C5
  0
DIMSTYLE
105
2DA
102
{ACAD_REACTORS
330
2D9
102
}
330
A
100
AcDbSymbolTableRecord
100
AcDbDimStyleTableRecord
  2
SLDDIMSTYLE1
 70
     0
 41
0.3
 44
0.0
 45
0.000000001
 78
    12
 79
     3
140
0.5
147
0.125
173
     1
178
     0
271
     2
272
     2
276
     2
277
     5
284
    12
340
186
341
2C5
343
2C5
344
2C5
  0
ENDTAB
  0
TABLE
  2
BLOCK_RECORD
  5
1
330
0
100
AcDbSymbolTable
 70
     7
  0
BLOCK_RECORD
  5
1F
330
1
100
AcDbSymbolTableRecord
100
AcDbBlockTableRecord
  2
*Model_Space
340
22
  0
BLOCK_RECORD
  5
1B
330
1
100
AcDbSymbolTableRecord
100
AcDbBlockTableRecord
  2
*Paper_Space
340
1E
  0
BLOCK_RECORD
  5
23
330
1
100
AcDbSymbolTableRecord
100
AcDbBlockTableRecord
  2
*Paper_Space0
340
26
  0
BLOCK_RECORD
  5
188
330
1
100
AcDbSymbolTableRecord
100
AcDbBlockTableRecord
  2
SW_NOTE_0
340
0
102
{BLKREFS
331
18D
102
}
  0
BLOCK_RECORD
  5
197
330
1
100
AcDbSymbolTableRecord
100
AcDbBlockTableRecord
  2
SW_NOTE_0_1
340
0
102
{BLKREFS
331
19C
102
}
  0
BLOCK_RECORD
  5
19D
330
1
100
AcDbSymbolTableRecord
100
AcDbBlockTableRecord
  2
SW_NOTE_0_2
340
0
102
{BLKREFS
331
1A6
102
}
  0
BLOCK_RECORD
  5
2C5
330
1
100
AcDbSymbolTableRecord
100
AcDbBlockTableRecord
  2
_Open90
340
0
102
{BLKREFS
331
2CE
331
2CF
331
2DE
331
2DF
102
}
  0
BLOCK_RECORD
  5
2CB
330
1
100
AcDbSymbolTableRecord
100
AcDbBlockTableRecord
  2
_D
340
0
  0
BLOCK_RECORD
  5
2DB
330
1
100
AcDbSymbolTableRecord
100
AcDbBlockTableRecord
  2
_D_1
340
0
  0
ENDTAB
  0
ENDSEC
  0
SECTION
  2
BLOCKS
  0
BLOCK
  5
20
330
1F
100
AcDbEntity
  8
0
100
AcDbBlockBegin
  2
*Model_Space
 70
     0
 10
0.0
 20
0.0
 30
0.0
  3
*Model_Space
  1

  0
ENDBLK
  5
21
330
1F
100
AcDbEntity
  8
0
100
AcDbBlockEnd
  0
BLOCK
  5
1C
330
1B
100
AcDbEntity
 67
     1
  8
0
100
AcDbBlockBegin
  2
*Paper_Space
 70
     0
 10
0.0
 20
0.0
 30
0.0
  3
*Paper_Space
  1

  0
ENDBLK
  5
1D
330
1B
100
AcDbEntity
 67
     1
  8
0
100
AcDbBlockEnd
  0
BLOCK
  5
24
330
23
100
AcDbEntity
  8
0
100
AcDbBlockBegin
  2
*Paper_Space0
 70
     0
 10
0.0
 20
0.0
 30
0.0
  3
*Paper_Space0
  1

  0
ENDBLK
  5
25
330
23
100
AcDbEntity
  8
0
100
AcDbBlockEnd
  0
BLOCK
  5
189
330
188
100
AcDbEntity
  8
0
100
AcDbBlockBegin
  2
SW_NOTE_0
 70
     0
 10
0.0
 20
0.0
 30
0.0
  3
SW_NOTE_0
  1

  0
MTEXT
  5
18B
330
188
100
AcDbEntity
  8
NOTES
 62
     0
100
AcDbMText
 10
0.0
 20
0.638671875
 30
0.0
 40
0.5
 41
0.0
 71
     1
 72
     1
  1
3D view
  7
SLDTEXTSTYLE0
 73
     1
 44
1.0
  0
MTEXT
  5
18C
330
188
100
AcDbEntity
  8
NOTES
 62
     0
100
AcDbMText
 10
0.0
 20
-0.0078559229
 30
0.0
 40
0.5
 41
0.0
 71
     1
 72
     1
  1
Code 1144-503
  7
SLDTEXTSTYLE0
 73
     1
 44
1.0
  0
ENDBLK
  5
18A
330
188
100
AcDbEntity
  8
0
100
AcDbBlockEnd
  0
BLOCK
  5
198
330
197
100
AcDbEntity
  8
0
100
AcDbBlockBegin
  2
SW_NOTE_0_1
 70
     0
 10
0.0
 20
0.0
 30
0.0
  3
SW_NOTE_0_1
  1

  0
MTEXT
  5
19A
330
197
100
AcDbEntity
  8
NOTES
 62
     0
100
AcDbMText
 10
0.0
 20
0.3759780908
 30
0.0
 40
0.2916666667
 41
0.0
 71
     1
 72
     1
  1
FROST PRODUCTS LTD.
  7
SLDTEXTSTYLE1
 73
     1
 44
1.0
  0
MTEXT
  5
19B
330
197
100
AcDbEntity
  8
NOTES
 62
     0
100
AcDbMText
 10
0.0
 20
-0.0495142709
 30
0.0
 40
0.2291666667
 41
0.0
 71
     1
 72
     1
  1
5280 JOHN LUCAS DRIVE, BURLINGTON, ON, L7L 5Z9
  7
SLDTEXTSTYLE1
 73
     1
 44
1.0
  0
ENDBLK
  5
199
330
197
100
AcDbEntity
  8
0
100
AcDbBlockEnd
  0
BLOCK
  5
19E
330
19D
100
AcDbEntity
  8
0
100
AcDbBlockBegin
  2
SW_NOTE_0_2
 70
     0
 10
0.0
 20
0.0
 30
0.0
  3
SW_NOTE_0_2
  1

  0
MTEXT
  5
1A1
330
19D
100
AcDbEntity
  8
NOTES
 62
     0
100
AcDbMText
 10
0.0
 20
0.2381282771
 30
0.0
 40
0.184729064
 41
0.0
 71
     1
 72
     1
  1
PROPRIETARY AND CONFIDENTIAL
  7
SLDTEXTSTYLE2
 73
     1
 44
1.0
  0
MTEXT
  5
1A3
330
19D
100
AcDbEntity
  8
NOTES
 62
     0
100
AcDbMText
 10
0.0
 20
-0.0504364796
 30
0.0
 40
0.25
 41
0.0
 71
     1
 72
     1
  1
THE INFORMATION CONTAINED IN THIS DRAWING IS THE SOLE PROPERTY OF 
  7
SLDTEXTSTYLE3
 73
     1
 44
1.0
  0
MTEXT
  5
1A4
330
19D
100
AcDbEntity
  8
NOTES
 62
     0
100
AcDbMText
 10
0.0
 20
-0.4231398941
 30
0.0
 40
0.25
 41
0.0
 71
     1
 72
     1
  1
FROST PRODUCTS LTD.  ANY REPRODUCTION IN PART OR AS A WHOLE WITHOUT 
  7
SLDTEXTSTYLE3
 73
     1
 44
1.0
  0
MTEXT
  5
1A5
330
19D
100
AcDbEntity
  8
NOTES
 62
     0
100
AcDbMText
 10
0.0
 20
-0.7958433086
 30
0.0
 40
0.25
 41
0.0
 71
     1
 72
     1
  1
THE WRITTEN PERMISSION OF FROST PRODUCTS LTD. IS PROHIBITED.
  7
SLDTEXTSTYLE3
 73
     1
 44
1.0
  0
ENDBLK
  5
19F
330
19D
100
AcDbEntity
  8
0
100
AcDbBlockEnd
  0
BLOCK
  5
2C6
330
2C5
100
AcDbEntity
  8
0
100
AcDbBlockBegin
  2
_Open90
 70
     0
 10
0.0
 20
0.0
 30
0.0
  3
_Open90
  1

  0
LINE
  5
2C8
330
2C5
100
AcDbEntity
  8
0
  6
ByBlock
 62
     0
370
    -2
100
AcDbLine
 10
-0.5
 20
0.5
 30
0.0
 11
0.0
 21
0.0
 31
0.0
  0
LINE
  5
2C9
330
2C5
100
AcDbEntity
  8
0
  6
ByBlock
 62
     0
370
    -2
100
AcDbLine
 10
0.0
 20
0.0
 30
0.0
 11
-0.5
 21
-0.5
 31
0.0
  0
LINE
  5
2CA
330
2C5
100
AcDbEntity
  8
0
  6
ByBlock
 62
     0
370
    -2
100
AcDbLine
 10
0.0
 20
0.0
 30
0.0
 11
-1.0
 21
0.0
 31
0.0
  0
ENDBLK
  5
2C7
330
2C5
100
AcDbEntity
  8
0
100
AcDbBlockEnd
  0
BLOCK
  5
2CC
330
2CB
100
AcDbEntity
  8
0
100
AcDbBlockBegin
  2
_D
 70
     0
 10
0.0
 20
0.0
 30
0.0
  3
_D
  1

  0
INSERT
  5
2CE
330
2CB
100
AcDbEntity
  8
DIMS
100
AcDbBlockReference
  2
_Open90
 10
81.8858323341
 20
85.9508738684
 30
-0.025
 41
0.3
 42
0.3
 50
0.0
  0
INSERT
  5
2CF
330
2CB
100
AcDbEntity
  8
DIMS
100
AcDbBlockReference
  2
_Open90
 10
10.6358323341
 20
85.9508738684
 30
-0.025
 41
0.3
 42
0.3
 50
180.0
  0
LINE
  5
2D0
330
2CB
100
AcDbEntity
  8
DIMS
100
AcDbLine
 10
43.9957935838
 20
86.0021585668
 30
0.0
 11
44.5117658332
 21
86.0021585668
 31
0.0
  0
LINE
  5
2D1
330
2CB
100
AcDbEntity
  8
DIMS
100
AcDbLine
 10
81.8858323341
 20
83.5978554957
 30
0.0
 11
81.8858323341
 21
86.3258738684
 31
0.0
  0
LINE
  5
2D2
330
2CB
100
AcDbEntity
  8
DIMS
100
AcDbLine
 10
10.6358323341
 20
83.5978554957
 30
0.0
 11
10.6358323341
 21
86.3258738684
 31
0.0
  0
LINE
  5
2D3
330
2CB
100
AcDbEntity
  8
DIMS
100
AcDbLine
 10
81.8858323341
 20
85.9508738684
 30
0.0
 11
44.7912796992
 21
85.9508738684
 31
0.0
  0
LINE
  5
2D4
330
2CB
100
AcDbEntity
  8
DIMS
100
AcDbLine
 10
10.6358323341
 20
85.9508738684
 30
0.0
 11
43.1836407908
 21
85.9508738684
 31
0.0
  0
MTEXT
  5
2D5
330
2CB
100
AcDbEntity
  8
DIMS
100
AcDbMText
 10
43.1836407908
 20
86.2315596273
 30
0.0
 40
0.5
 41
0.0
 71
     1
 72
     1
  1
71
  7
SLDTEXTSTYLE0
 73
     1
 44
1.0
  0
MTEXT
  5
2D6
330
2CB
100
AcDbEntity
  8
DIMS
100
AcDbMText
 10
44.0690574858
 20
86.5968721263
 30
0.0
 40
0.5
 41
0.0
 71
     1
 72
     1
  1
1
  7
SLDTEXTSTYLE0
 73
     1
 44
1.0
  0
MTEXT
  5
2D7
330
2CB
100
AcDbEntity
  8
DIMS
100
AcDbMText
 10
44.0690574858
 20
85.9356915478
 30
0.0
 40
0.5
 41
0.0
 71
     1
 72
     1
  1
4
  7
SLDTEXTSTYLE0
 73
     1
 44
1.0
  0
MTEXT
  5
2D8
330
2CB
100
AcDbEntity
  8
DIMS
100
AcDbMText
 10
44.5850297352
 20
86.2315596273
 30
0.0
 40
0.5
 41
0.0
 71
     1
 72
     1
  1
"
  7
SLDTEXTSTYLE0
 73
     1
 44
1.0
  0
ENDBLK
  5
2CD
330
2CB
100
AcDbEntity
  8
0
100
AcDbBlockEnd
  0
BLOCK
  5
2DC
330
2DB
100
AcDbEntity
  8
0
100
AcDbBlockBegin
  2
_D_1
 70
     0
 10
0.0
 20
0.0
 30
0.0
  3
_D_1
  1

  0
INSERT
  5
2DE
330
2DB
100
AcDbEntity
  8
DIMS
100
AcDbBlockReference
  2
_Open90
 10
84.8779583184
 20
11.4311888291
 30
-0.025
 41
0.3
 42
0.3
 50
270.0
  0
INSERT
  5
2DF
330
2DB
100
AcDbEntity
  8
DIMS
100
AcDbBlockReference
  2
_Open90
 10
84.8779583184
 20
83.4311888291
 30
-0.025
 41
0.3
 42
0.3
 50
90.0
  0
LINE
  5
2E0
330
2DB
100
AcDbEntity
  8
DIMS
100
AcDbLine
 10
82.0524990008
 20
11.4311888291
 30
0.0
 11
85.2529583184
 21
11.4311888291
 31
0.0
  0
LINE
  5
2E1
330
2DB
100
AcDbEntity
  8
DIMS
100
AcDbLine
 10
82.0524990008
 20
83.4311888291
 30
0.0
 11
85.2529583184
 21
83.4311888291
 31
0.0
  0
LINE
  5
2E2
330
2DB
100
AcDbEntity
  8
DIMS
100
AcDbLine
 10
84.8779583184
 20
11.4311888291
 30
0.0
 11
84.8779583184
 21
48.4482053298
 31
0.0
  0
LINE
  5
2E3
330
2DB
100
AcDbEntity
  8
DIMS
100
AcDbLine
 10
84.8779583184
 20
83.4311888291
 30
0.0
 11
84.8779583184
 21
49.2419553536
 31
0.0
  0
MTEXT
  5
2E4
330
2DB
100
AcDbEntity
  8
DIMS
100
AcDbMText
 10
84.4053888909
 20
49.0868772598
 30
0.0
 40
0.5
 41
0.0
 71
     1
 72
     1
  1
72"
  7
SLDTEXTSTYLE0
 73
     1
 44
1.0
  0
ENDBLK
  5
2DD
330
2DB
100
AcDbEntity
  8
0
100
AcDbBlockEnd
  0
ENDSEC
  0
SECTION
  2
ENTITIES
  0
LINE
  5
7B
330
1F
100
AcDbEntity
  8
TITLE
370
    35
100
AcDbLine
 10
132.5182230965
 20
1.4876117645
 30
0.0
 11
149.4999864512
 21
1.4876117645
 31
0.0
  0
LINE
  5
7C
330
1F
100
AcDbEntity
  8
TITLE
370
    35
100
AcDbLine
 10
149.4999317442
 20
5.4753603936
 30
0.0
 11
139.3105350723
 21
5.4753603936
 31
0.0
  0
LINE
  5
7D
330
1F
100
AcDbEntity
  8
TITLE
  6
SLD-Solid
370
    18
100
AcDbLine
 10
0.5
 20
0.5
 30
0.0
 11
0.5
 21
99.5
 31
0.0
  0
LINE
  5
7E
330
1F
100
AcDbEntity
  8
TITLE
  6
SLD-Solid
370
    18
100
AcDbLine
 10
0.5
 20
99.5
 30
0.0
 11
149.5
 21
99.5
 31
0.0
  0
LINE
  5
7F
330
1F
100
AcDbEntity
  8
TITLE
370
    35
100
AcDbLine
 10
132.5182230965
 20
2.5427877231
 30
0.0
 11
125.5059791203
 21
2.5427877231
 31
0.0
  0
LINE
  5
80
330
1F
100
AcDbEntity
  8
TITLE
370
    35
100
AcDbLine
 10
132.5182230965
 20
1.4876117645
 30
0.0
 11
125.5059791203
 21
1.4876117645
 31
0.0
  0
LINE
  5
81
330
1F
100
AcDbEntity
  8
TITLE
  6
SLD-Solid
370
    18
100
AcDbLine
 10
149.5
 20
99.5
 30
0.0
 11
149.5
 21
0.5
 31
0.0
  0
LINE
  5
82
330
1F
100
AcDbEntity
  8
TITLE
  6
SLD-Solid
370
    18
100
AcDbLine
 10
149.5
 20
0.5
 30
0.0
 11
0.5
 21
0.5
 31
0.0
  0
LINE
  5
83
330
1F
100
AcDbEntity
  8
TITLE
370
    35
100
AcDbLine
 10
132.5182230965
 20
1.4876117645
 30
0.0
 11
132.5182230965
 21
3.5979636817
 31
0.0
  0
LINE
  5
84
330
1F
100
AcDbEntity
  8
TITLE
370
    35
100
AcDbLine
 10
125.5059791203
 20
3.5979636817
 30
0.0
 11
125.5059791203
 21
0.5
 31
0.0
  0
LINE
  5
85
330
1F
100
AcDbEntity
  8
TITLE
370
    35
100
AcDbLine
 10
125.5059791203
 20
0.5
 30
0.0
 11
149.5
 21
0.5
 31
0.0
  0
LINE
  5
86
330
1F
100
AcDbEntity
  8
TITLE
370
    35
100
AcDbLine
 10
149.4999317442
 20
5.4753603936
 30
0.0
 11
149.5
 21
0.5
 31
0.0
  0
LINE
  5
87
330
1F
100
AcDbEntity
  8
TITLE
370
    35
100
AcDbLine
 10
132.5182230965
 20
3.5979636817
 30
0.0
 11
125.5059791203
 21
3.5979636817
 31
0.0
  0
LINE
  5
88
330
1F
100
AcDbEntity
  8
TITLE
370
    35
100
AcDbLine
 10
132.5182230965
 20
3.5979636817
 30
0.0
 11
149.4997615643
 21
3.5979648343
 31
0.0
  0
LINE
  5
89
330
1F
100
AcDbEntity
  8
TITLE
370
    35
100
AcDbLine
 10
139.3105350723
 20
5.4753603936
 30
0.0
 11
139.3105350723
 21
0.4636772425
 31
0.0
  0
LINE
  5
8A
330
1F
100
AcDbEntity
  8
TITLE
  6
SLD-Solid
370
    18
100
AcDbLine
 10
0.4999606299
 20
50.0
 30
0.0
 11
0.5000393701
 21
50.0
 31
0.0
  0
LINE
  5
8B
330
1F
100
AcDbEntity
  8
TITLE
  6
SLD-Solid
370
    18
100
AcDbLine
 10
75.0
 20
99.5000393701
 30
0.0
 11
75.0
 21
99.4999606299
 31
0.0
  0
LINE
  5
8C
330
1F
100
AcDbEntity
  8
TITLE
  6
SLD-Solid
370
    18
100
AcDbLine
 10
149.5000393701
 20
50.0
 30
0.0
 11
149.4999606299
 21
50.0
 31
0.0
  0
LINE
  5
8D
330
1F
100
AcDbEntity
  8
TITLE
  6
SLD-Solid
370
    18
100
AcDbLine
 10
75.0
 20
0.4999606299
 30
0.0
 11
75.0
 21
0.5000393701
 31
0.0
  0
LINE
  5
8E
330
1F
100
AcDbEntity
  8
TITLE
  6
SLD-Solid
370
    18
100
AcDbLine
 10
0.5
 20
2.7559055118
 30
0.0
 11
0.1653543307
 21
2.7559055118
 31
0.0
  0
LINE
  5
8F
330
1F
100
AcDbEntity
  8
TITLE
  6
SLD-Solid
370
    18
100
AcDbLine
 10
149.5
 20
2.7559055118
 30
0.0
 11
149.8346456693
 21
2.7559055118
 31
0.0
  0
LINE
  5
90
330
1F
100
AcDbEntity
  8
TITLE
  6
SLD-Solid
370
    18
100
AcDbLine
 10
0.5
 20
4.7244094488
 30
0.0
 11
0.1653543307
 21
4.7244094488
 31
0.0
  0
LINE
  5
91
330
1F
100
AcDbEntity
  8
TITLE
  6
SLD-Solid
370
    18
100
AcDbLine
 10
149.5
 20
4.7244094488
 30
0.0
 11
149.8346456693
 21
4.7244094488
 31
0.0
  0
LINE
  5
92
330
1F
100
AcDbEntity
  8
TITLE
  6
SLD-Solid
370
    18
100
AcDbLine
 10
0.5
 20
6.6929133858
 30
0.0
 11
0.1653543307
 21
6.6929133858
 31
0.0
  0
LINE
  5
93
330
1F
100
AcDbEntity
  8
TITLE
  6
SLD-Solid
370
    18
100
AcDbLine
 10
149.5
 20
6.6929133858
 30
0.0
 11
149.8346456693
 21
6.6929133858
 31
0.0
  0
LINE
  5
94
330
1F
100
AcDbEntity
  8
TITLE
  6
SLD-Solid
370
    18
100
AcDbLine
 10
0.5
 20
8.6614173228
 30
0.0
 11
0.1653543307
 21
8.6614173228
 31
0.0
  0
LINE
  5
95
330
1F
100
AcDbEntity
  8
TITLE
  6
SLD-Solid
370
    18
100
AcDbLine
 10
149.5
 20
8.6614173228
 30
0.0
 11
149.8346456693
 21
8.6614173228
 31
0.0
  0
LINE
  5
96
330
1F
100
AcDbEntity
  8
TITLE
  6
SLD-Solid
370
    18
100
AcDbLine
 10
0.5
 20
10.6299212598
 30
0.0
 11
0.1653543307
 21
10.6299212598
 31
0.0
  0
LINE
  5
97
330
1F
100
AcDbEntity
  8
TITLE
  6
SLD-Solid
370
    18
100
AcDbLine
 10
149.5
 20
10.6299212598
 30
0.0
 11
149.8346456693
 21
10.6299212598
 31
0.0
  0
LINE
  5
98
330
1F
100
AcDbEntity
  8
TITLE
  6
SLD-Solid
370
    18
100
AcDbLine
 10
0.5
 20
12.5984251969
 30
0.0
 11
0.1653543307
 21
12.5984251969
 31
0.0
  0
LINE
  5
99
330
1F
100
AcDbEntity
  8
TITLE
  6
SLD-Solid
370
    18
100
AcDbLine
 10
149.5
 20
12.5984251969
 30
0.0
 11
149.8346456693
 21
12.5984251969
 31
0.0
  0
LINE
  5
9A
330
1F
100
AcDbEntity
  8
TITLE
  6
SLD-Solid
370
    18
100
AcDbLine
 10
0.5
 20
14.5669291339
 30
0.0
 11
0.1653543307
 21
14.5669291339
 31
0.0
  0
LINE
  5
9B
330
1F
100
AcDbEntity
  8
TITLE
  6
SLD-Solid
370
    18
100
AcDbLine
 10
149.5
 20
14.5669291339
 30
0.0
 11
149.8346456693
 21
14.5669291339
 31
0.0
  0
LINE
  5
9C
330
1F
100
AcDbEntity
  8
TITLE
  6
SLD-Solid
370
    18
100
AcDbLine
 10
0.5
 20
16.5354330709
 30
0.0
 11
0.1653543307
 21
16.5354330709
 31
0.0
  0
LINE
  5
9D
330
1F
100
AcDbEntity
  8
TITLE
  6
SLD-Solid
370
    18
100
AcDbLine
 10
149.5
 20
16.5354330709
 30
0.0
 11
149.8346456693
 21
16.5354330709
 31
0.0
  0
LINE
  5
9E
330
1F
100
AcDbEntity
  8
TITLE
  6
SLD-Solid
370
    18
100
AcDbLine
 10
0.5
 20
18.5039370079
 30
0.0
 11
0.1653543307
 21
18.5039370079
 31
0.0
  0
LINE
  5
9F
330
1F
100
AcDbEntity
  8
TITLE
  6
SLD-Solid
370
    18
100
AcDbLine
 10
149.5
 20
18.5039370079
 30
0.0
 11
149.8346456693
 21
18.5039370079
 31
0.0
  0
LINE
  5
A0
330
1F
100
AcDbEntity
  8
TITLE
  6
SLD-Solid
370
    18
100
AcDbLine
 10
0.5
 20
20.4724409449
 30
0.0
 11
0.1653543307
 21
20.4724409449
 31
0.0
  0
LINE
  5
A1
330
1F
100
AcDbEntity
  8
TITLE
  6
SLD-Solid
370
    18
100
AcDbLine
 10
149.5
 20
20.4724409449
 30
0.0
 11
149.8346456693
 21
20.4724409449
 31
0.0
  0
LINE
  5
A2
330
1F
100
AcDbEntity
  8
TITLE
  6
SLD-Solid
370
    18
100
AcDbLine
 10
0.5
 20
22.4409448819
 30
0.0
 11
0.1653543307
 21
22.4409448819
 31
0.0
  0
LINE
  5
A3
330
1F
100
AcDbEntity
  8
TITLE
  6
SLD-Solid
370
    18
100
AcDbLine
 10
149.5
 20
22.4409448819
 30
0.0
 11
149.8346456693
 21
22.4409448819
 31
0.0
  0
LINE
  5
A4
330
1F
100
AcDbEntity
  8
TITLE
  6
SLD-Solid
370
    18
100
AcDbLine
 10
0.5
 20
24.4094488189
 30
0.0
 11
0.1653543307
 21
24.4094488189
 31
0.0
  0
LINE
  5
A5
330
1F
100
AcDbEntity
  8
TITLE
  6
SLD-Solid
370
    18
100
AcDbLine
 10
149.5
 20
24.4094488189
 30
0.0
 11
149.8346456693
 21
24.4094488189
 31
0.0
  0
LINE
  5
A6
330
1F
100
AcDbEntity
  8
TITLE
  6
SLD-Solid
370
    18
100
AcDbLine
 10
0.5
 20
26.3779527559
 30
0.0
 11
0.1653543307
 21
26.3779527559
 31
0.0
  0
LINE
  5
A7
330
1F
100
AcDbEntity
  8
TITLE
  6
SLD-Solid
370
    18
100
AcDbLine
 10
149.5
 20
26.3779527559
 30
0.0
 11
149.8346456693
 21
26.3779527559
 31
0.0
  0
LINE
  5
A8
330
1F
100
AcDbEntity
  8
TITLE
  6
SLD-Solid
370
    18
100
AcDbLine
 10
0.5
 20
28.3464566929
 30
0.0
 11
0.1653543307
 21
28.3464566929
 31
0.0
  0
LINE
  5
A9
330
1F
100
AcDbEntity
  8
TITLE
  6
SLD-Solid
370
    18
100
AcDbLine
 10
149.5
 20
28.3464566929
 30
0.0
 11
149.8346456693
 21
28.3464566929
 31
0.0
  0
LINE
  5
AA
330
1F
100
AcDbEntity
  8
TITLE
  6
SLD-Solid
370
    18
100
AcDbLine
 10
0.5
 20
30.3149606299
 30
0.0
 11
0.1653543307
 21
30.3149606299
 31
0.0
  0
LINE
  5
AB
330
1F
100
AcDbEntity
  8
TITLE
  6
SLD-Solid
370
    18
100
AcDbLine
 10
149.5
 20
30.3149606299
 30
0.0
 11
149.8346456693
 21
30.3149606299
 31
0.0
  0
LINE
  5
AC
330
1F
100
AcDbEntity
  8
TITLE
  6
SLD-Solid
370
    18
100
AcDbLine
 10
0.5
 20
32.2834645669
 30
0.0
 11
0.1653543307
 21
32.2834645669
 31
0.0
  0
LINE
  5
AD
330
1F
100
AcDbEntity
  8
TITLE
  6
SLD-Solid
370
    18
100
AcDbLine
 10
149.5
 20
32.2834645669
 30
0.0
 11
149.8346456693
 21
32.2834645669
 31
0.0
  0
LINE
  5
AE
330
1F
100
AcDbEntity
  8
TITLE
  6
SLD-Solid
370
    18
100
AcDbLine
 10
0.5
 20
34.2519685039
 30
0.0
 11
0.1653543307
 21
34.2519685039
 31
0.0
  0
LINE
  5
AF
330
1F
100
AcDbEntity
  8
TITLE
  6
SLD-Solid
370
    18
100
AcDbLine
 10
149.5
 20
34.2519685039
 30
0.0
 11
149.8346456693
 21
34.2519685039
 31
0.0
  0
LINE
  5
B0
330
1F
100
AcDbEntity
  8
TITLE
  6
SLD-Solid
370
    18
100
AcDbLine
 10
0.5
 20
36.2204724409
 30
0.0
 11
0.1653543307
 21
36.2204724409
 31
0.0
  0
LINE
  5
B1
330
1F
100
AcDbEntity
  8
TITLE
  6
SLD-Solid
370
    18
100
AcDbLine
 10
149.5
 20
36.2204724409
 30
0.0
 11
149.8346456693
 21
36.2204724409
 31
0.0
  0
LINE
  5
B2
330
1F
100
AcDbEntity
  8
TITLE
  6
SLD-Solid
370
    18
100
AcDbLine
 10
0.5
 20
38.188976378
 30
0.0
 11
0.1653543307
 21
38.188976378
 31
0.0
  0
LINE
  5
B3
330
1F
100
AcDbEntity
  8
TITLE
  6
SLD-Solid
370
    18
100
AcDbLine
 10
149.5
 20
38.188976378
 30
0.0
 11
149.8346456693
 21
38.188976378
 31
0.0
  0
LINE
  5
B4
330
1F
100
AcDbEntity
  8
TITLE
  6
SLD-Solid
370
    18
100
AcDbLine
 10
0.5
 20
40.157480315
 30
0.0
 11
0.1653543307
 21
40.157480315
 31
0.0
  0
LINE
  5
B5
330
1F
100
AcDbEntity
  8
TITLE
  6
SLD-Solid
370
    18
100
AcDbLine
 10
149.5
 20
40.157480315
 30
0.0
 11
149.8346456693
 21
40.157480315
 31
0.0
  0
LINE
  5
B6
330
1F
100
AcDbEntity
  8
TITLE
  6
SLD-Solid
370
    18
100
AcDbLine
 10
0.5
 20
42.125984252
 30
0.0
 11
0.1653543307
 21
42.125984252
 31
0.0
  0
LINE
  5
B7
330
1F
100
AcDbEntity
  8
TITLE
  6
SLD-Solid
370
    18
100
AcDbLine
 10
149.5
 20
42.125984252
 30
0.0
 11
149.8346456693
 21
42.125984252
 31
0.0
  0
LINE
  5
B8
330
1F
100
AcDbEntity
  8
TITLE
  6
SLD-Solid
370
    18
100
AcDbLine
 10
0.5
 20
44.094488189
 30
0.0
 11
0.1653543307
 21
44.094488189
 31
0.0
  0
LINE
  5
B9
330
1F
100
AcDbEntity
  8
TITLE
  6
SLD-Solid
370
    18
100
AcDbLine
 10
149.5
 20
44.094488189
 30
0.0
 11
149.8346456693
 21
44.094488189
 31
0.0
  0
LINE
  5
BA
330
1F
100
AcDbEntity
  8
TITLE
  6
SLD-Solid
370
    18
100
AcDbLine
 10
0.5
 20
46.062992126
 30
0.0
 11
0.1653543307
 21
46.062992126
 31
0.0
  0
LINE
  5
BB
330
1F
100
AcDbEntity
  8
TITLE
  6
SLD-Solid
370
    18
100
AcDbLine
 10
149.5
 20
46.062992126
 30
0.0
 11
149.8346456693
 21
46.062992126
 31
0.0
  0
LINE
  5
BC
330
1F
100
AcDbEntity
  8
TITLE
  6
SLD-Solid
370
    18
100
AcDbLine
 10
0.5
 20
48.031496063
 30
0.0
 11
0.1653543307
 21
48.031496063
 31
0.0
  0
LINE
  5
BD
330
1F
100
AcDbEntity
  8
TITLE
  6
SLD-Solid
370
    18
100
AcDbLine
 10
149.5
 20
48.031496063
 30
0.0
 11
149.8346456693
 21
48.031496063
 31
0.0
  0
LINE
  5
BE
330
1F
100
AcDbEntity
  8
TITLE
  6
SLD-Solid
370
    18
100
AcDbLine
 10
0.5
 20
50.0
 30
0.0
 11
0.1653543307
 21
50.0
 31
0.0
  0
LINE
  5
BF
330
1F
100
AcDbEntity
  8
TITLE
  6
SLD-Solid
370
    18
100
AcDbLine
 10
149.5
 20
50.0
 30
0.0
 11
149.8346456693
 21
50.0
 31
0.0
  0
LINE
  5
C0
330
1F
100
AcDbEntity
  8
TITLE
  6
SLD-Solid
370
    18
100
AcDbLine
 10
0.5
 20
51.968503937
 30
0.0
 11
0.1653543307
 21
51.968503937
 31
0.0
  0
LINE
  5
C1
330
1F
100
AcDbEntity
  8
TITLE
  6
SLD-Solid
370
    18
100
AcDbLine
 10
149.5
 20
51.968503937
 30
0.0
 11
149.8346456693
 21
51.968503937
 31
0.0
  0
LINE
  5
C2
330
1F
100
AcDbEntity
  8
TITLE
  6
SLD-Solid
370
    18
100
AcDbLine
 10
0.5
 20
53.937007874
 30
0.0
 11
0.1653543307
 21
53.937007874
 31
0.0
  0
LINE
  5
C3
330
1F
100
AcDbEntity
  8
TITLE
  6
SLD-Solid
370
    18
100
AcDbLine
 10
149.5
 20
53.937007874
 30
0.0
 11
149.8346456693
 21
53.937007874
 31
0.0
  0
LINE
  5
C4
330
1F
100
AcDbEntity
  8
TITLE
  6
SLD-Solid
370
    18
100
AcDbLine
 10
0.5
 20
55.905511811
 30
0.0
 11
0.1653543307
 21
55.905511811
 31
0.0
  0
LINE
  5
C5
330
1F
100
AcDbEntity
  8
TITLE
  6
SLD-Solid
370
    18
100
AcDbLine
 10
149.5
 20
55.905511811
 30
0.0
 11
149.8346456693
 21
55.905511811
 31
0.0
  0
LINE
  5
C6
330
1F
100
AcDbEntity
  8
TITLE
  6
SLD-Solid
370
    18
100
AcDbLine
 10
0.5
 20
57.874015748
 30
0.0
 11
0.1653543307
 21
57.874015748
 31
0.0
  0
LINE
  5
C7
330
1F
100
AcDbEntity
  8
TITLE
  6
SLD-Solid
370
    18
100
AcDbLine
 10
149.5
 20
57.874015748
 30
0.0
 11
149.8346456693
 21
57.874015748
 31
0.0
  0
LINE
  5
C8
330
1F
100
AcDbEntity
  8
TITLE
  6
SLD-Solid
370
    18
100
AcDbLine
 10
0.5
 20
59.842519685
 30
0.0
 11
0.1653543307
 21
59.842519685
 31
0.0
  0
LINE
  5
C9
330
1F
100
AcDbEntity
  8
TITLE
  6
SLD-Solid
370
    18
100
AcDbLine
 10
149.5
 20
59.842519685
 30
0.0
 11
149.8346456693
 21
59.842519685
 31
0.0
  0
LINE
  5
CA
330
1F
100
AcDbEntity
  8
TITLE
  6
SLD-Solid
370
    18
100
AcDbLine
 10
0.5
 20
61.811023622
 30
0.0
 11
0.1653543307
 21
61.811023622
 31
0.0
  0
LINE
  5
CB
330
1F
100
AcDbEntity
  8
TITLE
  6
SLD-Solid
370
    18
100
AcDbLine
 10
149.5
 20
61.811023622
 30
0.0
 11
149.8346456693
 21
61.811023622
 31
0.0
  0
LINE
  5
CC
330
1F
100
AcDbEntity
  8
TITLE
  6
SLD-Solid
370
    18
100
AcDbLine
 10
0.5
 20
63.7795275591
 30
0.0
 11
0.1653543307
 21
63.7795275591
 31
0.0
  0
LINE
  5
CD
330
1F
100
AcDbEntity
  8
TITLE
  6
SLD-Solid
370
    18
100
AcDbLine
 10
149.5
 20
63.7795275591
 30
0.0
 11
149.8346456693
 21
63.7795275591
 31
0.0
  0
LINE
  5
CE
330
1F
100
AcDbEntity
  8
TITLE
  6
SLD-Solid
370
    18
100
AcDbLine
 10
0.5
 20
65.7480314961
 30
0.0
 11
0.1653543307
 21
65.7480314961
 31
0.0
  0
LINE
  5
CF
330
1F
100
AcDbEntity
  8
TITLE
  6
SLD-Solid
370
    18
100
AcDbLine
 10
149.5
 20
65.7480314961
 30
0.0
 11
149.8346456693
 21
65.7480314961
 31
0.0
  0
LINE
  5
D0
330
1F
100
AcDbEntity
  8
TITLE
  6
SLD-Solid
370
    18
100
AcDbLine
 10
0.5
 20
67.7165354331
 30
0.0
 11
0.1653543307
 21
67.7165354331
 31
0.0
  0
LINE
  5
D1
330
1F
100
AcDbEntity
  8
TITLE
  6
SLD-Solid
370
    18
100
AcDbLine
 10
149.5
 20
67.7165354331
 30
0.0
 11
149.8346456693
 21
67.7165354331
 31
0.0
  0
LINE
  5
D2
330
1F
100
AcDbEntity
  8
TITLE
  6
SLD-Solid
370
    18
100
AcDbLine
 10
0.5
 20
69.6850393701
 30
0.0
 11
0.1653543307
 21
69.6850393701
 31
0.0
  0
LINE
  5
D3
330
1F
100
AcDbEntity
  8
TITLE
  6
SLD-Solid
370
    18
100
AcDbLine
 10
149.5
 20
69.6850393701
 30
0.0
 11
149.8346456693
 21
69.6850393701
 31
0.0
  0
LINE
  5
D4
330
1F
100
AcDbEntity
  8
TITLE
  6
SLD-Solid
370
    18
100
AcDbLine
 10
0.5
 20
71.6535433071
 30
0.0
 11
0.1653543307
 21
71.6535433071
 31
0.0
  0
LINE
  5
D5
330
1F
100
AcDbEntity
  8
TITLE
  6
SLD-Solid
370
    18
100
AcDbLine
 10
149.5
 20
71.6535433071
 30
0.0
 11
149.8346456693
 21
71.6535433071
 31
0.0
  0
LINE
  5
D6
330
1F
100
AcDbEntity
  8
TITLE
  6
SLD-Solid
370
    18
100
AcDbLine
 10
0.5
 20
73.6220472441
 30
0.0
 11
0.1653543307
 21
73.6220472441
 31
0.0
  0
LINE
  5
D7
330
1F
100
AcDbEntity
  8
TITLE
  6
SLD-Solid
370
    18
100
AcDbLine
 10
149.5
 20
73.6220472441
 30
0.0
 11
149.8346456693
 21
73.6220472441
 31
0.0
  0
LINE
  5
D8
330
1F
100
AcDbEntity
  8
TITLE
  6
SLD-Solid
370
    18
100
AcDbLine
 10
0.5
 20
75.5905511811
 30
0.0
 11
0.1653543307
 21
75.5905511811
 31
0.0
  0
LINE
  5
D9
330
1F
100
AcDbEntity
  8
TITLE
  6
SLD-Solid
370
    18
100
AcDbLine
 10
149.5
 20
75.5905511811
 30
0.0
 11
149.8346456693
 21
75.5905511811
 31
0.0
  0
LINE
  5
DA
330
1F
100
AcDbEntity
  8
TITLE
  6
SLD-Solid
370
    18
100
AcDbLine
 10
0.5
 20
77.5590551181
 30
0.0
 11
0.1653543307
 21
77.5590551181
 31
0.0
  0
LINE
  5
DB
330
1F
100
AcDbEntity
  8
TITLE
  6
SLD-Solid
370
    18
100
AcDbLine
 10
149.5
 20
77.5590551181
 30
0.0
 11
149.8346456693
 21
77.5590551181
 31
0.0
  0
LINE
  5
DC
330
1F
100
AcDbEntity
  8
TITLE
  6
SLD-Solid
370
    18
100
AcDbLine
 10
0.5
 20
79.5275590551
 30
0.0
 11
0.1653543307
 21
79.5275590551
 31
0.0
  0
LINE
  5
DD
330
1F
100
AcDbEntity
  8
TITLE
  6
SLD-Solid
370
    18
100
AcDbLine
 10
149.5
 20
79.5275590551
 30
0.0
 11
149.8346456693
 21
79.5275590551
 31
0.0
  0
LINE
  5
DE
330
1F
100
AcDbEntity
  8
TITLE
  6
SLD-Solid
370
    18
100
AcDbLine
 10
0.5
 20
81.4960629921
 30
0.0
 11
0.1653543307
 21
81.4960629921
 31
0.0
  0
LINE
  5
DF
330
1F
100
AcDbEntity
  8
TITLE
  6
SLD-Solid
370
    18
100
AcDbLine
 10
149.5
 20
81.4960629921
 30
0.0
 11
149.8346456693
 21
81.4960629921
 31
0.0
  0
LINE
  5
E0
330
1F
100
AcDbEntity
  8
TITLE
  6
SLD-Solid
370
    18
100
AcDbLine
 10
0.5
 20
83.4645669291
 30
0.0
 11
0.1653543307
 21
83.4645669291
 31
0.0
  0
LINE
  5
E1
330
1F
100
AcDbEntity
  8
TITLE
  6
SLD-Solid
370
    18
100
AcDbLine
 10
149.5
 20
83.4645669291
 30
0.0
 11
149.8346456693
 21
83.4645669291
 31
0.0
  0
LINE
  5
E2
330
1F
100
AcDbEntity
  8
TITLE
  6
SLD-Solid
370
    18
100
AcDbLine
 10
0.5
 20
85.4330708661
 30
0.0
 11
0.1653543307
 21
85.4330708661
 31
0.0
  0
LINE
  5
E3
330
1F
100
AcDbEntity
  8
TITLE
  6
SLD-Solid
370
    18
100
AcDbLine
 10
149.5
 20
85.4330708661
 30
0.0
 11
149.8346456693
 21
85.4330708661
 31
0.0
  0
LINE
  5
E4
330
1F
100
AcDbEntity
  8
TITLE
  6
SLD-Solid
370
    18
100
AcDbLine
 10
0.5
 20
87.4015748031
 30
0.0
 11
0.1653543307
 21
87.4015748031
 31
0.0
  0
LINE
  5
E5
330
1F
100
AcDbEntity
  8
TITLE
  6
SLD-Solid
370
    18
100
AcDbLine
 10
149.5
 20
87.4015748031
 30
0.0
 11
149.8346456693
 21
87.4015748031
 31
0.0
  0
LINE
  5
E6
330
1F
100
AcDbEntity
  8
TITLE
  6
SLD-Solid
370
    18
100
AcDbLine
 10
0.5
 20
89.3700787402
 30
0.0
 11
0.1653543307
 21
89.3700787402
 31
0.0
  0
LINE
  5
E7
330
1F
100
AcDbEntity
  8
TITLE
  6
SLD-Solid
370
    18
100
AcDbLine
 10
149.5
 20
89.3700787402
 30
0.0
 11
149.8346456693
 21
89.3700787402
 31
0.0
  0
LINE
  5
E8
330
1F
100
AcDbEntity
  8
TITLE
  6
SLD-Solid
370
    18
100
AcDbLine
 10
0.5
 20
91.3385826772
 30
0.0
 11
0.1653543307
 21
91.3385826772
 31
0.0
  0
LINE
  5
E9
330
1F
100
AcDbEntity
  8
TITLE
  6
SLD-Solid
370
    18
100
AcDbLine
 10
149.5
 20
91.3385826772
 30
0.0
 11
149.8346456693
 21
91.3385826772
 31
0.0
  0
LINE
  5
EA
330
1F
100
AcDbEntity
  8
TITLE
  6
SLD-Solid
370
    18
100
AcDbLine
 10
0.5
 20
93.3070866142
 30
0.0
 11
0.1653543307
 21
93.3070866142
 31
0.0
  0
LINE
  5
EB
330
1F
100
AcDbEntity
  8
TITLE
  6
SLD-Solid
370
    18
100
AcDbLine
 10
149.5
 20
93.3070866142
 30
0.0
 11
149.8346456693
 21
93.3070866142
 31
0.0
  0
LINE
  5
EC
330
1F
100
AcDbEntity
  8
TITLE
  6
SLD-Solid
370
    18
100
AcDbLine
 10
0.5
 20
95.2755905512
 30
0.0
 11
0.1653543307
 21
95.2755905512
 31
0.0
  0
LINE
  5
ED
330
1F
100
AcDbEntity
  8
TITLE
  6
SLD-Solid
370
    18
100
AcDbLine
 10
149.5
 20
95.2755905512
 30
0.0
 11
149.8346456693
 21
95.2755905512
 31
0.0
  0
LINE
  5
EE
330
1F
100
AcDbEntity
  8
TITLE
  6
SLD-Solid
370
    18
100
AcDbLine
 10
0.5
 20
97.2440944882
 30
0.0
 11
0.1653543307
 21
97.2440944882
 31
0.0
  0
LINE
  5
EF
330
1F
100
AcDbEntity
  8
TITLE
  6
SLD-Solid
370
    18
100
AcDbLine
 10
149.5
 20
97.2440944882
 30
0.0
 11
149.8346456693
 21
97.2440944882
 31
0.0
  0
LINE
  5
F0
330
1F
100
AcDbEntity
  8
TITLE
  6
SLD-Solid
370
    18
100
AcDbLine
 10
2.1653543307
 20
99.5
 30
0.0
 11
2.1653543307
 21
99.8346456693
 31
0.0
  0
LINE
  5
F1
330
1F
100
AcDbEntity
  8
TITLE
  6
SLD-Solid
370
    18
100
AcDbLine
 10
2.1653543307
 20
0.5
 30
0.0
 11
2.1653543307
 21
0.1653543307
 31
0.0
  0
LINE
  5
F2
330
1F
100
AcDbEntity
  8
TITLE
  6
SLD-Solid
370
    18
100
AcDbLine
 10
4.1338582677
 20
99.5
 30
0.0
 11
4.1338582677
 21
99.8346456693
 31
0.0
  0
LINE
  5
F3
330
1F
100
AcDbEntity
  8
TITLE
  6
SLD-Solid
370
    18
100
AcDbLine
 10
4.1338582677
 20
0.5
 30
0.0
 11
4.1338582677
 21
0.1653543307
 31
0.0
  0
LINE
  5
F4
330
1F
100
AcDbEntity
  8
TITLE
  6
SLD-Solid
370
    18
100
AcDbLine
 10
6.1023622047
 20
99.5
 30
0.0
 11
6.1023622047
 21
99.8346456693
 31
0.0
  0
LINE
  5
F5
330
1F
100
AcDbEntity
  8
TITLE
  6
SLD-Solid
370
    18
100
AcDbLine
 10
6.1023622047
 20
0.5
 30
0.0
 11
6.1023622047
 21
0.1653543307
 31
0.0
  0
LINE
  5
F6
330
1F
100
AcDbEntity
  8
TITLE
  6
SLD-Solid
370
    18
100
AcDbLine
 10
8.0708661417
 20
99.5
 30
0.0
 11
8.0708661417
 21
99.8346456693
 31
0.0
  0
LINE
  5
F7
330
1F
100
AcDbEntity
  8
TITLE
  6
SLD-Solid
370
    18
100
AcDbLine
 10
8.0708661417
 20
0.5
 30
0.0
 11
8.0708661417
 21
0.1653543307
 31
0.0
  0
LINE
  5
F8
330
1F
100
AcDbEntity
  8
TITLE
  6
SLD-Solid
370
    18
100
AcDbLine
 10
10.0393700787
 20
99.5
 30
0.0
 11
10.0393700787
 21
99.8346456693
 31
0.0
  0
LINE
  5
F9
330
1F
100
AcDbEntity
  8
TITLE
  6
SLD-Solid
370
    18
100
AcDbLine
 10
10.0393700787
 20
0.5
 30
0.0
 11
10.0393700787
 21
0.1653543307
 31
0.0
  0
LINE
  5
FA
330
1F
100
AcDbEntity
  8
TITLE
  6
SLD-Solid
370
    18
100
AcDbLine
 10
12.0078740157
 20
99.5
 30
0.0
 11
12.0078740157
 21
99.8346456693
 31
0.0
  0
LINE
  5
FB
330
1F
100
AcDbEntity
  8
TITLE
  6
SLD-Solid
370
    18
100
AcDbLine
 10
12.0078740157
 20
0.5
 30
0.0
 11
12.0078740157
 21
0.1653543307
 31
0.0
  0
LINE
  5
FC
330
1F
100
AcDbEntity
  8
TITLE
  6
SLD-Solid
370
    18
100
AcDbLine
 10
13.9763779528
 20
99.5
 30
0.0
 11
13.9763779528
 21
99.8346456693
 31
0.0
  0
LINE
  5
FD
330
1F
100
AcDbEntity
  8
TITLE
  6
SLD-Solid
370
    18
100
AcDbLine
 10
13.9763779528
 20
0.5
 30
0.0
 11
13.9763779528
 21
0.1653543307
 31
0.0
  0
LINE
  5
FE
330
1F
100
AcDbEntity
  8
TITLE
  6
SLD-Solid
370
    18
100
AcDbLine
 10
15.9448818898
 20
99.5
 30
0.0
 11
15.9448818898
 21
99.8346456693
 31
0.0
  0
LINE
  5
FF
330
1F
100
AcDbEntity
  8
TITLE
  6
SLD-Solid
370
    18
100
AcDbLine
 10
15.9448818898
 20
0.5
 30
0.0
 11
15.9448818898
 21
0.1653543307
 31
0.0
  0
LINE
  5
100
330
1F
100
AcDbEntity
  8
TITLE
  6
SLD-Solid
370
    18
100
AcDbLine
 10
17.9133858268
 20
99.5
 30
0.0
 11
17.9133858268
 21
99.8346456693
 31
0.0
  0
LINE
  5
101
330
1F
100
AcDbEntity
  8
TITLE
  6
SLD-Solid
370
    18
100
AcDbLine
 10
17.9133858268
 20
0.5
 30
0.0
 11
17.9133858268
 21
0.1653543307
 31
0.0
  0
LINE
  5
102
330
1F
100
AcDbEntity
  8
TITLE
  6
SLD-Solid
370
    18
100
AcDbLine
 10
19.8818897638
 20
99.5
 30
0.0
 11
19.8818897638
 21
99.8346456693
 31
0.0
  0
LINE
  5
103
330
1F
100
AcDbEntity
  8
TITLE
  6
SLD-Solid
370
    18
100
AcDbLine
 10
19.8818897638
 20
0.5
 30
0.0
 11
19.8818897638
 21
0.1653543307
 31
0.0
  0
LINE
  5
104
330
1F
100
AcDbEntity
  8
TITLE
  6
SLD-Solid
370
    18
100
AcDbLine
 10
21.8503937008
 20
99.5
 30
0.0
 11
21.8503937008
 21
99.8346456693
 31
0.0
  0
LINE
  5
105
330
1F
100
AcDbEntity
  8
TITLE
  6
SLD-Solid
370
    18
100
AcDbLine
 10
21.8503937008
 20
0.5
 30
0.0
 11
21.8503937008
 21
0.1653543307
 31
0.0
  0
LINE
  5
106
330
1F
100
AcDbEntity
  8
TITLE
  6
SLD-Solid
370
    18
100
AcDbLine
 10
23.8188976378
 20
99.5
 30
0.0
 11
23.8188976378
 21
99.8346456693
 31
0.0
  0
LINE
  5
107
330
1F
100
AcDbEntity
  8
TITLE
  6
SLD-Solid
370
    18
100
AcDbLine
 10
23.8188976378
 20
0.5
 30
0.0
 11
23.8188976378
 21
0.1653543307
 31
0.0
  0
LINE
  5
108
330
1F
100
AcDbEntity
  8
TITLE
  6
SLD-Solid
370
    18
100
AcDbLine
 10
25.7874015748
 20
99.5
 30
0.0
 11
25.7874015748
 21
99.8346456693
 31
0.0
  0
LINE
  5
109
330
1F
100
AcDbEntity
  8
TITLE
  6
SLD-Solid
370
    18
100
AcDbLine
 10
25.7874015748
 20
0.5
 30
0.0
 11
25.7874015748
 21
0.1653543307
 31
0.0
  0
LINE
  5
10A
330
1F
100
AcDbEntity
  8
TITLE
  6
SLD-Solid
370
    18
100
AcDbLine
 10
27.7559055118
 20
99.5
 30
0.0
 11
27.7559055118
 21
99.8346456693
 31
0.0
  0
LINE
  5
10B
330
1F
100
AcDbEntity
  8
TITLE
  6
SLD-Solid
370
    18
100
AcDbLine
 10
27.7559055118
 20
0.5
 30
0.0
 11
27.7559055118
 21
0.1653543307
 31
0.0
  0
LINE
  5
10C
330
1F
100
AcDbEntity
  8
TITLE
  6
SLD-Solid
370
    18
100
AcDbLine
 10
29.7244094488
 20
99.5
 30
0.0
 11
29.7244094488
 21
99.8346456693
 31
0.0
  0
LINE
  5
10D
330
1F
100
AcDbEntity
  8
TITLE
  6
SLD-Solid
370
    18
100
AcDbLine
 10
29.7244094488
 20
0.5
 30
0.0
 11
29.7244094488
 21
0.1653543307
 31
0.0
  0
LINE
  5
10E
330
1F
100
AcDbEntity
  8
TITLE
  6
SLD-Solid
370
    18
100
AcDbLine
 10
31.6929133858
 20
99.5
 30
0.0
 11
31.6929133858
 21
99.8346456693
 31
0.0
  0
LINE
  5
10F
330
1F
100
AcDbEntity
  8
TITLE
  6
SLD-Solid
370
    18
100
AcDbLine
 10
31.6929133858
 20
0.5
 30
0.0
 11
31.6929133858
 21
0.1653543307
 31
0.0
  0
LINE
  5
110
330
1F
100
AcDbEntity
  8
TITLE
  6
SLD-Solid
370
    18
100
AcDbLine
 10
33.6614173228
 20
99.5
 30
0.0
 11
33.6614173228
 21
99.8346456693
 31
0.0
  0
LINE
  5
111
330
1F
100
AcDbEntity
  8
TITLE
  6
SLD-Solid
370
    18
100
AcDbLine
 10
33.6614173228
 20
0.5
 30
0.0
 11
33.6614173228
 21
0.1653543307
 31
0.0
  0
LINE
  5
112
330
1F
100
AcDbEntity
  8
TITLE
  6
SLD-Solid
370
    18
100
AcDbLine
 10
35.6299212598
 20
99.5
 30
0.0
 11
35.6299212598
 21
99.8346456693
 31
0.0
  0
LINE
  5
113
330
1F
100
AcDbEntity
  8
TITLE
  6
SLD-Solid
370
    18
100
AcDbLine
 10
35.6299212598
 20
0.5
 30
0.0
 11
35.6299212598
 21
0.1653543307
 31
0.0
  0
LINE
  5
114
330
1F
100
AcDbEntity
  8
TITLE
  6
SLD-Solid
370
    18
100
AcDbLine
 10
37.5984251969
 20
99.5
 30
0.0
 11
37.5984251969
 21
99.8346456693
 31
0.0
  0
LINE
  5
115
330
1F
100
AcDbEntity
  8
TITLE
  6
SLD-Solid
370
    18
100
AcDbLine
 10
37.5984251969
 20
0.5
 30
0.0
 11
37.5984251969
 21
0.1653543307
 31
0.0
  0
LINE
  5
116
330
1F
100
AcDbEntity
  8
TITLE
  6
SLD-Solid
370
    18
100
AcDbLine
 10
39.5669291339
 20
99.5
 30
0.0
 11
39.5669291339
 21
99.8346456693
 31
0.0
  0
LINE
  5
117
330
1F
100
AcDbEntity
  8
TITLE
  6
SLD-Solid
370
    18
100
AcDbLine
 10
39.5669291339
 20
0.5
 30
0.0
 11
39.5669291339
 21
0.1653543307
 31
0.0
  0
LINE
  5
118
330
1F
100
AcDbEntity
  8
TITLE
  6
SLD-Solid
370
    18
100
AcDbLine
 10
41.5354330709
 20
99.5
 30
0.0
 11
41.5354330709
 21
99.8346456693
 31
0.0
  0
LINE
  5
119
330
1F
100
AcDbEntity
  8
TITLE
  6
SLD-Solid
370
    18
100
AcDbLine
 10
41.5354330709
 20
0.5
 30
0.0
 11
41.5354330709
 21
0.1653543307
 31
0.0
  0
LINE
  5
11A
330
1F
100
AcDbEntity
  8
TITLE
  6
SLD-Solid
370
    18
100
AcDbLine
 10
43.5039370079
 20
99.5
 30
0.0
 11
43.5039370079
 21
99.8346456693
 31
0.0
  0
LINE
  5
11B
330
1F
100
AcDbEntity
  8
TITLE
  6
SLD-Solid
370
    18
100
AcDbLine
 10
43.5039370079
 20
0.5
 30
0.0
 11
43.5039370079
 21
0.1653543307
 31
0.0
  0
LINE
  5
11C
330
1F
100
AcDbEntity
  8
TITLE
  6
SLD-Solid
370
    18
100
AcDbLine
 10
45.4724409449
 20
99.5
 30
0.0
 11
45.4724409449
 21
99.8346456693
 31
0.0
  0
LINE
  5
11D
330
1F
100
AcDbEntity
  8
TITLE
  6
SLD-Solid
370
    18
100
AcDbLine
 10
45.4724409449
 20
0.5
 30
0.0
 11
45.4724409449
 21
0.1653543307
 31
0.0
  0
LINE
  5
11E
330
1F
100
AcDbEntity
  8
TITLE
  6
SLD-Solid
370
    18
100
AcDbLine
 10
47.4409448819
 20
99.5
 30
0.0
 11
47.4409448819
 21
99.8346456693
 31
0.0
  0
LINE
  5
11F
330
1F
100
AcDbEntity
  8
TITLE
  6
SLD-Solid
370
    18
100
AcDbLine
 10
47.4409448819
 20
0.5
 30
0.0
 11
47.4409448819
 21
0.1653543307
 31
0.0
  0
LINE
  5
120
330
1F
100
AcDbEntity
  8
TITLE
  6
SLD-Solid
370
    18
100
AcDbLine
 10
49.4094488189
 20
99.5
 30
0.0
 11
49.4094488189
 21
99.8346456693
 31
0.0
  0
LINE
  5
121
330
1F
100
AcDbEntity
  8
TITLE
  6
SLD-Solid
370
    18
100
AcDbLine
 10
49.4094488189
 20
0.5
 30
0.0
 11
49.4094488189
 21
0.1653543307
 31
0.0
  0
LINE
  5
122
330
1F
100
AcDbEntity
  8
TITLE
  6
SLD-Solid
370
    18
100
AcDbLine
 10
51.3779527559
 20
99.5
 30
0.0
 11
51.3779527559
 21
99.8346456693
 31
0.0
  0
LINE
  5
123
330
1F
100
AcDbEntity
  8
TITLE
  6
SLD-Solid
370
    18
100
AcDbLine
 10
51.3779527559
 20
0.5
 30
0.0
 11
51.3779527559
 21
0.1653543307
 31
0.0
  0
LINE
  5
124
330
1F
100
AcDbEntity
  8
TITLE
  6
SLD-Solid
370
    18
100
AcDbLine
 10
53.3464566929
 20
99.5
 30
0.0
 11
53.3464566929
 21
99.8346456693
 31
0.0
  0
LINE
  5
125
330
1F
100
AcDbEntity
  8
TITLE
  6
SLD-Solid
370
    18
100
AcDbLine
 10
53.3464566929
 20
0.5
 30
0.0
 11
53.3464566929
 21
0.1653543307
 31
0.0
  0
LINE
  5
126
330
1F
100
AcDbEntity
  8
TITLE
  6
SLD-Solid
370
    18
100
AcDbLine
 10
55.3149606299
 20
99.5
 30
0.0
 11
55.3149606299
 21
99.8346456693
 31
0.0
  0
LINE
  5
127
330
1F
100
AcDbEntity
  8
TITLE
  6
SLD-Solid
370
    18
100
AcDbLine
 10
55.3149606299
 20
0.5
 30
0.0
 11
55.3149606299
 21
0.1653543307
 31
0.0
  0
LINE
  5
128
330
1F
100
AcDbEntity
  8
TITLE
  6
SLD-Solid
370
    18
100
AcDbLine
 10
57.2834645669
 20
99.5
 30
0.0
 11
57.2834645669
 21
99.8346456693
 31
0.0
  0
LINE
  5
129
330
1F
100
AcDbEntity
  8
TITLE
  6
SLD-Solid
370
    18
100
AcDbLine
 10
57.2834645669
 20
0.5
 30
0.0
 11
57.2834645669
 21
0.1653543307
 31
0.0
  0
LINE
  5
12A
330
1F
100
AcDbEntity
  8
TITLE
  6
SLD-Solid
370
    18
100
AcDbLine
 10
59.2519685039
 20
99.5
 30
0.0
 11
59.2519685039
 21
99.8346456693
 31
0.0
  0
LINE
  5
12B
330
1F
100
AcDbEntity
  8
TITLE
  6
SLD-Solid
370
    18
100
AcDbLine
 10
59.2519685039
 20
0.5
 30
0.0
 11
59.2519685039
 21
0.1653543307
 31
0.0
  0
LINE
  5
12C
330
1F
100
AcDbEntity
  8
TITLE
  6
SLD-Solid
370
    18
100
AcDbLine
 10
61.2204724409
 20
99.5
 30
0.0
 11
61.2204724409
 21
99.8346456693
 31
0.0
  0
LINE
  5
12D
330
1F
100
AcDbEntity
  8
TITLE
  6
SLD-Solid
370
    18
100
AcDbLine
 10
61.2204724409
 20
0.5
 30
0.0
 11
61.2204724409
 21
0.1653543307
 31
0.0
  0
LINE
  5
12E
330
1F
100
AcDbEntity
  8
TITLE
  6
SLD-Solid
370
    18
100
AcDbLine
 10
63.188976378
 20
99.5
 30
0.0
 11
63.188976378
 21
99.8346456693
 31
0.0
  0
LINE
  5
12F
330
1F
100
AcDbEntity
  8
TITLE
  6
SLD-Solid
370
    18
100
AcDbLine
 10
63.188976378
 20
0.5
 30
0.0
 11
63.188976378
 21
0.1653543307
 31
0.0
  0
LINE
  5
130
330
1F
100
AcDbEntity
  8
TITLE
  6
SLD-Solid
370
    18
100
AcDbLine
 10
65.157480315
 20
99.5
 30
0.0
 11
65.157480315
 21
99.8346456693
 31
0.0
  0
LINE
  5
131
330
1F
100
AcDbEntity
  8
TITLE
  6
SLD-Solid
370
    18
100
AcDbLine
 10
65.157480315
 20
0.5
 30
0.0
 11
65.157480315
 21
0.1653543307
 31
0.0
  0
LINE
  5
132
330
1F
100
AcDbEntity
  8
TITLE
  6
SLD-Solid
370
    18
100
AcDbLine
 10
67.125984252
 20
99.5
 30
0.0
 11
67.125984252
 21
99.8346456693
 31
0.0
  0
LINE
  5
133
330
1F
100
AcDbEntity
  8
TITLE
  6
SLD-Solid
370
    18
100
AcDbLine
 10
67.125984252
 20
0.5
 30
0.0
 11
67.125984252
 21
0.1653543307
 31
0.0
  0
LINE
  5
134
330
1F
100
AcDbEntity
  8
TITLE
  6
SLD-Solid
370
    18
100
AcDbLine
 10
69.094488189
 20
99.5
 30
0.0
 11
69.094488189
 21
99.8346456693
 31
0.0
  0
LINE
  5
135
330
1F
100
AcDbEntity
  8
TITLE
  6
SLD-Solid
370
    18
100
AcDbLine
 10
69.094488189
 20
0.5
 30
0.0
 11
69.094488189
 21
0.1653543307
 31
0.0
  0
LINE
  5
136
330
1F
100
AcDbEntity
  8
TITLE
  6
SLD-Solid
370
    18
100
AcDbLine
 10
71.062992126
 20
99.5
 30
0.0
 11
71.062992126
 21
99.8346456693
 31
0.0
  0
LINE
  5
137
330
1F
100
AcDbEntity
  8
TITLE
  6
SLD-Solid
370
    18
100
AcDbLine
 10
71.062992126
 20
0.5
 30
0.0
 11
71.062992126
 21
0.1653543307
 31
0.0
  0
LINE
  5
138
330
1F
100
AcDbEntity
  8
TITLE
  6
SLD-Solid
370
    18
100
AcDbLine
 10
73.031496063
 20
99.5
 30
0.0
 11
73.031496063
 21
99.8346456693
 31
0.0
  0
LINE
  5
139
330
1F
100
AcDbEntity
  8
TITLE
  6
SLD-Solid
370
    18
100
AcDbLine
 10
73.031496063
 20
0.5
 30
0.0
 11
73.031496063
 21
0.1653543307
 31
0.0
  0
LINE
  5
13A
330
1F
100
AcDbEntity
  8
TITLE
  6
SLD-Solid
370
    18
100
AcDbLine
 10
75.0
 20
99.5
 30
0.0
 11
75.0
 21
99.8346456693
 31
0.0
  0
LINE
  5
13B
330
1F
100
AcDbEntity
  8
TITLE
  6
SLD-Solid
370
    18
100
AcDbLine
 10
75.0
 20
0.5
 30
0.0
 11
75.0
 21
0.1653543307
 31
0.0
  0
LINE
  5
13C
330
1F
100
AcDbEntity
  8
TITLE
  6
SLD-Solid
370
    18
100
AcDbLine
 10
76.968503937
 20
99.5
 30
0.0
 11
76.968503937
 21
99.8346456693
 31
0.0
  0
LINE
  5
13D
330
1F
100
AcDbEntity
  8
TITLE
  6
SLD-Solid
370
    18
100
AcDbLine
 10
76.968503937
 20
0.5
 30
0.0
 11
76.968503937
 21
0.1653543307
 31
0.0
  0
LINE
  5
13E
330
1F
100
AcDbEntity
  8
TITLE
  6
SLD-Solid
370
    18
100
AcDbLine
 10
78.937007874
 20
99.5
 30
0.0
 11
78.937007874
 21
99.8346456693
 31
0.0
  0
LINE
  5
13F
330
1F
100
AcDbEntity
  8
TITLE
  6
SLD-Solid
370
    18
100
AcDbLine
 10
78.937007874
 20
0.5
 30
0.0
 11
78.937007874
 21
0.1653543307
 31
0.0
  0
LINE
  5
140
330
1F
100
AcDbEntity
  8
TITLE
  6
SLD-Solid
370
    18
100
AcDbLine
 10
80.905511811
 20
99.5
 30
0.0
 11
80.905511811
 21
99.8346456693
 31
0.0
  0
LINE
  5
141
330
1F
100
AcDbEntity
  8
TITLE
  6
SLD-Solid
370
    18
100
AcDbLine
 10
80.905511811
 20
0.5
 30
0.0
 11
80.905511811
 21
0.1653543307
 31
0.0
  0
LINE
  5
142
330
1F
100
AcDbEntity
  8
TITLE
  6
SLD-Solid
370
    18
100
AcDbLine
 10
82.874015748
 20
99.5
 30
0.0
 11
82.874015748
 21
99.8346456693
 31
0.0
  0
LINE
  5
143
330
1F
100
AcDbEntity
  8
TITLE
  6
SLD-Solid
370
    18
100
AcDbLine
 10
82.874015748
 20
0.5
 30
0.0
 11
82.874015748
 21
0.1653543307
 31
0.0
  0
LINE
  5
144
330
1F
100
AcDbEntity
  8
TITLE
  6
SLD-Solid
370
    18
100
AcDbLine
 10
84.842519685
 20
99.5
 30
0.0
 11
84.842519685
 21
99.8346456693
 31
0.0
  0
LINE
  5
145
330
1F
100
AcDbEntity
  8
TITLE
  6
SLD-Solid
370
    18
100
AcDbLine
 10
84.842519685
 20
0.5
 30
0.0
 11
84.842519685
 21
0.1653543307
 31
0.0
  0
LINE
  5
146
330
1F
100
AcDbEntity
  8
TITLE
  6
SLD-Solid
370
    18
100
AcDbLine
 10
86.811023622
 20
99.5
 30
0.0
 11
86.811023622
 21
99.8346456693
 31
0.0
  0
LINE
  5
147
330
1F
100
AcDbEntity
  8
TITLE
  6
SLD-Solid
370
    18
100
AcDbLine
 10
86.811023622
 20
0.5
 30
0.0
 11
86.811023622
 21
0.1653543307
 31
0.0
  0
LINE
  5
148
330
1F
100
AcDbEntity
  8
TITLE
  6
SLD-Solid
370
    18
100
AcDbLine
 10
88.7795275591
 20
99.5
 30
0.0
 11
88.7795275591
 21
99.8346456693
 31
0.0
  0
LINE
  5
149
330
1F
100
AcDbEntity
  8
TITLE
  6
SLD-Solid
370
    18
100
AcDbLine
 10
88.7795275591
 20
0.5
 30
0.0
 11
88.7795275591
 21
0.1653543307
 31
0.0
  0
LINE
  5
14A
330
1F
100
AcDbEntity
  8
TITLE
  6
SLD-Solid
370
    18
100
AcDbLine
 10
90.7480314961
 20
99.5
 30
0.0
 11
90.7480314961
 21
99.8346456693
 31
0.0
  0
LINE
  5
14B
330
1F
100
AcDbEntity
  8
TITLE
  6
SLD-Solid
370
    18
100
AcDbLine
 10
90.7480314961
 20
0.5
 30
0.0
 11
90.7480314961
 21
0.1653543307
 31
0.0
  0
LINE
  5
14C
330
1F
100
AcDbEntity
  8
TITLE
  6
SLD-Solid
370
    18
100
AcDbLine
 10
92.7165354331
 20
99.5
 30
0.0
 11
92.7165354331
 21
99.8346456693
 31
0.0
  0
LINE
  5
14D
330
1F
100
AcDbEntity
  8
TITLE
  6
SLD-Solid
370
    18
100
AcDbLine
 10
92.7165354331
 20
0.5
 30
0.0
 11
92.7165354331
 21
0.1653543307
 31
0.0
  0
LINE
  5
14E
330
1F
100
AcDbEntity
  8
TITLE
  6
SLD-Solid
370
    18
100
AcDbLine
 10
94.6850393701
 20
99.5
 30
0.0
 11
94.6850393701
 21
99.8346456693
 31
0.0
  0
LINE
  5
14F
330
1F
100
AcDbEntity
  8
TITLE
  6
SLD-Solid
370
    18
100
AcDbLine
 10
94.6850393701
 20
0.5
 30
0.0
 11
94.6850393701
 21
0.1653543307
 31
0.0
  0
LINE
  5
150
330
1F
100
AcDbEntity
  8
TITLE
  6
SLD-Solid
370
    18
100
AcDbLine
 10
96.6535433071
 20
99.5
 30
0.0
 11
96.6535433071
 21
99.8346456693
 31
0.0
  0
LINE
  5
151
330
1F
100
AcDbEntity
  8
TITLE
  6
SLD-Solid
370
    18
100
AcDbLine
 10
96.6535433071
 20
0.5
 30
0.0
 11
96.6535433071
 21
0.1653543307
 31
0.0
  0
LINE
  5
152
330
1F
100
AcDbEntity
  8
TITLE
  6
SLD-Solid
370
    18
100
AcDbLine
 10
98.6220472441
 20
99.5
 30
0.0
 11
98.6220472441
 21
99.8346456693
 31
0.0
  0
LINE
  5
153
330
1F
100
AcDbEntity
  8
TITLE
  6
SLD-Solid
370
    18
100
AcDbLine
 10
98.6220472441
 20
0.5
 30
0.0
 11
98.6220472441
 21
0.1653543307
 31
0.0
  0
LINE
  5
154
330
1F
100
AcDbEntity
  8
TITLE
  6
SLD-Solid
370
    18
100
AcDbLine
 10
100.5905511811
 20
99.5
 30
0.0
 11
100.5905511811
 21
99.8346456693
 31
0.0
  0
LINE
  5
155
330
1F
100
AcDbEntity
  8
TITLE
  6
SLD-Solid
370
    18
100
AcDbLine
 10
100.5905511811
 20
0.5
 30
0.0
 11
100.5905511811
 21
0.1653543307
 31
0.0
  0
LINE
  5
156
330
1F
100
AcDbEntity
  8
TITLE
  6
SLD-Solid
370
    18
100
AcDbLine
 10
102.5590551181
 20
99.5
 30
0.0
 11
102.5590551181
 21
99.8346456693
 31
0.0
  0
LINE
  5
157
330
1F
100
AcDbEntity
  8
TITLE
  6
SLD-Solid
370
    18
100
AcDbLine
 10
102.5590551181
 20
0.5
 30
0.0
 11
102.5590551181
 21
0.1653543307
 31
0.0
  0
LINE
  5
158
330
1F
100
AcDbEntity
  8
TITLE
  6
SLD-Solid
370
    18
100
AcDbLine
 10
104.5275590551
 20
99.5
 30
0.0
 11
104.5275590551
 21
99.8346456693
 31
0.0
  0
LINE
  5
159
330
1F
100
AcDbEntity
  8
TITLE
  6
SLD-Solid
370
    18
100
AcDbLine
 10
104.5275590551
 20
0.5
 30
0.0
 11
104.5275590551
 21
0.1653543307
 31
0.0
  0
LINE
  5
15A
330
1F
100
AcDbEntity
  8
TITLE
  6
SLD-Solid
370
    18
100
AcDbLine
 10
106.4960629921
 20
99.5
 30
0.0
 11
106.4960629921
 21
99.8346456693
 31
0.0
  0
LINE
  5
15B
330
1F
100
AcDbEntity
  8
TITLE
  6
SLD-Solid
370
    18
100
AcDbLine
 10
106.4960629921
 20
0.5
 30
0.0
 11
106.4960629921
 21
0.1653543307
 31
0.0
  0
LINE
  5
15C
330
1F
100
AcDbEntity
  8
TITLE
  6
SLD-Solid
370
    18
100
AcDbLine
 10
108.4645669291
 20
99.5
 30
0.0
 11
108.4645669291
 21
99.8346456693
 31
0.0
  0
LINE
  5
15D
330
1F
100
AcDbEntity
  8
TITLE
  6
SLD-Solid
370
    18
100
AcDbLine
 10
108.4645669291
 20
0.5
 30
0.0
 11
108.4645669291
 21
0.1653543307
 31
0.0
  0
LINE
  5
15E
330
1F
100
AcDbEntity
  8
TITLE
  6
SLD-Solid
370
    18
100
AcDbLine
 10
110.4330708661
 20
99.5
 30
0.0
 11
110.4330708661
 21
99.8346456693
 31
0.0
  0
LINE
  5
15F
330
1F
100
AcDbEntity
  8
TITLE
  6
SLD-Solid
370
    18
100
AcDbLine
 10
110.4330708661
 20
0.5
 30
0.0
 11
110.4330708661
 21
0.1653543307
 31
0.0
  0
LINE
  5
160
330
1F
100
AcDbEntity
  8
TITLE
  6
SLD-Solid
370
    18
100
AcDbLine
 10
112.4015748031
 20
99.5
 30
0.0
 11
112.4015748031
 21
99.8346456693
 31
0.0
  0
LINE
  5
161
330
1F
100
AcDbEntity
  8
TITLE
  6
SLD-Solid
370
    18
100
AcDbLine
 10
112.4015748031
 20
0.5
 30
0.0
 11
112.4015748031
 21
0.1653543307
 31
0.0
  0
LINE
  5
162
330
1F
100
AcDbEntity
  8
TITLE
  6
SLD-Solid
370
    18
100
AcDbLine
 10
114.3700787402
 20
99.5
 30
0.0
 11
114.3700787402
 21
99.8346456693
 31
0.0
  0
LINE
  5
163
330
1F
100
AcDbEntity
  8
TITLE
  6
SLD-Solid
370
    18
100
AcDbLine
 10
114.3700787402
 20
0.5
 30
0.0
 11
114.3700787402
 21
0.1653543307
 31
0.0
  0
LINE
  5
164
330
1F
100
AcDbEntity
  8
TITLE
  6
SLD-Solid
370
    18
100
AcDbLine
 10
116.3385826772
 20
99.5
 30
0.0
 11
116.3385826772
 21
99.8346456693
 31
0.0
  0
LINE
  5
165
330
1F
100
AcDbEntity
  8
TITLE
  6
SLD-Solid
370
    18
100
AcDbLine
 10
116.3385826772
 20
0.5
 30
0.0
 11
116.3385826772
 21
0.1653543307
 31
0.0
  0
LINE
  5
166
330
1F
100
AcDbEntity
  8
TITLE
  6
SLD-Solid
370
    18
100
AcDbLine
 10
118.3070866142
 20
99.5
 30
0.0
 11
118.3070866142
 21
99.8346456693
 31
0.0
  0
LINE
  5
167
330
1F
100
AcDbEntity
  8
TITLE
  6
SLD-Solid
370
    18
100
AcDbLine
 10
118.3070866142
 20
0.5
 30
0.0
 11
118.3070866142
 21
0.1653543307
 31
0.0
  0
LINE
  5
168
330
1F
100
AcDbEntity
  8
TITLE
  6
SLD-Solid
370
    18
100
AcDbLine
 10
120.2755905512
 20
99.5
 30
0.0
 11
120.2755905512
 21
99.8346456693
 31
0.0
  0
LINE
  5
169
330
1F
100
AcDbEntity
  8
TITLE
  6
SLD-Solid
370
    18
100
AcDbLine
 10
120.2755905512
 20
0.5
 30
0.0
 11
120.2755905512
 21
0.1653543307
 31
0.0
  0
LINE
  5
16A
330
1F
100
AcDbEntity
  8
TITLE
  6
SLD-Solid
370
    18
100
AcDbLine
 10
122.2440944882
 20
99.5
 30
0.0
 11
122.2440944882
 21
99.8346456693
 31
0.0
  0
LINE
  5
16B
330
1F
100
AcDbEntity
  8
TITLE
  6
SLD-Solid
370
    18
100
AcDbLine
 10
122.2440944882
 20
0.5
 30
0.0
 11
122.2440944882
 21
0.1653543307
 31
0.0
  0
LINE
  5
16C
330
1F
100
AcDbEntity
  8
TITLE
  6
SLD-Solid
370
    18
100
AcDbLine
 10
124.2125984252
 20
99.5
 30
0.0
 11
124.2125984252
 21
99.8346456693
 31
0.0
  0
LINE
  5
16D
330
1F
100
AcDbEntity
  8
TITLE
  6
SLD-Solid
370
    18
100
AcDbLine
 10
124.2125984252
 20
0.5
 30
0.0
 11
124.2125984252
 21
0.1653543307
 31
0.0
  0
LINE
  5
16E
330
1F
100
AcDbEntity
  8
TITLE
  6
SLD-Solid
370
    18
100
AcDbLine
 10
126.1811023622
 20
99.5
 30
0.0
 11
126.1811023622
 21
99.8346456693
 31
0.0
  0
LINE
  5
16F
330
1F
100
AcDbEntity
  8
TITLE
  6
SLD-Solid
370
    18
100
AcDbLine
 10
126.1811023622
 20
0.5
 30
0.0
 11
126.1811023622
 21
0.1653543307
 31
0.0
  0
LINE
  5
170
330
1F
100
AcDbEntity
  8
TITLE
  6
SLD-Solid
370
    18
100
AcDbLine
 10
128.1496062992
 20
99.5
 30
0.0
 11
128.1496062992
 21
99.8346456693
 31
0.0
  0
LINE
  5
171
330
1F
100
AcDbEntity
  8
TITLE
  6
SLD-Solid
370
    18
100
AcDbLine
 10
128.1496062992
 20
0.5
 30
0.0
 11
128.1496062992
 21
0.1653543307
 31
0.0
  0
LINE
  5
172
330
1F
100
AcDbEntity
  8
TITLE
  6
SLD-Solid
370
    18
100
AcDbLine
 10
130.1181102362
 20
99.5
 30
0.0
 11
130.1181102362
 21
99.8346456693
 31
0.0
  0
LINE
  5
173
330
1F
100
AcDbEntity
  8
TITLE
  6
SLD-Solid
370
    18
100
AcDbLine
 10
130.1181102362
 20
0.5
 30
0.0
 11
130.1181102362
 21
0.1653543307
 31
0.0
  0
LINE
  5
174
330
1F
100
AcDbEntity
  8
TITLE
  6
SLD-Solid
370
    18
100
AcDbLine
 10
132.0866141732
 20
99.5
 30
0.0
 11
132.0866141732
 21
99.8346456693
 31
0.0
  0
LINE
  5
175
330
1F
100
AcDbEntity
  8
TITLE
  6
SLD-Solid
370
    18
100
AcDbLine
 10
132.0866141732
 20
0.5
 30
0.0
 11
132.0866141732
 21
0.1653543307
 31
0.0
  0
LINE
  5
176
330
1F
100
AcDbEntity
  8
TITLE
  6
SLD-Solid
370
    18
100
AcDbLine
 10
134.0551181102
 20
99.5
 30
0.0
 11
134.0551181102
 21
99.8346456693
 31
0.0
  0
LINE
  5
177
330
1F
100
AcDbEntity
  8
TITLE
  6
SLD-Solid
370
    18
100
AcDbLine
 10
134.0551181102
 20
0.5
 30
0.0
 11
134.0551181102
 21
0.1653543307
 31
0.0
  0
LINE
  5
178
330
1F
100
AcDbEntity
  8
TITLE
  6
SLD-Solid
370
    18
100
AcDbLine
 10
136.0236220472
 20
99.5
 30
0.0
 11
136.0236220472
 21
99.8346456693
 31
0.0
  0
LINE
  5
179
330
1F
100
AcDbEntity
  8
TITLE
  6
SLD-Solid
370
    18
100
AcDbLine
 10
136.0236220472
 20
0.5
 30
0.0
 11
136.0236220472
 21
0.1653543307
 31
0.0
  0
LINE
  5
17A
330
1F
100
AcDbEntity
  8
TITLE
  6
SLD-Solid
370
    18
100
AcDbLine
 10
137.9921259843
 20
99.5
 30
0.0
 11
137.9921259843
 21
99.8346456693
 31
0.0
  0
LINE
  5
17B
330
1F
100
AcDbEntity
  8
TITLE
  6
SLD-Solid
370
    18
100
AcDbLine
 10
137.9921259843
 20
0.5
 30
0.0
 11
137.9921259843
 21
0.1653543307
 31
0.0
  0
LINE
  5
17C
330
1F
100
AcDbEntity
  8
TITLE
  6
SLD-Solid
370
    18
100
AcDbLine
 10
139.9606299213
 20
99.5
 30
0.0
 11
139.9606299213
 21
99.8346456693
 31
0.0
  0
LINE
  5
17D
330
1F
100
AcDbEntity
  8
TITLE
  6
SLD-Solid
370
    18
100
AcDbLine
 10
139.9606299213
 20
0.5
 30
0.0
 11
139.9606299213
 21
0.1653543307
 31
0.0
  0
LINE
  5
17E
330
1F
100
AcDbEntity
  8
TITLE
  6
SLD-Solid
370
    18
100
AcDbLine
 10
141.9291338583
 20
99.5
 30
0.0
 11
141.9291338583
 21
99.8346456693
 31
0.0
  0
LINE
  5
17F
330
1F
100
AcDbEntity
  8
TITLE
  6
SLD-Solid
370
    18
100
AcDbLine
 10
141.9291338583
 20
0.5
 30
0.0
 11
141.9291338583
 21
0.1653543307
 31
0.0
  0
LINE
  5
180
330
1F
100
AcDbEntity
  8
TITLE
  6
SLD-Solid
370
    18
100
AcDbLine
 10
143.8976377953
 20
99.5
 30
0.0
 11
143.8976377953
 21
99.8346456693
 31
0.0
  0
LINE
  5
181
330
1F
100
AcDbEntity
  8
TITLE
  6
SLD-Solid
370
    18
100
AcDbLine
 10
143.8976377953
 20
0.5
 30
0.0
 11
143.8976377953
 21
0.1653543307
 31
0.0
  0
LINE
  5
182
330
1F
100
AcDbEntity
  8
TITLE
  6
SLD-Solid
370
    18
100
AcDbLine
 10
145.8661417323
 20
99.5
 30
0.0
 11
145.8661417323
 21
99.8346456693
 31
0.0
  0
LINE
  5
183
330
1F
100
AcDbEntity
  8
TITLE
  6
SLD-Solid
370
    18
100
AcDbLine
 10
145.8661417323
 20
0.5
 30
0.0
 11
145.8661417323
 21
0.1653543307
 31
0.0
  0
LINE
  5
184
330
1F
100
AcDbEntity
  8
TITLE
  6
SLD-Solid
370
    18
100
AcDbLine
 10
147.8346456693
 20
99.5
 30
0.0
 11
147.8346456693
 21
99.8346456693
 31
0.0
  0
LINE
  5
185
330
1F
100
AcDbEntity
  8
TITLE
  6
SLD-Solid
370
    18
100
AcDbLine
 10
147.8346456693
 20
0.5
 30
0.0
 11
147.8346456693
 21
0.1653543307
 31
0.0
  0
MTEXT
  5
187
330
1F
100
AcDbEntity
  8
NOTES
100
AcDbMText
 10
10.9461032746
 20
10.6516818783
 30
0.0
 40
0.5
 41
0.0
 71
     1
 72
     1
  1
Front view
  7
SLDTEXTSTYLE0
 73
     1
 44
1.0
  0
INSERT
  5
18D
330
1F
100
AcDbEntity
  8
NOTES
100
AcDbBlockReference
  2
SW_NOTE_0
 10
135.177120598
 20
9.3091679637
 30
0.0
  0
MTEXT
  5
18F
330
1F
100
AcDbEntity
  8
NOTES
100
AcDbMText
 10
126.408297803
 20
1.0702903347
 30
0.0
 40
0.25
 41
0.0
 71
     1
 72
     1
  1
UNLESS OTHERWISE SPECIFIED DIMENSIONS ARE IN INCHES.
  7
SLDTEXTSTYLE1
 73
     1
 44
1.0
  0
MTEXT
  5
190
330
1F
100
AcDbEntity
  8
NOTES
100
AcDbMText
 10
126.4368251132
 20
3.2193045501
 30
0.0
 40
0.25
 41
0.0
 71
     1
 72
     1
  1
DATE:
  7
SLDTEXTSTYLE1
 73
     1
 44
1.0
  0
MTEXT
  5
191
330
1F
100
AcDbEntity
  8
NOTES
100
AcDbMText
 10
128.7130669976
 20
2.1722148141
 30
0.0
 40
0.25
 41
0.0
 71
     2
 72
     1
  1
DO NOT SCALE DRAWING
  7
SLDTEXTSTYLE1
 73
     1
 44
1.0
  0
MTEXT
  5
192
330
1F
100
AcDbEntity
  8
NOTES
100
AcDbMText
 10
132.8307373075
 20
3.2682755553
 30
0.0
 40
0.25
 41
0.0
 71
     1
 72
     1
  1
TITLE:
  7
SLDTEXTSTYLE0
 73
     1
 44
1.0
  0
MTEXT
  5
193
330
1F
100
AcDbEntity
  8
NOTES
100
AcDbMText
 10
140.1561831052
 20
3.2682755553
 30
0.0
 40
0.25
 41
0.0
 71
     1
 72
     1
  1
DWG NO.
  7
SLDTEXTSTYLE0
 73
     1
 44
1.0
  0
MTEXT
  5
194
330
1F
100
AcDbEntity
  8
NOTES
100
AcDbMText
 10
140.1831753203
 20
1.0645815577
 30
0.0
 40
0.25
 41
0.0
 71
     1
 72
     1
  1
SCALE:     1:1
  7
SLDTEXTSTYLE0
 73
     1
 44
1.0
  0
MTEXT
  5
195
330
1F
100
AcDbEntity
  8
NOTES
100
AcDbMText
 10
144.184040589
 20
2.6510344295
 30
0.0
 40
0.25
 41
0.0
 71
     2
 72
     1
  1
1144 - 503 CAD
  7
SLDTEXTSTYLE0
 73
     1
 44
1.0
  0
MTEXT
  5
196
330
1F
100
AcDbEntity
  8
NOTES
100
AcDbMText
 10
135.9531014425
 20
2.6388861441
 30
0.0
 40
0.25
 41
0.0
 71
     2
 72
     1
  1
1144-503
  7
SLDTEXTSTYLE0
 73
     1
 44
1.0
  0
INSERT
  5
19C
330
1F
100
AcDbEntity
  8
NOTES
100
AcDbBlockReference
  2
SW_NOTE_0_1
 10
140.266131557
 20
4.6105227838
 30
0.0
  0
INSERT
  5
1A6
330
1F
100
AcDbEntity
  8
NOTES
100
AcDbBlockReference
  2
SW_NOTE_0_2
 10
126.6159726246
 20
5.1481526848
 30
0.0
  0
MTEXT
  5
1A7
330
1F
100
AcDbEntity
  8
NOTES
100
AcDbMText
 10
129.5289458114
 20
3.2135957731
 30
0.0
 40
0.25
 41
0.0
 71
     2
 72
     1
  1
October 12, 2021
  7
SLDTEXTSTYLE0
 73
     1
 44
1.0
  0
MTEXT
  5
1A8
330
1F
100
AcDbEntity
  8
TITLE
100
AcDbMText
 10
0.3276279776
 20
1.7078307004
 30
0.0
 40
0.125
 41
0.0
 71
     2
 72
     1
  1
A
  7
SLDTEXTSTYLE0
 73
     1
 44
1.0
  0
MTEXT
  5
1A9
330
1F
100
AcDbEntity
  8
TITLE
100
AcDbMText
 10
149.6622736469
 20
1.7078307004
 30
0.0
 40
0.125
 41
0.0
 71
     2
 72
     1
  1
A
  7
SLDTEXTSTYLE0
 73
     1
 44
1.0
  0
MTEXT
  5
1AA
330
1F
100
AcDbEntity
  8
TITLE
100
AcDbMText
 10
0.3317512413
 20
3.8200354248
 30
0.0
 40
0.125
 41
0.0
 71
     2
 72
     1
  1
B
  7
SLDTEXTSTYLE0
 73
     1
 44
1.0
  0
MTEXT
  5
1AB
330
1F
100
AcDbEntity
  8
TITLE
100
AcDbMText
 10
149.6663969106
 20
3.8200354248
 30
0.0
 40
0.125
 41
0.0
 71
     2
 72
     1
  1
B
  7
SLDTEXTSTYLE0
 73
     1
 44
1.0
  0
MTEXT
  5
1AC
330
1F
100
AcDbEntity
  8
TITLE
100
AcDbMText
 10
0.3313750817
 20
5.7885393618
 30
0.0
 40
0.125
 41
0.0
 71
     2
 72
     1
  1
C
  7
SLDTEXTSTYLE0
 73
     1
 44
1.0
  0
MTEXT
  5
1AD
330
1F
100
AcDbEntity
  8
TITLE
100
AcDbMText
 10
149.666020751
 20
5.7885393618
 30
0.0
 40
0.125
 41
0.0
 71
     2
 72
     1
  1
C
  7
SLDTEXTSTYLE0
 73
     1
 44
1.0
  0
MTEXT
  5
1AE
330
1F
100
AcDbEntity
  8
TITLE
100
AcDbMText
 10
0.3311870028
 20
7.7570432988
 30
0.0
 40
0.125
 41
0.0
 71
     2
 72
     1
  1
D
  7
SLDTEXTSTYLE0
 73
     1
 44
1.0
  0
MTEXT
  5
1AF
330
1F
100
AcDbEntity
  8
TITLE
100
AcDbMText
 10
149.6658326721
 20
7.7570432988
 30
0.0
 40
0.125
 41
0.0
 71
     2
 72
     1
  1
D
  7
SLDTEXTSTYLE0
 73
     1
 44
1.0
  0
MTEXT
  5
1B0
330
1F
100
AcDbEntity
  8
TITLE
100
AcDbMText
 10
0.332923116
 20
9.7255472359
 30
0.0
 40
0.125
 41
0.0
 71
     2
 72
     1
  1
E
  7
SLDTEXTSTYLE0
 73
     1
 44
1.0
  0
MTEXT
  5
1B1
330
1F
100
AcDbEntity
  8
TITLE
100
AcDbMText
 10
149.6675687853
 20
9.7255472359
 30
0.0
 40
0.125
 41
0.0
 71
     2
 72
     1
  1
E
  7
SLDTEXTSTYLE0
 73
     1
 44
1.0
  0
MTEXT
  5
1B2
330
1F
100
AcDbEntity
  8
TITLE
100
AcDbMText
 10
0.3313461474
 20
11.6940511729
 30
0.0
 40
0.125
 41
0.0
 71
     2
 72
     1
  1
F
  7
SLDTEXTSTYLE0
 73
     1
 44
1.0
  0
MTEXT
  5
1B3
330
1F
100
AcDbEntity
  8
TITLE
100
AcDbMText
 10
149.6659918167
 20
11.6940511729
 30
0.0
 40
0.125
 41
0.0
 71
     2
 72
     1
  1
F
  7
SLDTEXTSTYLE0
 73
     1
 44
1.0
  0
MTEXT
  5
1B4
330
1F
100
AcDbEntity
  8
TITLE
100
AcDbMText
 10
0.3322576054
 20
13.6625551099
 30
0.0
 40
0.125
 41
0.0
 71
     2
 72
     1
  1
G
  7
SLDTEXTSTYLE0
 73
     1
 44
1.0
  0
MTEXT
  5
1B5
330
1F
100
AcDbEntity
  8
TITLE
100
AcDbMText
 10
149.6669032747
 20
13.6625551099
 30
0.0
 40
0.125
 41
0.0
 71
     2
 72
     1
  1
G
  7
SLDTEXTSTYLE0
 73
     1
 44
1.0
  0
MTEXT
  5
1B6
330
1F
100
AcDbEntity
  8
TITLE
100
AcDbMText
 10
0.3323733457
 20
15.6310590469
 30
0.0
 40
0.125
 41
0.0
 71
     2
 72
     1
  1
H
  7
SLDTEXTSTYLE0
 73
     1
 44
1.0
  0
MTEXT
  5
1B7
330
1F
100
AcDbEntity
  8
TITLE
100
AcDbMText
 10
149.667019015
 20
15.6310590469
 30
0.0
 40
0.125
 41
0.0
 71
     2
 72
     1
  1
H
  7
SLDTEXTSTYLE0
 73
     1
 44
1.0
  0
MTEXT
  5
1B8
330
1F
100
AcDbEntity
  8
TITLE
100
AcDbMText
 10
0.3315776306
 20
17.5995629839
 30
0.0
 40
0.125
 41
0.0
 71
     2
 72
     1
  1
J
  7
SLDTEXTSTYLE0
 73
     1
 44
1.0
  0
MTEXT
  5
1B9
330
1F
100
AcDbEntity
  8
TITLE
100
AcDbMText
 10
149.6662232999
 20
17.5995629839
 30
0.0
 40
0.125
 41
0.0
 71
     2
 72
     1
  1
J
  7
SLDTEXTSTYLE0
 73
     1
 44
1.0
  0
MTEXT
  5
1BA
330
1F
100
AcDbEntity
  8
TITLE
100
AcDbMText
 10
0.3323154765
 20
19.5680669209
 30
0.0
 40
0.125
 41
0.0
 71
     2
 72
     1
  1
K
  7
SLDTEXTSTYLE0
 73
     1
 44
1.0
  0
MTEXT
  5
1BB
330
1F
100
AcDbEntity
  8
TITLE
100
AcDbMText
 10
149.6669611458
 20
19.5680669209
 30
0.0
 40
0.125
 41
0.0
 71
     2
 72
     1
  1
K
  7
SLDTEXTSTYLE0
 73
     1
 44
1.0
  0
MTEXT
  5
1BC
330
1F
100
AcDbEntity
  8
TITLE
100
AcDbMText
 10
0.3312448739
 20
21.5365708579
 30
0.0
 40
0.125
 41
0.0
 71
     2
 72
     1
  1
L
  7
SLDTEXTSTYLE0
 73
     1
 44
1.0
  0
MTEXT
  5
1BD
330
1F
100
AcDbEntity
  8
TITLE
100
AcDbMText
 10
149.6658905432
 20
21.5365708579
 30
0.0
 40
0.125
 41
0.0
 71
     2
 72
     1
  1
L
  7
SLDTEXTSTYLE0
 73
     1
 44
1.0
  0
MTEXT
  5
1BE
330
1F
100
AcDbEntity
  8
TITLE
100
AcDbMText
 10
0.3283224192
 20
23.5050747949
 30
0.0
 40
0.125
 41
0.0
 71
     2
 72
     1
  1
M
  7
SLDTEXTSTYLE0
 73
     1
 44
1.0
  0
MTEXT
  5
1BF
330
1F
100
AcDbEntity
  8
TITLE
100
AcDbMText
 10
149.6629680885
 20
23.5050747949
 30
0.0
 40
0.125
 41
0.0
 71
     2
 72
     1
  1
M
  7
SLDTEXTSTYLE0
 73
     1
 44
1.0
  0
MTEXT
  5
1C0
330
1F
100
AcDbEntity
  8
TITLE
100
AcDbMText
 10
0.3315342276
 20
25.4735787319
 30
0.0
 40
0.125
 41
0.0
 71
     2
 72
     1
  1
N
  7
SLDTEXTSTYLE0
 73
     1
 44
1.0
  0
MTEXT
  5
1C1
330
1F
100
AcDbEntity
  8
TITLE
100
AcDbMText
 10
149.6661798969
 20
25.4735787319
 30
0.0
 40
0.125
 41
0.0
 71
     2
 72
     1
  1
N
  7
SLDTEXTSTYLE0
 73
     1
 44
1.0
  0
MTEXT
  5
1C2
330
1F
100
AcDbEntity
  8
TITLE
100
AcDbMText
 10
0.3321997349
 20
27.4420826689
 30
0.0
 40
0.125
 41
0.0
 71
     2
 72
     1
  1
P
  7
SLDTEXTSTYLE0
 73
     1
 44
1.0
  0
MTEXT
  5
1C3
330
1F
100
AcDbEntity
  8
TITLE
100
AcDbMText
 10
149.6668454042
 20
27.4420826689
 30
0.0
 40
0.125
 41
0.0
 71
     2
 72
     1
  1
P
  7
SLDTEXTSTYLE0
 73
     1
 44
1.0
  0
MTEXT
  5
1C4
330
1F
100
AcDbEntity
  8
TITLE
100
AcDbMText
 10
0.3309265867
 20
29.4105866059
 30
0.0
 40
0.125
 41
0.0
 71
     2
 72
     1
  1
R
  7
SLDTEXTSTYLE0
 73
     1
 44
1.0
  0
MTEXT
  5
1C5
330
1F
100
AcDbEntity
  8
TITLE
100
AcDbMText
 10
149.665572256
 20
29.4105866059
 30
0.0
 40
0.125
 41
0.0
 71
     2
 72
     1
  1
R
  7
SLDTEXTSTYLE0
 73
     1
 44
1.0
  0
MTEXT
  5
1C6
330
1F
100
AcDbEntity
  8
TITLE
100
AcDbMText
 10
0.3323010071
 20
31.3790905429
 30
0.0
 40
0.125
 41
0.0
 71
     2
 72
     1
  1
T
  7
SLDTEXTSTYLE0
 73
     1
 44
1.0
  0
MTEXT
  5
1C7
330
1F
100
AcDbEntity
  8
TITLE
100
AcDbMText
 10
149.6669466764
 20
31.3790905429
 30
0.0
 40
0.125
 41
0.0
 71
     2
 72
     1
  1
T
  7
SLDTEXTSTYLE0
 73
     1
 44
1.0
  0
MTEXT
  5
1C8
330
1F
100
AcDbEntity
  8
TITLE
100
AcDbMText
 10
0.3328507755
 20
33.34759448
 30
0.0
 40
0.125
 41
0.0
 71
     2
 72
     1
  1
U
  7
SLDTEXTSTYLE0
 73
     1
 44
1.0
  0
MTEXT
  5
1C9
330
1F
100
AcDbEntity
  8
TITLE
100
AcDbMText
 10
149.6674964448
 20
33.34759448
 30
0.0
 40
0.125
 41
0.0
 71
     2
 72
     1
  1
U
  7
SLDTEXTSTYLE0
 73
     1
 44
1.0
  0
MTEXT
  5
1CA
330
1F
100
AcDbEntity
  8
TITLE
100
AcDbMText
 10
0.3307529773
 20
35.316098417
 30
0.0
 40
0.125
 41
0.0
 71
     2
 72
     1
  1
V
  7
SLDTEXTSTYLE0
 73
     1
 44
1.0
  0
MTEXT
  5
1CB
330
1F
100
AcDbEntity
  8
TITLE
100
AcDbMText
 10
149.6653986466
 20
35.316098417
 30
0.0
 40
0.125
 41
0.0
 71
     2
 72
     1
  1
V
  7
SLDTEXTSTYLE0
 73
     1
 44
1.0
  0
MTEXT
  5
1CC
330
1F
100
AcDbEntity
  8
TITLE
100
AcDbMText
 10
0.3327784409
 20
37.284602354
 30
0.0
 40
0.125
 41
0.0
 71
     2
 72
     1
  1
W
  7
SLDTEXTSTYLE0
 73
     1
 44
1.0
  0
MTEXT
  5
1CD
330
1F
100
AcDbEntity
  8
TITLE
100
AcDbMText
 10
149.6674241102
 20
37.284602354
 30
0.0
 40
0.125
 41
0.0
 71
     2
 72
     1
  1
W
  7
SLDTEXTSTYLE0
 73
     1
 44
1.0
  0
MTEXT
  5
1CE
330
1F
100
AcDbEntity
  8
TITLE
100
AcDbMText
 10
0.3321997349
 20
39.253106291
 30
0.0
 40
0.125
 41
0.0
 71
     2
 72
     1
  1
Y
  7
SLDTEXTSTYLE0
 73
     1
 44
1.0
  0
MTEXT
  5
1CF
330
1F
100
AcDbEntity
  8
TITLE
100
AcDbMText
 10
149.6668454042
 20
39.253106291
 30
0.0
 40
0.125
 41
0.0
 71
     2
 72
     1
  1
Y
  7
SLDTEXTSTYLE0
 73
     1
 44
1.0
  0
MTEXT
  5
1D0
330
1F
100
AcDbEntity
  8
TITLE
100
AcDbMText
 10
0.3225787898
 20
41.221610228
 30
0.0
 40
0.125
 41
0.0
 71
     2
 72
     1
  1
AA
  7
SLDTEXTSTYLE0
 73
     1
 44
1.0
  0
MTEXT
  5
1D1
330
1F
100
AcDbEntity
  8
TITLE
100
AcDbMText
 10
149.6572244591
 20
41.221610228
 30
0.0
 40
0.125
 41
0.0
 71
     2
 72
     1
  1
AA
  7
SLDTEXTSTYLE0
 73
     1
 44
1.0
  0
MTEXT
  5
1D2
330
1F
100
AcDbEntity
  8
TITLE
100
AcDbMText
 10
0.3267020535
 20
43.190114165
 30
0.0
 40
0.125
 41
0.0
 71
     2
 72
     1
  1
AB
  7
SLDTEXTSTYLE0
 73
     1
 44
1.0
  0
MTEXT
  5
1D3
330
1F
100
AcDbEntity
  8
TITLE
100
AcDbMText
 10
149.6613477228
 20
43.190114165
 30
0.0
 40
0.125
 41
0.0
 71
     2
 72
     1
  1
AB
  7
SLDTEXTSTYLE0
 73
     1
 44
1.0
  0
MTEXT
  5
1D4
330
1F
100
AcDbEntity
  8
TITLE
100
AcDbMText
 10
0.3263258985
 20
45.158618102
 30
0.0
 40
0.125
 41
0.0
 71
     2
 72
     1
  1
AC
  7
SLDTEXTSTYLE0
 73
     1
 44
1.0
  0
MTEXT
  5
1D5
330
1F
100
AcDbEntity
  8
TITLE
100
AcDbMText
 10
149.6609715678
 20
45.158618102
 30
0.0
 40
0.125
 41
0.0
 71
     2
 72
     1
  1
AC
  7
SLDTEXTSTYLE0
 73
     1
 44
1.0
  0
MTEXT
  5
1D6
330
1F
100
AcDbEntity
  8
TITLE
100
AcDbMText
 10
0.3261378197
 20
47.127122039
 30
0.0
 40
0.125
 41
0.0
 71
     2
 72
     1
  1
AD
  7
SLDTEXTSTYLE0
 73
     1
 44
1.0
  0
MTEXT
  5
1D7
330
1F
100
AcDbEntity
  8
TITLE
100
AcDbMText
 10
149.6607834889
 20
47.127122039
 30
0.0
 40
0.125
 41
0.0
 71
     2
 72
     1
  1
AD
  7
SLDTEXTSTYLE0
 73
     1
 44
1.0
  0
MTEXT
  5
1D8
330
1F
100
AcDbEntity
  8
TITLE
100
AcDbMText
 10
0.3278739283
 20
49.095625976
 30
0.0
 40
0.125
 41
0.0
 71
     2
 72
     1
  1
AE
  7
SLDTEXTSTYLE0
 73
     1
 44
1.0
  0
MTEXT
  5
1D9
330
1F
100
AcDbEntity
  8
TITLE
100
AcDbMText
 10
149.6625195976
 20
49.095625976
 30
0.0
 40
0.125
 41
0.0
 71
     2
 72
     1
  1
AE
  7
SLDTEXTSTYLE0
 73
     1
 44
1.0
  0
MTEXT
  5
1DA
330
1F
100
AcDbEntity
  8
TITLE
100
AcDbMText
 10
0.3262969596
 20
51.064129913
 30
0.0
 40
0.125
 41
0.0
 71
     2
 72
     1
  1
AF
  7
SLDTEXTSTYLE0
 73
     1
 44
1.0
  0
MTEXT
  5
1DB
330
1F
100
AcDbEntity
  8
TITLE
100
AcDbMText
 10
149.6609426289
 20
51.064129913
 30
0.0
 40
0.125
 41
0.0
 71
     2
 72
     1
  1
AF
  7
SLDTEXTSTYLE0
 73
     1
 44
1.0
  0
MTEXT
  5
1DC
330
1F
100
AcDbEntity
  8
TITLE
100
AcDbMText
 10
0.3272084177
 20
53.03263385
 30
0.0
 40
0.125
 41
0.0
 71
     2
 72
     1
  1
AG
  7
SLDTEXTSTYLE0
 73
     1
 44
1.0
  0
MTEXT
  5
1DD
330
1F
100
AcDbEntity
  8
TITLE
100
AcDbMText
 10
149.661854087
 20
53.03263385
 30
0.0
 40
0.125
 41
0.0
 71
     2
 72
     1
  1
AG
  7
SLDTEXTSTYLE0
 73
     1
 44
1.0
  0
MTEXT
  5
1DE
330
1F
100
AcDbEntity
  8
TITLE
100
AcDbMText
 10
0.3273241625
 20
55.001137787
 30
0.0
 40
0.125
 41
0.0
 71
     2
 72
     1
  1
AH
  7
SLDTEXTSTYLE0
 73
     1
 44
1.0
  0
MTEXT
  5
1DF
330
1F
100
AcDbEntity
  8
TITLE
100
AcDbMText
 10
149.6619698318
 20
55.001137787
 30
0.0
 40
0.125
 41
0.0
 71
     2
 72
     1
  1
AH
  7
SLDTEXTSTYLE0
 73
     1
 44
1.0
  0
MTEXT
  5
1E0
330
1F
100
AcDbEntity
  8
TITLE
100
AcDbMText
 10
0.3265284428
 20
56.969641724
 30
0.0
 40
0.125
 41
0.0
 71
     2
 72
     1
  1
AJ
  7
SLDTEXTSTYLE0
 73
     1
 44
1.0
  0
MTEXT
  5
1E1
330
1F
100
AcDbEntity
  8
TITLE
100
AcDbMText
 10
149.6611741121
 20
56.969641724
 30
0.0
 40
0.125
 41
0.0
 71
     2
 72
     1
  1
AJ
  7
SLDTEXTSTYLE0
 73
     1
 44
1.0
  0
MTEXT
  5
1E2
330
1F
100
AcDbEntity
  8
TITLE
100
AcDbMText
 10
0.3272662887
 20
58.9381456611
 30
0.0
 40
0.125
 41
0.0
 71
     2
 72
     1
  1
AK
  7
SLDTEXTSTYLE0
 73
     1
 44
1.0
  0
MTEXT
  5
1E3
330
1F
100
AcDbEntity
  8
TITLE
100
AcDbMText
 10
149.661911958
 20
58.9381456611
 30
0.0
 40
0.125
 41
0.0
 71
     2
 72
     1
  1
AK
  7
SLDTEXTSTYLE0
 73
     1
 44
1.0
  0
MTEXT
  5
1E4
330
1F
100
AcDbEntity
  8
TITLE
100
AcDbMText
 10
0.3261956816
 20
60.9066495981
 30
0.0
 40
0.125
 41
0.0
 71
     2
 72
     1
  1
AL
  7
SLDTEXTSTYLE0
 73
     1
 44
1.0
  0
MTEXT
  5
1E5
330
1F
100
AcDbEntity
  8
TITLE
100
AcDbMText
 10
149.6608413509
 20
60.9066495981
 30
0.0
 40
0.125
 41
0.0
 71
     2
 72
     1
  1
AL
  7
SLDTEXTSTYLE0
 73
     1
 44
1.0
  0
MTEXT
  5
1E6
330
1F
100
AcDbEntity
  8
TITLE
100
AcDbMText
 10
0.3232732315
 20
62.8751535351
 30
0.0
 40
0.125
 41
0.0
 71
     2
 72
     1
  1
AM
  7
SLDTEXTSTYLE0
 73
     1
 44
1.0
  0
MTEXT
  5
1E7
330
1F
100
AcDbEntity
  8
TITLE
100
AcDbMText
 10
149.6579189008
 20
62.8751535351
 30
0.0
 40
0.125
 41
0.0
 71
     2
 72
     1
  1
AM
  7
SLDTEXTSTYLE0
 73
     1
 44
1.0
  0
MTEXT
  5
1E8
330
1F
100
AcDbEntity
  8
TITLE
100
AcDbMText
 10
0.3264850398
 20
64.8436574721
 30
0.0
 40
0.125
 41
0.0
 71
     2
 72
     1
  1
AN
  7
SLDTEXTSTYLE0
 73
     1
 44
1.0
  0
MTEXT
  5
1E9
330
1F
100
AcDbEntity
  8
TITLE
100
AcDbMText
 10
149.6611307091
 20
64.8436574721
 30
0.0
 40
0.125
 41
0.0
 71
     2
 72
     1
  1
AN
  7
SLDTEXTSTYLE0
 73
     1
 44
1.0
  0
MTEXT
  5
1EA
330
1F
100
AcDbEntity
  8
TITLE
100
AcDbMText
 10
0.3271505426
 20
66.8121614091
 30
0.0
 40
0.125
 41
0.0
 71
     2
 72
     1
  1
AP
  7
SLDTEXTSTYLE0
 73
     1
 44
1.0
  0
MTEXT
  5
1EB
330
1F
100
AcDbEntity
  8
TITLE
100
AcDbMText
 10
149.6617962119
 20
66.8121614091
 30
0.0
 40
0.125
 41
0.0
 71
     2
 72
     1
  1
AP
  7
SLDTEXTSTYLE0
 73
     1
 44
1.0
  0
MTEXT
  5
1EC
330
1F
100
AcDbEntity
  8
TITLE
100
AcDbMText
 10
0.325877399
 20
68.7806653461
 30
0.0
 40
0.125
 41
0.0
 71
     2
 72
     1
  1
AR
  7
SLDTEXTSTYLE0
 73
     1
 44
1.0
  0
MTEXT
  5
1ED
330
1F
100
AcDbEntity
  8
TITLE
100
AcDbMText
 10
149.6605230682
 20
68.7806653461
 30
0.0
 40
0.125
 41
0.0
 71
     2
 72
     1
  1
AR
  7
SLDTEXTSTYLE0
 73
     1
 44
1.0
  0
MTEXT
  5
1EE
330
1F
100
AcDbEntity
  8
TITLE
100
AcDbMText
 10
0.3272518193
 20
70.7491692831
 30
0.0
 40
0.125
 41
0.0
 71
     2
 72
     1
  1
AT
  7
SLDTEXTSTYLE0
 73
     1
 44
1.0
  0
MTEXT
  5
1EF
330
1F
100
AcDbEntity
  8
TITLE
100
AcDbMText
 10
149.6618974886
 20
70.7491692831
 30
0.0
 40
0.125
 41
0.0
 71
     2
 72
     1
  1
AT
  7
SLDTEXTSTYLE0
 73
     1
 44
1.0
  0
MTEXT
  5
1F0
330
1F
100
AcDbEntity
  8
TITLE
100
AcDbMText
 10
0.3278015877
 20
72.7176732201
 30
0.0
 40
0.125
 41
0.0
 71
     2
 72
     1
  1
AU
  7
SLDTEXTSTYLE0
 73
     1
 44
1.0
  0
MTEXT
  5
1F1
330
1F
100
AcDbEntity
  8
TITLE
100
AcDbMText
 10
149.662447257
 20
72.7176732201
 30
0.0
 40
0.125
 41
0.0
 71
     2
 72
     1
  1
AU
  7
SLDTEXTSTYLE0
 73
     1
 44
1.0
  0
MTEXT
  5
1F2
330
1F
100
AcDbEntity
  8
TITLE
100
AcDbMText
 10
0.3257037895
 20
74.6861771571
 30
0.0
 40
0.125
 41
0.0
 71
     2
 72
     1
  1
AV
  7
SLDTEXTSTYLE0
 73
     1
 44
1.0
  0
MTEXT
  5
1F3
330
1F
100
AcDbEntity
  8
TITLE
100
AcDbMText
 10
149.6603494588
 20
74.6861771571
 30
0.0
 40
0.125
 41
0.0
 71
     2
 72
     1
  1
AV
  7
SLDTEXTSTYLE0
 73
     1
 44
1.0
  0
MTEXT
  5
1F4
330
1F
100
AcDbEntity
  8
TITLE
100
AcDbMText
 10
0.3277292486
 20
76.6546810941
 30
0.0
 40
0.125
 41
0.0
 71
     2
 72
     1
  1
AW
  7
SLDTEXTSTYLE0
 73
     1
 44
1.0
  0
MTEXT
  5
1F5
330
1F
100
AcDbEntity
  8
TITLE
100
AcDbMText
 10
149.6623749179
 20
76.6546810941
 30
0.0
 40
0.125
 41
0.0
 71
     2
 72
     1
  1
AW
  7
SLDTEXTSTYLE0
 73
     1
 44
1.0
  0
MTEXT
  5
1F6
330
1F
100
AcDbEntity
  8
TITLE
100
AcDbMText
 10
0.3271505426
 20
78.6231850311
 30
0.0
 40
0.125
 41
0.0
 71
     2
 72
     1
  1
AY
  7
SLDTEXTSTYLE0
 73
     1
 44
1.0
  0
MTEXT
  5
1F7
330
1F
100
AcDbEntity
  8
TITLE
100
AcDbMText
 10
149.6617962119
 20
78.6231850311
 30
0.0
 40
0.125
 41
0.0
 71
     2
 72
     1
  1
AY
  7
SLDTEXTSTYLE0
 73
     1
 44
1.0
  0
MTEXT
  5
1F8
330
1F
100
AcDbEntity
  8
TITLE
100
AcDbMText
 10
0.3267020535
 20
80.5916889681
 30
0.0
 40
0.125
 41
0.0
 71
     2
 72
     1
  1
BA
  7
SLDTEXTSTYLE0
 73
     1
 44
1.0
  0
MTEXT
  5
1F9
330
1F
100
AcDbEntity
  8
TITLE
100
AcDbMText
 10
149.6613477228
 20
80.5916889681
 30
0.0
 40
0.125
 41
0.0
 71
     2
 72
     1
  1
BA
  7
SLDTEXTSTYLE0
 73
     1
 44
1.0
  0
MTEXT
  5
1FA
330
1F
100
AcDbEntity
  8
TITLE
100
AcDbMText
 10
0.3308253173
 20
82.5601929051
 30
0.0
 40
0.125
 41
0.0
 71
     2
 72
     1
  1
BB
  7
SLDTEXTSTYLE0
 73
     1
 44
1.0
  0
MTEXT
  5
1FB
330
1F
100
AcDbEntity
  8
TITLE
100
AcDbMText
 10
149.6654709865
 20
82.5601929051
 30
0.0
 40
0.125
 41
0.0
 71
     2
 72
     1
  1
BB
  7
SLDTEXTSTYLE0
 73
     1
 44
1.0
  0
MTEXT
  5
1FC
330
1F
100
AcDbEntity
  8
TITLE
100
AcDbMText
 10
0.3304491531
 20
84.5286968422
 30
0.0
 40
0.125
 41
0.0
 71
     2
 72
     1
  1
BC
  7
SLDTEXTSTYLE0
 73
     1
 44
1.0
  0
MTEXT
  5
1FD
330
1F
100
AcDbEntity
  8
TITLE
100
AcDbMText
 10
149.6650948224
 20
84.5286968422
 30
0.0
 40
0.125
 41
0.0
 71
     2
 72
     1
  1
BC
  7
SLDTEXTSTYLE0
 73
     1
 44
1.0
  0
MTEXT
  5
1FE
330
1F
100
AcDbEntity
  8
TITLE
100
AcDbMText
 10
0.3302610742
 20
86.4972007792
 30
0.0
 40
0.125
 41
0.0
 71
     2
 72
     1
  1
BD
  7
SLDTEXTSTYLE0
 73
     1
 44
1.0
  0
MTEXT
  5
1FF
330
1F
100
AcDbEntity
  8
TITLE
100
AcDbMText
 10
149.6649067435
 20
86.4972007792
 30
0.0
 40
0.125
 41
0.0
 71
     2
 72
     1
  1
BD
  7
SLDTEXTSTYLE0
 73
     1
 44
1.0
  0
MTEXT
  5
200
330
1F
100
AcDbEntity
  8
TITLE
100
AcDbMText
 10
0.331997192
 20
88.4657047162
 30
0.0
 40
0.125
 41
0.0
 71
     2
 72
     1
  1
BE
  7
SLDTEXTSTYLE0
 73
     1
 44
1.0
  0
MTEXT
  5
201
330
1F
100
AcDbEntity
  8
TITLE
100
AcDbMText
 10
149.6666428613
 20
88.4657047162
 30
0.0
 40
0.125
 41
0.0
 71
     2
 72
     1
  1
BE
  7
SLDTEXTSTYLE0
 73
     1
 44
1.0
  0
MTEXT
  5
202
330
1F
100
AcDbEntity
  8
TITLE
100
AcDbMText
 10
0.3304202234
 20
90.4342086532
 30
0.0
 40
0.125
 41
0.0
 71
     2
 72
     1
  1
BF
  7
SLDTEXTSTYLE0
 73
     1
 44
1.0
  0
MTEXT
  5
203
330
1F
100
AcDbEntity
  8
TITLE
100
AcDbMText
 10
149.6650658926
 20
90.4342086532
 30
0.0
 40
0.125
 41
0.0
 71
     2
 72
     1
  1
BF
  7
SLDTEXTSTYLE0
 73
     1
 44
1.0
  0
MTEXT
  5
204
330
1F
100
AcDbEntity
  8
TITLE
100
AcDbMText
 10
0.3313316814
 20
92.4027125902
 30
0.0
 40
0.125
 41
0.0
 71
     2
 72
     1
  1
BG
  7
SLDTEXTSTYLE0
 73
     1
 44
1.0
  0
MTEXT
  5
205
330
1F
100
AcDbEntity
  8
TITLE
100
AcDbMText
 10
149.6659773507
 20
92.4027125902
 30
0.0
 40
0.125
 41
0.0
 71
     2
 72
     1
  1
BG
  7
SLDTEXTSTYLE0
 73
     1
 44
1.0
  0
MTEXT
  5
206
330
1F
100
AcDbEntity
  8
TITLE
100
AcDbMText
 10
0.331447417
 20
94.3712165272
 30
0.0
 40
0.125
 41
0.0
 71
     2
 72
     1
  1
BH
  7
SLDTEXTSTYLE0
 73
     1
 44
1.0
  0
MTEXT
  5
207
330
1F
100
AcDbEntity
  8
TITLE
100
AcDbMText
 10
149.6660930863
 20
94.3712165272
 30
0.0
 40
0.125
 41
0.0
 71
     2
 72
     1
  1
BH
  7
SLDTEXTSTYLE0
 73
     1
 44
1.0
  0
MTEXT
  5
208
330
1F
100
AcDbEntity
  8
TITLE
100
AcDbMText
 10
0.3306517065
 20
96.3397204642
 30
0.0
 40
0.125
 41
0.0
 71
     2
 72
     1
  1
BJ
  7
SLDTEXTSTYLE0
 73
     1
 44
1.0
  0
MTEXT
  5
209
330
1F
100
AcDbEntity
  8
TITLE
100
AcDbMText
 10
149.6652973758
 20
96.3397204642
 30
0.0
 40
0.125
 41
0.0
 71
     2
 72
     1
  1
BJ
  7
SLDTEXTSTYLE0
 73
     1
 44
1.0
  0
MTEXT
  5
20A
330
1F
100
AcDbEntity
  8
TITLE
100
AcDbMText
 10
0.3313895525
 20
98.4519251886
 30
0.0
 40
0.125
 41
0.0
 71
     2
 72
     1
  1
BK
  7
SLDTEXTSTYLE0
 73
     1
 44
1.0
  0
MTEXT
  5
20B
330
1F
100
AcDbEntity
  8
TITLE
100
AcDbMText
 10
149.6660352218
 20
98.4519251886
 30
0.0
 40
0.125
 41
0.0
 71
     2
 72
     1
  1
BK
  7
SLDTEXTSTYLE0
 73
     1
 44
1.0
  0
MTEXT
  5
20C
330
1F
100
AcDbEntity
  8
TITLE
100
AcDbMText
 10
1.330159804
 20
0.4125551099
 30
0.0
 40
0.125
 41
0.0
 71
     2
 72
     1
  1
76
  7
SLDTEXTSTYLE0
 73
     1
 44
1.0
  0
MTEXT
  5
20D
330
1F
100
AcDbEntity
  8
TITLE
100
AcDbMText
 10
1.330159804
 20
99.7472007792
 30
0.0
 40
0.125
 41
0.0
 71
     2
 72
     1
  1
76
  7
SLDTEXTSTYLE0
 73
     1
 44
1.0
  0
MTEXT
  5
20E
330
1F
100
AcDbEntity
  8
TITLE
100
AcDbMText
 10
3.1470889378
 20
0.4125551099
 30
0.0
 40
0.125
 41
0.0
 71
     2
 72
     1
  1
75
  7
SLDTEXTSTYLE0
 73
     1
 44
1.0
  0
MTEXT
  5
20F
330
1F
100
AcDbEntity
  8
TITLE
100
AcDbMText
 10
3.1470889378
 20
99.7472007792
 30
0.0
 40
0.125
 41
0.0
 71
     2
 72
     1
  1
75
  7
SLDTEXTSTYLE0
 73
     1
 44
1.0
  0
MTEXT
  5
210
330
1F
100
AcDbEntity
  8
TITLE
100
AcDbMText
 10
5.1155928749
 20
0.4125551099
 30
0.0
 40
0.125
 41
0.0
 71
     2
 72
     1
  1
74
  7
SLDTEXTSTYLE0
 73
     1
 44
1.0
  0
MTEXT
  5
211
330
1F
100
AcDbEntity
  8
TITLE
100
AcDbMText
 10
5.1155928749
 20
99.7472007792
 30
0.0
 40
0.125
 41
0.0
 71
     2
 72
     1
  1
74
  7
SLDTEXTSTYLE0
 73
     1
 44
1.0
  0
MTEXT
  5
212
330
1F
100
AcDbEntity
  8
TITLE
100
AcDbMText
 10
7.0840968119
 20
0.4125551099
 30
0.0
 40
0.125
 41
0.0
 71
     2
 72
     1
  1
73
  7
SLDTEXTSTYLE0
 73
     1
 44
1.0
  0
MTEXT
  5
213
330
1F
100
AcDbEntity
  8
TITLE
100
AcDbMText
 10
7.0840968119
 20
99.7472007792
 30
0.0
 40
0.125
 41
0.0
 71
     2
 72
     1
  1
73
  7
SLDTEXTSTYLE0
 73
     1
 44
1.0
  0
MTEXT
  5
214
330
1F
100
AcDbEntity
  8
TITLE
100
AcDbMText
 10
9.0526007489
 20
0.4125551099
 30
0.0
 40
0.125
 41
0.0
 71
     2
 72
     1
  1
72
  7
SLDTEXTSTYLE0
 73
     1
 44
1.0
  0
MTEXT
  5
215
330
1F
100
AcDbEntity
  8
TITLE
100
AcDbMText
 10
9.0526007489
 20
99.7472007792
 30
0.0
 40
0.125
 41
0.0
 71
     2
 72
     1
  1
72
  7
SLDTEXTSTYLE0
 73
     1
 44
1.0
  0
MTEXT
  5
216
330
1F
100
AcDbEntity
  8
TITLE
100
AcDbMText
 10
11.0211046859
 20
0.4125551099
 30
0.0
 40
0.125
 41
0.0
 71
     2
 72
     1
  1
71
  7
SLDTEXTSTYLE0
 73
     1
 44
1.0
  0
MTEXT
  5
217
330
1F
100
AcDbEntity
  8
TITLE
100
AcDbMText
 10
11.0211046859
 20
99.7472007792
 30
0.0
 40
0.125
 41
0.0
 71
     2
 72
     1
  1
71
  7
SLDTEXTSTYLE0
 73
     1
 44
1.0
  0
MTEXT
  5
218
330
1F
100
AcDbEntity
  8
TITLE
100
AcDbMText
 10
12.9896086229
 20
0.4125551099
 30
0.0
 40
0.125
 41
0.0
 71
     2
 72
     1
  1
70
  7
SLDTEXTSTYLE0
 73
     1
 44
1.0
  0
MTEXT
  5
219
330
1F
100
AcDbEntity
  8
TITLE
100
AcDbMText
 10
12.9896086229
 20
99.7472007792
 30
0.0
 40
0.125
 41
0.0
 71
     2
 72
     1
  1
70
  7
SLDTEXTSTYLE0
 73
     1
 44
1.0
  0
MTEXT
  5
21A
330
1F
100
AcDbEntity
  8
TITLE
100
AcDbMText
 10
14.9581125599
 20
0.4125551099
 30
0.0
 40
0.125
 41
0.0
 71
     2
 72
     1
  1
69
  7
SLDTEXTSTYLE0
 73
     1
 44
1.0
  0
MTEXT
  5
21B
330
1F
100
AcDbEntity
  8
TITLE
100
AcDbMText
 10
14.9581125599
 20
99.7472007792
 30
0.0
 40
0.125
 41
0.0
 71
     2
 72
     1
  1
69
  7
SLDTEXTSTYLE0
 73
     1
 44
1.0
  0
MTEXT
  5
21C
330
1F
100
AcDbEntity
  8
TITLE
100
AcDbMText
 10
16.9266164969
 20
0.4125551099
 30
0.0
 40
0.125
 41
0.0
 71
     2
 72
     1
  1
68
  7
SLDTEXTSTYLE0
 73
     1
 44
1.0
  0
MTEXT
  5
21D
330
1F
100
AcDbEntity
  8
TITLE
100
AcDbMText
 10
16.9266164969
 20
99.7472007792
 30
0.0
 40
0.125
 41
0.0
 71
     2
 72
     1
  1
68
  7
SLDTEXTSTYLE0
 73
     1
 44
1.0
  0
MTEXT
  5
21E
330
1F
100
AcDbEntity
  8
TITLE
100
AcDbMText
 10
18.8951204339
 20
0.4125551099
 30
0.0
 40
0.125
 41
0.0
 71
     2
 72
     1
  1
67
  7
SLDTEXTSTYLE0
 73
     1
 44
1.0
  0
MTEXT
  5
21F
330
1F
100
AcDbEntity
  8
TITLE
100
AcDbMText
 10
18.8951204339
 20
99.7472007792
 30
0.0
 40
0.125
 41
0.0
 71
     2
 72
     1
  1
67
  7
SLDTEXTSTYLE0
 73
     1
 44
1.0
  0
MTEXT
  5
220
330
1F
100
AcDbEntity
  8
TITLE
100
AcDbMText
 10
20.8636243709
 20
0.4125551099
 30
0.0
 40
0.125
 41
0.0
 71
     2
 72
     1
  1
66
  7
SLDTEXTSTYLE0
 73
     1
 44
1.0
  0
MTEXT
  5
221
330
1F
100
AcDbEntity
  8
TITLE
100
AcDbMText
 10
20.8636243709
 20
99.7472007792
 30
0.0
 40
0.125
 41
0.0
 71
     2
 72
     1
  1
66
  7
SLDTEXTSTYLE0
 73
     1
 44
1.0
  0
MTEXT
  5
222
330
1F
100
AcDbEntity
  8
TITLE
100
AcDbMText
 10
22.8321283079
 20
0.4125551099
 30
0.0
 40
0.125
 41
0.0
 71
     2
 72
     1
  1
65
  7
SLDTEXTSTYLE0
 73
     1
 44
1.0
  0
MTEXT
  5
223
330
1F
100
AcDbEntity
  8
TITLE
100
AcDbMText
 10
22.8321283079
 20
99.7472007792
 30
0.0
 40
0.125
 41
0.0
 71
     2
 72
     1
  1
65
  7
SLDTEXTSTYLE0
 73
     1
 44
1.0
  0
MTEXT
  5
224
330
1F
100
AcDbEntity
  8
TITLE
100
AcDbMText
 10
24.8006322449
 20
0.4125551099
 30
0.0
 40
0.125
 41
0.0
 71
     2
 72
     1
  1
64
  7
SLDTEXTSTYLE0
 73
     1
 44
1.0
  0
MTEXT
  5
225
330
1F
100
AcDbEntity
  8
TITLE
100
AcDbMText
 10
24.8006322449
 20
99.7472007792
 30
0.0
 40
0.125
 41
0.0
 71
     2
 72
     1
  1
64
  7
SLDTEXTSTYLE0
 73
     1
 44
1.0
  0
MTEXT
  5
226
330
1F
100
AcDbEntity
  8
TITLE
100
AcDbMText
 10
26.7691361819
 20
0.4125551099
 30
0.0
 40
0.125
 41
0.0
 71
     2
 72
     1
  1
63
  7
SLDTEXTSTYLE0
 73
     1
 44
1.0
  0
MTEXT
  5
227
330
1F
100
AcDbEntity
  8
TITLE
100
AcDbMText
 10
26.7691361819
 20
99.7472007792
 30
0.0
 40
0.125
 41
0.0
 71
     2
 72
     1
  1
63
  7
SLDTEXTSTYLE0
 73
     1
 44
1.0
  0
MTEXT
  5
228
330
1F
100
AcDbEntity
  8
TITLE
100
AcDbMText
 10
28.7376401189
 20
0.4125551099
 30
0.0
 40
0.125
 41
0.0
 71
     2
 72
     1
  1
62
  7
SLDTEXTSTYLE0
 73
     1
 44
1.0
  0
MTEXT
  5
229
330
1F
100
AcDbEntity
  8
TITLE
100
AcDbMText
 10
28.7376401189
 20
99.7472007792
 30
0.0
 40
0.125
 41
0.0
 71
     2
 72
     1
  1
62
  7
SLDTEXTSTYLE0
 73
     1
 44
1.0
  0
MTEXT
  5
22A
330
1F
100
AcDbEntity
  8
TITLE
100
AcDbMText
 10
30.706144056
 20
0.4125551099
 30
0.0
 40
0.125
 41
0.0
 71
     2
 72
     1
  1
61
  7
SLDTEXTSTYLE0
 73
     1
 44
1.0
  0
MTEXT
  5
22B
330
1F
100
AcDbEntity
  8
TITLE
100
AcDbMText
 10
30.706144056
 20
99.7472007792
 30
0.0
 40
0.125
 41
0.0
 71
     2
 72
     1
  1
61
  7
SLDTEXTSTYLE0
 73
     1
 44
1.0
  0
MTEXT
  5
22C
330
1F
100
AcDbEntity
  8
TITLE
100
AcDbMText
 10
32.674647993
 20
0.4125551099
 30
0.0
 40
0.125
 41
0.0
 71
     2
 72
     1
  1
60
  7
SLDTEXTSTYLE0
 73
     1
 44
1.0
  0
MTEXT
  5
22D
330
1F
100
AcDbEntity
  8
TITLE
100
AcDbMText
 10
32.674647993
 20
99.7472007792
 30
0.0
 40
0.125
 41
0.0
 71
     2
 72
     1
  1
60
  7
SLDTEXTSTYLE0
 73
     1
 44
1.0
  0
MTEXT
  5
22E
330
1F
100
AcDbEntity
  8
TITLE
100
AcDbMText
 10
34.64315193
 20
0.4125551099
 30
0.0
 40
0.125
 41
0.0
 71
     2
 72
     1
  1
59
  7
SLDTEXTSTYLE0
 73
     1
 44
1.0
  0
MTEXT
  5
22F
330
1F
100
AcDbEntity
  8
TITLE
100
AcDbMText
 10
34.64315193
 20
99.7472007792
 30
0.0
 40
0.125
 41
0.0
 71
     2
 72
     1
  1
59
  7
SLDTEXTSTYLE0
 73
     1
 44
1.0
  0
MTEXT
  5
230
330
1F
100
AcDbEntity
  8
TITLE
100
AcDbMText
 10
36.611655867
 20
0.4125551099
 30
0.0
 40
0.125
 41
0.0
 71
     2
 72
     1
  1
58
  7
SLDTEXTSTYLE0
 73
     1
 44
1.0
  0
MTEXT
  5
231
330
1F
100
AcDbEntity
  8
TITLE
100
AcDbMText
 10
36.611655867
 20
99.7472007792
 30
0.0
 40
0.125
 41
0.0
 71
     2
 72
     1
  1
58
  7
SLDTEXTSTYLE0
 73
     1
 44
1.0
  0
MTEXT
  5
232
330
1F
100
AcDbEntity
  8
TITLE
100
AcDbMText
 10
38.580159804
 20
0.4125551099
 30
0.0
 40
0.125
 41
0.0
 71
     2
 72
     1
  1
57
  7
SLDTEXTSTYLE0
 73
     1
 44
1.0
  0
MTEXT
  5
233
330
1F
100
AcDbEntity
  8
TITLE
100
AcDbMText
 10
38.580159804
 20
99.7472007792
 30
0.0
 40
0.125
 41
0.0
 71
     2
 72
     1
  1
57
  7
SLDTEXTSTYLE0
 73
     1
 44
1.0
  0
MTEXT
  5
234
330
1F
100
AcDbEntity
  8
TITLE
100
AcDbMText
 10
40.548663741
 20
0.4125551099
 30
0.0
 40
0.125
 41
0.0
 71
     2
 72
     1
  1
56
  7
SLDTEXTSTYLE0
 73
     1
 44
1.0
  0
MTEXT
  5
235
330
1F
100
AcDbEntity
  8
TITLE
100
AcDbMText
 10
40.548663741
 20
99.7472007792
 30
0.0
 40
0.125
 41
0.0
 71
     2
 72
     1
  1
56
  7
SLDTEXTSTYLE0
 73
     1
 44
1.0
  0
MTEXT
  5
236
330
1F
100
AcDbEntity
  8
TITLE
100
AcDbMText
 10
42.517167678
 20
0.4125551099
 30
0.0
 40
0.125
 41
0.0
 71
     2
 72
     1
  1
55
  7
SLDTEXTSTYLE0
 73
     1
 44
1.0
  0
MTEXT
  5
237
330
1F
100
AcDbEntity
  8
TITLE
100
AcDbMText
 10
42.517167678
 20
99.7472007792
 30
0.0
 40
0.125
 41
0.0
 71
     2
 72
     1
  1
55
  7
SLDTEXTSTYLE0
 73
     1
 44
1.0
  0
MTEXT
  5
238
330
1F
100
AcDbEntity
  8
TITLE
100
AcDbMText
 10
44.485671615
 20
0.4125551099
 30
0.0
 40
0.125
 41
0.0
 71
     2
 72
     1
  1
54
  7
SLDTEXTSTYLE0
 73
     1
 44
1.0
  0
MTEXT
  5
239
330
1F
100
AcDbEntity
  8
TITLE
100
AcDbMText
 10
44.485671615
 20
99.7472007792
 30
0.0
 40
0.125
 41
0.0
 71
     2
 72
     1
  1
54
  7
SLDTEXTSTYLE0
 73
     1
 44
1.0
  0
MTEXT
  5
23A
330
1F
100
AcDbEntity
  8
TITLE
100
AcDbMText
 10
46.454175552
 20
0.4125551099
 30
0.0
 40
0.125
 41
0.0
 71
     2
 72
     1
  1
53
  7
SLDTEXTSTYLE0
 73
     1
 44
1.0
  0
MTEXT
  5
23B
330
1F
100
AcDbEntity
  8
TITLE
100
AcDbMText
 10
46.454175552
 20
99.7472007792
 30
0.0
 40
0.125
 41
0.0
 71
     2
 72
     1
  1
53
  7
SLDTEXTSTYLE0
 73
     1
 44
1.0
  0
MTEXT
  5
23C
330
1F
100
AcDbEntity
  8
TITLE
100
AcDbMText
 10
48.422679489
 20
0.4125551099
 30
0.0
 40
0.125
 41
0.0
 71
     2
 72
     1
  1
52
  7
SLDTEXTSTYLE0
 73
     1
 44
1.0
  0
MTEXT
  5
23D
330
1F
100
AcDbEntity
  8
TITLE
100
AcDbMText
 10
48.422679489
 20
99.7472007792
 30
0.0
 40
0.125
 41
0.0
 71
     2
 72
     1
  1
52
  7
SLDTEXTSTYLE0
 73
     1
 44
1.0
  0
MTEXT
  5
23E
330
1F
100
AcDbEntity
  8
TITLE
100
AcDbMText
 10
50.391183426
 20
0.4125551099
 30
0.0
 40
0.125
 41
0.0
 71
     2
 72
     1
  1
51
  7
SLDTEXTSTYLE0
 73
     1
 44
1.0
  0
MTEXT
  5
23F
330
1F
100
AcDbEntity
  8
TITLE
100
AcDbMText
 10
50.391183426
 20
99.7472007792
 30
0.0
 40
0.125
 41
0.0
 71
     2
 72
     1
  1
51
  7
SLDTEXTSTYLE0
 73
     1
 44
1.0
  0
MTEXT
  5
240
330
1F
100
AcDbEntity
  8
TITLE
100
AcDbMText
 10
52.359687363
 20
0.4125551099
 30
0.0
 40
0.125
 41
0.0
 71
     2
 72
     1
  1
50
  7
SLDTEXTSTYLE0
 73
     1
 44
1.0
  0
MTEXT
  5
241
330
1F
100
AcDbEntity
  8
TITLE
100
AcDbMText
 10
52.359687363
 20
99.7472007792
 30
0.0
 40
0.125
 41
0.0
 71
     2
 72
     1
  1
50
  7
SLDTEXTSTYLE0
 73
     1
 44
1.0
  0
MTEXT
  5
242
330
1F
100
AcDbEntity
  8
TITLE
100
AcDbMText
 10
54.3281913
 20
0.4125551099
 30
0.0
 40
0.125
 41
0.0
 71
     2
 72
     1
  1
49
  7
SLDTEXTSTYLE0
 73
     1
 44
1.0
  0
MTEXT
  5
243
330
1F
100
AcDbEntity
  8
TITLE
100
AcDbMText
 10
54.3281913
 20
99.7472007792
 30
0.0
 40
0.125
 41
0.0
 71
     2
 72
     1
  1
49
  7
SLDTEXTSTYLE0
 73
     1
 44
1.0
  0
MTEXT
  5
244
330
1F
100
AcDbEntity
  8
TITLE
100
AcDbMText
 10
56.2966952371
 20
0.4125551099
 30
0.0
 40
0.125
 41
0.0
 71
     2
 72
     1
  1
48
  7
SLDTEXTSTYLE0
 73
     1
 44
1.0
  0
MTEXT
  5
245
330
1F
100
AcDbEntity
  8
TITLE
100
AcDbMText
 10
56.2966952371
 20
99.7472007792
 30
0.0
 40
0.125
 41
0.0
 71
     2
 72
     1
  1
48
  7
SLDTEXTSTYLE0
 73
     1
 44
1.0
  0
MTEXT
  5
246
330
1F
100
AcDbEntity
  8
TITLE
100
AcDbMText
 10
58.2651991741
 20
0.4125551099
 30
0.0
 40
0.125
 41
0.0
 71
     2
 72
     1
  1
47
  7
SLDTEXTSTYLE0
 73
     1
 44
1.0
  0
MTEXT
  5
247
330
1F
100
AcDbEntity
  8
TITLE
100
AcDbMText
 10
58.2651991741
 20
99.7472007792
 30
0.0
 40
0.125
 41
0.0
 71
     2
 72
     1
  1
47
  7
SLDTEXTSTYLE0
 73
     1
 44
1.0
  0
MTEXT
  5
248
330
1F
100
AcDbEntity
  8
TITLE
100
AcDbMText
 10
60.2337031111
 20
0.4125551099
 30
0.0
 40
0.125
 41
0.0
 71
     2
 72
     1
  1
46
  7
SLDTEXTSTYLE0
 73
     1
 44
1.0
  0
MTEXT
  5
249
330
1F
100
AcDbEntity
  8
TITLE
100
AcDbMText
 10
60.2337031111
 20
99.7472007792
 30
0.0
 40
0.125
 41
0.0
 71
     2
 72
     1
  1
46
  7
SLDTEXTSTYLE0
 73
     1
 44
1.0
  0
MTEXT
  5
24A
330
1F
100
AcDbEntity
  8
TITLE
100
AcDbMText
 10
62.2022070481
 20
0.4125551099
 30
0.0
 40
0.125
 41
0.0
 71
     2
 72
     1
  1
45
  7
SLDTEXTSTYLE0
 73
     1
 44
1.0
  0
MTEXT
  5
24B
330
1F
100
AcDbEntity
  8
TITLE
100
AcDbMText
 10
62.2022070481
 20
99.7472007792
 30
0.0
 40
0.125
 41
0.0
 71
     2
 72
     1
  1
45
  7
SLDTEXTSTYLE0
 73
     1
 44
1.0
  0
MTEXT
  5
24C
330
1F
100
AcDbEntity
  8
TITLE
100
AcDbMText
 10
64.1707109851
 20
0.4125551099
 30
0.0
 40
0.125
 41
0.0
 71
     2
 72
     1
  1
44
  7
SLDTEXTSTYLE0
 73
     1
 44
1.0
  0
MTEXT
  5
24D
330
1F
100
AcDbEntity
  8
TITLE
100
AcDbMText
 10
64.1707109851
 20
99.7472007792
 30
0.0
 40
0.125
 41
0.0
 71
     2
 72
     1
  1
44
  7
SLDTEXTSTYLE0
 73
     1
 44
1.0
  0
MTEXT
  5
24E
330
1F
100
AcDbEntity
  8
TITLE
100
AcDbMText
 10
66.1392149221
 20
0.4125551099
 30
0.0
 40
0.125
 41
0.0
 71
     2
 72
     1
  1
43
  7
SLDTEXTSTYLE0
 73
     1
 44
1.0
  0
MTEXT
  5
24F
330
1F
100
AcDbEntity
  8
TITLE
100
AcDbMText
 10
66.1392149221
 20
99.7472007792
 30
0.0
 40
0.125
 41
0.0
 71
     2
 72
     1
  1
43
  7
SLDTEXTSTYLE0
 73
     1
 44
1.0
  0
MTEXT
  5
250
330
1F
100
AcDbEntity
  8
TITLE
100
AcDbMText
 10
68.1077188591
 20
0.4125551099
 30
0.0
 40
0.125
 41
0.0
 71
     2
 72
     1
  1
42
  7
SLDTEXTSTYLE0
 73
     1
 44
1.0
  0
MTEXT
  5
251
330
1F
100
AcDbEntity
  8
TITLE
100
AcDbMText
 10
68.1077188591
 20
99.7472007792
 30
0.0
 40
0.125
 41
0.0
 71
     2
 72
     1
  1
42
  7
SLDTEXTSTYLE0
 73
     1
 44
1.0
  0
MTEXT
  5
252
330
1F
100
AcDbEntity
  8
TITLE
100
AcDbMText
 10
70.0762227961
 20
0.4125551099
 30
0.0
 40
0.125
 41
0.0
 71
     2
 72
     1
  1
41
  7
SLDTEXTSTYLE0
 73
     1
 44
1.0
  0
MTEXT
  5
253
330
1F
100
AcDbEntity
  8
TITLE
100
AcDbMText
 10
70.0762227961
 20
99.7472007792
 30
0.0
 40
0.125
 41
0.0
 71
     2
 72
     1
  1
41
  7
SLDTEXTSTYLE0
 73
     1
 44
1.0
  0
MTEXT
  5
254
330
1F
100
AcDbEntity
  8
TITLE
100
AcDbMText
 10
72.0447267331
 20
0.4125551099
 30
0.0
 40
0.125
 41
0.0
 71
     2
 72
     1
  1
40
  7
SLDTEXTSTYLE0
 73
     1
 44
1.0
  0
MTEXT
  5
255
330
1F
100
AcDbEntity
  8
TITLE
100
AcDbMText
 10
72.0447267331
 20
99.7472007792
 30
0.0
 40
0.125
 41
0.0
 71
     2
 72
     1
  1
40
  7
SLDTEXTSTYLE0
 73
     1
 44
1.0
  0
MTEXT
  5
256
330
1F
100
AcDbEntity
  8
TITLE
100
AcDbMText
 10
74.0132306701
 20
0.4125551099
 30
0.0
 40
0.125
 41
0.0
 71
     2
 72
     1
  1
39
  7
SLDTEXTSTYLE0
 73
     1
 44
1.0
  0
MTEXT
  5
257
330
1F
100
AcDbEntity
  8
TITLE
100
AcDbMText
 10
74.0132306701
 20
99.7472007792
 30
0.0
 40
0.125
 41
0.0
 71
     2
 72
     1
  1
39
  7
SLDTEXTSTYLE0
 73
     1
 44
1.0
  0
MTEXT
  5
258
330
1F
100
AcDbEntity
  8
TITLE
100
AcDbMText
 10
75.9817346071
 20
0.4125551099
 30
0.0
 40
0.125
 41
0.0
 71
     2
 72
     1
  1
38
  7
SLDTEXTSTYLE0
 73
     1
 44
1.0
  0
MTEXT
  5
259
330
1F
100
AcDbEntity
  8
TITLE
100
AcDbMText
 10
75.9817346071
 20
99.7472007792
 30
0.0
 40
0.125
 41
0.0
 71
     2
 72
     1
  1
38
  7
SLDTEXTSTYLE0
 73
     1
 44
1.0
  0
MTEXT
  5
25A
330
1F
100
AcDbEntity
  8
TITLE
100
AcDbMText
 10
77.9502385441
 20
0.4125551099
 30
0.0
 40
0.125
 41
0.0
 71
     2
 72
     1
  1
37
  7
SLDTEXTSTYLE0
 73
     1
 44
1.0
  0
MTEXT
  5
25B
330
1F
100
AcDbEntity
  8
TITLE
100
AcDbMText
 10
77.9502385441
 20
99.7472007792
 30
0.0
 40
0.125
 41
0.0
 71
     2
 72
     1
  1
37
  7
SLDTEXTSTYLE0
 73
     1
 44
1.0
  0
MTEXT
  5
25C
330
1F
100
AcDbEntity
  8
TITLE
100
AcDbMText
 10
79.9187424811
 20
0.4125551099
 30
0.0
 40
0.125
 41
0.0
 71
     2
 72
     1
  1
36
  7
SLDTEXTSTYLE0
 73
     1
 44
1.0
  0
MTEXT
  5
25D
330
1F
100
AcDbEntity
  8
TITLE
100
AcDbMText
 10
79.9187424811
 20
99.7472007792
 30
0.0
 40
0.125
 41
0.0
 71
     2
 72
     1
  1
36
  7
SLDTEXTSTYLE0
 73
     1
 44
1.0
  0
MTEXT
  5
25E
330
1F
100
AcDbEntity
  8
TITLE
100
AcDbMText
 10
81.8872464182
 20
0.4125551099
 30
0.0
 40
0.125
 41
0.0
 71
     2
 72
     1
  1
35
  7
SLDTEXTSTYLE0
 73
     1
 44
1.0
  0
MTEXT
  5
25F
330
1F
100
AcDbEntity
  8
TITLE
100
AcDbMText
 10
81.8872464182
 20
99.7472007792
 30
0.0
 40
0.125
 41
0.0
 71
     2
 72
     1
  1
35
  7
SLDTEXTSTYLE0
 73
     1
 44
1.0
  0
MTEXT
  5
260
330
1F
100
AcDbEntity
  8
TITLE
100
AcDbMText
 10
83.8557503552
 20
0.4125551099
 30
0.0
 40
0.125
 41
0.0
 71
     2
 72
     1
  1
34
  7
SLDTEXTSTYLE0
 73
     1
 44
1.0
  0
MTEXT
  5
261
330
1F
100
AcDbEntity
  8
TITLE
100
AcDbMText
 10
83.8557503552
 20
99.7472007792
 30
0.0
 40
0.125
 41
0.0
 71
     2
 72
     1
  1
34
  7
SLDTEXTSTYLE0
 73
     1
 44
1.0
  0
MTEXT
  5
262
330
1F
100
AcDbEntity
  8
TITLE
100
AcDbMText
 10
85.8242542922
 20
0.4125551099
 30
0.0
 40
0.125
 41
0.0
 71
     2
 72
     1
  1
33
  7
SLDTEXTSTYLE0
 73
     1
 44
1.0
  0
MTEXT
  5
263
330
1F
100
AcDbEntity
  8
TITLE
100
AcDbMText
 10
85.8242542922
 20
99.7472007792
 30
0.0
 40
0.125
 41
0.0
 71
     2
 72
     1
  1
33
  7
SLDTEXTSTYLE0
 73
     1
 44
1.0
  0
MTEXT
  5
264
330
1F
100
AcDbEntity
  8
TITLE
100
AcDbMText
 10
87.7927582292
 20
0.4125551099
 30
0.0
 40
0.125
 41
0.0
 71
     2
 72
     1
  1
32
  7
SLDTEXTSTYLE0
 73
     1
 44
1.0
  0
MTEXT
  5
265
330
1F
100
AcDbEntity
  8
TITLE
100
AcDbMText
 10
87.7927582292
 20
99.7472007792
 30
0.0
 40
0.125
 41
0.0
 71
     2
 72
     1
  1
32
  7
SLDTEXTSTYLE0
 73
     1
 44
1.0
  0
MTEXT
  5
266
330
1F
100
AcDbEntity
  8
TITLE
100
AcDbMText
 10
89.7612621662
 20
0.4125551099
 30
0.0
 40
0.125
 41
0.0
 71
     2
 72
     1
  1
31
  7
SLDTEXTSTYLE0
 73
     1
 44
1.0
  0
MTEXT
  5
267
330
1F
100
AcDbEntity
  8
TITLE
100
AcDbMText
 10
89.7612621662
 20
99.7472007792
 30
0.0
 40
0.125
 41
0.0
 71
     2
 72
     1
  1
31
  7
SLDTEXTSTYLE0
 73
     1
 44
1.0
  0
MTEXT
  5
268
330
1F
100
AcDbEntity
  8
TITLE
100
AcDbMText
 10
91.7297661032
 20
0.4125551099
 30
0.0
 40
0.125
 41
0.0
 71
     2
 72
     1
  1
30
  7
SLDTEXTSTYLE0
 73
     1
 44
1.0
  0
MTEXT
  5
269
330
1F
100
AcDbEntity
  8
TITLE
100
AcDbMText
 10
91.7297661032
 20
99.7472007792
 30
0.0
 40
0.125
 41
0.0
 71
     2
 72
     1
  1
30
  7
SLDTEXTSTYLE0
 73
     1
 44
1.0
  0
MTEXT
  5
26A
330
1F
100
AcDbEntity
  8
TITLE
100
AcDbMText
 10
93.6982700402
 20
0.4125551099
 30
0.0
 40
0.125
 41
0.0
 71
     2
 72
     1
  1
29
  7
SLDTEXTSTYLE0
 73
     1
 44
1.0
  0
MTEXT
  5
26B
330
1F
100
AcDbEntity
  8
TITLE
100
AcDbMText
 10
93.6982700402
 20
99.7472007792
 30
0.0
 40
0.125
 41
0.0
 71
     2
 72
     1
  1
29
  7
SLDTEXTSTYLE0
 73
     1
 44
1.0
  0
MTEXT
  5
26C
330
1F
100
AcDbEntity
  8
TITLE
100
AcDbMText
 10
95.6667739772
 20
0.4125551099
 30
0.0
 40
0.125
 41
0.0
 71
     2
 72
     1
  1
28
  7
SLDTEXTSTYLE0
 73
     1
 44
1.0
  0
MTEXT
  5
26D
330
1F
100
AcDbEntity
  8
TITLE
100
AcDbMText
 10
95.6667739772
 20
99.7472007792
 30
0.0
 40
0.125
 41
0.0
 71
     2
 72
     1
  1
28
  7
SLDTEXTSTYLE0
 73
     1
 44
1.0
  0
MTEXT
  5
26E
330
1F
100
AcDbEntity
  8
TITLE
100
AcDbMText
 10
97.6352779142
 20
0.4125551099
 30
0.0
 40
0.125
 41
0.0
 71
     2
 72
     1
  1
27
  7
SLDTEXTSTYLE0
 73
     1
 44
1.0
  0
MTEXT
  5
26F
330
1F
100
AcDbEntity
  8
TITLE
100
AcDbMText
 10
97.6352779142
 20
99.7472007792
 30
0.0
 40
0.125
 41
0.0
 71
     2
 72
     1
  1
27
  7
SLDTEXTSTYLE0
 73
     1
 44
1.0
  0
MTEXT
  5
270
330
1F
100
AcDbEntity
  8
TITLE
100
AcDbMText
 10
99.6037818512
 20
0.4125551099
 30
0.0
 40
0.125
 41
0.0
 71
     2
 72
     1
  1
26
  7
SLDTEXTSTYLE0
 73
     1
 44
1.0
  0
MTEXT
  5
271
330
1F
100
AcDbEntity
  8
TITLE
100
AcDbMText
 10
99.6037818512
 20
99.7472007792
 30
0.0
 40
0.125
 41
0.0
 71
     2
 72
     1
  1
26
  7
SLDTEXTSTYLE0
 73
     1
 44
1.0
  0
MTEXT
  5
272
330
1F
100
AcDbEntity
  8
TITLE
100
AcDbMText
 10
101.5722857882
 20
0.4125551099
 30
0.0
 40
0.125
 41
0.0
 71
     2
 72
     1
  1
25
  7
SLDTEXTSTYLE0
 73
     1
 44
1.0
  0
MTEXT
  5
273
330
1F
100
AcDbEntity
  8
TITLE
100
AcDbMText
 10
101.5722857882
 20
99.7472007792
 30
0.0
 40
0.125
 41
0.0
 71
     2
 72
     1
  1
25
  7
SLDTEXTSTYLE0
 73
     1
 44
1.0
  0
MTEXT
  5
274
330
1F
100
AcDbEntity
  8
TITLE
100
AcDbMText
 10
103.5407897252
 20
0.4125551099
 30
0.0
 40
0.125
 41
0.0
 71
     2
 72
     1
  1
24
  7
SLDTEXTSTYLE0
 73
     1
 44
1.0
  0
MTEXT
  5
275
330
1F
100
AcDbEntity
  8
TITLE
100
AcDbMText
 10
103.5407897252
 20
99.7472007792
 30
0.0
 40
0.125
 41
0.0
 71
     2
 72
     1
  1
24
  7
SLDTEXTSTYLE0
 73
     1
 44
1.0
  0
MTEXT
  5
276
330
1F
100
AcDbEntity
  8
TITLE
100
AcDbMText
 10
105.5092936623
 20
0.4125551099
 30
0.0
 40
0.125
 41
0.0
 71
     2
 72
     1
  1
23
  7
SLDTEXTSTYLE0
 73
     1
 44
1.0
  0
MTEXT
  5
277
330
1F
100
AcDbEntity
  8
TITLE
100
AcDbMText
 10
105.5092936623
 20
99.7472007792
 30
0.0
 40
0.125
 41
0.0
 71
     2
 72
     1
  1
23
  7
SLDTEXTSTYLE0
 73
     1
 44
1.0
  0
MTEXT
  5
278
330
1F
100
AcDbEntity
  8
TITLE
100
AcDbMText
 10
107.4777975993
 20
0.4125551099
 30
0.0
 40
0.125
 41
0.0
 71
     2
 72
     1
  1
22
  7
SLDTEXTSTYLE0
 73
     1
 44
1.0
  0
MTEXT
  5
279
330
1F
100
AcDbEntity
  8
TITLE
100
AcDbMText
 10
107.4777975993
 20
99.7472007792
 30
0.0
 40
0.125
 41
0.0
 71
     2
 72
     1
  1
22
  7
SLDTEXTSTYLE0
 73
     1
 44
1.0
  0
MTEXT
  5
27A
330
1F
100
AcDbEntity
  8
TITLE
100
AcDbMText
 10
109.4463015363
 20
0.4125551099
 30
0.0
 40
0.125
 41
0.0
 71
     2
 72
     1
  1
21
  7
SLDTEXTSTYLE0
 73
     1
 44
1.0
  0
MTEXT
  5
27B
330
1F
100
AcDbEntity
  8
TITLE
100
AcDbMText
 10
109.4463015363
 20
99.7472007792
 30
0.0
 40
0.125
 41
0.0
 71
     2
 72
     1
  1
21
  7
SLDTEXTSTYLE0
 73
     1
 44
1.0
  0
MTEXT
  5
27C
330
1F
100
AcDbEntity
  8
TITLE
100
AcDbMText
 10
111.4148054733
 20
0.4125551099
 30
0.0
 40
0.125
 41
0.0
 71
     2
 72
     1
  1
20
  7
SLDTEXTSTYLE0
 73
     1
 44
1.0
  0
MTEXT
  5
27D
330
1F
100
AcDbEntity
  8
TITLE
100
AcDbMText
 10
111.4148054733
 20
99.7472007792
 30
0.0
 40
0.125
 41
0.0
 71
     2
 72
     1
  1
20
  7
SLDTEXTSTYLE0
 73
     1
 44
1.0
  0
MTEXT
  5
27E
330
1F
100
AcDbEntity
  8
TITLE
100
AcDbMText
 10
113.3833094103
 20
0.4125551099
 30
0.0
 40
0.125
 41
0.0
 71
     2
 72
     1
  1
19
  7
SLDTEXTSTYLE0
 73
     1
 44
1.0
  0
MTEXT
  5
27F
330
1F
100
AcDbEntity
  8
TITLE
100
AcDbMText
 10
113.3833094103
 20
99.7472007792
 30
0.0
 40
0.125
 41
0.0
 71
     2
 72
     1
  1
19
  7
SLDTEXTSTYLE0
 73
     1
 44
1.0
  0
MTEXT
  5
280
330
1F
100
AcDbEntity
  8
TITLE
100
AcDbMText
 10
115.3518133473
 20
0.4125551099
 30
0.0
 40
0.125
 41
0.0
 71
     2
 72
     1
  1
18
  7
SLDTEXTSTYLE0
 73
     1
 44
1.0
  0
MTEXT
  5
281
330
1F
100
AcDbEntity
  8
TITLE
100
AcDbMText
 10
115.3518133473
 20
99.7472007792
 30
0.0
 40
0.125
 41
0.0
 71
     2
 72
     1
  1
18
  7
SLDTEXTSTYLE0
 73
     1
 44
1.0
  0
MTEXT
  5
282
330
1F
100
AcDbEntity
  8
TITLE
100
AcDbMText
 10
117.3203172843
 20
0.4125551099
 30
0.0
 40
0.125
 41
0.0
 71
     2
 72
     1
  1
17
  7
SLDTEXTSTYLE0
 73
     1
 44
1.0
  0
MTEXT
  5
283
330
1F
100
AcDbEntity
  8
TITLE
100
AcDbMText
 10
117.3203172843
 20
99.7472007792
 30
0.0
 40
0.125
 41
0.0
 71
     2
 72
     1
  1
17
  7
SLDTEXTSTYLE0
 73
     1
 44
1.0
  0
MTEXT
  5
284
330
1F
100
AcDbEntity
  8
TITLE
100
AcDbMText
 10
119.2888212213
 20
0.4125551099
 30
0.0
 40
0.125
 41
0.0
 71
     2
 72
     1
  1
16
  7
SLDTEXTSTYLE0
 73
     1
 44
1.0
  0
MTEXT
  5
285
330
1F
100
AcDbEntity
  8
TITLE
100
AcDbMText
 10
119.2888212213
 20
99.7472007792
 30
0.0
 40
0.125
 41
0.0
 71
     2
 72
     1
  1
16
  7
SLDTEXTSTYLE0
 73
     1
 44
1.0
  0
MTEXT
  5
286
330
1F
100
AcDbEntity
  8
TITLE
100
AcDbMText
 10
121.2573251583
 20
0.4125551099
 30
0.0
 40
0.125
 41
0.0
 71
     2
 72
     1
  1
15
  7
SLDTEXTSTYLE0
 73
     1
 44
1.0
  0
MTEXT
  5
287
330
1F
100
AcDbEntity
  8
TITLE
100
AcDbMText
 10
121.2573251583
 20
99.7472007792
 30
0.0
 40
0.125
 41
0.0
 71
     2
 72
     1
  1
15
  7
SLDTEXTSTYLE0
 73
     1
 44
1.0
  0
MTEXT
  5
288
330
1F
100
AcDbEntity
  8
TITLE
100
AcDbMText
 10
123.2258290953
 20
0.4125551099
 30
0.0
 40
0.125
 41
0.0
 71
     2
 72
     1
  1
14
  7
SLDTEXTSTYLE0
 73
     1
 44
1.0
  0
MTEXT
  5
289
330
1F
100
AcDbEntity
  8
TITLE
100
AcDbMText
 10
123.2258290953
 20
99.7472007792
 30
0.0
 40
0.125
 41
0.0
 71
     2
 72
     1
  1
14
  7
SLDTEXTSTYLE0
 73
     1
 44
1.0
  0
MTEXT
  5
28A
330
1F
100
AcDbEntity
  8
TITLE
100
AcDbMText
 10
125.1943330323
 20
0.4125551099
 30
0.0
 40
0.125
 41
0.0
 71
     2
 72
     1
  1
13
  7
SLDTEXTSTYLE0
 73
     1
 44
1.0
  0
MTEXT
  5
28B
330
1F
100
AcDbEntity
  8
TITLE
100
AcDbMText
 10
125.1943330323
 20
99.7472007792
 30
0.0
 40
0.125
 41
0.0
 71
     2
 72
     1
  1
13
  7
SLDTEXTSTYLE0
 73
     1
 44
1.0
  0
MTEXT
  5
28C
330
1F
100
AcDbEntity
  8
TITLE
100
AcDbMText
 10
127.1628369693
 20
0.4125551099
 30
0.0
 40
0.125
 41
0.0
 71
     2
 72
     1
  1
12
  7
SLDTEXTSTYLE0
 73
     1
 44
1.0
  0
MTEXT
  5
28D
330
1F
100
AcDbEntity
  8
TITLE
100
AcDbMText
 10
127.1628369693
 20
99.7472007792
 30
0.0
 40
0.125
 41
0.0
 71
     2
 72
     1
  1
12
  7
SLDTEXTSTYLE0
 73
     1
 44
1.0
  0
MTEXT
  5
28E
330
1F
100
AcDbEntity
  8
TITLE
100
AcDbMText
 10
129.1313409063
 20
0.4125551099
 30
0.0
 40
0.125
 41
0.0
 71
     2
 72
     1
  1
11
  7
SLDTEXTSTYLE0
 73
     1
 44
1.0
  0
MTEXT
  5
28F
330
1F
100
AcDbEntity
  8
TITLE
100
AcDbMText
 10
129.1313409063
 20
99.7472007792
 30
0.0
 40
0.125
 41
0.0
 71
     2
 72
     1
  1
11
  7
SLDTEXTSTYLE0
 73
     1
 44
1.0
  0
MTEXT
  5
290
330
1F
100
AcDbEntity
  8
TITLE
100
AcDbMText
 10
131.0998448434
 20
0.4125551099
 30
0.0
 40
0.125
 41
0.0
 71
     2
 72
     1
  1
10
  7
SLDTEXTSTYLE0
 73
     1
 44
1.0
  0
MTEXT
  5
291
330
1F
100
AcDbEntity
  8
TITLE
100
AcDbMText
 10
131.0998448434
 20
99.7472007792
 30
0.0
 40
0.125
 41
0.0
 71
     2
 72
     1
  1
10
  7
SLDTEXTSTYLE0
 73
     1
 44
1.0
  0
MTEXT
  5
292
330
1F
100
AcDbEntity
  8
TITLE
100
AcDbMText
 10
133.069607461
 20
0.4125551099
 30
0.0
 40
0.125
 41
0.0
 71
     2
 72
     1
  1
9
  7
SLDTEXTSTYLE0
 73
     1
 44
1.0
  0
MTEXT
  5
293
330
1F
100
AcDbEntity
  8
TITLE
100
AcDbMText
 10
133.069607461
 20
99.7472007792
 30
0.0
 40
0.125
 41
0.0
 71
     2
 72
     1
  1
9
  7
SLDTEXTSTYLE0
 73
     1
 44
1.0
  0
MTEXT
  5
294
330
1F
100
AcDbEntity
  8
TITLE
100
AcDbMText
 10
135.0381113981
 20
0.4125551099
 30
0.0
 40
0.125
 41
0.0
 71
     2
 72
     1
  1
8
  7
SLDTEXTSTYLE0
 73
     1
 44
1.0
  0
MTEXT
  5
295
330
1F
100
AcDbEntity
  8
TITLE
100
AcDbMText
 10
135.0381113981
 20
99.7472007792
 30
0.0
 40
0.125
 41
0.0
 71
     2
 72
     1
  1
8
  7
SLDTEXTSTYLE0
 73
     1
 44
1.0
  0
MTEXT
  5
296
330
1F
100
AcDbEntity
  8
TITLE
100
AcDbMText
 10
137.0066153351
 20
0.4125551099
 30
0.0
 40
0.125
 41
0.0
 71
     2
 72
     1
  1
7
  7
SLDTEXTSTYLE0
 73
     1
 44
1.0
  0
MTEXT
  5
297
330
1F
100
AcDbEntity
  8
TITLE
100
AcDbMText
 10
137.0066153351
 20
99.7472007792
 30
0.0
 40
0.125
 41
0.0
 71
     2
 72
     1
  1
7
  7
SLDTEXTSTYLE0
 73
     1
 44
1.0
  0
MTEXT
  5
298
330
1F
100
AcDbEntity
  8
TITLE
100
AcDbMText
 10
138.9751192721
 20
0.4125551099
 30
0.0
 40
0.125
 41
0.0
 71
     2
 72
     1
  1
6
  7
SLDTEXTSTYLE0
 73
     1
 44
1.0
  0
MTEXT
  5
299
330
1F
100
AcDbEntity
  8
TITLE
100
AcDbMText
 10
138.9751192721
 20
99.7472007792
 30
0.0
 40
0.125
 41
0.0
 71
     2
 72
     1
  1
6
  7
SLDTEXTSTYLE0
 73
     1
 44
1.0
  0
MTEXT
  5
29A
330
1F
100
AcDbEntity
  8
TITLE
100
AcDbMText
 10
140.9436232091
 20
0.4125551099
 30
0.0
 40
0.125
 41
0.0
 71
     2
 72
     1
  1
5
  7
SLDTEXTSTYLE0
 73
     1
 44
1.0
  0
MTEXT
  5
29B
330
1F
100
AcDbEntity
  8
TITLE
100
AcDbMText
 10
140.9436232091
 20
99.7472007792
 30
0.0
 40
0.125
 41
0.0
 71
     2
 72
     1
  1
5
  7
SLDTEXTSTYLE0
 73
     1
 44
1.0
  0
MTEXT
  5
29C
330
1F
100
AcDbEntity
  8
TITLE
100
AcDbMText
 10
142.9121271461
 20
0.4125551099
 30
0.0
 40
0.125
 41
0.0
 71
     2
 72
     1
  1
4
  7
SLDTEXTSTYLE0
 73
     1
 44
1.0
  0
MTEXT
  5
29D
330
1F
100
AcDbEntity
  8
TITLE
100
AcDbMText
 10
142.9121271461
 20
99.7472007792
 30
0.0
 40
0.125
 41
0.0
 71
     2
 72
     1
  1
4
  7
SLDTEXTSTYLE0
 73
     1
 44
1.0
  0
MTEXT
  5
29E
330
1F
100
AcDbEntity
  8
TITLE
100
AcDbMText
 10
144.8806310831
 20
0.4125551099
 30
0.0
 40
0.125
 41
0.0
 71
     2
 72
     1
  1
3
  7
SLDTEXTSTYLE0
 73
     1
 44
1.0
  0
MTEXT
  5
29F
330
1F
100
AcDbEntity
  8
TITLE
100
AcDbMText
 10
144.8806310831
 20
99.7472007792
 30
0.0
 40
0.125
 41
0.0
 71
     2
 72
     1
  1
3
  7
SLDTEXTSTYLE0
 73
     1
 44
1.0
  0
MTEXT
  5
2A0
330
1F
100
AcDbEntity
  8
TITLE
100
AcDbMText
 10
146.8491350201
 20
0.4125551099
 30
0.0
 40
0.125
 41
0.0
 71
     2
 72
     1
  1
2
  7
SLDTEXTSTYLE0
 73
     1
 44
1.0
  0
MTEXT
  5
2A1
330
1F
100
AcDbEntity
  8
TITLE
100
AcDbMText
 10
146.8491350201
 20
99.7472007792
 30
0.0
 40
0.125
 41
0.0
 71
     2
 72
     1
  1
2
  7
SLDTEXTSTYLE0
 73
     1
 44
1.0
  0
MTEXT
  5
2A2
330
1F
100
AcDbEntity
  8
TITLE
100
AcDbMText
 10
148.666064154
 20
0.4125551099
 30
0.0
 40
0.125
 41
0.0
 71
     2
 72
     1
  1
1
  7
SLDTEXTSTYLE0
 73
     1
 44
1.0
  0
MTEXT
  5
2A3
330
1F
100
AcDbEntity
  8
TITLE
100
AcDbMText
 10
148.666064154
 20
99.7472007792
 30
0.0
 40
0.125
 41
0.0
 71
     2
 72
     1
  1
1
  7
SLDTEXTSTYLE0
 73
     1
 44
1.0
  0
CIRCLE
  5
2A4
330
1F
100
AcDbEntity
  8
0
  6
SLD-Solid
 62
     7
370
    25
100
AcDbCircle
 10
75.8858323341
 20
14.4311888291
 30
0.0
 40
0.3200000000000074
  0
CIRCLE
  5
2A5
330
1F
100
AcDbEntity
  8
0
  6
SLD-Solid
 62
     7
370
    25
100
AcDbCircle
 10
16.6358323341
 20
14.4311888291
 30
0.0
 40
0.3200000000000003
  0
CIRCLE
  5
2A6
330
1F
100
AcDbEntity
  8
0
  6
SLD-Solid
 62
     7
370
    25
100
AcDbCircle
 10
46.2608323341
 20
14.4311888291
 30
0.0
 40
0.3200000000000074
  0
CIRCLE
  5
2A7
330
1F
100
AcDbEntity
  8
0
  6
SLD-Solid
 62
     7
370
    25
100
AcDbCircle
 10
55.1858323341
 20
82.8481888291
 30
0.0
 40
0.2832499999999953
  0
CIRCLE
  5
2A8
330
1F
100
AcDbEntity
  8
0
  6
SLD-Solid
 62
     7
370
    25
100
AcDbCircle
 10
55.1858323341
 20
82.8481888291
 30
0.0
 40
0.1935000000000002
  0
CIRCLE
  5
2A9
330
1F
100
AcDbEntity
  8
0
  6
SLD-Solid
 62
     7
370
    25
100
AcDbCircle
 10
13.1858323341
 20
82.8481888291
 30
0.0
 40
0.1934999999999985
  0
CIRCLE
  5
2AA
330
1F
100
AcDbEntity
  8
0
  6
SLD-Solid
 62
     7
370
    25
100
AcDbCircle
 10
13.1858323341
 20
82.8481888291
 30
0.0
 40
0.2832499999999971
  0
CIRCLE
  5
2AB
330
1F
100
AcDbEntity
  8
0
  6
SLD-Solid
 62
     7
370
    25
100
AcDbCircle
 10
31.1858323341
 20
82.8481888291
 30
0.0
 40
0.1934999999999931
  0
CIRCLE
  5
2AC
330
1F
100
AcDbEntity
  8
0
  6
SLD-Solid
 62
     7
370
    25
100
AcDbCircle
 10
31.1858323341
 20
82.8481888291
 30
0.0
 40
0.2832499999999989
  0
CIRCLE
  5
2AD
330
1F
100
AcDbEntity
  8
0
  6
SLD-Solid
 62
     7
370
    25
100
AcDbCircle
 10
25.1858323341
 20
82.8481888291
 30
0.0
 40
0.1934999999999931
  0
CIRCLE
  5
2AE
330
1F
100
AcDbEntity
  8
0
  6
SLD-Solid
 62
     7
370
    25
100
AcDbCircle
 10
25.1858323341
 20
82.8481888291
 30
0.0
 40
0.2832499999999918
  0
CIRCLE
  5
2AF
330
1F
100
AcDbEntity
  8
0
  6
SLD-Solid
 62
     7
370
    25
100
AcDbCircle
 10
37.1858323341
 20
82.8481888291
 30
0.0
 40
0.1935000000000002
  0
CIRCLE
  5
2B0
330
1F
100
AcDbEntity
  8
0
  6
SLD-Solid
 62
     7
370
    25
100
AcDbCircle
 10
37.1858323341
 20
82.8481888291
 30
0.0
 40
0.2832499999999953
  0
CIRCLE
  5
2B1
330
1F
100
AcDbEntity
  8
0
  6
SLD-Solid
 62
     7
370
    25
100
AcDbCircle
 10
19.1858323341
 20
82.8481888291
 30
0.0
 40
0.2832499999999989
  0
CIRCLE
  5
2B2
330
1F
100
AcDbEntity
  8
0
  6
SLD-Solid
 62
     7
370
    25
100
AcDbCircle
 10
19.1858323341
 20
82.8481888291
 30
0.0
 40
0.1935000000000002
  0
CIRCLE
  5
2B3
330
1F
100
AcDbEntity
  8
0
  6
SLD-Solid
 62
     7
370
    25
100
AcDbCircle
 10
49.1858323341
 20
82.8481888291
 30
0.0
 40
0.1934999999999931
  0
CIRCLE
  5
2B4
330
1F
100
AcDbEntity
  8
0
  6
SLD-Solid
 62
     7
370
    25
100
AcDbCircle
 10
49.1858323341
 20
82.8481888291
 30
0.0
 40
0.2832499999999882
  0
CIRCLE
  5
2B5
330
1F
100
AcDbEntity
  8
0
  6
SLD-Solid
 62
     7
370
    25
100
AcDbCircle
 10
43.1858323341
 20
82.8481888291
 30
0.0
 40
0.193499999999986
  0
CIRCLE
  5
2B6
330
1F
100
AcDbEntity
  8
0
  6
SLD-Solid
 62
     7
370
    25
100
AcDbCircle
 10
43.1858323341
 20
82.8481888291
 30
0.0
 40
0.2832499999999811
  0
CIRCLE
  5
2B7
330
1F
100
AcDbEntity
  8
0
  6
SLD-Solid
 62
     7
370
    25
100
AcDbCircle
 10
67.1858323341
 20
82.8481888291
 30
0.0
 40
0.2832499999999953
  0
CIRCLE
  5
2B8
330
1F
100
AcDbEntity
  8
0
  6
SLD-Solid
 62
     7
370
    25
100
AcDbCircle
 10
67.1858323341
 20
82.8481888291
 30
0.0
 40
0.1935000000000144
  0
CIRCLE
  5
2B9
330
1F
100
AcDbEntity
  8
0
  6
SLD-Solid
 62
     7
370
    25
100
AcDbCircle
 10
79.1858323341
 20
82.8481888291
 30
0.0
 40
0.2832499999999953
  0
CIRCLE
  5
2BA
330
1F
100
AcDbEntity
  8
0
  6
SLD-Solid
 62
     7
370
    25
100
AcDbCircle
 10
79.1858323341
 20
82.8481888291
 30
0.0
 40
0.193499999999986
  0
CIRCLE
  5
2BB
330
1F
100
AcDbEntity
  8
0
  6
SLD-Solid
 62
     7
370
    25
100
AcDbCircle
 10
61.1858323341
 20
82.8481888291
 30
0.0
 40
0.2832499999999953
  0
CIRCLE
  5
2BC
330
1F
100
AcDbEntity
  8
0
  6
SLD-Solid
 62
     7
370
    25
100
AcDbCircle
 10
61.1858323341
 20
82.8481888291
 30
0.0
 40
0.1934999999999931
  0
CIRCLE
  5
2BD
330
1F
100
AcDbEntity
  8
0
  6
SLD-Solid
 62
     7
370
    25
100
AcDbCircle
 10
73.1858323341
 20
82.8481888291
 30
0.0
 40
0.2832499999999953
  0
CIRCLE
  5
2BE
330
1F
100
AcDbEntity
  8
0
  6
SLD-Solid
 62
     7
370
    25
100
AcDbCircle
 10
73.1858323341
 20
82.8481888291
 30
0.0
 40
0.1935000000000002
  0
LINE
  5
2BF
330
1F
100
AcDbEntity
  8
0
  6
SLD-Solid
 62
     7
370
    25
100
AcDbLine
 10
81.8858323341
 20
83.4311888291
 30
0.0
 11
10.6358323341
 21
83.4311888291
 31
0.0
  0
LINE
  5
2C0
330
1F
100
AcDbEntity
  8
0
  6
SLD-Solid
 62
     7
370
    25
100
AcDbLine
 10
81.8858323341
 20
11.4311888291
 30
0.0
 11
81.8858323341
 21
83.4311888291
 31
0.0
  0
LINE
  5
2C1
330
1F
100
AcDbEntity
  8
0
  6
SLD-Solid
 62
     7
370
    25
100
AcDbLine
 10
10.6358323341
 20
11.4311888291
 30
0.0
 11
81.8858323341
 21
11.4311888291
 31
0.0
  0
LINE
  5
2C2
330
1F
100
AcDbEntity
  8
0
  6
SLD-Solid
 62
     7
370
    25
100
AcDbLine
 10
10.6358323341
 20
83.4311888291
 30
0.0
 11
10.6358323341
 21
11.4311888291
 31
0.0
  0
DIMENSION
  5
2C3
330
1F
100
AcDbEntity
  8
DIMS
100
AcDbDimension
  2
_D
 10
10.6358323341
 20
85.9508738684
 30
0.0
 11
43.987460245
 21
85.9508738684
 31
0.0
 70
   160
  1
<>
 71
     2
 42
-1.0
  3
SLDDIMSTYLE0
100
AcDbAlignedDimension
 13
81.8858323341
 23
83.4311888291
 33
0.0
 14
10.6358323341
 24
83.4311888291
 34
0.0
100
AcDbRotatedDimension
  0
DIMENSION
  5
2D9
330
1F
100
AcDbEntity
  8
DIMS
100
AcDbDimension
  2
_D_1
 10
84.8779583184
 20
83.4311888291
 30
0.0
 11
84.8779583184
 21
48.8450803417
 31
0.0
 70
   160
  1
<>
 71
     2
 42
-1.0
  3
SLDDIMSTYLE1
100
AcDbAlignedDimension
 13
81.8858323341
 23
11.4311888291
 33
0.0
 14
81.8858323341
 24
83.4311888291
 34
0.0
 50
90.0
100
AcDbRotatedDimension
  0
LINE
  5
2E5
330
1F
100
AcDbEntity
  8
0
  6
SLD-Solid
 62
     7
370
    25
100
AcDbLine
 10
141.7244900953
 20
68.0630332736
 30
0.0
 11
141.7068124258
 21
68.0528281722
 31
0.0
  0
LINE
  5
2E6
330
1F
100
AcDbEntity
  8
0
  6
SLD-Solid
 62
     7
370
    25
100
AcDbLine
 10
141.9900394068
 20
67.5622114917
 30
0.0
 11
142.0077170763
 21
67.5724165931
 31
0.0
  0
LINE
  5
2E7
330
1F
100
AcDbEntity
  8
0
  6
SLD-Solid
 62
     7
370
    25
100
AcDbLine
 10
137.4818494082
 20
70.5122576091
 30
0.0
 11
137.4641717386
 21
70.5020525077
 31
0.0
  0
LINE
  5
2E8
330
1F
100
AcDbEntity
  8
0
  6
SLD-Solid
 62
     7
370
    25
100
AcDbLine
 10
137.7473987197
 20
70.0114358272
 30
0.0
 11
137.7650763892
 21
70.0216409286
 31
0.0
  0
LINE
  5
2E9
330
1F
100
AcDbEntity
  8
0
  6
SLD-Solid
 62
     7
370
    25
100
AcDbLine
 10
133.2392087211
 20
72.9614819446
 30
0.0
 11
133.2215310515
 21
72.9512768432
 31
0.0
  0
LINE
  5
2EA
330
1F
100
AcDbEntity
  8
0
  6
SLD-Solid
 62
     7
370
    25
100
AcDbLine
 10
133.5047580325
 20
72.4606601626
 30
0.0
 11
133.5224357021
 21
72.470865264
 31
0.0
  0
LINE
  5
2EB
330
1F
100
AcDbEntity
  8
0
  6
SLD-Solid
 62
     7
370
    25
100
AcDbLine
 10
128.9965680339
 20
75.41070628
 30
0.0
 11
128.9788903644
 21
75.4005011786
 31
0.0
  0
LINE
  5
2EC
330
1F
100
AcDbEntity
  8
0
  6
SLD-Solid
 62
     7
370
    25
100
AcDbLine
 10
129.2621173454
 20
74.9098844981
 30
0.0
 11
129.279795015
 21
74.9200895995
 31
0.0
  0
LINE
  5
2ED
330
1F
100
AcDbEntity
  8
0
  6
SLD-Solid
 62
     7
370
    25
100
AcDbLine
 10
124.7539273468
 20
77.8599306155
 30
0.0
 11
124.7362496773
 21
77.8497255141
 31
0.0
  0
LINE
  5
2EE
330
1F
100
AcDbEntity
  8
0
  6
SLD-Solid
 62
     7
370
    25
100
AcDbLine
 10
125.0194766583
 20
77.3591088336
 30
0.0
 11
125.0371543278
 21
77.369313935
 31
0.0
  0
LINE
  5
2EF
330
1F
100
AcDbEntity
  8
0
  6
SLD-Solid
 62
     7
370
    25
100
AcDbLine
 10
120.5112866597
 20
80.309154951
 30
0.0
 11
120.4936089902
 21
80.2989498496
 31
0.0
  0
LINE
  5
2F0
330
1F
100
AcDbEntity
  8
0
  6
SLD-Solid
 62
     7
370
    25
100
AcDbLine
 10
120.7768359712
 20
79.808333169
 30
0.0
 11
120.7945136407
 21
79.8185382704
 31
0.0
  0
LINE
  5
2F1
330
1F
100
AcDbEntity
  8
0
  6
SLD-Solid
 62
     7
370
    25
100
AcDbLine
 10
116.2686459726
 20
82.7583792864
 30
0.0
 11
116.250968303
 21
82.748174185
 31
0.0
  0
LINE
  5
2F2
330
1F
100
AcDbEntity
  8
0
  6
SLD-Solid
 62
     7
370
    25
100
AcDbLine
 10
116.5341952841
 20
82.2575575045
 30
0.0
 11
116.5518729536
 21
82.2677626059
 31
0.0
  0
LINE
  5
2F3
330
1F
100
AcDbEntity
  8
0
  6
SLD-Solid
 62
     7
370
    25
100
AcDbLine
 10
112.0260052855
 20
85.2076036219
 30
0.0
 11
112.0083276159
 21
85.1973985205
 31
0.0
  0
LINE
  5
2F4
330
1F
100
AcDbEntity
  8
0
  6
SLD-Solid
 62
     7
370
    25
100
AcDbLine
 10
112.2915545969
 20
84.70678184
 30
0.0
 11
112.3092322665
 21
84.7169869414
 31
0.0
  0
LINE
  5
2F5
330
1F
100
AcDbEntity
  8
0
  6
SLD-Solid
 62
     7
370
    25
100
AcDbLine
 10
107.7833645983
 20
87.6568279574
 30
0.0
 11
107.7656869288
 21
87.646622856
 31
0.0
  0
LINE
  5
2F6
330
1F
100
AcDbEntity
  8
0
  6
SLD-Solid
 62
     7
370
    25
100
AcDbLine
 10
108.0489139098
 20
87.1560061754
 30
0.0
 11
108.0665915794
 21
87.1662112768
 31
0.0
  0
LINE
  5
2F7
330
1F
100
AcDbEntity
  8
0
  6
SLD-Solid
 62
     7
370
    25
100
AcDbLine
 10
103.5407239112
 20
90.1060522929
 30
0.0
 11
103.5230462417
 21
90.0958471915
 31
0.0
  0
LINE
  5
2F8
330
1F
100
AcDbEntity
  8
0
  6
SLD-Solid
 62
     7
370
    25
100
AcDbLine
 10
103.8062732227
 20
89.6052305109
 30
0.0
 11
103.8239508922
 21
89.6154356123
 31
0.0
  0
LINE
  5
2F9
330
1F
100
AcDbEntity
  8
0
  6
SLD-Solid
 62
     7
370
    25
100
AcDbLine
 10
99.2980832241
 20
92.5552766283
 30
0.0
 11
99.2804055546
 21
92.5450715269
 31
0.0
  0
LINE
  5
2FA
330
1F
100
AcDbEntity
  8
0
  6
SLD-Solid
 62
     7
370
    25
100
AcDbLine
 10
99.5636325356
 20
92.0544548464
 30
0.0
 11
99.5813102051
 21
92.0646599478
 31
0.0
  0
LINE
  5
2FB
330
1F
100
AcDbEntity
  8
0
  6
SLD-Solid
 62
     7
370
    25
100
AcDbLine
 10
95.055442537
 20
95.0045009638
 30
0.0
 11
95.0377648675
 21
94.9942958624
 31
0.0
  0
LINE
  5
2FC
330
1F
100
AcDbEntity
  8
0
  6
SLD-Solid
 62
     7
370
    25
100
AcDbLine
 10
95.3209918485
 20
94.5036791819
 30
0.0
 11
95.338669518
 21
94.5138842832
 31
0.0
  0
SPLINE
  5
2FD
330
1F
100
AcDbEntity
  8
0
  6
SLD-Solid
 62
     7
370
    25
100
AcDbSpline
210
0.0
220
0.0
230
1.0
 70
     8
 71
     3
 72
    24
 73
    20
 74
     0
 42
0.00000001
 43
0.00000001
 40
0.0
 40
0.0
 40
0.0
 40
0.0
 40
0.0550690585855905
 40
0.112558741579909
 40
0.1713111064287473
 40
0.2329129055540404
 40
0.2970362124526966
 40
0.3622197774040378
 40
0.4272884524535023
 40
0.492143976081284
 40
0.556958663569347
 40
0.6219571366610791
 40
0.6873686838197953
 40
0.7534737163822649
 40
0.8203910715815774
 40
0.8801136407251057
 40
0.9370517029564521
 40
0.9982598812520195
 40
1.0
 40
1.0
 40
1.0
 40
1.0
 10
139.3388454857397
 20
13.55673089881867
 30
0.0
 10
139.327777923267
 20
13.54940831730806
 30
0.0
 10
139.305156310763
 20
13.53444128171457
 30
0.0
 10
139.2805978027319
 20
13.50002045313815
 30
0.0
 10
139.2636678143819
 20
13.45872516383556
 30
0.0
 10
139.2555495346968
 20
13.41053970186796
 30
0.0
 10
139.2565351342845
 20
13.35669238397467
 30
0.0
 10
139.2668912578175
 20
13.29917910539018
 30
0.0
 10
139.2861223013835
 20
13.2406709308618
 30
0.0
 10
139.3132929519621
 20
13.18362581046211
 30
0.0
 10
139.3473220452656
 20
13.13014773187361
 30
0.0
 10
139.3870314286625
 20
13.08217801363263
 30
0.0
 10
139.4311962292114
 20
13.04151676322432
 30
0.0
 10
139.4786444000247
 20
13.00980542035592
 30
0.0
 10
139.5262373654065
 20
12.98965574106069
 30
0.0
 10
139.5722220443029
 20
12.980977772951
 30
0.0
 10
139.6151980206845
 20
12.98468656335518
 30
0.0
 10
139.6442860710593
 20
12.99220993130335
 30
0.0
 10
139.6561918514675
 20
13.00149441541851
 30
0.0
 10
139.6565209703265
 20
13.00175107216115
 30
0.0
  0
SPLINE
  5
2FE
330
1F
100
AcDbEntity
  8
0
  6
SLD-Solid
 62
     7
370
    25
100
AcDbSpline
210
0.0
220
0.0
230
1.0
 70
     8
 71
     3
 72
    24
 73
    20
 74
     0
 42
0.00000001
 43
0.00000001
 40
0.0
 40
0.0
 40
0.0
 40
0.0
 40
0.0420760340791492
 40
0.099933102454173
 40
0.1590609217985691
 40
0.2210563846083033
 40
0.2855894687798837
 40
0.3511895865382831
 40
0.4166740801957193
 40
0.4819440602963488
 40
0.5471729432956575
 40
0.6125867863727413
 40
0.6784163432491211
 40
0.7449438172183059
 40
0.8122888049376799
 40
0.8723930286261661
 40
0.929694951129149
 40
0.9912942776919423
 40
1.0
 40
1.0
 40
1.0
 40
1.0
 10
118.3831859533813
 20
25.64404553367056
 30
0.0
 10
118.3748348368545
 20
25.63842547955915
 30
0.0
 10
118.3550004346411
 20
25.62507751424812
 30
0.0
 10
118.3326264685119
 20
25.59298652302765
 30
0.0
 10
118.3156103335054
 20
25.55179283222266
 30
0.0
 10
118.3075165935794
 20
25.50357842890405
 30
0.0
 10
118.3084952289689
 20
25.44973932425474
 30
0.0
 10
118.3188532718394
 20
25.39222378244961
 30
0.0
 10
118.3380838028202
 20
25.33371621102017
 30
0.0
 10
118.3652545780413
 20
25.27667094892589
 30
0.0
 10
118.3992836833779
 20
25.22319283635545
 30
0.0
 10
118.4389928933246
 20
25.17522339688751
 30
0.0
 10
118.4831583825828
 20
25.13456105441893
 30
0.0
 10
118.530603933239
 20
25.10285386240148
 30
0.0
 10
118.5782064602288
 20
25.0826890366133
 30
0.0
 10
118.6241595198787
 20
25.07406115614465
 30
0.0
 10
118.6672480405661
 20
25.07759166662595
 30
0.0
 10
118.6976969163902
 20
25.08604898438621
 30
0.0
 10
118.7107922050442
 20
25.09653879958624
 30
0.0
 10
118.7124137663459
 20
25.09783773073927
 30
0.0
  0
SPLINE
  5
2FF
330
1F
100
AcDbEntity
  8
0
  6
SLD-Solid
 62
     7
370
    25
100
AcDbSpline
210
0.0
220
0.0
230
1.0
 70
     8
 71
     3
 72
    24
 73
    20
 74
     0
 42
0.00000001
 43
0.00000001
 40
0.0
 40
0.0
 40
0.0
 40
0.0
 40
0.0550690585855935
 40
0.1125587415799121
 40
0.1713111064287522
 40
0.2329129055540465
 40
0.2970362124527049
 40
0.3622197774040714
 40
0.4272884524535129
 40
0.4921439760812965
 40
0.5569586635693612
 40
0.6219571366611024
 40
0.687368683819831
 40
0.7534737163822952
 40
0.8203910715816083
 40
0.8801136407251435
 40
0.937051702956489
 40
0.998259881252061
 40
1.0
 40
1.0
 40
1.0
 40
1.0
 10
97.44276870043686
 20
37.74282121156646
 30
0.0
 10
97.43170113796414
 20
37.73549863005586
 30
0.0
 10
97.40907952546009
 20
37.72053159446237
 30
0.0
 10
97.38452101742904
 20
37.68611076588595
 30
0.0
 10
97.367591029079
 20
37.64481547658337
 30
0.0
 10
97.35947274939386
 20
37.59663001461576
 30
0.0
 10
97.36045834898164
 20
37.54278269672246
 30
0.0
 10
97.37081447251461
 20
37.48526941813797
 30
0.0
 10
97.3900455160806
 20
37.42676124360959
 30
0.0
 10
97.41721616665917
 20
37.3697161232099
 30
0.0
 10
97.45124525996273
 20
37.3162380446214
 30
0.0
 10
97.49095464335961
 20
37.26826832638042
 30
0.0
 10
97.53511944390853
 20
37.22760707597211
 30
0.0
 10
97.58256761472185
 20
37.19589573310373
 30
0.0
 10
97.63016058010365
 20
37.17574605380847
 30
0.0
 10
97.67614525900001
 20
37.16706808569881
 30
0.0
 10
97.71912123538169
 20
37.17077687610296
 30
0.0
 10
97.74820928575635
 20
37.17830024405124
 30
0.0
 10
97.76011506616463
 20
37.18758472816631
 30
0.0
 10
97.7604441850236
 20
37.18784138490895
 30
0.0
  0
LWPOLYLINE
  5
300
330
1F
100
AcDbEntity
  8
0
  6
SLD-Solid
 62
     7
370
    25
100
AcDbPolyline
 90
       16
 70
   128
 43
0.0
 10
142.0077170763
 20
67.5724165931
 10
142.0226950465
 20
67.5831226532
 10
142.0465568346
 20
67.6132006094
 10
142.0613699434
 20
67.6535342692
 10
142.0663915816
 20
67.7021011345
 10
142.0613699434
 20
67.7564658599
 10
142.0465568346
 20
67.8139023711
 10
142.0226950465
 20
67.8715305615
 10
141.9909811086
 20
67.926460713
 10
141.9530052903
 20
67.9759383985
 10
141.9106718577
 20
68.0174826002
 10
141.8661035858
 20
68.0490101183
 10
141.8215353139
 20
68.0689400316
 10
141.7792018813
 20
68.0762729708
 10
141.741226063
 20
68.0706412318
 10
141.7244900953
 20
68.0630332736
  0
LWPOLYLINE
  5
301
330
1F
100
AcDbEntity
  8
0
  6
SLD-Solid
 62
     7
370
    25
100
AcDbPolyline
 90
       16
 70
   128
 43
0.0
 10
133.5224357021
 20
72.470865264
 10
133.5374136722
 20
72.4815713241
 10
133.5612754604
 20
72.5116492803
 10
133.5760885691
 20
72.5519829401
 10
133.5811102073
 20
72.6005498055
 10
133.5760885691
 20
72.6549145309
 10
133.5612754604
 20
72.712351042
 10
133.5374136722
 20
72.7699792324
 10
133.5056997344
 20
72.8249093839
 10
133.4677239161
 20
72.8743870694
 10
133.4253904834
 20
72.9159312711
 10
133.3808222116
 20
72.9474587893
 10
133.3362539397
 20
72.9673887025
 10
133.2939205071
 20
72.9747216417
 10
133.2559446888
 20
72.9690899028
 10
133.2392087211
 20
72.9614819446
  0
LWPOLYLINE
  5
302
330
1F
100
AcDbEntity
  8
0
  6
SLD-Solid
 62
     7
370
    25
100
AcDbPolyline
 90
       16
 70
   128
 43
0.0
 10
125.0371543278
 20
77.369313935
 10
125.052132298
 20
77.380019995
 10
125.0759940861
 20
77.4100979512
 10
125.0908071949
 20
77.4504316111
 10
125.0958288331
 20
77.4989984764
 10
125.0908071949
 20
77.5533632018
 10
125.0759940861
 20
77.610799713
 10
125.052132298
 20
77.6684279033
 10
125.0204183601
 20
77.7233580548
 10
124.9824425418
 20
77.7728357403
 10
124.9401091092
 20
77.814379942
 10
124.8955408373
 20
77.8459074602
 10
124.8509725654
 20
77.8658373734
 10
124.8086391328
 20
77.8731703127
 10
124.7706633145
 20
77.8675385737
 10
124.7539273468
 20
77.8599306155
  0
LWPOLYLINE
  5
303
330
1F
100
AcDbEntity
  8
0
  6
SLD-Solid
 62
     7
370
    25
100
AcDbPolyline
 90
       16
 70
   128
 43
0.0
 10
116.5518729536
 20
82.2677626059
 10
116.5668509237
 20
82.278468666
 10
116.5907127119
 20
82.3085466222
 10
116.6055258206
 20
82.348880282
 10
116.6105474589
 20
82.3974471473
 10
116.6055258206
 20
82.4518118727
 10
116.5907127119
 20
82.5092483839
 10
116.5668509237
 20
82.5668765743
 10
116.5351369859
 20
82.6218067258
 10
116.4971611676
 20
82.6712844113
 10
116.454827735
 20
82.712828613
 10
116.4102594631
 20
82.7443561311
 10
116.3656911912
 20
82.7642860444
 10
116.3233577586
 20
82.7716189836
 10
116.2853819403
 20
82.7659872446
 10
116.2686459726
 20
82.7583792864
  0
LWPOLYLINE
  5
304
330
1F
100
AcDbEntity
  8
0
  6
SLD-Solid
 62
     7
370
    25
100
AcDbPolyline
 90
       16
 70
   128
 43
0.0
 10
108.0665915794
 20
87.1662112768
 10
108.0815695495
 20
87.1769173369
 10
108.1054313377
 20
87.2069952931
 10
108.1202444464
 20
87.2473289529
 10
108.1252660846
 20
87.2958958183
 10
108.1202444464
 20
87.3502605437
 10
108.1054313377
 20
87.4076970548
 10
108.0815695495
 20
87.4653252452
 10
108.0498556116
 20
87.5202553967
 10
108.0118797934
 20
87.5697330822
 10
107.9695463607
 20
87.6112772839
 10
107.9249780888
 20
87.6428048021
 10
107.880409817
 20
87.6627347153
 10
107.8380763843
 20
87.6700676545
 10
107.800100566
 20
87.6644359156
 10
107.7833645983
 20
87.6568279574
  0
LWPOLYLINE
  5
305
330
1F
100
AcDbEntity
  8
0
  6
SLD-Solid
 62
     7
370
    25
100
AcDbPolyline
 90
       16
 70
   128
 43
0.0
 10
99.5813102051
 20
92.0646599478
 10
99.5962881753
 20
92.0753660078
 10
99.6201499634
 20
92.1054439641
 10
99.6349630722
 20
92.1457776239
 10
99.6399847104
 20
92.1943444892
 10
99.6349630722
 20
92.2487092146
 10
99.6201499634
 20
92.3061457258
 10
99.5962881753
 20
92.3637739161
 10
99.5645742374
 20
92.4187040677
 10
99.5265984191
 20
92.4681817531
 10
99.4842649865
 20
92.5097259548
 10
99.4396967146
 20
92.541253473
 10
99.3951284427
 20
92.5611833863
 10
99.3527950101
 20
92.5685163255
 10
99.3148191918
 20
92.5628845865
 10
99.2980832241
 20
92.5552766283
  0
LINE
  5
306
330
1F
100
AcDbEntity
  8
0
  6
SLD-Solid
 62
     7
370
    25
100
AcDbLine
 10
143.775291895
 20
67.1916172757
 30
0.0
 11
93.3939337355
 21
96.2761562594
 31
0.0
  0
LINE
  5
307
330
1F
100
AcDbEntity
  8
0
  6
SLD-Solid
 62
     7
370
    25
100
AcDbLine
 10
143.775291895
 20
8.40067882
 30
0.0
 11
143.775291895
 21
67.1916172757
 31
0.0
  0
LINE
  5
308
330
1F
100
AcDbEntity
  8
0
  6
SLD-Solid
 62
     7
370
    25
100
AcDbLine
 10
93.3939337355
 20
37.4852178036
 30
0.0
 11
143.775291895
 21
8.40067882
 31
0.0
  0
LINE
  5
309
330
1F
100
AcDbEntity
  8
0
  6
SLD-Solid
 62
     7
370
    25
100
AcDbLine
 10
93.3939337355
 20
96.2761562594
 30
0.0
 11
93.3939337355
 21
37.4852178036
 31
0.0
  0
LWPOLYLINE
  5
30A
330
1F
100
AcDbEntity
  8
0
  6
SLD-Solid
 62
     7
370
    25
100
AcDbPolyline
 90
       16
 70
   128
 43
0.0
 10
95.338669518
 20
94.5138842832
 10
95.3536474881
 20
94.5245903433
 10
95.3775092763
 20
94.5546682995
 10
95.392322385
 20
94.5950019593
 10
95.3973440233
 20
94.6435688247
 10
95.392322385
 20
94.6979335501
 10
95.3775092763
 20
94.7553700612
 10
95.3536474881
 20
94.8129982516
 10
95.3219335503
 20
94.8679284031
 10
95.283957732
 20
94.9174060886
 10
95.2416242994
 20
94.9589502903
 10
95.1970560275
 20
94.9904778085
 10
95.1524877556
 20
95.0104077217
 10
95.110154323
 20
95.0177406609
 10
95.0721785047
 20
95.012108922
 10
95.055442537
 20
95.0045009638
  0
LWPOLYLINE
  5
30B
330
1F
100
AcDbEntity
  8
0
  6
SLD-Solid
 62
     7
370
    25
100
AcDbPolyline
 90
       16
 70
   128
 43
0.0
 10
103.8239508922
 20
89.6154356123
 10
103.8389288624
 20
89.6261416724
 10
103.8627906505
 20
89.6562196286
 10
103.8776037593
 20
89.6965532884
 10
103.8826253975
 20
89.7451201537
 10
103.8776037593
 20
89.7994848792
 10
103.8627906505
 20
89.8569213903
 10
103.8389288624
 20
89.9145495807
 10
103.8072149245
 20
89.9694797322
 10
103.7692391062
 20
90.0189574177
 10
103.7269056736
 20
90.0605016194
 10
103.6823374017
 20
90.0920291375
 10
103.6377691298
 20
90.1119590508
 10
103.5954356972
 20
90.11929199
 10
103.5574598789
 20
90.113660251
 10
103.5407239112
 20
90.1060522929
  0
LWPOLYLINE
  5
30C
330
1F
100
AcDbEntity
  8
0
  6
SLD-Solid
 62
     7
370
    25
100
AcDbPolyline
 90
       16
 70
   128
 43
0.0
 10
112.3092322665
 20
84.7169869414
 10
112.3242102366
 20
84.7276930014
 10
112.3480720248
 20
84.7577709576
 10
112.3628851335
 20
84.7981046175
 10
112.3679067717
 20
84.8466714828
 10
112.3628851335
 20
84.9010362082
 10
112.3480720248
 20
84.9584727194
 10
112.3242102366
 20
85.0161009097
 10
112.2924962988
 20
85.0710310613
 10
112.2545204805
 20
85.1205087467
 10
112.2121870478
 20
85.1620529484
 10
112.167618776
 20
85.1935804666
 10
112.1230505041
 20
85.2135103798
 10
112.0807170715
 20
85.2208433191
 10
112.0427412532
 20
85.2152115801
 10
112.0260052855
 20
85.2076036219
  0
LWPOLYLINE
  5
30D
330
1F
100
AcDbEntity
  8
0
  6
SLD-Solid
 62
     7
370
    25
100
AcDbPolyline
 90
       16
 70
   128
 43
0.0
 10
120.7945136407
 20
79.8185382704
 10
120.8094916109
 20
79.8292443305
 10
120.833353399
 20
79.8593222867
 10
120.8481665078
 20
79.8996559465
 10
120.853188146
 20
79.9482228119
 10
120.8481665078
 20
80.0025875373
 10
120.833353399
 20
80.0600240484
 10
120.8094916109
 20
80.1176522388
 10
120.777777673
 20
80.1725823903
 10
120.7398018547
 20
80.2220600758
 10
120.6974684221
 20
80.2636042775
 10
120.6529001502
 20
80.2951317957
 10
120.6083318783
 20
80.3150617089
 10
120.5659984457
 20
80.3223946481
 10
120.5280226274
 20
80.3167629092
 10
120.5112866597
 20
80.309154951
  0
LWPOLYLINE
  5
30E
330
1F
100
AcDbEntity
  8
0
  6
SLD-Solid
 62
     7
370
    25
100
AcDbPolyline
 90
       16
 70
   128
 43
0.0
 10
129.279795015
 20
74.9200895995
 10
129.2947729851
 20
74.9307956596
 10
129.3186347732
 20
74.9608736158
 10
129.333447882
 20
75.0012072756
 10
129.3384695202
 20
75.0497741409
 10
129.333447882
 20
75.1041388663
 10
129.3186347732
 20
75.1615753775
 10
129.2947729851
 20
75.2192035679
 10
129.2630590472
 20
75.2741337194
 10
129.2250832289
 20
75.3236114049
 10
129.1827497963
 20
75.3651556066
 10
129.1381815244
 20
75.3966831247
 10
129.0936132526
 20
75.416613038
 10
129.0512798199
 20
75.4239459772
 10
129.0133040016
 20
75.4183142382
 10
128.9965680339
 20
75.41070628
  0
LWPOLYLINE
  5
30F
330
1F
100
AcDbEntity
  8
0
  6
SLD-Solid
 62
     7
370
    25
100
AcDbPolyline
 90
       16
 70
   128
 43
0.0
 10
137.7650763892
 20
70.0216409286
 10
137.7800543593
 20
70.0323469886
 10
137.8039161475
 20
70.0624249448
 10
137.8187292562
 20
70.1027586047
 10
137.8237508945
 20
70.15132547
 10
137.8187292562
 20
70.2056901954
 10
137.8039161475
 20
70.2631267066
 10
137.7800543593
 20
70.3207548969
 10
137.7483404215
 20
70.3756850484
 10
137.7103646032
 20
70.4251627339
 10
137.6680311706
 20
70.4667069356
 10
137.6234628987
 20
70.4982344538
 10
137.5788946268
 20
70.518164367
 10
137.5365611942
 20
70.5254973063
 10
137.4985853759
 20
70.5198655673
 10
137.4818494082
 20
70.5122576091
  0
LINE
  5
310
330
1F
100
AcDbEntity
  8
0
  6
SLD-Solid
 62
     7
370
    25
100
AcDbLine
 10
143.775291895
 20
8.40067882
 30
0.0
 11
143.8106472341
 21
8.4210890228
 31
0.0
  0
LINE
  5
311
330
1F
100
AcDbEntity
  8
0
  6
SLD-Solid
 62
     7
370
    25
100
AcDbLine
 10
143.775291895
 20
67.1916172757
 30
0.0
 11
143.8106472341
 21
67.2120274785
 31
0.0
  0
LINE
  5
312
330
1F
100
AcDbEntity
  8
0
  6
SLD-Solid
 62
     7
370
    25
100
AcDbLine
 10
143.8106472341
 20
8.4210890228
 30
0.0
 11
143.8106472341
 21
67.2120274785
 31
0.0
  0
LINE
  5
313
330
1F
100
AcDbEntity
  8
0
  6
SLD-Solid
 62
     7
370
    25
100
AcDbLine
 10
93.3939337355
 20
96.2761562594
 30
0.0
 11
93.4292890745
 21
96.2965664622
 31
0.0
  0
LINE
  5
314
330
1F
100
AcDbEntity
  8
0
  6
SLD-Solid
 62
     7
370
    25
100
AcDbLine
 10
143.8106472341
 20
67.2120274785
 30
0.0
 11
93.4292890745
 21
96.2965664622
 31
0.0
  0
LWPOLYLINE
  5
315
330
1F
100
AcDbEntity
  8
0
  6
SLD-Solid
 62
     7
370
    25
100
AcDbPolyline
 90
       24
 70
   128
 43
0.0
 10
141.9852510784
 20
67.7285323472
 10
141.9801772303
 20
67.7740894818
 10
141.9653319899
 20
67.8221259926
 10
141.9418163608
 20
67.8690792312
 10
141.9113743897
 20
67.9114668908
 10
141.8762638182
 20
67.9461452726
 10
141.839088637
 20
67.9705424397
 10
141.802605959
 20
67.9828489657
 10
141.7695215377
 20
67.9821521319
 10
141.7422890931
 20
67.9685036193
 10
141.7229283312
 20
67.9429156757
 10
141.7128751511
 20
67.9072860418
 10
141.7128751511
 20
67.8642572044
 10
141.7229283312
 20
67.8170204157
 10
141.7422890931
 20
67.7690790122
 10
141.7695215377
 20
67.7239885884
 10
141.802605959
 20
67.6850932948
 10
141.839088637
 20
67.6552778174
 10
141.8762638182
 20
67.6367534338
 10
141.9113743897
 20
67.6308940127
 10
141.9418163608
 20
67.6381341207
 10
141.9653319899
 20
67.6579367919
 10
141.9801772303
 20
67.6888333529
 10
141.9852510784
 20
67.7285323472
  0
LWPOLYLINE
  5
316
330
1F
100
AcDbEntity
  8
0
  6
SLD-Solid
 62
     7
370
    25
100
AcDbPolyline
 90
       29
 70
   128
 43
0.0
 10
142.048713912
 20
67.6918960331
 10
142.0436922738
 20
67.7462607585
 10
142.0288791651
 20
67.8036972697
 10
142.0050173769
 20
67.8613254601
 10
141.9733034391
 20
67.9162556116
 10
141.9353276208
 20
67.9657332971
 10
141.8929941882
 20
68.0072774988
 10
141.8484259163
 20
68.0388050169
 10
141.8038576444
 20
68.0587349302
 10
141.7615242118
 20
68.0660678694
 10
141.7235483935
 20
68.0604361304
 10
141.6918344556
 20
68.0421221122
 10
141.6679726675
 20
68.012044156
 10
141.6531595587
 20
67.9717104961
 10
141.6481379205
 20
67.9231436308
 10
141.6531595587
 20
67.8687789054
 10
141.6679726675
 20
67.8113423943
 10
141.6918344556
 20
67.7537142039
 10
141.7235483935
 20
67.6987840524
 10
141.7615242118
 20
67.6493063669
 10
141.8038576444
 20
67.6077621652
 10
141.8484259163
 20
67.576234647
 10
141.8929941882
 20
67.5563047338
 10
141.9353276208
 20
67.5489717945
 10
141.9733034391
 20
67.5546035335
 10
142.0050173769
 20
67.5729175518
 10
142.0288791651
 20
67.602995508
 10
142.0436922738
 20
67.6433291678
 10
142.048713912
 20
67.6918960331
  0
LWPOLYLINE
  5
317
330
1F
100
AcDbEntity
  8
0
  6
SLD-Solid
 62
     7
370
    25
100
AcDbPolyline
 90
       11
 70
   128
 43
0.0
 10
141.7937287851
 20
67.9839223907
 10
141.7936390093
 20
67.9837360813
 10
141.7835858292
 20
67.9481064474
 10
141.7835858292
 20
67.90507761
 10
141.7936390093
 20
67.8578408213
 10
141.8129997713
 20
67.8098994178
 10
141.8402322158
 20
67.764808994
 10
141.8733166372
 20
67.7259137004
 10
141.9097993151
 20
67.696098223
 10
141.9469744964
 20
67.6775738394
 10
141.9738337256
 20
67.6719376788
  0
LWPOLYLINE
  5
318
330
1F
100
AcDbEntity
  8
0
  6
SLD-Solid
 62
     7
370
    25
100
AcDbPolyline
 90
       24
 70
   128
 43
0.0
 10
137.7426103913
 20
70.1777566826
 10
137.7375365431
 20
70.2233138173
 10
137.7226913027
 20
70.271350328
 10
137.6991756737
 20
70.3183035667
 10
137.6687337025
 20
70.3606912263
 10
137.6336231311
 20
70.3953696081
 10
137.5964479499
 20
70.4197667752
 10
137.5599652719
 20
70.4320733012
 10
137.5268808506
 20
70.4313764674
 10
137.499648406
 20
70.4177279548
 10
137.4802876441
 20
70.3921400112
 10
137.4702344639
 20
70.3565103772
 10
137.4702344639
 20
70.3134815399
 10
137.4802876441
 20
70.2662447512
 10
137.499648406
 20
70.2183033477
 10
137.5268808506
 20
70.1732129239
 10
137.5599652719
 20
70.1343176303
 10
137.5964479499
 20
70.1045021529
 10
137.6336231311
 20
70.0859777693
 10
137.6687337025
 20
70.0801183482
 10
137.6991756737
 20
70.0873584561
 10
137.7226913027
 20
70.1071611274
 10
137.7375365431
 20
70.1380576884
 10
137.7426103913
 20
70.1777566826
  0
LWPOLYLINE
  5
319
330
1F
100
AcDbEntity
  8
0
  6
SLD-Solid
 62
     7
370
    25
100
AcDbPolyline
 90
       29
 70
   128
 43
0.0
 10
137.8060732249
 20
70.1411203686
 10
137.8010515867
 20
70.195485094
 10
137.786238478
 20
70.2529216052
 10
137.7623766898
 20
70.3105497955
 10
137.730662752
 20
70.365479947
 10
137.6926869337
 20
70.4149576325
 10
137.650353501
 20
70.4565018342
 10
137.6057852292
 20
70.4880293524
 10
137.5612169573
 20
70.5079592656
 10
137.5188835246
 20
70.5152922049
 10
137.4809077064
 20
70.5096604659
 10
137.4491937685
 20
70.4913464476
 10
137.4253319803
 20
70.4612684914
 10
137.4105188716
 20
70.4209348316
 10
137.4054972334
 20
70.3723679663
 10
137.4105188716
 20
70.3180032409
 10
137.4253319803
 20
70.2605667297
 10
137.4491937685
 20
70.2029385393
 10
137.4809077064
 20
70.1480083878
 10
137.5188835246
 20
70.0985307023
 10
137.5612169573
 20
70.0569865006
 10
137.6057852292
 20
70.0254589825
 10
137.650353501
 20
70.0055290692
 10
137.6926869337
 20
69.99819613
 10
137.730662752
 20
70.003827869
 10
137.7623766898
 20
70.0221418872
 10
137.786238478
 20
70.0522198434
 10
137.8010515867
 20
70.0925535033
 10
137.8060732249
 20
70.1411203686
  0
LWPOLYLINE
  5
31A
330
1F
100
AcDbEntity
  8
0
  6
SLD-Solid
 62
     7
370
    25
100
AcDbPolyline
 90
       11
 70
   128
 43
0.0
 10
137.551088098
 20
70.4331467262
 10
137.5509983222
 20
70.4329604168
 10
137.5409451421
 20
70.3973307828
 10
137.5409451421
 20
70.3543019455
 10
137.5509983222
 20
70.3070651568
 10
137.5703590841
 20
70.2591237532
 10
137.5975915287
 20
70.2140333295
 10
137.63067595
 20
70.1751380359
 10
137.667158628
 20
70.1453225585
 10
137.7043338092
 20
70.1267981749
 10
137.7311930385
 20
70.1211620143
  0
LWPOLYLINE
  5
31B
330
1F
100
AcDbEntity
  8
0
  6
SLD-Solid
 62
     7
370
    25
100
AcDbPolyline
 90
       24
 70
   128
 43
0.0
 10
133.4999697042
 20
72.6269810181
 10
133.494895856
 20
72.6725381527
 10
133.4800506156
 20
72.7205746635
 10
133.4565349865
 20
72.7675279021
 10
133.4260930154
 20
72.8099155618
 10
133.390982444
 20
72.8445939436
 10
133.3538072628
 20
72.8689911106
 10
133.3173245848
 20
72.8812976366
 10
133.2842401634
 20
72.8806008029
 10
133.2570077189
 20
72.8669522903
 10
133.237646957
 20
72.8413643467
 10
133.2275937768
 20
72.8057347127
 10
133.2275937768
 20
72.7627058754
 10
133.237646957
 20
72.7154690867
 10
133.2570077189
 20
72.6675276831
 10
133.2842401634
 20
72.6224372593
 10
133.3173245848
 20
72.5835419658
 10
133.3538072628
 20
72.5537264884
 10
133.390982444
 20
72.5352021047
 10
133.4260930154
 20
72.5293426837
 10
133.4565349865
 20
72.5365827916
 10
133.4800506156
 20
72.5563854628
 10
133.494895856
 20
72.5872820239
 10
133.4999697042
 20
72.6269810181
  0
LWPOLYLINE
  5
31C
330
1F
100
AcDbEntity
  8
0
  6
SLD-Solid
 62
     7
370
    25
100
AcDbPolyline
 90
       29
 70
   128
 43
0.0
 10
133.5634325378
 20
72.5903447041
 10
133.5584108996
 20
72.6447094295
 10
133.5435977908
 20
72.7021459406
 10
133.5197360027
 20
72.759774131
 10
133.4880220648
 20
72.8147042825
 10
133.4500462465
 20
72.864181968
 10
133.4077128139
 20
72.9057261697
 10
133.363144542
 20
72.9372536879
 10
133.3185762702
 20
72.9571836011
 10
133.2762428375
 20
72.9645165403
 10
133.2382670192
 20
72.9588848014
 10
133.2065530814
 20
72.9405707831
 10
133.1826912932
 20
72.9104928269
 10
133.1678781845
 20
72.8701591671
 10
133.1628565463
 20
72.8215923017
 10
133.1678781845
 20
72.7672275763
 10
133.1826912932
 20
72.7097910652
 10
133.2065530814
 20
72.6521628748
 10
133.2382670192
 20
72.5972327233
 10
133.2762428375
 20
72.5477550378
 10
133.3185762702
 20
72.5062108361
 10
133.363144542
 20
72.4746833179
 10
133.4077128139
 20
72.4547534047
 10
133.4500462465
 20
72.4474204655
 10
133.4880220648
 20
72.4530522044
 10
133.5197360027
 20
72.4713662227
 10
133.5435977908
 20
72.5014441789
 10
133.5584108996
 20
72.5417778387
 10
133.5634325378
 20
72.5903447041
  0
LWPOLYLINE
  5
31D
330
1F
100
AcDbEntity
  8
0
  6
SLD-Solid
 62
     7
370
    25
100
AcDbPolyline
 90
       11
 70
   128
 43
0.0
 10
133.3084474108
 20
72.8823710616
 10
133.3083576351
 20
72.8821847523
 10
133.2983044549
 20
72.8465551183
 10
133.2983044549
 20
72.8035262809
 10
133.3083576351
 20
72.7562894922
 10
133.327718397
 20
72.7083480887
 10
133.3549508416
 20
72.6632576649
 10
133.3880352629
 20
72.6243623713
 10
133.4245179409
 20
72.594546894
 10
133.4616931221
 20
72.5760225103
 10
133.4885523514
 20
72.5703863498
  0
LWPOLYLINE
  5
31E
330
1F
100
AcDbEntity
  8
0
  6
SLD-Solid
 62
     7
370
    25
100
AcDbPolyline
 90
       24
 70
   128
 43
0.0
 10
129.2573290171
 20
75.0762053536
 10
129.2522551689
 20
75.1217624882
 10
129.2374099285
 20
75.169798999
 10
129.2138942994
 20
75.2167522376
 10
129.1834523283
 20
75.2591398972
 10
129.1483417569
 20
75.2938182791
 10
129.1111665756
 20
75.3182154461
 10
129.0746838977
 20
75.3305219721
 10
129.0415994763
 20
75.3298251383
 10
129.0143670318
 20
75.3161766258
 10
128.9950062699
 20
75.2905886821
 10
128.9849530897
 20
75.2549590482
 10
128.9849530897
 20
75.2119302108
 10
128.9950062699
 20
75.1646934221
 10
129.0143670318
 20
75.1167520186
 10
129.0415994763
 20
75.0716615948
 10
129.0746838977
 20
75.0327663012
 10
129.1111665756
 20
75.0029508238
 10
129.1483417569
 20
74.9844264402
 10
129.1834523283
 20
74.9785670191
 10
129.2138942994
 20
74.9858071271
 10
129.2374099285
 20
75.0056097983
 10
129.2522551689
 20
75.0365063593
 10
129.2573290171
 20
75.0762053536
  0
LWPOLYLINE
  5
31F
330
1F
100
AcDbEntity
  8
0
  6
SLD-Solid
 62
     7
370
    25
100
AcDbPolyline
 90
       29
 70
   128
 43
0.0
 10
129.3207918507
 20
75.0395690395
 10
129.3157702125
 20
75.0939337649
 10
129.3009571037
 20
75.1513702761
 10
129.2770953156
 20
75.2089984665
 10
129.2453813777
 20
75.263928618
 10
129.2074055594
 20
75.3134063035
 10
129.1650721268
 20
75.3549505052
 10
129.1205038549
 20
75.3864780233
 10
129.075935583
 20
75.4064079366
 10
129.0336021504
 20
75.4137408758
 10
128.9956263321
 20
75.4081091368
 10
128.9639123943
 20
75.3897951186
 10
128.9400506061
 20
75.3597171624
 10
128.9252374974
 20
75.3193835025
 10
128.9202158591
 20
75.2708166372
 10
128.9252374974
 20
75.2164519118
 10
128.9400506061
 20
75.1590154007
 10
128.9639123943
 20
75.1013872103
 10
128.9956263321
 20
75.0464570588
 10
129.0336021504
 20
74.9969793733
 10
129.075935583
 20
74.9554351716
 10
129.1205038549
 20
74.9239076534
 10
129.1650721268
 20
74.9039777402
 10
129.2074055594
 20
74.8966448009
 10
129.2453813777
 20
74.9022765399
 10
129.2770953156
 20
74.9205905582
 10
129.3009571037
 20
74.9506685144
 10
129.3157702125
 20
74.9910021742
 10
129.3207918507
 20
75.0395690395
  0
LWPOLYLINE
  5
320
330
1F
100
AcDbEntity
  8
0
  6
SLD-Solid
 62
     7
370
    25
100
AcDbPolyline
 90
       11
 70
   128
 43
0.0
 10
129.0658067237
 20
75.3315953971
 10
129.065716948
 20
75.3314090877
 10
129.0556637678
 20
75.2957794538
 10
129.0556637678
 20
75.2527506164
 10
129.065716948
 20
75.2055138277
 10
129.0850777099
 20
75.1575724242
 10
129.1123101544
 20
75.1124820004
 10
129.1453945758
 20
75.0735867068
 10
129.1818772538
 20
75.0437712294
 10
129.219052435
 20
75.0252468458
 10
129.2459116642
 20
75.0196106852
  0
LWPOLYLINE
  5
321
330
1F
100
AcDbEntity
  8
0
  6
SLD-Solid
 62
     7
370
    25
100
AcDbPolyline
 90
       24
 70
   128
 43
0.0
 10
125.01468833
 20
77.525429689
 10
125.0096144818
 20
77.5709868237
 10
124.9947692414
 20
77.6190233344
 10
124.9712536123
 20
77.6659765731
 10
124.9408116412
 20
77.7083642327
 10
124.9057010698
 20
77.7430426145
 10
124.8685258885
 20
77.7674397816
 10
124.8320432106
 20
77.7797463076
 10
124.7989587892
 20
77.7790494738
 10
124.7717263447
 20
77.7654009612
 10
124.7523655827
 20
77.7398130176
 10
124.7423124026
 20
77.7041833836
 10
124.7423124026
 20
77.6611545463
 10
124.7523655827
 20
77.6139177576
 10
124.7717263447
 20
77.5659763541
 10
124.7989587892
 20
77.5208859303
 10
124.8320432106
 20
77.4819906367
 10
124.8685258885
 20
77.4521751593
 10
124.9057010698
 20
77.4336507757
 10
124.9408116412
 20
77.4277913546
 10
124.9712536123
 20
77.4350314625
 10
124.9947692414
 20
77.4548341338
 10
125.0096144818
 20
77.4857306948
 10
125.01468833
 20
77.525429689
  0
LWPOLYLINE
  5
322
330
1F
100
AcDbEntity
  8
0
  6
SLD-Solid
 62
     7
370
    25
100
AcDbPolyline
 90
       29
 70
   128
 43
0.0
 10
125.0781511636
 20
77.488793375
 10
125.0731295253
 20
77.5431581004
 10
125.0583164166
 20
77.6005946116
 10
125.0344546284
 20
77.6582228019
 10
125.0027406906
 20
77.7131529535
 10
124.9647648723
 20
77.7626306389
 10
124.9224314397
 20
77.8041748406
 10
124.8778631678
 20
77.8357023588
 10
124.8332948959
 20
77.855632272
 10
124.7909614633
 20
77.8629652113
 10
124.752985645
 20
77.8573334723
 10
124.7212717071
 20
77.839019454
 10
124.697409919
 20
77.8089414978
 10
124.6825968102
 20
77.768607838
 10
124.677575172
 20
77.7200409727
 10
124.6825968102
 20
77.6656762473
 10
124.697409919
 20
77.6082397361
 10
124.7212717071
 20
77.5506115457
 10
124.752985645
 20
77.4956813942
 10
124.7909614633
 20
77.4462037088
 10
124.8332948959
 20
77.404659507
 10
124.8778631678
 20
77.3731319889
 10
124.9224314397
 20
77.3532020756
 10
124.9647648723
 20
77.3458691364
 10
125.0027406906
 20
77.3515008754
 10
125.0344546284
 20
77.3698148936
 10
125.0583164166
 20
77.3998928498
 10
125.0731295253
 20
77.4402265097
 10
125.0781511636
 20
77.488793375
  0
LWPOLYLINE
  5
323
330
1F
100
AcDbEntity
  8
0
  6
SLD-Solid
 62
     7
370
    25
100
AcDbPolyline
 90
       11
 70
   128
 43
0.0
 10
124.8231660366
 20
77.7808197326
 10
124.8230762609
 20
77.7806334232
 10
124.8130230807
 20
77.7450037892
 10
124.8130230807
 20
77.7019749519
 10
124.8230762609
 20
77.6547381632
 10
124.8424370228
 20
77.6067967597
 10
124.8696694673
 20
77.5617063359
 10
124.9027538887
 20
77.5228110423
 10
124.9392365666
 20
77.4929955649
 10
124.9764117479
 20
77.4744711813
 10
125.0032709771
 20
77.4688350207
  0
LWPOLYLINE
  5
324
330
1F
100
AcDbEntity
  8
0
  6
SLD-Solid
 62
     7
370
    25
100
AcDbPolyline
 90
       29
 70
   128
 43
0.0
 10
120.8355104764
 20
79.9380177105
 10
120.8304888382
 20
79.9923824359
 10
120.8156757295
 20
80.049818947
 10
120.7918139413
 20
80.1074471374
 10
120.7601000035
 20
80.1623772889
 10
120.7221241852
 20
80.2118549744
 10
120.6797907526
 20
80.2533991761
 10
120.6352224807
 20
80.2849266943
 10
120.5906542088
 20
80.3048566075
 10
120.5483207762
 20
80.3121895467
 10
120.5103449579
 20
80.3065578078
 10
120.47863102
 20
80.2882437895
 10
120.4547692319
 20
80.2581658333
 10
120.4399561231
 20
80.2178321735
 10
120.4349344849
 20
80.1692653081
 10
120.4399561231
 20
80.1149005827
 10
120.4547692319
 20
80.0574640716
 10
120.47863102
 20
79.9998358812
 10
120.5103449579
 20
79.9449057297
 10
120.5483207762
 20
79.8954280442
 10
120.5906542088
 20
79.8538838425
 10
120.6352224807
 20
79.8223563243
 10
120.6797907526
 20
79.8024264111
 10
120.7221241852
 20
79.7950934719
 10
120.7601000035
 20
79.8007252108
 10
120.7918139413
 20
79.8190392291
 10
120.8156757295
 20
79.8491171853
 10
120.8304888382
 20
79.8894508451
 10
120.8355104764
 20
79.9380177105
  0
LWPOLYLINE
  5
325
330
1F
100
AcDbEntity
  8
0
  6
SLD-Solid
 62
     7
370
    25
100
AcDbPolyline
 90
       24
 70
   128
 43
0.0
 10
120.7720476428
 20
79.9746540245
 10
120.7669737947
 20
80.0202111591
 10
120.7521285543
 20
80.0682476699
 10
120.7286129252
 20
80.1152009086
 10
120.6981709541
 20
80.1575885682
 10
120.6630603827
 20
80.19226695
 10
120.6258852014
 20
80.216664117
 10
120.5894025234
 20
80.228970643
 10
120.5563181021
 20
80.2282738093
 10
120.5290856575
 20
80.2146252967
 10
120.5097248956
 20
80.1890373531
 10
120.4996717155
 20
80.1534077191
 10
120.4996717155
 20
80.1103788818
 10
120.5097248956
 20
80.0631420931
 10
120.5290856575
 20
80.0152006895
 10
120.5563181021
 20
79.9701102657
 10
120.5894025234
 20
79.9312149722
 10
120.6258852014
 20
79.9013994948
 10
120.6630603827
 20
79.8828751111
 10
120.6981709541
 20
79.8770156901
 10
120.7286129252
 20
79.884255798
 10
120.7521285543
 20
79.9040584692
 10
120.7669737947
 20
79.9349550303
 10
120.7720476428
 20
79.9746540245
  0
LWPOLYLINE
  5
326
330
1F
100
AcDbEntity
  8
0
  6
SLD-Solid
 62
     7
370
    25
100
AcDbPolyline
 90
       11
 70
   128
 43
0.0
 10
120.5805253495
 20
80.230044068
 10
120.5804355737
 20
80.2298577587
 10
120.5703823936
 20
80.1942281247
 10
120.5703823936
 20
80.1511992874
 10
120.5804355737
 20
80.1039624987
 10
120.5997963357
 20
80.0560210951
 10
120.6270287802
 20
80.0109306713
 10
120.6601132016
 20
79.9720353778
 10
120.6965958795
 20
79.9422199004
 10
120.7337710608
 20
79.9236955167
 10
120.76063029
 20
79.9180593562
  0
LWPOLYLINE
  5
327
330
1F
100
AcDbEntity
  8
0
  6
SLD-Solid
 62
     7
370
    25
100
AcDbPolyline
 90
       29
 70
   128
 43
0.0
 10
116.5928697893
 20
82.3872420459
 10
116.5878481511
 20
82.4416067713
 10
116.5730350424
 20
82.4990432825
 10
116.5491732542
 20
82.5566714729
 10
116.5174593164
 20
82.6116016244
 10
116.4794834981
 20
82.6610793099
 10
116.4371500654
 20
82.7026235116
 10
116.3925817936
 20
82.7341510297
 10
116.3480135217
 20
82.754080943
 10
116.3056800891
 20
82.7614138822
 10
116.2677042708
 20
82.7557821432
 10
116.2359903329
 20
82.737468125
 10
116.2121285448
 20
82.7073901688
 10
116.197315436
 20
82.6670565089
 10
116.1922937978
 20
82.6184896436
 10
116.197315436
 20
82.5641249182
 10
116.2121285448
 20
82.5066884071
 10
116.2359903329
 20
82.4490602167
 10
116.2677042708
 20
82.3941300652
 10
116.3056800891
 20
82.3446523797
 10
116.3480135217
 20
82.303108178
 10
116.3925817936
 20
82.2715806598
 10
116.4371500654
 20
82.2516507466
 10
116.4794834981
 20
82.2443178073
 10
116.5174593164
 20
82.2499495463
 10
116.5491732542
 20
82.2682635646
 10
116.5730350424
 20
82.2983415208
 10
116.5878481511
 20
82.3386751806
 10
116.5928697893
 20
82.3872420459
  0
LWPOLYLINE
  5
328
330
1F
100
AcDbEntity
  8
0
  6
SLD-Solid
 62
     7
370
    25
100
AcDbPolyline
 90
       24
 70
   128
 43
0.0
 10
116.5294069557
 20
82.42387836
 10
116.5243331075
 20
82.4694354946
 10
116.5094878671
 20
82.5174720054
 10
116.4859722381
 20
82.564425244
 10
116.4555302669
 20
82.6068129037
 10
116.4204196955
 20
82.6414912855
 10
116.3832445143
 20
82.6658884525
 10
116.3467618363
 20
82.6781949785
 10
116.313677415
 20
82.6774981447
 10
116.2864449704
 20
82.6638496322
 10
116.2670842085
 20
82.6382616885
 10
116.2570310283
 20
82.6026320546
 10
116.2570310283
 20
82.5596032172
 10
116.2670842085
 20
82.5123664285
 10
116.2864449704
 20
82.464425025
 10
116.313677415
 20
82.4193346012
 10
116.3467618363
 20
82.3804393076
 10
116.3832445143
 20
82.3506238302
 10
116.4204196955
 20
82.3320994466
 10
116.4555302669
 20
82.3262400255
 10
116.4859722381
 20
82.3334801335
 10
116.5094878671
 20
82.3532828047
 10
116.5243331075
 20
82.3841793657
 10
116.5294069557
 20
82.42387836
  0
LWPOLYLINE
  5
329
330
1F
100
AcDbEntity
  8
0
  6
SLD-Solid
 62
     7
370
    25
100
AcDbPolyline
 90
       11
 70
   128
 43
0.0
 10
116.3378846624
 20
82.6792684035
 10
116.3377948866
 20
82.6790820941
 10
116.3277417065
 20
82.6434524602
 10
116.3277417065
 20
82.6004236228
 10
116.3377948866
 20
82.5531868341
 10
116.3571556485
 20
82.5052454306
 10
116.3843880931
 20
82.4601550068
 10
116.4174725144
 20
82.4212597132
 10
116.4539551924
 20
82.3914442358
 10
116.4911303737
 20
82.3729198522
 10
116.5179896029
 20
82.3672836916
  0
LWPOLYLINE
  5
32A
330
1F
100
AcDbEntity
  8
0
  6
SLD-Solid
 62
     7
370
    25
100
AcDbPolyline
 90
       29
 70
   128
 43
0.0
 10
112.3502291022
 20
84.8364663814
 10
112.345207464
 20
84.8908311068
 10
112.3303943552
 20
84.948267618
 10
112.3065325671
 20
85.0058958083
 10
112.2748186292
 20
85.0608259599
 10
112.2368428109
 20
85.1103036453
 10
112.1945093783
 20
85.151847847
 10
112.1499411064
 20
85.1833753652
 10
112.1053728346
 20
85.2033052784
 10
112.0630394019
 20
85.2106382177
 10
112.0250635836
 20
85.2050064787
 10
111.9933496458
 20
85.1866924604
 10
111.9694878576
 20
85.1566145042
 10
111.9546747489
 20
85.1162808444
 10
111.9496531107
 20
85.0677139791
 10
111.9546747489
 20
85.0133492537
 10
111.9694878576
 20
84.9559127425
 10
111.9933496458
 20
84.8982845522
 10
112.0250635836
 20
84.8433544006
 10
112.0630394019
 20
84.7938767152
 10
112.1053728346
 20
84.7523325135
 10
112.1499411064
 20
84.7208049953
 10
112.1945093783
 20
84.700875082
 10
112.2368428109
 20
84.6935421428
 10
112.2748186292
 20
84.6991738818
 10
112.3065325671
 20
84.7174879
 10
112.3303943552
 20
84.7475658563
 10
112.345207464
 20
84.7878995161
 10
112.3502291022
 20
84.8364663814
  0
LWPOLYLINE
  5
32B
330
1F
100
AcDbEntity
  8
0
  6
SLD-Solid
 62
     7
370
    25
100
AcDbPolyline
 90
       24
 70
   128
 43
0.0
 10
112.2867662686
 20
84.8731026954
 10
112.2816924204
 20
84.9186598301
 10
112.26684718
 20
84.9666963408
 10
112.2433315509
 20
85.0136495795
 10
112.2128895798
 20
85.0560372391
 10
112.1777790084
 20
85.0907156209
 10
112.1406038272
 20
85.115112788
 10
112.1041211492
 20
85.127419314
 10
112.0710367278
 20
85.1267224802
 10
112.0438042833
 20
85.1130739676
 10
112.0244435214
 20
85.087486024
 10
112.0143903412
 20
85.05185639
 10
112.0143903412
 20
85.0088275527
 10
112.0244435214
 20
84.961590764
 10
112.0438042833
 20
84.9136493605
 10
112.0710367278
 20
84.8685589367
 10
112.1041211492
 20
84.8296636431
 10
112.1406038272
 20
84.7998481657
 10
112.1777790084
 20
84.7813237821
 10
112.2128895798
 20
84.775464361
 10
112.2433315509
 20
84.7827044689
 10
112.26684718
 20
84.8025071402
 10
112.2816924204
 20
84.8334037012
 10
112.2867662686
 20
84.8731026954
  0
LWPOLYLINE
  5
32C
330
1F
100
AcDbEntity
  8
0
  6
SLD-Solid
 62
     7
370
    25
100
AcDbPolyline
 90
       11
 70
   128
 43
0.0
 10
112.0952439752
 20
85.128492739
 10
112.0951541995
 20
85.1283064296
 10
112.0851010193
 20
85.0926767956
 10
112.0851010193
 20
85.0496479583
 10
112.0951541995
 20
85.0024111696
 10
112.1145149614
 20
84.9544697661
 10
112.141747406
 20
84.9093793423
 10
112.1748318273
 20
84.8704840487
 10
112.2113145053
 20
84.8406685713
 10
112.2484896865
 20
84.8221441877
 10
112.2753489158
 20
84.8165080271
  0
LWPOLYLINE
  5
32D
330
1F
100
AcDbEntity
  8
0
  6
SLD-Solid
 62
     7
370
    25
100
AcDbPolyline
 90
       24
 70
   128
 43
0.0
 10
108.0441255815
 20
87.3223270309
 10
108.0390517333
 20
87.3678841655
 10
108.0242064929
 20
87.4159206763
 10
108.0006908638
 20
87.462873915
 10
107.9702488927
 20
87.5052615746
 10
107.9351383213
 20
87.5399399564
 10
107.89796314
 20
87.5643371234
 10
107.8614804621
 20
87.5766436494
 10
107.8283960407
 20
87.5759468157
 10
107.8011635962
 20
87.5622983031
 10
107.7818028343
 20
87.5367103595
 10
107.7717496541
 20
87.5010807255
 10
107.7717496541
 20
87.4580518882
 10
107.7818028343
 20
87.4108150995
 10
107.8011635962
 20
87.3628736959
 10
107.8283960407
 20
87.3177832721
 10
107.8614804621
 20
87.2788879786
 10
107.89796314
 20
87.2490725012
 10
107.9351383213
 20
87.2305481176
 10
107.9702488927
 20
87.2246886965
 10
108.0006908638
 20
87.2319288044
 10
108.0242064929
 20
87.2517314756
 10
108.0390517333
 20
87.2826280367
 10
108.0441255815
 20
87.3223270309
  0
LWPOLYLINE
  5
32E
330
1F
100
AcDbEntity
  8
0
  6
SLD-Solid
 62
     7
370
    25
100
AcDbPolyline
 90
       29
 70
   128
 43
0.0
 10
108.1075884151
 20
87.2856907169
 10
108.1025667769
 20
87.3400554423
 10
108.0877536681
 20
87.3974919534
 10
108.06389188
 20
87.4551201438
 10
108.0321779421
 20
87.5100502953
 10
107.9942021238
 20
87.5595279808
 10
107.9518686912
 20
87.6010721825
 10
107.9073004193
 20
87.6325997007
 10
107.8627321474
 20
87.6525296139
 10
107.8203987148
 20
87.6598625531
 10
107.7824228965
 20
87.6542308142
 10
107.7507089587
 20
87.6359167959
 10
107.7268471705
 20
87.6058388397
 10
107.7120340618
 20
87.5655051799
 10
107.7070124235
 20
87.5169383146
 10
107.7120340618
 20
87.4625735891
 10
107.7268471705
 20
87.405137078
 10
107.7507089587
 20
87.3475088876
 10
107.7824228965
 20
87.2925787361
 10
107.8203987148
 20
87.2431010506
 10
107.8627321474
 20
87.2015568489
 10
107.9073004193
 20
87.1700293307
 10
107.9518686912
 20
87.1500994175
 10
107.9942021238
 20
87.1427664783
 10
108.0321779421
 20
87.1483982173
 10
108.06389188
 20
87.1667122355
 10
108.0877536681
 20
87.1967901917
 10
108.1025667769
 20
87.2371238515
 10
108.1075884151
 20
87.2856907169
  0
LWPOLYLINE
  5
32F
330
1F
100
AcDbEntity
  8
0
  6
SLD-Solid
 62
     7
370
    25
100
AcDbPolyline
 90
       11
 70
   128
 43
0.0
 10
107.8526032881
 20
87.5777170744
 10
107.8525135124
 20
87.5775307651
 10
107.8424603322
 20
87.5419011311
 10
107.8424603322
 20
87.4988722938
 10
107.8525135124
 20
87.4516355051
 10
107.8718742743
 20
87.4036941015
 10
107.8991067188
 20
87.3586036777
 10
107.9321911402
 20
87.3197083842
 10
107.9686738182
 20
87.2898929068
 10
108.0058489994
 20
87.2713685231
 10
108.0327082286
 20
87.2657323626
  0
LWPOLYLINE
  5
330
330
1F
100
AcDbEntity
  8
0
  6
SLD-Solid
 62
     7
370
    25
100
AcDbPolyline
 90
       29
 70
   128
 43
0.0
 10
103.864947728
 20
89.7349150523
 10
103.8599260898
 20
89.7892797778
 10
103.845112981
 20
89.8467162889
 10
103.8212511929
 20
89.9043444793
 10
103.789537255
 20
89.9592746308
 10
103.7515614367
 20
90.0087523163
 10
103.7092280041
 20
90.050296518
 10
103.6646597322
 20
90.0818240361
 10
103.6200914603
 20
90.1017539494
 10
103.5777580277
 20
90.1090868886
 10
103.5397822094
 20
90.1034551496
 10
103.5080682715
 20
90.0851411314
 10
103.4842064834
 20
90.0550631752
 10
103.4693933746
 20
90.0147295154
 10
103.4643717364
 20
89.96616265
 10
103.4693933746
 20
89.9117979246
 10
103.4842064834
 20
89.8543614135
 10
103.5080682715
 20
89.7967332231
 10
103.5397822094
 20
89.7418030716
 10
103.5777580277
 20
89.6923253861
 10
103.6200914603
 20
89.6507811844
 10
103.6646597322
 20
89.6192536662
 10
103.7092280041
 20
89.599323753
 10
103.7515614367
 20
89.5919908138
 10
103.789537255
 20
89.5976225527
 10
103.8212511929
 20
89.615936571
 10
103.845112981
 20
89.6460145272
 10
103.8599260898
 20
89.686348187
 10
103.864947728
 20
89.7349150523
  0
LWPOLYLINE
  5
331
330
1F
100
AcDbEntity
  8
0
  6
SLD-Solid
 62
     7
370
    25
100
AcDbPolyline
 90
       24
 70
   128
 43
0.0
 10
103.8014848944
 20
89.7715513664
 10
103.7964110462
 20
89.817108501
 10
103.7815658058
 20
89.8651450118
 10
103.7580501767
 20
89.9120982504
 10
103.7276082056
 20
89.9544859101
 10
103.6924976342
 20
89.9891642919
 10
103.6553224529
 20
90.0135614589
 10
103.618839775
 20
90.0258679849
 10
103.5857553536
 20
90.0251711511
 10
103.5585229091
 20
90.0115226386
 10
103.5391621471
 20
89.9859346949
 10
103.529108967
 20
89.950305061
 10
103.529108967
 20
89.9072762236
 10
103.5391621471
 20
89.8600394349
 10
103.5585229091
 20
89.8120980314
 10
103.5857553536
 20
89.7670076076
 10
103.618839775
 20
89.728112314
 10
103.6553224529
 20
89.6982968366
 10
103.6924976342
 20
89.679772453
 10
103.7276082056
 20
89.6739130319
 10
103.7580501767
 20
89.6811531399
 10
103.7815658058
 20
89.7009558111
 10
103.7964110462
 20
89.7318523721
 10
103.8014848944
 20
89.7715513664
  0
LWPOLYLINE
  5
332
330
1F
100
AcDbEntity
  8
0
  6
SLD-Solid
 62
     7
370
    25
100
AcDbPolyline
 90
       11
 70
   128
 43
0.0
 10
103.609962601
 20
90.0269414099
 10
103.6098728253
 20
90.0267551005
 10
103.5998196451
 20
89.9911254666
 10
103.5998196451
 20
89.9480966292
 10
103.6098728253
 20
89.9008598405
 10
103.6292335872
 20
89.852918437
 10
103.6564660317
 20
89.8078280132
 10
103.6895504531
 20
89.7689327196
 10
103.726033131
 20
89.7391172422
 10
103.7632083123
 20
89.7205928586
 10
103.7900675415
 20
89.714956698
  0
LWPOLYLINE
  5
333
330
1F
100
AcDbEntity
  8
0
  6
SLD-Solid
 62
     7
370
    25
100
AcDbPolyline
 90
       29
 70
   128
 43
0.0
 10
99.6223070409
 20
92.1841393878
 10
99.6172854026
 20
92.2385041132
 10
99.6024722939
 20
92.2959406244
 10
99.5786105057
 20
92.3535688147
 10
99.5468965679
 20
92.4084989663
 10
99.5089207496
 20
92.4579766517
 10
99.466587317
 20
92.4995208534
 10
99.4220190451
 20
92.5310483716
 10
99.3774507732
 20
92.5509782849
 10
99.3351173406
 20
92.5583112241
 10
99.2971415223
 20
92.5526794851
 10
99.2654275844
 20
92.5343654669
 10
99.2415657963
 20
92.5042875106
 10
99.2267526875
 20
92.4639538508
 10
99.2217310493
 20
92.4153869855
 10
99.2267526875
 20
92.3610222601
 10
99.2415657963
 20
92.3035857489
 10
99.2654275844
 20
92.2459575586
 10
99.2971415223
 20
92.191027407
 10
99.3351173406
 20
92.1415497216
 10
99.3774507732
 20
92.1000055199
 10
99.4220190451
 20
92.0684780017
 10
99.466587317
 20
92.0485480884
 10
99.5089207496
 20
92.0412151492
 10
99.5468965679
 20
92.0468468882
 10
99.5786105057
 20
92.0651609065
 10
99.6024722939
 20
92.0952388627
 10
99.6172854026
 20
92.1355725225
 10
99.6223070409
 20
92.1841393878
  0
LWPOLYLINE
  5
334
330
1F
100
AcDbEntity
  8
0
  6
SLD-Solid
 62
     7
370
    25
100
AcDbPolyline
 90
       24
 70
   128
 43
0.0
 10
99.5588442072
 20
92.2207757018
 10
99.5537703591
 20
92.2663328365
 10
99.5389251187
 20
92.3143693472
 10
99.5154094896
 20
92.3613225859
 10
99.4849675185
 20
92.4037102455
 10
99.4498569471
 20
92.4383886273
 10
99.4126817658
 20
92.4627857944
 10
99.3761990878
 20
92.4750923204
 10
99.3431146665
 20
92.4743954866
 10
99.3158822219
 20
92.460746974
 10
99.29652146
 20
92.4351590304
 10
99.2864682799
 20
92.3995293964
 10
99.2864682799
 20
92.3565005591
 10
99.29652146
 20
92.3092637704
 10
99.3158822219
 20
92.2613223669
 10
99.3431146665
 20
92.2162319431
 10
99.3761990878
 20
92.1773366495
 10
99.4126817658
 20
92.1475211721
 10
99.4498569471
 20
92.1289967885
 10
99.4849675185
 20
92.1231373674
 10
99.5154094896
 20
92.1303774753
 10
99.5389251187
 20
92.1501801466
 10
99.5537703591
 20
92.1810767076
 10
99.5588442072
 20
92.2207757018
  0
LWPOLYLINE
  5
335
330
1F
100
AcDbEntity
  8
0
  6
SLD-Solid
 62
     7
370
    25
100
AcDbPolyline
 90
       11
 70
   128
 43
0.0
 10
99.3673219139
 20
92.4761657454
 10
99.3672321381
 20
92.475979436
 10
99.357178958
 20
92.440349802
 10
99.357178958
 20
92.3973209647
 10
99.3672321381
 20
92.350084176
 10
99.3865929001
 20
92.3021427725
 10
99.4138253446
 20
92.2570523487
 10
99.446909766
 20
92.2181570551
 10
99.4833924439
 20
92.1883415777
 10
99.5205676252
 20
92.1698171941
 10
99.5474268544
 20
92.1641810335
  0
LWPOLYLINE
  5
336
330
1F
100
AcDbEntity
  8
0
  6
SLD-Solid
 62
     7
370
    25
100
AcDbPolyline
 90
       29
 70
   128
 43
0.0
 10
95.3796663537
 20
94.6333637233
 10
95.3746447155
 20
94.6877284487
 10
95.3598316068
 20
94.7451649598
 10
95.3359698186
 20
94.8027931502
 10
95.3042558808
 20
94.8577233017
 10
95.2662800625
 20
94.9072009872
 10
95.2239466298
 20
94.9487451889
 10
95.179378358
 20
94.9802727071
 10
95.1348100861
 20
95.0002026203
 10
95.0924766535
 20
95.0075355596
 10
95.0545008352
 20
95.0019038206
 10
95.0227868973
 20
94.9835898023
 10
94.9989251092
 20
94.9535118461
 10
94.9841120004
 20
94.9131781863
 10
94.9790903622
 20
94.864611321
 10
94.9841120004
 20
94.8102465955
 10
94.9989251092
 20
94.7528100844
 10
95.0227868973
 20
94.695181894
 10
95.0545008352
 20
94.6402517425
 10
95.0924766535
 20
94.590774057
 10
95.1348100861
 20
94.5492298553
 10
95.179378358
 20
94.5177023372
 10
95.2239466298
 20
94.4977724239
 10
95.2662800625
 20
94.4904394847
 10
95.3042558808
 20
94.4960712237
 10
95.3359698186
 20
94.5143852419
 10
95.3598316068
 20
94.5444631981
 10
95.3746447155
 20
94.584796858
 10
95.3796663537
 20
94.6333637233
  0
LWPOLYLINE
  5
337
330
1F
100
AcDbEntity
  8
0
  6
SLD-Solid
 62
     7
370
    25
100
AcDbPolyline
 90
       24
 70
   128
 43
0.0
 10
95.3162035201
 20
94.6700000373
 10
95.3111296719
 20
94.7155571719
 10
95.2962844315
 20
94.7635936827
 10
95.2727688025
 20
94.8105469214
 10
95.2423268314
 20
94.852934581
 10
95.2072162599
 20
94.8876129628
 10
95.1700410787
 20
94.9120101298
 10
95.1335584007
 20
94.9243166558
 10
95.1004739794
 20
94.9236198221
 10
95.0732415348
 20
94.9099713095
 10
95.0538807729
 20
94.8843833659
 10
95.0438275927
 20
94.8487537319
 10
95.0438275927
 20
94.8057248946
 10
95.0538807729
 20
94.7584881059
 10
95.0732415348
 20
94.7105467023
 10
95.1004739794
 20
94.6654562786
 10
95.1335584007
 20
94.626560985
 10
95.1700410787
 20
94.5967455076
 10
95.2072162599
 20
94.578221124
 10
95.2423268314
 20
94.5723617029
 10
95.2727688025
 20
94.5796018108
 10
95.2962844315
 20
94.599404482
 10
95.3111296719
 20
94.6303010431
 10
95.3162035201
 20
94.6700000373
  0
LWPOLYLINE
  5
338
330
1F
100
AcDbEntity
  8
0
  6
SLD-Solid
 62
     7
370
    25
100
AcDbPolyline
 90
       11
 70
   128
 43
0.0
 10
95.1246812268
 20
94.9253900808
 10
95.124591451
 20
94.9252037715
 10
95.1145382709
 20
94.8895741375
 10
95.1145382709
 20
94.8465453002
 10
95.124591451
 20
94.7993085115
 10
95.1439522129
 20
94.7513671079
 10
95.1711846575
 20
94.7062766841
 10
95.2042690788
 20
94.6673813906
 10
95.2407517568
 20
94.6375659132
 10
95.2779269381
 20
94.6190415295
 10
95.3047861673
 20
94.613405369
  0
ENDSEC
  0
SECTION
  2
OBJECTS
  0
DICTIONARY
  5
C
330
0
100
AcDbDictionary
281
     1
  3
ACAD_GROUP
350
D
  3
ACAD_LAYOUT
350
1A
  3
ACAD_MLINESTYLE
350
17
  3
ACAD_PLOTSETTINGS
350
19
  3
ACAD_PLOTSTYLENAME
350
E
  3
ACAD_SCALELIST
350
47
  3
DWGPROPS
350
339
  0
DICTIONARY
  5
D
102
{ACAD_REACTORS
330
C
102
}
330
C
100
AcDbDictionary
281
     1
  0
DICTIONARY
  5
1A
102
{ACAD_REACTORS
330
C
102
}
330
C
100
AcDbDictionary
281
     1
  3
Layout1
350
1E
  3
Layout2
350
26
  3
Model
350
22
  0
DICTIONARY
  5
17
102
{ACAD_REACTORS
330
C
102
}
330
C
100
AcDbDictionary
281
     1
  3
Standard
350
18
  0
DICTIONARY
  5
19
102
{ACAD_REACTORS
330
C
102
}
330
C
100
AcDbDictionary
281
     1
  0
ACDBDICTIONARYWDFLT
  5
E
102
{ACAD_REACTORS
330
C
102
}
330
C
100
AcDbDictionary
281
     1
  3
Normal
350
F
100
AcDbDictionaryWithDefault
340
F
  0
DICTIONARY
  5
47
102
{ACAD_REACTORS
330
C
102
}
330
C
100
AcDbDictionary
281
     1
  3
A0
350
48
  3
A1
350
49
  3
A2
350
4A
  3
A3
350
4B
  3
A4
350
4C
  3
A5
350
4D
  3
A6
350
4E
  3
A7
350
4F
  3
A8
350
50
  3
A9
350
51
  3
B0
350
52
  3
B1
350
53
  3
B2
350
54
  3
B3
350
55
  3
B4
350
56
  3
B5
350
57
  3
B6
350
58
  3
B7
350
59
  3
B8
350
5A
  3
B9
350
5B
  3
C0
350
5C
  3
C1
350
5D
  3
C2
350
5E
  3
C3
350
5F
  3
C4
350
60
  3
C5
350
61
  3
C6
350
62
  3
C7
350
63
  3
C8
350
64
  3
C9
350
65
  3
D0
350
66
  3
D1
350
67
  3
D2
350
68
  0
XRECORD
  5
339
102
{ACAD_REACTORS
330
C
102
}
330
C
100
AcDbXrecord
280
     1
  1
DWGPROPS COOKIE
  2

  3

  4

  6

  7

  8
carl
  9

300
=
301
=
302
=
303
=
304
=
305
=
306
=
307
=
308
=
309
=
 40
0.0
 41
2459500.761485093
 42
2459500.76149088
  1

 90
        0
  0
LAYOUT
  5
1E
102
{ACAD_REACTORS
330
1A
102
}
330
1A
100
AcDbPlotSettings
  1

  2
none_device
  4

  6

 40
0.0
 41
0.0
 42
0.0
 43
0.0
 44
0.0
 45
0.0
 46
0.0
 47
0.0
 48
0.0
 49
0.0
140
0.0
141
0.0
142
1.0
143
1.0
 70
   688
 72
     0
 73
     0
 74
     5
  7

 75
    16
147
1.0
148
0.0
149
0.0
100
AcDbLayout
  1
Layout1
 70
     1
 71
     1
 10
0.0
 20
0.0
 11
12.0
 21
9.0
 12
0.0
 22
0.0
 32
0.0
 14
1.0000000000E+20
 24
1.0000000000E+20
 34
1.0000000000E+20
 15
-1.0000000000E+20
 25
-1.0000000000E+20
 35
-1.0000000000E+20
146
0.0
 13
0.0
 23
0.0
 33
0.0
 16
1.0
 26
0.0
 36
0.0
 17
0.0
 27
1.0
 37
0.0
 76
     0
330
1B
  0
LAYOUT
  5
26
102
{ACAD_REACTORS
330
1A
102
}
330
1A
100
AcDbPlotSettings
  1

  2
none_device
  4

  6

 40
0.0
 41
0.0
 42
0.0
 43
0.0
 44
0.0
 45
0.0
 46
0.0
 47
0.0
 48
0.0
 49
0.0
140
0.0
141
0.0
142
1.0
143
1.0
 70
   688
 72
     0
 73
     0
 74
     5
  7

 75
    16
147
1.0
148
0.0
149
0.0
100
AcDbLayout
  1
Layout2
 70
     1
 71
     2
 10
0.0
 20
0.0
 11
0.0
 21
0.0
 12
0.0
 22
0.0
 32
0.0
 14
0.0
 24
0.0
 34
0.0
 15
0.0
 25
0.0
 35
0.0
146
0.0
 13
0.0
 23
0.0
 33
0.0
 16
1.0
 26
0.0
 36
0.0
 17
0.0
 27
1.0
 37
0.0
 76
     0
330
23
  0
LAYOUT
  5
22
102
{ACAD_REACTORS
330
1A
102
}
330
1A
100
AcDbPlotSettings
  1

  2
none_device
  4
Letter_(8.50_x_11.00_Inches)
  6

 40
6.35
 41
6.35
 42
6.35000508
 43
6.35000508
 44
215.9
 45
279.4
 46
0.0
 47
0.0
 48
0.0
 49
0.0
140
0.0
141
0.0
142
1.0
143
1.0
 70
  1712
 72
     0
 73
     0
 74
     0
  7

 75
     0
147
1.0
148
0.0
149
0.0
100
AcDbLayout
  1
Model
 70
     1
 71
     0
 10
0.0
 20
0.0
 11
150.0
 21
100.0
 12
0.0
 22
0.0
 32
0.0
 14
0.0
 24
0.0
 34
0.0
 15
150.0
 25
100.0
 35
0.0
146
0.0
 13
0.0
 23
0.0
 33
0.0
 16
1.0
 26
0.0
 36
0.0
 17
0.0
 27
1.0
 37
0.0
 76
     0
330
1F
331
29
  0
MLINESTYLE
  5
18
102
{ACAD_REACTORS
330
17
102
}
330
17
100
AcDbMlineStyle
  2
Standard
 70
     0
  3

 62
   256
 51
90.0
 52
90.0
 71
     2
 49
0.5
 62
   256
  6
BYLAYER
 49
-0.5
 62
   256
  6
BYLAYER
  0
ACDBPLACEHOLDER
  5
F
102
{ACAD_REACTORS
330
E
102
}
330
E
  0
SCALE
  5
48
102
{ACAD_REACTORS
330
47
102
}
330
47
100
AcDbScale
 70
     0
300
1:1
140
1.0
141
1.0
290
     1
  0
SCALE
  5
49
102
{ACAD_REACTORS
330
47
102
}
330
47
100
AcDbScale
 70
     0
300
1:2
140
1.0
141
2.0
290
     0
  0
SCALE
  5
4A
102
{ACAD_REACTORS
330
47
102
}
330
47
100
AcDbScale
 70
     0
300
1:4
140
1.0
141
4.0
290
     0
  0
SCALE
  5
4B
102
{ACAD_REACTORS
330
47
102
}
330
47
100
AcDbScale
 70
     0
300
1:5
140
1.0
141
5.0
290
     0
  0
SCALE
  5
4C
102
{ACAD_REACTORS
330
47
102
}
330
47
100
AcDbScale
 70
     0
300
1:8
140
1.0
141
8.0
290
     0
  0
SCALE
  5
4D
102
{ACAD_REACTORS
330
47
102
}
330
47
100
AcDbScale
 70
     0
300
1:10
140
1.0
141
10.0
290
     0
  0
SCALE
  5
4E
102
{ACAD_REACTORS
330
47
102
}
330
47
100
AcDbScale
 70
     0
300
1:16
140
1.0
141
16.0
290
     0
  0
SCALE
  5
4F
102
{ACAD_REACTORS
330
47
102
}
330
47
100
AcDbScale
 70
     0
300
1:20
140
1.0
141
20.0
290
     0
  0
SCALE
  5
50
102
{ACAD_REACTORS
330
47
102
}
330
47
100
AcDbScale
 70
     0
300
1:30
140
1.0
141
30.0
290
     0
  0
SCALE
  5
51
102
{ACAD_REACTORS
330
47
102
}
330
47
100
AcDbScale
 70
     0
300
1:40
140
1.0
141
40.0
290
     0
  0
SCALE
  5
52
102
{ACAD_REACTORS
330
47
102
}
330
47
100
AcDbScale
 70
     0
300
1:50
140
1.0
141
50.0
290
     0
  0
SCALE
  5
53
102
{ACAD_REACTORS
330
47
102
}
330
47
100
AcDbScale
 70
     0
300
1:100
140
1.0
141
100.0
290
     0
  0
SCALE
  5
54
102
{ACAD_REACTORS
330
47
102
}
330
47
100
AcDbScale
 70
     0
300
2:1
140
2.0
141
1.0
290
     0
  0
SCALE
  5
55
102
{ACAD_REACTORS
330
47
102
}
330
47
100
AcDbScale
 70
     0
300
4:1
140
4.0
141
1.0
290
     0
  0
SCALE
  5
56
102
{ACAD_REACTORS
330
47
102
}
330
47
100
AcDbScale
 70
     0
300
8:1
140
8.0
141
1.0
290
     0
  0
SCALE
  5
57
102
{ACAD_REACTORS
330
47
102
}
330
47
100
AcDbScale
 70
     0
300
10:1
140
10.0
141
1.0
290
     0
  0
SCALE
  5
58
102
{ACAD_REACTORS
330
47
102
}
330
47
100
AcDbScale
 70
     0
300
100:1
140
100.0
141
1.0
290
     0
  0
SCALE
  5
59
102
{ACAD_REACTORS
330
47
102
}
330
47
100
AcDbScale
 70
     0
300
1/128" = 1'-0"
140
0.0078125
141
12.0
290
     0
  0
SCALE
  5
5A
102
{ACAD_REACTORS
330
47
102
}
330
47
100
AcDbScale
 70
     0
300
1/64" = 1'-0"
140
0.015625
141
12.0
290
     0
  0
SCALE
  5
5B
102
{ACAD_REACTORS
330
47
102
}
330
47
100
AcDbScale
 70
     0
300
1/32" = 1'-0"
140
0.03125
141
12.0
290
     0
  0
SCALE
  5
5C
102
{ACAD_REACTORS
330
47
102
}
330
47
100
AcDbScale
 70
     0
300
1/16" = 1'-0"
140
0.0625
141
12.0
290
     0
  0
SCALE
  5
5D
102
{ACAD_REACTORS
330
47
102
}
330
47
100
AcDbScale
 70
     0
300
3/32" = 1'-0"
140
0.09375
141
12.0
290
     0
  0
SCALE
  5
5E
102
{ACAD_REACTORS
330
47
102
}
330
47
100
AcDbScale
 70
     0
300
1/8" = 1'-0"
140
0.125
141
12.0
290
     0
  0
SCALE
  5
5F
102
{ACAD_REACTORS
330
47
102
}
330
47
100
AcDbScale
 70
     0
300
3/16" = 1'-0"
140
0.1875
141
12.0
290
     0
  0
SCALE
  5
60
102
{ACAD_REACTORS
330
47
102
}
330
47
100
AcDbScale
 70
     0
300
1/4" = 1'-0"
140
0.25
141
12.0
290
     0
  0
SCALE
  5
61
102
{ACAD_REACTORS
330
47
102
}
330
47
100
AcDbScale
 70
     0
300
3/8" = 1'-0"
140
0.375
141
12.0
290
     0
  0
SCALE
  5
62
102
{ACAD_REACTORS
330
47
102
}
330
47
100
AcDbScale
 70
     0
300
1/2" = 1'-0"
140
0.5
141
12.0
290
     0
  0
SCALE
  5
63
102
{ACAD_REACTORS
330
47
102
}
330
47
100
AcDbScale
 70
     0
300
3/4" = 1'-0"
140
0.75
141
12.0
290
     0
  0
SCALE
  5
64
102
{ACAD_REACTORS
330
47
102
}
330
47
100
AcDbScale
 70
     0
300
1" = 1'-0"
140
1.0
141
12.0
290
     0
  0
SCALE
  5
65
102
{ACAD_REACTORS
330
47
102
}
330
47
100
AcDbScale
 70
     0
300
1-1/2" = 1'-0"
140
1.5
141
12.0
290
     0
  0
SCALE
  5
66
102
{ACAD_REACTORS
330
47
102
}
330
47
100
AcDbScale
 70
     0
300
3" = 1'-0"
140
3.0
141
12.0
290
     0
  0
SCALE
  5
67
102
{ACAD_REACTORS
330
47
102
}
330
47
100
AcDbScale
 70
     0
300
6" = 1'-0"
140
6.0
141
12.0
290
     0
  0
SCALE
  5
68
102
{ACAD_REACTORS
330
47
102
}
330
47
100
AcDbScale
 70
     0
300
1'-0" = 1'-0"
140
12.0
141
12.0
290
     0
  0
ENDSEC
  0
EOF
