  0
SECTION
  2
HEADER
  9
$ACADVER
  1
AC1015
  9
$ACADMAINTVER
 70
     6
  9
$DWGCODEPAGE
  3
ANSI_1252
  9
$INSBASE
 10
0.0
 20
0.0
 30
0.0
  9
$EXTMIN
 10
0.0
 20
0.0
 30
0.0
  9
$EXTMAX
 10
48.0
 20
36.0
 30
0.0
  9
$LIMMIN
 10
0.0
 20
0.0
  9
$LIMMAX
 10
48.0
 20
36.0
  9
$ORTHOMODE
 70
     0
  9
$REGENMODE
 70
     1
  9
$FILLMODE
 70
     1
  9
$QTEXTMODE
 70
     0
  9
$MIRRTEXT
 70
     1
  9
$LTSCALE
 40
1.0
  9
$ATTMODE
 70
     1
  9
$TEXTSIZE
 40
0.5
  9
$TRACEWID
 40
0.05
  9
$TEXTSTYLE
  7
STANDARD
  9
$CLAYER
  8
0
  9
$CELTYPE
  6
ByLayer
  9
$CECOLOR
 62
   256
  9
$CELTSCALE
 40
1.0
  9
$DISPSILH
 70
     0
  9
$DIMSCALE
 40
1.0
  9
$DIMASZ
 40
0.3
  9
$DIMEXO
 40
0.1666666667
  9
$DIMDLI
 40
0.38
  9
$DIMRND
 40
0.0
  9
$DIMDLE
 40
0.0
  9
$DIMEXE
 40
0.375
  9
$DIMTP
 40
0.0
  9
$DIMTM
 40
0.0
  9
$DIMTXT
 40
0.5
  9
$DIMCEN
 40
0.09
  9
$DIMTSZ
 40
0.0
  9
$DIMTOL
 70
     0
  9
$DIMLIM
 70
     0
  9
$DIMTIH
 70
     1
  9
$DIMTOH
 70
     1
  9
$DIMSE1
 70
     0
  9
$DIMSE2
 70
     0
  9
$DIMTAD
 70
     0
  9
$DIMZIN
 70
     1
  9
$DIMBLK
  1

  9
$DIMASO
 70
     1
  9
$DIMSHO
 70
     1
  9
$DIMPOST
  1

  9
$DIMAPOST
  1

  9
$DIMALT
 70
     0
  9
$DIMALTD
 70
     2
  9
$DIMALTF
 40
25.4
  9
$DIMLFAC
 40
1.0
  9
$DIMTOFL
 70
     0
  9
$DIMTVP
 40
0.0
  9
$DIMTIX
 70
     0
  9
$DIMSOXD
 70
     0
  9
$DIMSAH
 70
     0
  9
$DIMBLK1
  1

  9
$DIMBLK2
  1

  9
$DIMSTYLE
  2
Standard
  9
$DIMCLRD
 70
     0
  9
$DIMCLRE
 70
     0
  9
$DIMCLRT
 70
     0
  9
$DIMTFAC
 40
1.0
  9
$DIMGAP
 40
0.125
  9
$DIMJUST
 70
     0
  9
$DIMSD1
 70
     0
  9
$DIMSD2
 70
     0
  9
$DIMTOLJ
 70
     1
  9
$DIMTZIN
 70
     1
  9
$DIMALTZ
 70
     0
  9
$DIMALTTZ
 70
     0
  9
$DIMUPT
 70
     0
  9
$DIMDEC
 70
     4
  9
$DIMTDEC
 70
     4
  9
$DIMALTU
 70
     2
  9
$DIMALTTD
 70
     2
  9
$DIMTXSTY
  7
STANDARD
  9
$DIMAUNIT
 70
     0
  9
$DIMADEC
 70
     2
  9
$DIMALTRND
 40
0.0
  9
$DIMAZIN
 70
     0
  9
$DIMDSEP
 70
    46
  9
$DIMATFIT
 70
     3
  9
$DIMFRAC
 70
     0
  9
$DIMLDRBLK
  1

  9
$DIMLUNIT
 70
     2
  9
$DIMLWD
 70
    -2
  9
$DIMLWE
 70
    -2
  9
$DIMTMOVE
 70
     0
  9
$LUNITS
 70
     2
  9
$LUPREC
 70
     4
  9
$SKETCHINC
 40
0.1
  9
$FILLETRAD
 40
0.5
  9
$AUNITS
 70
     0
  9
$AUPREC
 70
     2
  9
$MENU
  1
.
  9
$ELEVATION
 40
0.0
  9
$PELEVATION
 40
0.0
  9
$THICKNESS
 40
0.0
  9
$LIMCHECK
 70
     0
  9
$CHAMFERA
 40
0.0
  9
$CHAMFERB
 40
0.0
  9
$CHAMFERC
 40
0.0
  9
$CHAMFERD
 40
0.0
  9
$SKPOLY
 70
     0
  9
$TDCREATE
 40
2459501.421815845
  9
$TDUCREATE
 40
2459501.588482512
  9
$TDUPDATE
 40
2459501.421818206
  9
$TDUUPDATE
 40
2459501.588484873
  9
$TDINDWG
 40
0.0000000116
  9
$TDUSRTIMER
 40
0.0000000116
  9
$USRTIMER
 70
     1
  9
$ANGBASE
 50
0.0
  9
$ANGDIR
 70
     0
  9
$PDMODE
 70
     0
  9
$PDSIZE
 40
-1.0
  9
$PLINEWID
 40
0.0
  9
$SPLFRAME
 70
     0
  9
$SPLINETYPE
 70
     6
  9
$SPLINESEGS
 70
     8
  9
$HANDSEED
  5
1F1
  9
$SURFTAB1
 70
     6
  9
$SURFTAB2
 70
     6
  9
$SURFTYPE
 70
     6
  9
$SURFU
 70
     6
  9
$SURFV
 70
     6
  9
$UCSBASE
  2

  9
$UCSNAME
  2

  9
$UCSORG
 10
0.0
 20
0.0
 30
0.0
  9
$UCSXDIR
 10
1.0
 20
0.0
 30
0.0
  9
$UCSYDIR
 10
0.0
 20
1.0
 30
0.0
  9
$UCSORTHOREF
  2

  9
$UCSORTHOVIEW
 70
     0
  9
$UCSORGTOP
 10
0.0
 20
0.0
 30
0.0
  9
$UCSORGBOTTOM
 10
0.0
 20
0.0
 30
0.0
  9
$UCSORGLEFT
 10
0.0
 20
0.0
 30
0.0
  9
$UCSORGRIGHT
 10
0.0
 20
0.0
 30
0.0
  9
$UCSORGFRONT
 10
0.0
 20
0.0
 30
0.0
  9
$UCSORGBACK
 10
0.0
 20
0.0
 30
0.0
  9
$PUCSBASE
  2

  9
$PUCSNAME
  2

  9
$PUCSORG
 10
0.0
 20
0.0
 30
0.0
  9
$PUCSXDIR
 10
1.0
 20
0.0
 30
0.0
  9
$PUCSYDIR
 10
0.0
 20
1.0
 30
0.0
  9
$PUCSORTHOREF
  2

  9
$PUCSORTHOVIEW
 70
     0
  9
$PUCSORGTOP
 10
0.0
 20
0.0
 30
0.0
  9
$PUCSORGBOTTOM
 10
0.0
 20
0.0
 30
0.0
  9
$PUCSORGLEFT
 10
0.0
 20
0.0
 30
0.0
  9
$PUCSORGRIGHT
 10
0.0
 20
0.0
 30
0.0
  9
$PUCSORGFRONT
 10
0.0
 20
0.0
 30
0.0
  9
$PUCSORGBACK
 10
0.0
 20
0.0
 30
0.0
  9
$USERI1
 70
     0
  9
$USERI2
 70
     0
  9
$USERI3
 70
     0
  9
$USERI4
 70
     0
  9
$USERI5
 70
     0
  9
$USERR1
 40
0.0
  9
$USERR2
 40
0.0
  9
$USERR3
 40
0.0
  9
$USERR4
 40
0.0
  9
$USERR5
 40
0.0
  9
$WORLDVIEW
 70
     1
  9
$SHADEDGE
 70
     3
  9
$SHADEDIF
 70
    70
  9
$TILEMODE
 70
     1
  9
$MAXACTVP
 70
    64
  9
$PINSBASE
 10
0.0
 20
0.0
 30
0.0
  9
$PLIMCHECK
 70
     0
  9
$PEXTMIN
 10
1.0000000000E+20
 20
1.0000000000E+20
 30
1.0000000000E+20
  9
$PEXTMAX
 10
-1.0000000000E+20
 20
-1.0000000000E+20
 30
-1.0000000000E+20
  9
$PLIMMIN
 10
0.0
 20
0.0
  9
$PLIMMAX
 10
12.0
 20
9.0
  9
$UNITMODE
 70
     0
  9
$VISRETAIN
 70
     1
  9
$PLINEGEN
 70
     0
  9
$PSLTSCALE
 70
     1
  9
$TREEDEPTH
 70
  3020
  9
$CMLSTYLE
  2
Standard
  9
$CMLJUST
 70
     0
  9
$CMLSCALE
 40
1.0
  9
$PROXYGRAPHICS
 70
     1
  9
$MEASUREMENT
 70
     0
  9
$CELWEIGHT
370
    -1
  9
$ENDCAPS
280
     0
  9
$JOINSTYLE
280
     0
  9
$LWDISPLAY
290
     1
  9
$INSUNITS
 70
     1
  9
$HYPERLINKBASE
  1

  9
$STYLESHEET
  1

  9
$XEDIT
290
     1
  9
$CEPSNTYPE
380
     0
  9
$PSTYLEMODE
290
     1
  9
$FINGERPRINTGUID
  2
{673963fc-97f1-48d0-ad67-052e58700a90}
  9
$VERSIONGUID
  2
{FAEB1C32-E019-11D5-929B-00C0DF256EC4}
  9
$EXTNAMES
290
     1
  9
$PSVPSCALE
 40
0.0
  9
$OLESTARTUP
290
     0
  0
ENDSEC
  0
SECTION
  2
CLASSES
  0
CLASS
  1
ACDBDICTIONARYWDFLT
  2
AcDbDictionaryWithDefault
  3
ObjectDBX Classes
 90
        0
280
     0
281
     0
  0
CLASS
  1
VISUALSTYLE
  2
AcDbVisualStyle
  3
ObjectDBX Classes
 90
     4095
280
     0
281
     0
  0
CLASS
  1
MATERIAL
  2
AcDbMaterial
  3
ObjectDBX Classes
 90
     1153
280
     0
281
     0
  0
CLASS
  1
SCALE
  2
AcDbScale
  3
ObjectDBX Classes
 90
     1153
280
     0
281
     0
  0
CLASS
  1
TABLESTYLE
  2
AcDbTableStyle
  3
ObjectDBX Classes
 90
     4095
280
     0
281
     0
  0
CLASS
  1
MLEADERSTYLE
  2
AcDbMLeaderStyle
  3
ACDB_MLEADERSTYLE_CLASS
 90
     4095
280
     0
281
     0
  0
CLASS
  1
SUN
  2
AcDbSun
  3
SCENEOE
 90
     1153
280
     0
281
     0
  0
CLASS
  1
ACDBPLACEHOLDER
  2
AcDbPlaceHolder
  3
ObjectDBX Classes
 90
        0
280
     0
281
     0
  0
CLASS
  1
LAYOUT
  2
AcDbLayout
  3
ObjectDBX Classes
 90
        0
280
     0
281
     0
  0
ENDSEC
  0
SECTION
  2
TABLES
  0
TABLE
  2
VPORT
  5
8
330
0
100
AcDbSymbolTable
 70
     1
  0
VPORT
  5
29
330
8
100
AcDbSymbolTableRecord
100
AcDbViewportTableRecord
  2
*Active
 70
     0
 10
0.0
 20
0.0
 11
1.0
 21
1.0
 12
24.0
 22
18.0
 13
0.0
 23
0.0
 14
0.5
 24
0.5
 15
0.5
 25
0.5
 16
0.0
 26
0.0
 36
1.0
 17
0.0
 27
0.0
 37
0.0
 40
36.0
 41
1.3333333333
 42
50.0
 43
0.0
 44
0.0
 50
0.0
 51
0.0
 71
     0
 72
  2000
 73
     1
 74
     3
 75
     0
 76
     0
 77
     0
 78
     0
281
     0
 65
     1
110
0.0
120
0.0
130
0.0
111
1.0
121
0.0
131
0.0
112
0.0
122
1.0
132
0.0
 79
     0
146
0.0
  0
ENDTAB
  0
TABLE
  2
LTYPE
  5
5
330
0
100
AcDbSymbolTable
 70
     8
  0
LTYPE
  5
14
330
5
100
AcDbSymbolTableRecord
100
AcDbLinetypeTableRecord
  2
ByBlock
 70
     0
  3

 72
    65
 73
     0
 40
0.0
  0
LTYPE
  5
15
330
5
100
AcDbSymbolTableRecord
100
AcDbLinetypeTableRecord
  2
ByLayer
 70
     0
  3

 72
    65
 73
     0
 40
0.0
  0
LTYPE
  5
16
330
5
100
AcDbSymbolTableRecord
100
AcDbLinetypeTableRecord
  2
Continuous
 70
     0
  3
Solid line
 72
    65
 73
     0
 40
0.0
  0
LTYPE
  5
6E
330
5
100
AcDbSymbolTableRecord
100
AcDbLinetypeTableRecord
  2
SLD-Solid
 70
     0
  3
SolidWorks Line Style
 72
    65
 73
     0
 40
0.0
  0
LTYPE
  5
6F
330
5
100
AcDbSymbolTableRecord
100
AcDbLinetypeTableRecord
  2
SLD-Dashed
 70
     0
  3
SolidWorks Line Style
 72
    65
 73
     2
 40
0.075
 49
0.05
 74
     0
 49
-0.025
 74
     0
  0
LTYPE
  5
70
330
5
100
AcDbSymbolTableRecord
100
AcDbLinetypeTableRecord
  2
SLD-Phantom
 70
     0
  3
SolidWorks Line Style
 72
    65
 73
     6
 40
0.5
 49
0.25
 74
     0
 49
-0.05
 74
     0
 49
0.05
 74
     0
 49
-0.05
 74
     0
 49
0.05
 74
     0
 49
-0.05
 74
     0
  0
LTYPE
  5
71
330
5
100
AcDbSymbolTableRecord
100
AcDbLinetypeTableRecord
  2
SLD-Chain
 70
     0
  3
SolidWorks Line Style
 72
    65
 73
     4
 40
0.4
 49
0.25
 74
     0
 49
-0.05
 74
     0
 49
0.05
 74
     0
 49
-0.05
 74
     0
  0
LTYPE
  5
72
330
5
100
AcDbSymbolTableRecord
100
AcDbLinetypeTableRecord
  2
SLD-Center
 70
     0
  3
SolidWorks Line Style
 72
    65
 73
     4
 40
0.75
 49
0.6
 74
     0
 49
-0.05
 74
     0
 49
0.05
 74
     0
 49
-0.05
 74
     0
  0
LTYPE
  5
73
330
5
100
AcDbSymbolTableRecord
100
AcDbLinetypeTableRecord
  2
SLD-Stitch
 70
     0
  3
SolidWorks Line Style
 72
    65
 73
     2
 40
0.025
 49
0.0
 74
     0
 49
-0.025
 74
     0
  0
LTYPE
  5
74
330
5
100
AcDbSymbolTableRecord
100
AcDbLinetypeTableRecord
  2
SLD-Thin-Thick-Chain
 70
     0
  3
SolidWorks Line Style
 72
    65
 73
     4
 40
0.4
 49
0.25
 74
     0
 49
-0.05
 74
     0
 49
0.05
 74
     0
 49
-0.05
 74
     0
  0
ENDTAB
  0
TABLE
  2
LAYER
  5
2
330
0
100
AcDbSymbolTable
 70
     6
  0
LAYER
  5
10
330
2
100
AcDbSymbolTableRecord
100
AcDbLayerTableRecord
  2
0
 70
     0
 62
     7
  6
Continuous
370
    -3
390
F
  0
LAYER
  5
75
330
2
100
AcDbSymbolTableRecord
100
AcDbLayerTableRecord
  2
FORMAT
 70
     0
 62
     7
  6
SLD-Solid
370
    -3
390
F
  0
LAYER
  5
76
330
2
100
AcDbSymbolTableRecord
100
AcDbLayerTableRecord
  2
NOTES
 70
     0
 62
     1
  6
SLD-Solid
370
    -3
390
F
  0
LAYER
  5
77
330
2
100
AcDbSymbolTableRecord
100
AcDbLayerTableRecord
  2
OBJECT
 70
     0
 62
     7
  6
SLD-Solid
370
    25
390
F
  0
LAYER
  5
78
330
2
100
AcDbSymbolTableRecord
100
AcDbLayerTableRecord
  2
DIMS
 70
     0
 62
     5
  6
SLD-Solid
370
    -3
390
F
  0
LAYER
  5
79
330
2
100
AcDbSymbolTableRecord
100
AcDbLayerTableRecord
  2
TITLE
 70
     0
 62
     8
  6
SLD-Solid
370
    -3
390
F
  0
ENDTAB
  0
TABLE
  2
STYLE
  5
3
330
0
100
AcDbSymbolTable
 70
     5
  0
STYLE
  5
11
330
3
100
AcDbSymbolTableRecord
100
AcDbTextStyleTableRecord
  2
STANDARD
 70
     0
 40
0.0
 41
1.0
 50
0.0
 71
     0
 42
0.5
  3
GOTHIC.TTF
  4

1001
ACAD
1000
CENTURY GOTHIC
1071
       34
  0
STYLE
  5
DF
330
3
100
AcDbSymbolTableRecord
100
AcDbTextStyleTableRecord
  2
SLDTEXTSTYLE0
 70
     0
 40
0.0
 41
0.948
 50
0.0
 71
     0
 42
0.5
  3
ARIAL.TTF
  4

1001
ACAD
1000
Arial
1071
      290
  0
STYLE
  5
E3
330
3
100
AcDbSymbolTableRecord
100
AcDbTextStyleTableRecord
  2
SLDTEXTSTYLE1
 70
     0
 40
0.0
 41
0.913
 50
0.0
 71
     0
 42
0.5
  3
GOTHIC.TTF
  4

1001
ACAD
1000
Century Gothic
1071
      290
  0
STYLE
  5
F2
330
3
100
AcDbSymbolTableRecord
100
AcDbTextStyleTableRecord
  2
SLDTEXTSTYLE2
 70
     0
 40
0.0
 41
0.87
 50
0.0
 71
     0
 42
0.5
  3
ARIALNB.TTF
  4

1001
ACAD
1000
Arial Narrow
1071
 33554722
  0
STYLE
  5
F4
330
3
100
AcDbSymbolTableRecord
100
AcDbTextStyleTableRecord
  2
SLDTEXTSTYLE3
 70
     0
 40
0.0
 41
0.87
 50
0.0
 71
     0
 42
0.5
  3
ARIALN.TTF
  4

1001
ACAD
1000
Arial Narrow
1071
      290
  0
ENDTAB
  0
TABLE
  2
VIEW
  5
6
330
0
100
AcDbSymbolTable
 70
     0
  0
ENDTAB
  0
TABLE
  2
UCS
  5
7
330
0
100
AcDbSymbolTable
 70
     0
  0
ENDTAB
  0
TABLE
  2
APPID
  5
9
330
0
100
AcDbSymbolTable
 70
     1
  0
APPID
  5
12
330
9
100
AcDbSymbolTableRecord
100
AcDbRegAppTableRecord
  2
ACAD
 70
     0
  0
ENDTAB
  0
TABLE
  2
DIMSTYLE
  5
A
330
0
100
AcDbSymbolTable
 70
     4
100
AcDbDimStyleTable
  0
DIMSTYLE
105
27
330
A
100
AcDbSymbolTableRecord
100
AcDbDimStyleTableRecord
  2
Standard
 70
     0
178
     0
340
11
  0
DIMSTYLE
105
16A
102
{ACAD_REACTORS
330
169
330
19C
102
}
330
A
100
AcDbSymbolTableRecord
100
AcDbDimStyleTableRecord
  2
SLDDIMSTYLE0
 70
     0
 41
0.3
 44
0.0
 45
0.000000001
 78
    12
 79
     3
140
0.5
141
0.0
147
0.125
173
     1
178
     0
276
     2
277
     5
284
    12
340
E3
341
16B
343
16B
344
16B
  0
DIMSTYLE
105
17D
102
{ACAD_REACTORS
330
17C
102
}
330
A
100
AcDbSymbolTableRecord
100
AcDbDimStyleTableRecord
  2
SLDDIMSTYLE1
 70
     0
 41
0.3
 44
0.0
 45
0.000000001
 78
    12
 79
     3
140
0.5
141
0.0
147
0.125
173
     1
178
     0
276
     2
277
     5
284
    12
340
E3
341
16B
343
16B
344
16B
  0
DIMSTYLE
105
18D
102
{ACAD_REACTORS
330
18C
102
}
330
A
100
AcDbSymbolTableRecord
100
AcDbDimStyleTableRecord
  2
SLDDIMSTYLE2
 70
     0
 41
0.3
 44
0.0
 45
0.000000001
 78
    12
 79
     3
140
0.5
147
0.125
173
     1
178
     0
271
     6
276
     2
277
     5
284
    12
340
E3
341
16B
343
16B
344
16B
  0
ENDTAB
  0
TABLE
  2
BLOCK_RECORD
  5
1
330
0
100
AcDbSymbolTable
 70
     9
  0
BLOCK_RECORD
  5
1F
330
1
100
AcDbSymbolTableRecord
100
AcDbBlockTableRecord
  2
*Model_Space
340
22
  0
BLOCK_RECORD
  5
1B
330
1
100
AcDbSymbolTableRecord
100
AcDbBlockTableRecord
  2
*Paper_Space
340
1E
  0
BLOCK_RECORD
  5
23
330
1
100
AcDbSymbolTableRecord
100
AcDbBlockTableRecord
  2
*Paper_Space0
340
26
  0
BLOCK_RECORD
  5
E9
330
1
100
AcDbSymbolTableRecord
100
AcDbBlockTableRecord
  2
SW_NOTE_0
340
0
102
{BLKREFS
331
EE
102
}
  0
BLOCK_RECORD
  5
EF
330
1
100
AcDbSymbolTableRecord
100
AcDbBlockTableRecord
  2
SW_NOTE_0_1
340
0
102
{BLKREFS
331
F8
102
}
  0
BLOCK_RECORD
  5
16B
330
1
100
AcDbSymbolTableRecord
100
AcDbBlockTableRecord
  2
_Open90
340
0
102
{BLKREFS
331
174
331
181
331
182
331
191
331
192
331
1A0
102
}
  0
BLOCK_RECORD
  5
171
330
1
100
AcDbSymbolTableRecord
100
AcDbBlockTableRecord
  2
_D
340
0
  0
BLOCK_RECORD
  5
17E
330
1
100
AcDbSymbolTableRecord
100
AcDbBlockTableRecord
  2
_D_1
340
0
  0
BLOCK_RECORD
  5
18E
330
1
100
AcDbSymbolTableRecord
100
AcDbBlockTableRecord
  2
_D_2
340
0
  0
BLOCK_RECORD
  5
19D
330
1
100
AcDbSymbolTableRecord
100
AcDbBlockTableRecord
  2
_D_3
340
0
  0
BLOCK_RECORD
  5
1EA
330
1
100
AcDbSymbolTableRecord
100
AcDbBlockTableRecord
  2
SW_NOTE_0_2
340
0
102
{BLKREFS
331
1EF
102
}
  0
ENDTAB
  0
ENDSEC
  0
SECTION
  2
BLOCKS
  0
BLOCK
  5
20
330
1F
100
AcDbEntity
  8
0
100
AcDbBlockBegin
  2
*Model_Space
 70
     0
 10
0.0
 20
0.0
 30
0.0
  3
*Model_Space
  1

  0
ENDBLK
  5
21
330
1F
100
AcDbEntity
  8
0
100
AcDbBlockEnd
  0
BLOCK
  5
1C
330
1B
100
AcDbEntity
 67
     1
  8
0
100
AcDbBlockBegin
  2
*Paper_Space
 70
     0
 10
0.0
 20
0.0
 30
0.0
  3
*Paper_Space
  1

  0
ENDBLK
  5
1D
330
1B
100
AcDbEntity
 67
     1
  8
0
100
AcDbBlockEnd
  0
BLOCK
  5
24
330
23
100
AcDbEntity
  8
0
100
AcDbBlockBegin
  2
*Paper_Space0
 70
     0
 10
0.0
 20
0.0
 30
0.0
  3
*Paper_Space0
  1

  0
ENDBLK
  5
25
330
23
100
AcDbEntity
  8
0
100
AcDbBlockEnd
  0
BLOCK
  5
EA
330
E9
100
AcDbEntity
  8
0
100
AcDbBlockBegin
  2
SW_NOTE_0
 70
     0
 10
0.0
 20
0.0
 30
0.0
  3
SW_NOTE_0
  1

  0
MTEXT
  5
EC
330
E9
100
AcDbEntity
  8
NOTES
 62
     0
100
AcDbMText
 10
0.0
 20
0.3759780908
 30
0.0
 40
0.2916666667
 41
0.0
 71
     1
 72
     1
  1
FROST PRODUCTS LTD.
  7
SLDTEXTSTYLE0
 73
     1
 44
1.0
  0
MTEXT
  5
ED
330
E9
100
AcDbEntity
  8
NOTES
 62
     0
100
AcDbMText
 10
0.0
 20
-0.0495142709
 30
0.0
 40
0.2291666667
 41
0.0
 71
     1
 72
     1
  1
5280 JOHN LUCAS DRIVE, BURLINGTON, ON, L7L 5Z9
  7
SLDTEXTSTYLE0
 73
     1
 44
1.0
  0
ENDBLK
  5
EB
330
E9
100
AcDbEntity
  8
0
100
AcDbBlockEnd
  0
BLOCK
  5
F0
330
EF
100
AcDbEntity
  8
0
100
AcDbBlockBegin
  2
SW_NOTE_0_1
 70
     0
 10
0.0
 20
0.0
 30
0.0
  3
SW_NOTE_0_1
  1

  0
MTEXT
  5
F3
330
EF
100
AcDbEntity
  8
NOTES
 62
     0
100
AcDbMText
 10
0.0
 20
0.2381282771
 30
0.0
 40
0.184729064
 41
0.0
 71
     1
 72
     1
  1
PROPRIETARY AND CONFIDENTIAL
  7
SLDTEXTSTYLE2
 73
     1
 44
1.0
  0
MTEXT
  5
F5
330
EF
100
AcDbEntity
  8
NOTES
 62
     0
100
AcDbMText
 10
0.0
 20
-0.0504364796
 30
0.0
 40
0.25
 41
0.0
 71
     1
 72
     1
  1
THE INFORMATION CONTAINED IN THIS DRAWING IS THE SOLE PROPERTY OF 
  7
SLDTEXTSTYLE3
 73
     1
 44
1.0
  0
MTEXT
  5
F6
330
EF
100
AcDbEntity
  8
NOTES
 62
     0
100
AcDbMText
 10
0.0
 20
-0.4231398941
 30
0.0
 40
0.25
 41
0.0
 71
     1
 72
     1
  1
FROST PRODUCTS LTD.  ANY REPRODUCTION IN PART OR AS A WHOLE WITHOUT 
  7
SLDTEXTSTYLE3
 73
     1
 44
1.0
  0
MTEXT
  5
F7
330
EF
100
AcDbEntity
  8
NOTES
 62
     0
100
AcDbMText
 10
0.0
 20
-0.7958433086
 30
0.0
 40
0.25
 41
0.0
 71
     1
 72
     1
  1
THE WRITTEN PERMISSION OF FROST PRODUCTS LTD. IS PROHIBITED.
  7
SLDTEXTSTYLE3
 73
     1
 44
1.0
  0
ENDBLK
  5
F1
330
EF
100
AcDbEntity
  8
0
100
AcDbBlockEnd
  0
BLOCK
  5
16C
330
16B
100
AcDbEntity
  8
0
100
AcDbBlockBegin
  2
_Open90
 70
     0
 10
0.0
 20
0.0
 30
0.0
  3
_Open90
  1

  0
LINE
  5
16E
330
16B
100
AcDbEntity
  8
0
  6
ByBlock
 62
     0
370
    -2
100
AcDbLine
 10
-0.5
 20
0.5
 30
0.0
 11
0.0
 21
0.0
 31
0.0
  0
LINE
  5
16F
330
16B
100
AcDbEntity
  8
0
  6
ByBlock
 62
     0
370
    -2
100
AcDbLine
 10
0.0
 20
0.0
 30
0.0
 11
-0.5
 21
-0.5
 31
0.0
  0
LINE
  5
170
330
16B
100
AcDbEntity
  8
0
  6
ByBlock
 62
     0
370
    -2
100
AcDbLine
 10
0.0
 20
0.0
 30
0.0
 11
-1.0
 21
0.0
 31
0.0
  0
ENDBLK
  5
16D
330
16B
100
AcDbEntity
  8
0
100
AcDbBlockEnd
  0
BLOCK
  5
172
330
171
100
AcDbEntity
  8
0
100
AcDbBlockBegin
  2
_D
 70
     0
 10
0.0
 20
0.0
 30
0.0
  3
_D
  1

  0
INSERT
  5
174
330
171
100
AcDbEntity
  8
DIMS
100
AcDbBlockReference
  2
_Open90
 10
13.9512912532
 20
20.4089968914
 30
0.0
 41
0.3
 42
0.3
 50
225.0
  0
LINE
  5
175
330
171
100
AcDbEntity
  8
DIMS
100
AcDbLine
 10
16.2734174505
 20
21.6550814027
 30
0.0
 11
17.1588341454
 21
21.6550814027
 31
0.0
  0
LINE
  5
176
330
171
100
AcDbEntity
  8
DIMS
100
AcDbLine
 10
13.9512912532
 20
20.4089968914
 30
0.0
 11
15.1460910661
 21
21.6037967043
 31
0.0
  0
LINE
  5
177
330
171
100
AcDbEntity
  8
DIMS
100
AcDbLine
 10
15.1460910661
 20
21.6037967043
 30
0.0
 11
15.4460910661
 21
21.6037967043
 31
0.0
  0
MTEXT
  5
178
330
171
100
AcDbEntity
  8
DIMS
100
AcDbMText
 10
15.4460910661
 20
21.8768435739
 30
0.0
 40
0.5
 41
0.0
 71
     1
 72
     1
  1
%%c
  7
SLDTEXTSTYLE1
 73
     1
 44
1.0
  0
MTEXT
  5
179
330
171
100
AcDbEntity
  8
DIMS
100
AcDbMText
 10
16.5314035752
 20
22.2497949622
 30
0.0
 40
0.5
 41
0.0
 71
     1
 72
     1
  1
7
  7
SLDTEXTSTYLE1
 73
     1
 44
1.0
  0
MTEXT
  5
17A
330
171
100
AcDbEntity
  8
DIMS
100
AcDbMText
 10
16.3466813524
 20
21.5886143836
 30
0.0
 40
0.5
 41
0.0
 71
     1
 72
     1
  1
16
  7
SLDTEXTSTYLE1
 73
     1
 44
1.0
  0
MTEXT
  5
17B
330
171
100
AcDbEntity
  8
DIMS
100
AcDbMText
 10
17.2320980474
 20
21.8844824631
 30
0.0
 40
0.5
 41
0.0
 71
     1
 72
     1
  1
"
  7
SLDTEXTSTYLE1
 73
     1
 44
1.0
  0
ENDBLK
  5
173
330
171
100
AcDbEntity
  8
0
100
AcDbBlockEnd
  0
BLOCK
  5
17F
330
17E
100
AcDbEntity
  8
0
100
AcDbBlockBegin
  2
_D_1
 70
     0
 10
0.0
 20
0.0
 30
0.0
  3
_D_1
  1

  0
INSERT
  5
181
330
17E
100
AcDbEntity
  8
DIMS
100
AcDbBlockReference
  2
_Open90
 10
13.2194673144
 20
19.0110798461
 30
0.0
 41
0.3
 42
0.3
 50
150.0
  0
INSERT
  5
182
330
17E
100
AcDbEntity
  8
DIMS
100
AcDbBlockReference
  2
_Open90
 10
14.3712811015
 20
18.3460798461
 30
0.0
 41
0.3
 42
0.3
 50
330.0
  0
LINE
  5
183
330
17E
100
AcDbEntity
  8
DIMS
100
AcDbLine
 10
16.6988664872
 20
17.917693537
 30
0.0
 11
17.5842831822
 21
17.917693537
 31
0.0
  0
LINE
  5
184
330
17E
100
AcDbEntity
  8
DIMS
100
AcDbLine
 10
14.3712811015
 20
18.3460798461
 30
0.0
 11
15.2020956574
 21
17.8664088386
 31
0.0
  0
LINE
  5
185
330
17E
100
AcDbEntity
  8
DIMS
100
AcDbLine
 10
13.2194673144
 20
19.0110798461
 30
0.0
 11
14.3712811015
 21
18.3460798461
 31
0.0
  0
LINE
  5
186
330
17E
100
AcDbEntity
  8
DIMS
100
AcDbLine
 10
15.2020956574
 20
17.8664088386
 30
0.0
 11
15.5020956574
 21
17.8664088386
 31
0.0
  0
MTEXT
  5
187
330
17E
100
AcDbEntity
  8
DIMS
100
AcDbMText
 10
15.5020956574
 20
18.1394557081
 30
0.0
 40
0.5
 41
0.0
 71
     1
 72
     1
  1
%%c
  7
SLDTEXTSTYLE1
 73
     1
 44
1.0
  0
MTEXT
  5
188
330
17E
100
AcDbEntity
  8
DIMS
100
AcDbMText
 10
16.2561581398
 20
18.1470945974
 30
0.0
 40
0.5
 41
0.0
 71
     1
 72
     1
  1
1
  7
SLDTEXTSTYLE1
 73
     1
 44
1.0
  0
MTEXT
  5
189
330
17E
100
AcDbEntity
  8
DIMS
100
AcDbMText
 10
16.956852612
 20
18.5124070964
 30
0.0
 40
0.5
 41
0.0
 71
     1
 72
     1
  1
5
  7
SLDTEXTSTYLE1
 73
     1
 44
1.0
  0
MTEXT
  5
18A
330
17E
100
AcDbEntity
  8
DIMS
100
AcDbMText
 10
16.7721303892
 20
17.8512265179
 30
0.0
 40
0.5
 41
0.0
 71
     1
 72
     1
  1
16
  7
SLDTEXTSTYLE1
 73
     1
 44
1.0
  0
MTEXT
  5
18B
330
17E
100
AcDbEntity
  8
DIMS
100
AcDbMText
 10
17.6575471575
 20
18.1470945974
 30
0.0
 40
0.5
 41
0.0
 71
     1
 72
     1
  1
"
  7
SLDTEXTSTYLE1
 73
     1
 44
1.0
  0
ENDBLK
  5
180
330
17E
100
AcDbEntity
  8
0
100
AcDbBlockEnd
  0
BLOCK
  5
18F
330
18E
100
AcDbEntity
  8
0
100
AcDbBlockBegin
  2
_D_2
 70
     0
 10
0.0
 20
0.0
 30
0.0
  3
_D_2
  1

  0
INSERT
  5
191
330
18E
100
AcDbEntity
  8
DIMS
100
AcDbBlockReference
  2
_Open90
 10
12.3654529481
 20
20.5635798461
 30
0.0
 41
0.3
 42
0.3
 50
90.0
  0
INSERT
  5
192
330
18E
100
AcDbEntity
  8
DIMS
100
AcDbBlockReference
  2
_Open90
 10
12.3654529481
 20
17.9235798461
 30
0.0
 41
0.3
 42
0.3
 50
270.0
  0
LINE
  5
193
330
18E
100
AcDbEntity
  8
DIMS
100
AcDbLine
 10
12.1890640274
 20
19.2010750197
 30
0.0
 11
12.7050362769
 21
19.2010750197
 31
0.0
  0
LINE
  5
194
330
18E
100
AcDbEntity
  8
DIMS
100
AcDbLine
 10
13.6287075413
 20
20.5635798461
 30
0.0
 11
11.9904529481
 21
20.5635798461
 31
0.0
  0
LINE
  5
195
330
18E
100
AcDbEntity
  8
DIMS
100
AcDbLine
 10
13.6287075413
 20
17.9235798461
 30
0.0
 11
11.9904529481
 21
17.9235798461
 31
0.0
  0
LINE
  5
196
330
18E
100
AcDbEntity
  8
DIMS
100
AcDbLine
 10
12.3654529481
 20
20.5635798461
 30
0.0
 11
12.3654529481
 21
19.8036444746
 31
0.0
  0
LINE
  5
197
330
18E
100
AcDbEntity
  8
DIMS
100
AcDbLine
 10
12.3654529481
 20
17.9235798461
 30
0.0
 11
12.3654529481
 21
18.495936168
 31
0.0
  0
MTEXT
  5
198
330
18E
100
AcDbEntity
  8
DIMS
100
AcDbMText
 10
11.74635568
 20
19.4304760801
 30
0.0
 40
0.5
 41
0.0
 71
     1
 72
     1
  1
2
  7
SLDTEXTSTYLE1
 73
     1
 44
1.0
  0
MTEXT
  5
199
330
18E
100
AcDbEntity
  8
DIMS
100
AcDbMText
 10
12.2623279294
 20
19.7957885791
 30
0.0
 40
0.5
 41
0.0
 71
     1
 72
     1
  1
5
  7
SLDTEXTSTYLE1
 73
     1
 44
1.0
  0
MTEXT
  5
19A
330
18E
100
AcDbEntity
  8
DIMS
100
AcDbMText
 10
12.2623279294
 20
19.1346080006
 30
0.0
 40
0.5
 41
0.0
 71
     1
 72
     1
  1
8
  7
SLDTEXTSTYLE1
 73
     1
 44
1.0
  0
MTEXT
  5
19B
330
18E
100
AcDbEntity
  8
DIMS
100
AcDbMText
 10
12.7783001789
 20
19.4304760801
 30
0.0
 40
0.5
 41
0.0
 71
     1
 72
     1
  1
"
  7
SLDTEXTSTYLE1
 73
     1
 44
1.0
  0
ENDBLK
  5
190
330
18E
100
AcDbEntity
  8
0
100
AcDbBlockEnd
  0
BLOCK
  5
19E
330
19D
100
AcDbEntity
  8
0
100
AcDbBlockBegin
  2
_D_3
 70
     0
 10
0.0
 20
0.0
 30
0.0
  3
_D_3
  1

  0
INSERT
  5
1A0
330
19D
100
AcDbEntity
  8
DIMS
100
AcDbBlockReference
  2
_Open90
 10
14.3292398278
 20
19.2124454659
 30
0.0
 41
0.3
 42
0.3
 50
225.0
  0
LINE
  5
1A1
330
19D
100
AcDbEntity
  8
DIMS
100
AcDbLine
 10
16.6428618959
 20
20.0805814027
 30
0.0
 11
17.1588341454
 21
20.0805814027
 31
0.0
  0
LINE
  5
1A2
330
19D
100
AcDbEntity
  8
DIMS
100
AcDbLine
 10
14.3292398278
 20
19.2124454659
 30
0.0
 11
15.1460910661
 21
20.0292967043
 31
0.0
  0
LINE
  5
1A3
330
19D
100
AcDbEntity
  8
DIMS
100
AcDbLine
 10
15.1460910661
 20
20.0292967043
 30
0.0
 11
15.4460910661
 21
20.0292967043
 31
0.0
  0
MTEXT
  5
1A4
330
19D
100
AcDbEntity
  8
DIMS
100
AcDbMText
 10
15.4460910661
 20
20.3023435739
 30
0.0
 40
0.5
 41
0.0
 71
     1
 72
     1
  1
%%c
  7
SLDTEXTSTYLE1
 73
     1
 44
1.0
  0
MTEXT
  5
1A5
330
19D
100
AcDbEntity
  8
DIMS
100
AcDbMText
 10
16.2001535485
 20
20.3099824631
 30
0.0
 40
0.5
 41
0.0
 71
     1
 72
     1
  1
1
  7
SLDTEXTSTYLE1
 73
     1
 44
1.0
  0
MTEXT
  5
1A6
330
19D
100
AcDbEntity
  8
DIMS
100
AcDbMText
 10
16.7161257979
 20
20.6752949622
 30
0.0
 40
0.5
 41
0.0
 71
     1
 72
     1
  1
1
  7
SLDTEXTSTYLE1
 73
     1
 44
1.0
  0
MTEXT
  5
1A7
330
19D
100
AcDbEntity
  8
DIMS
100
AcDbMText
 10
16.7161257979
 20
20.0141143836
 30
0.0
 40
0.5
 41
0.0
 71
     1
 72
     1
  1
2
  7
SLDTEXTSTYLE1
 73
     1
 44
1.0
  0
MTEXT
  5
1A8
330
19D
100
AcDbEntity
  8
DIMS
100
AcDbMText
 10
17.2320980474
 20
20.3099824631
 30
0.0
 40
0.5
 41
0.0
 71
     1
 72
     1
  1
"
  7
SLDTEXTSTYLE1
 73
     1
 44
1.0
  0
ENDBLK
  5
19F
330
19D
100
AcDbEntity
  8
0
100
AcDbBlockEnd
  0
BLOCK
  5
1EB
330
1EA
100
AcDbEntity
  8
0
100
AcDbBlockBegin
  2
SW_NOTE_0_2
 70
     0
 10
0.0
 20
0.0
 30
0.0
  3
SW_NOTE_0_2
  1

  0
MTEXT
  5
1ED
330
1EA
100
AcDbEntity
  8
NOTES
 62
     0
100
AcDbMText
 10
0.0
 20
0.638671875
 30
0.0
 40
0.5
 41
0.0
 71
     1
 72
     1
  1
3D view
  7
SLDTEXTSTYLE1
 73
     1
 44
1.0
  0
MTEXT
  5
1EE
330
1EA
100
AcDbEntity
  8
NOTES
 62
     0
100
AcDbMText
 10
0.0
 20
-0.3613281862
 30
0.0
 40
0.5
 41
0.0
 71
     1
 72
     1
  1
code 1144-501L
  7
SLDTEXTSTYLE1
 73
     1
 44
1.0
  0
ENDBLK
  5
1EC
330
1EA
100
AcDbEntity
  8
0
100
AcDbBlockEnd
  0
ENDSEC
  0
SECTION
  2
ENTITIES
  0
LINE
  5
7A
330
1F
100
AcDbEntity
  8
TITLE
370
    35
100
AcDbLine
 10
30.5182229757
 20
1.4876117645
 30
0.0
 11
47.4999864512
 21
1.4876117645
 31
0.0
  0
LINE
  5
7B
330
1F
100
AcDbEntity
  8
TITLE
370
    35
100
AcDbLine
 10
47.4999317442
 20
5.4753603936
 30
0.0
 11
37.3105350723
 21
5.4753603936
 31
0.0
  0
LINE
  5
7C
330
1F
100
AcDbEntity
  8
TITLE
  6
SLD-Solid
370
    18
100
AcDbLine
 10
0.5
 20
0.5
 30
0.0
 11
0.5
 21
35.5
 31
0.0
  0
LINE
  5
7D
330
1F
100
AcDbEntity
  8
TITLE
  6
SLD-Solid
370
    18
100
AcDbLine
 10
0.5
 20
35.5
 30
0.0
 11
47.5
 21
35.5
 31
0.0
  0
LINE
  5
7E
330
1F
100
AcDbEntity
  8
TITLE
370
    35
100
AcDbLine
 10
30.5182229757
 20
2.5427877231
 30
0.0
 11
23.5059791203
 21
2.5427877231
 31
0.0
  0
LINE
  5
7F
330
1F
100
AcDbEntity
  8
TITLE
370
    35
100
AcDbLine
 10
30.5182229757
 20
1.4876117645
 30
0.0
 11
23.5059791203
 21
1.4876117645
 31
0.0
  0
LINE
  5
80
330
1F
100
AcDbEntity
  8
TITLE
  6
SLD-Solid
370
    18
100
AcDbLine
 10
47.5
 20
35.5
 30
0.0
 11
47.5
 21
0.5
 31
0.0
  0
LINE
  5
81
330
1F
100
AcDbEntity
  8
TITLE
  6
SLD-Solid
370
    18
100
AcDbLine
 10
47.5
 20
0.5
 30
0.0
 11
0.5
 21
0.5
 31
0.0
  0
LINE
  5
82
330
1F
100
AcDbEntity
  8
TITLE
370
    35
100
AcDbLine
 10
30.5182229757
 20
1.4876117645
 30
0.0
 11
30.5182229757
 21
3.5979636817
 31
0.0
  0
LINE
  5
83
330
1F
100
AcDbEntity
  8
TITLE
370
    35
100
AcDbLine
 10
23.5059791203
 20
3.5979636817
 30
0.0
 11
23.5059791203
 21
0.5
 31
0.0
  0
LINE
  5
84
330
1F
100
AcDbEntity
  8
TITLE
370
    35
100
AcDbLine
 10
23.5059791203
 20
0.5
 30
0.0
 11
47.5
 21
0.5
 31
0.0
  0
LINE
  5
85
330
1F
100
AcDbEntity
  8
TITLE
370
    35
100
AcDbLine
 10
47.4999317442
 20
5.4753603936
 30
0.0
 11
47.5
 21
0.5
 31
0.0
  0
LINE
  5
86
330
1F
100
AcDbEntity
  8
TITLE
  6
SLD-Solid
370
    18
100
AcDbLine
 10
0.4999606299
 20
18.0
 30
0.0
 11
0.5000393701
 21
18.0
 31
0.0
  0
LINE
  5
87
330
1F
100
AcDbEntity
  8
TITLE
370
    35
100
AcDbLine
 10
30.5182229757
 20
3.5979636817
 30
0.0
 11
23.5059791203
 21
3.5979636817
 31
0.0
  0
LINE
  5
88
330
1F
100
AcDbEntity
  8
TITLE
370
    35
100
AcDbLine
 10
30.5182229757
 20
3.5979636817
 30
0.0
 11
47.4997615643
 21
3.5979648343
 31
0.0
  0
LINE
  5
89
330
1F
100
AcDbEntity
  8
TITLE
370
    35
100
AcDbLine
 10
37.3105350723
 20
5.4753603936
 30
0.0
 11
37.3105350723
 21
0.4636772425
 31
0.0
  0
LINE
  5
8A
330
1F
100
AcDbEntity
  8
TITLE
  6
SLD-Solid
370
    18
100
AcDbLine
 10
24.0
 20
35.5000393701
 30
0.0
 11
24.0
 21
35.4999606299
 31
0.0
  0
LINE
  5
8B
330
1F
100
AcDbEntity
  8
TITLE
  6
SLD-Solid
370
    18
100
AcDbLine
 10
47.5000393701
 20
18.0
 30
0.0
 11
47.4999606299
 21
18.0
 31
0.0
  0
LINE
  5
8C
330
1F
100
AcDbEntity
  8
TITLE
  6
SLD-Solid
370
    18
100
AcDbLine
 10
24.0
 20
0.4999606299
 30
0.0
 11
24.0
 21
0.5000393701
 31
0.0
  0
LINE
  5
8D
330
1F
100
AcDbEntity
  8
TITLE
  6
SLD-Solid
370
    18
100
AcDbLine
 10
0.5
 20
2.2519685039
 30
0.0
 11
0.1653543307
 21
2.2519685039
 31
0.0
  0
LINE
  5
8E
330
1F
100
AcDbEntity
  8
TITLE
  6
SLD-Solid
370
    18
100
AcDbLine
 10
47.5
 20
2.2519685039
 30
0.0
 11
47.8346456693
 21
2.2519685039
 31
0.0
  0
LINE
  5
8F
330
1F
100
AcDbEntity
  8
TITLE
  6
SLD-Solid
370
    18
100
AcDbLine
 10
0.5
 20
4.2204724409
 30
0.0
 11
0.1653543307
 21
4.2204724409
 31
0.0
  0
LINE
  5
90
330
1F
100
AcDbEntity
  8
TITLE
  6
SLD-Solid
370
    18
100
AcDbLine
 10
47.5
 20
4.2204724409
 30
0.0
 11
47.8346456693
 21
4.2204724409
 31
0.0
  0
LINE
  5
91
330
1F
100
AcDbEntity
  8
TITLE
  6
SLD-Solid
370
    18
100
AcDbLine
 10
0.5
 20
6.188976378
 30
0.0
 11
0.1653543307
 21
6.188976378
 31
0.0
  0
LINE
  5
92
330
1F
100
AcDbEntity
  8
TITLE
  6
SLD-Solid
370
    18
100
AcDbLine
 10
47.5
 20
6.188976378
 30
0.0
 11
47.8346456693
 21
6.188976378
 31
0.0
  0
LINE
  5
93
330
1F
100
AcDbEntity
  8
TITLE
  6
SLD-Solid
370
    18
100
AcDbLine
 10
0.5
 20
8.157480315
 30
0.0
 11
0.1653543307
 21
8.157480315
 31
0.0
  0
LINE
  5
94
330
1F
100
AcDbEntity
  8
TITLE
  6
SLD-Solid
370
    18
100
AcDbLine
 10
47.5
 20
8.157480315
 30
0.0
 11
47.8346456693
 21
8.157480315
 31
0.0
  0
LINE
  5
95
330
1F
100
AcDbEntity
  8
TITLE
  6
SLD-Solid
370
    18
100
AcDbLine
 10
0.5
 20
10.125984252
 30
0.0
 11
0.1653543307
 21
10.125984252
 31
0.0
  0
LINE
  5
96
330
1F
100
AcDbEntity
  8
TITLE
  6
SLD-Solid
370
    18
100
AcDbLine
 10
47.5
 20
10.125984252
 30
0.0
 11
47.8346456693
 21
10.125984252
 31
0.0
  0
LINE
  5
97
330
1F
100
AcDbEntity
  8
TITLE
  6
SLD-Solid
370
    18
100
AcDbLine
 10
0.5
 20
12.094488189
 30
0.0
 11
0.1653543307
 21
12.094488189
 31
0.0
  0
LINE
  5
98
330
1F
100
AcDbEntity
  8
TITLE
  6
SLD-Solid
370
    18
100
AcDbLine
 10
47.5
 20
12.094488189
 30
0.0
 11
47.8346456693
 21
12.094488189
 31
0.0
  0
LINE
  5
99
330
1F
100
AcDbEntity
  8
TITLE
  6
SLD-Solid
370
    18
100
AcDbLine
 10
0.5
 20
14.062992126
 30
0.0
 11
0.1653543307
 21
14.062992126
 31
0.0
  0
LINE
  5
9A
330
1F
100
AcDbEntity
  8
TITLE
  6
SLD-Solid
370
    18
100
AcDbLine
 10
47.5
 20
14.062992126
 30
0.0
 11
47.8346456693
 21
14.062992126
 31
0.0
  0
LINE
  5
9B
330
1F
100
AcDbEntity
  8
TITLE
  6
SLD-Solid
370
    18
100
AcDbLine
 10
0.5
 20
16.031496063
 30
0.0
 11
0.1653543307
 21
16.031496063
 31
0.0
  0
LINE
  5
9C
330
1F
100
AcDbEntity
  8
TITLE
  6
SLD-Solid
370
    18
100
AcDbLine
 10
47.5
 20
16.031496063
 30
0.0
 11
47.8346456693
 21
16.031496063
 31
0.0
  0
LINE
  5
9D
330
1F
100
AcDbEntity
  8
TITLE
  6
SLD-Solid
370
    18
100
AcDbLine
 10
0.5
 20
18.0
 30
0.0
 11
0.1653543307
 21
18.0
 31
0.0
  0
LINE
  5
9E
330
1F
100
AcDbEntity
  8
TITLE
  6
SLD-Solid
370
    18
100
AcDbLine
 10
47.5
 20
18.0
 30
0.0
 11
47.8346456693
 21
18.0
 31
0.0
  0
LINE
  5
9F
330
1F
100
AcDbEntity
  8
TITLE
  6
SLD-Solid
370
    18
100
AcDbLine
 10
0.5
 20
19.968503937
 30
0.0
 11
0.1653543307
 21
19.968503937
 31
0.0
  0
LINE
  5
A0
330
1F
100
AcDbEntity
  8
TITLE
  6
SLD-Solid
370
    18
100
AcDbLine
 10
47.5
 20
19.968503937
 30
0.0
 11
47.8346456693
 21
19.968503937
 31
0.0
  0
LINE
  5
A1
330
1F
100
AcDbEntity
  8
TITLE
  6
SLD-Solid
370
    18
100
AcDbLine
 10
0.5
 20
21.937007874
 30
0.0
 11
0.1653543307
 21
21.937007874
 31
0.0
  0
LINE
  5
A2
330
1F
100
AcDbEntity
  8
TITLE
  6
SLD-Solid
370
    18
100
AcDbLine
 10
47.5
 20
21.937007874
 30
0.0
 11
47.8346456693
 21
21.937007874
 31
0.0
  0
LINE
  5
A3
330
1F
100
AcDbEntity
  8
TITLE
  6
SLD-Solid
370
    18
100
AcDbLine
 10
0.5
 20
23.905511811
 30
0.0
 11
0.1653543307
 21
23.905511811
 31
0.0
  0
LINE
  5
A4
330
1F
100
AcDbEntity
  8
TITLE
  6
SLD-Solid
370
    18
100
AcDbLine
 10
47.5
 20
23.905511811
 30
0.0
 11
47.8346456693
 21
23.905511811
 31
0.0
  0
LINE
  5
A5
330
1F
100
AcDbEntity
  8
TITLE
  6
SLD-Solid
370
    18
100
AcDbLine
 10
0.5
 20
25.874015748
 30
0.0
 11
0.1653543307
 21
25.874015748
 31
0.0
  0
LINE
  5
A6
330
1F
100
AcDbEntity
  8
TITLE
  6
SLD-Solid
370
    18
100
AcDbLine
 10
47.5
 20
25.874015748
 30
0.0
 11
47.8346456693
 21
25.874015748
 31
0.0
  0
LINE
  5
A7
330
1F
100
AcDbEntity
  8
TITLE
  6
SLD-Solid
370
    18
100
AcDbLine
 10
0.5
 20
27.842519685
 30
0.0
 11
0.1653543307
 21
27.842519685
 31
0.0
  0
LINE
  5
A8
330
1F
100
AcDbEntity
  8
TITLE
  6
SLD-Solid
370
    18
100
AcDbLine
 10
47.5
 20
27.842519685
 30
0.0
 11
47.8346456693
 21
27.842519685
 31
0.0
  0
LINE
  5
A9
330
1F
100
AcDbEntity
  8
TITLE
  6
SLD-Solid
370
    18
100
AcDbLine
 10
0.5
 20
29.811023622
 30
0.0
 11
0.1653543307
 21
29.811023622
 31
0.0
  0
LINE
  5
AA
330
1F
100
AcDbEntity
  8
TITLE
  6
SLD-Solid
370
    18
100
AcDbLine
 10
47.5
 20
29.811023622
 30
0.0
 11
47.8346456693
 21
29.811023622
 31
0.0
  0
LINE
  5
AB
330
1F
100
AcDbEntity
  8
TITLE
  6
SLD-Solid
370
    18
100
AcDbLine
 10
0.5
 20
31.7795275591
 30
0.0
 11
0.1653543307
 21
31.7795275591
 31
0.0
  0
LINE
  5
AC
330
1F
100
AcDbEntity
  8
TITLE
  6
SLD-Solid
370
    18
100
AcDbLine
 10
47.5
 20
31.7795275591
 30
0.0
 11
47.8346456693
 21
31.7795275591
 31
0.0
  0
LINE
  5
AD
330
1F
100
AcDbEntity
  8
TITLE
  6
SLD-Solid
370
    18
100
AcDbLine
 10
47.5
 20
33.7480314961
 30
0.0
 11
47.8346456693
 21
33.7480314961
 31
0.0
  0
LINE
  5
AE
330
1F
100
AcDbEntity
  8
TITLE
  6
SLD-Solid
370
    18
100
AcDbLine
 10
2.3464566929
 20
35.5
 30
0.0
 11
2.3464566929
 21
35.8346456693
 31
0.0
  0
LINE
  5
AF
330
1F
100
AcDbEntity
  8
TITLE
  6
SLD-Solid
370
    18
100
AcDbLine
 10
2.3464566929
 20
0.5
 30
0.0
 11
2.3464566929
 21
0.1653543307
 31
0.0
  0
LINE
  5
B0
330
1F
100
AcDbEntity
  8
TITLE
  6
SLD-Solid
370
    18
100
AcDbLine
 10
4.3149606299
 20
0.5
 30
0.0
 11
4.3149606299
 21
0.1653543307
 31
0.0
  0
LINE
  5
B1
330
1F
100
AcDbEntity
  8
TITLE
  6
SLD-Solid
370
    18
100
AcDbLine
 10
6.2834645669
 20
35.5
 30
0.0
 11
6.2834645669
 21
35.8346456693
 31
0.0
  0
LINE
  5
B2
330
1F
100
AcDbEntity
  8
TITLE
  6
SLD-Solid
370
    18
100
AcDbLine
 10
6.2834645669
 20
0.5
 30
0.0
 11
6.2834645669
 21
0.1653543307
 31
0.0
  0
LINE
  5
B3
330
1F
100
AcDbEntity
  8
TITLE
  6
SLD-Solid
370
    18
100
AcDbLine
 10
8.2519685039
 20
35.5
 30
0.0
 11
8.2519685039
 21
35.8346456693
 31
0.0
  0
LINE
  5
B4
330
1F
100
AcDbEntity
  8
TITLE
  6
SLD-Solid
370
    18
100
AcDbLine
 10
8.2519685039
 20
0.5
 30
0.0
 11
8.2519685039
 21
0.1653543307
 31
0.0
  0
LINE
  5
B5
330
1F
100
AcDbEntity
  8
TITLE
  6
SLD-Solid
370
    18
100
AcDbLine
 10
10.2204724409
 20
35.5
 30
0.0
 11
10.2204724409
 21
35.8346456693
 31
0.0
  0
LINE
  5
B6
330
1F
100
AcDbEntity
  8
TITLE
  6
SLD-Solid
370
    18
100
AcDbLine
 10
10.2204724409
 20
0.5
 30
0.0
 11
10.2204724409
 21
0.1653543307
 31
0.0
  0
LINE
  5
B7
330
1F
100
AcDbEntity
  8
TITLE
  6
SLD-Solid
370
    18
100
AcDbLine
 10
12.188976378
 20
35.5
 30
0.0
 11
12.188976378
 21
35.8346456693
 31
0.0
  0
LINE
  5
B8
330
1F
100
AcDbEntity
  8
TITLE
  6
SLD-Solid
370
    18
100
AcDbLine
 10
12.188976378
 20
0.5
 30
0.0
 11
12.188976378
 21
0.1653543307
 31
0.0
  0
LINE
  5
B9
330
1F
100
AcDbEntity
  8
TITLE
  6
SLD-Solid
370
    18
100
AcDbLine
 10
14.157480315
 20
35.5
 30
0.0
 11
14.157480315
 21
35.8346456693
 31
0.0
  0
LINE
  5
BA
330
1F
100
AcDbEntity
  8
TITLE
  6
SLD-Solid
370
    18
100
AcDbLine
 10
14.157480315
 20
0.5
 30
0.0
 11
14.157480315
 21
0.1653543307
 31
0.0
  0
LINE
  5
BB
330
1F
100
AcDbEntity
  8
TITLE
  6
SLD-Solid
370
    18
100
AcDbLine
 10
16.125984252
 20
35.5
 30
0.0
 11
16.125984252
 21
35.8346456693
 31
0.0
  0
LINE
  5
BC
330
1F
100
AcDbEntity
  8
TITLE
  6
SLD-Solid
370
    18
100
AcDbLine
 10
16.125984252
 20
0.5
 30
0.0
 11
16.125984252
 21
0.1653543307
 31
0.0
  0
LINE
  5
BD
330
1F
100
AcDbEntity
  8
TITLE
  6
SLD-Solid
370
    18
100
AcDbLine
 10
18.094488189
 20
35.5
 30
0.0
 11
18.094488189
 21
35.8346456693
 31
0.0
  0
LINE
  5
BE
330
1F
100
AcDbEntity
  8
TITLE
  6
SLD-Solid
370
    18
100
AcDbLine
 10
18.094488189
 20
0.5
 30
0.0
 11
18.094488189
 21
0.1653543307
 31
0.0
  0
LINE
  5
BF
330
1F
100
AcDbEntity
  8
TITLE
  6
SLD-Solid
370
    18
100
AcDbLine
 10
20.062992126
 20
35.5
 30
0.0
 11
20.062992126
 21
35.8346456693
 31
0.0
  0
LINE
  5
C0
330
1F
100
AcDbEntity
  8
TITLE
  6
SLD-Solid
370
    18
100
AcDbLine
 10
20.062992126
 20
0.5
 30
0.0
 11
20.062992126
 21
0.1653543307
 31
0.0
  0
LINE
  5
C1
330
1F
100
AcDbEntity
  8
TITLE
  6
SLD-Solid
370
    18
100
AcDbLine
 10
22.031496063
 20
35.5
 30
0.0
 11
22.031496063
 21
35.8346456693
 31
0.0
  0
LINE
  5
C2
330
1F
100
AcDbEntity
  8
TITLE
  6
SLD-Solid
370
    18
100
AcDbLine
 10
22.031496063
 20
0.5
 30
0.0
 11
22.031496063
 21
0.1653543307
 31
0.0
  0
LINE
  5
C3
330
1F
100
AcDbEntity
  8
TITLE
  6
SLD-Solid
370
    18
100
AcDbLine
 10
24.0
 20
35.5
 30
0.0
 11
24.0
 21
35.8346456693
 31
0.0
  0
LINE
  5
C4
330
1F
100
AcDbEntity
  8
TITLE
  6
SLD-Solid
370
    18
100
AcDbLine
 10
24.0
 20
0.5
 30
0.0
 11
24.0
 21
0.1653543307
 31
0.0
  0
LINE
  5
C5
330
1F
100
AcDbEntity
  8
TITLE
  6
SLD-Solid
370
    18
100
AcDbLine
 10
25.968503937
 20
35.5
 30
0.0
 11
25.968503937
 21
35.8346456693
 31
0.0
  0
LINE
  5
C6
330
1F
100
AcDbEntity
  8
TITLE
  6
SLD-Solid
370
    18
100
AcDbLine
 10
25.968503937
 20
0.5
 30
0.0
 11
25.968503937
 21
0.1653543307
 31
0.0
  0
LINE
  5
C7
330
1F
100
AcDbEntity
  8
TITLE
  6
SLD-Solid
370
    18
100
AcDbLine
 10
27.937007874
 20
35.5
 30
0.0
 11
27.937007874
 21
35.8346456693
 31
0.0
  0
LINE
  5
C8
330
1F
100
AcDbEntity
  8
TITLE
  6
SLD-Solid
370
    18
100
AcDbLine
 10
27.937007874
 20
0.5
 30
0.0
 11
27.937007874
 21
0.1653543307
 31
0.0
  0
LINE
  5
C9
330
1F
100
AcDbEntity
  8
TITLE
  6
SLD-Solid
370
    18
100
AcDbLine
 10
29.905511811
 20
35.5
 30
0.0
 11
29.905511811
 21
35.8346456693
 31
0.0
  0
LINE
  5
CA
330
1F
100
AcDbEntity
  8
TITLE
  6
SLD-Solid
370
    18
100
AcDbLine
 10
29.905511811
 20
0.5
 30
0.0
 11
29.905511811
 21
0.1653543307
 31
0.0
  0
LINE
  5
CB
330
1F
100
AcDbEntity
  8
TITLE
  6
SLD-Solid
370
    18
100
AcDbLine
 10
31.874015748
 20
35.5
 30
0.0
 11
31.874015748
 21
35.8346456693
 31
0.0
  0
LINE
  5
CC
330
1F
100
AcDbEntity
  8
TITLE
  6
SLD-Solid
370
    18
100
AcDbLine
 10
31.874015748
 20
0.5
 30
0.0
 11
31.874015748
 21
0.1653543307
 31
0.0
  0
LINE
  5
CD
330
1F
100
AcDbEntity
  8
TITLE
  6
SLD-Solid
370
    18
100
AcDbLine
 10
33.842519685
 20
35.5
 30
0.0
 11
33.842519685
 21
35.8346456693
 31
0.0
  0
LINE
  5
CE
330
1F
100
AcDbEntity
  8
TITLE
  6
SLD-Solid
370
    18
100
AcDbLine
 10
33.842519685
 20
0.5
 30
0.0
 11
33.842519685
 21
0.1653543307
 31
0.0
  0
LINE
  5
CF
330
1F
100
AcDbEntity
  8
TITLE
  6
SLD-Solid
370
    18
100
AcDbLine
 10
35.811023622
 20
35.5
 30
0.0
 11
35.811023622
 21
35.8346456693
 31
0.0
  0
LINE
  5
D0
330
1F
100
AcDbEntity
  8
TITLE
  6
SLD-Solid
370
    18
100
AcDbLine
 10
35.811023622
 20
0.5
 30
0.0
 11
35.811023622
 21
0.1653543307
 31
0.0
  0
LINE
  5
D1
330
1F
100
AcDbEntity
  8
TITLE
  6
SLD-Solid
370
    18
100
AcDbLine
 10
37.7795275591
 20
35.5
 30
0.0
 11
37.7795275591
 21
35.8346456693
 31
0.0
  0
LINE
  5
D2
330
1F
100
AcDbEntity
  8
TITLE
  6
SLD-Solid
370
    18
100
AcDbLine
 10
37.7795275591
 20
0.5
 30
0.0
 11
37.7795275591
 21
0.1653543307
 31
0.0
  0
LINE
  5
D3
330
1F
100
AcDbEntity
  8
TITLE
  6
SLD-Solid
370
    18
100
AcDbLine
 10
39.7480314961
 20
35.5
 30
0.0
 11
39.7480314961
 21
35.8346456693
 31
0.0
  0
LINE
  5
D4
330
1F
100
AcDbEntity
  8
TITLE
  6
SLD-Solid
370
    18
100
AcDbLine
 10
39.7480314961
 20
0.5
 30
0.0
 11
39.7480314961
 21
0.1653543307
 31
0.0
  0
LINE
  5
D5
330
1F
100
AcDbEntity
  8
TITLE
  6
SLD-Solid
370
    18
100
AcDbLine
 10
41.7165354331
 20
35.5
 30
0.0
 11
41.7165354331
 21
35.8346456693
 31
0.0
  0
LINE
  5
D6
330
1F
100
AcDbEntity
  8
TITLE
  6
SLD-Solid
370
    18
100
AcDbLine
 10
41.7165354331
 20
0.5
 30
0.0
 11
41.7165354331
 21
0.1653543307
 31
0.0
  0
LINE
  5
D7
330
1F
100
AcDbEntity
  8
TITLE
  6
SLD-Solid
370
    18
100
AcDbLine
 10
43.6850393701
 20
35.5
 30
0.0
 11
43.6850393701
 21
35.8346456693
 31
0.0
  0
LINE
  5
D8
330
1F
100
AcDbEntity
  8
TITLE
  6
SLD-Solid
370
    18
100
AcDbLine
 10
43.6850393701
 20
0.5
 30
0.0
 11
43.6850393701
 21
0.1653543307
 31
0.0
  0
LINE
  5
D9
330
1F
100
AcDbEntity
  8
TITLE
  6
SLD-Solid
370
    18
100
AcDbLine
 10
45.6535433071
 20
35.5
 30
0.0
 11
45.6535433071
 21
35.8346456693
 31
0.0
  0
LINE
  5
DA
330
1F
100
AcDbEntity
  8
TITLE
  6
SLD-Solid
370
    18
100
AcDbLine
 10
45.6535433071
 20
0.5
 30
0.0
 11
45.6535433071
 21
0.1653543307
 31
0.0
  0
LINE
  5
DB
330
1F
100
AcDbEntity
  8
TITLE
370
    35
100
AcDbLine
 10
0.5
 20
35.5
 30
0.0
 11
47.5
 21
35.5
 31
0.0
  0
LINE
  5
DC
330
1F
100
AcDbEntity
  8
TITLE
370
    35
100
AcDbLine
 10
0.5
 20
35.5
 30
0.0
 11
0.5
 21
0.5
 31
0.0
  0
LINE
  5
DD
330
1F
100
AcDbEntity
  8
TITLE
370
    35
100
AcDbLine
 10
0.5
 20
0.5
 30
0.0
 11
47.5
 21
0.5
 31
0.0
  0
LINE
  5
DE
330
1F
100
AcDbEntity
  8
TITLE
370
    35
100
AcDbLine
 10
47.5
 20
35.5
 30
0.0
 11
47.5
 21
0.5
 31
0.0
  0
MTEXT
  5
E0
330
1F
100
AcDbEntity
  8
NOTES
100
AcDbMText
 10
24.408297803
 20
1.0702903347
 30
0.0
 40
0.25
 41
0.0
 71
     1
 72
     1
  1
UNLESS OTHERWISE SPECIFIED DIMENSIONS ARE IN INCHES.
  7
SLDTEXTSTYLE0
 73
     1
 44
1.0
  0
MTEXT
  5
E1
330
1F
100
AcDbEntity
  8
NOTES
100
AcDbMText
 10
24.4368251132
 20
3.2193045501
 30
0.0
 40
0.25
 41
0.0
 71
     1
 72
     1
  1
DATE:
  7
SLDTEXTSTYLE0
 73
     1
 44
1.0
  0
MTEXT
  5
E2
330
1F
100
AcDbEntity
  8
NOTES
100
AcDbMText
 10
26.7130669976
 20
2.1722148141
 30
0.0
 40
0.25
 41
0.0
 71
     2
 72
     1
  1
DO NOT SCALE DRAWING
  7
SLDTEXTSTYLE0
 73
     1
 44
1.0
  0
MTEXT
  5
E4
330
1F
100
AcDbEntity
  8
NOTES
100
AcDbMText
 10
30.8307373075
 20
3.2682755553
 30
0.0
 40
0.25
 41
0.0
 71
     1
 72
     1
  1
TITLE:
  7
SLDTEXTSTYLE1
 73
     1
 44
1.0
  0
MTEXT
  5
E5
330
1F
100
AcDbEntity
  8
NOTES
100
AcDbMText
 10
38.1561831052
 20
3.2682755553
 30
0.0
 40
0.25
 41
0.0
 71
     1
 72
     1
  1
DWG NO.
  7
SLDTEXTSTYLE1
 73
     1
 44
1.0
  0
MTEXT
  5
E6
330
1F
100
AcDbEntity
  8
NOTES
100
AcDbMText
 10
38.1831753203
 20
1.0645815577
 30
0.0
 40
0.25
 41
0.0
 71
     1
 72
     1
  1
SCALE:     1:1
  7
SLDTEXTSTYLE1
 73
     1
 44
1.0
  0
MTEXT
  5
E7
330
1F
100
AcDbEntity
  8
NOTES
100
AcDbMText
 10
42.1880915266
 20
2.6510344295
 30
0.0
 40
0.25
 41
0.0
 71
     2
 72
     1
  1
1144-501L CAD
  7
SLDTEXTSTYLE1
 73
     1
 44
1.0
  0
MTEXT
  5
E8
330
1F
100
AcDbEntity
  8
NOTES
100
AcDbMText
 10
33.9587727244
 20
2.6388861441
 30
0.0
 40
0.25
 41
0.0
 71
     2
 72
     1
  1
1144-501L
  7
SLDTEXTSTYLE1
 73
     1
 44
1.0
  0
INSERT
  5
EE
330
1F
100
AcDbEntity
  8
NOTES
100
AcDbBlockReference
  2
SW_NOTE_0
 10
38.266131557
 20
4.6105227838
 30
0.0
  0
INSERT
  5
F8
330
1F
100
AcDbEntity
  8
NOTES
100
AcDbBlockReference
  2
SW_NOTE_0_1
 10
24.6159726246
 20
5.1481526848
 30
0.0
  0
MTEXT
  5
F9
330
1F
100
AcDbEntity
  8
NOTES
100
AcDbMText
 10
27.5290904231
 20
3.2135957731
 30
0.0
 40
0.25
 41
0.0
 71
     2
 72
     1
  1
October 13, 2021
  7
SLDTEXTSTYLE1
 73
     1
 44
1.0
  0
MTEXT
  5
FA
330
1F
100
AcDbEntity
  8
TITLE
100
AcDbMText
 10
0.3276279776
 20
1.4558621965
 30
0.0
 40
0.125
 41
0.0
 71
     2
 72
     1
  1
A
  7
SLDTEXTSTYLE1
 73
     1
 44
1.0
  0
MTEXT
  5
FB
330
1F
100
AcDbEntity
  8
TITLE
100
AcDbMText
 10
47.6622736469
 20
1.4558621965
 30
0.0
 40
0.125
 41
0.0
 71
     2
 72
     1
  1
A
  7
SLDTEXTSTYLE1
 73
     1
 44
1.0
  0
MTEXT
  5
FC
330
1F
100
AcDbEntity
  8
TITLE
100
AcDbMText
 10
0.3317512413
 20
3.316098417
 30
0.0
 40
0.125
 41
0.0
 71
     2
 72
     1
  1
B
  7
SLDTEXTSTYLE1
 73
     1
 44
1.0
  0
MTEXT
  5
FD
330
1F
100
AcDbEntity
  8
TITLE
100
AcDbMText
 10
47.6663969106
 20
3.316098417
 30
0.0
 40
0.125
 41
0.0
 71
     2
 72
     1
  1
B
  7
SLDTEXTSTYLE1
 73
     1
 44
1.0
  0
MTEXT
  5
FE
330
1F
100
AcDbEntity
  8
TITLE
100
AcDbMText
 10
0.3313750817
 20
5.284602354
 30
0.0
 40
0.125
 41
0.0
 71
     2
 72
     1
  1
C
  7
SLDTEXTSTYLE1
 73
     1
 44
1.0
  0
MTEXT
  5
FF
330
1F
100
AcDbEntity
  8
TITLE
100
AcDbMText
 10
47.666020751
 20
5.284602354
 30
0.0
 40
0.125
 41
0.0
 71
     2
 72
     1
  1
C
  7
SLDTEXTSTYLE1
 73
     1
 44
1.0
  0
MTEXT
  5
100
330
1F
100
AcDbEntity
  8
TITLE
100
AcDbMText
 10
0.3311870028
 20
7.253106291
 30
0.0
 40
0.125
 41
0.0
 71
     2
 72
     1
  1
D
  7
SLDTEXTSTYLE1
 73
     1
 44
1.0
  0
MTEXT
  5
101
330
1F
100
AcDbEntity
  8
TITLE
100
AcDbMText
 10
47.6658326721
 20
7.253106291
 30
0.0
 40
0.125
 41
0.0
 71
     2
 72
     1
  1
D
  7
SLDTEXTSTYLE1
 73
     1
 44
1.0
  0
MTEXT
  5
102
330
1F
100
AcDbEntity
  8
TITLE
100
AcDbMText
 10
0.332923116
 20
9.221610228
 30
0.0
 40
0.125
 41
0.0
 71
     2
 72
     1
  1
E
  7
SLDTEXTSTYLE1
 73
     1
 44
1.0
  0
MTEXT
  5
103
330
1F
100
AcDbEntity
  8
TITLE
100
AcDbMText
 10
47.6675687853
 20
9.221610228
 30
0.0
 40
0.125
 41
0.0
 71
     2
 72
     1
  1
E
  7
SLDTEXTSTYLE1
 73
     1
 44
1.0
  0
MTEXT
  5
104
330
1F
100
AcDbEntity
  8
TITLE
100
AcDbMText
 10
0.3313461474
 20
11.190114165
 30
0.0
 40
0.125
 41
0.0
 71
     2
 72
     1
  1
F
  7
SLDTEXTSTYLE1
 73
     1
 44
1.0
  0
MTEXT
  5
105
330
1F
100
AcDbEntity
  8
TITLE
100
AcDbMText
 10
47.6659918167
 20
11.190114165
 30
0.0
 40
0.125
 41
0.0
 71
     2
 72
     1
  1
F
  7
SLDTEXTSTYLE1
 73
     1
 44
1.0
  0
MTEXT
  5
106
330
1F
100
AcDbEntity
  8
TITLE
100
AcDbMText
 10
0.3322576054
 20
13.158618102
 30
0.0
 40
0.125
 41
0.0
 71
     2
 72
     1
  1
G
  7
SLDTEXTSTYLE1
 73
     1
 44
1.0
  0
MTEXT
  5
107
330
1F
100
AcDbEntity
  8
TITLE
100
AcDbMText
 10
47.6669032747
 20
13.158618102
 30
0.0
 40
0.125
 41
0.0
 71
     2
 72
     1
  1
G
  7
SLDTEXTSTYLE1
 73
     1
 44
1.0
  0
MTEXT
  5
108
330
1F
100
AcDbEntity
  8
TITLE
100
AcDbMText
 10
0.3323733457
 20
15.127122039
 30
0.0
 40
0.125
 41
0.0
 71
     2
 72
     1
  1
H
  7
SLDTEXTSTYLE1
 73
     1
 44
1.0
  0
MTEXT
  5
109
330
1F
100
AcDbEntity
  8
TITLE
100
AcDbMText
 10
47.667019015
 20
15.127122039
 30
0.0
 40
0.125
 41
0.0
 71
     2
 72
     1
  1
H
  7
SLDTEXTSTYLE1
 73
     1
 44
1.0
  0
MTEXT
  5
10A
330
1F
100
AcDbEntity
  8
TITLE
100
AcDbMText
 10
0.3315776306
 20
17.095625976
 30
0.0
 40
0.125
 41
0.0
 71
     2
 72
     1
  1
J
  7
SLDTEXTSTYLE1
 73
     1
 44
1.0
  0
MTEXT
  5
10B
330
1F
100
AcDbEntity
  8
TITLE
100
AcDbMText
 10
47.6662232999
 20
17.095625976
 30
0.0
 40
0.125
 41
0.0
 71
     2
 72
     1
  1
J
  7
SLDTEXTSTYLE1
 73
     1
 44
1.0
  0
MTEXT
  5
10C
330
1F
100
AcDbEntity
  8
TITLE
100
AcDbMText
 10
0.3323154765
 20
19.064129913
 30
0.0
 40
0.125
 41
0.0
 71
     2
 72
     1
  1
K
  7
SLDTEXTSTYLE1
 73
     1
 44
1.0
  0
MTEXT
  5
10D
330
1F
100
AcDbEntity
  8
TITLE
100
AcDbMText
 10
47.6669611458
 20
19.064129913
 30
0.0
 40
0.125
 41
0.0
 71
     2
 72
     1
  1
K
  7
SLDTEXTSTYLE1
 73
     1
 44
1.0
  0
MTEXT
  5
10E
330
1F
100
AcDbEntity
  8
TITLE
100
AcDbMText
 10
0.3312448739
 20
21.03263385
 30
0.0
 40
0.125
 41
0.0
 71
     2
 72
     1
  1
L
  7
SLDTEXTSTYLE1
 73
     1
 44
1.0
  0
MTEXT
  5
10F
330
1F
100
AcDbEntity
  8
TITLE
100
AcDbMText
 10
47.6658905432
 20
21.03263385
 30
0.0
 40
0.125
 41
0.0
 71
     2
 72
     1
  1
L
  7
SLDTEXTSTYLE1
 73
     1
 44
1.0
  0
MTEXT
  5
110
330
1F
100
AcDbEntity
  8
TITLE
100
AcDbMText
 10
0.3283224192
 20
23.001137787
 30
0.0
 40
0.125
 41
0.0
 71
     2
 72
     1
  1
M
  7
SLDTEXTSTYLE1
 73
     1
 44
1.0
  0
MTEXT
  5
111
330
1F
100
AcDbEntity
  8
TITLE
100
AcDbMText
 10
47.6629680885
 20
23.001137787
 30
0.0
 40
0.125
 41
0.0
 71
     2
 72
     1
  1
M
  7
SLDTEXTSTYLE1
 73
     1
 44
1.0
  0
MTEXT
  5
112
330
1F
100
AcDbEntity
  8
TITLE
100
AcDbMText
 10
0.3315342276
 20
24.969641724
 30
0.0
 40
0.125
 41
0.0
 71
     2
 72
     1
  1
N
  7
SLDTEXTSTYLE1
 73
     1
 44
1.0
  0
MTEXT
  5
113
330
1F
100
AcDbEntity
  8
TITLE
100
AcDbMText
 10
47.6661798969
 20
24.969641724
 30
0.0
 40
0.125
 41
0.0
 71
     2
 72
     1
  1
N
  7
SLDTEXTSTYLE1
 73
     1
 44
1.0
  0
MTEXT
  5
114
330
1F
100
AcDbEntity
  8
TITLE
100
AcDbMText
 10
0.3321997349
 20
26.9381456611
 30
0.0
 40
0.125
 41
0.0
 71
     2
 72
     1
  1
P
  7
SLDTEXTSTYLE1
 73
     1
 44
1.0
  0
MTEXT
  5
115
330
1F
100
AcDbEntity
  8
TITLE
100
AcDbMText
 10
47.6668454042
 20
26.9381456611
 30
0.0
 40
0.125
 41
0.0
 71
     2
 72
     1
  1
P
  7
SLDTEXTSTYLE1
 73
     1
 44
1.0
  0
MTEXT
  5
116
330
1F
100
AcDbEntity
  8
TITLE
100
AcDbMText
 10
0.3309265867
 20
28.9066495981
 30
0.0
 40
0.125
 41
0.0
 71
     2
 72
     1
  1
R
  7
SLDTEXTSTYLE1
 73
     1
 44
1.0
  0
MTEXT
  5
117
330
1F
100
AcDbEntity
  8
TITLE
100
AcDbMText
 10
47.665572256
 20
28.9066495981
 30
0.0
 40
0.125
 41
0.0
 71
     2
 72
     1
  1
R
  7
SLDTEXTSTYLE1
 73
     1
 44
1.0
  0
MTEXT
  5
118
330
1F
100
AcDbEntity
  8
TITLE
100
AcDbMText
 10
0.3323010071
 20
30.8751535351
 30
0.0
 40
0.125
 41
0.0
 71
     2
 72
     1
  1
T
  7
SLDTEXTSTYLE1
 73
     1
 44
1.0
  0
MTEXT
  5
119
330
1F
100
AcDbEntity
  8
TITLE
100
AcDbMText
 10
47.6669466764
 20
30.8751535351
 30
0.0
 40
0.125
 41
0.0
 71
     2
 72
     1
  1
T
  7
SLDTEXTSTYLE1
 73
     1
 44
1.0
  0
MTEXT
  5
11A
330
1F
100
AcDbEntity
  8
TITLE
100
AcDbMText
 10
0.3328507755
 20
32.8436574721
 30
0.0
 40
0.125
 41
0.0
 71
     2
 72
     1
  1
U
  7
SLDTEXTSTYLE1
 73
     1
 44
1.0
  0
MTEXT
  5
11B
330
1F
100
AcDbEntity
  8
TITLE
100
AcDbMText
 10
47.6674964448
 20
32.8436574721
 30
0.0
 40
0.125
 41
0.0
 71
     2
 72
     1
  1
U
  7
SLDTEXTSTYLE1
 73
     1
 44
1.0
  0
MTEXT
  5
11C
330
1F
100
AcDbEntity
  8
TITLE
100
AcDbMText
 10
0.3307529773
 20
34.7038936925
 30
0.0
 40
0.125
 41
0.0
 71
     2
 72
     1
  1
V
  7
SLDTEXTSTYLE1
 73
     1
 44
1.0
  0
MTEXT
  5
11D
330
1F
100
AcDbEntity
  8
TITLE
100
AcDbMText
 10
47.6653986466
 20
34.7038936925
 30
0.0
 40
0.125
 41
0.0
 71
     2
 72
     1
  1
V
  7
SLDTEXTSTYLE1
 73
     1
 44
1.0
  0
MTEXT
  5
11E
330
1F
100
AcDbEntity
  8
TITLE
100
AcDbMText
 10
1.4207109851
 20
0.4125551099
 30
0.0
 40
0.125
 41
0.0
 71
     2
 72
     1
  1
24
  7
SLDTEXTSTYLE1
 73
     1
 44
1.0
  0
MTEXT
  5
11F
330
1F
100
AcDbEntity
  8
TITLE
100
AcDbMText
 10
1.4207109851
 20
35.7472007792
 30
0.0
 40
0.125
 41
0.0
 71
     2
 72
     1
  1
24
  7
SLDTEXTSTYLE1
 73
     1
 44
1.0
  0
MTEXT
  5
120
330
1F
100
AcDbEntity
  8
TITLE
100
AcDbMText
 10
3.3281913
 20
0.4125551099
 30
0.0
 40
0.125
 41
0.0
 71
     2
 72
     1
  1
23
  7
SLDTEXTSTYLE1
 73
     1
 44
1.0
  0
MTEXT
  5
121
330
1F
100
AcDbEntity
  8
TITLE
100
AcDbMText
 10
3.3281913
 20
35.7472007792
 30
0.0
 40
0.125
 41
0.0
 71
     2
 72
     1
  1
23
  7
SLDTEXTSTYLE1
 73
     1
 44
1.0
  0
MTEXT
  5
122
330
1F
100
AcDbEntity
  8
TITLE
100
AcDbMText
 10
5.2966952371
 20
0.4125551099
 30
0.0
 40
0.125
 41
0.0
 71
     2
 72
     1
  1
22
  7
SLDTEXTSTYLE1
 73
     1
 44
1.0
  0
MTEXT
  5
123
330
1F
100
AcDbEntity
  8
TITLE
100
AcDbMText
 10
5.2966952371
 20
35.7472007792
 30
0.0
 40
0.125
 41
0.0
 71
     2
 72
     1
  1
22
  7
SLDTEXTSTYLE1
 73
     1
 44
1.0
  0
MTEXT
  5
124
330
1F
100
AcDbEntity
  8
TITLE
100
AcDbMText
 10
7.2651991741
 20
0.4125551099
 30
0.0
 40
0.125
 41
0.0
 71
     2
 72
     1
  1
21
  7
SLDTEXTSTYLE1
 73
     1
 44
1.0
  0
MTEXT
  5
125
330
1F
100
AcDbEntity
  8
TITLE
100
AcDbMText
 10
7.2651991741
 20
35.7472007792
 30
0.0
 40
0.125
 41
0.0
 71
     2
 72
     1
  1
21
  7
SLDTEXTSTYLE1
 73
     1
 44
1.0
  0
MTEXT
  5
126
330
1F
100
AcDbEntity
  8
TITLE
100
AcDbMText
 10
9.2337031111
 20
0.4125551099
 30
0.0
 40
0.125
 41
0.0
 71
     2
 72
     1
  1
20
  7
SLDTEXTSTYLE1
 73
     1
 44
1.0
  0
MTEXT
  5
127
330
1F
100
AcDbEntity
  8
TITLE
100
AcDbMText
 10
9.2337031111
 20
35.7472007792
 30
0.0
 40
0.125
 41
0.0
 71
     2
 72
     1
  1
20
  7
SLDTEXTSTYLE1
 73
     1
 44
1.0
  0
MTEXT
  5
128
330
1F
100
AcDbEntity
  8
TITLE
100
AcDbMText
 10
11.2022070481
 20
0.4125551099
 30
0.0
 40
0.125
 41
0.0
 71
     2
 72
     1
  1
19
  7
SLDTEXTSTYLE1
 73
     1
 44
1.0
  0
MTEXT
  5
129
330
1F
100
AcDbEntity
  8
TITLE
100
AcDbMText
 10
11.2022070481
 20
35.7472007792
 30
0.0
 40
0.125
 41
0.0
 71
     2
 72
     1
  1
19
  7
SLDTEXTSTYLE1
 73
     1
 44
1.0
  0
MTEXT
  5
12A
330
1F
100
AcDbEntity
  8
TITLE
100
AcDbMText
 10
13.1707109851
 20
0.4125551099
 30
0.0
 40
0.125
 41
0.0
 71
     2
 72
     1
  1
18
  7
SLDTEXTSTYLE1
 73
     1
 44
1.0
  0
MTEXT
  5
12B
330
1F
100
AcDbEntity
  8
TITLE
100
AcDbMText
 10
13.1707109851
 20
35.7472007792
 30
0.0
 40
0.125
 41
0.0
 71
     2
 72
     1
  1
18
  7
SLDTEXTSTYLE1
 73
     1
 44
1.0
  0
MTEXT
  5
12C
330
1F
100
AcDbEntity
  8
TITLE
100
AcDbMText
 10
15.1392149221
 20
0.4125551099
 30
0.0
 40
0.125
 41
0.0
 71
     2
 72
     1
  1
17
  7
SLDTEXTSTYLE1
 73
     1
 44
1.0
  0
MTEXT
  5
12D
330
1F
100
AcDbEntity
  8
TITLE
100
AcDbMText
 10
15.1392149221
 20
35.7472007792
 30
0.0
 40
0.125
 41
0.0
 71
     2
 72
     1
  1
17
  7
SLDTEXTSTYLE1
 73
     1
 44
1.0
  0
MTEXT
  5
12E
330
1F
100
AcDbEntity
  8
TITLE
100
AcDbMText
 10
17.1077188591
 20
0.4125551099
 30
0.0
 40
0.125
 41
0.0
 71
     2
 72
     1
  1
16
  7
SLDTEXTSTYLE1
 73
     1
 44
1.0
  0
MTEXT
  5
12F
330
1F
100
AcDbEntity
  8
TITLE
100
AcDbMText
 10
17.1077188591
 20
35.7472007792
 30
0.0
 40
0.125
 41
0.0
 71
     2
 72
     1
  1
16
  7
SLDTEXTSTYLE1
 73
     1
 44
1.0
  0
MTEXT
  5
130
330
1F
100
AcDbEntity
  8
TITLE
100
AcDbMText
 10
19.0762227961
 20
0.4125551099
 30
0.0
 40
0.125
 41
0.0
 71
     2
 72
     1
  1
15
  7
SLDTEXTSTYLE1
 73
     1
 44
1.0
  0
MTEXT
  5
131
330
1F
100
AcDbEntity
  8
TITLE
100
AcDbMText
 10
19.0762227961
 20
35.7472007792
 30
0.0
 40
0.125
 41
0.0
 71
     2
 72
     1
  1
15
  7
SLDTEXTSTYLE1
 73
     1
 44
1.0
  0
MTEXT
  5
132
330
1F
100
AcDbEntity
  8
TITLE
100
AcDbMText
 10
21.0447267331
 20
0.4125551099
 30
0.0
 40
0.125
 41
0.0
 71
     2
 72
     1
  1
14
  7
SLDTEXTSTYLE1
 73
     1
 44
1.0
  0
MTEXT
  5
133
330
1F
100
AcDbEntity
  8
TITLE
100
AcDbMText
 10
21.0447267331
 20
35.7472007792
 30
0.0
 40
0.125
 41
0.0
 71
     2
 72
     1
  1
14
  7
SLDTEXTSTYLE1
 73
     1
 44
1.0
  0
MTEXT
  5
134
330
1F
100
AcDbEntity
  8
TITLE
100
AcDbMText
 10
23.0132306701
 20
0.4125551099
 30
0.0
 40
0.125
 41
0.0
 71
     2
 72
     1
  1
13
  7
SLDTEXTSTYLE1
 73
     1
 44
1.0
  0
MTEXT
  5
135
330
1F
100
AcDbEntity
  8
TITLE
100
AcDbMText
 10
23.0132306701
 20
35.7472007792
 30
0.0
 40
0.125
 41
0.0
 71
     2
 72
     1
  1
13
  7
SLDTEXTSTYLE1
 73
     1
 44
1.0
  0
MTEXT
  5
136
330
1F
100
AcDbEntity
  8
TITLE
100
AcDbMText
 10
24.9817346071
 20
0.4125551099
 30
0.0
 40
0.125
 41
0.0
 71
     2
 72
     1
  1
12
  7
SLDTEXTSTYLE1
 73
     1
 44
1.0
  0
MTEXT
  5
137
330
1F
100
AcDbEntity
  8
TITLE
100
AcDbMText
 10
24.9817346071
 20
35.7472007792
 30
0.0
 40
0.125
 41
0.0
 71
     2
 72
     1
  1
12
  7
SLDTEXTSTYLE1
 73
     1
 44
1.0
  0
MTEXT
  5
138
330
1F
100
AcDbEntity
  8
TITLE
100
AcDbMText
 10
26.9502385441
 20
0.4125551099
 30
0.0
 40
0.125
 41
0.0
 71
     2
 72
     1
  1
11
  7
SLDTEXTSTYLE1
 73
     1
 44
1.0
  0
MTEXT
  5
139
330
1F
100
AcDbEntity
  8
TITLE
100
AcDbMText
 10
26.9502385441
 20
35.7472007792
 30
0.0
 40
0.125
 41
0.0
 71
     2
 72
     1
  1
11
  7
SLDTEXTSTYLE1
 73
     1
 44
1.0
  0
MTEXT
  5
13A
330
1F
100
AcDbEntity
  8
TITLE
100
AcDbMText
 10
28.9187424811
 20
0.4125551099
 30
0.0
 40
0.125
 41
0.0
 71
     2
 72
     1
  1
10
  7
SLDTEXTSTYLE1
 73
     1
 44
1.0
  0
MTEXT
  5
13B
330
1F
100
AcDbEntity
  8
TITLE
100
AcDbMText
 10
28.9187424811
 20
35.7472007792
 30
0.0
 40
0.125
 41
0.0
 71
     2
 72
     1
  1
10
  7
SLDTEXTSTYLE1
 73
     1
 44
1.0
  0
MTEXT
  5
13C
330
1F
100
AcDbEntity
  8
TITLE
100
AcDbMText
 10
30.8885050988
 20
0.4125551099
 30
0.0
 40
0.125
 41
0.0
 71
     2
 72
     1
  1
9
  7
SLDTEXTSTYLE1
 73
     1
 44
1.0
  0
MTEXT
  5
13D
330
1F
100
AcDbEntity
  8
TITLE
100
AcDbMText
 10
30.8885050988
 20
35.7472007792
 30
0.0
 40
0.125
 41
0.0
 71
     2
 72
     1
  1
9
  7
SLDTEXTSTYLE1
 73
     1
 44
1.0
  0
MTEXT
  5
13E
330
1F
100
AcDbEntity
  8
TITLE
100
AcDbMText
 10
32.8570090359
 20
0.4125551099
 30
0.0
 40
0.125
 41
0.0
 71
     2
 72
     1
  1
8
  7
SLDTEXTSTYLE1
 73
     1
 44
1.0
  0
MTEXT
  5
13F
330
1F
100
AcDbEntity
  8
TITLE
100
AcDbMText
 10
32.8570090359
 20
35.7472007792
 30
0.0
 40
0.125
 41
0.0
 71
     2
 72
     1
  1
8
  7
SLDTEXTSTYLE1
 73
     1
 44
1.0
  0
MTEXT
  5
140
330
1F
100
AcDbEntity
  8
TITLE
100
AcDbMText
 10
34.8255129729
 20
0.4125551099
 30
0.0
 40
0.125
 41
0.0
 71
     2
 72
     1
  1
7
  7
SLDTEXTSTYLE1
 73
     1
 44
1.0
  0
MTEXT
  5
141
330
1F
100
AcDbEntity
  8
TITLE
100
AcDbMText
 10
34.8255129729
 20
35.7472007792
 30
0.0
 40
0.125
 41
0.0
 71
     2
 72
     1
  1
7
  7
SLDTEXTSTYLE1
 73
     1
 44
1.0
  0
MTEXT
  5
142
330
1F
100
AcDbEntity
  8
TITLE
100
AcDbMText
 10
36.7940169099
 20
0.4125551099
 30
0.0
 40
0.125
 41
0.0
 71
     2
 72
     1
  1
6
  7
SLDTEXTSTYLE1
 73
     1
 44
1.0
  0
MTEXT
  5
143
330
1F
100
AcDbEntity
  8
TITLE
100
AcDbMText
 10
36.7940169099
 20
35.7472007792
 30
0.0
 40
0.125
 41
0.0
 71
     2
 72
     1
  1
6
  7
SLDTEXTSTYLE1
 73
     1
 44
1.0
  0
MTEXT
  5
144
330
1F
100
AcDbEntity
  8
TITLE
100
AcDbMText
 10
38.7625208469
 20
0.4125551099
 30
0.0
 40
0.125
 41
0.0
 71
     2
 72
     1
  1
5
  7
SLDTEXTSTYLE1
 73
     1
 44
1.0
  0
MTEXT
  5
145
330
1F
100
AcDbEntity
  8
TITLE
100
AcDbMText
 10
38.7625208469
 20
35.7472007792
 30
0.0
 40
0.125
 41
0.0
 71
     2
 72
     1
  1
5
  7
SLDTEXTSTYLE1
 73
     1
 44
1.0
  0
MTEXT
  5
146
330
1F
100
AcDbEntity
  8
TITLE
100
AcDbMText
 10
40.7310247839
 20
0.4125551099
 30
0.0
 40
0.125
 41
0.0
 71
     2
 72
     1
  1
4
  7
SLDTEXTSTYLE1
 73
     1
 44
1.0
  0
MTEXT
  5
147
330
1F
100
AcDbEntity
  8
TITLE
100
AcDbMText
 10
40.7310247839
 20
35.7472007792
 30
0.0
 40
0.125
 41
0.0
 71
     2
 72
     1
  1
4
  7
SLDTEXTSTYLE1
 73
     1
 44
1.0
  0
MTEXT
  5
148
330
1F
100
AcDbEntity
  8
TITLE
100
AcDbMText
 10
42.6995287209
 20
0.4125551099
 30
0.0
 40
0.125
 41
0.0
 71
     2
 72
     1
  1
3
  7
SLDTEXTSTYLE1
 73
     1
 44
1.0
  0
MTEXT
  5
149
330
1F
100
AcDbEntity
  8
TITLE
100
AcDbMText
 10
42.6995287209
 20
35.7472007792
 30
0.0
 40
0.125
 41
0.0
 71
     2
 72
     1
  1
3
  7
SLDTEXTSTYLE1
 73
     1
 44
1.0
  0
MTEXT
  5
14A
330
1F
100
AcDbEntity
  8
TITLE
100
AcDbMText
 10
44.6680326579
 20
0.4125551099
 30
0.0
 40
0.125
 41
0.0
 71
     2
 72
     1
  1
2
  7
SLDTEXTSTYLE1
 73
     1
 44
1.0
  0
MTEXT
  5
14B
330
1F
100
AcDbEntity
  8
TITLE
100
AcDbMText
 10
44.6680326579
 20
35.7472007792
 30
0.0
 40
0.125
 41
0.0
 71
     2
 72
     1
  1
2
  7
SLDTEXTSTYLE1
 73
     1
 44
1.0
  0
MTEXT
  5
14C
330
1F
100
AcDbEntity
  8
TITLE
100
AcDbMText
 10
46.5755129729
 20
0.4125551099
 30
0.0
 40
0.125
 41
0.0
 71
     2
 72
     1
  1
1
  7
SLDTEXTSTYLE1
 73
     1
 44
1.0
  0
MTEXT
  5
14D
330
1F
100
AcDbEntity
  8
TITLE
100
AcDbMText
 10
46.5755129729
 20
35.7472007792
 30
0.0
 40
0.125
 41
0.0
 71
     2
 72
     1
  1
1
  7
SLDTEXTSTYLE1
 73
     1
 44
1.0
  0
SPLINE
  5
14E
330
1F
100
AcDbEntity
  8
0
  6
SLD-Solid
 62
     7
370
    25
100
AcDbSpline
210
0.0
220
0.0
230
1.0
 70
     8
 71
     3
 72
    25
 73
    21
 74
     0
 42
0.00000001
 43
0.00000001
 40
0.0
 40
0.0
 40
0.0
 40
0.0
 40
0.0004801101120372
 40
0.0009832229170774
 40
0.0021303422856551
 40
0.0052226757492434
 40
0.0156743315783456
 40
0.0293344925691722
 40
0.0511946496046111
 40
0.0658354623963183
 40
0.080788203706184
 40
0.1148627970158724
 40
0.1617033801460828
 40
0.2241987942200327
 40
0.3050378198551652
 40
0.406224786180984
 40
0.5284936266036978
 40
0.6707455453975063
 40
0.8297058434769518
 40
1.0
 40
1.0
 40
1.0
 40
1.0
 10
13.47029003760147
 20
20.12794274116864
 30
0.0
 10
13.47023113545753
 20
20.12794152882677
 30
0.0
 10
13.47011050909217
 20
20.12793904605818
 30
0.0
 10
13.46986006333857
 20
20.12785750674875
 30
0.0
 10
13.469374250748
 20
20.12752632436928
 30
0.0
 10
13.46832144609884
 20
20.12603511785681
 30
0.0
 10
13.46714487409195
 20
20.12291024299766
 30
0.0
 10
13.46557562596745
 20
20.11752143163368
 30
0.0
 10
13.46422482820021
 20
20.11154037233698
 30
0.0
 10
13.46298332963705
 20
20.10538049490273
 30
0.0
 10
13.46156522377231
 20
20.09773421233374
 30
0.0
 10
13.45963376728927
 20
20.08618500992984
 30
0.0
 10
13.4570469947442
 20
20.06886069850959
 30
0.0
 10
13.45395182686646
 20
20.04583993282721
 30
0.0
 10
13.45033454450745
 20
20.01619427924582
 30
0.0
 10
13.44621787083737
 20
19.97925702060761
 30
0.0
 10
13.44167050281335
 20
19.93482242344584
 30
0.0
 10
13.43682323388248
 20
19.88332731598452
 30
0.0
 10
13.43181851667698
 20
19.82595655791857
 30
0.0
 10
13.42866642665415
 20
19.78586627682485
 30
0.0
 10
13.42703612976911
 20
19.76513112652334
 30
0.0
  0
ARC
  5
14F
330
1F
100
AcDbEntity
  8
0
  6
SLD-Solid
 62
     7
370
    25
100
AcDbCircle
 10
13.8676447704
 20
20.1513143377
 30
0.0
 40
0.3000000000000014
100
AcDbArc
 50
175.8176277037
 51
185.8553544062
  0
ARC
  5
150
330
1F
100
AcDbEntity
  8
0
  6
SLD-Solid
 62
     7
370
    25
100
AcDbCircle
 10
13.1794822662
 20
20.201636975
 30
0.0
 40
0.3000000000000024
100
AcDbArc
 50
345.8065462853
 51
355.8176277037
  0
LINE
  5
151
330
1F
100
AcDbEntity
  8
0
  6
SLD-Solid
 62
     7
370
    25
100
AcDbLine
 10
13.5684436816
 20
20.1731937452
 30
0.0
 11
13.5754614077
 21
20.2691612106
 31
0.0
  0
LINE
  5
152
330
1F
100
AcDbEntity
  8
0
  6
SLD-Solid
 62
     7
370
    25
100
AcDbLine
 10
13.4857010811
 20
20.2757250329
 30
0.0
 11
13.478683355
 21
20.1797575675
 31
0.0
  0
ARC
  5
153
330
1F
100
AcDbEntity
  8
0
  6
SLD-Solid
 62
     7
370
    25
100
AcDbCircle
 10
13.3206405117
 20
19.3896726091
 30
0.0
 40
0.1000000000000024
100
AcDbArc
 50
303.7275286831
 51
355.8176277037
  0
ARC
  5
154
330
1F
100
AcDbEntity
  8
0
  6
SLD-Solid
 62
     7
370
    25
100
AcDbCircle
 10
13.3206405117
 20
19.3896726091
 30
0.0
 40
0.1900000000000011
100
AcDbArc
 50
303.7275286831
 51
355.8176277037
  0
LINE
  5
155
330
1F
100
AcDbEntity
  8
0
  6
SLD-Solid
 62
     7
370
    25
100
AcDbLine
 10
13.5101345346
 20
19.375815651
 30
0.0
 11
13.5573370396
 21
20.0213103189
 31
0.0
  0
LINE
  5
156
330
1F
100
AcDbEntity
  8
0
  6
SLD-Solid
 62
     7
370
    25
100
AcDbLine
 10
13.448249903
 20
19.7635798461
 30
0.0
 11
13.420374208
 21
19.3823794733
 31
0.0
  0
ARC
  5
157
330
1F
100
AcDbEntity
  8
0
  6
SLD-Solid
 62
     7
370
    25
100
AcDbCircle
 10
13.795374208
 20
20.2530798461
 30
0.0
 40
0.2205000000000003
100
AcDbArc
 50
4.1823722963
 51
175.8176277037
  0
ARC
  5
158
330
1F
100
AcDbEntity
  8
0
  6
SLD-Solid
 62
     7
370
    25
100
AcDbCircle
 10
13.795374208
 20
20.2530798461
 30
0.0
 40
0.3105000000000009
100
AcDbArc
 50
4.1823722963
 51
175.8176277037
  0
ARC
  5
159
330
1F
100
AcDbEntity
  8
0
  6
SLD-Solid
 62
     7
370
    25
100
AcDbCircle
 10
14.2701079042
 20
19.3896726091
 30
0.0
 40
0.1000000000000014
100
AcDbArc
 50
184.1823722963
 51
236.2724713169
  0
ARC
  5
15A
330
1F
100
AcDbEntity
  8
0
  6
SLD-Solid
 62
     7
370
    25
100
AcDbCircle
 10
14.2701079042
 20
19.3896726091
 30
0.0
 40
0.1900000000000011
100
AcDbArc
 50
184.1823722963
 51
236.2724713169
  0
LINE
  5
15B
330
1F
100
AcDbEntity
  8
0
  6
SLD-Solid
 62
     7
370
    25
100
AcDbLine
 10
14.170374208
 20
19.3823794733
 30
0.0
 11
14.1050473348
 21
20.2757250329
 31
0.0
  0
LINE
  5
15C
330
1F
100
AcDbEntity
  8
0
  6
SLD-Solid
 62
     7
370
    25
100
AcDbLine
 10
14.0152870082
 20
20.2691612106
 30
0.0
 11
14.0806138813
 21
19.375815651
 31
0.0
  0
ARC
  5
15D
330
1F
100
AcDbEntity
  8
0
  6
SLD-Solid
 62
     7
370
    25
100
AcDbCircle
 10
13.795374208
 20
18.6785798461
 30
0.0
 40
0.6650000000000009
100
AcDbArc
 50
180.0
 51
56.2724713169
  0
ARC
  5
15E
330
1F
100
AcDbEntity
  8
0
  6
SLD-Solid
 62
     7
370
    25
100
AcDbCircle
 10
13.795374208
 20
18.6785798461
 30
0.0
 40
0.6650000000000009
100
AcDbArc
 50
123.7275286831
 51
180.0
  0
ARC
  5
15F
330
1F
100
AcDbEntity
  8
0
  6
SLD-Solid
 62
     7
370
    25
100
AcDbCircle
 10
13.795374208
 20
18.6785798461
 30
0.0
 40
0.754999999999999
100
AcDbArc
 50
123.7275286831
 51
0.0
  0
ARC
  5
160
330
1F
100
AcDbEntity
  8
0
  6
SLD-Solid
 62
     7
370
    25
100
AcDbCircle
 10
13.795374208
 20
18.6785798461
 30
0.0
 40
0.754999999999999
100
AcDbArc
 50
0.0
 51
56.2724713169
  0
LINE
  5
161
330
1F
100
AcDbEntity
  8
0
  6
SLD-Solid
 62
     7
370
    25
100
AcDbLine
 10
13.5673867027
 20
20.0957756874
 30
0.0
 11
13.5692099867
 21
20.1207091115
 31
0.0
  0
LINE
  5
162
330
1F
100
AcDbEntity
  8
0
  6
SLD-Solid
 62
     7
370
    25
100
AcDbLine
 10
13.5471167194
 20
20.1223247059
 30
0.0
 11
13.4702900499
 21
20.1279427403
 31
0.0
  0
SPLINE
  5
163
330
1F
100
AcDbEntity
  8
0
  6
SLD-Solid
 62
     7
370
    25
100
AcDbSpline
210
0.0
220
0.0
230
1.0
 70
     8
 71
     3
 72
    28
 73
    24
 74
     0
 42
0.00000001
 43
0.00000001
 40
0.0
 40
0.0
 40
0.0
 40
0.0
 40
0.0014544180009811
 40
0.0033733823327917
 40
0.0059664077008617
 40
0.0093189293010411
 40
0.0134697467708169
 40
0.0184389956398751
 40
0.0242382927563712
 40
0.0308748975988845
 40
0.038353631762729
 40
0.0466778536253871
 40
0.0558499928857543
 40
0.0658718625552277
 40
0.076744850589791
 40
0.1035108263353224
 40
0.1342371552379042
 40
0.1959580884051538
 40
0.2683963643374518
 40
0.3931114283616622
 40
0.536654130143609
 40
0.7592501484925573
 40
1.0
 40
1.0
 40
1.0
 40
1.0
 10
13.54711637876196
 20
20.12232473077291
 30
0.0
 10
13.54720315965781
 20
20.12227460767444
 30
0.0
 10
13.54740443957918
 20
20.12215835197992
 30
0.0
 10
13.54761698480979
 20
20.12159824245684
 30
0.0
 10
13.54781139445245
 20
20.12081884659478
 30
0.0
 10
13.54798102525071
 20
20.11973855421627
 30
0.0
 10
13.54813067600697
 20
20.1183783924397
 30
0.0
 10
13.54825818879686
 20
20.11672562125662
 30
0.0
 10
13.54836383956679
 20
20.11478281291379
 30
0.0
 10
13.54844717154961
 20
20.11254817041727
 30
0.0
 10
13.54850809573345
 20
20.11002183629912
 30
0.0
 10
13.54854647999508
 20
20.10720351878464
 30
0.0
 10
13.54856225919749
 20
20.10409317019343
 30
0.0
 10
13.54855536951566
 20
20.10069071842834
 30
0.0
 10
13.548512182601
 20
20.09529260646223
 30
0.0
 10
13.54838375072999
 20
20.08754091207174
 30
0.0
 10
13.54804531410981
 20
20.07401321674383
 30
0.0
 10
13.54740595844979
 20
20.05529060857391
 30
0.0
 10
13.54617116991792
 20
20.02588735637607
 30
0.0
 10
13.54426022930828
 20
19.98718546172937
 30
0.0
 10
13.54114728158186
 20
19.93142980095839
 30
0.0
 10
13.53691947706618
 20
19.86250231035053
 30
0.0
 10
13.53332425625223
 20
19.80989583971198
 30
0.0
 10
13.53145621569462
 20
19.78256204692672
 30
0.0
  0
SPLINE
  5
164
330
1F
100
AcDbEntity
  8
0
  6
SLD-Solid
 62
     7
370
    25
100
AcDbSpline
210
0.0
220
0.0
230
1.0
 70
     8
 71
     3
 72
    12
 73
     8
 74
     0
 42
0.00000001
 43
0.00000001
 40
0.0
 40
0.0
 40
0.0
 40
0.0
 40
0.25
 40
0.25
 40
0.5
 40
0.5
 40
1.0
 40
1.0
 40
1.0
 40
1.0
 10
13.50623030632932
 20
19.75933996557913
 30
0.0
 10
13.50950479038236
 20
19.75910060392496
 30
0.0
 10
13.51272269339221
 20
19.75944767278374
 30
0.0
 10
13.51870255333017
 20
19.76141897912277
 30
0.0
 10
13.52143220208166
 20
19.76304757268944
 30
0.0
 10
13.52825110668693
 20
19.76948075521541
 30
0.0
 10
13.5309896605183
 20
19.77587518916684
 30
0.0
 10
13.53145540542133
 20
19.7825620970601
 30
0.0
  0
SPLINE
  5
165
330
1F
100
AcDbEntity
  8
0
  6
SLD-Solid
 62
     7
370
    25
100
AcDbSpline
210
0.0
220
0.0
230
1.0
 70
    24
 71
     3
 72
    15
 73
    11
 74
     0
 42
0.00000001
 43
0.00000001
 40
0.0
 40
0.0
 40
0.0
 40
0.0
 40
0.0860522861692119
 40
0.23842415374266
 40
0.3907114384258252
 40
0.5427433692775699
 40
0.6947972733052692
 40
0.8471138290238374
 40
0.9998566571255647
 40
1.0
 40
1.0
 40
1.0
 40
1.0
 10
13.50623067929317
 20
19.75933993829557
 30
0.0
 10
13.50291802726768
 20
19.75958217960546
 30
0.0
 10
13.49373969754538
 20
19.76025335502545
 30
0.0
 10
13.478372696166
 20
19.76137708384289
 30
0.0
 10
13.46153512666261
 20
19.76260834956608
 30
0.0
 10
13.44701249685479
 20
19.76367033278695
 30
0.0
 10
13.43566124897673
 20
19.76450040522854
 30
0.0
 10
13.42902902841
 20
19.76498539362604
 30
0.0
 10
13.42623860854656
 20
19.7651894461369
 30
0.0
 10
13.42703762829685
 20
19.76513101694185
 30
0.0
 10
13.42703837744105
 20
19.76513096215987
 30
0.0
  0
LINE
  5
166
330
1F
100
AcDbEntity
  8
0
  6
SLD-Solid
 62
     7
370
    25
100
AcDbLine
 10
13.5471167194
 20
20.1223247059
 30
0.0
 11
13.5692099867
 21
20.1207091115
 31
0.0
  0
LINE
  5
167
330
1F
100
AcDbEntity
  8
0
  6
SLD-Solid
 62
     7
370
    25
100
AcDbLine
 10
13.5573370396
 20
20.0213103189
 30
0.0
 11
13.5463839216
 21
20.0221112777
 31
0.0
  0
LINE
  5
168
330
1F
100
AcDbEntity
  8
0
  6
SLD-Solid
 62
     7
370
    25
100
AcDbLine
 10
13.5673867027
 20
20.0957756874
 30
0.0
 11
13.5488588508
 21
20.0971305569
 31
0.0
  0
DIMENSION
  5
169
330
1F
100
AcDbEntity
  8
DIMS
100
AcDbDimension
  2
_D
 10
13.6394571627
 20
20.0971628009
 30
0.0
 11
16.4422195388
 21
21.6037967043
 31
0.0
 70
   163
  1
<>
 71
     1
 42
-1.0
  3
SLDDIMSTYLE0
100
AcDbDiametricDimension
 15
13.9512912532
 25
20.4089968914
 35
0.0
 40
0.0
  0
DIMENSION
  5
17C
330
1F
100
AcDbEntity
  8
DIMS
100
AcDbDimension
  2
_D_1
 10
14.3712811015
 20
18.3460798461
 30
0.0
 11
16.6829463895
 21
17.8664088386
 31
0.0
 70
   163
  1
<>
 71
     1
 42
-1.0
  3
SLDDIMSTYLE1
100
AcDbDiametricDimension
 15
13.2194673144
 25
19.0110798461
 35
0.0
 40
0.0
  0
DIMENSION
  5
18C
330
1F
100
AcDbEntity
  8
DIMS
100
AcDbDimension
  2
_D_2
 10
12.3654529481
 20
17.9235798461
 30
0.0
 11
12.3654529481
 21
19.1497903213
 31
0.0
 70
   160
  1
<>
 71
     2
 42
-1.0
  3
SLDDIMSTYLE2
100
AcDbAlignedDimension
 13
13.795374208
 23
20.5635798461
 33
0.0
 14
13.795374208
 24
17.9235798461
 34
0.0
 50
90.0
100
AcDbRotatedDimension
  0
DIMENSION
  5
19C
330
1F
100
AcDbEntity
  8
DIMS
100
AcDbDimension
  2
_D_3
 10
13.2615085882
 20
18.1447142263
 30
0.0
 11
16.4422195388
 21
20.0292967043
 31
0.0
 70
   163
  1
<>
 71
     1
 42
-1.0
  3
SLDDIMSTYLE0
100
AcDbDiametricDimension
 15
14.3292398278
 25
19.2124454659
 35
0.0
 40
0.0
  0
MTEXT
  5
1A9
330
1F
100
AcDbEntity
  8
NOTES
100
AcDbMText
 10
12.2970365621
 20
17.2301545329
 30
0.0
 40
0.5
 41
0.0
 71
     1
 72
     1
  1
Front view
  7
SLDTEXTSTYLE1
 73
     1
 44
1.0
  0
ARC
  5
1AA
330
1F
100
AcDbEntity
  8
0
  6
SLD-Solid
 62
     7
370
    25
100
AcDbCircle
 10
24.9765479473
 20
17.9685798461
 30
0.0
 40
0.0450000000000017
100
AcDbArc
 50
180.0
 51
0.0
  0
LINE
  5
1AB
330
1F
100
AcDbEntity
  8
0
  6
SLD-Solid
 62
     7
370
    25
100
AcDbLine
 10
25.0215479473
 20
17.9685798461
 30
0.0
 11
25.0215479473
 21
19.26907793
 31
0.0
  0
LINE
  5
1AC
330
1F
100
AcDbEntity
  8
0
  6
SLD-Solid
 62
     7
370
    25
100
AcDbLine
 10
24.9315479473
 20
19.26907793
 30
0.0
 11
24.9315479473
 21
17.9685798461
 31
0.0
  0
LINE
  5
1AD
330
1F
100
AcDbEntity
  8
0
  6
SLD-Solid
 62
     7
370
    25
100
AcDbLine
 10
25.0215479473
 20
19.26907793
 30
0.0
 11
25.0215479473
 21
19.3790975622
 31
0.0
  0
LINE
  5
1AE
330
1F
100
AcDbEntity
  8
0
  6
SLD-Solid
 62
     7
370
    25
100
AcDbLine
 10
24.9315479473
 20
19.3790975622
 30
0.0
 11
24.9315479473
 21
19.26907793
 31
0.0
  0
LINE
  5
1AF
330
1F
100
AcDbEntity
  8
0
  6
SLD-Solid
 62
     7
370
    25
100
AcDbLine
 10
25.0215479473
 20
19.3790975622
 30
0.0
 11
25.0215479473
 21
20.2724431218
 31
0.0
  0
LINE
  5
1B0
330
1F
100
AcDbEntity
  8
0
  6
SLD-Solid
 62
     7
370
    25
100
AcDbLine
 10
24.9315479473
 20
20.2724431218
 30
0.0
 11
24.9315479473
 21
19.3790975622
 31
0.0
  0
ARC
  5
1B1
330
1F
100
AcDbEntity
  8
0
  6
SLD-Solid
 62
     7
370
    25
100
AcDbCircle
 10
24.9765479473
 20
20.5185798461
 30
0.0
 40
0.0450000000000017
100
AcDbArc
 50
0.0
 51
180.0
  0
LINE
  5
1B2
330
1F
100
AcDbEntity
  8
0
  6
SLD-Solid
 62
     7
370
    25
100
AcDbLine
 10
25.0215479473
 20
20.2724431218
 30
0.0
 11
25.0215479473
 21
20.5185798461
 31
0.0
  0
LINE
  5
1B3
330
1F
100
AcDbEntity
  8
0
  6
SLD-Solid
 62
     7
370
    25
100
AcDbLine
 10
24.9315479473
 20
20.5185798461
 30
0.0
 11
24.9315479473
 21
20.2724431218
 31
0.0
  0
SPLINE
  5
1B4
330
1F
100
AcDbEntity
  8
0
  6
SLD-Solid
 62
     7
370
    25
100
AcDbSpline
210
0.0
220
0.0
230
1.0
 70
     8
 71
     3
 72
    11
 73
     7
 74
     0
 42
0.00000001
 43
0.00000001
 40
0.0
 40
0.0
 40
0.0
 40
0.0
 40
0.0023265420472362
 40
0.4676009331531458
 40
0.9265657793917057
 40
1.0
 40
1.0
 40
1.0
 40
1.0
 10
25.02613236870956
 20
20.1244208769306
 30
0.0
 10
25.02612365456261
 20
20.12446047859989
 30
0.0
 10
25.02437223844201
 20
20.1324198350772
 30
0.0
 10
25.02281138683396
 20
20.14854369298945
 30
0.0
 10
25.02133564261388
 20
20.16590510316072
 30
0.0
 10
25.02163461661388
 20
20.17518471971039
 30
0.0
 10
25.02167585433205
 20
20.17646466449485
 30
0.0
  0
SPLINE
  5
1B5
330
1F
100
AcDbEntity
  8
0
  6
SLD-Solid
 62
     7
370
    25
100
AcDbSpline
210
0.0
220
0.0
230
1.0
 70
     8
 71
     3
 72
    10
 73
     6
 74
     0
 42
0.00000001
 43
0.00000001
 40
0.0
 40
0.0
 40
0.0
 40
0.0
 40
0.311933164129065
 40
0.7610531859173201
 40
1.0
 40
1.0
 40
1.0
 40
1.0
 10
24.93134421934256
 20
20.1764891643601
 30
0.0
 10
24.93133024070371
 20
20.17106120982634
 30
0.0
 10
24.93129613568106
 20
20.15781810981014
 30
0.0
 10
24.92969949215521
 20
20.14044386865153
 30
0.0
 10
24.92752558725745
 20
20.12867257340688
 30
0.0
 10
24.92677064947763
 20
20.1245847241607
 30
0.0
  0
SPLINE
  5
1B6
330
1F
100
AcDbEntity
  8
0
  6
SLD-Solid
 62
     7
370
    25
100
AcDbSpline
210
0.0
220
0.0
230
1.0
 70
     8
 71
     3
 72
    26
 73
    22
 74
     0
 42
0.00000001
 43
0.00000001
 40
0.0
 40
0.0
 40
0.0
 40
0.0
 40
0.0020905701628694
 40
0.0146316108686518
 40
0.0193235858475635
 40
0.0230552728839245
 40
0.0260033071969604
 40
0.0272957896889059
 40
0.034924470103645
 40
0.0431333382576335
 40
0.0643048337463824
 40
0.0993543811667636
 40
0.1516876771683245
 40
0.1985729721493662
 40
0.256650834601117
 40
0.327043384460706
 40
0.4287373791330055
 40
0.5492485388356159
 40
0.6870691119485863
 40
0.8389361877136715
 40
1.0
 40
1.0
 40
1.0
 40
1.0
 10
24.92652705764715
 20
20.12351254912354
 30
0.0
 10
24.9264476977746
 20
20.12346481549853
 30
0.0
 10
24.92589226902393
 20
20.12313073447176
 30
0.0
 10
24.92541783589246
 20
20.12235821265362
 30
0.0
 10
24.92489178514574
 20
20.1212383843911
 30
0.0
 10
24.92460852849888
 20
20.12042916028366
 30
0.0
 10
24.92438570812772
 20
20.11966603023916
 30
0.0
 10
24.92402642878086
 20
20.11829993860914
 30
0.0
 10
24.92355678357165
 20
20.11619500766996
 30
0.0
 10
24.92272170916859
 20
20.11173408838197
 30
0.0
 10
24.92157342773882
 20
20.10386052766628
 30
0.0
 10
24.920113294581
 20
20.09057895037543
 30
0.0
 10
24.91874003311339
 20
20.07409748796274
 30
0.0
 10
24.91743666004608
 20
20.05477550039052
 30
0.0
 10
24.91623167450371
 20
20.03321938083822
 30
0.0
 10
24.91492589980087
 20
20.00491379649346
 30
0.0
 10
24.913606167518
 20
19.96891703813028
 30
0.0
 10
24.91236629054484
 20
19.92461403264461
 30
0.0
 10
24.9113482579471
 20
19.87412859400848
 30
0.0
 10
24.91059365322361
 20
19.81864651010827
 30
0.0
 10
24.91038556040447
 20
19.78012618165306
 30
0.0
 10
24.91027845617143
 20
19.76029997980335
 30
0.0
  0
SPLINE
  5
1B7
330
1F
100
AcDbEntity
  8
0
  6
SLD-Solid
 62
     7
370
    25
100
AcDbSpline
210
0.0
220
0.0
230
1.0
 70
     8
 71
     3
 72
    24
 73
    20
 74
     0
 42
0.00000001
 43
0.00000001
 40
0.0
 40
0.0
 40
0.0
 40
0.0
 40
0.1677946369776278
 40
0.3243053667843823
 40
0.4641844460631567
 40
0.5841984930473466
 40
0.6832974732876
 40
0.7622602928238351
 40
0.8231228686195868
 40
0.8685874865500827
 40
0.901538687995202
 40
0.9253449206947771
 40
0.9490126325275424
 40
0.960166889523105
 40
0.9697346681498709
 40
0.9719749656740975
 40
0.9745063977819021
 40
0.9810048607576025
 40
1.0
 40
1.0
 40
1.0
 40
1.0
 10
25.04281743841598
 20
19.76029997980335
 30
0.0
 10
25.04270272012538
 20
19.7811806645213
 30
0.0
 10
25.04248099815631
 20
19.82153784302318
 30
0.0
 10
25.04166495038913
 20
19.8792974402828
 30
0.0
 10
25.04057478327918
 20
19.93110532295901
 30
0.0
 10
25.03926769588484
 20
19.97576136810525
 30
0.0
 10
25.03784405043638
 20
20.01282926943074
 30
0.0
 10
25.03638883529923
 20
20.04252740829632
 30
0.0
 10
25.0349738126596
 20
20.06554593139429
 30
0.0
 10
25.03365424277418
 20
20.08282651355536
 30
0.0
 10
25.03245840443707
 20
20.09550330249923
 30
0.0
 10
25.03130564145902
 20
20.10542469326453
 30
0.0
 10
25.03022776944605
 20
20.11272958260462
 30
0.0
 10
25.02914601367621
 20
20.11803764442063
 30
0.0
 10
25.028352450208
 20
20.12092695882334
 30
0.0
 10
25.02779724704381
 20
20.12229804956685
 30
0.0
 10
25.02741819628499
 20
20.12305142196483
 30
0.0
 10
25.02663614691017
 20
20.12409629052217
 30
0.0
 10
25.02578514084724
 20
20.12440866619387
 30
0.0
 10
25.02515106102897
 20
20.12464141554521
 30
0.0
  0
LINE
  5
1B8
330
1F
100
AcDbEntity
  8
0
  6
SLD-Solid
 62
     7
370
    25
100
AcDbLine
 10
24.9122017934
 20
19.7592736578
 30
0.0
 11
24.927366441
 21
19.7600083123
 31
0.0
  0
LINE
  5
1B9
330
1F
100
AcDbEntity
  8
0
  6
SLD-Solid
 62
     7
370
    25
100
AcDbLine
 10
25.025701897
 20
19.7600096473
 30
0.0
 11
25.0409267987
 21
19.7592720737
 31
0.0
  0
ARC
  5
1BA
330
1F
100
AcDbEntity
  8
0
  6
SLD-Solid
 62
     7
370
    25
100
AcDbCircle
 10
24.9318412831
 20
20.1311666976
 30
0.0
 40
0.0083659184703836
100
AcDbArc
 50
234.3049391872
 51
267.9906148981
  0
ARC
  5
1BB
330
1F
100
AcDbEntity
  8
0
  6
SLD-Solid
 62
     7
370
    25
100
AcDbCircle
 10
25.0212572516
 20
20.1311529329
 30
0.0
 40
0.0083520699225114
100
AcDbArc
 50
271.9945955438
 51
305.7391606073
  0
SPLINE
  5
1BC
330
1F
100
AcDbEntity
  8
0
  6
SLD-Solid
 62
     7
370
    25
100
AcDbSpline
210
0.0
220
0.0
230
1.0
 70
     8
 71
     3
 72
    12
 73
     8
 74
     0
 42
0.00000001
 43
0.00000001
 40
0.0
 40
0.0
 40
0.0
 40
0.0
 40
0.2231431742276998
 40
0.4476957718112495
 40
0.6704617701460773
 40
0.8877037629206386
 40
1.0
 40
1.0
 40
1.0
 40
1.0
 10
25.03164633292501
 20
19.78256209715338
 30
0.0
 10
25.03181317690984
 20
19.77979374295893
 30
0.0
 10
25.03214791870429
 20
19.77423954901139
 30
0.0
 10
25.03444021115039
 20
19.76704719857048
 30
0.0
 10
25.03727630520642
 20
19.76192054211469
 30
0.0
 10
25.0396640926311
 20
19.75947775366671
 30
0.0
 10
25.04061467700846
 20
19.75945347668913
 30
0.0
 10
25.04093860618855
 20
19.75944520386072
 30
0.0
  0
SPLINE
  5
1BD
330
1F
100
AcDbEntity
  8
0
  6
SLD-Solid
 62
     7
370
    25
100
AcDbSpline
210
0.0
220
0.0
230
1.0
 70
     8
 71
     3
 72
    12
 73
     8
 74
     0
 42
0.00000001
 43
0.00000001
 40
0.0
 40
0.0
 40
0.0
 40
0.0
 40
0.4862109570754873
 40
0.7677299081877875
 40
0.9084945936861807
 40
0.9895657477092865
 40
1.0
 40
1.0
 40
1.0
 40
1.0
 10
25.03164754253954
 20
19.78256204745992
 30
0.0
 10
25.03114439417917
 20
19.83517297633479
 30
0.0
 10
25.0303499200134
 20
19.91824593675866
 30
0.0
 10
25.02772439491386
 20
20.01664743944568
 30
0.0
 10
25.0246478392199
 20
20.07107936007793
 30
0.0
 10
25.0232283937579
 20
20.09627831416972
 30
0.0
 10
25.02171995299402
 20
20.10608521793256
 30
0.0
 10
25.0215479472937
 20
20.10720348746629
 30
0.0
  0
SPLINE
  5
1BE
330
1F
100
AcDbEntity
  8
0
  6
SLD-Solid
 62
     7
370
    25
100
AcDbSpline
210
0.0
220
0.0
230
1.0
 70
     8
 71
     3
 72
    23
 73
    19
 74
     0
 42
0.00000001
 43
0.00000001
 40
0.0
 40
0.0
 40
0.0
 40
0.0
 40
0.0099491434423186
 40
0.0505606876313687
 40
0.0847711639833465
 40
0.1151734585552191
 40
0.1462476465821556
 40
0.1791879981076973
 40
0.2145290350981489
 40
0.2470627919834313
 40
0.2760738546137734
 40
0.3193451764619495
 40
0.3647666461397743
 40
0.4123390159895315
 40
0.4620629407217348
 40
0.5139389935847751
 40
0.7474475921102042
 40
1.0
 40
1.0
 40
1.0
 40
1.0
 10
24.9315479472937
 20
20.10726502198148
 30
0.0
 10
24.93138271527568
 20
20.1061986811844
 30
0.0
 10
24.93054302043176
 20
20.10077962935722
 30
0.0
 10
24.92987789871997
 20
20.09159481369002
 30
0.0
 10
24.92896842665293
 20
20.08022240926032
 30
0.0
 10
24.92830715960572
 20
20.06986633223767
 30
0.0
 10
24.92771255358225
 20
20.05964713900455
 30
0.0
 10
24.92715476642804
 20
20.04889084267692
 30
0.0
 10
24.92664282907535
 20
20.03797548721551
 30
0.0
 10
24.92619426484969
 20
20.02748484805949
 30
0.0
 10
24.92574492839956
 20
20.01613517320011
 30
0.0
 10
24.92528317583803
 20
20.00338971057041
 30
0.0
 10
24.92480086938435
 20
19.98863431294067
 30
0.0
 10
24.92434567179349
 20
19.97318039811977
 30
0.0
 10
24.92391722306913
 20
19.95702794975551
 30
0.0
 10
24.92305537384593
 20
19.92074356803912
 30
0.0
 10
24.92202180616058
 20
19.86250224226567
 30
0.0
 10
24.92164442371132
 20
19.80989581643188
 30
0.0
 10
24.92144833958815
 20
19.78256204692672
 30
0.0
  0
SPLINE
  5
1BF
330
1F
100
AcDbEntity
  8
0
  6
SLD-Solid
 62
     7
370
    25
100
AcDbSpline
210
0.0
220
0.0
230
1.0
 70
     8
 71
     3
 72
    12
 73
     8
 74
     0
 42
0.00000001
 43
0.00000001
 40
0.0
 40
0.0
 40
0.0
 40
0.0
 40
0.1619570843989108
 40
0.3890310294635483
 40
0.6044819427653506
 40
0.8227708379053634
 40
1.0
 40
1.0
 40
1.0
 40
1.0
 10
24.91217971406718
 20
19.75952403427216
 30
0.0
 10
24.91266379624259
 20
19.7595706179187
 30
0.0
 10
24.91382659185445
 20
19.75968251474641
 30
0.0
 10
24.91654530219329
 20
19.76296932805165
 30
0.0
 10
24.91926038621088
 20
19.76861089789453
 30
0.0
 10
24.92110221716947
 20
19.77545799723208
 30
0.0
 10
24.92134208043585
 20
19.78036382595993
 30
0.0
 10
24.92144956166191
 20
19.7825620970601
 30
0.0
  0
SPLINE
  5
1C0
330
1F
100
AcDbEntity
  8
0
  6
SLD-Solid
 62
     7
370
    25
100
AcDbSpline
210
0.0
220
0.0
230
1.0
 70
     8
 71
     3
 72
     9
 73
     5
 74
     0
 42
0.00000001
 43
0.00000001
 40
0.0
 40
0.0
 40
0.0
 40
0.0
 40
0.7614091049883784
 40
1.0
 40
1.0
 40
1.0
 40
1.0
 10
24.91159048508784
 20
19.75933993829557
 30
0.0
 10
24.91090965123286
 20
19.75958246152129
 30
0.0
 10
24.91001547509218
 20
19.75990098046745
 30
0.0
 10
24.91051076482449
 20
19.76022131177032
 30
0.0
 10
24.91062893644502
 20
19.76029773990257
 30
0.0
  0
SPLINE
  5
1C1
330
1F
100
AcDbEntity
  8
0
  6
SLD-Solid
 62
     7
370
    25
100
AcDbSpline
210
0.0
220
0.0
230
1.0
 70
     8
 71
     3
 72
     9
 73
     5
 74
     0
 42
0.00000001
 43
0.00000001
 40
0.0
 40
0.0
 40
0.0
 40
0.0
 40
0.23390841282403
 40
1.0
 40
1.0
 40
1.0
 40
1.0
 10
25.04247256782118
 20
19.76029775332231
 30
0.0
 10
25.04258887387589
 20
19.76022283327028
 30
0.0
 10
25.04308610291226
 20
19.75990253674428
 30
0.0
 10
25.04219090594844
 20
19.75958398948169
 30
0.0
 10
25.04150510308559
 20
19.75933995310371
 30
0.0
  0
SPLINE
  5
1C2
330
1F
100
AcDbEntity
  8
0
  6
SLD-Solid
 62
     7
370
    25
100
AcDbSpline
210
0.0
220
0.0
230
1.0
 70
     8
 71
     3
 72
    10
 73
     6
 74
     0
 42
0.00000001
 43
0.00000001
 40
0.0
 40
0.0
 40
0.0
 40
0.0
 40
0.3279891063492055
 40
0.7910001393084386
 40
1.0
 40
1.0
 40
1.0
 40
1.0
 10
25.02572138739738
 20
19.76024268229706
 30
0.0
 10
25.02549955989377
 20
19.76027491183776
 30
0.0
 10
25.02496458607036
 20
19.76035263872166
 30
0.0
 10
25.02312537348322
 20
19.76252759097182
 30
0.0
 10
25.02192215595374
 20
19.76529423236863
 30
0.0
 10
25.0215479472937
 20
19.76615467625724
 30
0.0
  0
SPLINE
  5
1C3
330
1F
100
AcDbEntity
  8
0
  6
SLD-Solid
 62
     7
370
    25
100
AcDbSpline
210
0.0
220
0.0
230
1.0
 70
     8
 71
     3
 72
    10
 73
     6
 74
     0
 42
0.00000001
 43
0.00000001
 40
0.0
 40
0.0
 40
0.0
 40
0.0
 40
0.2898651392383221
 40
0.7316973738876622
 40
1.0
 40
1.0
 40
1.0
 40
1.0
 10
24.9315479472937
 20
19.76615010782451
 30
0.0
 10
24.93102166226188
 20
19.76501014759877
 30
0.0
 10
24.92969317765445
 20
19.76213258217058
 30
0.0
 10
24.92797850719737
 20
19.76023255141749
 30
0.0
 10
24.92752433007655
 20
19.7602072841324
 30
0.0
 10
24.9273527332138
 20
19.7601977376655
 30
0.0
  0
LWPOLYLINE
  5
1C4
330
1F
100
AcDbEntity
  8
0
  6
SLD-Solid
 62
     8
370
    25
100
AcDbPolyline
 90
       16
 70
   128
 43
0.0
 10
24.9315479473
 20
19.26907793
 10
24.9318117392
 20
19.2731243854
 10
24.9339035546
 20
19.2810280883
 10
24.9379893744
 20
19.2883730151
 10
24.9438781502
 20
19.2948157252
 10
24.9512945294
 20
19.3000549646
 10
24.9598917303
 20
19.3038457523
 10
24.9692677574
 20
19.3060108352
 10
24.9789841982
 20
19.3064489766
 10
24.9885867225
 20
19.3051396893
 10
24.9976263271
 20
19.3021441943
 10
25.0056803301
 20
19.2976025575
 10
25.0123721353
 20
19.2917271408
 10
25.0173888412
 20
19.2847926722
 10
25.0204958723
 20
19.2771233997
 10
25.0215479473
 20
19.26907793
  0
LINE
  5
1C5
330
1F
100
AcDbEntity
  8
0
  6
SLD-Solid
 62
     8
370
    25
100
AcDbLine
 10
25.0215479473
 20
19.7830513246
 30
0.0
 11
25.0316475425
 21
19.7825620476
 31
0.0
  0
LINE
  5
1C6
330
1F
100
AcDbEntity
  8
0
  6
SLD-Solid
 62
     8
370
    25
100
AcDbLine
 10
24.9214483396
 20
19.782562047
 30
0.0
 11
24.9315479473
 21
19.7830513246
 31
0.0
  0
MTEXT
  5
1C7
330
1F
100
AcDbEntity
  8
NOTES
100
AcDbMText
 10
23.734350496
 20
17.1209503597
 30
0.0
 40
0.5
 41
0.0
 71
     1
 72
     1
  1
Side view
  7
SLDTEXTSTYLE1
 73
     1
 44
1.0
  0
SPLINE
  5
1C8
330
1F
100
AcDbEntity
  8
0
  6
SLD-Solid
 62
     7
370
    25
100
AcDbSpline
210
0.0
220
0.0
230
1.0
 70
     8
 71
     3
 72
    46
 73
    42
 74
     0
 42
0.00000001
 43
0.00000001
 40
0.0
 40
0.0
 40
0.0
 40
0.0
 40
0.0145286419964182
 40
0.0415807810104857
 40
0.0685724561812768
 40
0.0955056903094188
 40
0.1223782501862585
 40
0.149195763744456
 40
0.1759685071477306
 40
0.2027093904034079
 40
0.2294327725253841
 40
0.2561538047467957
 40
0.2828858857306808
 40
0.3096418251938919
 40
0.3364375202993914
 40
0.3632886290219438
 40
0.3902099890222203
 40
0.4172145404200868
 40
0.4443114299298973
 40
0.4715028713622508
 40
0.49877930297669
 40
0.5261126267739882
 40
0.5534245657032207
 40
0.5806155533140556
 40
0.6075591782228702
 40
0.6341207536282674
 40
0.6601898074720398
 40
0.6857114931670512
 40
0.7107016175714099
 40
0.735241275099267
 40
0.7594590760543254
 40
0.7835110782914738
 40
0.8075281781630935
 40
0.8316576282843823
 40
0.8560510226219944
 40
0.8808308183118244
 40
0.9060761028175401
 40
0.9318109870752469
 40
0.9580013295336848
 40
0.9845646982537601
 40
1.0
 40
1.0
 40
1.0
 40
1.0
 10
37.68612020529802
 20
20.49163894893109
 30
0.0
 10
37.68584405714817
 20
20.49548340476153
 30
0.0
 10
37.68505372479993
 20
20.50648618644129
 30
0.0
 10
37.68263549763047
 20
20.52497483436677
 30
0.0
 10
37.67845445700351
 20
20.54709726561984
 30
0.0
 10
37.67290547310575
 20
20.56937572874461
 30
0.0
 10
37.66606346894592
 20
20.59167928888352
 30
0.0
 10
37.65797533564903
 20
20.61388775999399
 30
0.0
 10
37.64869937198665
 20
20.63588023471518
 30
0.0
 10
37.63829441398575
 20
20.65753826450236
 30
0.0
 10
37.62682271483327
 20
20.67874461612296
 30
0.0
 10
37.61434940037998
 20
20.6993831280871
 30
0.0
 10
37.60094270897696
 20
20.71933884837173
 30
0.0
 10
37.58667316700544
 20
20.73849934801239
 30
0.0
 10
37.57161261786928
 20
20.75675555284144
 30
0.0
 10
37.55583339222878
 20
20.77400190978964
 30
0.0
 10
37.53940839751495
 20
20.79013546132634
 30
0.0
 10
37.52241097016822
 20
20.80505532439054
 30
0.0
 10
37.504915277676
 20
20.81866178334668
 30
0.0
 10
37.48699767213048
 20
20.83085506605052
 30
0.0
 10
37.46873948624172
 20
20.84153411195948
 30
0.0
 10
37.45023699948509
 20
20.85059346178683
 30
0.0
 10
37.43160532640242
 20
20.85792859301505
 30
0.0
 10
37.412983441516
 20
20.86344341470844
 30
0.0
 10
37.39452968528592
 20
20.86706236980243
 30
0.0
 10
37.37641769456406
 20
20.86874135873416
 30
0.0
 10
37.35882310913243
 20
20.86847644269093
 30
0.0
 10
37.34190781417679
 20
20.86630429171315
 30
0.0
 10
37.32580839236778
 20
20.86229362462077
 30
0.0
 10
37.31063233214339
 20
20.85653161027001
 30
0.0
 10
37.29646093765874
 20
20.84911038290966
 30
0.0
 10
37.28336192907922
 20
20.84012107840716
 30
0.0
 10
37.27138999172196
 20
20.82964836683153
 30
0.0
 10
37.26058804255923
 20
20.8177647663722
 30
0.0
 10
37.25099010417632
 20
20.8045226380708
 30
0.0
 10
37.24263196470307
 20
20.78996097243626
 30
0.0
 10
37.2355606475621
 20
20.77411846554553
 30
0.0
 10
37.22982240537527
 20
20.75705195697088
 30
0.0
 10
37.22549750191985
 20
20.73883134558019
 30
0.0
 10
37.22295761576635
 20
20.72236157029196
 30
0.0
 10
37.22213087924293
 20
20.71187826187337
 30
0.0
 10
37.22182703801268
 20
20.70802544874993
 30
0.0
  0
SPLINE
  5
1C9
330
1F
100
AcDbEntity
  8
0
  6
SLD-Solid
 62
     7
370
    25
100
AcDbSpline
210
0.0
220
0.0
230
1.0
 70
     8
 71
     3
 72
    42
 73
    38
 74
     0
 42
0.00000001
 43
0.00000001
 40
0.0
 40
0.0
 40
0.0
 40
0.0
 40
0.0147001017111654
 40
0.0427667514823844
 40
0.0708131959809737
 40
0.0989695201884642
 40
0.1274734760431279
 40
0.1567153180797263
 40
0.1873238170535021
 40
0.2202723455170228
 40
0.2567086600510577
 40
0.2898140871867424
 40
0.3200165358367975
 40
0.3484959906393367
 40
0.3787525335636487
 40
0.4078794393873464
 40
0.4364341184225992
 40
0.4647615275050092
 40
0.4930478158017543
 40
0.5213688425261073
 40
0.5497885616601076
 40
0.5783340505854324
 40
0.6070102750338953
 40
0.6358091347148085
 40
0.6647150130225277
 40
0.6937081541310259
 40
0.7227666607456041
 40
0.7518676155031072
 40
0.7809876568977171
 40
0.8101010872637231
 40
0.83917857342931
 40
0.8681965098090538
 40
0.8971315543657103
 40
0.9259611537325423
 40
0.9546645876161054
 40
0.9832248340830201
 40
1.0
 40
1.0
 40
1.0
 40
1.0
 10
37.31163325525367
 20
20.70212262359054
 30
0.0
 10
37.3118226941416
 20
20.70453944056434
 30
0.0
 10
37.31237382541946
 20
20.71157064435652
 30
0.0
 10
37.31404964019554
 20
20.72231217057832
 30
0.0
 10
37.31688280307347
 20
20.73380083357488
 30
0.0
 10
37.32050143590129
 20
20.74386434300871
 30
0.0
 10
37.32476907254065
 20
20.75251268644471
 30
0.0
 10
37.32960401132786
 20
20.75979751124923
 30
0.0
 10
37.33500656732875
 20
20.76584573611196
 30
0.0
 10
37.34115295391531
 20
20.77082214096361
 30
0.0
 10
37.34801297075612
 20
20.77457514083775
 30
0.0
 10
37.35567013344171
 20
20.7771197092654
 30
0.0
 10
37.36386569148235
 20
20.77846163011937
 30
0.0
 10
37.37298581870094
 20
20.77868754539936
 30
0.0
 10
37.3831724323408
 20
20.77765493618995
 30
0.0
 10
37.39445250708239
 20
20.77517414465487
 30
0.0
 10
37.4063543555425
 20
20.77126674800602
 30
0.0
 10
37.41880799629948
 20
20.76590316790943
 30
0.0
 10
37.43170795044511
 20
20.7590678544201
 30
0.0
 10
37.44492659412297
 20
20.7507681137268
 30
0.0
 10
37.45832554936079
 20
20.74103483444869
 30
0.0
 10
37.47176579773566
 20
20.72991777369071
 30
0.0
 10
37.48510561301102
 20
20.71748829863696
 30
0.0
 10
37.498204477782
 20
20.70383738155182
 30
0.0
 10
37.51092593428076
 20
20.68907333657681
 30
0.0
 10
37.52313969001547
 20
20.67331956477218
 30
0.0
 10
37.53472321910082
 20
20.65671243233027
 30
0.0
 10
37.54556304278712
 20
20.63939932355814
 30
0.0
 10
37.5555555584499
 20
20.62153732194868
 30
0.0
 10
37.56460784960757
 20
20.60329234444965
 30
0.0
 10
37.57263941897288
 20
20.58483657890462
 30
0.0
 10
37.57958413221816
 20
20.56634579846735
 30
0.0
 10
37.58538891859435
 20
20.54799888669395
 30
0.0
 10
37.59002380297227
 20
20.52997002751845
 30
0.0
 10
37.59344870077881
 20
20.51245368633541
 30
0.0
 10
37.59543182557638
 20
20.49785551170044
 30
0.0
 10
37.59605653239376
 20
20.48931212868596
 30
0.0
 10
37.59628768856859
 20
20.48615087658689
 30
0.0
  0
LINE
  5
1CA
330
1F
100
AcDbEntity
  8
0
  6
SLD-Solid
 62
     7
370
    25
100
AcDbLine
 10
37.7323132803
 20
19.7355191458
 30
0.0
 11
37.6861202053
 21
20.4916389489
 31
0.0
  0
LINE
  5
1CB
330
1F
100
AcDbEntity
  8
0
  6
SLD-Solid
 62
     7
370
    25
100
AcDbLine
 10
37.5962876886
 20
20.4861508766
 30
0.0
 11
37.6424807635
 21
19.7300310735
 31
0.0
  0
SPLINE
  5
1CC
330
1F
100
AcDbEntity
  8
0
  6
SLD-Solid
 62
     7
370
    25
100
AcDbSpline
210
0.0
220
0.0
230
1.0
 70
     8
 71
     3
 72
   110
 73
   106
 74
     0
 42
0.00000001
 43
0.00000001
 40
0.0
 40
0.0
 40
0.0
 40
0.0
 40
0.0053765619401592
 40
0.0148977829639825
 40
0.0243731079567152
 40
0.033802931853551
 40
0.0432034664766968
 40
0.0525931268443151
 40
0.0619851377923132
 40
0.0713977284171797
 40
0.0808476672855684
 40
0.090348541803219
 40
0.0999098290790299
 40
0.1095364121340709
 40
0.1192286085120173
 40
0.1289827025455064
 40
0.1387918772383535
 40
0.1486473618201244
 40
0.1585395819444841
 40
0.1684591330460187
 40
0.1783974742433215
 40
0.1883473245954191
 40
0.1983028057555487
 40
0.2082586683719875
 40
0.2182115031846593
 40
0.2281593465262658
 40
0.2381009997356764
 40
0.2480358548378984
 40
0.2579637482533051
 40
0.2678848433719311
 40
0.2777995393217941
 40
0.2877084019192151
 40
0.2976121125831366
 40
0.3075114313484585
 40
0.3174071706823124
 40
0.3273001774060897
 40
0.3371913205652683
 40
0.3470814835330577
 40
0.3569715589744776
 40
0.3668622853391436
 40
0.3767544257487573
 40
0.3866488842174925
 40
0.3965465630022304
 40
0.4064483574002029
 40
0.4163551476075372
 40
0.4262677861818701
 40
0.4361870793136045
 40
0.4461137596310677
 40
0.4560484476770942
 40
0.4659915985285568
 40
0.4759434293694321
 40
0.4859038233509189
 40
0.4958722051188608
 40
0.5058473845444867
 40
0.5158273683758002
 40
0.5258085491362801
 40
0.5357855615278183
 40
0.5457522228241759
 40
0.555700801656583
 40
0.565622140594845
 40
0.5755060584551908
 40
0.5853420928073699
 40
0.5951205737967123
 40
0.6048339159074718
 40
0.6144779110253371
 40
0.6240527556547095
 40
0.6335635821860978
 40
0.6430203778024944
 40
0.6524373126542528
 40
0.6618316041210286
 40
0.6712201793266939
 40
0.6806177043257577
 40
0.6900423154487948
 40
0.6995097353657407
 40
0.7090321160723099
 40
0.7186172633473134
 40
0.7282683382363309
 40
0.7379840781387601
 40
0.7477594942001989
 40
0.7575869074277255
 40
0.7674571215617325
 40
0.7773605252143224
 40
0.7872879689949759
 40
0.7972313473094785
 40
0.8071838933028234
 40
0.8171402315940968
 40
0.82709525824472
 40
0.83704642870148
 40
0.8469920844335068
 40
0.8569312644424656
 40
0.8668635408145887
 40
0.8767888832745795
 40
0.8867075518763623
 40
0.8966200144822852
 40
0.9065268848467812
 40
0.9164288771745264
 40
0.9263267734862468
 40
0.9362214007207265
 40
0.9461136150852085
 40
0.9560042916726066
 40
0.965894317769653
 40
0.9757845885831344
 40
0.9856757332634795
 40
0.995568626730359
 40
1.0
 40
1.0
 40
1.0
 40
1.0
 10
37.16665395913232
 20
19.98279869110664
 30
0.0
 10
37.16226791082761
 20
19.98188959628117
 30
0.0
 10
37.15011471768292
 20
19.97937060783572
 30
0.0
 10
37.1307430961707
 20
19.9738449963525
 30
0.0
 10
37.10885265866621
 20
19.96575577317986
 30
0.0
 10
37.08787857529192
 20
19.9559745622962
 30
0.0
 10
37.06786131025564
 20
19.9445725939279
 30
0.0
 10
37.04884437627187
 20
19.93157835963111
 30
0.0
 10
37.03086436819745
 20
19.91702949675642
 30
0.0
 10
37.01395675813034
 20
19.90095928026322
 30
0.0
 10
36.99815330736946
 20
19.88339704826821
 30
0.0
 10
36.98348744619441
 20
19.86437177044789
 30
0.0
 10
36.96999491042591
 20
19.84391521198915
 30
0.0
 10
36.95771327020868
 20
19.82206455408348
 30
0.0
 10
36.94668061865013
 20
19.79886459296541
 30
0.0
 10
36.9369337423748
 20
19.77436897813525
 30
0.0
 10
36.92850615851604
 20
19.74864031838371
 30
0.0
 10
36.921426416076
 20
19.7217492319885
 30
0.0
 10
36.91571694395869
 20
19.69377267050761
 30
0.0
 10
36.91139355100969
 20
19.66479195629469
 30
0.0
 10
36.90846551172093
 20
19.63489093796722
 30
0.0
 10
36.90693606293245
 20
19.6041545280864
 30
0.0
 10
36.90680311147609
 20
19.57266849566341
 30
0.0
 10
36.9080598126361
 20
19.54051835212556
 30
0.0
 10
36.91069524620589
 20
19.50778868277496
 30
0.0
 10
36.91469517448224
 20
19.47456234751437
 30
0.0
 10
36.92004252183131
 20
19.44092130284037
 30
0.0
 10
36.92671758977641
 20
19.40694729235145
 30
0.0
 10
36.93469820444268
 20
19.372721982977
 30
0.0
 10
36.9439598036663
 20
19.33832705143217
 30
0.0
 10
36.95447548705916
 20
19.30384421621358
 30
0.0
 10
36.96621604691322
 20
19.26935521816349
 30
0.0
 10
36.97914999282288
 20
19.23494175636696
 30
0.0
 10
36.99324357879318
 20
19.20068538747323
 30
0.0
 10
37.00846083846073
 20
19.16666739653528
 30
0.0
 10
37.02476363176338
 20
19.13296864682448
 30
0.0
 10
37.04211170478327
 20
19.09966941519948
 30
0.0
 10
37.06046276333994
 20
19.06684921876864
 30
0.0
 10
37.07977245594098
 20
19.03458681188475
 30
0.0
 10
37.0999944610159
 20
19.00295996819454
 30
0.0
 10
37.12108067959186
 20
18.97204513798031
 30
0.0
 10
37.14298148901288
 20
18.94191711734133
 30
0.0
 10
37.16564588380716
 20
18.91264893383531
 30
0.0
 10
37.1890215171787
 20
18.88431185553559
 30
0.0
 10
37.2130548395385
 20
18.8569752688607
 30
0.0
 10
37.23769123476022
 20
18.8307065766353
 30
0.0
 10
37.26287514828883
 20
18.80557111931222
 30
0.0
 10
37.2885501994998
 20
18.7816321217224
 30
0.0
 10
37.31465926849348
 20
18.75895066672652
 30
0.0
 10
37.34114454488343
 20
18.73758569532715
 30
0.0
 10
37.36794752326451
 20
18.71759402972608
 30
0.0
 10
37.3950089273569
 20
18.69903041090171
 30
0.0
 10
37.42226854324201
 20
18.68194753485689
 30
0.0
 10
37.44966494310857
 20
18.66639606122367
 30
0.0
 10
37.47713453979186
 20
18.65242483262924
 30
0.0
 10
37.50461059366854
 20
18.64008072720319
 30
0.0
 10
37.53202319989525
 20
18.62940770931918
 30
0.0
 10
37.55929926135578
 20
18.62044587322421
 30
0.0
 10
37.58636255449384
 20
18.61323037393912
 30
0.0
 10
37.61313314341341
 20
18.60779033211959
 30
0.0
 10
37.63952797118312
 20
18.60414726734403
 30
0.0
 10
37.66546215588337
 20
18.60231356917067
 30
0.0
 10
37.69085097845721
 20
18.60229134535376
 30
0.0
 10
37.7156123416725
 20
18.60407200907337
 30
0.0
 10
37.73966928470494
 20
18.60763686345856
 30
0.0
 10
37.76295205054013
 20
18.61295872002374
 30
0.0
 10
37.78539927950926
 20
18.62000432212417
 30
0.0
 10
37.80695811756707
 20
18.62873713904424
 30
0.0
 10
37.82758328949159
 20
18.63912002203518
 30
0.0
 10
37.84723406390403
 20
18.65111645980264
 30
0.0
 10
37.865870962001
 20
18.66469003113624
 30
0.0
 10
37.88345760728622
 20
18.67980594497131
 30
0.0
 10
37.89996008934291
 20
18.69643199012167
 30
0.0
 10
37.91534629008053
 20
18.71453948467654
 30
0.0
 10
37.9295819335893
 20
18.73409872500491
 30
0.0
 10
37.94263049754446
 20
18.7550762439501
 30
0.0
 10
37.95445403079303
 20
18.77743225042349
 30
0.0
 10
37.96501469427757
 20
18.80111875593318
 30
0.0
 10
37.97427668952124
 20
18.82607874438588
 30
0.0
 10
37.98220816576867
 20
18.85224648259736
 30
0.0
 10
37.98878274047995
 20
18.87954878646133
 30
0.0
 10
37.9939804120857
 20
18.90790685568692
 30
0.0
 10
37.99778782783352
 20
18.93723823371552
 30
0.0
 10
38.00019802233087
 20
18.96745853249544
 30
0.0
 10
38.00120982049049
 20
18.99848270577567
 30
0.0
 10
38.00082711965066
 20
19.03022474210653
 30
0.0
 10
37.99905835512647
 20
19.06259946216977
 30
0.0
 10
37.99591579099246
 20
19.09552263802542
 30
0.0
 10
37.99141473730293
 20
19.12891209371601
 30
0.0
 10
37.98557326315206
 20
19.16268597003575
 30
0.0
 10
37.97841199714289
 20
19.19676256522951
 30
0.0
 10
37.96995400534671
 20
19.231060215933
 30
0.0
 10
37.9602247203054
 20
19.26549723080421
 30
0.0
 10
37.94925189999674
 20
19.29999187835655
 30
0.0
 10
37.93706560002525
 20
19.33446242324296
 30
0.0
 10
37.92369815075016
 20
19.36882720706954
 30
0.0
 10
37.90918412084162
 20
19.40300475233007
 30
0.0
 10
37.89356030365466
 20
19.43691393079975
 30
0.0
 10
37.87686557052373
 20
19.47047400555949
 30
0.0
 10
37.85914116135393
 20
19.50360522564736
 30
0.0
 10
37.8404292794288
 20
19.53622741117888
 30
0.0
 10
37.8207781291831
 20
19.56826577231227
 30
0.0
 10
37.80022321259602
 20
19.59962922740217
 30
0.0
 10
37.78278994674903
 20
19.62464786707847
 30
0.0
 10
37.77215746401142
 20
19.63910718851143
 30
0.0
 10
37.76886818570768
 20
19.64358034247272
 30
0.0
  0
SPLINE
  5
1CD
330
1F
100
AcDbEntity
  8
0
  6
SLD-Solid
 62
     7
370
    25
100
AcDbSpline
210
0.0
220
0.0
230
1.0
 70
     8
 71
     3
 72
   105
 73
   101
 74
     0
 42
0.00000001
 43
0.00000001
 40
0.0
 40
0.0
 40
0.0
 40
0.0
 40
0.0053468158721365
 40
0.0155696083131774
 40
0.0257955324553084
 40
0.0360233552421117
 40
0.0462520330862377
 40
0.0564804417658737
 40
0.0667072549675704
 40
0.0769314191880103
 40
0.0871518818025537
 40
0.0973675950494977
 40
0.1075775229730715
 40
0.1177806526074087
 40
0.1279760110938005
 40
0.138162690885491
 40
0.1483398857911366
 40
0.1585069413547757
 40
0.1686634239725634
 40
0.1788092141898167
 40
0.1889446307500408
 40
0.1990705930494677
 40
0.2091888304226192
 40
0.2193021466539519
 40
0.2294142245978882
 40
0.2395294013241904
 40
0.2496551240333587
 40
0.2598013819144522
 40
0.2699811457725536
 40
0.2802106711563105
 40
0.290509451402306
 40
0.3008994515414654
 40
0.3114030486758715
 40
0.3220389411962699
 40
0.3328154895431561
 40
0.3437221923906099
 40
0.3547228553068036
 40
0.3657512004206477
 40
0.3767198240456442
 40
0.3875761206847281
 40
0.3982949822377302
 40
0.4088760509626371
 40
0.4193345635860384
 40
0.4296925238936281
 40
0.4399728513130703
 40
0.4501963440093229
 40
0.4603804914640701
 40
0.4705392954814783
 40
0.4806835639612675
 40
0.4908213816230932
 40
0.5009580297749362
 40
0.5110969735579013
 40
0.5212413612189921
 40
0.5313931937355039
 40
0.5415536059513696
 40
0.551723088779756
 40
0.5619016612139586
 40
0.5720890015109323
 40
0.5822845458601711
 40
0.5924875615707164
 40
0.6026972005460732
 40
0.6129125376819117
 40
0.6231325978558547
 40
0.6333563743871504
 40
0.6435828412143109
 40
0.6538109605519933
 40
0.6640396874245915
 40
0.6742678139697251
 40
0.68449409605317
 40
0.694717480129279
 40
0.7049369142694354
 40
0.7151513527426985
 40
0.7253597638286534
 40
0.7355611422361386
 40
0.7457545279180744
 40
0.755939033564963
 40
0.7661138836907442
 40
0.7762784690082191
 40
0.7864324207294493
 40
0.796575710497003
 40
0.8067087827847568
 40
0.8168327276458929
 40
0.8269495023237443
 40
0.8370622099109691
 40
0.8471744661175843
 40
0.8572913768238971
 40
0.8674209481577873
 40
0.8775738371201673
 40
0.8877637722359596
 40
0.8980077980034468
 40
0.9083260982860015
 40
0.9187409843335805
 40
0.9292744238104672
 40
0.9399433685068553
 40
0.9507525116112319
 40
0.961685708285788
 40
0.9727004434806732
 40
0.9837206226204463
 40
0.9946664865547656
 40
0.9999999999999999
 40
0.9999999999999999
 40
0.9999999999999999
 40
0.9999999999999999
 10
37.69658185002678
 20
19.58996424718569
 30
0.0
 10
37.70018263768134
 20
19.58506024900878
 30
0.0
 10
37.71066791616129
 20
19.57078009936289
 30
0.0
 10
37.72748561467385
 20
19.54650354839886
 30
0.0
 10
37.74672652590749
 20
19.51695749450291
 30
0.0
 10
37.76511347879731
 20
19.4867569195913
 30
0.0
 10
37.78260398058624
 20
19.45600462136307
 30
0.0
 10
37.79914370387032
 20
19.42478653175517
 30
0.0
 10
37.81468558910758
 20
19.39319532742689
 30
0.0
 10
37.82918497893226
 20
19.36132365308645
 30
0.0
 10
37.84260119460743
 20
19.32926535230043
 30
0.0
 10
37.85489718024576
 20
19.29711501358733
 30
0.0
 10
37.8660397569115
 20
19.26496781396384
 30
0.0
 10
37.87599975533722
 20
19.23291919452347
 30
0.0
 10
37.88475218319535
 20
19.20106456231149
 30
0.0
 10
37.89227638380911
 20
19.16949896018727
 30
0.0
 10
37.89855619494158
 20
19.13831671264638
 30
0.0
 10
37.90358010013841
 20
19.10761103636014
 30
0.0
 10
37.90734136608214
 20
19.07747360786641
 30
0.0
 10
37.90983815441187
 20
19.04799407863493
 30
0.0
 10
37.9110735912433
 20
19.01925952775373
 30
0.0
 10
37.91105577019772
 20
18.99135384322086
 30
0.0
 10
37.90979765525745
 20
18.96435702577336
 30
0.0
 10
37.90731688066368
 20
18.93834486263824
 30
0.0
 10
37.90363555507784
 20
18.91338892402456
 30
0.0
 10
37.89877974328628
 20
18.88955464581612
 30
0.0
 10
37.89277840871037
 20
18.86690000888564
 30
0.0
 10
37.88566162949127
 20
18.84547405192731
 30
0.0
 10
37.87745871520845
 20
18.82531715396609
 30
0.0
 10
37.86819566066802
 20
18.80646099735406
 30
0.0
 10
37.85789221511367
 20
18.78892943254267
 30
0.0
 10
37.84655903987027
 20
18.77274071638099
 30
0.0
 10
37.83419595982727
 20
18.75791156644832
 30
0.0
 10
37.8207929905746
 20
18.74446308382574
 30
0.0
 10
37.80633618706509
 20
18.73242750705282
 30
0.0
 10
37.7908193168112
 20
18.72185291915581
 30
0.0
 10
37.77426170048273
 20
18.71280321085584
 30
0.0
 10
37.75672568801443
 20
18.7053484949501
 30
0.0
 10
37.73830425944144
 20
18.69954053558143
 30
0.0
 10
37.71909950102582
 20
18.69540191232813
 30
0.0
 10
37.69919362595535
 20
18.69292896581171
 30
0.0
 10
37.67865063834622
 20
18.69210587201983
 30
0.0
 10
37.65751895491331
 20
18.69291449337381
 30
0.0
 10
37.63583879400333
 20
18.69533982947151
 30
0.0
 10
37.61364916868426
 20
18.69937113288223
 30
0.0
 10
37.59099241734259
 20
18.70500053480652
 30
0.0
 10
37.56791635332696
 20
18.7122208257872
 30
0.0
 10
37.5444747934535
 20
18.72102330923888
 30
0.0
 10
37.52072717371053
 20
18.73139608970709
 30
0.0
 10
37.49673818920358
 20
18.7433226361142
 30
0.0
 10
37.47257688813831
 20
18.75678083410067
 30
0.0
 10
37.44831485789962
 20
18.77174293076322
 30
0.0
 10
37.42402491550093
 20
18.78817581747507
 30
0.0
 10
37.39978034917218
 20
18.80604129022937
 30
0.0
 10
37.37565515555796
 20
18.82529564122476
 30
0.0
 10
37.35172344040013
 20
18.84588986335195
 30
0.0
 10
37.32805890940485
 20
18.86776991058242
 30
0.0
 10
37.30473443735091
 20
18.89087698896206
 30
0.0
 10
37.28182170211547
 20
18.91514786170493
 30
0.0
 10
37.25939087126312
 20
18.94051515787796
 30
0.0
 10
37.23751033033951
 20
18.96690767843652
 30
0.0
 10
37.21624644370201
 20
18.99425069629025
 30
0.0
 10
37.19566334034793
 20
19.02246624901422
 30
0.0
 10
37.17582271865771
 20
19.05147342405126
 30
0.0
 10
37.15678366520024
 20
19.08118863701579
 30
0.0
 10
37.13860248377004
 20
19.11152590412366
 30
0.0
 10
37.12133262062341
 20
19.14239695094584
 30
0.0
 10
37.10502449591149
 20
19.17371143055179
 30
0.0
 10
37.08972521374211
 20
19.20537737939874
 30
0.0
 10
37.07547833560088
 20
19.23730166193758
 30
0.0
 10
37.06232374023121
 20
19.26939028747293
 30
0.0
 10
37.05029756989248
 20
19.30154848833327
 30
0.0
 10
37.03943207307888
 20
19.33368100212876
 30
0.0
 10
37.02975544532863
 20
19.36569236639422
 30
0.0
 10
37.02129166870826
 20
19.39748722997552
 30
0.0
 10
37.01406035148246
 20
19.42897068658322
 30
0.0
 10
37.00807657093841
 20
19.46004863704009
 30
0.0
 10
37.00335072446643
 20
19.4906281879372
 30
0.0
 10
36.99988839706739
 20
19.52061809553225
 30
0.0
 10
36.99769025776734
 20
19.54992926454325
 30
0.0
 10
36.99675200331786
 20
19.57847531159088
 30
0.0
 10
36.99706437540949
 20
19.60617320185446
 30
0.0
 10
36.99861328764379
 20
19.63294396380287
 30
0.0
 10
37.00138002197301
 20
19.65871265221324
 30
0.0
 10
37.00534147082102
 20
19.68340906063224
 30
0.0
 10
37.01047075508884
 20
19.70696934588149
 30
0.0
 10
37.01673849807229
 20
19.72933763970297
 30
0.0
 10
37.0241146014458
 20
19.75046691416952
 30
0.0
 10
37.03257029079721
 20
19.77031886946813
 30
0.0
 10
37.04208077597934
 20
19.78886379495151
 30
0.0
 10
37.05262821756365
 20
19.80607942840104
 30
0.0
 10
37.06420443410507
 20
19.82194830715194
 30
0.0
 10
37.07681213869315
 20
19.83645330686008
 30
0.0
 10
37.09046307298052
 20
19.84957115463973
 30
0.0
 10
37.105170322717
 20
19.86126664148525
 30
0.0
 10
37.1209372120292
 20
19.87148590860703
 30
0.0
 10
37.13773005073745
 20
19.88016885190633
 30
0.0
 10
37.15549379526144
 20
19.88722072103924
 30
0.0
 10
37.17096133127438
 20
19.89178090772218
 30
0.0
 10
37.18060477079912
 20
19.89378388175622
 30
0.0
 10
37.18376419226619
 20
19.89444010396252
 30
0.0
  0
LINE
  5
1CE
330
1F
100
AcDbEntity
  8
0
  6
SLD-Solid
 62
     7
370
    25
100
AcDbLine
 10
37.3066709736
 20
20.6266259357
 30
0.0
 11
37.3116332553
 21
20.7021226236
 31
0.0
  0
LINE
  5
1CF
330
1F
100
AcDbEntity
  8
0
  6
SLD-Solid
 62
     7
370
    25
100
AcDbLine
 10
37.221827038
 20
20.7080254487
 30
0.0
 11
37.2168647563
 21
20.6325287609
 31
0.0
  0
SPLINE
  5
1D0
330
1F
100
AcDbEntity
  8
0
  6
SLD-Solid
 62
     7
370
    25
100
AcDbSpline
210
0.0
220
0.0
230
1.0
 70
     8
 71
     3
 72
    10
 73
     6
 74
     0
 42
0.00000001
 43
0.00000001
 40
0.0
 40
0.0
 40
0.0
 40
0.0
 40
0.3409349048752027
 40
0.8161183901322634
 40
1.0
 40
1.0
 40
1.0
 40
1.0
 10
37.30851518679788
 20
20.58971143949571
 30
0.0
 10
37.30789948219248
 20
20.5938009594925
 30
0.0
 10
37.30642562943008
 20
20.60359031349666
 30
0.0
 10
37.30595432523941
 20
20.61612501666371
 30
0.0
 10
37.30668785094458
 20
20.62431260349737
 30
0.0
 10
37.30689250734127
 20
20.62659697063962
 30
0.0
  0
SPLINE
  5
1D1
330
1F
100
AcDbEntity
  8
0
  6
SLD-Solid
 62
     7
370
    25
100
AcDbSpline
210
0.0
220
0.0
230
1.0
 70
     8
 71
     3
 72
    10
 73
     6
 74
     0
 42
0.00000001
 43
0.00000001
 40
0.0
 40
0.0
 40
0.0
 40
0.0
 40
0.3242035264996712
 40
0.7929360243189539
 40
1.0
 40
1.0
 40
1.0
 40
1.0
 10
37.21666319900076
 20
20.63256171823379
 30
0.0
 10
37.21638491093469
 20
20.62852550505641
 30
0.0
 10
37.21570427480738
 20
20.6186537468287
 30
0.0
 10
37.21338608152433
 20
20.60635396683306
 30
0.0
 10
37.21093321046991
 20
20.59858861711048
 30
0.0
 10
37.2101816510104
 20
20.59620931468858
 30
0.0
  0
SPLINE
  5
1D2
330
1F
100
AcDbEntity
  8
0
  6
SLD-Solid
 62
     7
370
    25
100
AcDbSpline
210
0.0
220
0.0
230
1.0
 70
     8
 71
     3
 72
    24
 73
    20
 74
     0
 42
0.00000001
 43
0.00000001
 40
0.0
 40
0.0
 40
0.0
 40
0.0
 40
0.0153274069411864
 40
0.0316718740102814
 40
0.043901829117323
 40
0.0482184254609398
 40
0.0514085154829694
 40
0.0587828985564153
 40
0.0820295100702388
 40
0.1208081217135034
 40
0.1584193302831933
 40
0.2079746703629836
 40
0.2717070070013293
 40
0.351611797355311
 40
0.4490836790578554
 40
0.5644988764313447
 40
0.6968292292498661
 40
0.8434121264064753
 40
1.0
 40
1.0
 40
1.0
 40
1.0
 10
37.21133023001479
 20
20.60001198521022
 30
0.0
 10
37.21042543420162
 20
20.59851340350258
 30
0.0
 10
37.20855580425641
 20
20.59541680071643
 30
0.0
 10
37.20667699276539
 20
20.59031153275893
 30
0.0
 10
37.20549645376229
 20
20.58646310143441
 30
0.0
 10
37.204874544013
 20
20.58414911575478
 30
0.0
 10
37.20447135283174
 20
20.58256615842318
 30
0.0
 10
37.20364534261225
 20
20.57915308192745
 30
0.0
 10
37.20215029183695
 20
20.57224213893119
 30
0.0
 10
37.20033860870309
 20
20.56248916329801
 30
0.0
 10
37.19831253392132
 20
20.5502049764301
 30
0.0
 10
37.19613459233096
 20
20.53553502254075
 30
0.0
 10
37.19362043055282
 20
20.51678352838879
 30
0.0
 10
37.19078371227577
 20
20.49340667014242
 30
0.0
 10
37.187660803724
 20
20.46503502527037
 30
0.0
 10
37.18431633583083
 20
20.43159219280841
 30
0.0
 10
37.18085233316778
 20
20.39339230113523
 30
0.0
 10
37.17736289792342
 20
20.35119846146427
 30
0.0
 10
37.17523077103047
 20
20.32181260826489
 30
0.0
 10
37.17412952629117
 20
20.30663479856101
 30
0.0
  0
LINE
  5
1D3
330
1F
100
AcDbEntity
  8
0
  6
SLD-Solid
 62
     7
370
    25
100
AcDbLine
 10
37.3072673137
 20
20.5656841772
 30
0.0
 11
37.3085565702
 21
20.5852990636
 31
0.0
  0
SPLINE
  5
1D4
330
1F
100
AcDbEntity
  8
0
  6
SLD-Solid
 62
     7
370
    25
100
AcDbSpline
210
0.0
220
0.0
230
1.0
 70
     8
 71
     3
 72
    16
 73
    12
 74
     0
 42
0.00000001
 43
0.00000001
 40
0.0
 40
0.0
 40
0.0
 40
0.0
 40
0.0671845030676011
 40
0.1893522089483674
 40
0.3110666683774381
 40
0.4323508082814534
 40
0.553195311867544
 40
0.6737043961520556
 40
0.794040334580472
 40
0.9143939132490485
 40
1.0
 40
1.0
 40
1.0
 40
1.0
 10
37.64248076354144
 20
19.73003107348867
 30
0.0
 10
37.64271963728782
 20
19.72686973103983
 30
0.0
 10
37.64339287694092
 20
19.7179598314559
 30
0.0
 10
37.64568143890727
 20
19.7030669830101
 30
0.0
 10
37.64972392844023
 20
19.68543297211306
 30
0.0
 10
37.65513942309115
 20
19.66782910158833
 30
0.0
 10
37.66182502810458
 20
19.65041320308149
 30
0.0
 10
37.66970333525128
 20
19.63332593535564
 30
0.0
 10
37.67871060416036
 20
19.61672715220018
 30
0.0
 10
37.68773664852439
 20
19.60223716951259
 30
0.0
 10
37.69398482660579
 20
19.59356767744313
 30
0.0
 10
37.69658185002678
 20
19.58996424718569
 30
0.0
  0
SPLINE
  5
1D5
330
1F
100
AcDbEntity
  8
0
  6
SLD-Solid
 62
     7
370
    25
100
AcDbSpline
210
0.0
220
0.0
230
1.0
 70
     8
 71
     3
 72
    16
 73
    12
 74
     0
 42
0.00000001
 43
0.00000001
 40
0.0
 40
0.0
 40
0.0
 40
0.0
 40
0.0661294923805019
 40
0.1955341793739702
 40
0.3251989231807994
 40
0.454752780468799
 40
0.5837128106907608
 40
0.7116951136696927
 40
0.8383422930298439
 40
0.9633581557482702
 40
1.0
 40
1.0
 40
1.0
 40
1.0
 10
37.76886818570768
 20
19.64358034247272
 30
0.0
 10
37.76750059377794
 20
19.6454658616161
 30
0.0
 10
37.76345684633523
 20
19.65104103579514
 30
0.0
 10
37.75720463985372
 20
19.66087108657294
 30
0.0
 10
37.75050053021541
 20
19.673082117099
 30
0.0
 10
37.74472243600944
 20
19.68557727945793
 30
0.0
 10
37.73997115004678
 20
19.69806486604252
 30
0.0
 10
37.73631671302824
 20
19.7102674208767
 30
0.0
 10
37.73379751524111
 20
19.72188438521628
 30
0.0
 10
37.73268372964274
 20
19.73019469788264
 30
0.0
 10
37.73238173200514
 20
19.73453529291279
 30
0.0
 10
37.73231328027087
 20
19.73551914583286
 30
0.0
  0
LINE
  5
1D6
330
1F
100
AcDbEntity
  8
0
  6
SLD-Solid
 62
     7
370
    25
100
AcDbLine
 10
37.2654401803
 20
19.9993362096
 30
0.0
 11
37.2988173917
 21
20.5071406958
 31
0.0
  0
LINE
  5
1D7
330
1F
100
AcDbEntity
  8
0
  6
SLD-Solid
 62
     7
370
    25
100
AcDbLine
 10
37.1933948321
 20
20.2754548083
 30
0.0
 11
37.175633963
 21
20.0052390348
 31
0.0
  0
LINE
  5
1D8
330
1F
100
AcDbEntity
  8
0
  6
SLD-Solid
 62
     7
370
    25
100
AcDbLine
 10
37.2276402123
 20
20.2783909106
 30
0.0
 11
37.2309384451
 21
20.2883163232
 31
0.0
  0
LINE
  5
1D9
330
1F
100
AcDbEntity
  8
0
  6
SLD-Solid
 62
     7
370
    25
100
AcDbLine
 10
37.2863497133
 20
20.3162205365
 30
0.0
 11
37.3028496613
 21
20.3175990822
 31
0.0
  0
SPLINE
  5
1DA
330
1F
100
AcDbEntity
  8
0
  6
SLD-Solid
 62
     7
370
    25
100
AcDbSpline
210
0.0
220
0.0
230
1.0
 70
     8
 71
     3
 72
    15
 73
    11
 74
     0
 42
0.00000001
 43
0.00000001
 40
0.0
 40
0.0
 40
0.0
 40
0.0
 40
0.0648629869912044
 40
0.1868593699878428
 40
0.3090898885175586
 40
0.4332477977791647
 40
0.5634574072480812
 40
0.7081426334699076
 40
0.8910463118433796
 40
1.0
 40
1.0
 40
1.0
 40
1.0
 10
37.17563396303984
 20
20.00523903478224
 30
0.0
 10
37.17551848305046
 20
20.00384865544559
 30
0.0
 10
37.17518580459914
 20
19.99984320612942
 30
0.0
 10
37.17411522747468
 20
19.99432721684493
 30
0.0
 10
37.17249606398576
 20
19.98935953221686
 30
0.0
 10
37.17080851077809
 20
19.98605357777591
 30
0.0
 10
37.16940186669415
 20
19.98420469779244
 30
0.0
 10
37.16845180014843
 20
19.98343580031181
 30
0.0
 10
37.16805168725825
 20
19.98315355310512
 30
0.0
 10
37.16703390782031
 20
19.98289515432308
 30
0.0
 10
37.16665395913232
 20
19.98279869110664
 30
0.0
  0
SPLINE
  5
1DB
330
1F
100
AcDbEntity
  8
0
  6
SLD-Solid
 62
     7
370
    25
100
AcDbSpline
210
0.0
220
0.0
230
1.0
 70
     8
 71
     3
 72
    18
 73
    14
 74
     0
 42
0.00000001
 43
0.00000001
 40
0.0
 40
0.0
 40
0.0
 40
0.0
 40
0.0674367825049493
 40
0.1634038617644979
 40
0.2578068038919818
 40
0.3511697011883346
 40
0.4442286504876187
 40
0.5379562202322461
 40
0.6332991093679076
 40
0.7310501763444641
 40
0.8317198392700113
 40
0.935388261903365
 40
1.0
 40
1.0
 40
1.0
 40
1.0
 10
37.18376419226619
 20
19.89444010396252
 30
0.0
 10
37.18687263497738
 20
19.89513478092034
 30
0.0
 10
37.19440460083066
 20
19.89681802993326
 30
0.0
 10
37.20580195129368
 20
19.90119361993071
 30
0.0
 10
37.21755575377312
 20
19.90765252510001
 30
0.0
 10
37.22815522055018
 20
19.91565868338662
 30
0.0
 10
37.2375277093624
 20
19.92502830027602
 30
0.0
 10
37.24563418396667
 20
19.93566007346523
 30
0.0
 10
37.25245074788047
 20
19.94748375433172
 30
0.0
 10
37.25795314232504
 20
19.96045596337316
 30
0.0
 10
37.26206714236037
 20
19.97454447075228
 30
0.0
 10
37.26446290392153
 20
19.9876245553837
 30
0.0
 10
37.26516905224034
 20
19.99608701830194
 30
0.0
 10
37.26544018028083
 20
19.99933620962285
 30
0.0
  0
SPLINE
  5
1DC
330
1F
100
AcDbEntity
  8
0
  6
SLD-Solid
 62
     7
370
    25
100
AcDbSpline
210
0.0
220
0.0
230
1.0
 70
     8
 71
     3
 72
    10
 73
     6
 74
     0
 42
0.00000001
 43
0.00000001
 40
0.0
 40
0.0
 40
0.0
 40
0.0
 40
0.3757420171457305
 40
0.7538573068621871
 40
1.0
 40
1.0
 40
1.0
 40
1.0
 10
37.30630871394068
 20
20.32720073501245
 30
0.0
 10
37.30612223450606
 20
20.32519909206789
 30
0.0
 10
37.30574809779004
 20
20.32118316334385
 30
0.0
 10
37.30469209210276
 20
20.31804856076545
 30
0.0
 10
37.30334990781813
 20
20.3179490213011
 30
0.0
 10
37.30282068934824
 20
20.31790977324581
 30
0.0
  0
SPLINE
  5
1DD
330
1F
100
AcDbEntity
  8
0
  6
SLD-Solid
 62
     7
370
    25
100
AcDbSpline
210
0.0
220
0.0
230
1.0
 70
     8
 71
     3
 72
    26
 73
    22
 74
     0
 42
0.00000001
 43
0.00000001
 40
0.0
 40
0.0
 40
0.0
 40
0.0
 40
0.1625141443161977
 40
0.3169811613256461
 40
0.4634084868518602
 40
0.60692203342238
 40
0.7317250578561272
 40
0.8041056715073086
 40
0.8658895665578192
 40
0.894353890032216
 40
0.9195562160012787
 40
0.9342252582098595
 40
0.9473830681099573
 40
0.9590331101268016
 40
0.969180393122685
 40
0.9778325362664383
 40
0.9850019271288913
 40
0.9907106139546348
 40
0.9950032123271082
 40
0.9979885183210514
 40
1.0
 40
1.0
 40
1.0
 40
1.0
 10
37.30631013637205
 20
20.32720086082266
 30
0.0
 10
37.30712231972616
 20
20.34169909999453
 30
0.0
 10
37.30870646997892
 20
20.36997767666374
 30
0.0
 10
37.3106027982372
 20
20.41128064651864
 30
0.0
 10
37.31208206438298
 20
20.45085642180016
 30
0.0
 10
37.3130706122931
 20
20.4877496125395
 30
0.0
 10
37.31344721557371
 20
20.51800743239547
 30
0.0
 10
37.31334778634204
 20
20.54095901141368
 30
0.0
 10
37.31302934833154
 20
20.55533865682968
 30
0.0
 10
37.31259658444709
 20
20.56551632249145
 30
0.0
 10
37.31223481150285
 20
20.57152401526129
 30
0.0
 10
37.3118653895794
 20
20.57617097623379
 30
0.0
 10
37.3115279223323
 20
20.57961904817364
 30
0.0
 10
37.31115996436568
 20
20.58265906086622
 30
0.0
 10
37.31076150562264
 20
20.58529039568806
 30
0.0
 10
37.31033458467428
 20
20.58751631301667
 30
0.0
 10
37.30987644585999
 20
20.58933015988298
 30
0.0
 10
37.3093995228225
 20
20.59075606615601
 30
0.0
 10
37.30887838247717
 20
20.59174669766585
 30
0.0
 10
37.30836947227672
 20
20.59245412097093
 30
0.0
 10
37.30784346867974
 20
20.59256440694109
 30
0.0
 10
37.30763172332098
 20
20.59260880310578
 30
0.0
  0
SPLINE
  5
1DE
330
1F
100
AcDbEntity
  8
0
  6
SLD-Solid
 62
     7
370
    25
100
AcDbSpline
210
0.0
220
0.0
230
1.0
 70
     8
 71
     3
 72
    28
 73
    24
 74
     0
 42
0.00000001
 43
0.00000001
 40
0.0
 40
0.0
 40
0.0
 40
0.0
 40
0.0014544180009811
 40
0.0033733823327917
 40
0.0059664077008617
 40
0.0093189293010411
 40
0.0134697467708169
 40
0.0184389956398751
 40
0.0242382927563712
 40
0.0308748975988845
 40
0.038353631762729
 40
0.0466778536253871
 40
0.0558499928857543
 40
0.0658718625552277
 40
0.076744850589791
 40
0.1035108263353224
 40
0.1342371552379042
 40
0.1959580884051538
 40
0.2683963643374518
 40
0.3931114283616622
 40
0.536654130143609
 40
0.7592501484925573
 40
1.0
 40
1.0
 40
1.0
 40
1.0
 10
37.24921278122481
 20
20.55888426568062
 30
0.0
 10
37.24917812038026
 20
20.55875248021814
 30
0.0
 10
37.24909772789299
 20
20.55844681654334
 30
0.0
 10
37.24897888211285
 20
20.55774733239971
 30
0.0
 10
37.24884944208299
 20
20.55687748212175
 30
0.0
 10
37.24870542738916
 20
20.5557737534331
 30
0.0
 10
37.24854676900269
 20
20.5544493582035
 30
0.0
 10
37.24837324296617
 20
20.55289552615517
 30
0.0
 10
37.24818495113737
 20
20.55111419114892
 30
0.0
 10
37.24798191595873
 20
20.54910427173005
 30
0.0
 10
37.24776418005639
 20
20.54686598155932
 30
0.0
 10
37.24753176762447
 20
20.54439920422425
 30
0.0
 10
37.24728469805655
 20
20.5417039651659
 30
0.0
 10
37.24702298838547
 20
20.53878026745411
 30
0.0
 10
37.24661921351314
 20
20.53417465260187
 30
0.0
 10
37.24606294097671
 20
20.52762880129222
 30
0.0
 10
37.24513270361483
 20
20.51632217376994
 30
0.0
 10
37.24390584979251
 20
20.50084812760529
 30
0.0
 10
37.24206091403203
 20
20.47678220481327
 30
0.0
 10
37.23973380954006
 20
20.44539722692392
 30
0.0
 10
37.23650890999421
 20
20.40055019530575
 30
0.0
 10
37.23265669265634
 20
20.34549586233193
 30
0.0
 10
37.22984728070438
 20
20.30385386052454
 30
0.0
 10
37.22838753852417
 20
20.28221709541274
 30
0.0
  0
SPLINE
  5
1DF
330
1F
100
AcDbEntity
  8
0
  6
SLD-Solid
 62
     7
370
    25
100
AcDbSpline
210
0.0
220
0.0
230
1.0
 70
     8
 71
     3
 72
    12
 73
     8
 74
     0
 42
0.00000001
 43
0.00000001
 40
0.0
 40
0.0
 40
0.0
 40
0.0
 40
0.25
 40
0.25
 40
0.5
 40
0.5
 40
1.0
 40
1.0
 40
1.0
 40
1.0
 10
37.20358087910368
 20
20.26952937562808
 30
0.0
 10
37.20636560837322
 20
20.26826820171451
 30
0.0
 10
37.20928781416649
 20
20.26761142897858
 30
0.0
 10
37.21500990368196
 20
20.26764236686096
 30
0.0
 10
37.21777882173891
 20
20.26834213496102
 30
0.0
 10
37.22491074420891
 20
20.27214525321578
 30
0.0
 10
37.22803381920789
 20
20.27693370476426
 30
0.0
 10
37.22838782971108
 20
20.282217965961
 30
0.0
  0
SPLINE
  5
1E0
330
1F
100
AcDbEntity
  8
0
  6
SLD-Solid
 62
     7
370
    25
100
AcDbSpline
210
0.0
220
0.0
230
1.0
 70
     8
 71
     3
 72
    12
 73
     8
 74
     0
 42
0.00000001
 43
0.00000001
 40
0.0
 40
0.0
 40
0.0
 40
0.0
 40
0.1483420463613025
 40
0.4110097295799933
 40
0.6735316037843011
 40
0.9356132838742469
 40
0.9999999999999999
 40
0.9999999999999999
 40
0.9999999999999999
 40
0.9999999999999999
 10
37.20357983491051
 20
20.26952844605936
 30
0.0
 10
37.20087613690752
 20
20.2708683594985
 30
0.0
 10
37.19338502961637
 20
20.27458084340844
 30
0.0
 10
37.18351059468457
 20
20.28239525546594
 30
0.0
 10
37.17633711646432
 20
20.29279241096217
 30
0.0
 10
37.17337895746735
 20
20.30120333302411
 30
0.0
 10
37.1743741907029
 20
20.30569954157856
 30
0.0
 10
37.1745704724887
 20
20.30658629235503
 30
0.0
  0
LWPOLYLINE
  5
1E1
330
1F
100
AcDbEntity
  8
0
  6
SLD-Solid
 62
     7
370
    25
100
AcDbPolyline
 90
        9
 70
   128
 43
0.0
 10
37.3072673137
 20
20.5656841772
 10
37.3058908538
 20
20.5596976192
 10
37.3021912371
 20
20.5535531347
 10
37.2963746532
 20
20.5481419815
 10
37.2887183764
 20
20.5437221069
 10
37.279587378
 20
20.5405042046
 10
37.269416929
 20
20.5386416706
 10
37.2586918504
 20
20.538223291
 10
37.2479234021
 20
20.53926901
  0
LINE
  5
1E2
330
1F
100
AcDbEntity
  8
0
  6
SLD-Solid
 62
     7
370
    25
100
AcDbLine
 10
37.2492126585
 20
20.5588838964
 30
0.0
 11
37.2479234021
 21
20.53926901
 31
0.0
  0
ARC
  5
1E3
330
1F
100
AcDbEntity
  8
0
  6
SLD-Solid
 62
     7
370
    25
100
AcDbCircle
 10
37.2825700622
 20
20.532680184
 30
0.0
 40
0.0350061661025323
100
AcDbArc
 50
169.2219487246
 51
175.6324866517
  0
LINE
  5
1E4
330
1F
100
AcDbEntity
  8
0
  6
SLD-Solid
 62
     7
370
    25
100
AcDbLine
 10
37.2476655508
 20
20.5353460327
 30
0.0
 11
37.2316787707
 21
20.292121441
 31
0.0
  0
SPLINE
  5
1E5
330
1F
100
AcDbEntity
  8
0
  6
SLD-Solid
 62
     7
370
    25
100
AcDbSpline
210
0.0
220
0.0
230
1.0
 70
     8
 71
     3
 72
    10
 73
     6
 74
     0
 42
0.00000001
 43
0.00000001
 40
0.0
 40
0.0
 40
0.0
 40
0.0
 40
0.2925300178874932
 40
0.6514639293865615
 40
1.0
 40
1.0
 40
1.0
 40
1.0
 10
37.28633199751598
 20
20.31639278225285
 30
0.0
 10
37.28699383294084
 20
20.31654467927785
 30
0.0
 10
37.28846773948076
 20
20.31688295373418
 30
0.0
 10
37.28954290241665
 20
20.32016059058486
 30
0.0
 10
37.28991508418846
 20
20.32396979059787
 30
0.0
 10
37.29009844005596
 20
20.32584639828199
 30
0.0
  0
LINE
  5
1E6
330
1F
100
AcDbEntity
  8
0
  6
SLD-Solid
 62
     7
370
    25
100
AcDbLine
 10
37.2316787707
 20
20.292121441
 30
0.0
 11
37.2306125578
 21
20.2884158333
 31
0.0
  0
LINE
  5
1E7
330
1F
100
AcDbEntity
  8
0
  6
SLD-Solid
 62
     7
370
    25
100
AcDbLine
 10
37.3053942338
 20
20.5585582509
 30
0.0
 11
37.2900984401
 21
20.3258463983
 31
0.0
  0
ARC
  5
1E8
330
1F
100
AcDbEntity
  8
0
  6
SLD-Solid
 62
     7
370
    25
100
AcDbCircle
 10
37.2565692413
 20
20.5460392148
 30
0.0
 40
0.06394243279787
100
AcDbArc
 50
258.8867156921
 51
297.0511522229
  0
LWPOLYLINE
  5
1E9
330
1F
100
AcDbEntity
  8
0
  6
SLD-Solid
 62
     7
370
    25
100
AcDbPolyline
 90
       13
 70
   128
 43
0.0
 10
37.247960783
 20
20.5379289842
 10
37.2527572297
 20
20.537970548
 10
37.2624418761
 20
20.5370810514
 10
37.2717277818
 20
20.5349295818
 10
37.2801807481
 20
20.5316167396
 10
37.2874055237
 20
20.5272974296
 10
37.293064286
 20
20.5221736178
 10
37.2968924378
 20
20.5164848881
 10
37.2987109788
 20
20.5104972391
 10
37.2984348761
 20
20.5044906467
 10
37.2960770399
 20
20.4987459724
 10
37.2917477201
 20
20.4935318308
 10
37.2856493509
 20
20.4890920293
  0
INSERT
  5
1EF
330
1F
100
AcDbEntity
  8
NOTES
100
AcDbBlockReference
  2
SW_NOTE_0_2
 10
34.2929618396
 20
17.4774220816
 30
0.0
  0
ENDSEC
  0
SECTION
  2
OBJECTS
  0
DICTIONARY
  5
C
330
0
100
AcDbDictionary
281
     1
  3
ACAD_GROUP
350
D
  3
ACAD_LAYOUT
350
1A
  3
ACAD_MLINESTYLE
350
17
  3
ACAD_PLOTSETTINGS
350
19
  3
ACAD_PLOTSTYLENAME
350
E
  3
ACAD_SCALELIST
350
47
  3
DWGPROPS
350
1F0
  0
DICTIONARY
  5
D
102
{ACAD_REACTORS
330
C
102
}
330
C
100
AcDbDictionary
281
     1
  0
DICTIONARY
  5
1A
102
{ACAD_REACTORS
330
C
102
}
330
C
100
AcDbDictionary
281
     1
  3
Layout1
350
1E
  3
Layout2
350
26
  3
Model
350
22
  0
DICTIONARY
  5
17
102
{ACAD_REACTORS
330
C
102
}
330
C
100
AcDbDictionary
281
     1
  3
Standard
350
18
  0
DICTIONARY
  5
19
102
{ACAD_REACTORS
330
C
102
}
330
C
100
AcDbDictionary
281
     1
  0
ACDBDICTIONARYWDFLT
  5
E
102
{ACAD_REACTORS
330
C
102
}
330
C
100
AcDbDictionary
281
     1
  3
Normal
350
F
100
AcDbDictionaryWithDefault
340
F
  0
DICTIONARY
  5
47
102
{ACAD_REACTORS
330
C
102
}
330
C
100
AcDbDictionary
281
     1
  3
A0
350
48
  3
A1
350
49
  3
A2
350
4A
  3
A3
350
4B
  3
A4
350
4C
  3
A5
350
4D
  3
A6
350
4E
  3
A7
350
4F
  3
A8
350
50
  3
A9
350
51
  3
B0
350
52
  3
B1
350
53
  3
B2
350
54
  3
B3
350
55
  3
B4
350
56
  3
B5
350
57
  3
B6
350
58
  3
B7
350
59
  3
B8
350
5A
  3
B9
350
5B
  3
C0
350
5C
  3
C1
350
5D
  3
C2
350
5E
  3
C3
350
5F
  3
C4
350
60
  3
C5
350
61
  3
C6
350
62
  3
C7
350
63
  3
C8
350
64
  3
C9
350
65
  3
D0
350
66
  3
D1
350
67
  3
D2
350
68
  0
XRECORD
  5
1F0
102
{ACAD_REACTORS
330
C
102
}
330
C
100
AcDbXrecord
280
     1
  1
DWGPROPS COOKIE
  2

  3

  4

  6

  7

  8
carl
  9

300
=
301
=
302
=
303
=
304
=
305
=
306
=
307
=
308
=
309
=
 40
0.0
 41
2459501.588482512
 42
2459501.588484873
  1

 90
        0
  0
LAYOUT
  5
1E
102
{ACAD_REACTORS
330
1A
102
}
330
1A
100
AcDbPlotSettings
  1

  2
none_device
  4

  6

 40
0.0
 41
0.0
 42
0.0
 43
0.0
 44
0.0
 45
0.0
 46
0.0
 47
0.0
 48
0.0
 49
0.0
140
0.0
141
0.0
142
1.0
143
1.0
 70
   688
 72
     0
 73
     0
 74
     5
  7

 75
    16
147
1.0
148
0.0
149
0.0
100
AcDbLayout
  1
Layout1
 70
     1
 71
     1
 10
0.0
 20
0.0
 11
12.0
 21
9.0
 12
0.0
 22
0.0
 32
0.0
 14
1.0000000000E+20
 24
1.0000000000E+20
 34
1.0000000000E+20
 15
-1.0000000000E+20
 25
-1.0000000000E+20
 35
-1.0000000000E+20
146
0.0
 13
0.0
 23
0.0
 33
0.0
 16
1.0
 26
0.0
 36
0.0
 17
0.0
 27
1.0
 37
0.0
 76
     0
330
1B
  0
LAYOUT
  5
26
102
{ACAD_REACTORS
330
1A
102
}
330
1A
100
AcDbPlotSettings
  1

  2
none_device
  4

  6

 40
0.0
 41
0.0
 42
0.0
 43
0.0
 44
0.0
 45
0.0
 46
0.0
 47
0.0
 48
0.0
 49
0.0
140
0.0
141
0.0
142
1.0
143
1.0
 70
   688
 72
     0
 73
     0
 74
     5
  7

 75
    16
147
1.0
148
0.0
149
0.0
100
AcDbLayout
  1
Layout2
 70
     1
 71
     2
 10
0.0
 20
0.0
 11
0.0
 21
0.0
 12
0.0
 22
0.0
 32
0.0
 14
0.0
 24
0.0
 34
0.0
 15
0.0
 25
0.0
 35
0.0
146
0.0
 13
0.0
 23
0.0
 33
0.0
 16
1.0
 26
0.0
 36
0.0
 17
0.0
 27
1.0
 37
0.0
 76
     0
330
23
  0
LAYOUT
  5
22
102
{ACAD_REACTORS
330
1A
102
}
330
1A
100
AcDbPlotSettings
  1

  2
none_device
  4
Letter_(8.50_x_11.00_Inches)
  6

 40
6.35
 41
6.35
 42
6.35000508
 43
6.35000508
 44
215.9
 45
279.4
 46
0.0
 47
0.0
 48
0.0
 49
0.0
140
0.0
141
0.0
142
1.0
143
1.0
 70
  1712
 72
     0
 73
     0
 74
     0
  7

 75
     0
147
1.0
148
0.0
149
0.0
100
AcDbLayout
  1
Model
 70
     1
 71
     0
 10
0.0
 20
0.0
 11
48.0
 21
36.0
 12
0.0
 22
0.0
 32
0.0
 14
0.0
 24
0.0
 34
0.0
 15
48.0
 25
36.0
 35
0.0
146
0.0
 13
0.0
 23
0.0
 33
0.0
 16
1.0
 26
0.0
 36
0.0
 17
0.0
 27
1.0
 37
0.0
 76
     0
330
1F
331
29
  0
MLINESTYLE
  5
18
102
{ACAD_REACTORS
330
17
102
}
330
17
100
AcDbMlineStyle
  2
Standard
 70
     0
  3

 62
   256
 51
90.0
 52
90.0
 71
     2
 49
0.5
 62
   256
  6
BYLAYER
 49
-0.5
 62
   256
  6
BYLAYER
  0
ACDBPLACEHOLDER
  5
F
102
{ACAD_REACTORS
330
E
102
}
330
E
  0
SCALE
  5
48
102
{ACAD_REACTORS
330
47
102
}
330
47
100
AcDbScale
 70
     0
300
1:1
140
1.0
141
1.0
290
     1
  0
SCALE
  5
49
102
{ACAD_REACTORS
330
47
102
}
330
47
100
AcDbScale
 70
     0
300
1:2
140
1.0
141
2.0
290
     0
  0
SCALE
  5
4A
102
{ACAD_REACTORS
330
47
102
}
330
47
100
AcDbScale
 70
     0
300
1:4
140
1.0
141
4.0
290
     0
  0
SCALE
  5
4B
102
{ACAD_REACTORS
330
47
102
}
330
47
100
AcDbScale
 70
     0
300
1:5
140
1.0
141
5.0
290
     0
  0
SCALE
  5
4C
102
{ACAD_REACTORS
330
47
102
}
330
47
100
AcDbScale
 70
     0
300
1:8
140
1.0
141
8.0
290
     0
  0
SCALE
  5
4D
102
{ACAD_REACTORS
330
47
102
}
330
47
100
AcDbScale
 70
     0
300
1:10
140
1.0
141
10.0
290
     0
  0
SCALE
  5
4E
102
{ACAD_REACTORS
330
47
102
}
330
47
100
AcDbScale
 70
     0
300
1:16
140
1.0
141
16.0
290
     0
  0
SCALE
  5
4F
102
{ACAD_REACTORS
330
47
102
}
330
47
100
AcDbScale
 70
     0
300
1:20
140
1.0
141
20.0
290
     0
  0
SCALE
  5
50
102
{ACAD_REACTORS
330
47
102
}
330
47
100
AcDbScale
 70
     0
300
1:30
140
1.0
141
30.0
290
     0
  0
SCALE
  5
51
102
{ACAD_REACTORS
330
47
102
}
330
47
100
AcDbScale
 70
     0
300
1:40
140
1.0
141
40.0
290
     0
  0
SCALE
  5
52
102
{ACAD_REACTORS
330
47
102
}
330
47
100
AcDbScale
 70
     0
300
1:50
140
1.0
141
50.0
290
     0
  0
SCALE
  5
53
102
{ACAD_REACTORS
330
47
102
}
330
47
100
AcDbScale
 70
     0
300
1:100
140
1.0
141
100.0
290
     0
  0
SCALE
  5
54
102
{ACAD_REACTORS
330
47
102
}
330
47
100
AcDbScale
 70
     0
300
2:1
140
2.0
141
1.0
290
     0
  0
SCALE
  5
55
102
{ACAD_REACTORS
330
47
102
}
330
47
100
AcDbScale
 70
     0
300
4:1
140
4.0
141
1.0
290
     0
  0
SCALE
  5
56
102
{ACAD_REACTORS
330
47
102
}
330
47
100
AcDbScale
 70
     0
300
8:1
140
8.0
141
1.0
290
     0
  0
SCALE
  5
57
102
{ACAD_REACTORS
330
47
102
}
330
47
100
AcDbScale
 70
     0
300
10:1
140
10.0
141
1.0
290
     0
  0
SCALE
  5
58
102
{ACAD_REACTORS
330
47
102
}
330
47
100
AcDbScale
 70
     0
300
100:1
140
100.0
141
1.0
290
     0
  0
SCALE
  5
59
102
{ACAD_REACTORS
330
47
102
}
330
47
100
AcDbScale
 70
     0
300
1/128" = 1'-0"
140
0.0078125
141
12.0
290
     0
  0
SCALE
  5
5A
102
{ACAD_REACTORS
330
47
102
}
330
47
100
AcDbScale
 70
     0
300
1/64" = 1'-0"
140
0.015625
141
12.0
290
     0
  0
SCALE
  5
5B
102
{ACAD_REACTORS
330
47
102
}
330
47
100
AcDbScale
 70
     0
300
1/32" = 1'-0"
140
0.03125
141
12.0
290
     0
  0
SCALE
  5
5C
102
{ACAD_REACTORS
330
47
102
}
330
47
100
AcDbScale
 70
     0
300
1/16" = 1'-0"
140
0.0625
141
12.0
290
     0
  0
SCALE
  5
5D
102
{ACAD_REACTORS
330
47
102
}
330
47
100
AcDbScale
 70
     0
300
3/32" = 1'-0"
140
0.09375
141
12.0
290
     0
  0
SCALE
  5
5E
102
{ACAD_REACTORS
330
47
102
}
330
47
100
AcDbScale
 70
     0
300
1/8" = 1'-0"
140
0.125
141
12.0
290
     0
  0
SCALE
  5
5F
102
{ACAD_REACTORS
330
47
102
}
330
47
100
AcDbScale
 70
     0
300
3/16" = 1'-0"
140
0.1875
141
12.0
290
     0
  0
SCALE
  5
60
102
{ACAD_REACTORS
330
47
102
}
330
47
100
AcDbScale
 70
     0
300
1/4" = 1'-0"
140
0.25
141
12.0
290
     0
  0
SCALE
  5
61
102
{ACAD_REACTORS
330
47
102
}
330
47
100
AcDbScale
 70
     0
300
3/8" = 1'-0"
140
0.375
141
12.0
290
     0
  0
SCALE
  5
62
102
{ACAD_REACTORS
330
47
102
}
330
47
100
AcDbScale
 70
     0
300
1/2" = 1'-0"
140
0.5
141
12.0
290
     0
  0
SCALE
  5
63
102
{ACAD_REACTORS
330
47
102
}
330
47
100
AcDbScale
 70
     0
300
3/4" = 1'-0"
140
0.75
141
12.0
290
     0
  0
SCALE
  5
64
102
{ACAD_REACTORS
330
47
102
}
330
47
100
AcDbScale
 70
     0
300
1" = 1'-0"
140
1.0
141
12.0
290
     0
  0
SCALE
  5
65
102
{ACAD_REACTORS
330
47
102
}
330
47
100
AcDbScale
 70
     0
300
1-1/2" = 1'-0"
140
1.5
141
12.0
290
     0
  0
SCALE
  5
66
102
{ACAD_REACTORS
330
47
102
}
330
47
100
AcDbScale
 70
     0
300
3" = 1'-0"
140
3.0
141
12.0
290
     0
  0
SCALE
  5
67
102
{ACAD_REACTORS
330
47
102
}
330
47
100
AcDbScale
 70
     0
300
6" = 1'-0"
140
6.0
141
12.0
290
     0
  0
SCALE
  5
68
102
{ACAD_REACTORS
330
47
102
}
330
47
100
AcDbScale
 70
     0
300
1'-0" = 1'-0"
140
12.0
141
12.0
290
     0
  0
ENDSEC
  0
EOF
