  0
SECTION
  2
HEADER
  9
$ACADVER
  1
AC1015
  9
$ACADMAINTVER
 70
     6
  9
$DWGCODEPAGE
  3
ANSI_1252
  9
$INSBASE
 10
0.0
 20
0.0
 30
0.0
  9
$EXTMIN
 10
0.0
 20
0.0
 30
0.0
  9
$EXTMAX
 10
48.0
 20
36.0
 30
0.0
  9
$LIMMIN
 10
0.0
 20
0.0
  9
$LIMMAX
 10
48.0
 20
36.0
  9
$ORTHOMODE
 70
     0
  9
$REGENMODE
 70
     1
  9
$FILLMODE
 70
     1
  9
$QTEXTMODE
 70
     0
  9
$MIRRTEXT
 70
     1
  9
$LTSCALE
 40
1.0
  9
$ATTMODE
 70
     1
  9
$TEXTSIZE
 40
0.5
  9
$TRACEWID
 40
0.05
  9
$TEXTSTYLE
  7
STANDARD
  9
$CLAYER
  8
0
  9
$CELTYPE
  6
ByLayer
  9
$CECOLOR
 62
   256
  9
$CELTSCALE
 40
1.0
  9
$DISPSILH
 70
     0
  9
$DIMSCALE
 40
1.0
  9
$DIMASZ
 40
0.3
  9
$DIMEXO
 40
0.1666666667
  9
$DIMDLI
 40
0.38
  9
$DIMRND
 40
0.0
  9
$DIMDLE
 40
0.0
  9
$DIMEXE
 40
0.375
  9
$DIMTP
 40
0.0
  9
$DIMTM
 40
0.0
  9
$DIMTXT
 40
0.5
  9
$DIMCEN
 40
0.09
  9
$DIMTSZ
 40
0.0
  9
$DIMTOL
 70
     0
  9
$DIMLIM
 70
     0
  9
$DIMTIH
 70
     1
  9
$DIMTOH
 70
     1
  9
$DIMSE1
 70
     0
  9
$DIMSE2
 70
     0
  9
$DIMTAD
 70
     0
  9
$DIMZIN
 70
     1
  9
$DIMBLK
  1

  9
$DIMASO
 70
     1
  9
$DIMSHO
 70
     1
  9
$DIMPOST
  1

  9
$DIMAPOST
  1

  9
$DIMALT
 70
     0
  9
$DIMALTD
 70
     2
  9
$DIMALTF
 40
25.4
  9
$DIMLFAC
 40
1.0
  9
$DIMTOFL
 70
     0
  9
$DIMTVP
 40
0.0
  9
$DIMTIX
 70
     0
  9
$DIMSOXD
 70
     0
  9
$DIMSAH
 70
     0
  9
$DIMBLK1
  1

  9
$DIMBLK2
  1

  9
$DIMSTYLE
  2
Standard
  9
$DIMCLRD
 70
     0
  9
$DIMCLRE
 70
     0
  9
$DIMCLRT
 70
     0
  9
$DIMTFAC
 40
1.0
  9
$DIMGAP
 40
0.125
  9
$DIMJUST
 70
     0
  9
$DIMSD1
 70
     0
  9
$DIMSD2
 70
     0
  9
$DIMTOLJ
 70
     1
  9
$DIMTZIN
 70
     1
  9
$DIMALTZ
 70
     0
  9
$DIMALTTZ
 70
     0
  9
$DIMUPT
 70
     0
  9
$DIMDEC
 70
     2
  9
$DIMTDEC
 70
     2
  9
$DIMALTU
 70
     2
  9
$DIMALTTD
 70
     2
  9
$DIMTXSTY
  7
STANDARD
  9
$DIMAUNIT
 70
     0
  9
$DIMADEC
 70
     2
  9
$DIMALTRND
 40
0.0
  9
$DIMAZIN
 70
     0
  9
$DIMDSEP
 70
    46
  9
$DIMATFIT
 70
     3
  9
$DIMFRAC
 70
     0
  9
$DIMLDRBLK
  1

  9
$DIMLUNIT
 70
     2
  9
$DIMLWD
 70
    -2
  9
$DIMLWE
 70
    -2
  9
$DIMTMOVE
 70
     0
  9
$LUNITS
 70
     2
  9
$LUPREC
 70
     4
  9
$SKETCHINC
 40
0.1
  9
$FILLETRAD
 40
0.5
  9
$AUNITS
 70
     0
  9
$AUPREC
 70
     2
  9
$MENU
  1
.
  9
$ELEVATION
 40
0.0
  9
$PELEVATION
 40
0.0
  9
$THICKNESS
 40
0.0
  9
$LIMCHECK
 70
     0
  9
$CHAMFERA
 40
0.0
  9
$CHAMFERB
 40
0.0
  9
$CHAMFERC
 40
0.0
  9
$CHAMFERD
 40
0.0
  9
$SKPOLY
 70
     0
  9
$TDCREATE
 40
2459475.50269338
  9
$TDUCREATE
 40
2459475.669360046
  9
$TDUPDATE
 40
2459475.502697303
  9
$TDUUPDATE
 40
2459475.66936397
  9
$TDINDWG
 40
0.0000000116
  9
$TDUSRTIMER
 40
0.0000000116
  9
$USRTIMER
 70
     1
  9
$ANGBASE
 50
0.0
  9
$ANGDIR
 70
     0
  9
$PDMODE
 70
     0
  9
$PDSIZE
 40
-1.0
  9
$PLINEWID
 40
0.0
  9
$SPLFRAME
 70
     0
  9
$SPLINETYPE
 70
     6
  9
$SPLINESEGS
 70
     8
  9
$HANDSEED
  5
2B7
  9
$SURFTAB1
 70
     6
  9
$SURFTAB2
 70
     6
  9
$SURFTYPE
 70
     6
  9
$SURFU
 70
     6
  9
$SURFV
 70
     6
  9
$UCSBASE
  2

  9
$UCSNAME
  2

  9
$UCSORG
 10
0.0
 20
0.0
 30
0.0
  9
$UCSXDIR
 10
1.0
 20
0.0
 30
0.0
  9
$UCSYDIR
 10
0.0
 20
1.0
 30
0.0
  9
$UCSORTHOREF
  2

  9
$UCSORTHOVIEW
 70
     0
  9
$UCSORGTOP
 10
0.0
 20
0.0
 30
0.0
  9
$UCSORGBOTTOM
 10
0.0
 20
0.0
 30
0.0
  9
$UCSORGLEFT
 10
0.0
 20
0.0
 30
0.0
  9
$UCSORGRIGHT
 10
0.0
 20
0.0
 30
0.0
  9
$UCSORGFRONT
 10
0.0
 20
0.0
 30
0.0
  9
$UCSORGBACK
 10
0.0
 20
0.0
 30
0.0
  9
$PUCSBASE
  2

  9
$PUCSNAME
  2

  9
$PUCSORG
 10
0.0
 20
0.0
 30
0.0
  9
$PUCSXDIR
 10
1.0
 20
0.0
 30
0.0
  9
$PUCSYDIR
 10
0.0
 20
1.0
 30
0.0
  9
$PUCSORTHOREF
  2

  9
$PUCSORTHOVIEW
 70
     0
  9
$PUCSORGTOP
 10
0.0
 20
0.0
 30
0.0
  9
$PUCSORGBOTTOM
 10
0.0
 20
0.0
 30
0.0
  9
$PUCSORGLEFT
 10
0.0
 20
0.0
 30
0.0
  9
$PUCSORGRIGHT
 10
0.0
 20
0.0
 30
0.0
  9
$PUCSORGFRONT
 10
0.0
 20
0.0
 30
0.0
  9
$PUCSORGBACK
 10
0.0
 20
0.0
 30
0.0
  9
$USERI1
 70
     0
  9
$USERI2
 70
     0
  9
$USERI3
 70
     0
  9
$USERI4
 70
     0
  9
$USERI5
 70
     0
  9
$USERR1
 40
0.0
  9
$USERR2
 40
0.0
  9
$USERR3
 40
0.0
  9
$USERR4
 40
0.0
  9
$USERR5
 40
0.0
  9
$WORLDVIEW
 70
     1
  9
$SHADEDGE
 70
     3
  9
$SHADEDIF
 70
    70
  9
$TILEMODE
 70
     1
  9
$MAXACTVP
 70
    64
  9
$PINSBASE
 10
0.0
 20
0.0
 30
0.0
  9
$PLIMCHECK
 70
     0
  9
$PEXTMIN
 10
1.0000000000E+20
 20
1.0000000000E+20
 30
1.0000000000E+20
  9
$PEXTMAX
 10
-1.0000000000E+20
 20
-1.0000000000E+20
 30
-1.0000000000E+20
  9
$PLIMMIN
 10
0.0
 20
0.0
  9
$PLIMMAX
 10
12.0
 20
9.0
  9
$UNITMODE
 70
     0
  9
$VISRETAIN
 70
     1
  9
$PLINEGEN
 70
     0
  9
$PSLTSCALE
 70
     1
  9
$TREEDEPTH
 70
  3020
  9
$CMLSTYLE
  2
Standard
  9
$CMLJUST
 70
     0
  9
$CMLSCALE
 40
1.0
  9
$PROXYGRAPHICS
 70
     1
  9
$MEASUREMENT
 70
     0
  9
$CELWEIGHT
370
    -1
  9
$ENDCAPS
280
     0
  9
$JOINSTYLE
280
     0
  9
$LWDISPLAY
290
     1
  9
$INSUNITS
 70
     1
  9
$HYPERLINKBASE
  1

  9
$STYLESHEET
  1

  9
$XEDIT
290
     1
  9
$CEPSNTYPE
380
     0
  9
$PSTYLEMODE
290
     1
  9
$FINGERPRINTGUID
  2
{bfb849b4-053e-45f3-aebb-aa9391cf09da}
  9
$VERSIONGUID
  2
{FAEB1C32-E019-11D5-929B-00C0DF256EC4}
  9
$EXTNAMES
290
     1
  9
$PSVPSCALE
 40
0.0
  9
$OLESTARTUP
290
     0
  0
ENDSEC
  0
SECTION
  2
CLASSES
  0
CLASS
  1
ACDBDICTIONARYWDFLT
  2
AcDbDictionaryWithDefault
  3
ObjectDBX Classes
 90
        0
280
     0
281
     0
  0
CLASS
  1
VISUALSTYLE
  2
AcDbVisualStyle
  3
ObjectDBX Classes
 90
     4095
280
     0
281
     0
  0
CLASS
  1
MATERIAL
  2
AcDbMaterial
  3
ObjectDBX Classes
 90
     1153
280
     0
281
     0
  0
CLASS
  1
SCALE
  2
AcDbScale
  3
ObjectDBX Classes
 90
     1153
280
     0
281
     0
  0
CLASS
  1
TABLESTYLE
  2
AcDbTableStyle
  3
ObjectDBX Classes
 90
     4095
280
     0
281
     0
  0
CLASS
  1
MLEADERSTYLE
  2
AcDbMLeaderStyle
  3
ACDB_MLEADERSTYLE_CLASS
 90
     4095
280
     0
281
     0
  0
CLASS
  1
SUN
  2
AcDbSun
  3
SCENEOE
 90
     1153
280
     0
281
     0
  0
CLASS
  1
ACDBPLACEHOLDER
  2
AcDbPlaceHolder
  3
ObjectDBX Classes
 90
        0
280
     0
281
     0
  0
CLASS
  1
LAYOUT
  2
AcDbLayout
  3
ObjectDBX Classes
 90
        0
280
     0
281
     0
  0
ENDSEC
  0
SECTION
  2
TABLES
  0
TABLE
  2
VPORT
  5
8
330
0
100
AcDbSymbolTable
 70
     1
  0
VPORT
  5
29
330
8
100
AcDbSymbolTableRecord
100
AcDbViewportTableRecord
  2
*Active
 70
     0
 10
0.0
 20
0.0
 11
1.0
 21
1.0
 12
24.0
 22
18.0
 13
0.0
 23
0.0
 14
0.5
 24
0.5
 15
0.5
 25
0.5
 16
0.0
 26
0.0
 36
1.0
 17
0.0
 27
0.0
 37
0.0
 40
36.0
 41
1.3333333333
 42
50.0
 43
0.0
 44
0.0
 50
0.0
 51
0.0
 71
     0
 72
  2000
 73
     1
 74
     3
 75
     0
 76
     0
 77
     0
 78
     0
281
     0
 65
     1
110
0.0
120
0.0
130
0.0
111
1.0
121
0.0
131
0.0
112
0.0
122
1.0
132
0.0
 79
     0
146
0.0
  0
ENDTAB
  0
TABLE
  2
LTYPE
  5
5
330
0
100
AcDbSymbolTable
 70
     8
  0
LTYPE
  5
14
330
5
100
AcDbSymbolTableRecord
100
AcDbLinetypeTableRecord
  2
ByBlock
 70
     0
  3

 72
    65
 73
     0
 40
0.0
  0
LTYPE
  5
15
330
5
100
AcDbSymbolTableRecord
100
AcDbLinetypeTableRecord
  2
ByLayer
 70
     0
  3

 72
    65
 73
     0
 40
0.0
  0
LTYPE
  5
16
330
5
100
AcDbSymbolTableRecord
100
AcDbLinetypeTableRecord
  2
Continuous
 70
     0
  3
Solid line
 72
    65
 73
     0
 40
0.0
  0
LTYPE
  5
6E
330
5
100
AcDbSymbolTableRecord
100
AcDbLinetypeTableRecord
  2
SLD-Solid
 70
     0
  3
SolidWorks Line Style
 72
    65
 73
     0
 40
0.0
  0
LTYPE
  5
6F
330
5
100
AcDbSymbolTableRecord
100
AcDbLinetypeTableRecord
  2
SLD-Dashed
 70
     0
  3
SolidWorks Line Style
 72
    65
 73
     2
 40
0.075
 49
0.05
 74
     0
 49
-0.025
 74
     0
  0
LTYPE
  5
70
330
5
100
AcDbSymbolTableRecord
100
AcDbLinetypeTableRecord
  2
SLD-Phantom
 70
     0
  3
SolidWorks Line Style
 72
    65
 73
     6
 40
0.5
 49
0.25
 74
     0
 49
-0.05
 74
     0
 49
0.05
 74
     0
 49
-0.05
 74
     0
 49
0.05
 74
     0
 49
-0.05
 74
     0
  0
LTYPE
  5
71
330
5
100
AcDbSymbolTableRecord
100
AcDbLinetypeTableRecord
  2
SLD-Chain
 70
     0
  3
SolidWorks Line Style
 72
    65
 73
     4
 40
0.4
 49
0.25
 74
     0
 49
-0.05
 74
     0
 49
0.05
 74
     0
 49
-0.05
 74
     0
  0
LTYPE
  5
72
330
5
100
AcDbSymbolTableRecord
100
AcDbLinetypeTableRecord
  2
SLD-Center
 70
     0
  3
SolidWorks Line Style
 72
    65
 73
     4
 40
0.75
 49
0.6
 74
     0
 49
-0.05
 74
     0
 49
0.05
 74
     0
 49
-0.05
 74
     0
  0
LTYPE
  5
73
330
5
100
AcDbSymbolTableRecord
100
AcDbLinetypeTableRecord
  2
SLD-Stitch
 70
     0
  3
SolidWorks Line Style
 72
    65
 73
     2
 40
0.025
 49
0.0
 74
     0
 49
-0.025
 74
     0
  0
LTYPE
  5
74
330
5
100
AcDbSymbolTableRecord
100
AcDbLinetypeTableRecord
  2
SLD-Thin-Thick-Chain
 70
     0
  3
SolidWorks Line Style
 72
    65
 73
     4
 40
0.4
 49
0.25
 74
     0
 49
-0.05
 74
     0
 49
0.05
 74
     0
 49
-0.05
 74
     0
  0
ENDTAB
  0
TABLE
  2
LAYER
  5
2
330
0
100
AcDbSymbolTable
 70
     6
  0
LAYER
  5
10
330
2
100
AcDbSymbolTableRecord
100
AcDbLayerTableRecord
  2
0
 70
     0
 62
     7
  6
Continuous
370
    -3
390
F
  0
LAYER
  5
75
330
2
100
AcDbSymbolTableRecord
100
AcDbLayerTableRecord
  2
FORMAT
 70
     0
 62
     7
  6
SLD-Solid
370
    -3
390
F
  0
LAYER
  5
76
330
2
100
AcDbSymbolTableRecord
100
AcDbLayerTableRecord
  2
NOTES
 70
     0
 62
     1
  6
SLD-Solid
370
    -3
390
F
  0
LAYER
  5
77
330
2
100
AcDbSymbolTableRecord
100
AcDbLayerTableRecord
  2
OBJECT
 70
     0
 62
     7
  6
SLD-Solid
370
    25
390
F
  0
LAYER
  5
78
330
2
100
AcDbSymbolTableRecord
100
AcDbLayerTableRecord
  2
DIMS
 70
     0
 62
     5
  6
SLD-Solid
370
    -3
390
F
  0
LAYER
  5
79
330
2
100
AcDbSymbolTableRecord
100
AcDbLayerTableRecord
  2
TITLE
 70
     0
 62
     8
  6
SLD-Solid
370
    -3
390
F
  0
ENDTAB
  0
TABLE
  2
STYLE
  5
3
330
0
100
AcDbSymbolTable
 70
     5
  0
STYLE
  5
11
330
3
100
AcDbSymbolTableRecord
100
AcDbTextStyleTableRecord
  2
STANDARD
 70
     0
 40
0.0
 41
1.0
 50
0.0
 71
     0
 42
0.5
  3
GOTHIC.TTF
  4

1001
ACAD
1000
CENTURY GOTHIC
1071
       34
  0
STYLE
  5
E0
330
3
100
AcDbSymbolTableRecord
100
AcDbTextStyleTableRecord
  2
SLDTEXTSTYLE0
 70
     0
 40
0.0
 41
0.948
 50
0.0
 71
     0
 42
0.5
  3
ARIAL.TTF
  4

1001
ACAD
1000
Arial
1071
      290
  0
STYLE
  5
E4
330
3
100
AcDbSymbolTableRecord
100
AcDbTextStyleTableRecord
  2
SLDTEXTSTYLE1
 70
     0
 40
0.0
 41
0.913
 50
0.0
 71
     0
 42
0.5
  3
GOTHIC.TTF
  4

1001
ACAD
1000
Century Gothic
1071
      290
  0
STYLE
  5
F3
330
3
100
AcDbSymbolTableRecord
100
AcDbTextStyleTableRecord
  2
SLDTEXTSTYLE2
 70
     0
 40
0.0
 41
0.87
 50
0.0
 71
     0
 42
0.5
  3
ARIALNB.TTF
  4

1001
ACAD
1000
Arial Narrow
1071
 33554722
  0
STYLE
  5
F5
330
3
100
AcDbSymbolTableRecord
100
AcDbTextStyleTableRecord
  2
SLDTEXTSTYLE3
 70
     0
 40
0.0
 41
0.87
 50
0.0
 71
     0
 42
0.5
  3
ARIALN.TTF
  4

1001
ACAD
1000
Arial Narrow
1071
      290
  0
ENDTAB
  0
TABLE
  2
VIEW
  5
6
330
0
100
AcDbSymbolTable
 70
     0
  0
ENDTAB
  0
TABLE
  2
UCS
  5
7
330
0
100
AcDbSymbolTable
 70
     0
  0
ENDTAB
  0
TABLE
  2
APPID
  5
9
330
0
100
AcDbSymbolTable
 70
     1
  0
APPID
  5
12
330
9
100
AcDbSymbolTableRecord
100
AcDbRegAppTableRecord
  2
ACAD
 70
     0
  0
ENDTAB
  0
TABLE
  2
DIMSTYLE
  5
A
330
0
100
AcDbSymbolTable
 70
     3
100
AcDbDimStyleTable
  0
DIMSTYLE
105
27
330
A
100
AcDbSymbolTableRecord
100
AcDbDimStyleTableRecord
  2
Standard
 70
     0
178
     0
340
11
  0
DIMSTYLE
105
17A
102
{ACAD_REACTORS
330
179
330
18F
330
1C6
330
1D5
330
1E4
330
253
330
262
330
297
330
2A6
102
}
330
A
100
AcDbSymbolTableRecord
100
AcDbDimStyleTableRecord
  2
SLDDIMSTYLE0
 70
     0
 41
0.3
 44
0.0
 45
0.000000001
 78
    12
 79
     3
140
0.5
147
0.125
173
     1
178
     0
271
     6
272
     2
276
     2
277
     5
284
    12
340
E4
341
17B
343
17B
344
17B
  0
DIMSTYLE
105
274
330
A
100
AcDbSymbolTableRecord
100
AcDbDimStyleTableRecord
  2
SLDDIMSTYLE1
 70
     0
 41
0.3
 44
0.0
 45
0.000000001
146
0.3
147
0.0
173
     1
178
     0
271
     0
272
     0
276
     2
277
     5
340
11
341
17B
343
17B
344
17B
  0
ENDTAB
  0
TABLE
  2
BLOCK_RECORD
  5
1
330
0
100
AcDbSymbolTable
 70
    14
  0
BLOCK_RECORD
  5
1F
330
1
100
AcDbSymbolTableRecord
100
AcDbBlockTableRecord
  2
*Model_Space
340
22
  0
BLOCK_RECORD
  5
1B
330
1
100
AcDbSymbolTableRecord
100
AcDbBlockTableRecord
  2
*Paper_Space
340
1E
  0
BLOCK_RECORD
  5
23
330
1
100
AcDbSymbolTableRecord
100
AcDbBlockTableRecord
  2
*Paper_Space0
340
26
  0
BLOCK_RECORD
  5
EA
330
1
100
AcDbSymbolTableRecord
100
AcDbBlockTableRecord
  2
SW_NOTE_0
340
0
102
{BLKREFS
331
EF
102
}
  0
BLOCK_RECORD
  5
F0
330
1
100
AcDbSymbolTableRecord
100
AcDbBlockTableRecord
  2
SW_NOTE_0_1
340
0
102
{BLKREFS
331
F9
102
}
  0
BLOCK_RECORD
  5
17B
330
1
100
AcDbSymbolTableRecord
100
AcDbBlockTableRecord
  2
_Open90
340
0
102
{BLKREFS
331
184
331
185
331
193
331
194
331
1CA
331
1CB
331
1D9
331
1DA
331
1E8
331
1E9
331
257
331
258
331
266
331
267
331
29B
331
29C
331
2AA
331
2AB
102
}
  0
BLOCK_RECORD
  5
181
330
1
100
AcDbSymbolTableRecord
100
AcDbBlockTableRecord
  2
_D
340
0
  0
BLOCK_RECORD
  5
190
330
1
100
AcDbSymbolTableRecord
100
AcDbBlockTableRecord
  2
_D_1
340
0
  0
BLOCK_RECORD
  5
1C7
330
1
100
AcDbSymbolTableRecord
100
AcDbBlockTableRecord
  2
_D_2
340
0
  0
BLOCK_RECORD
  5
1D6
330
1
100
AcDbSymbolTableRecord
100
AcDbBlockTableRecord
  2
_D_3
340
0
  0
BLOCK_RECORD
  5
1E5
330
1
100
AcDbSymbolTableRecord
100
AcDbBlockTableRecord
  2
_D_4
340
0
  0
BLOCK_RECORD
  5
235
330
1
100
AcDbSymbolTableRecord
100
AcDbBlockTableRecord
  2
SW_NOTE_0_2
340
0
102
{BLKREFS
331
23A
102
}
  0
BLOCK_RECORD
  5
254
330
1
100
AcDbSymbolTableRecord
100
AcDbBlockTableRecord
  2
_D_5
340
0
  0
BLOCK_RECORD
  5
263
330
1
100
AcDbSymbolTableRecord
100
AcDbBlockTableRecord
  2
_D_6
340
0
  0
BLOCK_RECORD
  5
298
330
1
100
AcDbSymbolTableRecord
100
AcDbBlockTableRecord
  2
_D_7
340
0
  0
BLOCK_RECORD
  5
2A7
330
1
100
AcDbSymbolTableRecord
100
AcDbBlockTableRecord
  2
_D_8
340
0
  0
ENDTAB
  0
ENDSEC
  0
SECTION
  2
BLOCKS
  0
BLOCK
  5
20
330
1F
100
AcDbEntity
  8
0
100
AcDbBlockBegin
  2
*Model_Space
 70
     0
 10
0.0
 20
0.0
 30
0.0
  3
*Model_Space
  1

  0
ENDBLK
  5
21
330
1F
100
AcDbEntity
  8
0
100
AcDbBlockEnd
  0
BLOCK
  5
1C
330
1B
100
AcDbEntity
 67
     1
  8
0
100
AcDbBlockBegin
  2
*Paper_Space
 70
     0
 10
0.0
 20
0.0
 30
0.0
  3
*Paper_Space
  1

  0
ENDBLK
  5
1D
330
1B
100
AcDbEntity
 67
     1
  8
0
100
AcDbBlockEnd
  0
BLOCK
  5
24
330
23
100
AcDbEntity
  8
0
100
AcDbBlockBegin
  2
*Paper_Space0
 70
     0
 10
0.0
 20
0.0
 30
0.0
  3
*Paper_Space0
  1

  0
ENDBLK
  5
25
330
23
100
AcDbEntity
  8
0
100
AcDbBlockEnd
  0
BLOCK
  5
EB
330
EA
100
AcDbEntity
  8
0
100
AcDbBlockBegin
  2
SW_NOTE_0
 70
     0
 10
0.0
 20
0.0
 30
0.0
  3
SW_NOTE_0
  1

  0
MTEXT
  5
ED
330
EA
100
AcDbEntity
  8
NOTES
 62
     0
100
AcDbMText
 10
0.0
 20
0.3759780908
 30
0.0
 40
0.2916666667
 41
0.0
 71
     1
 72
     1
  1
FROST PRODUCTS LTD.
  7
SLDTEXTSTYLE0
 73
     1
 44
1.0
  0
MTEXT
  5
EE
330
EA
100
AcDbEntity
  8
NOTES
 62
     0
100
AcDbMText
 10
0.0
 20
-0.0495142709
 30
0.0
 40
0.2291666667
 41
0.0
 71
     1
 72
     1
  1
5280 JOHN LUCAS DRIVE, BURLINGTON, ON, L7L 5Z9
  7
SLDTEXTSTYLE0
 73
     1
 44
1.0
  0
ENDBLK
  5
EC
330
EA
100
AcDbEntity
  8
0
100
AcDbBlockEnd
  0
BLOCK
  5
F1
330
F0
100
AcDbEntity
  8
0
100
AcDbBlockBegin
  2
SW_NOTE_0_1
 70
     0
 10
0.0
 20
0.0
 30
0.0
  3
SW_NOTE_0_1
  1

  0
MTEXT
  5
F4
330
F0
100
AcDbEntity
  8
NOTES
 62
     0
100
AcDbMText
 10
0.0
 20
0.2381282771
 30
0.0
 40
0.184729064
 41
0.0
 71
     1
 72
     1
  1
PROPRIETARY AND CONFIDENTIAL
  7
SLDTEXTSTYLE2
 73
     1
 44
1.0
  0
MTEXT
  5
F6
330
F0
100
AcDbEntity
  8
NOTES
 62
     0
100
AcDbMText
 10
0.0
 20
-0.0504364796
 30
0.0
 40
0.25
 41
0.0
 71
     1
 72
     1
  1
THE INFORMATION CONTAINED IN THIS DRAWING IS THE SOLE PROPERTY OF 
  7
SLDTEXTSTYLE3
 73
     1
 44
1.0
  0
MTEXT
  5
F7
330
F0
100
AcDbEntity
  8
NOTES
 62
     0
100
AcDbMText
 10
0.0
 20
-0.4231398941
 30
0.0
 40
0.25
 41
0.0
 71
     1
 72
     1
  1
FROST PRODUCTS LTD.  ANY REPRODUCTION IN PART OR AS A WHOLE WITHOUT 
  7
SLDTEXTSTYLE3
 73
     1
 44
1.0
  0
MTEXT
  5
F8
330
F0
100
AcDbEntity
  8
NOTES
 62
     0
100
AcDbMText
 10
0.0
 20
-0.7958433086
 30
0.0
 40
0.25
 41
0.0
 71
     1
 72
     1
  1
THE WRITTEN PERMISSION OF FROST PRODUCTS LTD. IS PROHIBITED.
  7
SLDTEXTSTYLE3
 73
     1
 44
1.0
  0
ENDBLK
  5
F2
330
F0
100
AcDbEntity
  8
0
100
AcDbBlockEnd
  0
BLOCK
  5
17C
330
17B
100
AcDbEntity
  8
0
100
AcDbBlockBegin
  2
_Open90
 70
     0
 10
0.0
 20
0.0
 30
0.0
  3
_Open90
  1

  0
LINE
  5
17E
330
17B
100
AcDbEntity
  8
0
  6
ByBlock
 62
     0
370
    -2
100
AcDbLine
 10
-0.5
 20
0.5
 30
0.0
 11
0.0
 21
0.0
 31
0.0
  0
LINE
  5
17F
330
17B
100
AcDbEntity
  8
0
  6
ByBlock
 62
     0
370
    -2
100
AcDbLine
 10
0.0
 20
0.0
 30
0.0
 11
-0.5
 21
-0.5
 31
0.0
  0
LINE
  5
180
330
17B
100
AcDbEntity
  8
0
  6
ByBlock
 62
     0
370
    -2
100
AcDbLine
 10
0.0
 20
0.0
 30
0.0
 11
-1.0
 21
0.0
 31
0.0
  0
ENDBLK
  5
17D
330
17B
100
AcDbEntity
  8
0
100
AcDbBlockEnd
  0
BLOCK
  5
182
330
181
100
AcDbEntity
  8
0
100
AcDbBlockBegin
  2
_D
 70
     0
 10
0.0
 20
0.0
 30
0.0
  3
_D
  1

  0
INSERT
  5
184
330
181
100
AcDbEntity
  8
DIMS
100
AcDbBlockReference
  2
_Open90
 10
13.9211414492
 20
18.2668004071
 30
0.99
 41
0.3
 42
0.3
 50
0.0
  0
INSERT
  5
185
330
181
100
AcDbEntity
  8
DIMS
100
AcDbBlockReference
  2
_Open90
 10
7.5761414492
 20
18.2668004071
 30
0.99
 41
0.3
 42
0.3
 50
180.0
  0
LINE
  5
186
330
181
100
AcDbEntity
  8
DIMS
100
AcDbLine
 10
10.5722525286
 20
18.3180851055
 30
0.0
 11
11.088224778
 21
18.3180851055
 31
0.0
  0
LINE
  5
187
330
181
100
AcDbEntity
  8
DIMS
100
AcDbLine
 10
13.9211414492
 20
17.3167503415
 30
0.0
 11
13.9211414492
 21
18.6418004071
 31
0.0
  0
LINE
  5
188
330
181
100
AcDbEntity
  8
DIMS
100
AcDbLine
 10
7.5761414492
 20
17.3167503415
 30
0.0
 11
7.5761414492
 21
18.6418004071
 31
0.0
  0
LINE
  5
189
330
181
100
AcDbEntity
  8
DIMS
100
AcDbLine
 10
13.9211414492
 20
18.2668004071
 30
0.0
 11
11.3677387174
 21
18.2668004071
 31
0.0
  0
LINE
  5
18A
330
181
100
AcDbEntity
  8
DIMS
100
AcDbLine
 10
7.5761414492
 20
18.2668004071
 30
0.0
 11
10.1295441811
 21
18.2668004071
 31
0.0
  0
MTEXT
  5
18B
330
181
100
AcDbEntity
  8
DIMS
100
AcDbMText
 10
10.1295441811
 20
18.5474861659
 30
0.0
 40
0.5
 41
0.0
 71
     1
 72
     1
  1
6
  7
SLDTEXTSTYLE1
 73
     1
 44
1.0
  0
MTEXT
  5
18C
330
181
100
AcDbEntity
  8
DIMS
100
AcDbMText
 10
10.6455164306
 20
18.9127986649
 30
0.0
 40
0.5
 41
0.0
 71
     1
 72
     1
  1
3
  7
SLDTEXTSTYLE1
 73
     1
 44
1.0
  0
MTEXT
  5
18D
330
181
100
AcDbEntity
  8
DIMS
100
AcDbMText
 10
10.6455164306
 20
18.2516180864
 30
0.0
 40
0.5
 41
0.0
 71
     1
 72
     1
  1
8
  7
SLDTEXTSTYLE1
 73
     1
 44
1.0
  0
MTEXT
  5
18E
330
181
100
AcDbEntity
  8
DIMS
100
AcDbMText
 10
11.16148868
 20
18.5474861659
 30
0.0
 40
0.5
 41
0.0
 71
     1
 72
     1
  1
"
  7
SLDTEXTSTYLE1
 73
     1
 44
1.0
  0
ENDBLK
  5
183
330
181
100
AcDbEntity
  8
0
100
AcDbBlockEnd
  0
BLOCK
  5
191
330
190
100
AcDbEntity
  8
0
100
AcDbBlockBegin
  2
_D_1
 70
     0
 10
0.0
 20
0.0
 30
0.0
  3
_D_1
  1

  0
INSERT
  5
193
330
190
100
AcDbEntity
  8
DIMS
100
AcDbBlockReference
  2
_Open90
 10
14.7309121006
 20
11.0340836748
 30
0.99
 41
0.3
 42
0.3
 50
270.0
  0
INSERT
  5
194
330
190
100
AcDbEntity
  8
DIMS
100
AcDbBlockReference
  2
_Open90
 10
14.7309121006
 20
17.4000836748
 30
0.99
 41
0.3
 42
0.3
 50
90.0
  0
LINE
  5
195
330
190
100
AcDbEntity
  8
DIMS
100
AcDbLine
 10
14.5545231799
 20
15.3707135401
 30
0.0
 11
15.0704954293
 21
15.3707135401
 31
0.0
  0
LINE
  5
196
330
190
100
AcDbEntity
  8
DIMS
100
AcDbLine
 10
13.8378081159
 20
11.0340836748
 30
0.0
 11
15.1059121006
 21
11.0340836748
 31
0.0
  0
LINE
  5
197
330
190
100
AcDbEntity
  8
DIMS
100
AcDbLine
 10
13.8378081159
 20
17.4000836748
 30
0.0
 11
15.1059121006
 21
17.4000836748
 31
0.0
  0
LINE
  5
198
330
190
100
AcDbEntity
  8
DIMS
100
AcDbLine
 10
14.7309121006
 20
11.0340836748
 30
0.0
 11
14.7309121006
 21
14.6655746884
 31
0.0
  0
LINE
  5
199
330
190
100
AcDbEntity
  8
DIMS
100
AcDbLine
 10
14.7309121006
 20
17.4000836748
 30
0.0
 11
14.7309121006
 21
15.973282995
 31
0.0
  0
MTEXT
  5
19A
330
190
100
AcDbEntity
  8
DIMS
100
AcDbMText
 10
14.1118148324
 20
15.6001146005
 30
0.0
 40
0.5
 41
0.0
 71
     1
 72
     1
  1
6
  7
SLDTEXTSTYLE1
 73
     1
 44
1.0
  0
MTEXT
  5
19B
330
190
100
AcDbEntity
  8
DIMS
100
AcDbMText
 10
14.6277870819
 20
15.9654270995
 30
0.0
 40
0.5
 41
0.0
 71
     1
 72
     1
  1
3
  7
SLDTEXTSTYLE1
 73
     1
 44
1.0
  0
MTEXT
  5
19C
330
190
100
AcDbEntity
  8
DIMS
100
AcDbMText
 10
14.6277870819
 20
15.304246521
 30
0.0
 40
0.5
 41
0.0
 71
     1
 72
     1
  1
8
  7
SLDTEXTSTYLE1
 73
     1
 44
1.0
  0
MTEXT
  5
19D
330
190
100
AcDbEntity
  8
DIMS
100
AcDbMText
 10
15.1437593313
 20
15.6001146005
 30
0.0
 40
0.5
 41
0.0
 71
     1
 72
     1
  1
"
  7
SLDTEXTSTYLE1
 73
     1
 44
1.0
  0
ENDBLK
  5
192
330
190
100
AcDbEntity
  8
0
100
AcDbBlockEnd
  0
BLOCK
  5
1C8
330
1C7
100
AcDbEntity
  8
0
100
AcDbBlockBegin
  2
_D_2
 70
     0
 10
0.0
 20
0.0
 30
0.0
  3
_D_2
  1

  0
INSERT
  5
1CA
330
1C7
100
AcDbEntity
  8
DIMS
100
AcDbBlockReference
  2
_Open90
 10
24.6079849246
 20
17.7943594622
 30
0.0
 41
0.3
 42
0.3
 50
0.0
  0
INSERT
  5
1CB
330
1C7
100
AcDbEntity
  8
DIMS
100
AcDbBlockReference
  2
_Open90
 10
22.8379849246
 20
17.7943594622
 30
0.0
 41
0.3
 42
0.3
 50
180.0
  0
LINE
  5
1CC
330
1C7
100
AcDbEntity
  8
DIMS
100
AcDbLine
 10
23.5764343497
 20
17.8456441606
 30
0.0
 11
24.0924065991
 21
17.8456441606
 31
0.0
  0
LINE
  5
1CD
330
1C7
100
AcDbEntity
  8
DIMS
100
AcDbLine
 10
24.6079849246
 20
16.3664481407
 30
0.0
 11
24.6079849246
 21
18.1693594622
 31
0.0
  0
LINE
  5
1CE
330
1C7
100
AcDbEntity
  8
DIMS
100
AcDbLine
 10
22.8379849246
 20
17.3167503415
 30
0.0
 11
22.8379849246
 21
18.1693594622
 31
0.0
  0
LINE
  5
1CF
330
1C7
100
AcDbEntity
  8
DIMS
100
AcDbLine
 10
24.6079849246
 20
17.7943594622
 30
0.0
 11
24.3719205385
 21
17.7943594622
 31
0.0
  0
LINE
  5
1D0
330
1C7
100
AcDbEntity
  8
DIMS
100
AcDbLine
 10
22.8379849246
 20
17.7943594622
 30
0.0
 11
23.1337260022
 21
17.7943594622
 31
0.0
  0
MTEXT
  5
1D1
330
1C7
100
AcDbEntity
  8
DIMS
100
AcDbMText
 10
23.1337260022
 20
18.075045221
 30
0.0
 40
0.5
 41
0.0
 71
     1
 72
     1
  1
1
  7
SLDTEXTSTYLE1
 73
     1
 44
1.0
  0
MTEXT
  5
1D2
330
1C7
100
AcDbEntity
  8
DIMS
100
AcDbMText
 10
23.6496982517
 20
18.4403577201
 30
0.0
 40
0.5
 41
0.0
 71
     1
 72
     1
  1
3
  7
SLDTEXTSTYLE1
 73
     1
 44
1.0
  0
MTEXT
  5
1D3
330
1C7
100
AcDbEntity
  8
DIMS
100
AcDbMText
 10
23.6496982517
 20
17.7791771415
 30
0.0
 40
0.5
 41
0.0
 71
     1
 72
     1
  1
4
  7
SLDTEXTSTYLE1
 73
     1
 44
1.0
  0
MTEXT
  5
1D4
330
1C7
100
AcDbEntity
  8
DIMS
100
AcDbMText
 10
24.1656705011
 20
18.075045221
 30
0.0
 40
0.5
 41
0.0
 71
     1
 72
     1
  1
"
  7
SLDTEXTSTYLE1
 73
     1
 44
1.0
  0
ENDBLK
  5
1C9
330
1C7
100
AcDbEntity
  8
0
100
AcDbBlockEnd
  0
BLOCK
  5
1D7
330
1D6
100
AcDbEntity
  8
0
100
AcDbBlockBegin
  2
_D_3
 70
     0
 10
0.0
 20
0.0
 30
0.0
  3
_D_3
  1

  0
INSERT
  5
1D9
330
1D6
100
AcDbEntity
  8
DIMS
100
AcDbBlockReference
  2
_Open90
 10
25.7113471293
 20
16.7520836748
 30
0.0
 41
0.3
 42
0.3
 50
90.0
  0
INSERT
  5
1DA
330
1D6
100
AcDbEntity
  8
DIMS
100
AcDbBlockReference
  2
_Open90
 10
25.7113471293
 20
11.6820836748
 30
0.0
 41
0.3
 42
0.3
 50
270.0
  0
LINE
  5
1DB
330
1D6
100
AcDbEntity
  8
DIMS
100
AcDbLine
 10
25.3502360226
 20
14.1875928433
 30
0.0
 11
26.2356527175
 21
14.1875928433
 31
0.0
  0
LINE
  5
1DC
330
1D6
100
AcDbEntity
  8
DIMS
100
AcDbLine
 10
24.5446515913
 20
16.7520836748
 30
0.0
 11
26.0863471293
 21
16.7520836748
 31
0.0
  0
LINE
  5
1DD
330
1D6
100
AcDbEntity
  8
DIMS
100
AcDbLine
 10
24.5446515914
 20
11.6820836748
 30
0.0
 11
26.0863471293
 21
11.6820836748
 31
0.0
  0
LINE
  5
1DE
330
1D6
100
AcDbEntity
  8
DIMS
100
AcDbLine
 10
25.7113471293
 20
16.7520836748
 30
0.0
 11
25.7113471293
 21
14.7901622982
 31
0.0
  0
LINE
  5
1DF
330
1D6
100
AcDbEntity
  8
DIMS
100
AcDbLine
 10
25.7113471293
 20
11.6820836748
 30
0.0
 11
25.7113471293
 21
13.4824539916
 31
0.0
  0
MTEXT
  5
1E0
330
1D6
100
AcDbEntity
  8
DIMS
100
AcDbMText
 10
24.9075276751
 20
14.4169939037
 30
0.0
 40
0.5
 41
0.0
 71
     1
 72
     1
  1
5
  7
SLDTEXTSTYLE1
 73
     1
 44
1.0
  0
MTEXT
  5
1E1
330
1D6
100
AcDbEntity
  8
DIMS
100
AcDbMText
 10
25.6082221473
 20
14.7823064028
 30
0.0
 40
0.5
 41
0.0
 71
     1
 72
     1
  1
1
  7
SLDTEXTSTYLE1
 73
     1
 44
1.0
  0
MTEXT
  5
1E2
330
1D6
100
AcDbEntity
  8
DIMS
100
AcDbMText
 10
25.4234999246
 20
14.1211258242
 30
0.0
 40
0.5
 41
0.0
 71
     1
 72
     1
  1
16
  7
SLDTEXTSTYLE1
 73
     1
 44
1.0
  0
MTEXT
  5
1E3
330
1D6
100
AcDbEntity
  8
DIMS
100
AcDbMText
 10
26.3089166195
 20
14.4169939037
 30
0.0
 40
0.5
 41
0.0
 71
     1
 72
     1
  1
"
  7
SLDTEXTSTYLE1
 73
     1
 44
1.0
  0
ENDBLK
  5
1D8
330
1D6
100
AcDbEntity
  8
0
100
AcDbBlockEnd
  0
BLOCK
  5
1E6
330
1E5
100
AcDbEntity
  8
0
100
AcDbBlockBegin
  2
_D_4
 70
     0
 10
0.0
 20
0.0
 30
0.0
  3
_D_4
  1

  0
INSERT
  5
1E8
330
1E5
100
AcDbEntity
  8
DIMS
100
AcDbBlockReference
  2
_Open90
 10
22.8379849246
 20
17.7943594622
 30
0.0
 41
0.3
 42
0.3
 50
0.0
  0
INSERT
  5
1E9
330
1E5
100
AcDbEntity
  8
DIMS
100
AcDbBlockReference
  2
_Open90
 10
21.7939849246
 20
17.7943594622
 30
0.0
 41
0.3
 42
0.3
 50
180.0
  0
LINE
  5
1EA
330
1E5
100
AcDbEntity
  8
DIMS
100
AcDbLine
 10
20.0942911407
 20
17.8456441606
 30
0.0
 11
20.9797078356
 21
17.8456441606
 31
0.0
  0
LINE
  5
1EB
330
1E5
100
AcDbEntity
  8
DIMS
100
AcDbLine
 10
22.8379849246
 20
17.3167503415
 30
0.0
 11
22.8379849246
 21
18.1693594622
 31
0.0
  0
LINE
  5
1EC
330
1E5
100
AcDbEntity
  8
DIMS
100
AcDbLine
 10
21.7939849246
 20
11.8957503415
 30
0.0
 11
21.7939849246
 21
18.1693594622
 31
0.0
  0
LINE
  5
1ED
330
1E5
100
AcDbEntity
  8
DIMS
100
AcDbLine
 10
22.8379849246
 20
17.7943594622
 30
0.0
 11
21.7939849246
 21
17.7943594622
 31
0.0
  0
LINE
  5
1EE
330
1E5
100
AcDbEntity
  8
DIMS
100
AcDbLine
 10
21.7939849246
 20
17.7943594622
 30
0.0
 11
21.2592217016
 21
17.7943594622
 31
0.0
  0
MTEXT
  5
1EF
330
1E5
100
AcDbEntity
  8
DIMS
100
AcDbMText
 10
19.6515827932
 20
18.075045221
 30
0.0
 40
0.5
 41
0.0
 71
     1
 72
     1
  1
1
  7
SLDTEXTSTYLE1
 73
     1
 44
1.0
  0
MTEXT
  5
1F0
330
1E5
100
AcDbEntity
  8
DIMS
100
AcDbMText
 10
20.3522772654
 20
18.4403577201
 30
0.0
 40
0.5
 41
0.0
 71
     1
 72
     1
  1
1
  7
SLDTEXTSTYLE1
 73
     1
 44
1.0
  0
MTEXT
  5
1F1
330
1E5
100
AcDbEntity
  8
DIMS
100
AcDbMText
 10
20.1675550427
 20
17.7791771415
 30
0.0
 40
0.5
 41
0.0
 71
     1
 72
     1
  1
16
  7
SLDTEXTSTYLE1
 73
     1
 44
1.0
  0
MTEXT
  5
1F2
330
1E5
100
AcDbEntity
  8
DIMS
100
AcDbMText
 10
21.0529717376
 20
18.075045221
 30
0.0
 40
0.5
 41
0.0
 71
     1
 72
     1
  1
"
  7
SLDTEXTSTYLE1
 73
     1
 44
1.0
  0
ENDBLK
  5
1E7
330
1E5
100
AcDbEntity
  8
0
100
AcDbBlockEnd
  0
BLOCK
  5
236
330
235
100
AcDbEntity
  8
0
100
AcDbBlockBegin
  2
SW_NOTE_0_2
 70
     0
 10
0.0
 20
0.0
 30
0.0
  3
SW_NOTE_0_2
  1

  0
MTEXT
  5
238
330
235
100
AcDbEntity
  8
NOTES
 62
     0
100
AcDbMText
 10
0.0
 20
0.638671875
 30
0.0
 40
0.5
 41
0.0
 71
     1
 72
     1
  1
3D view
  7
SLDTEXTSTYLE1
 73
     1
 44
1.0
  0
MTEXT
  5
239
330
235
100
AcDbEntity
  8
NOTES
 62
     0
100
AcDbMText
 10
0.0
 20
-0.3613281862
 30
0.0
 40
0.5
 41
0.0
 71
     1
 72
     1
  1
code 1132-S
  7
SLDTEXTSTYLE1
 73
     1
 44
1.0
  0
ENDBLK
  5
237
330
235
100
AcDbEntity
  8
0
100
AcDbBlockEnd
  0
BLOCK
  5
255
330
254
100
AcDbEntity
  8
0
100
AcDbBlockBegin
  2
_D_5
 70
     0
 10
0.0
 20
0.0
 30
0.0
  3
_D_5
  1

  0
INSERT
  5
257
330
254
100
AcDbEntity
  8
DIMS
100
AcDbBlockReference
  2
_Open90
 10
31.9951835833
 20
16.1170836748
 30
0.0
 41
0.3
 42
0.3
 50
90.0
  0
INSERT
  5
258
330
254
100
AcDbEntity
  8
DIMS
100
AcDbBlockReference
  2
_Open90
 10
31.9951835833
 20
12.3170836748
 30
0.0
 41
0.3
 42
0.3
 50
270.0
  0
LINE
  5
259
330
254
100
AcDbEntity
  8
DIMS
100
AcDbLine
 10
31.6340724765
 20
14.2668058888
 30
0.0
 11
32.5194891715
 21
14.2668058888
 31
0.0
  0
LINE
  5
25A
330
254
100
AcDbEntity
  8
DIMS
100
AcDbLine
 10
36.4218317648
 20
16.1170836748
 30
0.0
 11
31.6201835833
 21
16.1170836748
 31
0.0
  0
LINE
  5
25B
330
254
100
AcDbEntity
  8
DIMS
100
AcDbLine
 10
36.4218317648
 20
12.3170836748
 30
0.0
 11
31.6201835833
 21
12.3170836748
 31
0.0
  0
LINE
  5
25C
330
254
100
AcDbEntity
  8
DIMS
100
AcDbLine
 10
31.9951835833
 20
16.1170836748
 30
0.0
 11
31.9951835833
 21
14.8693753437
 31
0.0
  0
LINE
  5
25D
330
254
100
AcDbEntity
  8
DIMS
100
AcDbLine
 10
31.9951835833
 20
12.3170836748
 30
0.0
 11
31.9951835833
 21
13.5616670372
 31
0.0
  0
MTEXT
  5
25E
330
254
100
AcDbEntity
  8
DIMS
100
AcDbMText
 10
31.1913641291
 20
14.4962069493
 30
0.0
 40
0.5
 41
0.0
 71
     1
 72
     1
  1
3
  7
SLDTEXTSTYLE1
 73
     1
 44
1.0
  0
MTEXT
  5
25F
330
254
100
AcDbEntity
  8
DIMS
100
AcDbMText
 10
31.7073363785
 20
14.8615194483
 30
0.0
 40
0.5
 41
0.0
 71
     1
 72
     1
  1
13
  7
SLDTEXTSTYLE1
 73
     1
 44
1.0
  0
MTEXT
  5
260
330
254
100
AcDbEntity
  8
DIMS
100
AcDbMText
 10
31.7073363785
 20
14.2003388698
 30
0.0
 40
0.5
 41
0.0
 71
     1
 72
     1
  1
16
  7
SLDTEXTSTYLE1
 73
     1
 44
1.0
  0
MTEXT
  5
261
330
254
100
AcDbEntity
  8
DIMS
100
AcDbMText
 10
32.5927530734
 20
14.4962069493
 30
0.0
 40
0.5
 41
0.0
 71
     1
 72
     1
  1
"
  7
SLDTEXTSTYLE1
 73
     1
 44
1.0
  0
ENDBLK
  5
256
330
254
100
AcDbEntity
  8
0
100
AcDbBlockEnd
  0
BLOCK
  5
264
330
263
100
AcDbEntity
  8
0
100
AcDbBlockBegin
  2
_D_6
 70
     0
 10
0.0
 20
0.0
 30
0.0
  3
_D_6
  1

  0
INSERT
  5
266
330
263
100
AcDbEntity
  8
DIMS
100
AcDbBlockReference
  2
_Open90
 10
31.9951835833
 20
16.1170836748
 30
0.0
 41
0.3
 42
0.3
 50
270.0
  0
INSERT
  5
267
330
263
100
AcDbEntity
  8
DIMS
100
AcDbBlockReference
  2
_Open90
 10
31.9951835833
 20
17.4000836748
 30
0.0
 41
0.3
 42
0.3
 50
90.0
  0
LINE
  5
268
330
263
100
AcDbEntity
  8
DIMS
100
AcDbLine
 10
30.5302530223
 20
17.8456441606
 30
0.0
 11
31.4156697173
 21
17.8456441606
 31
0.0
  0
LINE
  5
269
330
263
100
AcDbEntity
  8
DIMS
100
AcDbLine
 10
36.4218317648
 20
16.1170836748
 30
0.0
 11
31.6201835833
 21
16.1170836748
 31
0.0
  0
LINE
  5
26A
330
263
100
AcDbEntity
  8
DIMS
100
AcDbLine
 10
33.4176745938
 20
17.4000836748
 30
0.0
 11
31.6201835833
 21
17.4000836748
 31
0.0
  0
LINE
  5
26B
330
263
100
AcDbEntity
  8
DIMS
100
AcDbLine
 10
31.6951835833
 20
17.7943594622
 30
0.0
 11
31.9951835833
 21
17.7943594622
 31
0.0
  0
LINE
  5
26C
330
263
100
AcDbEntity
  8
DIMS
100
AcDbLine
 10
31.9951835833
 20
17.7943594622
 30
0.0
 11
31.9951835833
 21
17.4000836748
 31
0.0
  0
LINE
  5
26D
330
263
100
AcDbEntity
  8
DIMS
100
AcDbLine
 10
31.9951835833
 20
16.1170836748
 30
0.0
 11
31.9951835833
 21
17.4000836748
 31
0.0
  0
MTEXT
  5
26E
330
263
100
AcDbEntity
  8
DIMS
100
AcDbMText
 10
30.0875446749
 20
18.075045221
 30
0.0
 40
0.5
 41
0.0
 71
     1
 72
     1
  1
1
  7
SLDTEXTSTYLE1
 73
     1
 44
1.0
  0
MTEXT
  5
26F
330
263
100
AcDbEntity
  8
DIMS
100
AcDbMText
 10
30.7882391471
 20
18.4403577201
 30
0.0
 40
0.5
 41
0.0
 71
     1
 72
     1
  1
5
  7
SLDTEXTSTYLE1
 73
     1
 44
1.0
  0
MTEXT
  5
270
330
263
100
AcDbEntity
  8
DIMS
100
AcDbMText
 10
30.6035169243
 20
17.7791771415
 30
0.0
 40
0.5
 41
0.0
 71
     1
 72
     1
  1
16
  7
SLDTEXTSTYLE1
 73
     1
 44
1.0
  0
MTEXT
  5
271
330
263
100
AcDbEntity
  8
DIMS
100
AcDbMText
 10
31.4889336192
 20
18.075045221
 30
0.0
 40
0.5
 41
0.0
 71
     1
 72
     1
  1
"
  7
SLDTEXTSTYLE1
 73
     1
 44
1.0
  0
ENDBLK
  5
265
330
263
100
AcDbEntity
  8
0
100
AcDbBlockEnd
  0
BLOCK
  5
299
330
298
100
AcDbEntity
  8
0
100
AcDbBlockBegin
  2
_D_7
 70
     0
 10
0.0
 20
0.0
 30
0.0
  3
_D_7
  1

  0
INSERT
  5
29B
330
298
100
AcDbEntity
  8
DIMS
100
AcDbBlockReference
  2
_Open90
 10
8.3331414492
 20
26.7571172026
 30
0.0
 41
0.3
 42
0.3
 50
180.0
  0
INSERT
  5
29C
330
298
100
AcDbEntity
  8
DIMS
100
AcDbBlockReference
  2
_Open90
 10
13.1641414492
 20
26.7571172026
 30
0.0
 41
0.3
 42
0.3
 50
0.0
  0
LINE
  5
29D
330
298
100
AcDbEntity
  8
DIMS
100
AcDbLine
 10
9.1143176297
 20
26.808401901
 30
0.0
 11
9.9997343246
 21
26.808401901
 31
0.0
  0
LINE
  5
29E
330
298
100
AcDbEntity
  8
DIMS
100
AcDbLine
 10
8.3331414492
 20
24.7590830819
 30
0.0
 11
8.3331414492
 21
27.1321172026
 31
0.0
  0
LINE
  5
29F
330
298
100
AcDbEntity
  8
DIMS
100
AcDbLine
 10
13.1641414492
 20
24.7590830819
 30
0.0
 11
13.1641414492
 21
27.1321172026
 31
0.0
  0
LINE
  5
2A0
330
298
100
AcDbEntity
  8
DIMS
100
AcDbLine
 10
8.3331414492
 20
26.7571172026
 30
0.0
 11
8.6716092822
 21
26.7571172026
 31
0.0
  0
LINE
  5
2A1
330
298
100
AcDbEntity
  8
DIMS
100
AcDbLine
 10
13.1641414492
 20
26.7571172026
 30
0.0
 11
10.2792481906
 21
26.7571172026
 31
0.0
  0
MTEXT
  5
2A2
330
298
100
AcDbEntity
  8
DIMS
100
AcDbMText
 10
8.6716092822
 20
27.0378029615
 30
0.0
 40
0.5
 41
0.0
 71
     1
 72
     1
  1
4
  7
SLDTEXTSTYLE1
 73
     1
 44
1.0
  0
MTEXT
  5
2A3
330
298
100
AcDbEntity
  8
DIMS
100
AcDbMText
 10
9.1875815317
 20
27.4031154605
 30
0.0
 40
0.5
 41
0.0
 71
     1
 72
     1
  1
13
  7
SLDTEXTSTYLE1
 73
     1
 44
1.0
  0
MTEXT
  5
2A4
330
298
100
AcDbEntity
  8
DIMS
100
AcDbMText
 10
9.1875815317
 20
26.741934882
 30
0.0
 40
0.5
 41
0.0
 71
     1
 72
     1
  1
16
  7
SLDTEXTSTYLE1
 73
     1
 44
1.0
  0
MTEXT
  5
2A5
330
298
100
AcDbEntity
  8
DIMS
100
AcDbMText
 10
10.0729982266
 20
27.0378029615
 30
0.0
 40
0.5
 41
0.0
 71
     1
 72
     1
  1
"
  7
SLDTEXTSTYLE1
 73
     1
 44
1.0
  0
ENDBLK
  5
29A
330
298
100
AcDbEntity
  8
0
100
AcDbBlockEnd
  0
BLOCK
  5
2A8
330
2A7
100
AcDbEntity
  8
0
100
AcDbBlockBegin
  2
_D_8
 70
     0
 10
0.0
 20
0.0
 30
0.0
  3
_D_8
  1

  0
INSERT
  5
2AA
330
2A7
100
AcDbEntity
  8
DIMS
100
AcDbBlockReference
  2
_Open90
 10
14.5516377091
 20
23.5484164152
 30
0.0
 41
0.3
 42
0.3
 50
270.0
  0
INSERT
  5
2AB
330
2A7
100
AcDbEntity
  8
DIMS
100
AcDbBlockReference
  2
_Open90
 10
14.5516377091
 20
26.3624164152
 30
0.0
 41
0.3
 42
0.3
 50
90.0
  0
LINE
  5
2AC
330
2A7
100
AcDbEntity
  8
DIMS
100
AcDbLine
 10
14.1905266023
 20
25.0193966361
 30
0.0
 11
15.0759432973
 21
25.0193966361
 31
0.0
  0
LINE
  5
2AD
330
2A7
100
AcDbEntity
  8
DIMS
100
AcDbLine
 10
12.3078766614
 20
23.5484164152
 30
0.0
 11
14.9266377091
 21
23.5484164152
 31
0.0
  0
LINE
  5
2AE
330
2A7
100
AcDbEntity
  8
DIMS
100
AcDbLine
 10
10.9969652866
 20
26.3624164152
 30
0.0
 11
14.9266377091
 21
26.3624164152
 31
0.0
  0
LINE
  5
2AF
330
2A7
100
AcDbEntity
  8
DIMS
100
AcDbLine
 10
14.5516377091
 20
23.5484164152
 30
0.0
 11
14.5516377091
 21
24.3142577845
 31
0.0
  0
LINE
  5
2B0
330
2A7
100
AcDbEntity
  8
DIMS
100
AcDbLine
 10
14.5516377091
 20
26.3624164152
 30
0.0
 11
14.5516377091
 21
25.621966091
 31
0.0
  0
MTEXT
  5
2B1
330
2A7
100
AcDbEntity
  8
DIMS
100
AcDbMText
 10
13.7478182549
 20
25.2487976966
 30
0.0
 40
0.5
 41
0.0
 71
     1
 72
     1
  1
2
  7
SLDTEXTSTYLE1
 73
     1
 44
1.0
  0
MTEXT
  5
2B2
330
2A7
100
AcDbEntity
  8
DIMS
100
AcDbMText
 10
14.2637905043
 20
25.6141101956
 30
0.0
 40
0.5
 41
0.0
 71
     1
 72
     1
  1
13
  7
SLDTEXTSTYLE1
 73
     1
 44
1.0
  0
MTEXT
  5
2B3
330
2A7
100
AcDbEntity
  8
DIMS
100
AcDbMText
 10
14.2637905043
 20
24.9529296171
 30
0.0
 40
0.5
 41
0.0
 71
     1
 72
     1
  1
16
  7
SLDTEXTSTYLE1
 73
     1
 44
1.0
  0
MTEXT
  5
2B4
330
2A7
100
AcDbEntity
  8
DIMS
100
AcDbMText
 10
15.1492071992
 20
25.2487976966
 30
0.0
 40
0.5
 41
0.0
 71
     1
 72
     1
  1
"
  7
SLDTEXTSTYLE1
 73
     1
 44
1.0
  0
ENDBLK
  5
2A9
330
2A7
100
AcDbEntity
  8
0
100
AcDbBlockEnd
  0
ENDSEC
  0
SECTION
  2
ENTITIES
  0
LINE
  5
7A
330
1F
100
AcDbEntity
  8
OBJECT
100
AcDbLine
 10
7.7761414492
 20
24.4324164152
 30
0.0
 11
7.8261414492
 21
24.4324164152
 31
0.0
  0
LINE
  5
7B
330
1F
100
AcDbEntity
  8
TITLE
370
    35
100
AcDbLine
 10
30.5182229757
 20
1.4876117645
 30
0.0
 11
47.4999864512
 21
1.4876117645
 31
0.0
  0
LINE
  5
7C
330
1F
100
AcDbEntity
  8
TITLE
370
    35
100
AcDbLine
 10
47.4999317442
 20
5.4753603936
 30
0.0
 11
37.3105350723
 21
5.4753603936
 31
0.0
  0
LINE
  5
7D
330
1F
100
AcDbEntity
  8
TITLE
  6
SLD-Solid
370
    18
100
AcDbLine
 10
0.5
 20
0.5
 30
0.0
 11
0.5
 21
35.5
 31
0.0
  0
LINE
  5
7E
330
1F
100
AcDbEntity
  8
TITLE
  6
SLD-Solid
370
    18
100
AcDbLine
 10
0.5
 20
35.5
 30
0.0
 11
47.5
 21
35.5
 31
0.0
  0
LINE
  5
7F
330
1F
100
AcDbEntity
  8
TITLE
370
    35
100
AcDbLine
 10
30.5182229757
 20
2.5427877231
 30
0.0
 11
23.5059791203
 21
2.5427877231
 31
0.0
  0
LINE
  5
80
330
1F
100
AcDbEntity
  8
TITLE
370
    35
100
AcDbLine
 10
30.5182229757
 20
1.4876117645
 30
0.0
 11
23.5059791203
 21
1.4876117645
 31
0.0
  0
LINE
  5
81
330
1F
100
AcDbEntity
  8
TITLE
  6
SLD-Solid
370
    18
100
AcDbLine
 10
47.5
 20
35.5
 30
0.0
 11
47.5
 21
0.5
 31
0.0
  0
LINE
  5
82
330
1F
100
AcDbEntity
  8
TITLE
  6
SLD-Solid
370
    18
100
AcDbLine
 10
47.5
 20
0.5
 30
0.0
 11
0.5
 21
0.5
 31
0.0
  0
LINE
  5
83
330
1F
100
AcDbEntity
  8
TITLE
370
    35
100
AcDbLine
 10
30.5182229757
 20
1.4876117645
 30
0.0
 11
30.5182229757
 21
3.5979636817
 31
0.0
  0
LINE
  5
84
330
1F
100
AcDbEntity
  8
TITLE
370
    35
100
AcDbLine
 10
23.5059791203
 20
3.5979636817
 30
0.0
 11
23.5059791203
 21
0.5
 31
0.0
  0
LINE
  5
85
330
1F
100
AcDbEntity
  8
TITLE
370
    35
100
AcDbLine
 10
23.5059791203
 20
0.5
 30
0.0
 11
47.5
 21
0.5
 31
0.0
  0
LINE
  5
86
330
1F
100
AcDbEntity
  8
TITLE
370
    35
100
AcDbLine
 10
47.4999317442
 20
5.4753603936
 30
0.0
 11
47.5
 21
0.5
 31
0.0
  0
LINE
  5
87
330
1F
100
AcDbEntity
  8
TITLE
  6
SLD-Solid
370
    18
100
AcDbLine
 10
0.4999606299
 20
18.0
 30
0.0
 11
0.5000393701
 21
18.0
 31
0.0
  0
LINE
  5
88
330
1F
100
AcDbEntity
  8
TITLE
370
    35
100
AcDbLine
 10
30.5182229757
 20
3.5979636817
 30
0.0
 11
23.5059791203
 21
3.5979636817
 31
0.0
  0
LINE
  5
89
330
1F
100
AcDbEntity
  8
TITLE
370
    35
100
AcDbLine
 10
30.5182229757
 20
3.5979636817
 30
0.0
 11
47.4997615643
 21
3.5979648343
 31
0.0
  0
LINE
  5
8A
330
1F
100
AcDbEntity
  8
TITLE
370
    35
100
AcDbLine
 10
37.3105350723
 20
5.4753603936
 30
0.0
 11
37.3105350723
 21
0.4636772425
 31
0.0
  0
LINE
  5
8B
330
1F
100
AcDbEntity
  8
TITLE
  6
SLD-Solid
370
    18
100
AcDbLine
 10
24.0
 20
35.5000393701
 30
0.0
 11
24.0
 21
35.4999606299
 31
0.0
  0
LINE
  5
8C
330
1F
100
AcDbEntity
  8
TITLE
  6
SLD-Solid
370
    18
100
AcDbLine
 10
47.5000393701
 20
18.0
 30
0.0
 11
47.4999606299
 21
18.0
 31
0.0
  0
LINE
  5
8D
330
1F
100
AcDbEntity
  8
TITLE
  6
SLD-Solid
370
    18
100
AcDbLine
 10
24.0
 20
0.4999606299
 30
0.0
 11
24.0
 21
0.5000393701
 31
0.0
  0
LINE
  5
8E
330
1F
100
AcDbEntity
  8
TITLE
  6
SLD-Solid
370
    18
100
AcDbLine
 10
0.5
 20
2.2519685039
 30
0.0
 11
0.1653543307
 21
2.2519685039
 31
0.0
  0
LINE
  5
8F
330
1F
100
AcDbEntity
  8
TITLE
  6
SLD-Solid
370
    18
100
AcDbLine
 10
47.5
 20
2.2519685039
 30
0.0
 11
47.8346456693
 21
2.2519685039
 31
0.0
  0
LINE
  5
90
330
1F
100
AcDbEntity
  8
TITLE
  6
SLD-Solid
370
    18
100
AcDbLine
 10
0.5
 20
4.2204724409
 30
0.0
 11
0.1653543307
 21
4.2204724409
 31
0.0
  0
LINE
  5
91
330
1F
100
AcDbEntity
  8
TITLE
  6
SLD-Solid
370
    18
100
AcDbLine
 10
47.5
 20
4.2204724409
 30
0.0
 11
47.8346456693
 21
4.2204724409
 31
0.0
  0
LINE
  5
92
330
1F
100
AcDbEntity
  8
TITLE
  6
SLD-Solid
370
    18
100
AcDbLine
 10
0.5
 20
6.188976378
 30
0.0
 11
0.1653543307
 21
6.188976378
 31
0.0
  0
LINE
  5
93
330
1F
100
AcDbEntity
  8
TITLE
  6
SLD-Solid
370
    18
100
AcDbLine
 10
47.5
 20
6.188976378
 30
0.0
 11
47.8346456693
 21
6.188976378
 31
0.0
  0
LINE
  5
94
330
1F
100
AcDbEntity
  8
TITLE
  6
SLD-Solid
370
    18
100
AcDbLine
 10
0.5
 20
8.157480315
 30
0.0
 11
0.1653543307
 21
8.157480315
 31
0.0
  0
LINE
  5
95
330
1F
100
AcDbEntity
  8
TITLE
  6
SLD-Solid
370
    18
100
AcDbLine
 10
47.5
 20
8.157480315
 30
0.0
 11
47.8346456693
 21
8.157480315
 31
0.0
  0
LINE
  5
96
330
1F
100
AcDbEntity
  8
TITLE
  6
SLD-Solid
370
    18
100
AcDbLine
 10
0.5
 20
10.125984252
 30
0.0
 11
0.1653543307
 21
10.125984252
 31
0.0
  0
LINE
  5
97
330
1F
100
AcDbEntity
  8
TITLE
  6
SLD-Solid
370
    18
100
AcDbLine
 10
47.5
 20
10.125984252
 30
0.0
 11
47.8346456693
 21
10.125984252
 31
0.0
  0
LINE
  5
98
330
1F
100
AcDbEntity
  8
TITLE
  6
SLD-Solid
370
    18
100
AcDbLine
 10
0.5
 20
12.094488189
 30
0.0
 11
0.1653543307
 21
12.094488189
 31
0.0
  0
LINE
  5
99
330
1F
100
AcDbEntity
  8
TITLE
  6
SLD-Solid
370
    18
100
AcDbLine
 10
47.5
 20
12.094488189
 30
0.0
 11
47.8346456693
 21
12.094488189
 31
0.0
  0
LINE
  5
9A
330
1F
100
AcDbEntity
  8
TITLE
  6
SLD-Solid
370
    18
100
AcDbLine
 10
0.5
 20
14.062992126
 30
0.0
 11
0.1653543307
 21
14.062992126
 31
0.0
  0
LINE
  5
9B
330
1F
100
AcDbEntity
  8
TITLE
  6
SLD-Solid
370
    18
100
AcDbLine
 10
47.5
 20
14.062992126
 30
0.0
 11
47.8346456693
 21
14.062992126
 31
0.0
  0
LINE
  5
9C
330
1F
100
AcDbEntity
  8
TITLE
  6
SLD-Solid
370
    18
100
AcDbLine
 10
0.5
 20
16.031496063
 30
0.0
 11
0.1653543307
 21
16.031496063
 31
0.0
  0
LINE
  5
9D
330
1F
100
AcDbEntity
  8
TITLE
  6
SLD-Solid
370
    18
100
AcDbLine
 10
47.5
 20
16.031496063
 30
0.0
 11
47.8346456693
 21
16.031496063
 31
0.0
  0
LINE
  5
9E
330
1F
100
AcDbEntity
  8
TITLE
  6
SLD-Solid
370
    18
100
AcDbLine
 10
0.5
 20
18.0
 30
0.0
 11
0.1653543307
 21
18.0
 31
0.0
  0
LINE
  5
9F
330
1F
100
AcDbEntity
  8
TITLE
  6
SLD-Solid
370
    18
100
AcDbLine
 10
47.5
 20
18.0
 30
0.0
 11
47.8346456693
 21
18.0
 31
0.0
  0
LINE
  5
A0
330
1F
100
AcDbEntity
  8
TITLE
  6
SLD-Solid
370
    18
100
AcDbLine
 10
0.5
 20
19.968503937
 30
0.0
 11
0.1653543307
 21
19.968503937
 31
0.0
  0
LINE
  5
A1
330
1F
100
AcDbEntity
  8
TITLE
  6
SLD-Solid
370
    18
100
AcDbLine
 10
47.5
 20
19.968503937
 30
0.0
 11
47.8346456693
 21
19.968503937
 31
0.0
  0
LINE
  5
A2
330
1F
100
AcDbEntity
  8
TITLE
  6
SLD-Solid
370
    18
100
AcDbLine
 10
0.5
 20
21.937007874
 30
0.0
 11
0.1653543307
 21
21.937007874
 31
0.0
  0
LINE
  5
A3
330
1F
100
AcDbEntity
  8
TITLE
  6
SLD-Solid
370
    18
100
AcDbLine
 10
47.5
 20
21.937007874
 30
0.0
 11
47.8346456693
 21
21.937007874
 31
0.0
  0
LINE
  5
A4
330
1F
100
AcDbEntity
  8
TITLE
  6
SLD-Solid
370
    18
100
AcDbLine
 10
0.5
 20
23.905511811
 30
0.0
 11
0.1653543307
 21
23.905511811
 31
0.0
  0
LINE
  5
A5
330
1F
100
AcDbEntity
  8
TITLE
  6
SLD-Solid
370
    18
100
AcDbLine
 10
47.5
 20
23.905511811
 30
0.0
 11
47.8346456693
 21
23.905511811
 31
0.0
  0
LINE
  5
A6
330
1F
100
AcDbEntity
  8
TITLE
  6
SLD-Solid
370
    18
100
AcDbLine
 10
0.5
 20
25.874015748
 30
0.0
 11
0.1653543307
 21
25.874015748
 31
0.0
  0
LINE
  5
A7
330
1F
100
AcDbEntity
  8
TITLE
  6
SLD-Solid
370
    18
100
AcDbLine
 10
47.5
 20
25.874015748
 30
0.0
 11
47.8346456693
 21
25.874015748
 31
0.0
  0
LINE
  5
A8
330
1F
100
AcDbEntity
  8
TITLE
  6
SLD-Solid
370
    18
100
AcDbLine
 10
0.5
 20
27.842519685
 30
0.0
 11
0.1653543307
 21
27.842519685
 31
0.0
  0
LINE
  5
A9
330
1F
100
AcDbEntity
  8
TITLE
  6
SLD-Solid
370
    18
100
AcDbLine
 10
47.5
 20
27.842519685
 30
0.0
 11
47.8346456693
 21
27.842519685
 31
0.0
  0
LINE
  5
AA
330
1F
100
AcDbEntity
  8
TITLE
  6
SLD-Solid
370
    18
100
AcDbLine
 10
0.5
 20
29.811023622
 30
0.0
 11
0.1653543307
 21
29.811023622
 31
0.0
  0
LINE
  5
AB
330
1F
100
AcDbEntity
  8
TITLE
  6
SLD-Solid
370
    18
100
AcDbLine
 10
47.5
 20
29.811023622
 30
0.0
 11
47.8346456693
 21
29.811023622
 31
0.0
  0
LINE
  5
AC
330
1F
100
AcDbEntity
  8
TITLE
  6
SLD-Solid
370
    18
100
AcDbLine
 10
0.5
 20
31.7795275591
 30
0.0
 11
0.1653543307
 21
31.7795275591
 31
0.0
  0
LINE
  5
AD
330
1F
100
AcDbEntity
  8
TITLE
  6
SLD-Solid
370
    18
100
AcDbLine
 10
47.5
 20
31.7795275591
 30
0.0
 11
47.8346456693
 21
31.7795275591
 31
0.0
  0
LINE
  5
AE
330
1F
100
AcDbEntity
  8
TITLE
  6
SLD-Solid
370
    18
100
AcDbLine
 10
47.5
 20
33.7480314961
 30
0.0
 11
47.8346456693
 21
33.7480314961
 31
0.0
  0
LINE
  5
AF
330
1F
100
AcDbEntity
  8
TITLE
  6
SLD-Solid
370
    18
100
AcDbLine
 10
2.3464566929
 20
35.5
 30
0.0
 11
2.3464566929
 21
35.8346456693
 31
0.0
  0
LINE
  5
B0
330
1F
100
AcDbEntity
  8
TITLE
  6
SLD-Solid
370
    18
100
AcDbLine
 10
2.3464566929
 20
0.5
 30
0.0
 11
2.3464566929
 21
0.1653543307
 31
0.0
  0
LINE
  5
B1
330
1F
100
AcDbEntity
  8
TITLE
  6
SLD-Solid
370
    18
100
AcDbLine
 10
4.3149606299
 20
0.5
 30
0.0
 11
4.3149606299
 21
0.1653543307
 31
0.0
  0
LINE
  5
B2
330
1F
100
AcDbEntity
  8
TITLE
  6
SLD-Solid
370
    18
100
AcDbLine
 10
6.2834645669
 20
35.5
 30
0.0
 11
6.2834645669
 21
35.8346456693
 31
0.0
  0
LINE
  5
B3
330
1F
100
AcDbEntity
  8
TITLE
  6
SLD-Solid
370
    18
100
AcDbLine
 10
6.2834645669
 20
0.5
 30
0.0
 11
6.2834645669
 21
0.1653543307
 31
0.0
  0
LINE
  5
B4
330
1F
100
AcDbEntity
  8
TITLE
  6
SLD-Solid
370
    18
100
AcDbLine
 10
8.2519685039
 20
35.5
 30
0.0
 11
8.2519685039
 21
35.8346456693
 31
0.0
  0
LINE
  5
B5
330
1F
100
AcDbEntity
  8
TITLE
  6
SLD-Solid
370
    18
100
AcDbLine
 10
8.2519685039
 20
0.5
 30
0.0
 11
8.2519685039
 21
0.1653543307
 31
0.0
  0
LINE
  5
B6
330
1F
100
AcDbEntity
  8
TITLE
  6
SLD-Solid
370
    18
100
AcDbLine
 10
10.2204724409
 20
35.5
 30
0.0
 11
10.2204724409
 21
35.8346456693
 31
0.0
  0
LINE
  5
B7
330
1F
100
AcDbEntity
  8
TITLE
  6
SLD-Solid
370
    18
100
AcDbLine
 10
10.2204724409
 20
0.5
 30
0.0
 11
10.2204724409
 21
0.1653543307
 31
0.0
  0
LINE
  5
B8
330
1F
100
AcDbEntity
  8
TITLE
  6
SLD-Solid
370
    18
100
AcDbLine
 10
12.188976378
 20
35.5
 30
0.0
 11
12.188976378
 21
35.8346456693
 31
0.0
  0
LINE
  5
B9
330
1F
100
AcDbEntity
  8
TITLE
  6
SLD-Solid
370
    18
100
AcDbLine
 10
12.188976378
 20
0.5
 30
0.0
 11
12.188976378
 21
0.1653543307
 31
0.0
  0
LINE
  5
BA
330
1F
100
AcDbEntity
  8
TITLE
  6
SLD-Solid
370
    18
100
AcDbLine
 10
14.157480315
 20
35.5
 30
0.0
 11
14.157480315
 21
35.8346456693
 31
0.0
  0
LINE
  5
BB
330
1F
100
AcDbEntity
  8
TITLE
  6
SLD-Solid
370
    18
100
AcDbLine
 10
14.157480315
 20
0.5
 30
0.0
 11
14.157480315
 21
0.1653543307
 31
0.0
  0
LINE
  5
BC
330
1F
100
AcDbEntity
  8
TITLE
  6
SLD-Solid
370
    18
100
AcDbLine
 10
16.125984252
 20
35.5
 30
0.0
 11
16.125984252
 21
35.8346456693
 31
0.0
  0
LINE
  5
BD
330
1F
100
AcDbEntity
  8
TITLE
  6
SLD-Solid
370
    18
100
AcDbLine
 10
16.125984252
 20
0.5
 30
0.0
 11
16.125984252
 21
0.1653543307
 31
0.0
  0
LINE
  5
BE
330
1F
100
AcDbEntity
  8
TITLE
  6
SLD-Solid
370
    18
100
AcDbLine
 10
18.094488189
 20
35.5
 30
0.0
 11
18.094488189
 21
35.8346456693
 31
0.0
  0
LINE
  5
BF
330
1F
100
AcDbEntity
  8
TITLE
  6
SLD-Solid
370
    18
100
AcDbLine
 10
18.094488189
 20
0.5
 30
0.0
 11
18.094488189
 21
0.1653543307
 31
0.0
  0
LINE
  5
C0
330
1F
100
AcDbEntity
  8
TITLE
  6
SLD-Solid
370
    18
100
AcDbLine
 10
20.062992126
 20
35.5
 30
0.0
 11
20.062992126
 21
35.8346456693
 31
0.0
  0
LINE
  5
C1
330
1F
100
AcDbEntity
  8
TITLE
  6
SLD-Solid
370
    18
100
AcDbLine
 10
20.062992126
 20
0.5
 30
0.0
 11
20.062992126
 21
0.1653543307
 31
0.0
  0
LINE
  5
C2
330
1F
100
AcDbEntity
  8
TITLE
  6
SLD-Solid
370
    18
100
AcDbLine
 10
22.031496063
 20
35.5
 30
0.0
 11
22.031496063
 21
35.8346456693
 31
0.0
  0
LINE
  5
C3
330
1F
100
AcDbEntity
  8
TITLE
  6
SLD-Solid
370
    18
100
AcDbLine
 10
22.031496063
 20
0.5
 30
0.0
 11
22.031496063
 21
0.1653543307
 31
0.0
  0
LINE
  5
C4
330
1F
100
AcDbEntity
  8
TITLE
  6
SLD-Solid
370
    18
100
AcDbLine
 10
24.0
 20
35.5
 30
0.0
 11
24.0
 21
35.8346456693
 31
0.0
  0
LINE
  5
C5
330
1F
100
AcDbEntity
  8
TITLE
  6
SLD-Solid
370
    18
100
AcDbLine
 10
24.0
 20
0.5
 30
0.0
 11
24.0
 21
0.1653543307
 31
0.0
  0
LINE
  5
C6
330
1F
100
AcDbEntity
  8
TITLE
  6
SLD-Solid
370
    18
100
AcDbLine
 10
25.968503937
 20
35.5
 30
0.0
 11
25.968503937
 21
35.8346456693
 31
0.0
  0
LINE
  5
C7
330
1F
100
AcDbEntity
  8
TITLE
  6
SLD-Solid
370
    18
100
AcDbLine
 10
25.968503937
 20
0.5
 30
0.0
 11
25.968503937
 21
0.1653543307
 31
0.0
  0
LINE
  5
C8
330
1F
100
AcDbEntity
  8
TITLE
  6
SLD-Solid
370
    18
100
AcDbLine
 10
27.937007874
 20
35.5
 30
0.0
 11
27.937007874
 21
35.8346456693
 31
0.0
  0
LINE
  5
C9
330
1F
100
AcDbEntity
  8
TITLE
  6
SLD-Solid
370
    18
100
AcDbLine
 10
27.937007874
 20
0.5
 30
0.0
 11
27.937007874
 21
0.1653543307
 31
0.0
  0
LINE
  5
CA
330
1F
100
AcDbEntity
  8
TITLE
  6
SLD-Solid
370
    18
100
AcDbLine
 10
29.905511811
 20
35.5
 30
0.0
 11
29.905511811
 21
35.8346456693
 31
0.0
  0
LINE
  5
CB
330
1F
100
AcDbEntity
  8
TITLE
  6
SLD-Solid
370
    18
100
AcDbLine
 10
29.905511811
 20
0.5
 30
0.0
 11
29.905511811
 21
0.1653543307
 31
0.0
  0
LINE
  5
CC
330
1F
100
AcDbEntity
  8
TITLE
  6
SLD-Solid
370
    18
100
AcDbLine
 10
31.874015748
 20
35.5
 30
0.0
 11
31.874015748
 21
35.8346456693
 31
0.0
  0
LINE
  5
CD
330
1F
100
AcDbEntity
  8
TITLE
  6
SLD-Solid
370
    18
100
AcDbLine
 10
31.874015748
 20
0.5
 30
0.0
 11
31.874015748
 21
0.1653543307
 31
0.0
  0
LINE
  5
CE
330
1F
100
AcDbEntity
  8
TITLE
  6
SLD-Solid
370
    18
100
AcDbLine
 10
33.842519685
 20
35.5
 30
0.0
 11
33.842519685
 21
35.8346456693
 31
0.0
  0
LINE
  5
CF
330
1F
100
AcDbEntity
  8
TITLE
  6
SLD-Solid
370
    18
100
AcDbLine
 10
33.842519685
 20
0.5
 30
0.0
 11
33.842519685
 21
0.1653543307
 31
0.0
  0
LINE
  5
D0
330
1F
100
AcDbEntity
  8
TITLE
  6
SLD-Solid
370
    18
100
AcDbLine
 10
35.811023622
 20
35.5
 30
0.0
 11
35.811023622
 21
35.8346456693
 31
0.0
  0
LINE
  5
D1
330
1F
100
AcDbEntity
  8
TITLE
  6
SLD-Solid
370
    18
100
AcDbLine
 10
35.811023622
 20
0.5
 30
0.0
 11
35.811023622
 21
0.1653543307
 31
0.0
  0
LINE
  5
D2
330
1F
100
AcDbEntity
  8
TITLE
  6
SLD-Solid
370
    18
100
AcDbLine
 10
37.7795275591
 20
35.5
 30
0.0
 11
37.7795275591
 21
35.8346456693
 31
0.0
  0
LINE
  5
D3
330
1F
100
AcDbEntity
  8
TITLE
  6
SLD-Solid
370
    18
100
AcDbLine
 10
37.7795275591
 20
0.5
 30
0.0
 11
37.7795275591
 21
0.1653543307
 31
0.0
  0
LINE
  5
D4
330
1F
100
AcDbEntity
  8
TITLE
  6
SLD-Solid
370
    18
100
AcDbLine
 10
39.7480314961
 20
35.5
 30
0.0
 11
39.7480314961
 21
35.8346456693
 31
0.0
  0
LINE
  5
D5
330
1F
100
AcDbEntity
  8
TITLE
  6
SLD-Solid
370
    18
100
AcDbLine
 10
39.7480314961
 20
0.5
 30
0.0
 11
39.7480314961
 21
0.1653543307
 31
0.0
  0
LINE
  5
D6
330
1F
100
AcDbEntity
  8
TITLE
  6
SLD-Solid
370
    18
100
AcDbLine
 10
41.7165354331
 20
35.5
 30
0.0
 11
41.7165354331
 21
35.8346456693
 31
0.0
  0
LINE
  5
D7
330
1F
100
AcDbEntity
  8
TITLE
  6
SLD-Solid
370
    18
100
AcDbLine
 10
41.7165354331
 20
0.5
 30
0.0
 11
41.7165354331
 21
0.1653543307
 31
0.0
  0
LINE
  5
D8
330
1F
100
AcDbEntity
  8
TITLE
  6
SLD-Solid
370
    18
100
AcDbLine
 10
43.6850393701
 20
35.5
 30
0.0
 11
43.6850393701
 21
35.8346456693
 31
0.0
  0
LINE
  5
D9
330
1F
100
AcDbEntity
  8
TITLE
  6
SLD-Solid
370
    18
100
AcDbLine
 10
43.6850393701
 20
0.5
 30
0.0
 11
43.6850393701
 21
0.1653543307
 31
0.0
  0
LINE
  5
DA
330
1F
100
AcDbEntity
  8
TITLE
  6
SLD-Solid
370
    18
100
AcDbLine
 10
45.6535433071
 20
35.5
 30
0.0
 11
45.6535433071
 21
35.8346456693
 31
0.0
  0
LINE
  5
DB
330
1F
100
AcDbEntity
  8
TITLE
  6
SLD-Solid
370
    18
100
AcDbLine
 10
45.6535433071
 20
0.5
 30
0.0
 11
45.6535433071
 21
0.1653543307
 31
0.0
  0
LINE
  5
DC
330
1F
100
AcDbEntity
  8
TITLE
370
    35
100
AcDbLine
 10
0.5
 20
35.5
 30
0.0
 11
47.5
 21
35.5
 31
0.0
  0
LINE
  5
DD
330
1F
100
AcDbEntity
  8
TITLE
370
    35
100
AcDbLine
 10
0.5
 20
35.5
 30
0.0
 11
0.5
 21
0.5
 31
0.0
  0
LINE
  5
DE
330
1F
100
AcDbEntity
  8
TITLE
370
    35
100
AcDbLine
 10
0.5
 20
0.5
 30
0.0
 11
47.5
 21
0.5
 31
0.0
  0
LINE
  5
DF
330
1F
100
AcDbEntity
  8
TITLE
370
    35
100
AcDbLine
 10
47.5
 20
35.5
 30
0.0
 11
47.5
 21
0.5
 31
0.0
  0
MTEXT
  5
E1
330
1F
100
AcDbEntity
  8
NOTES
100
AcDbMText
 10
24.408297803
 20
1.0702903347
 30
0.0
 40
0.25
 41
0.0
 71
     1
 72
     1
  1
UNLESS OTHERWISE SPECIFIED DIMENSIONS ARE IN INCHES.
  7
SLDTEXTSTYLE0
 73
     1
 44
1.0
  0
MTEXT
  5
E2
330
1F
100
AcDbEntity
  8
NOTES
100
AcDbMText
 10
24.4368251132
 20
3.2193045501
 30
0.0
 40
0.25
 41
0.0
 71
     1
 72
     1
  1
DATE:
  7
SLDTEXTSTYLE0
 73
     1
 44
1.0
  0
MTEXT
  5
E3
330
1F
100
AcDbEntity
  8
NOTES
100
AcDbMText
 10
26.7130669976
 20
2.1722148141
 30
0.0
 40
0.25
 41
0.0
 71
     2
 72
     1
  1
DO NOT SCALE DRAWING
  7
SLDTEXTSTYLE0
 73
     1
 44
1.0
  0
MTEXT
  5
E5
330
1F
100
AcDbEntity
  8
NOTES
100
AcDbMText
 10
30.8307373075
 20
3.2682755553
 30
0.0
 40
0.25
 41
0.0
 71
     1
 72
     1
  1
TITLE:
  7
SLDTEXTSTYLE1
 73
     1
 44
1.0
  0
MTEXT
  5
E6
330
1F
100
AcDbEntity
  8
NOTES
100
AcDbMText
 10
38.1561831052
 20
3.2682755553
 30
0.0
 40
0.25
 41
0.0
 71
     1
 72
     1
  1
DWG NO.
  7
SLDTEXTSTYLE1
 73
     1
 44
1.0
  0
MTEXT
  5
E7
330
1F
100
AcDbEntity
  8
NOTES
100
AcDbMText
 10
38.1831753203
 20
1.0645815577
 30
0.0
 40
0.25
 41
0.0
 71
     1
 72
     1
  1
SCALE:     1:1
  7
SLDTEXTSTYLE1
 73
     1
 44
1.0
  0
MTEXT
  5
E8
330
1F
100
AcDbEntity
  8
NOTES
100
AcDbMText
 10
42.1867025892
 20
2.6510344295
 30
0.0
 40
0.25
 41
0.0
 71
     2
 72
     1
  1
1132-S CAD
  7
SLDTEXTSTYLE1
 73
     1
 44
1.0
  0
MTEXT
  5
E9
330
1F
100
AcDbEntity
  8
NOTES
100
AcDbMText
 10
33.9573838237
 20
2.6388861441
 30
0.0
 40
0.25
 41
0.0
 71
     2
 72
     1
  1
1132-S
  7
SLDTEXTSTYLE1
 73
     1
 44
1.0
  0
INSERT
  5
EF
330
1F
100
AcDbEntity
  8
NOTES
100
AcDbBlockReference
  2
SW_NOTE_0
 10
38.266131557
 20
4.6105227838
 30
0.0
  0
INSERT
  5
F9
330
1F
100
AcDbEntity
  8
NOTES
100
AcDbBlockReference
  2
SW_NOTE_0_1
 10
24.6159726246
 20
5.1481526848
 30
0.0
  0
MTEXT
  5
FA
330
1F
100
AcDbEntity
  8
NOTES
100
AcDbMText
 10
27.5257340466
 20
3.2135957731
 30
0.0
 40
0.25
 41
0.0
 71
     2
 72
     1
  1
September 17, 2021
  7
SLDTEXTSTYLE1
 73
     1
 44
1.0
  0
MTEXT
  5
FB
330
1F
100
AcDbEntity
  8
TITLE
100
AcDbMText
 10
0.3276279776
 20
1.4558621965
 30
0.0
 40
0.125
 41
0.0
 71
     2
 72
     1
  1
A
  7
SLDTEXTSTYLE1
 73
     1
 44
1.0
  0
MTEXT
  5
FC
330
1F
100
AcDbEntity
  8
TITLE
100
AcDbMText
 10
47.6622736469
 20
1.4558621965
 30
0.0
 40
0.125
 41
0.0
 71
     2
 72
     1
  1
A
  7
SLDTEXTSTYLE1
 73
     1
 44
1.0
  0
MTEXT
  5
FD
330
1F
100
AcDbEntity
  8
TITLE
100
AcDbMText
 10
0.3317512413
 20
3.316098417
 30
0.0
 40
0.125
 41
0.0
 71
     2
 72
     1
  1
B
  7
SLDTEXTSTYLE1
 73
     1
 44
1.0
  0
MTEXT
  5
FE
330
1F
100
AcDbEntity
  8
TITLE
100
AcDbMText
 10
47.6663969106
 20
3.316098417
 30
0.0
 40
0.125
 41
0.0
 71
     2
 72
     1
  1
B
  7
SLDTEXTSTYLE1
 73
     1
 44
1.0
  0
MTEXT
  5
FF
330
1F
100
AcDbEntity
  8
TITLE
100
AcDbMText
 10
0.3313750817
 20
5.284602354
 30
0.0
 40
0.125
 41
0.0
 71
     2
 72
     1
  1
C
  7
SLDTEXTSTYLE1
 73
     1
 44
1.0
  0
MTEXT
  5
100
330
1F
100
AcDbEntity
  8
TITLE
100
AcDbMText
 10
47.666020751
 20
5.284602354
 30
0.0
 40
0.125
 41
0.0
 71
     2
 72
     1
  1
C
  7
SLDTEXTSTYLE1
 73
     1
 44
1.0
  0
MTEXT
  5
101
330
1F
100
AcDbEntity
  8
TITLE
100
AcDbMText
 10
0.3311870028
 20
7.253106291
 30
0.0
 40
0.125
 41
0.0
 71
     2
 72
     1
  1
D
  7
SLDTEXTSTYLE1
 73
     1
 44
1.0
  0
MTEXT
  5
102
330
1F
100
AcDbEntity
  8
TITLE
100
AcDbMText
 10
47.6658326721
 20
7.253106291
 30
0.0
 40
0.125
 41
0.0
 71
     2
 72
     1
  1
D
  7
SLDTEXTSTYLE1
 73
     1
 44
1.0
  0
MTEXT
  5
103
330
1F
100
AcDbEntity
  8
TITLE
100
AcDbMText
 10
0.332923116
 20
9.221610228
 30
0.0
 40
0.125
 41
0.0
 71
     2
 72
     1
  1
E
  7
SLDTEXTSTYLE1
 73
     1
 44
1.0
  0
MTEXT
  5
104
330
1F
100
AcDbEntity
  8
TITLE
100
AcDbMText
 10
47.6675687853
 20
9.221610228
 30
0.0
 40
0.125
 41
0.0
 71
     2
 72
     1
  1
E
  7
SLDTEXTSTYLE1
 73
     1
 44
1.0
  0
MTEXT
  5
105
330
1F
100
AcDbEntity
  8
TITLE
100
AcDbMText
 10
0.3313461474
 20
11.190114165
 30
0.0
 40
0.125
 41
0.0
 71
     2
 72
     1
  1
F
  7
SLDTEXTSTYLE1
 73
     1
 44
1.0
  0
MTEXT
  5
106
330
1F
100
AcDbEntity
  8
TITLE
100
AcDbMText
 10
47.6659918167
 20
11.190114165
 30
0.0
 40
0.125
 41
0.0
 71
     2
 72
     1
  1
F
  7
SLDTEXTSTYLE1
 73
     1
 44
1.0
  0
MTEXT
  5
107
330
1F
100
AcDbEntity
  8
TITLE
100
AcDbMText
 10
0.3322576054
 20
13.158618102
 30
0.0
 40
0.125
 41
0.0
 71
     2
 72
     1
  1
G
  7
SLDTEXTSTYLE1
 73
     1
 44
1.0
  0
MTEXT
  5
108
330
1F
100
AcDbEntity
  8
TITLE
100
AcDbMText
 10
47.6669032747
 20
13.158618102
 30
0.0
 40
0.125
 41
0.0
 71
     2
 72
     1
  1
G
  7
SLDTEXTSTYLE1
 73
     1
 44
1.0
  0
MTEXT
  5
109
330
1F
100
AcDbEntity
  8
TITLE
100
AcDbMText
 10
0.3323733457
 20
15.127122039
 30
0.0
 40
0.125
 41
0.0
 71
     2
 72
     1
  1
H
  7
SLDTEXTSTYLE1
 73
     1
 44
1.0
  0
MTEXT
  5
10A
330
1F
100
AcDbEntity
  8
TITLE
100
AcDbMText
 10
47.667019015
 20
15.127122039
 30
0.0
 40
0.125
 41
0.0
 71
     2
 72
     1
  1
H
  7
SLDTEXTSTYLE1
 73
     1
 44
1.0
  0
MTEXT
  5
10B
330
1F
100
AcDbEntity
  8
TITLE
100
AcDbMText
 10
0.3315776306
 20
17.095625976
 30
0.0
 40
0.125
 41
0.0
 71
     2
 72
     1
  1
J
  7
SLDTEXTSTYLE1
 73
     1
 44
1.0
  0
MTEXT
  5
10C
330
1F
100
AcDbEntity
  8
TITLE
100
AcDbMText
 10
47.6662232999
 20
17.095625976
 30
0.0
 40
0.125
 41
0.0
 71
     2
 72
     1
  1
J
  7
SLDTEXTSTYLE1
 73
     1
 44
1.0
  0
MTEXT
  5
10D
330
1F
100
AcDbEntity
  8
TITLE
100
AcDbMText
 10
0.3323154765
 20
19.064129913
 30
0.0
 40
0.125
 41
0.0
 71
     2
 72
     1
  1
K
  7
SLDTEXTSTYLE1
 73
     1
 44
1.0
  0
MTEXT
  5
10E
330
1F
100
AcDbEntity
  8
TITLE
100
AcDbMText
 10
47.6669611458
 20
19.064129913
 30
0.0
 40
0.125
 41
0.0
 71
     2
 72
     1
  1
K
  7
SLDTEXTSTYLE1
 73
     1
 44
1.0
  0
MTEXT
  5
10F
330
1F
100
AcDbEntity
  8
TITLE
100
AcDbMText
 10
0.3312448739
 20
21.03263385
 30
0.0
 40
0.125
 41
0.0
 71
     2
 72
     1
  1
L
  7
SLDTEXTSTYLE1
 73
     1
 44
1.0
  0
MTEXT
  5
110
330
1F
100
AcDbEntity
  8
TITLE
100
AcDbMText
 10
47.6658905432
 20
21.03263385
 30
0.0
 40
0.125
 41
0.0
 71
     2
 72
     1
  1
L
  7
SLDTEXTSTYLE1
 73
     1
 44
1.0
  0
MTEXT
  5
111
330
1F
100
AcDbEntity
  8
TITLE
100
AcDbMText
 10
0.3283224192
 20
23.001137787
 30
0.0
 40
0.125
 41
0.0
 71
     2
 72
     1
  1
M
  7
SLDTEXTSTYLE1
 73
     1
 44
1.0
  0
MTEXT
  5
112
330
1F
100
AcDbEntity
  8
TITLE
100
AcDbMText
 10
47.6629680885
 20
23.001137787
 30
0.0
 40
0.125
 41
0.0
 71
     2
 72
     1
  1
M
  7
SLDTEXTSTYLE1
 73
     1
 44
1.0
  0
MTEXT
  5
113
330
1F
100
AcDbEntity
  8
TITLE
100
AcDbMText
 10
0.3315342276
 20
24.969641724
 30
0.0
 40
0.125
 41
0.0
 71
     2
 72
     1
  1
N
  7
SLDTEXTSTYLE1
 73
     1
 44
1.0
  0
MTEXT
  5
114
330
1F
100
AcDbEntity
  8
TITLE
100
AcDbMText
 10
47.6661798969
 20
24.969641724
 30
0.0
 40
0.125
 41
0.0
 71
     2
 72
     1
  1
N
  7
SLDTEXTSTYLE1
 73
     1
 44
1.0
  0
MTEXT
  5
115
330
1F
100
AcDbEntity
  8
TITLE
100
AcDbMText
 10
0.3321997349
 20
26.9381456611
 30
0.0
 40
0.125
 41
0.0
 71
     2
 72
     1
  1
P
  7
SLDTEXTSTYLE1
 73
     1
 44
1.0
  0
MTEXT
  5
116
330
1F
100
AcDbEntity
  8
TITLE
100
AcDbMText
 10
47.6668454042
 20
26.9381456611
 30
0.0
 40
0.125
 41
0.0
 71
     2
 72
     1
  1
P
  7
SLDTEXTSTYLE1
 73
     1
 44
1.0
  0
MTEXT
  5
117
330
1F
100
AcDbEntity
  8
TITLE
100
AcDbMText
 10
0.3309265867
 20
28.9066495981
 30
0.0
 40
0.125
 41
0.0
 71
     2
 72
     1
  1
R
  7
SLDTEXTSTYLE1
 73
     1
 44
1.0
  0
MTEXT
  5
118
330
1F
100
AcDbEntity
  8
TITLE
100
AcDbMText
 10
47.665572256
 20
28.9066495981
 30
0.0
 40
0.125
 41
0.0
 71
     2
 72
     1
  1
R
  7
SLDTEXTSTYLE1
 73
     1
 44
1.0
  0
MTEXT
  5
119
330
1F
100
AcDbEntity
  8
TITLE
100
AcDbMText
 10
0.3323010071
 20
30.8751535351
 30
0.0
 40
0.125
 41
0.0
 71
     2
 72
     1
  1
T
  7
SLDTEXTSTYLE1
 73
     1
 44
1.0
  0
MTEXT
  5
11A
330
1F
100
AcDbEntity
  8
TITLE
100
AcDbMText
 10
47.6669466764
 20
30.8751535351
 30
0.0
 40
0.125
 41
0.0
 71
     2
 72
     1
  1
T
  7
SLDTEXTSTYLE1
 73
     1
 44
1.0
  0
MTEXT
  5
11B
330
1F
100
AcDbEntity
  8
TITLE
100
AcDbMText
 10
0.3328507755
 20
32.8436574721
 30
0.0
 40
0.125
 41
0.0
 71
     2
 72
     1
  1
U
  7
SLDTEXTSTYLE1
 73
     1
 44
1.0
  0
MTEXT
  5
11C
330
1F
100
AcDbEntity
  8
TITLE
100
AcDbMText
 10
47.6674964448
 20
32.8436574721
 30
0.0
 40
0.125
 41
0.0
 71
     2
 72
     1
  1
U
  7
SLDTEXTSTYLE1
 73
     1
 44
1.0
  0
MTEXT
  5
11D
330
1F
100
AcDbEntity
  8
TITLE
100
AcDbMText
 10
0.3307529773
 20
34.7038936925
 30
0.0
 40
0.125
 41
0.0
 71
     2
 72
     1
  1
V
  7
SLDTEXTSTYLE1
 73
     1
 44
1.0
  0
MTEXT
  5
11E
330
1F
100
AcDbEntity
  8
TITLE
100
AcDbMText
 10
47.6653986466
 20
34.7038936925
 30
0.0
 40
0.125
 41
0.0
 71
     2
 72
     1
  1
V
  7
SLDTEXTSTYLE1
 73
     1
 44
1.0
  0
MTEXT
  5
11F
330
1F
100
AcDbEntity
  8
TITLE
100
AcDbMText
 10
1.4207109851
 20
0.4125551099
 30
0.0
 40
0.125
 41
0.0
 71
     2
 72
     1
  1
24
  7
SLDTEXTSTYLE1
 73
     1
 44
1.0
  0
MTEXT
  5
120
330
1F
100
AcDbEntity
  8
TITLE
100
AcDbMText
 10
1.4207109851
 20
35.7472007792
 30
0.0
 40
0.125
 41
0.0
 71
     2
 72
     1
  1
24
  7
SLDTEXTSTYLE1
 73
     1
 44
1.0
  0
MTEXT
  5
121
330
1F
100
AcDbEntity
  8
TITLE
100
AcDbMText
 10
3.3281913
 20
0.4125551099
 30
0.0
 40
0.125
 41
0.0
 71
     2
 72
     1
  1
23
  7
SLDTEXTSTYLE1
 73
     1
 44
1.0
  0
MTEXT
  5
122
330
1F
100
AcDbEntity
  8
TITLE
100
AcDbMText
 10
3.3281913
 20
35.7472007792
 30
0.0
 40
0.125
 41
0.0
 71
     2
 72
     1
  1
23
  7
SLDTEXTSTYLE1
 73
     1
 44
1.0
  0
MTEXT
  5
123
330
1F
100
AcDbEntity
  8
TITLE
100
AcDbMText
 10
5.2966952371
 20
0.4125551099
 30
0.0
 40
0.125
 41
0.0
 71
     2
 72
     1
  1
22
  7
SLDTEXTSTYLE1
 73
     1
 44
1.0
  0
MTEXT
  5
124
330
1F
100
AcDbEntity
  8
TITLE
100
AcDbMText
 10
5.2966952371
 20
35.7472007792
 30
0.0
 40
0.125
 41
0.0
 71
     2
 72
     1
  1
22
  7
SLDTEXTSTYLE1
 73
     1
 44
1.0
  0
MTEXT
  5
125
330
1F
100
AcDbEntity
  8
TITLE
100
AcDbMText
 10
7.2651991741
 20
0.4125551099
 30
0.0
 40
0.125
 41
0.0
 71
     2
 72
     1
  1
21
  7
SLDTEXTSTYLE1
 73
     1
 44
1.0
  0
MTEXT
  5
126
330
1F
100
AcDbEntity
  8
TITLE
100
AcDbMText
 10
7.2651991741
 20
35.7472007792
 30
0.0
 40
0.125
 41
0.0
 71
     2
 72
     1
  1
21
  7
SLDTEXTSTYLE1
 73
     1
 44
1.0
  0
MTEXT
  5
127
330
1F
100
AcDbEntity
  8
TITLE
100
AcDbMText
 10
9.2337031111
 20
0.4125551099
 30
0.0
 40
0.125
 41
0.0
 71
     2
 72
     1
  1
20
  7
SLDTEXTSTYLE1
 73
     1
 44
1.0
  0
MTEXT
  5
128
330
1F
100
AcDbEntity
  8
TITLE
100
AcDbMText
 10
9.2337031111
 20
35.7472007792
 30
0.0
 40
0.125
 41
0.0
 71
     2
 72
     1
  1
20
  7
SLDTEXTSTYLE1
 73
     1
 44
1.0
  0
MTEXT
  5
129
330
1F
100
AcDbEntity
  8
TITLE
100
AcDbMText
 10
11.2022070481
 20
0.4125551099
 30
0.0
 40
0.125
 41
0.0
 71
     2
 72
     1
  1
19
  7
SLDTEXTSTYLE1
 73
     1
 44
1.0
  0
MTEXT
  5
12A
330
1F
100
AcDbEntity
  8
TITLE
100
AcDbMText
 10
11.2022070481
 20
35.7472007792
 30
0.0
 40
0.125
 41
0.0
 71
     2
 72
     1
  1
19
  7
SLDTEXTSTYLE1
 73
     1
 44
1.0
  0
MTEXT
  5
12B
330
1F
100
AcDbEntity
  8
TITLE
100
AcDbMText
 10
13.1707109851
 20
0.4125551099
 30
0.0
 40
0.125
 41
0.0
 71
     2
 72
     1
  1
18
  7
SLDTEXTSTYLE1
 73
     1
 44
1.0
  0
MTEXT
  5
12C
330
1F
100
AcDbEntity
  8
TITLE
100
AcDbMText
 10
13.1707109851
 20
35.7472007792
 30
0.0
 40
0.125
 41
0.0
 71
     2
 72
     1
  1
18
  7
SLDTEXTSTYLE1
 73
     1
 44
1.0
  0
MTEXT
  5
12D
330
1F
100
AcDbEntity
  8
TITLE
100
AcDbMText
 10
15.1392149221
 20
0.4125551099
 30
0.0
 40
0.125
 41
0.0
 71
     2
 72
     1
  1
17
  7
SLDTEXTSTYLE1
 73
     1
 44
1.0
  0
MTEXT
  5
12E
330
1F
100
AcDbEntity
  8
TITLE
100
AcDbMText
 10
15.1392149221
 20
35.7472007792
 30
0.0
 40
0.125
 41
0.0
 71
     2
 72
     1
  1
17
  7
SLDTEXTSTYLE1
 73
     1
 44
1.0
  0
MTEXT
  5
12F
330
1F
100
AcDbEntity
  8
TITLE
100
AcDbMText
 10
17.1077188591
 20
0.4125551099
 30
0.0
 40
0.125
 41
0.0
 71
     2
 72
     1
  1
16
  7
SLDTEXTSTYLE1
 73
     1
 44
1.0
  0
MTEXT
  5
130
330
1F
100
AcDbEntity
  8
TITLE
100
AcDbMText
 10
17.1077188591
 20
35.7472007792
 30
0.0
 40
0.125
 41
0.0
 71
     2
 72
     1
  1
16
  7
SLDTEXTSTYLE1
 73
     1
 44
1.0
  0
MTEXT
  5
131
330
1F
100
AcDbEntity
  8
TITLE
100
AcDbMText
 10
19.0762227961
 20
0.4125551099
 30
0.0
 40
0.125
 41
0.0
 71
     2
 72
     1
  1
15
  7
SLDTEXTSTYLE1
 73
     1
 44
1.0
  0
MTEXT
  5
132
330
1F
100
AcDbEntity
  8
TITLE
100
AcDbMText
 10
19.0762227961
 20
35.7472007792
 30
0.0
 40
0.125
 41
0.0
 71
     2
 72
     1
  1
15
  7
SLDTEXTSTYLE1
 73
     1
 44
1.0
  0
MTEXT
  5
133
330
1F
100
AcDbEntity
  8
TITLE
100
AcDbMText
 10
21.0447267331
 20
0.4125551099
 30
0.0
 40
0.125
 41
0.0
 71
     2
 72
     1
  1
14
  7
SLDTEXTSTYLE1
 73
     1
 44
1.0
  0
MTEXT
  5
134
330
1F
100
AcDbEntity
  8
TITLE
100
AcDbMText
 10
21.0447267331
 20
35.7472007792
 30
0.0
 40
0.125
 41
0.0
 71
     2
 72
     1
  1
14
  7
SLDTEXTSTYLE1
 73
     1
 44
1.0
  0
MTEXT
  5
135
330
1F
100
AcDbEntity
  8
TITLE
100
AcDbMText
 10
23.0132306701
 20
0.4125551099
 30
0.0
 40
0.125
 41
0.0
 71
     2
 72
     1
  1
13
  7
SLDTEXTSTYLE1
 73
     1
 44
1.0
  0
MTEXT
  5
136
330
1F
100
AcDbEntity
  8
TITLE
100
AcDbMText
 10
23.0132306701
 20
35.7472007792
 30
0.0
 40
0.125
 41
0.0
 71
     2
 72
     1
  1
13
  7
SLDTEXTSTYLE1
 73
     1
 44
1.0
  0
MTEXT
  5
137
330
1F
100
AcDbEntity
  8
TITLE
100
AcDbMText
 10
24.9817346071
 20
0.4125551099
 30
0.0
 40
0.125
 41
0.0
 71
     2
 72
     1
  1
12
  7
SLDTEXTSTYLE1
 73
     1
 44
1.0
  0
MTEXT
  5
138
330
1F
100
AcDbEntity
  8
TITLE
100
AcDbMText
 10
24.9817346071
 20
35.7472007792
 30
0.0
 40
0.125
 41
0.0
 71
     2
 72
     1
  1
12
  7
SLDTEXTSTYLE1
 73
     1
 44
1.0
  0
MTEXT
  5
139
330
1F
100
AcDbEntity
  8
TITLE
100
AcDbMText
 10
26.9502385441
 20
0.4125551099
 30
0.0
 40
0.125
 41
0.0
 71
     2
 72
     1
  1
11
  7
SLDTEXTSTYLE1
 73
     1
 44
1.0
  0
MTEXT
  5
13A
330
1F
100
AcDbEntity
  8
TITLE
100
AcDbMText
 10
26.9502385441
 20
35.7472007792
 30
0.0
 40
0.125
 41
0.0
 71
     2
 72
     1
  1
11
  7
SLDTEXTSTYLE1
 73
     1
 44
1.0
  0
MTEXT
  5
13B
330
1F
100
AcDbEntity
  8
TITLE
100
AcDbMText
 10
28.9187424811
 20
0.4125551099
 30
0.0
 40
0.125
 41
0.0
 71
     2
 72
     1
  1
10
  7
SLDTEXTSTYLE1
 73
     1
 44
1.0
  0
MTEXT
  5
13C
330
1F
100
AcDbEntity
  8
TITLE
100
AcDbMText
 10
28.9187424811
 20
35.7472007792
 30
0.0
 40
0.125
 41
0.0
 71
     2
 72
     1
  1
10
  7
SLDTEXTSTYLE1
 73
     1
 44
1.0
  0
MTEXT
  5
13D
330
1F
100
AcDbEntity
  8
TITLE
100
AcDbMText
 10
30.8885050988
 20
0.4125551099
 30
0.0
 40
0.125
 41
0.0
 71
     2
 72
     1
  1
9
  7
SLDTEXTSTYLE1
 73
     1
 44
1.0
  0
MTEXT
  5
13E
330
1F
100
AcDbEntity
  8
TITLE
100
AcDbMText
 10
30.8885050988
 20
35.7472007792
 30
0.0
 40
0.125
 41
0.0
 71
     2
 72
     1
  1
9
  7
SLDTEXTSTYLE1
 73
     1
 44
1.0
  0
MTEXT
  5
13F
330
1F
100
AcDbEntity
  8
TITLE
100
AcDbMText
 10
32.8570090359
 20
0.4125551099
 30
0.0
 40
0.125
 41
0.0
 71
     2
 72
     1
  1
8
  7
SLDTEXTSTYLE1
 73
     1
 44
1.0
  0
MTEXT
  5
140
330
1F
100
AcDbEntity
  8
TITLE
100
AcDbMText
 10
32.8570090359
 20
35.7472007792
 30
0.0
 40
0.125
 41
0.0
 71
     2
 72
     1
  1
8
  7
SLDTEXTSTYLE1
 73
     1
 44
1.0
  0
MTEXT
  5
141
330
1F
100
AcDbEntity
  8
TITLE
100
AcDbMText
 10
34.8255129729
 20
0.4125551099
 30
0.0
 40
0.125
 41
0.0
 71
     2
 72
     1
  1
7
  7
SLDTEXTSTYLE1
 73
     1
 44
1.0
  0
MTEXT
  5
142
330
1F
100
AcDbEntity
  8
TITLE
100
AcDbMText
 10
34.8255129729
 20
35.7472007792
 30
0.0
 40
0.125
 41
0.0
 71
     2
 72
     1
  1
7
  7
SLDTEXTSTYLE1
 73
     1
 44
1.0
  0
MTEXT
  5
143
330
1F
100
AcDbEntity
  8
TITLE
100
AcDbMText
 10
36.7940169099
 20
0.4125551099
 30
0.0
 40
0.125
 41
0.0
 71
     2
 72
     1
  1
6
  7
SLDTEXTSTYLE1
 73
     1
 44
1.0
  0
MTEXT
  5
144
330
1F
100
AcDbEntity
  8
TITLE
100
AcDbMText
 10
36.7940169099
 20
35.7472007792
 30
0.0
 40
0.125
 41
0.0
 71
     2
 72
     1
  1
6
  7
SLDTEXTSTYLE1
 73
     1
 44
1.0
  0
MTEXT
  5
145
330
1F
100
AcDbEntity
  8
TITLE
100
AcDbMText
 10
38.7625208469
 20
0.4125551099
 30
0.0
 40
0.125
 41
0.0
 71
     2
 72
     1
  1
5
  7
SLDTEXTSTYLE1
 73
     1
 44
1.0
  0
MTEXT
  5
146
330
1F
100
AcDbEntity
  8
TITLE
100
AcDbMText
 10
38.7625208469
 20
35.7472007792
 30
0.0
 40
0.125
 41
0.0
 71
     2
 72
     1
  1
5
  7
SLDTEXTSTYLE1
 73
     1
 44
1.0
  0
MTEXT
  5
147
330
1F
100
AcDbEntity
  8
TITLE
100
AcDbMText
 10
40.7310247839
 20
0.4125551099
 30
0.0
 40
0.125
 41
0.0
 71
     2
 72
     1
  1
4
  7
SLDTEXTSTYLE1
 73
     1
 44
1.0
  0
MTEXT
  5
148
330
1F
100
AcDbEntity
  8
TITLE
100
AcDbMText
 10
40.7310247839
 20
35.7472007792
 30
0.0
 40
0.125
 41
0.0
 71
     2
 72
     1
  1
4
  7
SLDTEXTSTYLE1
 73
     1
 44
1.0
  0
MTEXT
  5
149
330
1F
100
AcDbEntity
  8
TITLE
100
AcDbMText
 10
42.6995287209
 20
0.4125551099
 30
0.0
 40
0.125
 41
0.0
 71
     2
 72
     1
  1
3
  7
SLDTEXTSTYLE1
 73
     1
 44
1.0
  0
MTEXT
  5
14A
330
1F
100
AcDbEntity
  8
TITLE
100
AcDbMText
 10
42.6995287209
 20
35.7472007792
 30
0.0
 40
0.125
 41
0.0
 71
     2
 72
     1
  1
3
  7
SLDTEXTSTYLE1
 73
     1
 44
1.0
  0
MTEXT
  5
14B
330
1F
100
AcDbEntity
  8
TITLE
100
AcDbMText
 10
44.6680326579
 20
0.4125551099
 30
0.0
 40
0.125
 41
0.0
 71
     2
 72
     1
  1
2
  7
SLDTEXTSTYLE1
 73
     1
 44
1.0
  0
MTEXT
  5
14C
330
1F
100
AcDbEntity
  8
TITLE
100
AcDbMText
 10
44.6680326579
 20
35.7472007792
 30
0.0
 40
0.125
 41
0.0
 71
     2
 72
     1
  1
2
  7
SLDTEXTSTYLE1
 73
     1
 44
1.0
  0
MTEXT
  5
14D
330
1F
100
AcDbEntity
  8
TITLE
100
AcDbMText
 10
46.5755129729
 20
0.4125551099
 30
0.0
 40
0.125
 41
0.0
 71
     2
 72
     1
  1
1
  7
SLDTEXTSTYLE1
 73
     1
 44
1.0
  0
MTEXT
  5
14E
330
1F
100
AcDbEntity
  8
TITLE
100
AcDbMText
 10
46.5755129729
 20
35.7472007792
 30
0.0
 40
0.125
 41
0.0
 71
     2
 72
     1
  1
1
  7
SLDTEXTSTYLE1
 73
     1
 44
1.0
  0
SPLINE
  5
14F
330
1F
100
AcDbEntity
  8
0
  6
SLD-Solid
 62
     7
370
    25
100
AcDbSpline
210
0.0
220
0.0
230
1.0
 70
     8
 71
     3
 72
    11
 73
     7
 74
     0
 42
0.00000001
 43
0.00000001
 40
0.0
 40
0.0
 40
0.0
 40
0.0
 40
0.1782229736024388
 40
0.4849179691827705
 40
0.7765874431301582
 40
1.0
 40
1.0
 40
1.0
 40
1.0
 10
12.20628472918915
 20
11.82192744972696
 30
0.0
 10
12.20264477766534
 20
11.82312089902288
 30
0.0
 10
12.19274101573625
 20
11.82636809548248
 30
0.0
 10
12.17622897925717
 20
11.82839373431755
 30
0.0
 10
12.15910751600153
 20
11.8291093322286
 30
0.0
 10
12.14779780495559
 20
11.82913295996067
 30
0.0
 10
12.14289231163402
 20
11.82914320829339
 30
0.0
  0
SPLINE
  5
150
330
1F
100
AcDbEntity
  8
0
  6
SLD-Solid
 62
     7
370
    25
100
AcDbSpline
210
0.0
220
0.0
230
1.0
 70
     8
 71
     3
 72
    11
 73
     7
 74
     0
 42
0.00000001
 43
0.00000001
 40
0.0
 40
0.0
 40
0.0
 40
0.0
 40
0.1487568056219355
 40
0.5443481231517775
 40
0.8716393234526094
 40
1.0
 40
1.0
 40
1.0
 40
1.0
 10
9.355061890925915
 20
11.82908055338823
 30
0.0
 10
9.351749241598077
 20
11.82908976281579
 30
0.0
 10
9.339627211706874
 20
11.82912346301918
 30
0.0
 10
9.321272064910314
 20
11.82847428945211
 30
0.0
 10
9.302930334702305
 20
11.82621372241782
 30
0.0
 10
9.293637820841885
 20
11.82276204025317
 30
0.0
 10
9.291020047435135
 20
11.82178967454945
 30
0.0
  0
SPLINE
  5
151
330
1F
100
AcDbEntity
  8
0
  6
SLD-Solid
 62
     7
370
    25
100
AcDbSpline
210
0.0
220
0.0
230
1.0
 70
     8
 71
     3
 72
    10
 73
     6
 74
     0
 42
0.00000001
 43
0.00000001
 40
0.0
 40
0.0
 40
0.0
 40
0.0
 40
0.2486207615602075
 40
0.8153085908890513
 40
0.9999999999999999
 40
0.9999999999999999
 40
0.9999999999999999
 40
0.9999999999999999
 10
12.25207830763605
 20
11.79888691962738
 30
0.0
 10
12.24857878179294
 20
11.80138483918263
 30
0.0
 10
12.23710269481608
 20
11.80957633236268
 30
0.0
 10
12.2215707944486
 20
11.81727698641524
 30
0.0
 10
12.20939333504111
 20
11.82133866884081
 30
0.0
 10
12.20640007674716
 20
11.82233704331293
 30
0.0
  0
SPLINE
  5
152
330
1F
100
AcDbEntity
  8
0
  6
SLD-Solid
 62
     7
370
    25
100
AcDbSpline
210
0.0
220
0.0
230
1.0
 70
     8
 71
     3
 72
    10
 73
     6
 74
     0
 42
0.00000001
 43
0.00000001
 40
0.0
 40
0.0
 40
0.0
 40
0.0
 40
0.2515827597258977
 40
0.8195856170664939
 40
1.0
 40
1.0
 40
1.0
 40
1.0
 10
9.290882821743567
 20
11.82233704331293
 30
0.0
 10
9.28681282302164
 20
11.82094974985032
 30
0.0
 10
9.273553916021788
 20
11.81643033933965
 30
0.0
 10
9.258215619980747
 20
11.80830885344725
 30
0.0
 10
9.247731826935427
 20
11.80071701706774
 30
0.0
 10
9.245204590854678
 20
11.79888691962738
 30
0.0
  0
LINE
  5
153
330
1F
100
AcDbEntity
  8
0
  6
SLD-Solid
 62
     7
370
    25
100
AcDbLine
 10
12.3315353212
 20
11.7388869196
 30
0.0
 11
12.2520783076
 21
11.7988869196
 31
0.0
  0
LINE
  5
154
330
1F
100
AcDbEntity
  8
0
  6
SLD-Solid
 62
     7
370
    25
100
AcDbLine
 10
9.2452045909
 20
11.7988869196
 30
0.0
 11
9.1657475773
 21
11.7388869196
 31
0.0
  0
SPLINE
  5
155
330
1F
100
AcDbEntity
  8
0
  6
SLD-Solid
 62
     7
370
    25
100
AcDbSpline
210
0.0
220
0.0
230
1.0
 70
     8
 71
     3
 72
    11
 73
     7
 74
     0
 42
0.00000001
 43
0.00000001
 40
0.0
 40
0.0
 40
0.0
 40
0.0
 40
0.130688056336985
 40
0.4489512383182379
 40
0.7510202986958774
 40
1.0
 40
1.0
 40
1.0
 40
1.0
 10
12.42025577368031
 20
11.7090836747873
 30
0.0
 10
12.41631964761521
 20
11.70917906090451
 30
0.0
 10
12.40279791716307
 20
11.70950673978077
 30
0.0
 10
12.38024341406389
 20
11.71380271984084
 30
0.0
 10
12.3544106038774
 20
11.72343450762118
 30
0.0
 10
12.33865441922922
 20
11.73407791956834
 30
0.0
 10
12.33153532121071
 20
11.73888691962738
 30
0.0
  0
SPLINE
  5
156
330
1F
100
AcDbEntity
  8
0
  6
SLD-Solid
 62
     7
370
    25
100
AcDbSpline
210
0.0
220
0.0
230
1.0
 70
     8
 71
     3
 72
    11
 73
     7
 74
     0
 42
0.00000001
 43
0.00000001
 40
0.0
 40
0.0
 40
0.0
 40
0.0
 40
0.1087000474045133
 40
0.3821425424860235
 40
0.67585178775974
 40
1.0
 40
1.0
 40
1.0
 40
1.0
 10
9.165747577280017
 20
11.73888691962738
 30
0.0
 10
9.162662394462549
 20
11.73667106915963
 30
0.0
 10
9.151816220665456
 20
11.72888109342609
 30
0.0
 10
9.13200193870556
 20
11.7189853178869
 30
0.0
 10
9.105413191082182
 20
11.71068395959231
 30
0.0
 10
9.086794892595641
 20
11.70963433968803
 30
0.0
 10
9.077027124810414
 20
11.7090836747873
 30
0.0
  0
LINE
  5
157
330
1F
100
AcDbEntity
  8
0
  6
SLD-Solid
 62
     7
370
    25
100
AcDbLine
 10
13.0465755733
 20
11.3140836748
 30
0.0
 11
13.0465755733
 21
11.6090836748
 31
0.0
  0
SPLINE
  5
158
330
1F
100
AcDbEntity
  8
0
  6
SLD-Solid
 62
     7
370
    25
100
AcDbSpline
210
0.0
220
0.0
230
1.0
 70
     8
 71
     3
 72
    15
 73
    11
 74
     0
 42
0.00000001
 43
0.00000001
 40
0.0
 40
0.0
 40
0.0
 40
0.0
 40
0.0735042174613749
 40
0.1907434298722712
 40
0.3108567319486634
 40
0.4382470715562177
 40
0.5764680198295333
 40
0.7272290963587853
 40
0.8897165473370217
 40
1.0
 40
1.0
 40
1.0
 40
1.0
 10
13.04657557334052
 20
11.6090836747873
 30
0.0
 10
13.04634748152255
 20
11.61354495404221
 30
0.0
 10
13.04575558329973
 20
11.62512197283228
 30
0.0
 10
13.0397873890597
 20
11.64331975047113
 30
0.0
 10
13.02802439628138
 20
11.66225231355457
 30
0.0
 10
13.01128603247547
 20
11.6788732765459
 30
0.0
 10
12.98995018408258
 20
11.69268741946814
 30
0.0
 10
12.96440606899719
 20
11.7029055393713
 30
0.0
 10
12.93910559470961
 20
11.70829005637646
 30
0.0
 10
12.92255886905398
 20
11.70885518768879
 30
0.0
 10
12.91586889585226
 20
11.7090836747873
 30
0.0
  0
SPLINE
  5
159
330
1F
100
AcDbEntity
  8
0
  6
SLD-Solid
 62
     7
370
    25
100
AcDbSpline
210
0.0
220
0.0
230
1.0
 70
     8
 71
     3
 72
    15
 73
    11
 74
     0
 42
0.00000001
 43
0.00000001
 40
0.0
 40
0.0
 40
0.0
 40
0.0
 40
0.0986700648210807
 40
0.2708467200069143
 40
0.435685366028218
 40
0.5728603558372201
 40
0.6990943295895452
 40
0.8168770997932038
 40
0.9407249989815712
 40
1.0
 40
1.0
 40
1.0
 40
1.0
 10
8.581414002638468
 20
11.7090836747873
 30
0.0
 10
8.57543001189544
 20
11.70889861926109
 30
0.0
 10
8.559004115467381
 20
11.7083906467328
 30
0.0
 10
8.532923917564876
 20
11.70305697994654
 30
0.0
 10
8.506122899877607
 20
11.69215850281067
 30
0.0
 10
8.484422526457237
 20
11.67758446953724
 30
0.0
 10
8.468185175072941
 20
11.66085865429484
 30
0.0
 10
8.456656332569246
 20
11.64156722164536
 30
0.0
 10
8.451321244891517
 20
11.62378693219436
 30
0.0
 10
8.450857450597276
 20
11.61267914980326
 30
0.0
 10
8.450707325150201
 20
11.6090836747873
 30
0.0
  0
LINE
  5
15A
330
1F
100
AcDbEntity
  8
0
  6
SLD-Solid
 62
     7
370
    25
100
AcDbLine
 10
8.4507073252
 20
11.6090836748
 30
0.0
 11
8.4507073252
 21
11.3140836748
 31
0.0
  0
SPLINE
  5
15B
330
1F
100
AcDbEntity
  8
0
  6
SLD-Solid
 62
     7
370
    25
100
AcDbSpline
210
0.0
220
0.0
230
1.0
 70
     8
 71
     3
 72
    18
 73
    14
 74
     0
 42
0.00000001
 43
0.00000001
 40
0.0
 40
0.0
 40
0.0
 40
0.0
 40
0.2499999999999994
 40
0.2499999999999994
 40
0.3749999999999999
 40
0.3749999999999999
 40
0.5000000000000004
 40
0.5000000000000004
 40
0.6250000000000009
 40
0.6250000000000009
 40
0.7500000000000014
 40
0.7500000000000014
 40
1.0
 40
1.0
 40
1.0
 40
1.0
 10
8.474932617608673
 20
16.71608367475708
 30
0.0
 10
8.451887815537955
 20
16.71608336258006
 30
0.0
 10
8.431531304665087
 20
16.71358853896626
 30
0.0
 10
8.40633869622379
 20
16.70670676575497
 30
0.0
 10
8.398970934893187
 20
16.70396484444878
 30
0.0
 10
8.385804011029354
 20
16.69766322161706
 30
0.0
 10
8.379982864202175
 20
16.69406735172733
 30
0.0
 10
8.369832921883237
 20
16.68607932241077
 30
0.0
 10
8.365217462491643
 20
16.68143235591953
 30
0.0
 10
8.35720840343081
 20
16.67066399704327
 30
0.0
 10
8.353744025042934
 20
16.66449429753838
 30
0.0
 10
8.34507021661992
 20
16.64246874819539
 30
0.0
 10
8.342059271478895
 20
16.62406721842137
 30
0.0
 10
8.342059271529
 20
16.60208367478735
 30
0.0
  0
LINE
  5
15C
330
1F
100
AcDbEntity
  8
0
  6
SLD-Solid
 62
     7
370
    25
100
AcDbLine
 10
8.4749345774
 20
16.7160836748
 30
0.0
 11
13.0223481909
 21
16.7160836748
 31
0.0
  0
SPLINE
  5
15D
330
1F
100
AcDbEntity
  8
0
  6
SLD-Solid
 62
     7
370
    25
100
AcDbSpline
210
0.0
220
0.0
230
1.0
 70
     8
 71
     3
 72
    22
 73
    18
 74
     0
 42
0.00000001
 43
0.00000001
 40
0.0
 40
0.0
 40
0.0
 40
0.0
 40
0.1249999999999993
 40
0.1249999999999993
 40
0.2499999999999986
 40
0.2499999999999986
 40
0.3749999999999978
 40
0.3749999999999978
 40
0.500000000000001
 40
0.500000000000001
 40
0.5625000000000027
 40
0.5625000000000027
 40
0.6250000000000042
 40
0.6250000000000042
 40
0.7500000000000036
 40
0.7500000000000036
 40
1.0
 40
1.0
 40
1.0
 40
1.0
 10
13.15522362696173
 20
16.60208367478723
 30
0.0
 10
13.15522362698891
 20
16.61306896591164
 30
0.0
 10
13.15447021021474
 20
16.62326953904811
 30
0.0
 10
13.15147133148669
 20
16.64180088417977
 30
0.0
 10
13.14917516950255
 20
16.65025657066468
 30
0.0
 10
13.14345271994594
 20
16.66463551270498
 30
0.0
 10
13.13995723090319
 20
16.67086528813382
 30
0.0
 10
13.13183452548693
 20
16.68169715452039
 30
0.0
 10
13.12741756107799
 20
16.68611047759485
 30
0.0
 10
13.1196626937632
 20
16.69220497137604
 30
0.0
 10
13.11695888196257
 20
16.69406722663148
 30
0.0
 10
13.11109490583527
 20
16.69765822078242
 30
0.0
 10
13.10798127200496
 20
16.69934471452584
 30
0.0
 10
13.09819475872115
 20
16.70400539530425
 30
0.0
 10
13.09077791490584
 20
16.70676351558086
 30
0.0
 10
13.06551858429939
 20
16.71362911865583
 30
0.0
 10
13.04540092100487
 20
16.71608351275832
 30
0.0
 10
13.02234815195554
 20
16.7160836747791
 30
0.0
  0
SPLINE
  5
15E
330
1F
100
AcDbEntity
  8
0
  6
SLD-Solid
 62
     7
370
    25
100
AcDbSpline
210
0.0
220
0.0
230
1.0
 70
     8
 71
     3
 72
    18
 73
    14
 74
     0
 42
0.00000001
 43
0.00000001
 40
0.0
 40
0.0
 40
0.0
 40
0.0
 40
0.25
 40
0.25
 40
0.375
 40
0.375
 40
0.5
 40
0.5
 40
0.625
 40
0.625
 40
0.75
 40
0.75
 40
1.0
 40
1.0
 40
1.0
 40
1.0
 10
13.02234827994157
 20
11.7180836747965
 30
0.0
 10
13.04539340229774
 20
11.71808384699287
 30
0.0
 10
13.06575019333161
 20
11.72057855438375
 30
0.0
 10
13.09094326193699
 20
11.72746026378773
 30
0.0
 10
13.09831115780009
 20
11.73020217913358
 30
0.0
 10
13.11147826418157
 20
11.73650377000746
 30
0.0
 10
13.11729953224819
 20
11.74009966299749
 30
0.0
 10
13.12744959734582
 20
11.74808766843273
 30
0.0
 10
13.13206512200281
 20
11.75273463808071
 30
0.0
 10
13.14007428749588
 20
11.76350300686187
 30
0.0
 10
13.14353870719675
 20
11.76967270597996
 30
0.0
 10
13.15221263780583
 20
11.79169833727678
 30
0.0
 10
13.15522362701153
 20
11.81009997208821
 30
0.0
 10
13.15522362696172
 20
11.83208367478739
 30
0.0
  0
LINE
  5
15F
330
1F
100
AcDbEntity
  8
0
  6
SLD-Solid
 62
     7
370
    25
100
AcDbLine
 10
13.0223483211
 20
11.7180836748
 30
0.0
 11
12.3714476097
 21
11.7180836748
 31
0.0
  0
LINE
  5
160
330
1F
100
AcDbEntity
  8
0
  6
SLD-Solid
 62
     7
370
    25
100
AcDbLine
 10
9.1262552265
 20
11.7180836748
 30
0.0
 11
8.4749347076
 21
11.7180836748
 31
0.0
  0
SPLINE
  5
161
330
1F
100
AcDbEntity
  8
0
  6
SLD-Solid
 62
     7
370
    25
100
AcDbSpline
210
0.0
220
0.0
230
1.0
 70
     8
 71
     3
 72
    22
 73
    18
 74
     0
 42
0.00000001
 43
0.00000001
 40
0.0
 40
0.0
 40
0.0
 40
0.0
 40
0.1250000000000024
 40
0.1250000000000024
 40
0.2500000000000049
 40
0.2500000000000049
 40
0.3750000000000073
 40
0.3750000000000073
 40
0.5000000000000098
 40
0.5000000000000098
 40
0.5625000000000121
 40
0.5625000000000121
 40
0.6250000000000144
 40
0.6250000000000144
 40
0.7500000000000114
 40
0.7500000000000114
 40
1.0
 40
1.0
 40
1.0
 40
1.0
 10
8.342059271529001
 20
11.83208367478734
 30
0.0
 10
8.342059271501906
 20
11.82109845911835
 30
0.0
 10
8.342812677836472
 20
11.81089795061028
 30
0.0
 10
8.345811515647922
 20
11.79236670717307
 30
0.0
 10
8.348107645416796
 20
11.78391106195531
 30
0.0
 10
8.353830026279887
 20
11.76953214641829
 30
0.0
 10
8.357325469645199
 20
11.76330238934707
 30
0.0
 10
8.365448068811569
 20
11.75247053676276
 30
0.0
 10
8.369864991373378
 20
11.7480571975472
 30
0.0
 10
8.377619738554435
 20
11.74196271775504
 30
0.0
 10
8.380323515342074
 20
11.74010045707004
 30
0.0
 10
8.386187406334118
 20
11.7365094606404
 30
0.0
 10
8.38930099705515
 20
11.73482296276472
 30
0.0
 10
8.39908738200219
 20
11.73016225923637
 30
0.0
 10
8.406504086808757
 20
11.72740413837081
 30
0.0
 10
8.431762984756965
 20
11.72053847101817
 30
0.0
 10
8.451880393173639
 20
11.71808396876758
 30
0.0
 10
8.474932846415632
 20
11.71808367481429
 30
0.0
  0
LINE
  5
162
330
1F
100
AcDbEntity
  8
0
  6
SLD-Solid
 62
     7
370
    25
100
AcDbLine
 10
13.155226723
 20
16.6020836748
 30
0.0
 11
13.155226723
 21
11.8320836748
 31
0.0
  0
LINE
  5
163
330
1F
100
AcDbEntity
  8
0
  6
SLD-Solid
 62
     7
370
    25
100
AcDbLine
 10
8.3420561755
 20
11.8320836748
 30
0.0
 11
8.3420561755
 21
16.6020836748
 31
0.0
  0
LINE
  5
164
330
1F
100
AcDbEntity
  8
0
  6
SLD-Solid
 62
     7
370
    25
100
AcDbLine
 10
7.5761414492
 20
11.2840836748
 30
0.0
 11
7.5761414492
 21
17.1500836748
 31
0.0
  0
LINE
  5
165
330
1F
100
AcDbEntity
  8
0
  6
SLD-Solid
 62
     7
370
    25
100
AcDbLine
 10
7.8261414492
 20
17.4000836748
 30
0.0
 11
13.6711414492
 21
17.4000836748
 31
0.0
  0
LINE
  5
166
330
1F
100
AcDbEntity
  8
0
  6
SLD-Solid
 62
     7
370
    25
100
AcDbLine
 10
13.9211414492
 20
17.1500836748
 30
0.0
 11
13.9211414492
 21
11.2840836748
 31
0.0
  0
LINE
  5
167
330
1F
100
AcDbEntity
  8
0
  6
SLD-Solid
 62
     7
370
    25
100
AcDbLine
 10
13.6711414492
 20
11.0340836748
 30
0.0
 11
7.8261414492
 21
11.0340836748
 31
0.0
  0
SPLINE
  5
168
330
1F
100
AcDbEntity
  8
0
  6
SLD-Solid
 62
     7
370
    25
100
AcDbSpline
210
0.0
220
0.0
230
1.0
 70
     8
 71
     3
 72
    14
 73
    10
 74
     0
 42
0.00000001
 43
0.00000001
 40
0.0
 40
0.0
 40
0.0
 40
0.0
 40
0.25
 40
0.25
 40
0.5
 40
0.5
 40
0.75
 40
0.75
 40
1.0
 40
1.0
 40
1.0
 40
1.0
 10
7.576141449245362
 20
17.1500836747873
 30
0.0
 10
7.576141449245362
 20
17.18280859826219
 30
0.0
 10
7.582648280078283
 20
17.21552064587712
 30
0.0
 10
7.607694852156797
 20
17.27598841988003
 30
0.0
 10
7.626224738645816
 20
17.30372035478103
 30
0.0
 10
7.672504769251634
 20
17.35000038538685
 30
0.0
 10
7.700236704152636
 20
17.36853027187587
 30
0.0
 10
7.760704478155542
 20
17.39357684395438
 30
0.0
 10
7.793416525770468
 20
17.4000836747873
 30
0.0
 10
7.826141449245362
 20
17.4000836747873
 30
0.0
  0
SPLINE
  5
169
330
1F
100
AcDbEntity
  8
0
  6
SLD-Solid
 62
     7
370
    25
100
AcDbSpline
210
0.0
220
0.0
230
1.0
 70
     8
 71
     3
 72
    14
 73
    10
 74
     0
 42
0.00000001
 43
0.00000001
 40
0.0
 40
0.0
 40
0.0
 40
0.0
 40
0.25
 40
0.25
 40
0.5
 40
0.5
 40
0.75
 40
0.75
 40
1.0
 40
1.0
 40
1.0
 40
1.0
 10
7.826141449245362
 20
11.0340836747873
 30
0.0
 10
7.793416525770468
 20
11.0340836747873
 30
0.0
 10
7.760704478155542
 20
11.04059050562022
 30
0.0
 10
7.700236704152636
 20
11.06563707769873
 30
0.0
 10
7.672504769251634
 20
11.08416696418775
 30
0.0
 10
7.626224738645816
 20
11.13044699479357
 30
0.0
 10
7.607694852156797
 20
11.15817892969458
 30
0.0
 10
7.582648280078283
 20
11.21864670369748
 30
0.0
 10
7.576141449245362
 20
11.25135875131241
 30
0.0
 10
7.576141449245362
 20
11.2840836747873
 30
0.0
  0
SPLINE
  5
16A
330
1F
100
AcDbEntity
  8
0
  6
SLD-Solid
 62
     7
370
    25
100
AcDbSpline
210
0.0
220
0.0
230
1.0
 70
     8
 71
     3
 72
    14
 73
    10
 74
     0
 42
0.00000001
 43
0.00000001
 40
0.0
 40
0.0
 40
0.0
 40
0.0
 40
0.25
 40
0.25
 40
0.5
 40
0.5
 40
0.75
 40
0.75
 40
1.0
 40
1.0
 40
1.0
 40
1.0
 10
13.67114144924536
 20
17.4000836747873
 30
0.0
 10
13.70386637272026
 20
17.4000836747873
 30
0.0
 10
13.73657842033518
 20
17.39357684395438
 30
0.0
 10
13.79704619433809
 20
17.36853027187587
 30
0.0
 10
13.82477812923909
 20
17.35000038538685
 30
0.0
 10
13.87105815984491
 20
17.30372035478103
 30
0.0
 10
13.88958804633393
 20
17.27598841988003
 30
0.0
 10
13.91463461841244
 20
17.21552064587712
 30
0.0
 10
13.92114144924536
 20
17.18280859826219
 30
0.0
 10
13.92114144924536
 20
17.1500836747873
 30
0.0
  0
SPLINE
  5
16B
330
1F
100
AcDbEntity
  8
0
  6
SLD-Solid
 62
     7
370
    25
100
AcDbSpline
210
0.0
220
0.0
230
1.0
 70
     8
 71
     3
 72
    14
 73
    10
 74
     0
 42
0.00000001
 43
0.00000001
 40
0.0
 40
0.0
 40
0.0
 40
0.0
 40
0.25
 40
0.25
 40
0.5
 40
0.5
 40
0.75
 40
0.75
 40
1.0
 40
1.0
 40
1.0
 40
1.0
 10
13.92114144924536
 20
11.2840836747873
 30
0.0
 10
13.92114144924536
 20
11.25135875131241
 30
0.0
 10
13.91463461841244
 20
11.21864670369748
 30
0.0
 10
13.88958804633393
 20
11.15817892969458
 30
0.0
 10
13.87105815984491
 20
11.13044699479357
 30
0.0
 10
13.82477812923909
 20
11.08416696418775
 30
0.0
 10
13.79704619433809
 20
11.06563707769873
 30
0.0
 10
13.73657842033518
 20
11.04059050562022
 30
0.0
 10
13.70386637272026
 20
11.0340836747873
 30
0.0
 10
13.67114144924536
 20
11.0340836747873
 30
0.0
  0
SPLINE
  5
16C
330
1F
100
AcDbEntity
  8
0
  6
SLD-Solid
 62
     7
370
    25
100
AcDbSpline
210
0.0
220
0.0
230
1.0
 70
    11
 71
     3
 72
    60
 73
    56
 74
     0
 42
0.00000001
 43
0.00000001
 40
0.0
 40
0.0
 40
0.0
 40
0.0
 40
0.0624999999999997
 40
0.0624999999999997
 40
0.0937499999999995
 40
0.0937499999999995
 40
0.1249999999999994
 40
0.1249999999999994
 40
0.1562499999999992
 40
0.1562499999999992
 40
0.187499999999999
 40
0.187499999999999
 40
0.2187499999999989
 40
0.2187499999999989
 40
0.2499999999999987
 40
0.2499999999999987
 40
0.2812499999999985
 40
0.2812499999999985
 40
0.3124999999999984
 40
0.3124999999999984
 40
0.3749999999999973
 40
0.3749999999999973
 40
0.4374999999999963
 40
0.4374999999999963
 40
0.4687499999999966
 40
0.4687499999999966
 40
0.4999999999999969
 40
0.4999999999999969
 40
0.5312499999999972
 40
0.5312499999999972
 40
0.5624999999999974
 40
0.5624999999999974
 40
0.5937499999999977
 40
0.5937499999999977
 40
0.6249999999999978
 40
0.6249999999999978
 40
0.656249999999998
 40
0.656249999999998
 40
0.6874999999999982
 40
0.6874999999999982
 40
0.7187499999999983
 40
0.7187499999999983
 40
0.7499999999999986
 40
0.7499999999999986
 40
0.8124999999999989
 40
0.8124999999999989
 40
0.8437499999999991
 40
0.8437499999999991
 40
0.8749999999999992
 40
0.8749999999999992
 40
0.9062499999999994
 40
0.9062499999999994
 40
0.9374999999999997
 40
0.9374999999999997
 40
1.0
 40
1.0
 40
1.0
 40
1.0
 10
10.66698427821472
 20
12.3170836747113
 30
0.0
 10
10.66698427987473
 20
12.32793207437179
 30
0.0
 10
10.66913082932691
 20
12.33868138845265
 30
0.0
 10
10.67521850456678
 20
12.35354910268585
 30
0.0
 10
10.67777251898401
 20
12.35838020420414
 30
0.0
 10
10.68368316408044
 20
12.36734506738878
 30
0.0
 10
10.68703970818802
 20
12.37150844703476
 30
0.0
 10
10.6945762469204
 20
12.37918038873297
 30
0.0
 10
10.69876614440889
 20
12.38267747670844
 30
0.0
 10
10.70760963575811
 20
12.38870627322805
 30
0.0
 10
10.71230414528508
 20
12.39128473724273
 30
0.0
 10
10.72227676758351
 20
12.39550892928517
 30
0.0
 10
10.72742757997212
 20
12.39709606260042
 30
0.0
 10
10.73791025281228
 20
12.39923089667239
 30
0.0
 10
10.74332055269207
 20
12.39978626261511
 30
0.0
 10
10.75410414293507
 20
12.39977662262487
 30
0.0
 10
10.7594263850864
 20
12.39922468911108
 30
0.0
 10
10.76993785324114
 20
12.39707451780319
 30
0.0
 10
10.77516203483907
 20
12.39545086524042
 30
0.0
 10
10.78996080023177
 20
12.38915822515636
 30
0.0
 10
10.79904372475535
 20
12.38292501052804
 30
0.0
 10
10.81402529226503
 20
12.36764238484122
 30
0.0
 10
10.82007280239326
 20
12.35843994255559
 30
0.0
 10
10.82614825981995
 20
12.34356163141694
 30
0.0
 10
10.82771095480683
 20
12.33832379748067
 30
0.0
 10
10.82977517722686
 20
12.327788681747
 30
0.0
 10
10.83029852765426
 20
12.32246589905301
 30
0.0
 10
10.8302987121923
 20
12.31170673417594
 30
0.0
 10
10.82976088125203
 20
12.30627865601834
 30
0.0
 10
10.82769170390816
 20
12.29577519551737
 30
0.0
 10
10.82616334169394
 20
12.29063873080154
 30
0.0
 10
10.82206457603076
 20
12.28060905750351
 30
0.0
 10
10.81954595604473
 20
12.27585170458661
 30
0.0
 10
10.81366636332274
 20
12.26691250154691
 30
0.0
 10
10.81026118985053
 20
12.26267824481468
 30
0.0
 10
10.80270390467686
 20
12.25498314236611
 30
0.0
 10
10.79859815529212
 20
12.25155291494371
 30
0.0
 10
10.78974936488624
 20
12.24550550430256
 30
0.0
 10
10.78495288614849
 20
12.24287345470304
 30
0.0
 10
10.77507782400774
 20
12.23868699327793
 30
0.0
 10
10.76997126456275
 20
12.23710068039959
 30
0.0
 10
10.75942049047209
 20
12.23494066320471
 30
0.0
 10
10.75400228703153
 20
12.23438683948802
 30
0.0
 10
10.73795700944925
 20
12.23438395426335
 30
0.0
 10
10.72715017521838
 20
12.23659400927288
 30
0.0
 10
10.7123564269058
 20
12.24286057867047
 30
0.0
 10
10.707565210117
 20
12.24548554045938
 30
0.0
 10
10.69869033357659
 20
12.25154729000006
 30
0.0
 10
10.69458417865729
 20
12.25497961170683
 30
0.0
 10
10.68704178693326
 20
12.26265607263138
 30
0.0
 10
10.68362235074629
 20
12.2669044854208
 30
0.0
 10
10.6777381870657
 20
12.27584932506677
 30
0.0
 10
10.67522923723311
 20
12.28058658340723
 30
0.0
 10
10.66907355681947
 20
12.29563677629036
 30
0.0
 10
10.6669842765547
 20
12.30623527505081
 30
0.0
 10
10.66698427821472
 20
12.3170836747113
 30
0.0
  0
SPLINE
  5
16D
330
1F
100
AcDbEntity
  8
0
  6
SLD-Solid
 62
     7
370
    25
100
AcDbSpline
210
0.0
220
0.0
230
1.0
 70
    11
 71
     3
 72
    60
 73
    56
 74
     0
 42
0.00000001
 43
0.00000001
 40
0.0
 40
0.0
 40
0.0
 40
0.0
 40
0.0624999999999994
 40
0.0624999999999994
 40
0.0937499999999991
 40
0.0937499999999991
 40
0.1249999999999988
 40
0.1249999999999988
 40
0.1562499999999984
 40
0.1562499999999984
 40
0.1874999999999981
 40
0.1874999999999981
 40
0.2187499999999978
 40
0.2187499999999978
 40
0.2499999999999976
 40
0.2499999999999976
 40
0.2812499999999973
 40
0.2812499999999973
 40
0.3124999999999969
 40
0.3124999999999969
 40
0.3749999999999957
 40
0.3749999999999957
 40
0.4374999999999945
 40
0.4374999999999945
 40
0.4687499999999946
 40
0.4687499999999946
 40
0.4999999999999947
 40
0.4999999999999947
 40
0.5312499999999948
 40
0.5312499999999948
 40
0.5624999999999949
 40
0.5624999999999949
 40
0.593749999999995
 40
0.593749999999995
 40
0.6249999999999951
 40
0.6249999999999951
 40
0.6562499999999953
 40
0.6562499999999953
 40
0.6874999999999954
 40
0.6874999999999954
 40
0.7187499999999956
 40
0.7187499999999956
 40
0.7499999999999957
 40
0.7499999999999957
 40
0.8124999999999959
 40
0.8124999999999959
 40
0.8437499999999963
 40
0.8437499999999963
 40
0.8749999999999968
 40
0.8749999999999968
 40
0.9062499999999973
 40
0.9062499999999973
 40
0.9374999999999978
 40
0.9374999999999978
 40
1.0
 40
1.0
 40
1.0
 40
1.0
 10
10.66698427821472
 20
16.1170836747113
 30
0.0
 10
10.66698427987473
 20
16.12793207437179
 30
0.0
 10
10.66913082932691
 20
16.13868138845264
 30
0.0
 10
10.67521850456678
 20
16.15354910268584
 30
0.0
 10
10.67777251898401
 20
16.15838020420414
 30
0.0
 10
10.68368316408044
 20
16.16734506738878
 30
0.0
 10
10.68703970818802
 20
16.17150844703476
 30
0.0
 10
10.69457624692039
 20
16.17918038873297
 30
0.0
 10
10.69876614440889
 20
16.18267747670845
 30
0.0
 10
10.70760963575811
 20
16.18870627322805
 30
0.0
 10
10.71230414528507
 20
16.19128473724273
 30
0.0
 10
10.7222767675835
 20
16.19550892928517
 30
0.0
 10
10.72742757997212
 20
16.19709606260042
 30
0.0
 10
10.73791025281228
 20
16.19923089667239
 30
0.0
 10
10.74332055269207
 20
16.19978626261511
 30
0.0
 10
10.75410414293507
 20
16.19977662262487
 30
0.0
 10
10.7594263850864
 20
16.19922468911108
 30
0.0
 10
10.76993785324114
 20
16.19707451780318
 30
0.0
 10
10.77516203483907
 20
16.19545086524042
 30
0.0
 10
10.78996080023177
 20
16.18915822515637
 30
0.0
 10
10.79904372475535
 20
16.18292501052803
 30
0.0
 10
10.81402529226503
 20
16.16764238484123
 30
0.0
 10
10.82007280239326
 20
16.15843994255559
 30
0.0
 10
10.82614825981995
 20
16.14356163141694
 30
0.0
 10
10.82771095480683
 20
16.13832379748067
 30
0.0
 10
10.82977517722686
 20
16.12778868174701
 30
0.0
 10
10.83029852765426
 20
16.12246589905302
 30
0.0
 10
10.8302987121923
 20
16.11170673417594
 30
0.0
 10
10.82976088125203
 20
16.10627865601834
 30
0.0
 10
10.82769170390816
 20
16.09577519551737
 30
0.0
 10
10.82616334169394
 20
16.09063873080154
 30
0.0
 10
10.82206457603076
 20
16.08060905750352
 30
0.0
 10
10.81954595604473
 20
16.07585170458662
 30
0.0
 10
10.81366636332275
 20
16.06691250154691
 30
0.0
 10
10.81026118985053
 20
16.06267824481469
 30
0.0
 10
10.80270390467686
 20
16.05498314236612
 30
0.0
 10
10.79859815529213
 20
16.05155291494372
 30
0.0
 10
10.78974936488624
 20
16.04550550430256
 30
0.0
 10
10.78495288614849
 20
16.04287345470304
 30
0.0
 10
10.77507782400774
 20
16.03868699327793
 30
0.0
 10
10.76997126456276
 20
16.03710068039959
 30
0.0
 10
10.7594204904721
 20
16.03494066320471
 30
0.0
 10
10.75400228703154
 20
16.03438683948802
 30
0.0
 10
10.73795700944926
 20
16.03438395426334
 30
0.0
 10
10.72715017521839
 20
16.03659400927289
 30
0.0
 10
10.71235642690581
 20
16.04286057867047
 30
0.0
 10
10.707565210117
 20
16.04548554045937
 30
0.0
 10
10.69869033357659
 20
16.05154729000006
 30
0.0
 10
10.69458417865729
 20
16.05497961170683
 30
0.0
 10
10.68704178693327
 20
16.06265607263138
 30
0.0
 10
10.6836223507463
 20
16.0669044854208
 30
0.0
 10
10.6777381870657
 20
16.07584932506677
 30
0.0
 10
10.67522923723311
 20
16.08058658340723
 30
0.0
 10
10.66907355681947
 20
16.09563677629036
 30
0.0
 10
10.6669842765547
 20
16.1062352750508
 30
0.0
 10
10.66698427821472
 20
16.1170836747113
 30
0.0
  0
LINE
  5
16E
330
1F
100
AcDbEntity
  8
0
  6
SLD-Solid
 62
     7
370
    25
100
AcDbLine
 10
9.3560729038
 20
11.3140836748
 30
0.0
 11
9.2496463254
 21
11.3140836748
 31
0.0
  0
LINE
  5
16F
330
1F
100
AcDbEntity
  8
0
  6
SLD-Solid
 62
     7
370
    25
100
AcDbLine
 10
9.3560729038
 20
11.3140836748
 30
0.0
 11
12.1412099947
 21
11.3140836748
 31
0.0
  0
LINE
  5
170
330
1F
100
AcDbEntity
  8
0
  6
SLD-Solid
 62
     7
370
    25
100
AcDbLine
 10
12.2476365731
 20
11.3140836748
 30
0.0
 11
12.1412099947
 21
11.3140836748
 31
0.0
  0
LINE
  5
171
330
1F
100
AcDbEntity
  8
0
  6
SLD-Solid
 62
     7
370
    25
100
AcDbLine
 10
12.1412099947
 20
11.8290836748
 30
0.0
 11
9.3560729038
 21
11.8290836748
 31
0.0
  0
LINE
  5
172
330
1F
100
AcDbEntity
  8
0
  6
SLD-Solid
 62
     7
370
    25
100
AcDbLine
 10
12.2476365731
 20
11.3140836748
 30
0.0
 11
13.0393133364
 21
11.3140836748
 31
0.0
  0
LINE
  5
173
330
1F
100
AcDbEntity
  8
0
  6
SLD-Solid
 62
     7
370
    25
100
AcDbLine
 10
8.4579695621
 20
11.3140836748
 30
0.0
 11
9.2496463254
 21
11.3140836748
 31
0.0
  0
LINE
  5
174
330
1F
100
AcDbEntity
  8
0
  6
SLD-Solid
 62
     7
370
    25
100
AcDbLine
 10
8.5814140026
 20
11.7090836748
 30
0.0
 11
9.0770271248
 21
11.7090836748
 31
0.0
  0
LINE
  5
175
330
1F
100
AcDbEntity
  8
0
  6
SLD-Solid
 62
     7
370
    25
100
AcDbLine
 10
12.4202557737
 20
11.7090836748
 30
0.0
 11
12.9158688959
 21
11.7090836748
 31
0.0
  0
LINE
  5
176
330
1F
100
AcDbEntity
  8
0
  6
SLD-Solid
 62
     7
370
    25
100
AcDbLine
 10
13.0465755733
 20
11.3140836748
 30
0.0
 11
13.0393133364
 21
11.3140836748
 31
0.0
  0
LINE
  5
177
330
1F
100
AcDbEntity
  8
0
  6
SLD-Solid
 62
     7
370
    25
100
AcDbLine
 10
8.4579695621
 20
11.3140836748
 30
0.0
 11
8.4507073252
 21
11.3140836748
 31
0.0
  0
LINE
  5
178
330
1F
100
AcDbEntity
  8
0
  6
SLD-Solid
 62
     8
370
    25
100
AcDbLine
 10
13.0393133364
 20
11.6090836748
 30
0.0
 11
13.0465755733
 21
11.6090836748
 31
0.0
  0
DIMENSION
  5
179
330
1F
100
AcDbEntity
  8
DIMS
100
AcDbDimension
  2
_D
 10
7.5761414492
 20
18.2668004071
 30
0.0
 11
10.7486414492
 21
18.2668004071
 31
0.0
 70
   160
  1
<>
 71
     2
 42
-1.0
  3
SLDDIMSTYLE0
100
AcDbAlignedDimension
 13
13.9211414492
 23
17.1500836748
 33
0.0
 14
7.5761414492
 24
17.1500836748
 34
0.0
100
AcDbRotatedDimension
  0
DIMENSION
  5
18F
330
1F
100
AcDbEntity
  8
DIMS
100
AcDbDimension
  2
_D_1
 10
14.7309121006
 20
17.4000836748
 30
0.0
 11
14.7309121006
 21
15.3194288417
 31
0.0
 70
   160
  1
<>
 71
     2
 42
-1.0
  3
SLDDIMSTYLE0
100
AcDbAlignedDimension
 13
13.6711414492
 23
11.0340836748
 33
0.0
 14
13.6711414492
 24
17.4000836748
 34
0.0
 50
90.0
100
AcDbRotatedDimension
  0
MTEXT
  5
19E
330
1F
100
AcDbEntity
  8
NOTES
100
AcDbMText
 10
9.1149611483
 20
10.1188725007
 30
0.0
 40
0.5
 41
0.0
 71
     1
 72
     1
  1
Front view
  7
SLDTEXTSTYLE1
 73
     1
 44
1.0
  0
SPLINE
  5
19F
330
1F
100
AcDbEntity
  8
0
  6
SLD-Solid
 62
     7
370
    25
100
AcDbSpline
210
0.0
220
0.0
230
1.0
 70
     8
 71
     3
 72
    13
 73
     9
 74
     0
 42
0.00000001
 43
0.00000001
 40
0.0
 40
0.0
 40
0.0
 40
0.0
 40
0.2731773087984956
 40
0.3898787062739979
 40
0.499999999999998
 40
0.6101212937260002
 40
0.7268226912015057
 40
0.9999999999999999
 40
0.9999999999999999
 40
0.9999999999999999
 40
0.9999999999999999
 10
24.37798492459206
 20
11.6820836747873
 30
0.0
 10
24.40031381316043
 20
11.68336637138576
 30
0.0
 10
24.43218160710664
 20
11.68519703621128
 30
0.0
 10
24.46949348910137
 20
11.7019822954223
 30
0.0
 10
24.49130785232559
 20
11.71876074705377
 30
0.0
 10
24.50808630395706
 20
11.74057511027799
 30
0.0
 10
24.52487156316808
 20
11.77788699227272
 30
0.0
 10
24.5267022279936
 20
11.80975478621893
 30
0.0
 10
24.52798492459206
 20
11.8320836747873
 30
0.0
  0
SPLINE
  5
1A0
330
1F
100
AcDbEntity
  8
0
  6
SLD-Solid
 62
     7
370
    25
100
AcDbSpline
210
0.0
220
0.0
230
1.0
 70
     8
 71
     3
 72
    13
 73
     9
 74
     0
 42
0.00000001
 43
0.00000001
 40
0.0
 40
0.0
 40
0.0
 40
0.0
 40
0.2731773087984919
 40
0.3898787062739998
 40
0.5000000000000001
 40
0.6101212937260017
 40
0.7268226912015042
 40
1.0
 40
1.0
 40
1.0
 40
1.0
 10
24.52798492459206
 20
16.6020836747873
 30
0.0
 10
24.5267022279936
 20
16.62441256335567
 30
0.0
 10
24.52487156316808
 20
16.65628035730188
 30
0.0
 10
24.50808630395706
 20
16.69359223929661
 30
0.0
 10
24.49130785232559
 20
16.71540660252083
 30
0.0
 10
24.46949348910137
 20
16.7321850541523
 30
0.0
 10
24.43218160710664
 20
16.74897031336332
 30
0.0
 10
24.40031381316043
 20
16.75080097818884
 30
0.0
 10
24.37798492459206
 20
16.7520836747873
 30
0.0
  0
LINE
  5
1A1
330
1F
100
AcDbEntity
  8
0
  6
SLD-Solid
 62
     7
370
    25
100
AcDbLine
 10
24.5279849246
 20
16.3641997632
 30
0.0
 11
24.5279849246
 21
16.6020836748
 31
0.0
  0
LINE
  5
1A2
330
1F
100
AcDbEntity
  8
0
  6
SLD-Solid
 62
     7
370
    25
100
AcDbLine
 10
24.5279849246
 20
12.5641997632
 30
0.0
 11
24.5279849246
 21
15.869959462
 31
0.0
  0
LINE
  5
1A3
330
1F
100
AcDbEntity
  8
0
  6
SLD-Solid
 62
     7
370
    25
100
AcDbLine
 10
24.5279849246
 20
11.8320836748
 30
0.0
 11
24.5279849246
 21
12.069959462
 31
0.0
  0
SPLINE
  5
1A4
330
1F
100
AcDbEntity
  8
0
  6
SLD-Solid
 62
     7
370
    25
100
AcDbSpline
210
0.0
220
0.0
230
1.0
 70
     8
 71
     3
 72
    13
 73
     9
 74
     0
 42
0.00000001
 43
0.00000001
 40
0.0
 40
0.0
 40
0.0
 40
0.0
 40
0.0433380011996173
 40
0.1391770479916628
 40
0.5000000000311595
 40
0.8608229520626137
 40
0.9566619988390124
 40
1.0
 40
1.0
 40
1.0
 40
1.0
 10
24.52798492458994
 20
12.06995355663573
 30
0.0
 10
24.52805176143261
 20
12.07044646911827
 30
0.0
 10
24.5282664034143
 20
12.07202942408479
 30
0.0
 10
24.52991829988495
 20
12.07753776452964
 30
0.0
 10
24.5328721799484
 20
12.08642921290036
 30
0.0
 10
24.5363437542808
 20
12.095131593795
 30
0.0
 10
24.53863058108411
 20
12.10040805089833
 30
0.0
 10
24.53948661510316
 20
12.10175676264254
 30
0.0
 10
24.53975317344638
 20
12.10217673469973
 30
0.0
  0
SPLINE
  5
1A5
330
1F
100
AcDbEntity
  8
0
  6
SLD-Solid
 62
     7
370
    25
100
AcDbSpline
210
0.0
220
0.0
230
1.0
 70
     8
 71
     3
 72
    13
 73
     9
 74
     0
 42
0.00000001
 43
0.00000001
 40
0.0
 40
0.0
 40
0.0
 40
0.0
 40
0.0433380012809835
 40
0.1391770481009537
 40
0.5000000000956746
 40
0.8608229519956209
 40
0.9566619987452056
 40
0.9999999999999999
 40
0.9999999999999999
 40
0.9999999999999999
 40
0.9999999999999999
 10
24.53975317347297
 20
12.53199061482418
 30
0.0
 10
24.53948661512938
 20
12.53241058687766
 30
0.0
 10
24.53863058111048
 20
12.5337592986078
 30
0.0
 10
24.53634375430028
 20
12.53903575567914
 30
0.0
 10
24.53287217996204
 20
12.5477381365153
 30
0.0
 10
24.52991829989042
 20
12.55662958482567
 30
0.0
 10
24.52826640341439
 20
12.56213792523817
 30
0.0
 10
24.52805176143161
 20
12.56372088018824
 30
0.0
 10
24.52798492458852
 20
12.56421379266624
 30
0.0
  0
SPLINE
  5
1A6
330
1F
100
AcDbEntity
  8
0
  6
SLD-Solid
 62
     7
370
    25
100
AcDbSpline
210
0.0
220
0.0
230
1.0
 70
     8
 71
     3
 72
    13
 73
     9
 74
     0
 42
0.00000001
 43
0.00000001
 40
0.0
 40
0.0
 40
0.0
 40
0.0
 40
0.0433380011996062
 40
0.1391770479916518
 40
0.5000000000311614
 40
0.8608229520625907
 40
0.9566619988390309
 40
1.0
 40
1.0
 40
1.0
 40
1.0
 10
24.52798492458994
 20
15.86995355663573
 30
0.0
 10
24.52805176143261
 20
15.87044646911827
 30
0.0
 10
24.5282664034143
 20
15.87202942408479
 30
0.0
 10
24.52991829988495
 20
15.87753776452964
 30
0.0
 10
24.5328721799484
 20
15.88642921290035
 30
0.0
 10
24.5363437542808
 20
15.895131593795
 30
0.0
 10
24.53863058108411
 20
15.90040805089833
 30
0.0
 10
24.53948661510316
 20
15.90175676264254
 30
0.0
 10
24.53975317344638
 20
15.90217673469973
 30
0.0
  0
SPLINE
  5
1A7
330
1F
100
AcDbEntity
  8
0
  6
SLD-Solid
 62
     7
370
    25
100
AcDbSpline
210
0.0
220
0.0
230
1.0
 70
     8
 71
     3
 72
    13
 73
     9
 74
     0
 42
0.00000001
 43
0.00000001
 40
0.0
 40
0.0
 40
0.0
 40
0.0
 40
0.0433380012810096
 40
0.1391770481009436
 40
0.5000000000956815
 40
0.8608229519956461
 40
0.9566619987452236
 40
0.9999999999999999
 40
0.9999999999999999
 40
0.9999999999999999
 40
0.9999999999999999
 10
24.53975317347298
 20
16.33199061482417
 30
0.0
 10
24.53948661512938
 20
16.33241058687766
 30
0.0
 10
24.53863058111048
 20
16.3337592986078
 30
0.0
 10
24.53634375430028
 20
16.33903575567913
 30
0.0
 10
24.53287217996204
 20
16.34773813651529
 30
0.0
 10
24.52991829989041
 20
16.35662958482567
 30
0.0
 10
24.52826640341439
 20
16.36213792523817
 30
0.0
 10
24.52805176143161
 20
16.36372088018823
 30
0.0
 10
24.52798492458852
 20
16.36421379266623
 30
0.0
  0
SPLINE
  5
1A8
330
1F
100
AcDbEntity
  8
0
  6
SLD-Solid
 62
     7
370
    25
100
AcDbSpline
210
0.0
220
0.0
230
1.0
 70
     8
 71
     3
 72
    14
 73
    10
 74
     0
 42
0.00000001
 43
0.00000001
 40
0.0
 40
0.0
 40
0.0
 40
0.0
 40
0.1463474611577911
 40
0.3630334546828117
 40
0.6035926869186004
 40
0.7608211025747732
 40
0.879051001278844
 40
0.9563408230018148
 40
1.0
 40
1.0
 40
1.0
 40
1.0
 10
24.53842273703199
 20
15.90062736002911
 30
0.0
 10
24.54299657107748
 20
15.90646204431311
 30
0.0
 10
24.55434254702776
 20
15.92093571933176
 30
0.0
 10
24.5702078047169
 20
15.94712780110709
 30
0.0
 10
24.58512020222059
 20
15.97441943937442
 30
0.0
 10
24.59638349183811
 20
15.99802890864003
 30
0.0
 10
24.60300875774537
 20
16.01458413804322
 30
0.0
 10
24.60701869988058
 20
16.02609165674929
 30
0.0
 10
24.60772865192812
 20
16.03218602412334
 30
0.0
 10
24.60798492459206
 20
16.03438591884499
 30
0.0
  0
SPLINE
  5
1A9
330
1F
100
AcDbEntity
  8
0
  6
SLD-Solid
 62
     7
370
    25
100
AcDbSpline
210
0.0
220
0.0
230
1.0
 70
     8
 71
     3
 72
    13
 73
     9
 74
     0
 42
0.00000001
 43
0.00000001
 40
0.0
 40
0.0
 40
0.0
 40
0.0
 40
0.0436633613024753
 40
0.174726583311912
 40
0.3963490270472034
 40
0.6369315588829058
 40
0.8536385007346682
 40
0.9999999999999999
 40
0.9999999999999999
 40
0.9999999999999999
 40
0.9999999999999999
 10
24.60798492459206
 20
16.19978146825013
 30
0.0
 10
24.60771858564456
 20
16.2019798506047
 30
0.0
 10
24.6066527837248
 20
16.2107770624127
 30
0.0
 10
24.59909470566291
 20
16.22959463721602
 30
0.0
 10
24.5867897066183
 20
16.25689751875113
 30
0.0
 10
24.5701810925361
 20
16.28703739361588
 30
0.0
 10
24.5543465814268
 20
16.31323194784937
 30
0.0
 10
24.54299772878526
 20
16.32770539859384
 30
0.0
 10
24.53842273713233
 20
16.33353998984607
 30
0.0
  0
SPLINE
  5
1AA
330
1F
100
AcDbEntity
  8
0
  6
SLD-Solid
 62
     7
370
    25
100
AcDbSpline
210
0.0
220
0.0
230
1.0
 70
     8
 71
     3
 72
    14
 73
    10
 74
     0
 42
0.00000001
 43
0.00000001
 40
0.0
 40
0.0
 40
0.0
 40
0.0
 40
0.1463474611580117
 40
0.3630334546831292
 40
0.6035926869188549
 40
0.7608211025749252
 40
0.8790510012789113
 40
0.9563408230018294
 40
1.0
 40
1.0
 40
1.0
 40
1.0
 10
24.53842273703203
 20
12.10062736002915
 30
0.0
 10
24.54299657107752
 20
12.10646204431316
 30
0.0
 10
24.5543425470278
 20
12.12093571933183
 30
0.0
 10
24.57020780471694
 20
12.14712780110716
 30
0.0
 10
24.58512020222062
 20
12.17441943937448
 30
0.0
 10
24.59638349183813
 20
12.19802890864007
 30
0.0
 10
24.60300875774538
 20
12.21458413804324
 30
0.0
 10
24.60701869988058
 20
12.2260916567493
 30
0.0
 10
24.60772865192812
 20
12.23218602412334
 30
0.0
 10
24.60798492459206
 20
12.23438591884499
 30
0.0
  0
SPLINE
  5
1AB
330
1F
100
AcDbEntity
  8
0
  6
SLD-Solid
 62
     7
370
    25
100
AcDbSpline
210
0.0
220
0.0
230
1.0
 70
     8
 71
     3
 72
    13
 73
     9
 74
     0
 42
0.00000001
 43
0.00000001
 40
0.0
 40
0.0
 40
0.0
 40
0.0
 40
0.0436633613024576
 40
0.1747265833118056
 40
0.3963490270469546
 40
0.6369315588825907
 40
0.85363850073445
 40
0.9999999999999999
 40
0.9999999999999999
 40
0.9999999999999999
 40
0.9999999999999999
 10
24.60798492459206
 20
12.39978146825013
 30
0.0
 10
24.60771858564456
 20
12.40197985060469
 30
0.0
 10
24.6066527837248
 20
12.41077706241269
 30
0.0
 10
24.59909470566292
 20
12.42959463721599
 30
0.0
 10
24.58678970661833
 20
12.45689751875108
 30
0.0
 10
24.57018109253614
 20
12.48703739361582
 30
0.0
 10
24.55434658142683
 20
12.51323194784931
 30
0.0
 10
24.54299772878531
 20
12.52770539859379
 30
0.0
 10
24.53842273713236
 20
12.53353998984603
 30
0.0
  0
SPLINE
  5
1AC
330
1F
100
AcDbEntity
  8
0
  6
SLD-Solid
 62
     7
370
    25
100
AcDbSpline
210
0.0
220
0.0
230
1.0
 70
     8
 71
     3
 72
     9
 73
     5
 74
     0
 42
0.00000001
 43
0.00000001
 40
0.0
 40
0.0
 40
0.0
 40
0.0
 40
0.5562696857524181
 40
1.0
 40
1.0
 40
1.0
 40
1.0
 10
21.90371609595233
 20
11.82876767730653
 30
0.0
 10
21.90283762756402
 20
11.82882480937896
 30
0.0
 10
21.90125841443987
 20
11.82892751508789
 30
0.0
 10
21.89991397997143
 20
11.8289979708224
 30
0.0
 10
21.89931741364227
 20
11.82902923416761
 30
0.0
  0
LINE
  5
1AD
330
1F
100
AcDbEntity
  8
0
  6
SLD-Solid
 62
     7
370
    25
100
AcDbLine
 10
22.8379849246
 20
17.4000836748
 30
0.0
 11
22.8379849246
 21
17.1500836748
 31
0.0
  0
LINE
  5
1AE
330
1F
100
AcDbEntity
  8
0
  6
SLD-Solid
 62
     7
370
    25
100
AcDbLine
 10
22.7929849246
 20
17.4000836748
 30
0.0
 11
22.8379849246
 21
17.4000836748
 31
0.0
  0
LINE
  5
1AF
330
1F
100
AcDbEntity
  8
0
  6
SLD-Solid
 62
     7
370
    25
100
AcDbLine
 10
22.8379849246
 20
11.2840836748
 30
0.0
 11
22.8379849246
 21
17.1500836748
 31
0.0
  0
LINE
  5
1B0
330
1F
100
AcDbEntity
  8
0
  6
SLD-Solid
 62
     7
370
    25
100
AcDbLine
 10
22.6779849246
 20
11.2840836748
 30
0.0
 11
22.6779849246
 21
17.1500836748
 31
0.0
  0
LINE
  5
1B1
330
1F
100
AcDbEntity
  8
0
  6
SLD-Solid
 62
     7
370
    25
100
AcDbLine
 10
22.8379849246
 20
11.2840836748
 30
0.0
 11
22.8379849246
 21
11.0340836748
 31
0.0
  0
LINE
  5
1B2
330
1F
100
AcDbEntity
  8
0
  6
SLD-Solid
 62
     7
370
    25
100
AcDbLine
 10
22.8379849246
 20
11.0340836748
 30
0.0
 11
22.7929849246
 21
11.0340836748
 31
0.0
  0
SPLINE
  5
1B3
330
1F
100
AcDbEntity
  8
0
  6
SLD-Solid
 62
     7
370
    25
100
AcDbSpline
210
0.0
220
0.0
230
1.0
 70
    24
 71
     3
 72
    19
 73
    15
 74
     0
 42
0.00000001
 43
0.00000001
 40
0.0
 40
0.0
 40
0.0
 40
0.0
 40
0.0503097936165601
 40
0.1001723975050924
 40
0.1498989116825602
 40
0.1998029813646347
 40
0.2501949364995323
 40
0.3749952946635224
 40
0.5000541502154763
 40
0.6248544864983295
 40
0.7499133648132966
 40
0.8334607406204309
 40
0.916338264249542
 40
1.0
 40
1.0
 40
1.0
 40
1.0
 10
22.67798492459206
 20
17.1500836747873
 30
0.0
 10
22.67798492459206
 20
17.15139988133572
 30
0.0
 10
22.67798492459206
 20
17.15402059503954
 30
0.0
 10
22.67798492459206
 20
17.15791862774711
 30
0.0
 10
22.67798492459206
 20
17.16175749092226
 30
0.0
 10
22.67798492459206
 20
17.16553711024234
 30
0.0
 10
22.67798492459206
 20
17.17106303577745
 30
0.0
 10
22.67798492459206
 20
17.17805018609976
 30
0.0
 10
22.67798492459206
 20
17.18565558319275
 30
0.0
 10
22.67798492459206
 20
17.19193761683502
 30
0.0
 10
22.67798492459206
 20
17.19605874054617
 30
0.0
 10
22.67798492459206
 20
17.1985178629849
 30
0.0
 10
22.67798492459206
 20
17.1998442043429
 30
0.0
 10
22.67798492459206
 20
17.20000360111282
 30
0.0
 10
22.67798492459206
 20
17.2000836747873
 30
0.0
  0
SPLINE
  5
1B4
330
1F
100
AcDbEntity
  8
0
  6
SLD-Solid
 62
     7
370
    25
100
AcDbSpline
210
0.0
220
0.0
230
1.0
 70
     8
 71
     3
 72
    16
 73
    12
 74
     0
 42
0.00000001
 43
0.00000001
 40
0.0
 40
0.0
 40
0.0
 40
0.0
 40
0.2499999999999989
 40
0.2499999999999989
 40
0.4999999999999978
 40
0.4999999999999978
 40
0.6249999999999972
 40
0.6249999999999972
 40
0.7499999999999967
 40
0.7499999999999967
 40
1.0
 40
1.0
 40
1.0
 40
1.0
 10
22.67798492459206
 20
17.2000836747873
 30
0.0
 10
22.67798492459206
 20
17.22365390082685
 30
0.0
 10
22.68045497955561
 20
17.2490832266229
 30
0.0
 10
22.69166356038415
 20
17.29832200677645
 30
0.0
 10
22.70044007136776
 20
17.32197881643705
 30
0.0
 10
22.71728143144953
 20
17.35126813831839
 30
0.0
 10
22.72348131772363
 20
17.3600075461655
 30
0.0
 10
22.73663028818191
 20
17.37495800789656
 30
0.0
 10
22.74357595834537
 20
17.38116803898738
 30
0.0
 10
22.76481018228659
 20
17.3957879270246
 30
0.0
 10
22.77943204461932
 20
17.4000836747873
 30
0.0
 10
22.79298492459206
 20
17.4000836747873
 30
0.0
  0
SPLINE
  5
1B5
330
1F
100
AcDbEntity
  8
0
  6
SLD-Solid
 62
     7
370
    25
100
AcDbSpline
210
0.0
220
0.0
230
1.0
 70
    24
 71
     3
 72
    19
 73
    15
 74
     0
 42
0.00000001
 43
0.00000001
 40
0.0
 40
0.0
 40
0.0
 40
0.0
 40
0.0503097936173523
 40
0.1001723975062787
 40
0.149898911683751
 40
0.1998029813654379
 40
0.2501949364995875
 40
0.3749952946647588
 40
0.5000541502154799
 40
0.6248544864974585
 40
0.7499133648132615
 40
0.833460740619656
 40
0.9163382642487794
 40
1.0
 40
1.0
 40
1.0
 40
1.0
 10
22.67798492459206
 20
11.2340836747873
 30
0.0
 10
22.67798492459206
 20
11.23411262915405
 30
0.0
 10
22.67798492459206
 20
11.23417028052027
 30
0.0
 10
22.67798492459206
 20
11.23464440790095
 30
0.0
 10
22.67798492459206
 20
11.23540348049609
 30
0.0
 10
22.67798492459206
 20
11.2364751169365
 30
0.0
 10
22.67798492459206
 20
11.23851722517051
 30
0.0
 10
22.67798492459206
 20
11.24222545074766
 30
0.0
 10
22.67798492459206
 20
11.24850220942897
 30
0.0
 10
22.67798492459206
 20
11.25611177932537
 30
0.0
 10
22.67798492459206
 20
11.26386791674775
 30
0.0
 10
22.67798492459206
 20
11.27109936480948
 30
0.0
 10
22.67798492459206
 20
11.27753469761047
 30
0.0
 10
22.67798492459206
 20
11.28189384017965
 30
0.0
 10
22.67798492459206
 20
11.2840836747873
 30
0.0
  0
SPLINE
  5
1B6
330
1F
100
AcDbEntity
  8
0
  6
SLD-Solid
 62
     7
370
    25
100
AcDbSpline
210
0.0
220
0.0
230
1.0
 70
     8
 71
     3
 72
    16
 73
    12
 74
     0
 42
0.00000001
 43
0.00000001
 40
0.0
 40
0.0
 40
0.0
 40
0.0
 40
0.2499999999999988
 40
0.2499999999999988
 40
0.4999999999999977
 40
0.4999999999999977
 40
0.6249999999999971
 40
0.6249999999999971
 40
0.7499999999999966
 40
0.7499999999999966
 40
1.0
 40
1.0
 40
1.0
 40
1.0
 10
22.67798492459206
 20
11.2340836747873
 30
0.0
 10
22.67798492459206
 20
11.21051344874775
 30
0.0
 10
22.68045497955561
 20
11.1850841229517
 30
0.0
 10
22.69166356038415
 20
11.13584534279815
 30
0.0
 10
22.70044007136776
 20
11.11218853313755
 30
0.0
 10
22.71728143144953
 20
11.08289921125621
 30
0.0
 10
22.72348131772363
 20
11.0741598034091
 30
0.0
 10
22.73663028818191
 20
11.05920934167803
 30
0.0
 10
22.74357595834537
 20
11.05299931058722
 30
0.0
 10
22.76481018228659
 20
11.03837942255
 30
0.0
 10
22.77943204461932
 20
11.0340836747873
 30
0.0
 10
22.79298492459206
 20
11.0340836747873
 30
0.0
  0
SPLINE
  5
1B7
330
1F
100
AcDbEntity
  8
0
  6
SLD-Solid
 62
     7
370
    25
100
AcDbSpline
210
0.0
220
0.0
230
1.0
 70
    24
 71
     3
 72
    22
 73
    18
 74
     0
 42
0.00000001
 43
0.00000001
 40
0.0
 40
0.0
 40
0.0
 40
0.0
 40
0.0653464218036678
 40
0.1307162207456451
 40
0.1960526419604005
 40
0.2614324061562762
 40
0.3267681599001319
 40
0.3921485004291327
 40
0.4574901132681229
 40
0.5228645073226088
 40
0.5882156693232349
 40
0.653580468777698
 40
0.7189420119829063
 40
0.7842964434806905
 40
0.8623104938744763
 40
0.9403631162678754
 40
1.0
 40
1.0
 40
1.0
 40
1.0
 10
24.37798492459206
 20
11.6820836747873
 30
0.0
 10
24.37656201993446
 20
11.6820836747873
 30
0.0
 10
24.37371570158696
 20
11.6820836747873
 30
0.0
 10
24.35062254466631
 20
11.6820836747873
 30
0.0
 10
24.3139801181751
 20
11.6820836747873
 30
0.0
 10
24.26255604799464
 20
11.6820836747873
 30
0.0
 10
24.19713188466798
 20
11.6820836747873
 30
0.0
 10
24.11791002947481
 20
11.6820836747873
 30
0.0
 10
24.02549891125585
 20
11.6820836747873
 30
0.0
 10
23.92036330978766
 20
11.6820836747873
 30
0.0
 10
23.80324222627602
 20
11.6820836747873
 30
0.0
 10
23.67476277615239
 20
11.6820836747873
 30
0.0
 10
23.53579062548236
 20
11.6820836747873
 30
0.0
 10
23.37756856831259
 20
11.6820836747873
 30
0.0
 10
23.19863956939432
 20
11.6820836747873
 30
0.0
 10
23.01519376304936
 20
11.6820836747873
 30
0.0
 10
22.89154178996119
 20
11.6820836747873
 30
0.0
 10
22.83798492459206
 20
11.6820836747873
 30
0.0
  0
SPLINE
  5
1B8
330
1F
100
AcDbEntity
  8
0
  6
SLD-Solid
 62
     7
370
    25
100
AcDbSpline
210
0.0
220
0.0
230
1.0
 70
    24
 71
     3
 72
    22
 73
    18
 74
     0
 42
0.00000001
 43
0.00000001
 40
0.0
 40
0.0
 40
0.0
 40
0.0
 40
0.0596361368243983
 40
0.1376828530390756
 40
0.2157035001199914
 40
0.2810501986372806
 40
0.3464194842017744
 40
0.4117765513215146
 40
0.4771354550543245
 40
0.5425021145186744
 40
0.6078514713611821
 40
0.673224072155206
 40
0.7385675750547066
 40
0.8039395914725952
 40
0.8692837698764205
 40
0.9346458101158446
 40
1.0
 40
1.0
 40
1.0
 40
1.0
 10
22.83798492459206
 20
16.7520836747873
 30
0.0
 10
22.89154099825018
 20
16.7520836747873
 30
0.0
 10
23.01518671729691
 20
16.7520836747873
 30
0.0
 10
23.19863397425339
 20
16.7520836747873
 30
0.0
 10
23.37755722475694
 20
16.7520836747873
 30
0.0
 10
23.53578494062573
 20
16.7520836747873
 30
0.0
 10
23.67475222350831
 20
16.7520836747873
 30
0.0
 10
23.8032373530326
 20
16.7520836747873
 30
0.0
 10
23.92035454435025
 20
16.7520836747873
 30
0.0
 10
24.0254949897597
 20
16.7520836747873
 30
0.0
 10
24.11790325714056
 20
16.7520836747873
 30
0.0
 10
24.19712901151331
 20
16.7520836747873
 30
0.0
 10
24.26255143309791
 20
16.7520836747873
 30
0.0
 10
24.3139783622379
 20
16.7520836747873
 30
0.0
 10
24.35062018254679
 20
16.7520836747873
 30
0.0
 10
24.37371508732476
 20
16.7520836747873
 30
0.0
 10
24.37656170248885
 20
16.7520836747873
 30
0.0
 10
24.37798492459206
 20
16.7520836747873
 30
0.0
  0
SPLINE
  5
1B9
330
1F
100
AcDbEntity
  8
0
  6
SLD-Solid
 62
     7
370
    25
100
AcDbSpline
210
0.0
220
0.0
230
1.0
 70
    24
 71
     3
 72
    18
 73
    14
 74
     0
 42
0.00000001
 43
0.00000001
 40
0.0
 40
0.0
 40
0.0
 40
0.0
 40
0.0626553261314265
 40
0.1253759379618371
 40
0.2501850473384659
 40
0.3749953569158738
 40
0.4998069122310894
 40
0.6246221261990785
 40
0.7494320103826276
 40
0.8742428670040354
 40
0.9369652229152838
 40
0.9996812218939651
 40
1.0
 40
1.0
 40
1.0
 40
1.0
 10
24.60798492459206
 20
16.19977994661533
 30
0.0
 10
24.60798492459206
 20
16.19945985434032
 30
0.0
 10
24.60798492459206
 20
16.19881933626003
 30
0.0
 10
24.60798492459206
 20
16.19221913931632
 30
0.0
 10
24.60798492459206
 20
16.17681068378608
 30
0.0
 10
24.60798492459206
 20
16.14932081916757
 30
0.0
 10
24.60798492459206
 20
16.1170891897344
 30
0.0
 10
24.60798492459206
 20
16.08482490065839
 30
0.0
 10
24.60798492459206
 20
16.05743255618405
 30
0.0
 10
24.60798492459205
 20
16.04172474622695
 30
0.0
 10
24.60798492459208
 20
16.0357348147072
 30
0.0
 10
24.60798492459201
 20
16.03384340309439
 30
0.0
 10
24.60798492459206
 20
16.03439138065717
 30
0.0
 10
24.60798492459206
 20
16.03439415187739
 30
0.0
  0
SPLINE
  5
1BA
330
1F
100
AcDbEntity
  8
0
  6
SLD-Solid
 62
     7
370
    25
100
AcDbSpline
210
0.0
220
0.0
230
1.0
 70
    24
 71
     3
 72
    18
 73
    14
 74
     0
 42
0.00000001
 43
0.00000001
 40
0.0
 40
0.0
 40
0.0
 40
0.0
 40
0.0626553261314265
 40
0.1253759379618372
 40
0.2501850473384666
 40
0.3749953569158737
 40
0.4998069122310894
 40
0.6246221261990774
 40
0.7494320103826265
 40
0.8742428670040349
 40
0.9369652229152832
 40
0.9996812218939649
 40
1.0
 40
1.0
 40
1.0
 40
1.0
 10
24.60798492459206
 20
12.39977994661533
 30
0.0
 10
24.60798492459206
 20
12.39945985434032
 30
0.0
 10
24.60798492459206
 20
12.39881933626003
 30
0.0
 10
24.60798492459206
 20
12.39221913931632
 30
0.0
 10
24.60798492459206
 20
12.37681068378608
 30
0.0
 10
24.60798492459206
 20
12.34932081916757
 30
0.0
 10
24.60798492459206
 20
12.31708918973441
 30
0.0
 10
24.60798492459206
 20
12.28482490065839
 30
0.0
 10
24.60798492459206
 20
12.25743255618405
 30
0.0
 10
24.60798492459206
 20
12.24172474622696
 30
0.0
 10
24.60798492459206
 20
12.23573481470719
 30
0.0
 10
24.60798492459205
 20
12.23384340309441
 30
0.0
 10
24.60798492459206
 20
12.23439138065716
 30
0.0
 10
24.60798492459206
 20
12.23439415187739
 30
0.0
  0
ARC
  5
1BB
330
1F
100
AcDbEntity
  8
0
  6
SLD-Solid
 62
     7
370
    25
100
AcDbCircle
 10
22.6529849246
 20
11.6840836748
 30
0.0
 40
0.0250000000000021
100
AcDbArc
 50
0.0
 51
90.0
  0
LINE
  5
1BC
330
1F
100
AcDbEntity
  8
0
  6
SLD-Solid
 62
     7
370
    25
100
AcDbLine
 10
22.6779849246
 20
11.3140836748
 30
0.0
 11
22.6353675536
 21
11.3140836748
 31
0.0
  0
LINE
  5
1BD
330
1F
100
AcDbEntity
  8
0
  6
SLD-Solid
 62
     7
370
    25
100
AcDbLine
 10
22.1539849246
 20
11.7090836748
 30
0.0
 11
22.6529849246
 21
11.7090836748
 31
0.0
  0
LINE
  5
1BE
330
1F
100
AcDbEntity
  8
0
  6
SLD-Solid
 62
     7
370
    25
100
AcDbLine
 10
21.8382806985
 20
11.3140836748
 30
0.0
 11
22.6353675536
 21
11.3140836748
 31
0.0
  0
ARC
  5
1BF
330
1F
100
AcDbEntity
  8
0
  6
SLD-Solid
 62
     7
370
    25
100
AcDbCircle
 10
22.1539849246
 20
11.8590836748
 30
0.0
 40
0.1500000000000029
100
AcDbArc
 50
233.1301023542
 51
270.0
  0
LINE
  5
1C0
330
1F
100
AcDbEntity
  8
0
  6
SLD-Solid
 62
     7
370
    25
100
AcDbLine
 10
21.9839849246
 20
11.7990836748
 30
0.0
 11
22.0639849246
 21
11.7390836748
 31
0.0
  0
ARC
  5
1C1
330
1F
100
AcDbEntity
  8
0
  6
SLD-Solid
 62
     7
370
    25
100
AcDbCircle
 10
21.8939849246
 20
11.6790836748
 30
0.0
 40
0.1500000000000014
100
AcDbArc
 50
53.1301023542
 51
72.8241630287
  0
SPLINE
  5
1C2
330
1F
100
AcDbEntity
  8
0
  6
SLD-Solid
 62
     7
370
    25
100
AcDbSpline
210
0.0
220
0.0
230
1.0
 70
     8
 71
     3
 72
    12
 73
     8
 74
     0
 42
0.00000001
 43
0.00000001
 40
0.0
 40
0.0
 40
0.0
 40
0.0
 40
0.2499999999999968
 40
0.2499999999999968
 40
0.4999999999999936
 40
0.4999999999999936
 40
1.0
 40
1.0
 40
1.0
 40
1.0
 10
21.89398492459206
 20
11.8290836747873
 30
0.0
 10
21.89398492459206
 20
11.8290836747873
 30
0.0
 10
21.89644703527627
 20
11.82909999563518
 30
0.0
 10
21.90306286310949
 20
11.82884531721295
 30
0.0
 10
21.90710418695775
 20
11.82857015517028
 30
0.0
 10
21.91985934997223
 20
11.82708301789561
 30
0.0
 10
21.92907004718547
 20
11.82524103931718
 30
0.0
 10
21.93828069852576
 20
11.82239412245814
 30
0.0
  0
ARC
  5
1C3
330
1F
100
AcDbEntity
  8
0
  6
SLD-Solid
 62
     7
370
    25
100
AcDbCircle
 10
21.8939849246
 20
11.7290836748
 30
0.0
 40
0.0999999999999996
100
AcDbArc
 50
90.0
 51
180.0
  0
LINE
  5
1C4
330
1F
100
AcDbEntity
  8
0
  6
SLD-Solid
 62
     7
370
    25
100
AcDbLine
 10
21.7939849246
 20
11.3140836748
 30
0.0
 11
21.7939849246
 21
11.7290836748
 31
0.0
  0
LINE
  5
1C5
330
1F
100
AcDbEntity
  8
0
  6
SLD-Solid
 62
     7
370
    25
100
AcDbLine
 10
21.8382806985
 20
11.3140836748
 30
0.0
 11
21.7939849246
 21
11.3140836748
 31
0.0
  0
DIMENSION
  5
1C6
330
1F
100
AcDbEntity
  8
DIMS
100
AcDbDimension
  2
_D_2
 10
22.8379849246
 20
17.7943594622
 30
0.0
 11
23.7528232704
 21
17.7943594622
 31
0.0
 70
   160
  1
<>
 71
     2
 42
-1.0
  3
SLDDIMSTYLE0
100
AcDbAlignedDimension
 13
24.6079849246
 23
16.199781474
 33
0.0
 14
22.8379849246
 24
17.1500836748
 34
0.0
100
AcDbRotatedDimension
  0
DIMENSION
  5
1D5
330
1F
100
AcDbEntity
  8
DIMS
100
AcDbDimension
  2
_D_3
 10
25.7113471293
 20
11.6820836748
 30
0.0
 11
25.7113471293
 21
14.1363081449
 31
0.0
 70
   160
  1
<>
 71
     2
 42
-1.0
  3
SLDDIMSTYLE0
100
AcDbAlignedDimension
 13
24.3779849246
 23
16.7520836748
 33
0.0
 14
24.3779849247
 24
11.6820836748
 34
0.0
 50
90.0
100
AcDbRotatedDimension
  0
DIMENSION
  5
1E4
330
1F
100
AcDbEntity
  8
DIMS
100
AcDbDimension
  2
_D_4
 10
21.7939849246
 20
17.7943594622
 30
0.0
 11
20.4554022474
 21
17.7943594622
 31
0.0
 70
   160
  1
<>
 71
     2
 42
-1.0
  3
SLDDIMSTYLE0
100
AcDbAlignedDimension
 13
22.8379849246
 23
17.1500836748
 33
0.0
 14
21.7939849246
 24
11.7290836748
 34
0.0
100
AcDbRotatedDimension
  0
MTEXT
  5
1F3
330
1F
100
AcDbEntity
  8
NOTES
100
AcDbMText
 10
21.7518893008
 20
10.051742597
 30
0.0
 40
0.5
 41
0.0
 71
     1
 72
     1
  1
Side view
  7
SLDTEXTSTYLE1
 73
     1
 44
1.0
  0
SPLINE
  5
1F4
330
1F
100
AcDbEntity
  8
0
  6
SLD-Solid
 62
     7
370
    25
100
AcDbSpline
210
0.0
220
0.0
230
1.0
 70
     8
 71
     3
 72
    15
 73
    11
 74
     0
 42
0.00000001
 43
0.00000001
 40
0.0
 40
0.0
 40
0.0
 40
0.0
 40
0.2056341122850604
 40
0.3551809581850449
 40
0.4590182262303389
 40
0.5421722604789095
 40
0.6288907857914146
 40
0.7240987889850343
 40
0.844844753764395
 40
1.0
 40
1.0
 40
1.0
 40
1.0
 10
37.77863823864507
 20
26.13386432792847
 30
0.0
 10
37.79015948822239
 20
26.12692728941569
 30
0.0
 10
37.81005953505257
 20
26.11494530861225
 30
0.0
 10
37.83569165945505
 20
26.09174821621921
 30
0.0
 10
37.85347113919457
 20
26.07039116982657
 30
0.0
 10
37.86650016638637
 20
26.05029633431869
 30
0.0
 10
37.87680746569392
 20
26.02953867513731
 30
0.0
 10
37.88506342790259
 20
26.0061069333157
 30
0.0
 10
37.89074109971213
 20
25.97916053483816
 30
0.0
 10
37.89131987054332
 20
25.96177858194763
 30
0.0
 10
37.89164534693575
 20
25.95200370212429
 30
0.0
  0
SPLINE
  5
1F5
330
1F
100
AcDbEntity
  8
0
  6
SLD-Solid
 62
     7
370
    25
100
AcDbSpline
210
0.0
220
0.0
230
1.0
 70
     8
 71
     3
 72
    41
 73
    37
 74
     0
 42
0.00000001
 43
0.00000001
 40
0.0
 40
0.0
 40
0.0
 40
0.0
 40
0.0303218512151036
 40
0.062375578611792
 40
0.0946435674082441
 40
0.1222212031206451
 40
0.1448830959912058
 40
0.1665862299440092
 40
0.1901937713299453
 40
0.2156994318935908
 40
0.2465543327705626
 40
0.2798623848285895
 40
0.3156161510716583
 40
0.3534547997994454
 40
0.3802248898910717
 40
0.4026714713814405
 40
0.4208049401621827
 40
0.4355685216196806
 40
0.4495452014316232
 40
0.4625732126649631
 40
0.4749720611304665
 40
0.4909387380108987
 40
0.5117744209776559
 40
0.536974799210837
 40
0.5668664432349189
 40
0.6014465941796068
 40
0.6407124158367183
 40
0.6735799827811607
 40
0.7091345947315064
 40
0.7473751103380304
 40
0.7883002335028719
 40
0.8319088869074708
 40
0.8781998003207127
 40
0.927171801799093
 40
0.9788236882220166
 40
0.9999999999999999
 40
0.9999999999999999
 40
0.9999999999999999
 40
0.9999999999999999
 10
38.21063462339566
 20
26.63906886300452
 30
0.0
 10
38.2095405933907
 20
26.67269706519258
 30
0.0
 10
38.20729004628215
 20
26.7418741927457
 30
0.0
 10
38.19335318409082
 20
26.83112313550356
 30
0.0
 10
38.17528857868053
 20
26.91078949745975
 30
0.0
 10
38.15247599596874
 20
26.98273193675416
 30
0.0
 10
38.12828478659792
 20
27.04465088354916
 30
0.0
 10
38.10172771461964
 20
27.10263614598749
 30
0.0
 10
38.07022172368673
 20
27.16226508871371
 30
0.0
 10
38.02995893701267
 20
27.22861794902334
 30
0.0
 10
37.97907363393026
 20
27.30126793284056
 30
0.0
 10
37.91542439064544
 20
27.37964992097795
 30
0.0
 10
37.83947948636244
 20
27.46054711313618
 30
0.0
 10
37.76063257203717
 20
27.5333507301697
 30
0.0
 10
37.68664153208549
 20
27.59400872305958
 30
0.0
 10
37.62623345272026
 20
27.63937270055677
 30
0.0
 10
37.5745621041433
 20
27.67552534334775
 30
0.0
 10
37.52950739836467
 20
27.70531462417011
 30
0.0
 10
37.48832952131163
 20
27.73123801109074
 30
0.0
 10
37.44861443598241
 20
27.75511825455525
 30
0.0
 10
37.40605606210332
 20
27.77962550811031
 30
0.0
 10
37.35451041104606
 20
27.80791120880189
 30
0.0
 10
37.28779660797741
 20
27.84230240875216
 30
0.0
 10
37.20344537772522
 20
27.88248903960739
 30
0.0
 10
37.10019712541091
 20
27.92717472752371
 30
0.0
 10
36.97611573598075
 20
27.97498027638329
 30
0.0
 10
36.84345453096121
 20
28.01942780422784
 30
0.0
 10
36.70518788641837
 20
28.05944068036587
 30
0.0
 10
36.56450843546742
 20
28.09439322129635
 30
0.0
 10
36.4094627057032
 20
28.12643424861415
 30
0.0
 10
36.23994450770505
 20
28.15421099882436
 30
0.0
 10
36.05613252294499
 20
28.17618460612122
 30
0.0
 10
35.85848720575526
 20
28.19101663489268
 30
0.0
 10
35.64807128621274
 20
28.19617950105797
 30
0.0
 10
35.47310400737032
 20
28.19399988797418
 30
0.0
 10
35.36977990402629
 20
28.18556113991483
 30
0.0
 10
35.33973627421469
 20
28.18310739858475
 30
0.0
  0
LINE
  5
1F6
330
1F
100
AcDbEntity
  8
0
  6
SLD-Solid
 62
     7
370
    25
100
AcDbLine
 10
37.8916482464
 20
25.9523155176
 30
0.0
 11
37.8916482464
 21
22.0574158449
 31
0.0
  0
LINE
  5
1F7
330
1F
100
AcDbEntity
  8
0
  6
SLD-Solid
 62
     7
370
    25
100
AcDbLine
 10
34.5623617051
 20
27.9905728318
 30
0.0
 11
37.7778687999
 21
26.1343000978
 31
0.0
  0
LINE
  5
1F8
330
1F
100
AcDbEntity
  8
0
  6
SLD-Solid
 62
     7
370
    25
100
AcDbLine
 10
38.2106408792
 20
26.5257694476
 30
0.0
 11
38.2106408792
 21
26.6390672565
 31
0.0
  0
SPLINE
  5
1F9
330
1F
100
AcDbEntity
  8
0
  6
SLD-Solid
 62
     7
370
    25
100
AcDbSpline
210
0.0
220
0.0
230
1.0
 70
     8
 71
     3
 72
     9
 73
     5
 74
     0
 42
0.00000001
 43
0.00000001
 40
0.0
 40
0.0
 40
0.0
 40
0.0
 40
0.3842355906687255
 40
0.9999999999999999
 40
0.9999999999999999
 40
0.9999999999999999
 40
0.9999999999999999
 10
34.53945995268892
 20
28.01087021090463
 30
0.0
 10
34.54024710528375
 20
28.00943537922325
 30
0.0
 10
34.54229572496904
 20
28.00570112941344
 30
0.0
 10
34.55423549407928
 20
27.99662020019047
 30
0.0
 10
34.561587578953
 20
27.99102848717131
 30
0.0
  0
SPLINE
  5
1FA
330
1F
100
AcDbEntity
  8
0
  6
SLD-Solid
 62
     7
370
    25
100
AcDbSpline
210
0.0
220
0.0
230
1.0
 70
     8
 71
     3
 72
    11
 73
     7
 74
     0
 42
0.00000001
 43
0.00000001
 40
0.0
 40
0.0
 40
0.0
 40
0.0
 40
0.2545493251492246
 40
0.5076828907922049
 40
0.7569860839324049
 40
1.0
 40
1.0
 40
1.0
 40
1.0
 10
34.03920692491511
 20
28.83737063475226
 30
0.0
 10
34.02825106258238
 20
28.82962883666725
 30
0.0
 10
34.00640027253633
 20
28.81418829904484
 30
0.0
 10
33.98322585086675
 20
28.77811457714885
 30
0.0
 10
33.9682379166218
 20
28.73545754830174
 30
0.0
 10
33.96655429878189
 20
28.70336638002522
 30
0.0
 10
33.96572324384437
 20
28.6875257758126
 30
0.0
  0
SPLINE
  5
1FB
330
1F
100
AcDbEntity
  8
0
  6
SLD-Solid
 62
     7
370
    25
100
AcDbSpline
210
0.0
220
0.0
230
1.0
 70
     8
 71
     3
 72
    11
 73
     7
 74
     0
 42
0.00000001
 43
0.00000001
 40
0.0
 40
0.0
 40
0.0
 40
0.0
 40
0.2430168799856472
 40
0.4923204794050469
 40
0.7454527571707633
 40
1.0
 40
1.0
 40
1.0
 40
1.0
 10
38.25574685685193
 20
21.23984609948353
 30
0.0
 10
38.26987809663191
 20
21.2326477058231
 30
0.0
 10
38.29850614396542
 20
21.21806469982757
 30
0.0
 10
38.34293251083106
 20
21.20971890378918
 30
0.0
 10
38.38575146992496
 20
21.21175082491272
 30
0.0
 10
38.41004499560449
 20
21.22294988295672
 30
0.0
 10
38.42222561296143
 20
21.22856501855259
 30
0.0
  0
LINE
  5
1FC
330
1F
100
AcDbEntity
  8
0
  6
SLD-Solid
 62
     7
370
    25
100
AcDbLine
 10
34.0710266645
 20
28.8557397794
 30
0.0
 11
34.0392068593
 21
28.8373705969
 31
0.0
  0
SPLINE
  5
1FD
330
1F
100
AcDbEntity
  8
0
  6
SLD-Solid
 62
     7
370
    25
100
AcDbSpline
210
0.0
220
0.0
230
1.0
 70
     8
 71
     3
 72
    10
 73
     6
 74
     0
 42
0.00000001
 43
0.00000001
 40
0.0
 40
0.0
 40
0.0
 40
0.0
 40
0.3834051435886074
 40
0.7464101427066614
 40
1.0
 40
1.0
 40
1.0
 40
1.0
 10
37.89164534693579
 20
22.05710402910414
 30
0.0
 10
37.89154584932341
 20
22.05180981036361
 30
0.0
 10
37.89135214814778
 20
22.04150306661822
 30
0.0
 10
37.89009704194819
 20
22.03298561895511
 30
0.0
 10
37.89053185702195
 20
22.0326028037552
 30
0.0
 10
37.89071068545583
 20
22.03244536155323
 30
0.0
  0
LINE
  5
1FE
330
1F
100
AcDbEntity
  8
0
  6
SLD-Solid
 62
     7
370
    25
100
AcDbLine
 10
38.4222256785
 20
21.2285650564
 30
0.0
 11
38.4540454837
 21
21.2469342389
 31
0.0
  0
LINE
  5
1FF
330
1F
100
AcDbEntity
  8
0
  6
SLD-Solid
 62
     7
370
    25
100
AcDbLine
 10
33.9657232438
 20
28.6875257758
 30
0.0
 11
33.9657232438
 21
23.8976973733
 31
0.0
  0
LINE
  5
200
330
1F
100
AcDbEntity
  8
0
  6
SLD-Solid
 62
     7
370
    25
100
AcDbLine
 10
34.1227077208
 20
23.6257988063
 30
0.0
 11
34.4973634686
 21
23.4095146468
 31
0.0
  0
LINE
  5
201
330
1F
100
AcDbEntity
  8
0
  6
SLD-Solid
 62
     7
370
    25
100
AcDbLine
 10
37.5232214046
 20
21.6627240419
 30
0.0
 11
38.2557468569
 21
21.2398460995
 31
0.0
  0
SPLINE
  5
202
330
1F
100
AcDbEntity
  8
0
  6
SLD-Solid
 62
     7
370
    25
100
AcDbSpline
210
0.0
220
0.0
230
1.0
 70
     8
 71
     3
 72
    13
 73
     9
 74
     0
 42
0.00000001
 43
0.00000001
 40
0.0
 40
0.0
 40
0.0
 40
0.0
 40
0.1728454121900022
 40
0.3165611595068443
 40
0.5241571218372395
 40
0.713016115569417
 40
0.8432599070711256
 40
1.0
 40
1.0
 40
1.0
 40
1.0
 10
33.96572324384449
 20
23.89769737328641
 30
0.0
 10
33.96684352518842
 20
23.87988978646435
 30
0.0
 10
33.96889528668279
 20
23.84727572826641
 30
0.0
 10
33.98520015144849
 20
23.79117914981101
 30
0.0
 10
34.01145842164974
 20
23.73593844143906
 30
0.0
 10
34.04686738747387
 20
23.68828998323692
 30
0.0
 10
34.08424894932464
 20
23.6510630326597
 30
0.0
 10
34.10912262799711
 20
23.6347230866768
 30
0.0
 10
34.12270772081283
 20
23.62579880628769
 30
0.0
  0
SPLINE
  5
203
330
1F
100
AcDbEntity
  8
0
  6
SLD-Solid
 62
     7
370
    25
100
AcDbSpline
210
0.0
220
0.0
230
1.0
 70
     8
 71
     3
 72
    14
 73
    10
 74
     0
 42
0.00000001
 43
0.00000001
 40
0.0
 40
0.0
 40
0.0
 40
0.0
 40
0.072602544202666
 40
0.2013287830283754
 40
0.3367744259274384
 40
0.4822462399179065
 40
0.6403971310296063
 40
0.8123301508922591
 40
1.0
 40
1.0
 40
1.0
 40
1.0
 10
37.76392845191014
 20
21.91845989315183
 30
0.0
 10
37.7637676008819
 20
21.9221574224982
 30
0.0
 10
37.76332155670919
 20
21.93241076956325
 30
0.0
 10
37.75871983422903
 20
21.95008399146403
 30
0.0
 10
37.74937972448678
 20
21.97094421605328
 30
0.0
 10
37.73605558611794
 20
21.99170170607737
 30
0.0
 10
37.7192147333465
 20
22.0115470625209
 30
0.0
 10
37.6991835712851
 20
22.03010929712398
 30
0.0
 10
37.68439789094737
 20
22.03956619581227
 30
0.0
 10
37.67668152759944
 20
22.0445015700904
 30
0.0
  0
LINE
  5
204
330
1F
100
AcDbEntity
  8
0
  6
SLD-Solid
 62
     7
370
    25
100
AcDbLine
 10
37.7639284519
 20
21.6775803536
 30
0.0
 11
37.7639284519
 21
21.9184598932
 31
0.0
  0
LINE
  5
205
330
1F
100
AcDbEntity
  8
0
  6
SLD-Solid
 62
     7
370
    25
100
AcDbLine
 10
37.6766815276
 20
22.0445015701
 30
0.0
 11
34.6117590799
 21
23.8138436377
 31
0.0
  0
LINE
  5
206
330
1F
100
AcDbEntity
  8
0
  6
SLD-Solid
 62
     7
370
    25
100
AcDbLine
 10
34.4961737352
 20
23.2461124763
 30
0.0
 11
34.4957897858
 21
23.2300139253
 31
0.0
  0
SPLINE
  5
207
330
1F
100
AcDbEntity
  8
0
  6
SLD-Solid
 62
     7
370
    25
100
AcDbSpline
210
0.0
220
0.0
230
1.0
 70
     8
 71
     3
 72
    16
 73
    12
 74
     0
 42
0.00000001
 43
0.00000001
 40
0.0
 40
0.0
 40
0.0
 40
0.0
 40
0.0951510667044546
 40
0.2726223651395466
 40
0.4145306382559559
 40
0.5377230260710982
 40
0.6497986269626626
 40
0.7672999656689063
 40
0.8755448803795239
 40
0.9869078570571379
 40
1.0
 40
1.0
 40
1.0
 40
1.0
 10
34.61175907986076
 20
23.81384363766509
 30
0.0
 10
34.6074547909744
 20
23.81617419924286
 30
0.0
 10
34.59512234471723
 20
23.82285161476155
 30
0.0
 10
34.57591198466322
 20
23.82934041586376
 30
0.0
 10
34.55511967725816
 20
23.83166457333234
 30
0.0
 10
34.53735576707932
 20
23.82906759901893
 30
0.0
 10
34.5216706798532
 20
23.82174822034413
 30
0.0
 10
34.50933308724321
 20
23.80974541214667
 30
0.0
 10
34.50158693492722
 20
23.79399289189583
 30
0.0
 10
34.49958358139828
 20
23.78162482244595
 30
0.0
 10
34.49952079236972
 20
23.77481781734209
 30
0.0
 10
34.49951418723416
 20
23.77410174970177
 30
0.0
  0
ARC
  5
208
330
1F
100
AcDbEntity
  8
0
  6
SLD-Solid
 62
     7
370
    25
100
AcDbCircle
 10
38.1236504124
 20
26.1346951501
 30
0.0
 40
0.3825391763834968
100
AcDbArc
 50
2.4763980378
 51
57.5236021078
  0
LINE
  5
209
330
1F
100
AcDbEntity
  8
0
  6
SLD-Solid
 62
     7
370
    25
100
AcDbLine
 10
38.5058323374
 20
21.3613954405
 30
0.0
 11
38.5058323374
 21
26.1512238431
 31
0.0
  0
LINE
  5
20A
330
1F
100
AcDbEntity
  8
0
  6
SLD-Solid
 62
     7
370
    25
100
AcDbLine
 10
38.3290556421
 20
26.45741006
 30
0.0
 11
34.1960165061
 21
28.8433627668
 31
0.0
  0
ARC
  5
20B
330
1F
100
AcDbEntity
  8
0
  6
SLD-Solid
 62
     7
370
    25
100
AcDbCircle
 10
34.1228043801
 20
28.7413230746
 30
0.0
 40
0.1255870780614785
100
AcDbArc
 50
54.3410619984
 51
114.3484795725
  0
ARC
  5
20C
330
1F
100
AcDbEntity
  8
0
  6
SLD-Solid
 62
     7
370
    25
100
AcDbCircle
 10
38.384227002
 20
21.3474687588
 30
0.0
 40
0.1224002045419512
100
AcDbArc
 50
304.7789244315
 51
6.5332559619
  0
SPLINE
  5
20D
330
1F
100
AcDbEntity
  8
0
  6
SLD-Solid
 62
     7
370
    25
100
AcDbSpline
210
0.0
220
0.0
230
1.0
 70
     8
 71
     3
 72
     9
 73
     5
 74
     0
 42
0.00000001
 43
0.00000001
 40
0.0
 40
0.0
 40
0.0
 40
0.0
 40
0.7938671453330448
 40
1.0
 40
1.0
 40
1.0
 40
1.0
 10
37.45637473742357
 20
24.25576343395756
 30
0.0
 10
37.45676191806348
 20
24.26460345455127
 30
0.0
 10
37.45724963271723
 20
24.27573884495719
 30
0.0
 10
37.46282726117831
 20
24.28153457734881
 30
0.0
 10
37.46397699365527
 20
24.28272926821159
 30
0.0
  0
SPLINE
  5
20E
330
1F
100
AcDbEntity
  8
0
  6
SLD-Solid
 62
     7
370
    25
100
AcDbSpline
210
0.0
220
0.0
230
1.0
 70
     8
 71
     3
 72
    15
 73
    11
 74
     0
 42
0.00000001
 43
0.00000001
 40
0.0
 40
0.0
 40
0.0
 40
0.0
 40
0.0392687111480864
 40
0.1356369256214779
 40
0.2319953731428462
 40
0.3283522862506782
 40
0.4247190580752142
 40
0.6164791298891882
 40
0.8082394661334065
 40
1.0
 40
1.0
 40
1.0
 40
1.0
 10
37.5401512348227
 20
24.14812574970118
 30
0.0
 10
37.53890307657059
 20
24.14777458959661
 30
0.0
 10
37.53459184905495
 20
24.14656165758047
 30
0.0
 10
37.52541732451808
 20
24.14948451420677
 30
0.0
 10
37.51414159986741
 20
24.15438376569202
 30
0.0
 10
37.50270255598753
 20
24.16241005198819
 30
0.0
 10
37.48814980202393
 20
24.17599307793981
 30
0.0
 10
37.47222106131903
 20
24.19787269225668
 30
0.0
 10
37.45896707545545
 20
24.22793698871506
 30
0.0
 10
37.45723885039771
 20
24.24648794902372
 30
0.0
 10
37.45637473742357
 20
24.25576343395756
 30
0.0
  0
SPLINE
  5
20F
330
1F
100
AcDbEntity
  8
0
  6
SLD-Solid
 62
     7
370
    25
100
AcDbSpline
210
0.0
220
0.0
230
1.0
 70
    11
 71
     3
 72
    60
 73
    56
 74
     0
 42
0.00000001
 43
0.00000001
 40
0.0
 40
0.0
 40
0.0
 40
0.0
 40
0.0624999999999997
 40
0.0624999999999997
 40
0.0937499999999995
 40
0.0937499999999995
 40
0.1249999999999994
 40
0.1249999999999994
 40
0.1562499999999992
 40
0.1562499999999992
 40
0.187499999999999
 40
0.187499999999999
 40
0.2187499999999989
 40
0.2187499999999989
 40
0.2499999999999987
 40
0.2499999999999987
 40
0.2812499999999985
 40
0.2812499999999985
 40
0.3124999999999984
 40
0.3124999999999984
 40
0.3749999999999973
 40
0.3749999999999973
 40
0.4374999999999963
 40
0.4374999999999963
 40
0.4687499999999966
 40
0.4687499999999966
 40
0.4999999999999969
 40
0.4999999999999969
 40
0.5312499999999972
 40
0.5312499999999972
 40
0.5624999999999974
 40
0.5624999999999974
 40
0.5937499999999977
 40
0.5937499999999977
 40
0.6249999999999978
 40
0.6249999999999978
 40
0.656249999999998
 40
0.656249999999998
 40
0.6874999999999982
 40
0.6874999999999982
 40
0.7187499999999983
 40
0.7187499999999983
 40
0.7499999999999986
 40
0.7499999999999986
 40
0.8124999999999989
 40
0.8124999999999989
 40
0.8437499999999991
 40
0.8437499999999991
 40
0.8749999999999992
 40
0.8749999999999992
 40
0.9062499999999994
 40
0.9062499999999994
 40
0.9374999999999997
 40
0.9374999999999997
 40
1.0
 40
1.0
 40
1.0
 40
1.0
 10
37.43053006933557
 20
24.24084362458537
 30
0.0
 10
37.43053007086645
 20
24.24970178518032
 30
0.0
 10
37.43205330978677
 20
24.2576059255532
 30
0.0
 10
37.43637065452074
 20
24.26726834361985
 30
0.0
 10
37.43818283135133
 20
24.27017416450438
 30
0.0
 10
37.44237359889035
 20
24.27508812116927
 30
0.0
 10
37.44475218642485
 20
24.27712051008425
 30
0.0
 10
37.45009363424268
 20
24.28031562442105
 30
0.0
 10
37.45306340919183
 20
24.28146488776427
 30
0.0
 10
37.45932770299228
 20
24.28278404793064
 30
0.0
 10
37.46265130138158
 20
24.28297550588182
 30
0.0
 10
37.46971212372252
 20
24.28235912731577
 30
0.0
 10
37.47335904747105
 20
24.28155524569198
 30
0.0
 10
37.48077590350255
 20
24.27902194554734
 30
0.0
 10
37.48460135554877
 20
24.2772667982553
 30
0.0
 10
37.49222651127635
 20
24.27285702496516
 30
0.0
 10
37.49599009874041
 20
24.27023389985664
 30
0.0
 10
37.50341828702391
 20
24.26418475118162
 30
0.0
 10
37.50710752731636
 20
24.26072366145337
 30
0.0
 10
37.51755827027754
 20
24.24953671739232
 30
0.0
 10
37.52396934373933
 20
24.2407327039297
 30
0.0
 10
37.53453831060146
 20
24.22212407779986
 30
0.0
 10
37.53880229958924
 20
24.21213422022673
 30
0.0
 10
37.54308556843353
 20
24.19749809771527
 30
0.0
 10
37.54418818250787
 20
24.19258192123311
 30
0.0
 10
37.54564305406122
 20
24.18313420082072
 30
0.0
 10
37.54601066168275
 20
24.17857287934681
 30
0.0
 10
37.54601083411938
 20
24.16978753101006
 30
0.0
 10
37.54563303545483
 20
24.16557627468002
 30
0.0
 10
37.54417465911634
 20
24.15784716094348
 30
0.0
 10
37.54309624603741
 20
24.15427824056466
 30
0.0
 10
37.54020648017385
 20
24.14776664219899
 30
0.0
 10
37.53843166683262
 20
24.14491371323986
 30
0.0
 10
37.5342854771723
 20
24.14002109198177
 30
0.0
 10
37.53188290921702
 20
24.13795668683874
 30
0.0
 10
37.52655143119826
 20
24.1347653538095
 30
0.0
 10
37.52365512056418
 20
24.13364439568844
 30
0.0
 10
37.51740923878391
 20
24.13232499155799
 30
0.0
 10
37.51402175756488
 20
24.13213614850809
 30
0.0
 10
37.50704802750639
 20
24.13275396406341
 30
0.0
 10
37.50344188018548
 20
24.13354592687588
 30
0.0
 10
37.49598599330592
 20
24.13609173035724
 30
0.0
 10
37.49215450347207
 20
24.13785110393029
 30
0.0
 10
37.48080872510382
 20
24.14439846436517
 30
0.0
 10
37.47316257240751
 20
24.15061182160987
 30
0.0
 10
37.46268833759148
 20
24.16175982034737
 30
0.0
 10
37.45929623959734
 20
24.16585658053933
 30
0.0
 10
37.45300967465435
 20
24.17442261093693
 30
0.0
 10
37.45009924964626
 20
24.17889738728043
 30
0.0
 10
37.44475366720454
 20
24.18823726164468
 30
0.0
 10
37.44233047871271
 20
24.19309904257346
 30
0.0
 10
37.43815848099035
 20
24.20279830514034
 30
0.0
 10
37.43637827397293
 20
24.20768710527112
 30
0.0
 10
37.43201267576916
 20
24.2224815432115
 30
0.0
 10
37.4305300678047
 20
24.23198546399042
 30
0.0
 10
37.43053006933557
 20
24.24084362458537
 30
0.0
  0
LINE
  5
210
330
1F
100
AcDbEntity
  8
0
  6
SLD-Solid
 62
     7
370
    25
100
AcDbLine
 10
36.6155880537
 20
21.6609398231
 30
0.0
 11
37.739013582
 21
21.6631482445
 31
0.0
  0
ARC
  5
211
330
1F
100
AcDbEntity
  8
0
  6
SLD-Solid
 62
     7
370
    25
100
AcDbCircle
 10
36.6108296575
 20
21.8775543997
 30
0.0
 40
0.2166668344348298
100
AcDbArc
 50
241.9702005845
 51
271.2584203013
  0
LINE
  5
212
330
1F
100
AcDbEntity
  8
0
  6
SLD-Solid
 62
     7
370
    25
100
AcDbLine
 10
34.5396219328
 20
22.8232061263
 30
0.0
 11
36.5090112563
 21
21.6863018695
 31
0.0
  0
LWPOLYLINE
  5
213
330
1F
100
AcDbEntity
  8
0
  6
SLD-Solid
 62
     7
370
    25
100
AcDbPolyline
 90
        7
 70
   128
 43
0.0
 10
37.7639284519
 20
21.6775803536
 10
37.7638111789
 20
21.676184093
 10
37.7620416957
 20
21.6720801024
 10
37.7582874232
 20
21.6684484315
 10
37.7528707498
 20
21.6656009405
 10
37.746256818
 20
21.6637821502
 10
37.739013582
 20
21.6631482445
  0
ELLIPSE
  5
214
330
1F
100
AcDbEntity
  8
0
  6
SLD-Solid
 62
     7
370
    25
100
AcDbEllipse
 10
34.4956179557
 20
23.1707554306
 30
0.0
 11
0.0001693822600472572
 21
0.05763559820908881
 31
0.0
210
0.0
220
0.0
230
1.0
 40
0.0029492836
 41
0.1401247434295432
 42
0.483850945312331
  0
LINE
  5
215
330
1F
100
AcDbEntity
  8
0
  6
SLD-Solid
 62
     7
370
    25
100
AcDbLine
 10
34.4956888196
 20
22.8847316018
 30
0.0
 11
34.4956888196
 21
23.2217752746
 31
0.0
  0
ARC
  5
216
330
1F
100
AcDbEntity
  8
0
  6
SLD-Solid
 62
     7
370
    25
100
AcDbCircle
 10
34.5706278921
 20
22.8917946186
 30
0.0
 40
0.0752711817446979
100
AcDbArc
 50
185.3842290086
 51
245.674284258
  0
ELLIPSE
  5
217
330
1F
100
AcDbEntity
  8
0
  6
SLD-Solid
 62
     7
370
    25
100
AcDbEllipse
 10
34.4968657912
 20
23.5292785258
 30
0.0
 11
0.0008469113002576023
 21
0.2881779910454334
 31
0.0
210
0.0
220
0.0
230
1.0
 40
0.0029492836
 41
3.281717397053374
 42
3.925218505841352
  0
LINE
  5
218
330
1F
100
AcDbEntity
  8
0
  6
SLD-Solid
 62
     7
370
    25
100
AcDbLine
 10
34.4968657912
 20
23.3251433228
 30
0.0
 11
34.4995143322
 21
23.7741508942
 31
0.0
  0
LINE
  5
219
330
1F
100
AcDbEntity
  8
0
  6
SLD-Solid
 62
     7
370
    25
100
AcDbLine
 10
36.5797219344
 20
22.1476407932
 30
0.0
 11
34.6103326109
 21
23.28454505
 31
0.0
  0
SPLINE
  5
21A
330
1F
100
AcDbEntity
  8
0
  6
SLD-Solid
 62
     8
370
    25
100
AcDbSpline
210
0.0
220
0.0
230
1.0
 70
     8
 71
     3
 72
    14
 73
    10
 74
     0
 42
0.00000001
 43
0.00000001
 40
0.0
 40
0.0
 40
0.0
 40
0.0
 40
0.25
 40
0.25
 40
0.5
 40
0.5
 40
0.75
 40
0.75
 40
1.0
 40
1.0
 40
1.0
 40
1.0
 10
38.29723583695595
 20
26.43904087748383
 30
0.0
 10
38.32037585225886
 20
26.42568243099199
 30
0.0
 10
38.34350676295387
 20
26.4070161475473
 30
0.0
 10
38.38626393599458
 20
26.36188140864743
 30
0.0
 10
38.4058733752185
 20
26.33543071178468
 30
0.0
 10
38.4385982986934
 20
26.27874948181871
 30
0.0
 10
38.45170090708439
 20
26.24854125035909
 30
0.0
 10
38.46941150804659
 20
26.18894273277271
 30
0.0
 10
38.47401253225259
 20
26.15957589611764
 30
0.0
 10
38.47401253225259
 20
26.13285466053456
 30
0.0
  0
LINE
  5
21B
330
1F
100
AcDbEntity
  8
0
  6
SLD-Solid
 62
     8
370
    25
100
AcDbLine
 10
38.4740125323
 20
26.1328546605
 30
0.0
 11
38.4740125323
 21
21.343026258
 31
0.0
  0
LINE
  5
21C
330
1F
100
AcDbEntity
  8
0
  6
SLD-Solid
 62
     8
370
    25
100
AcDbLine
 10
34.1641967009
 20
28.8249935843
 30
0.0
 11
38.297235837
 21
26.4390408775
 31
0.0
  0
SPLINE
  5
21D
330
1F
100
AcDbEntity
  8
0
  6
SLD-Solid
 62
     8
370
    25
100
AcDbSpline
210
0.0
220
0.0
230
1.0
 70
     8
 71
     3
 72
     9
 73
     5
 74
     0
 42
0.00000001
 43
0.00000001
 40
0.0
 40
0.0
 40
0.0
 40
0.0
 40
0.1304769746026725
 40
1.0
 40
1.0
 40
1.0
 40
1.0
 10
38.20978153273101
 20
26.63912408496152
 30
0.0
 10
38.21007164364713
 20
26.63439613128353
 30
0.0
 10
38.21229510810895
 20
26.59816020772389
 30
0.0
 10
38.20703339510813
 20
26.56196540965786
 30
0.0
 10
38.20245821450088
 20
26.53049319933984
 30
0.0
  0
SPLINE
  5
21E
330
1F
100
AcDbEntity
  8
0
  6
SLD-Solid
 62
     8
370
    25
100
AcDbSpline
210
0.0
220
0.0
230
1.0
 70
     8
 71
     3
 72
    11
 73
     7
 74
     0
 42
0.00000001
 43
0.00000001
 40
0.0
 40
0.0
 40
0.0
 40
0.0
 40
0.5159664289566407
 40
0.7174126247327762
 40
0.9050546795497753
 40
0.9999999999999999
 40
0.9999999999999999
 40
0.9999999999999999
 40
0.9999999999999999
 10
34.50149576514233
 20
27.94691312632781
 30
0.0
 10
34.50216511930781
 20
27.96203103734713
 30
0.0
 10
34.50309580607692
 20
27.98305135885676
 30
0.0
 10
34.5174793561545
 20
28.00156734651915
 30
0.0
 10
34.52886156959645
 20
28.00977105815187
 30
0.0
 10
34.5374112166941
 20
28.01034504433111
 30
0.0
 10
34.54028377596062
 20
28.01053789548615
 30
0.0
  0
LINE
  5
21F
330
1F
100
AcDbEntity
  8
0
  6
SLD-Solid
 62
     8
370
    25
100
AcDbLine
 10
34.5014907111
 20
24.0520130636
 30
0.0
 11
34.5014907111
 21
27.9469127363
 31
0.0
  0
SPLINE
  5
220
330
1F
100
AcDbEntity
  8
0
  6
SLD-Solid
 62
     8
370
    25
100
AcDbSpline
210
0.0
220
0.0
230
1.0
 70
    11
 71
     3
 72
    86
 73
    82
 74
     0
 42
0.00000001
 43
0.00000001
 40
0.0
 40
0.0
 40
0.0
 40
0.0
 40
0.0312500000000004
 40
0.0312500000000004
 40
0.0625000000000009
 40
0.0625000000000009
 40
0.0937500000000012
 40
0.0937500000000012
 40
0.1250000000000017
 40
0.1250000000000017
 40
0.1562500000000021
 40
0.1562500000000021
 40
0.1718750000000024
 40
0.1718750000000024
 40
0.1875000000000028
 40
0.1875000000000028
 40
0.2187500000000032
 40
0.2187500000000032
 40
0.2500000000000037
 40
0.2500000000000037
 40
0.2656250000000039
 40
0.2656250000000039
 40
0.2812500000000041
 40
0.2812500000000041
 40
0.3125000000000048
 40
0.3125000000000048
 40
0.3437500000000054
 40
0.3437500000000054
 40
0.3750000000000061
 40
0.3750000000000061
 40
0.3906250000000062
 40
0.3906250000000062
 40
0.4062500000000063
 40
0.4062500000000063
 40
0.4375000000000064
 40
0.4375000000000064
 40
0.4687500000000067
 40
0.4687500000000067
 40
0.5000000000000069
 40
0.5000000000000069
 40
0.5312500000000071
 40
0.5312500000000071
 40
0.5468750000000071
 40
0.5468750000000071
 40
0.5625000000000072
 40
0.5625000000000072
 40
0.5937500000000074
 40
0.5937500000000074
 40
0.6093750000000073
 40
0.6093750000000073
 40
0.6250000000000071
 40
0.6250000000000071
 40
0.6562500000000066
 40
0.6562500000000066
 40
0.687500000000006
 40
0.687500000000006
 40
0.7031250000000056
 40
0.7031250000000056
 40
0.7187500000000052
 40
0.7187500000000052
 40
0.7500000000000046
 40
0.7500000000000046
 40
0.7812500000000039
 40
0.7812500000000039
 40
0.8125000000000031
 40
0.8125000000000031
 40
0.8281250000000029
 40
0.8281250000000029
 40
0.8437500000000024
 40
0.8437500000000024
 40
0.8750000000000016
 40
0.8750000000000016
 40
0.9062500000000006
 40
0.9062500000000006
 40
0.9218750000000003
 40
0.9218750000000003
 40
0.9375
 40
0.9375
 40
0.96875
 40
0.96875
 40
1.0
 40
1.0
 40
1.0
 40
1.0
 10
37.25187249948664
 20
24.26957318357633
 30
0.0
 10
37.25187248523594
 20
24.25612482056729
 30
0.0
 10
37.25313643562724
 20
24.24214179071705
 30
0.0
 10
37.25801692500141
 20
24.21381280416307
 30
0.0
 10
37.26164990639332
 20
24.19931468836302
 30
0.0
 10
37.27123918812919
 20
24.16999009017736
 30
0.0
 10
37.27706564372904
 20
24.15553059011103
 30
0.0
 10
37.29064930069872
 20
24.12695768582109
 30
0.0
 10
37.29850583212495
 20
24.11270746763673
 30
0.0
 10
37.31556185199503
 20
24.08555655117813
 30
0.0
 10
37.32476989076962
 20
24.07258163960747
 30
0.0
 10
37.33955336429258
 20
24.05399638460541
 30
0.0
 10
37.34467301225401
 20
24.04791619618042
 30
0.0
 10
37.35504749120221
 20
24.03627839364834
 30
0.0
 10
37.36031352340233
 20
24.03070132736831
 30
0.0
 10
37.37633266992418
 20
24.01466952503853
 30
0.0
 10
37.38730376254134
 20
24.00490457959504
 30
0.0
 10
37.40981732143037
 20
23.98727367736444
 30
0.0
 10
37.42102327966226
 20
23.97967325223104
 30
0.0
 10
37.43768761606614
 20
23.97005760781827
 30
0.0
 10
37.44322319085202
 20
23.96715009019597
 30
0.0
 10
37.45424822361089
 20
23.96194144375573
 30
0.0
 10
37.45976752032426
 20
23.95963094001319
 30
0.0
 10
37.47593638711705
 20
23.95376700683346
 30
0.0
 10
37.48628809021556
 20
23.95121525630234
 30
0.0
 10
37.50616182971761
 20
23.9488106374087
 30
0.0
 10
37.51577057996422
 20
23.94899311772947
 30
0.0
 10
37.53342424822722
 20
23.95216505848151
 30
0.0
 10
37.54155945613881
 20
23.95512055411473
 30
0.0
 10
37.55274930616152
 20
23.96167202471739
 30
0.0
 10
37.55632570897882
 20
23.96422860304465
 30
0.0
 10
37.56299314272602
 20
23.96997311561664
 30
0.0
 10
37.56609813119811
 20
23.97316572901845
 30
0.0
 10
37.57476158512068
 20
23.98368503374911
 30
0.0
 10
37.57966700931874
 20
23.99194600791323
 30
0.0
 10
37.58770474494698
 20
24.01114406845735
 30
0.0
 10
37.59069753319071
 20
24.02175292823683
 30
0.0
 10
37.59473456891985
 20
24.04492077025445
 30
0.0
 10
37.59577683729654
 20
24.05757600844494
 30
0.0
 10
37.5957775542393
 20
24.08449125033814
 30
0.0
 10
37.59475364640942
 20
24.09843257083282
 30
0.0
 10
37.59173608233046
 20
24.12004431990156
 30
0.0
 10
37.590479001732
 20
24.12736552674687
 30
0.0
 10
37.58745679725831
 20
24.14224278138429
 30
0.0
 10
37.58568804112289
 20
24.14979830143949
 30
0.0
 10
37.57971637988879
 20
24.17231317692112
 30
0.0
 10
37.57483433761631
 20
24.1872826475446
 30
0.0
 10
37.56612997117814
 20
24.20965915880581
 30
0.0
 10
37.56297455858314
 20
24.21714589960211
 30
0.0
 10
37.55629322150681
 20
24.23184807601172
 30
0.0
 10
37.55277031599164
 20
24.23906313116905
 30
0.0
 10
37.54164440344535
 20
24.26030271906415
 30
0.0
 10
37.53350069325093
 20
24.27392542286584
 30
0.0
 10
37.51565413285711
 20
24.30003874326717
 30
0.0
 10
37.50620921863272
 20
24.31214866339682
 30
0.0
 10
37.49132559529382
 20
24.32884347320744
 30
0.0
 10
37.48623962050321
 20
24.33416853887185
 30
0.0
 10
37.47581487756402
 20
24.3443207174555
 30
0.0
 10
37.47044854590703
 20
24.34916834933842
 30
0.0
 10
37.45428193037629
 20
24.36266672851035
 30
0.0
 10
37.44332657598953
 20
24.37037613254645
 30
0.0
 10
37.42105479294745
 20
24.38324994764098
 30
0.0
 10
37.40964350983504
 20
24.38842267642934
 30
0.0
 10
37.3873782653987
 20
24.39575193641492
 30
0.0
 10
37.37642625412825
 20
24.39798254959184
 30
0.0
 10
37.36030717981575
 20
24.39915296461049
 30
0.0
 10
37.35496276602324
 20
24.39917024298584
 30
0.0
 10
37.34460107544047
 20
24.39847272996023
 30
0.0
 10
37.33955933518859
 20
24.39776365811624
 30
0.0
 10
37.32486312046026
 20
24.3945561259903
 30
0.0
 10
37.31563003871354
 20
24.39100001323417
 30
0.0
 10
37.29840443141634
 20
24.38093648458614
 30
0.0
 10
37.29070408275324
 20
24.37460184674508
 30
0.0
 10
37.28052640435317
 20
24.36322859521865
 30
0.0
 10
37.27736591163077
 20
24.35912130094851
 30
0.0
 10
37.27152076478173
 20
24.35027129733598
 30
0.0
 10
37.26882819976267
 20
24.34550660115647
 30
0.0
 10
37.26167363760063
 20
24.33054243480055
 30
0.0
 10
37.2580571112257
 20
24.31962084714111
 30
0.0
 10
37.25314865549542
 20
24.29590752898509
 30
0.0
 10
37.25187251373733
 20
24.28302154658537
 30
0.0
 10
37.25187249948664
 20
24.26957318357633
 30
0.0
  0
SPLINE
  5
221
330
1F
100
AcDbEntity
  8
0
  6
SLD-Solid
 62
     8
370
    25
100
AcDbSpline
210
0.0
220
0.0
230
1.0
 70
     8
 71
     3
 72
    11
 73
     7
 74
     0
 42
0.00000001
 43
0.00000001
 40
0.0
 40
0.0
 40
0.0
 40
0.0
 40
0.2499343104872582
 40
0.4999562069915042
 40
0.7499781034957533
 40
1.0
 40
1.0
 40
1.0
 40
1.0
 10
34.03920608516116
 20
28.83736820756516
 30
0.0
 10
34.04784950391925
 20
28.84129316728725
 30
0.0
 10
34.06513937040179
 20
28.8491444621792
 30
0.0
 10
34.09616870432811
 20
28.84978164858564
 30
0.0
 10
34.12947256645316
 20
28.84277671495184
 30
0.0
 10
34.15262198943145
 20
28.83092129450775
 30
0.0
 10
34.16419670092058
 20
28.8249935842857
 30
0.0
  0
SPLINE
  5
222
330
1F
100
AcDbEntity
  8
0
  6
SLD-Solid
 62
     8
370
    25
100
AcDbSpline
210
0.0
220
0.0
230
1.0
 70
     8
 71
     3
 72
    12
 73
     8
 74
     0
 42
0.00000001
 43
0.00000001
 40
0.0
 40
0.0
 40
0.0
 40
0.0
 40
0.249973109919704
 40
0.499946219839408
 40
0.7499193297591137
 40
0.9998924396788185
 40
0.9999999999999999
 40
0.9999999999999999
 40
0.9999999999999999
 40
0.9999999999999999
 10
38.47401253225259
 20
21.34302625801275
 30
0.0
 10
38.47334694794932
 20
21.33006013182607
 30
0.0
 10
38.47201577934277
 20
21.30412787945273
 30
0.0
 10
38.46161925610365
 20
21.27143624706656
 30
0.0
 10
38.4448444416356
 20
21.24617874486972
 30
0.0
 10
38.43116167135152
 20
21.2318764049193
 30
0.0
 10
38.42222815268529
 20
21.22856807512691
 30
0.0
 10
38.42222431035659
 20
21.228566652206
 30
0.0
  0
SPLINE
  5
223
330
1F
100
AcDbEntity
  8
0
  6
SLD-Solid
 62
     8
370
    25
100
AcDbSpline
210
0.0
220
0.0
230
1.0
 70
     8
 71
     3
 72
    10
 73
     6
 74
     0
 42
0.00000001
 43
0.00000001
 40
0.0
 40
0.0
 40
0.0
 40
0.0
 40
0.156906711589951
 40
0.5178397530482961
 40
1.0
 40
1.0
 40
1.0
 40
1.0
 10
37.89475895583424
 20
22.03663508273637
 30
0.0
 10
37.89286861420052
 20
22.03511325447728
 30
0.0
 10
37.88662991328794
 20
22.03009075950635
 30
0.0
 10
37.86951185224838
 20
22.03899597329643
 30
0.0
 10
37.84796414572306
 20
22.05405237247475
 30
0.0
 10
37.83564113515909
 20
22.06266304136017
 30
0.0
  0
SPLINE
  5
224
330
1F
100
AcDbEntity
  8
0
  6
SLD-Solid
 62
     8
370
    25
100
AcDbSpline
210
0.0
220
0.0
230
1.0
 70
     8
 71
     3
 72
    28
 73
    24
 74
     0
 42
0.00000001
 43
0.00000001
 40
0.0
 40
0.0
 40
0.0
 40
0.0
 40
0.0572653831849309
 40
0.1145917585454291
 40
0.1718989857692851
 40
0.2198970252542192
 40
0.2679116552314085
 40
0.3159173105982713
 40
0.3639243149767051
 40
0.4119370160531995
 40
0.4599370081087089
 40
0.5079540731685471
 40
0.5559497654273815
 40
0.6039664012561492
 40
0.6519625896809993
 40
0.699971897868314
 40
0.7479754398642515
 40
0.795973279547319
 40
0.8439882900578909
 40
0.891978784171758
 40
0.9400011142974798
 40
0.987991118144851
 40
0.9999999999999999
 40
0.9999999999999999
 40
0.9999999999999999
 40
0.9999999999999999
 10
34.62013344822693
 20
23.91893700182714
 30
0.0
 10
34.68937099774243
 20
23.93619026797474
 30
0.0
 10
34.8279198402558
 20
23.97071517636701
 30
0.0
 10
35.04521108692318
 20
24.00804342227401
 30
0.0
 10
35.25511193811702
 20
24.03287346853169
 30
0.0
 10
35.45576273442827
 20
24.04623462662082
 30
0.0
 10
35.64534410713477
 20
24.05024162156291
 30
0.0
 10
35.83490836319893
 20
24.04570586951634
 30
0.0
 10
36.02326433198969
 20
24.03258548665651
 30
0.0
 10
36.2092732594046
 20
24.01104215582454
 30
0.0
 10
36.39178609348944
 20
23.98112352084721
 30
0.0
 10
36.56969014267694
 20
23.94309873316434
 30
0.0
 10
36.74188776730089
 20
23.89711568963611
 30
0.0
 10
36.90733704560781
 20
23.84354018718796
 30
0.0
 10
37.064999129383
 20
23.78262142249361
 30
0.0
 10
37.21395119543869
 20
23.71480526249351
 30
0.0
 10
37.35321449608484
 20
23.64044417665248
 30
0.0
 10
37.48204655330849
 20
23.56004746806146
 30
0.0
 10
37.59945362404964
 20
23.47404979749439
 30
0.0
 10
37.70522018043672
 20
23.38308164990113
 30
0.0
 10
37.7971419385772
 20
23.28738079933653
 30
0.0
 10
37.85934727746758
 20
23.21336605285398
 30
0.0
 10
37.88626134812165
 20
23.17050732352073
 30
0.0
 10
37.89164824641053
 20
23.16192907392495
 30
0.0
  0
LINE
  5
225
330
1F
100
AcDbEntity
  8
0
  6
SLD-Solid
 62
     8
370
    25
100
AcDbLine
 10
37.8916482464
 20
22.1418109597
 30
0.0
 11
37.8356435206
 21
22.0626625832
 31
0.0
  0
SPLINE
  5
226
330
1F
100
AcDbEntity
  8
0
  6
SLD-Solid
 62
     8
370
    25
100
AcDbSpline
210
0.0
220
0.0
230
1.0
 70
     8
 71
     3
 72
    22
 73
    18
 74
     0
 42
0.00000001
 43
0.00000001
 40
0.0
 40
0.0
 40
0.0
 40
0.0
 40
0.1250000000000024
 40
0.1250000000000024
 40
0.2500000000000049
 40
0.2500000000000049
 40
0.3750000000000073
 40
0.3750000000000073
 40
0.5000000000000098
 40
0.5000000000000098
 40
0.5625000000000121
 40
0.5625000000000121
 40
0.6250000000000144
 40
0.6250000000000144
 40
0.7500000000000114
 40
0.7500000000000114
 40
1.0
 40
1.0
 40
1.0
 40
1.0
 10
34.50149576514233
 20
24.05201345363278
 30
0.0
 10
34.50149576506531
 20
24.04304357668933
 30
0.0
 10
34.50208021417652
 20
24.03443675343772
 30
0.0
 10
34.50455052162362
 20
24.01828303949522
 30
0.0
 10
34.50647963126711
 20
24.01061773240744
 30
0.0
 10
34.51156607638865
 20
23.99714130515209
 30
0.0
 10
34.51477691259161
 20
23.99105432222294
 30
0.0
 10
34.52254309724749
 20
23.98006163964264
 30
0.0
 10
34.52691402559913
 20
23.9753752398755
 30
0.0
 10
34.53455271828682
 20
23.96847753331923
 30
0.0
 10
34.53723491367371
 20
23.96629793460384
 30
0.0
 10
34.54297126451618
 20
23.96188993614452
 30
0.0
 10
34.54599245804741
 20
23.95971497897974
 30
0.0
 10
34.55537461741247
 20
23.95333584559483
 30
0.0
 10
34.56228008778822
 20
23.94901511257101
 30
0.0
 10
34.58487457000334
 20
23.93583096273984
 30
0.0
 10
34.60172597330429
 20
23.92713085411619
 30
0.0
 10
34.62013268352469
 20
23.91893637189731
 30
0.0
  0
LINE
  5
227
330
1F
100
AcDbEntity
  8
0
  6
SLD-Solid
 62
     8
370
    25
100
AcDbLine
 10
37.8356413893
 20
22.0626631545
 30
0.0
 11
34.6201343864
 21
23.9189358354
 31
0.0
  0
LINE
  5
228
330
1F
100
AcDbEntity
  8
0
  6
SLD-Solid
 62
     8
370
    25
100
AcDbLine
 10
36.9608848601
 20
22.0418813316
 30
0.0
 11
37.6641825434
 21
22.0432638688
 31
0.0
  0
LINE
  5
229
330
1F
100
AcDbEntity
  8
0
  6
SLD-Solid
 62
     8
370
    25
100
AcDbLine
 10
34.5992600957
 20
23.8126059364
 30
0.0
 11
34.5968652114
 21
23.4066008259
 31
0.0
  0
ELLIPSE
  5
22A
330
1F
100
AcDbEntity
  8
0
  6
SLD-Solid
 62
     8
370
    25
100
AcDbEllipse
 10
36.9608848601
 20
22.1643624533
 30
0.0
 11
0.2808720728689025
 21
-0.04907333066773135
 31
0.0
210
0.0
220
0.0
230
1.0
 40
0.4243182637
 41
4.142888420725766
 42
4.786389529519068
  0
LINE
  5
22B
330
1F
100
AcDbEntity
  8
0
  6
SLD-Solid
 62
     8
370
    25
100
AcDbLine
 10
36.6791460021
 20
22.1392250064
 30
0.0
 11
36.7918991377
 21
22.0904542069
 31
0.0
  0
SPLINE
  5
22C
330
1F
100
AcDbEntity
  8
0
  6
SLD-Solid
 62
     8
370
    25
100
AcDbSpline
210
0.0
220
0.0
230
1.0
 70
     8
 71
     3
 72
    12
 73
     8
 74
     0
 42
0.00000001
 43
0.00000001
 40
0.0
 40
0.0
 40
0.0
 40
0.0
 40
0.2499999999999968
 40
0.2499999999999968
 40
0.4999999999999936
 40
0.4999999999999936
 40
1.0
 40
1.0
 40
1.0
 40
1.0
 10
36.57972193442469
 20
22.14764079320709
 30
0.0
 10
36.58335377052546
 20
22.1455441788538
 30
0.0
 10
36.58844539041574
 20
22.14462826302971
 30
0.0
 10
36.59858196033036
 20
22.14396980595911
 30
0.0
 10
36.60361696336674
 20
22.14413784911039
 30
0.0
 10
36.61832695240188
 20
22.14484506347049
 30
0.0
 10
36.62745961138528
 20
22.14558852889724
 30
0.0
 10
36.63612876164816
 20
22.14577896164218
 30
0.0
  0
ELLIPSE
  5
22D
330
1F
100
AcDbEntity
  8
0
  6
SLD-Solid
 62
     8
370
    25
100
AcDbEllipse
 10
36.5944371694
 20
22.0166647471
 30
0.0
 11
0.1242893126995383
 21
0.09415364854038086
 31
0.0
210
0.0
220
0.0
230
1.0
 40
0.7112342246
 41
0.4331026280439421
 42
0.7768288299023282
  0
SPLINE
  5
22E
330
1F
100
AcDbEntity
  8
0
  6
SLD-Solid
 62
     8
370
    25
100
AcDbSpline
210
0.0
220
0.0
230
1.0
 70
     8
 71
     3
 72
    14
 73
    10
 74
     0
 42
0.00000001
 43
0.00000001
 40
0.0
 40
0.0
 40
0.0
 40
0.0
 40
0.5000000000000029
 40
0.5000000000000029
 40
0.7500000000000037
 40
0.7500000000000037
 40
0.8750000000000018
 40
0.8750000000000018
 40
1.0
 40
1.0
 40
1.0
 40
1.0
 10
34.61656946790784
 20
23.31164572574663
 30
0.0
 10
34.61221233541719
 20
23.30896547591856
 30
0.0
 10
34.60834185514039
 20
23.30523211134983
 30
0.0
 10
34.60499346808797
 20
23.29793249347523
 30
0.0
 10
34.60431480239863
 20
23.29520886414866
 30
0.0
 10
34.60489394797867
 20
23.29102006036877
 30
0.0
 10
34.60536053538162
 20
23.28960139451468
 30
0.0
 10
34.60717353333755
 20
23.28686706785405
 30
0.0
 10
34.60851647108521
 20
23.28559348518886
 30
0.0
 10
34.61033261087843
 20
23.28454505000281
 30
0.0
  0
ELLIPSE
  5
22F
330
1F
100
AcDbEntity
  8
0
  6
SLD-Solid
 62
     8
370
    25
100
AcDbEllipse
 10
34.5956173759
 20
23.1705588525
 30
0.0
 11
0.04586399833313237
 21
0.1461355418048846
 31
0.0
210
0.0
220
0.0
230
1.0
 40
0.3704367896
 41
0.0593833339742725
 42
0.4031095358326127
  0
ARC
  5
230
330
1F
100
AcDbEntity
  8
0
  6
SLD-Solid
 62
     8
370
    25
100
AcDbCircle
 10
37.6714377682
 20
22.0337240766
 30
0.0
 40
0.0119852377260242
100
AcDbArc
 50
64.0395452595
 51
127.2537983702
  0
LWPOLYLINE
  5
231
330
1F
100
AcDbEntity
  8
0
  6
SLD-Solid
 62
     8
370
    25
100
AcDbPolyline
 90
        7
 70
   128
 43
0.0
 10
37.739013582
 20
21.904027784
 10
37.746256818
 20
21.9046616897
 10
37.7528707498
 20
21.90648048
 10
37.7582874232
 20
21.909327971
 10
37.7620416957
 20
21.9129596419
 10
37.7638111789
 20
21.9170636325
 10
37.763928449
 20
21.918466853
  0
ELLIPSE
  5
232
330
1F
100
AcDbEntity
  8
0
  6
SLD-Solid
 62
     8
370
    25
100
AcDbEllipse
 10
34.5968652114
 20
23.5290819477
 30
0.0
 11
-0.05769974256261179
 21
0.2032627001915763
 31
0.0
210
0.0
220
0.0
230
1.0
 40
0.1906992486
 41
2.162336684908072
 42
2.805837793701175
  0
LINE
  5
233
330
1F
100
AcDbEntity
  8
0
  6
SLD-Solid
 62
     8
370
    25
100
AcDbLine
 10
34.6385717132
 20
23.3335436692
 30
0.0
 11
34.6381877638
 21
23.3174451182
 31
0.0
  0
ARC
  5
234
330
1F
100
AcDbEntity
  8
0
  6
SLD-Solid
 62
     8
370
    25
100
AcDbCircle
 10
34.6065830971
 20
23.8023839032
 30
0.0
 40
0.0125744308975511
100
AcDbArc
 50
65.6928809539
 51
125.6175774752
  0
INSERT
  5
23A
330
1F
100
AcDbEntity
  8
NOTES
100
AcDbBlockReference
  2
SW_NOTE_0_2
 10
33.2614758866
 20
20.9384149547
 30
0.0
  0
SPLINE
  5
23B
330
1F
100
AcDbEntity
  8
0
  6
SLD-Solid
 62
     7
370
    25
100
AcDbSpline
210
0.0
220
0.0
230
1.0
 70
    11
 71
     3
 72
    23
 73
    19
 74
     0
 42
0.00000001
 43
0.00000001
 40
0.0
 40
0.0
 40
0.0
 40
0.0
 40
0.0624849740518055
 40
0.1250357751483641
 40
0.1875917179282152
 40
0.2500588548776614
 40
0.3124804024674825
 40
0.3749217929836639
 40
0.4374102892443943
 40
0.4999479072189486
 40
0.5626291167538906
 40
0.6251007825614189
 40
0.6876086449754432
 40
0.7501594102767128
 40
0.8126418335497587
 40
0.8750907215334045
 40
0.9375425341153668
 40
1.0
 40
1.0
 40
1.0
 40
1.0
 10
36.5884984314831
 20
12.3170836747873
 30
0.0
 10
36.5884984298289
 20
12.32782900288549
 30
0.0
 10
36.58426922706803
 20
12.34933102415409
 30
0.0
 10
36.56621387026717
 20
12.37680352523009
 30
0.0
 10
36.53906582247081
 20
12.39538411425877
 30
0.0
 10
36.50681741332236
 20
12.4019831607134
 30
0.0
 10
36.47459419607117
 20
12.3953682439801
 30
0.0
 10
36.44748277647541
 20
12.3768091376804
 30
0.0
 10
36.42942748333103
 20
12.34936464790395
 30
0.0
 10
36.42306181931778
 20
12.31708725744737
 30
0.0
 10
36.42942100474597
 20
12.28480664396416
 30
0.0
 10
36.44749997103747
 20
12.25733844596136
 30
0.0
 10
36.47464513928372
 20
12.23876970287288
 30
0.0
 10
36.50691531047995
 20
12.23217891722398
 30
0.0
 10
36.53916061622785
 20
12.23882736417018
 30
0.0
 10
36.5662570565084
 20
12.25741826357893
 30
0.0
 10
36.58427537557015
 20
12.28486289908355
 30
0.0
 10
36.58849843313659
 20
12.3063430771749
 30
0.0
 10
36.5884984314831
 20
12.3170836747873
 30
0.0
  0
SPLINE
  5
23C
330
1F
100
AcDbEntity
  8
0
  6
SLD-Solid
 62
     7
370
    25
100
AcDbSpline
210
0.0
220
0.0
230
1.0
 70
    11
 71
     3
 72
    23
 73
    19
 74
     0
 42
0.00000001
 43
0.00000001
 40
0.0
 40
0.0
 40
0.0
 40
0.0
 40
0.0624849740518055
 40
0.1250357751483636
 40
0.1875917179282151
 40
0.2500588548776613
 40
0.3124804024674825
 40
0.3749217929836639
 40
0.4374102892443943
 40
0.4999479072189484
 40
0.5626291167538906
 40
0.6251007825614188
 40
0.6876086449754429
 40
0.7501594102767127
 40
0.8126418335497586
 40
0.8750907215334044
 40
0.9375425341153667
 40
0.9999999999999999
 40
0.9999999999999999
 40
0.9999999999999999
 40
0.9999999999999999
 10
36.5884984314831
 20
16.1170836747873
 30
0.0
 10
36.5884984298289
 20
16.12782900288549
 30
0.0
 10
36.58426922706803
 20
16.14933102415409
 30
0.0
 10
36.56621387026716
 20
16.17680352523009
 30
0.0
 10
36.53906582247081
 20
16.19538411425877
 30
0.0
 10
36.50681741332236
 20
16.2019831607134
 30
0.0
 10
36.47459419607117
 20
16.19536824398011
 30
0.0
 10
36.44748277647541
 20
16.1768091376804
 30
0.0
 10
36.42942748333103
 20
16.14936464790395
 30
0.0
 10
36.42306181931778
 20
16.11708725744737
 30
0.0
 10
36.42942100474597
 20
16.08480664396416
 30
0.0
 10
36.44749997103747
 20
16.05733844596136
 30
0.0
 10
36.47464513928372
 20
16.03876970287288
 30
0.0
 10
36.50691531047995
 20
16.03217891722398
 30
0.0
 10
36.53916061622785
 20
16.03882736417018
 30
0.0
 10
36.5662570565084
 20
16.05741826357893
 30
0.0
 10
36.58427537557015
 20
16.08486289908355
 30
0.0
 10
36.58849843313659
 20
16.10634307717489
 30
0.0
 10
36.5884984314831
 20
16.1170836747873
 30
0.0
  0
SPLINE
  5
23D
330
1F
100
AcDbEntity
  8
0
  6
SLD-Solid
 62
     7
370
    25
100
AcDbSpline
210
0.0
220
0.0
230
1.0
 70
    11
 71
     3
 72
    39
 73
    35
 74
     0
 42
0.00000001
 43
0.00000001
 40
0.0
 40
0.0
 40
0.0
 40
0.0
 40
0.0316345710633565
 40
0.0631382935138735
 40
0.0945084804276814
 40
0.1258932037984923
 40
0.156991736929874
 40
0.1881349992708876
 40
0.2191025344175205
 40
0.2500388139269438
 40
0.28104293555077
 40
0.3119399938242619
 40
0.3430948284842722
 40
0.3741684791392549
 40
0.4055207542060647
 40
0.4368901703137532
 40
0.4683539499200733
 40
0.4999940161213881
 40
0.5315120742418653
 40
0.5630793562839639
 40
0.5943975161178321
 40
0.6257725933806605
 40
0.6569285125972274
 40
0.6879960379820773
 40
0.7190503379654162
 40
0.74990789760923
 40
0.7809432461075844
 40
0.8118390348033134
 40
0.8429714885206657
 40
0.8741269058293505
 40
0.9053975405793608
 40
0.9368643996010115
 40
0.968253592715717
 40
1.0
 40
1.0
 40
1.0
 40
1.0
 10
36.75347170295562
 20
16.1170836750162
 30
0.0
 10
36.75347175298932
 20
16.10071605893538
 30
0.0
 10
36.75022329773368
 20
16.0680490690338
 30
0.0
 10
36.73585035180545
 20
16.02107957557708
 30
0.0
 10
36.7126320044388
 20
15.97797180224996
 30
0.0
 10
36.68157263817653
 20
15.94041252640576
 30
0.0
 10
36.64388251227656
 20
15.90970734705698
 30
0.0
 10
36.60111444885526
 20
15.88701093242075
 30
0.0
 10
36.55481359555078
 20
15.87307505674858
 30
0.0
 10
36.50674546755514
 20
15.86838422726532
 30
0.0
 10
36.45871525097871
 20
15.87310563055514
 30
0.0
 10
36.4124214781955
 20
15.88707436692901
 30
0.0
 10
36.36970312402472
 20
15.90977255713747
 30
0.0
 10
36.33204618074021
 20
15.94047986988523
 30
0.0
 10
36.30101727742605
 20
15.97802428115187
 30
0.0
 10
36.27782471777281
 20
16.02110297108426
 30
0.0
 10
36.26345984376422
 20
16.06805461827259
 30
0.0
 10
36.25858904305444
 20
16.11701145997879
 30
0.0
 10
36.26344240567998
 20
16.16602055367378
 30
0.0
 10
36.27777308971344
 20
16.21294790704984
 30
0.0
 10
36.3009685780489
 20
16.25606758122914
 30
0.0
 10
36.33199844490289
 20
16.29364810266896
 30
0.0
 10
36.36966117138966
 20
16.32436627659643
 30
0.0
 10
36.41244383817746
 20
16.34710621046338
 30
0.0
 10
36.458704974476
 20
16.36106022331459
 30
0.0
 10
36.50678850774723
 20
16.3657807270214
 30
0.0
 10
36.5547978880804
 20
16.36109670085642
 30
0.0
 10
36.60110437271685
 20
16.34715633971673
 30
0.0
 10
36.6438647129531
 20
16.32447425920793
 30
0.0
 10
36.68153064978052
 20
16.29379278668726
 30
0.0
 10
36.71260963007731
 20
16.25622710114857
 30
0.0
 10
36.73580918429167
 20
16.21318383580797
 30
0.0
 10
36.75021165236209
 20
16.16617583644408
 30
0.0
 10
36.75347165274503
 20
16.13350915476535
 30
0.0
 10
36.75347170295561
 20
16.1170836750162
 30
0.0
  0
SPLINE
  5
23E
330
1F
100
AcDbEntity
  8
0
  6
SLD-Solid
 62
     7
370
    25
100
AcDbSpline
210
0.0
220
0.0
230
1.0
 70
    11
 71
     3
 72
    39
 73
    35
 74
     0
 42
0.00000001
 43
0.00000001
 40
0.0
 40
0.0
 40
0.0
 40
0.0
 40
0.0316345710633568
 40
0.0631382935138702
 40
0.0945084804276814
 40
0.1258932037984897
 40
0.156991736929871
 40
0.1881349992708867
 40
0.2191025344175206
 40
0.2500388139269431
 40
0.2810429355507686
 40
0.311939993824262
 40
0.3430948284842721
 40
0.374168479139257
 40
0.4055207542060688
 40
0.4368901703137565
 40
0.4683539499200776
 40
0.4999940161213902
 40
0.5315120742418665
 40
0.5630793562839659
 40
0.5943975161178351
 40
0.6257725933806613
 40
0.6569285125972266
 40
0.6879960379820789
 40
0.7190503379654161
 40
0.7499078976092299
 40
0.7809432461075835
 40
0.8118390348033122
 40
0.8429714885206657
 40
0.8741269058293519
 40
0.9053975405793617
 40
0.9368643996010116
 40
0.9682535927157175
 40
1.0
 40
1.0
 40
1.0
 40
1.0
 10
36.75347170295562
 20
12.3170836750162
 30
0.0
 10
36.75347175298932
 20
12.30071605893538
 30
0.0
 10
36.75022329773368
 20
12.2680490690338
 30
0.0
 10
36.73585035180545
 20
12.22107957557709
 30
0.0
 10
36.7126320044388
 20
12.17797180224997
 30
0.0
 10
36.68157263817653
 20
12.14041252640576
 30
0.0
 10
36.64388251227656
 20
12.10970734705699
 30
0.0
 10
36.60111444885526
 20
12.08701093242075
 30
0.0
 10
36.55481359555078
 20
12.07307505674859
 30
0.0
 10
36.50674546755514
 20
12.06838422726533
 30
0.0
 10
36.45871525097871
 20
12.07310563055514
 30
0.0
 10
36.4124214781955
 20
12.08707436692901
 30
0.0
 10
36.36970312402471
 20
12.10977255713746
 30
0.0
 10
36.33204618074021
 20
12.14047986988523
 30
0.0
 10
36.30101727742605
 20
12.17802428115188
 30
0.0
 10
36.27782471777281
 20
12.22110297108426
 30
0.0
 10
36.26345984376422
 20
12.2680546182726
 30
0.0
 10
36.25858904305444
 20
12.3170114599788
 30
0.0
 10
36.26344240567999
 20
12.36602055367378
 30
0.0
 10
36.27777308971343
 20
12.41294790704985
 30
0.0
 10
36.3009685780489
 20
12.45606758122914
 30
0.0
 10
36.3319984449029
 20
12.49364810266896
 30
0.0
 10
36.36966117138966
 20
12.52436627659643
 30
0.0
 10
36.41244383817746
 20
12.54710621046338
 30
0.0
 10
36.458704974476
 20
12.56106022331458
 30
0.0
 10
36.50678850774723
 20
12.5657807270214
 30
0.0
 10
36.5547978880804
 20
12.56109670085641
 30
0.0
 10
36.60110437271685
 20
12.54715633971673
 30
0.0
 10
36.6438647129531
 20
12.52447425920793
 30
0.0
 10
36.68153064978052
 20
12.49379278668726
 30
0.0
 10
36.71260963007731
 20
12.45622710114857
 30
0.0
 10
36.73580918429167
 20
12.41318383580797
 30
0.0
 10
36.75021165236209
 20
12.36617583644409
 30
0.0
 10
36.75347165274503
 20
12.33350915476535
 30
0.0
 10
36.75347170295561
 20
12.3170836750162
 30
0.0
  0
LINE
  5
23F
330
1F
100
AcDbEntity
  8
0
  6
SLD-Solid
 62
     7
370
    25
100
AcDbLine
 10
38.947599861
 20
11.8320836748
 30
0.0
 11
38.947599861
 21
16.6020836748
 31
0.0
  0
LINE
  5
240
330
1F
100
AcDbEntity
  8
0
  6
SLD-Solid
 62
     7
370
    25
100
AcDbLine
 10
34.0660826599
 20
16.6020836748
 30
0.0
 11
34.0660826599
 21
11.8320836748
 31
0.0
  0
SPLINE
  5
241
330
1F
100
AcDbEntity
  8
0
  6
SLD-Solid
 62
     7
370
    25
100
AcDbSpline
210
0.0
220
0.0
230
1.0
 70
     8
 71
     3
 72
    23
 73
    19
 74
     0
 42
0.00000001
 43
0.00000001
 40
0.0
 40
0.0
 40
0.0
 40
0.0
 40
0.0385548746236628
 40
0.0752376963806799
 40
0.1101678610177281
 40
0.1434648522489152
 40
0.1752480607856755
 40
0.2056365154245468
 40
0.2347485149368702
 40
0.2627011539407639
 40
0.3769599909322418
 40
0.4878253267579433
 40
0.5940866059495051
 40
0.7227704851058139
 40
0.7875766781851007
 40
0.8552139780488545
 40
0.9259551674051609
 40
1.0
 40
1.0
 40
1.0
 40
1.0
 10
38.94759720024988
 20
16.6020836747873
 30
0.0
 10
38.94756308030687
 20
16.60540771513074
 30
0.0
 10
38.9474964971332
 20
16.61189439523431
 30
0.0
 10
38.94694028154279
 20
16.62137921446839
 30
0.0
 10
38.94606398321952
 20
16.63038290061363
 30
0.0
 10
38.94485370230994
 20
16.63892173704337
 30
0.0
 10
38.94333179252228
 20
16.64701178389535
 30
0.0
 10
38.94151172947038
 20
16.65466837010986
 30
0.0
 10
38.93940725970976
 20
16.66190803347144
 30
0.0
 10
38.93457244481035
 20
16.67585014547704
 30
0.0
 10
38.92453775783427
 20
16.69545860767364
 30
0.0
 10
38.90522330173469
 20
16.71666501841639
 30
0.0
 10
38.88048501771577
 20
16.73303000430426
 30
0.0
 10
38.85645745182662
 20
16.74226374459865
 30
0.0
 10
38.83472759633579
 20
16.7474503707495
 30
0.0
 10
38.81751757484711
 20
16.7501517914879
 30
0.0
 10
38.79935134268442
 20
16.75179789540991
 30
0.0
 10
38.78690883600437
 20
16.75198697687785
 30
0.0
 10
38.78054562972403
 20
16.7520836747873
 30
0.0
  0
SPLINE
  5
242
330
1F
100
AcDbEntity
  8
0
  6
SLD-Solid
 62
     7
370
    25
100
AcDbSpline
210
0.0
220
0.0
230
1.0
 70
     8
 71
     3
 72
    22
 73
    18
 74
     0
 42
0.00000001
 43
0.00000001
 40
0.0
 40
0.0
 40
0.0
 40
0.0
 40
0.0425587779506214
 40
0.0840297529815314
 40
0.1244417517490795
 40
0.1638301967499579
 40
0.2022378342825475
 40
0.2397154762795788
 40
0.2763227461203383
 40
0.4050392823249317
 40
0.5113165889969087
 40
0.6219248490549099
 40
0.7357513417540726
 40
0.7930973719880984
 40
0.8556065898858005
 40
0.9242486646379896
 40
1.0
 40
1.0
 40
1.0
 40
1.0
 10
34.23313689118088
 20
16.7520836747873
 30
0.0
 10
34.22947963291091
 20
16.75205163388151
 30
0.0
 10
34.22225859594008
 20
16.7519883710359
 30
0.0
 10
34.21158435772188
 20
16.75145502291167
 30
0.0
 10
34.20121346842833
 20
16.75059054205997
 30
0.0
 10
34.1911521646946
 20
16.74936019028054
 30
0.0
 10
34.18140663003017
 20
16.74776564708638
 30
0.0
 10
34.17198119555241
 20
16.74579838054411
 30
0.0
 10
34.15519917177286
 20
16.7414738350259
 30
0.0
 10
34.133409631201
 20
16.7331358768276
 30
0.0
 10
34.10865949670003
 20
16.71683065038302
 30
0.0
 10
34.08933092554479
 20
16.69571592610132
 30
0.0
 10
34.07810098501655
 20
16.67392998060168
 30
0.0
 10
34.07198267559209
 20
16.65472386956939
 30
0.0
 10
34.06862356193574
 20
16.63880359918885
 30
0.0
 10
34.06646566624487
 20
16.62106829859512
 30
0.0
 10
34.06621619675779
 20
16.60861624317396
 30
0.0
 10
34.06608532065503
 20
16.6020836747873
 30
0.0
  0
SPLINE
  5
243
330
1F
100
AcDbEntity
  8
0
  6
SLD-Solid
 62
     7
370
    25
100
AcDbSpline
210
0.0
220
0.0
230
1.0
 70
    24
 71
     3
 72
    48
 73
    44
 74
     0
 42
0.00000001
 43
0.00000001
 40
0.0
 40
0.0
 40
0.0
 40
0.0
 40
0.0050732544620948
 40
0.0101449372725882
 40
0.0152158284771856
 40
0.0202867084869065
 40
0.0253583577179389
 40
0.0304315562314795
 40
0.0355070833743947
 40
0.0405857174215243
 40
0.0456682352204481
 40
0.0507554118395176
 40
0.0828382332230202
 40
0.1149403083140089
 40
0.1470271946463466
 40
0.1791251717917274
 40
0.211217149370843
 40
0.243310028773557
 40
0.2754067164371625
 40
0.3074949080746044
 40
0.3395945130817672
 40
0.3716798302847217
 40
0.4037791483483808
 40
0.4358647972410912
 40
0.500000475370152
 40
0.5641361534992132
 40
0.5962179957182268
 40
0.6283211204461814
 40
0.6604026349212466
 40
0.692506042642271
 40
0.7245904340860182
 40
0.7566909219328003
 40
0.7887800022564835
 40
0.8208757789120013
 40
0.852969956670462
 40
0.8850606423961093
 40
0.9171589163663153
 40
0.9492455388835108
 40
0.9594142879209323
 40
0.9695678782338679
 40
0.9797125330628281
 40
0.9898544920971316
 40
1.0
 40
1.0
 40
1.0
 40
1.0
 10
34.23313242680771
 20
16.7520836747873
 30
0.0
 10
34.23659779457105
 20
16.7520836747873
 30
0.0
 10
34.24352745655589
 20
16.7520836747873
 30
0.0
 10
34.25436140466872
 20
16.7520836747873
 30
0.0
 10
34.26551426978028
 20
16.7520836747873
 30
0.0
 10
34.27701776217427
 20
16.7520836747873
 30
0.0
 10
34.28886338693307
 20
16.7520836747873
 30
0.0
 10
34.30105341352682
 20
16.7520836747873
 30
0.0
 10
34.31358725375004
 20
16.7520836747873
 30
0.0
 10
34.32646498404899
 20
16.7520836747873
 30
0.0
 10
34.3396868806964
 20
16.7520836747873
 30
0.0
 10
34.37724019107922
 20
16.7520836747873
 30
0.0
 10
34.44432048401041
 20
16.7520836747873
 30
0.0
 10
34.55022115017266
 20
16.7520836747873
 30
0.0
 10
34.66807496863327
 20
16.7520836747873
 30
0.0
 10
34.79723712099454
 20
16.7520836747873
 30
0.0
 10
34.93683076080913
 20
16.7520836747873
 30
0.0
 10
35.08609053967513
 20
16.7520836747873
 30
0.0
 10
35.24400639631394
 20
16.7520836747873
 30
0.0
 10
35.40970903298677
 20
16.7520836747873
 30
0.0
 10
35.58208252914383
 20
16.7520836747873
 30
0.0
 10
35.76016582351483
 20
16.7520836747873
 30
0.0
 10
35.94278859079325
 20
16.7520836747873
 30
0.0
 10
36.19077936857948
 20
16.7520836747873
 30
0.0
 10
36.50684125544263
 20
16.7520836747873
 30
0.0
 10
36.82289566444558
 20
16.7520836747873
 30
0.0
 10
37.07088659706211
 20
16.7520836747873
 30
0.0
 10
37.25350245366935
 20
16.7520836747873
 30
0.0
 10
37.43159302768144
 20
16.7520836747873
 30
0.0
 10
37.60396014983898
 20
16.7520836747873
 30
0.0
 10
37.76966969840753
 20
16.7520836747873
 30
0.0
 10
37.92757986706341
 20
16.7520836747873
 30
0.0
 10
38.07684603025626
 20
16.7520836747873
 30
0.0
 10
38.21643478708692
 20
16.7520836747873
 30
0.0
 10
38.34560270737889
 20
16.7520836747873
 30
0.0
 10
38.46345232742026
 20
16.7520836747873
 30
0.0
 10
38.56935889565366
 20
16.7520836747873
 30
0.0
 10
38.64135762836383
 20
16.7520836747873
 30
0.0
 10
38.68737207719489
 20
16.7520836747873
 30
0.0
 10
38.71279576859502
 20
16.7520836747873
 30
0.0
 10
38.73681628994823
 20
16.7520836747873
 30
0.0
 10
38.75956134803437
 20
16.7520836747873
 30
0.0
 10
38.77355319285618
 20
16.7520836747873
 30
0.0
 10
38.78055033905758
 20
16.7520836747873
 30
0.0
  0
SPLINE
  5
244
330
1F
100
AcDbEntity
  8
0
  6
SLD-Solid
 62
     7
370
    25
100
AcDbSpline
210
0.0
220
0.0
230
1.0
 70
     8
 71
     3
 72
    22
 73
    18
 74
     0
 42
0.00000001
 43
0.00000001
 40
0.0
 40
0.0
 40
0.0
 40
0.0
 40
0.042558777956104
 40
0.0840297529903701
 40
0.1244417517593233
 40
0.1638301967598444
 40
0.2022378342904649
 40
0.2397154762840332
 40
0.2763227461199737
 40
0.4050392823490634
 40
0.5113165889973553
 40
0.6219248490620113
 40
0.7357513417542483
 40
0.7930973719191639
 40
0.855606589788367
 40
0.9242486645601903
 40
1.0
 40
1.0
 40
1.0
 40
1.0
 10
38.78054562972411
 20
11.6820836747873
 30
0.0
 10
38.78420288799455
 20
11.6821157156931
 30
0.0
 10
38.79142392496615
 20
11.68217897853872
 30
0.0
 10
38.80209816318523
 20
11.68271232666308
 30
0.0
 10
38.81246905247915
 20
11.68357680751491
 30
0.0
 10
38.82253035621277
 20
11.68480715929444
 30
0.0
 10
38.83227589087667
 20
11.68640170248862
 30
0.0
 10
38.84170132535353
 20
11.68836896903078
 30
0.0
 10
38.85848334913435
 20
11.69269351454936
 30
0.0
 10
38.88027288970574
 20
11.7010314727477
 30
0.0
 10
38.90502302420686
 20
11.71733669919335
 30
0.0
 10
38.92435159536023
 20
11.73845142347422
 30
0.0
 10
38.93558153588592
 20
11.76023736896811
 30
0.0
 10
38.9416998453089
 20
11.77944347999134
 30
0.0
 10
38.9450589589655
 20
11.79536375036496
 30
0.0
 10
38.94721685465883
 20
11.81309905096439
 30
0.0
 10
38.94746632414669
 20
11.82555110639394
 30
0.0
 10
38.94759720024988
 20
11.8320836747873
 30
0.0
  0
SPLINE
  5
245
330
1F
100
AcDbEntity
  8
0
  6
SLD-Solid
 62
     7
370
    25
100
AcDbSpline
210
0.0
220
0.0
230
1.0
 70
    24
 71
     3
 72
    48
 73
    44
 74
     0
 42
0.00000001
 43
0.00000001
 40
0.0
 40
0.0
 40
0.0
 40
0.0
 40
0.0050732544619918
 40
0.0101449372724052
 40
0.0152158284769455
 40
0.0202867084866322
 40
0.025358357717653
 40
0.030431556231205
 40
0.0355070833741542
 40
0.0405857174213406
 40
0.0456682352203435
 40
0.0507554118395146
 40
0.0828382332239357
 40
0.1149403083140382
 40
0.1470271946467842
 40
0.179125171791674
 40
0.2112171493727375
 40
0.2433100287735712
 40
0.2754067164404321
 40
0.3074949080746192
 40
0.339594513082251
 40
0.3716798302847185
 40
0.4037791483496185
 40
0.4358647972411034
 40
0.5000004753701551
 40
0.5641361534992055
 40
0.5962179957204344
 40
0.628321120446212
 40
0.6604026349222768
 40
0.6925060426422565
 40
0.7245904340828407
 40
0.7566909219328058
 40
0.7887800022542816
 40
0.8208757789119534
 40
0.8529699566685393
 40
0.8850606423961578
 40
0.9171589163641803
 40
0.9492455388834826
 40
0.9594142879209338
 40
0.9695678782338857
 40
0.9797125330628507
 40
0.9898544920971478
 40
1.0
 40
1.0
 40
1.0
 40
1.0
 10
38.78055009409699
 20
11.6820836747873
 30
0.0
 10
38.77708472633373
 20
11.6820836747873
 30
0.0
 10
38.77015506434901
 20
11.6820836747873
 30
0.0
 10
38.75932111623635
 20
11.6820836747873
 30
0.0
 10
38.74816825112492
 20
11.6820836747873
 30
0.0
 10
38.73666475873102
 20
11.6820836747873
 30
0.0
 10
38.72481913397228
 20
11.6820836747873
 30
0.0
 10
38.71262910737855
 20
11.6820836747873
 30
0.0
 10
38.70009526715531
 20
11.6820836747873
 30
0.0
 10
38.68721753685629
 20
11.6820836747873
 30
0.0
 10
38.67399564020879
 20
11.6820836747873
 30
0.0
 10
38.63644232982535
 20
11.6820836747873
 30
0.0
 10
38.5693620368949
 20
11.6820836747873
 30
0.0
 10
38.46346137073074
 20
11.6820836747873
 30
0.0
 10
38.34560755226983
 20
11.6820836747873
 30
0.0
 10
38.21644539990687
 20
11.6820836747873
 30
0.0
 10
38.07685176009458
 20
11.6820836747873
 30
0.0
 10
37.92759198122146
 20
11.6820836747873
 30
0.0
 10
37.76967612458471
 20
11.6820836747873
 30
0.0
 10
37.60397348791178
 20
11.6820836747873
 30
0.0
 10
37.43159999176001
 20
11.6820836747873
 30
0.0
 10
37.25351669738689
 20
11.6820836747873
 30
0.0
 10
37.0708939301095
 20
11.6820836747873
 30
0.0
 10
36.82290315232287
 20
11.6820836747873
 30
0.0
 10
36.50684126546228
 20
11.6820836747873
 30
0.0
 10
36.19078685645518
 20
11.6820836747873
 30
0.0
 10
35.94279592383822
 20
11.6820836747873
 30
0.0
 10
35.76018006722941
 20
11.6820836747873
 30
0.0
 10
35.58208949322258
 20
11.6820836747873
 30
0.0
 10
35.4097223710695
 20
11.6820836747873
 30
0.0
 10
35.24401282250315
 20
11.6820836747873
 30
0.0
 10
35.08610265385018
 20
11.6820836747873
 30
0.0
 10
34.93683649065125
 20
11.6820836747873
 30
0.0
 10
34.79724773382362
 20
11.6820836747873
 30
0.0
 10
34.66807981352885
 20
11.6820836747873
 30
0.0
 10
34.55023019348926
 20
11.6820836747873
 30
0.0
 10
34.44432362525288
 20
11.6820836747873
 30
0.0
 10
34.37232489254356
 20
11.6820836747873
 30
0.0
 10
34.32631044371001
 20
11.6820836747873
 30
0.0
 10
34.30088675230971
 20
11.6820836747873
 30
0.0
 10
34.27686623095641
 20
11.6820836747873
 30
0.0
 10
34.25412117287032
 20
11.6820836747873
 30
0.0
 10
34.24012932804865
 20
11.6820836747873
 30
0.0
 10
34.23313218184732
 20
11.6820836747873
 30
0.0
  0
SPLINE
  5
246
330
1F
100
AcDbEntity
  8
0
  6
SLD-Solid
 62
     7
370
    25
100
AcDbSpline
210
0.0
220
0.0
230
1.0
 70
     8
 71
     3
 72
    23
 73
    19
 74
     0
 42
0.00000001
 43
0.00000001
 40
0.0
 40
0.0
 40
0.0
 40
0.0
 40
0.0385548745557814
 40
0.0752376962681374
 40
0.1101678608815647
 40
0.1434648521081984
 40
0.175248060657714
 40
0.2056365153250986
 40
0.2347485148803674
 40
0.2627011539405529
 40
0.3769599907210608
 40
0.4878253267580965
 40
0.5940866056890675
 40
0.7227704851058614
 40
0.7875766781278931
 40
0.8552139779692857
 40
0.9259551673427708
 40
1.0
 40
1.0
 40
1.0
 40
1.0
 10
34.06608532065504
 20
11.8320836747873
 30
0.0
 10
34.06611944059796
 20
11.82875963444972
 30
0.0
 10
34.06618602377146
 20
11.82227295435587
 30
0.0
 10
34.06674223936047
 20
11.81278813513351
 30
0.0
 10
34.06761853768208
 20
11.80378444899446
 30
0.0
 10
34.06882881859017
 20
11.79524561256589
 30
0.0
 10
34.07035072837702
 20
11.78715556571057
 30
0.0
 10
34.07217079142922
 20
11.77949897948869
 30
0.0
 10
34.07427526119179
 20
11.77225931611622
 30
0.0
 10
34.07911007608605
 20
11.75831720411878
 30
0.0
 10
34.08914476306066
 20
11.73870874191752
 30
0.0
 10
34.1084592191402
 20
11.7175023311847
 30
0.0
 10
34.13319750316856
 20
11.70113734528004
 30
0.0
 10
34.1572250690521
 20
11.69190360498301
 30
0.0
 10
34.17895492455797
 20
11.68671697882738
 30
0.0
 10
34.19616494604108
 20
11.68401555808864
 30
0.0
 10
34.21433117820842
 20
11.68236945416508
 30
0.0
 10
34.2267736848952
 20
11.6821803726969
 30
0.0
 10
34.23313689118084
 20
11.6820836747873
 30
0.0
  0
LINE
  5
247
330
1F
100
AcDbEntity
  8
0
  6
SLD-Solid
 62
     7
370
    25
100
AcDbLine
 10
33.3343412605
 20
11.2840836748
 30
0.0
 11
33.3343412605
 21
17.1500836748
 31
0.0
  0
ARC
  5
248
330
1F
100
AcDbEntity
  8
0
  6
SLD-Solid
 62
     7
370
    25
100
AcDbCircle
 10
33.5843412605
 20
11.2840836748
 30
0.0
 40
0.25
100
AcDbArc
 50
180.0
 51
270.0
  0
ARC
  5
249
330
1F
100
AcDbEntity
  8
0
  6
SLD-Solid
 62
     7
370
    25
100
AcDbCircle
 10
33.5843412605
 20
17.1500836748
 30
0.0
 40
0.25
100
AcDbArc
 50
90.0
 51
180.0
  0
LINE
  5
24A
330
1F
100
AcDbEntity
  8
0
  6
SLD-Solid
 62
     7
370
    25
100
AcDbLine
 10
33.5843412605
 20
17.4000836748
 30
0.0
 11
39.4293412605
 21
17.4000836748
 31
0.0
  0
LINE
  5
24B
330
1F
100
AcDbEntity
  8
0
  6
SLD-Solid
 62
     7
370
    25
100
AcDbLine
 10
39.4293412605
 20
11.0340836748
 30
0.0
 11
33.5843412605
 21
11.0340836748
 31
0.0
  0
ARC
  5
24C
330
1F
100
AcDbEntity
  8
0
  6
SLD-Solid
 62
     7
370
    25
100
AcDbCircle
 10
39.4293412605
 20
17.1500836748
 30
0.0
 40
0.2500000000000071
100
AcDbArc
 50
0.0
 51
90.0
  0
ARC
  5
24D
330
1F
100
AcDbEntity
  8
0
  6
SLD-Solid
 62
     7
370
    25
100
AcDbCircle
 10
39.4293412605
 20
11.2840836748
 30
0.0
 40
0.2500000000000071
100
AcDbArc
 50
270.0
 51
0.0
  0
LINE
  5
24E
330
1F
100
AcDbEntity
  8
0
  6
SLD-Solid
 62
     7
370
    25
100
AcDbLine
 10
39.6793412605
 20
17.1500836748
 30
0.0
 11
39.6793412605
 21
11.2840836748
 31
0.0
  0
ELLIPSE
  5
24F
330
1F
100
AcDbEntity
  8
0
  6
SLD-Solid
 62
     8
370
    25
100
AcDbEllipse
 10
38.6740687071
 20
11.6090836748
 30
0.0
 11
0.1057066774882713
 21
0.0
 31
0.0
210
0.0
220
0.0
230
1.0
 40
0.7095105227
 41
1.358587731126264
 42
1.570796326794897
  0
ELLIPSE
  5
250
330
1F
100
AcDbEntity
  8
0
  6
SLD-Solid
 62
     8
370
    25
100
AcDbEllipse
 10
34.3396138138
 20
11.6090836748
 30
0.0
 11
0.1057066774882642
 21
0.0
 31
0.0
210
0.0
220
0.0
230
1.0
 40
0.7095105227
 41
1.570796326794897
 42
1.680874639994126
  0
SPLINE
  5
251
330
1F
100
AcDbEntity
  8
0
  6
Continuous
 62
     7
370
     0
100
AcDbSpline
210
0.0
220
0.0
230
1.0
 70
    11
 71
     3
 72
    23
 73
    19
 74
     0
 42
0.00000001
 43
0.00000001
 40
0.0
 40
0.0
 40
0.0
 40
0.0
 40
0.0624849740518055
 40
0.1250357751483641
 40
0.1875917179282152
 40
0.2500588548776614
 40
0.3124804024674826
 40
0.374921792983664
 40
0.4374102892443943
 40
0.4999479072189486
 40
0.5626291167538906
 40
0.6251007825614189
 40
0.6876086449754432
 40
0.7501594102767128
 40
0.8126418335497587
 40
0.8750907215334045
 40
0.9375425341153668
 40
1.0
 40
1.0
 40
1.0
 40
1.0
 10
36.5884984314831
 20
12.3170836747873
 30
0.0
 10
36.58849842982889
 20
12.32782900288549
 30
0.0
 10
36.58426922706803
 20
12.34933102415409
 30
0.0
 10
36.56621387026716
 20
12.37680352523009
 30
0.0
 10
36.5390658224708
 20
12.39538411425877
 30
0.0
 10
36.50681741332235
 20
12.4019831607134
 30
0.0
 10
36.47459419607117
 20
12.3953682439801
 30
0.0
 10
36.4474827764754
 20
12.3768091376804
 30
0.0
 10
36.42942748333101
 20
12.34936464790395
 30
0.0
 10
36.42306181931777
 20
12.31708725744737
 30
0.0
 10
36.42942100474596
 20
12.28480664396416
 30
0.0
 10
36.44749997103746
 20
12.25733844596136
 30
0.0
 10
36.47464513928372
 20
12.23876970287288
 30
0.0
 10
36.50691531047995
 20
12.23217891722398
 30
0.0
 10
36.53916061622785
 20
12.23882736417018
 30
0.0
 10
36.56625705650839
 20
12.25741826357893
 30
0.0
 10
36.58427537557014
 20
12.28486289908355
 30
0.0
 10
36.58849843313658
 20
12.3063430771749
 30
0.0
 10
36.5884984314831
 20
12.3170836747873
 30
0.0
  0
SPLINE
  5
252
330
1F
100
AcDbEntity
  8
0
  6
Continuous
 62
     7
370
     0
100
AcDbSpline
210
0.0
220
0.0
230
1.0
 70
    11
 71
     3
 72
    23
 73
    19
 74
     0
 42
0.00000001
 43
0.00000001
 40
0.0
 40
0.0
 40
0.0
 40
0.0
 40
0.0624849740518055
 40
0.1250357751483636
 40
0.1875917179282151
 40
0.2500588548776613
 40
0.3124804024674825
 40
0.3749217929836639
 40
0.4374102892443943
 40
0.4999479072189485
 40
0.5626291167538906
 40
0.6251007825614188
 40
0.6876086449754429
 40
0.7501594102767127
 40
0.8126418335497586
 40
0.8750907215334044
 40
0.9375425341153667
 40
0.9999999999999999
 40
0.9999999999999999
 40
0.9999999999999999
 40
0.9999999999999999
 10
36.5884984314831
 20
16.1170836747873
 30
0.0
 10
36.58849842982889
 20
16.12782900288549
 30
0.0
 10
36.58426922706803
 20
16.14933102415409
 30
0.0
 10
36.56621387026716
 20
16.17680352523009
 30
0.0
 10
36.5390658224708
 20
16.19538411425877
 30
0.0
 10
36.50681741332235
 20
16.2019831607134
 30
0.0
 10
36.47459419607117
 20
16.19536824398011
 30
0.0
 10
36.4474827764754
 20
16.1768091376804
 30
0.0
 10
36.42942748333101
 20
16.14936464790395
 30
0.0
 10
36.42306181931777
 20
16.11708725744737
 30
0.0
 10
36.42942100474596
 20
16.08480664396416
 30
0.0
 10
36.44749997103746
 20
16.05733844596136
 30
0.0
 10
36.47464513928372
 20
16.03876970287288
 30
0.0
 10
36.50691531047995
 20
16.03217891722398
 30
0.0
 10
36.53916061622785
 20
16.03882736417018
 30
0.0
 10
36.56625705650839
 20
16.05741826357893
 30
0.0
 10
36.58427537557014
 20
16.08486289908355
 30
0.0
 10
36.58849843313658
 20
16.10634307717489
 30
0.0
 10
36.5884984314831
 20
16.1170836747873
 30
0.0
  0
DIMENSION
  5
253
330
1F
100
AcDbEntity
  8
DIMS
100
AcDbDimension
  2
_D_5
 10
31.9951835833
 20
12.3170836748
 30
0.0
 11
31.9951835833
 21
14.2155211905
 31
0.0
 70
   160
  1
<>
 71
     2
 42
-1.0
  3
SLDDIMSTYLE0
100
AcDbAlignedDimension
 13
36.5884984315
 23
16.1170836748
 33
0.0
 14
36.5884984315
 24
12.3170836748
 34
0.0
 50
90.0
100
AcDbRotatedDimension
  0
DIMENSION
  5
262
330
1F
100
AcDbEntity
  8
DIMS
100
AcDbDimension
  2
_D_6
 10
31.9951835833
 20
17.4000836748
 30
0.0
 11
31.9951835833
 21
17.7943594622
 31
0.0
 70
   160
  1
<>
 71
     2
 42
-1.0
  3
SLDDIMSTYLE0
100
AcDbAlignedDimension
 13
36.5884984315
 23
16.1170836748
 33
0.0
 14
33.5843412605
 24
17.4000836748
 34
0.0
 50
90.0
100
AcDbRotatedDimension
  0
MTEXT
  5
272
330
1F
100
AcDbEntity
  8
NOTES
100
AcDbMText
 10
34.9614589856
 20
10.2398624209
 30
0.0
 40
0.5
 41
0.0
 71
     1
 72
     1
  1
Back view
  7
SLDTEXTSTYLE1
 73
     1
 44
1.0
  0
MTEXT
  5
273
330
1F
100
AcDbEntity
  8
NOTES
100
AcDbMText
 10
26.9998446038
 20
19.5283766926
 30
0.0
 40
0.5
 41
0.0
 71
     1
 72
     1
  1
mounting hole (2)
  7
SLDTEXTSTYLE1
 73
     1
 44
1.0
  0
LEADER
  5
275
330
1F
100
AcDbEntity
  8
NOTES
100
AcDbLeader
  3
SLDDIMSTYLE1
 76
     3
 10
36.4655101309
 20
16.1883264135
 30
0.0
 10
33.2470211673
 20
19.2861824913
 30
0.0
 10
32.7470211673
 20
19.2861824913
 30
0.0
  0
SPLINE
  5
276
330
1F
100
AcDbEntity
  8
0
  6
SLD-Solid
 62
     7
370
    25
100
AcDbSpline
210
0.0
220
0.0
230
1.0
 70
     8
 71
     3
 72
    13
 73
     9
 74
     0
 42
0.00000001
 43
0.00000001
 40
0.0
 40
0.0
 40
0.0
 40
0.0
 40
0.0432970899330954
 40
0.1391281243178419
 40
0.5000000000000094
 40
0.8608718756821641
 40
0.9567029100668939
 40
0.9999999999999999
 40
0.9999999999999999
 40
0.9999999999999999
 40
0.9999999999999999
 10
10.53230624591784
 20
26.28471270273237
 30
0.0
 10
10.53191966126708
 20
26.28442100070155
 30
0.0
 10
10.53067743465475
 20
26.28348366388583
 30
0.0
 10
10.52574404051462
 20
26.28082631728744
 30
0.0
 10
10.51758402634283
 20
26.27672607065056
 30
0.0
 10
10.50920281521166
 20
26.27309934295995
 30
0.0
 10
10.50399886155838
 20
26.27102118631032
 30
0.0
 10
10.50248280735981
 20
26.2706700354461
 30
0.0
 10
10.5020110067422
 20
26.27056075624304
 30
0.0
  0
SPLINE
  5
277
330
1F
100
AcDbEntity
  8
0
  6
SLD-Solid
 62
     7
370
    25
100
AcDbSpline
210
0.0
220
0.0
230
1.0
 70
     8
 71
     3
 72
    13
 73
     9
 74
     0
 42
0.00000001
 43
0.00000001
 40
0.0
 40
0.0
 40
0.0
 40
0.0
 40
0.0432971018024601
 40
0.1391281378199822
 40
0.5000000025508168
 40
0.8608718666898579
 40
0.9567029014481536
 40
0.9999999999999999
 40
0.9999999999999999
 40
0.9999999999999999
 40
0.9999999999999999
 10
10.9952718917126
 20
26.27056075624651
 30
0.0
 10
10.99480009112724
 20
26.27067003544036
 30
0.0
 10
10.99328403730076
 20
26.27102118621285
 30
0.0
 10
10.98808008321417
 20
26.27309934293623
 30
0.0
 10
10.97969887228505
 20
26.27672607067141
 30
0.0
 10
10.97153885812559
 20
26.28082631719957
 30
0.0
 10
10.96660546373032
 20
26.28348366402718
 30
0.0
 10
10.96536323732703
 20
26.28442100069513
 30
0.0
 10
10.96497665268936
 20
26.28471270271917
 30
0.0
  0
SPLINE
  5
278
330
1F
100
AcDbEntity
  8
0
  6
SLD-Solid
 62
     7
370
    25
100
AcDbSpline
210
0.0
220
0.0
230
1.0
 70
     8
 71
     3
 72
    14
 73
    10
 74
     0
 42
0.00000001
 43
0.00000001
 40
0.0
 40
0.0
 40
0.0
 40
0.0
 40
0.1472381653002784
 40
0.364255950811796
 40
0.6045887630735085
 40
0.7614346305652172
 40
0.8792751954975211
 40
0.9563147798470558
 40
1.0
 40
1.0
 40
1.0
 40
1.0
 10
10.96541546252733
 20
26.28427768993494
 30
0.0
 10
10.95963104694046
 20
26.28941169417313
 30
0.0
 10
10.94532084553861
 20
26.30211282768316
 30
0.0
 10
10.91898767291736
 20
26.31996358627235
 30
0.0
 10
10.89145759757682
 20
26.33672033598662
 30
0.0
 10
10.86752437231501
 20
26.34938056261501
 30
0.0
 10
10.85066644550051
 20
26.35682647037706
 30
0.0
 10
10.83888153679582
 20
26.36133547649356
 30
0.0
 10
10.83257917499671
 20
26.36212920010183
 30
0.0
 10
10.83029861580415
 20
26.36241641523306
 30
0.0
  0
SPLINE
  5
279
330
1F
100
AcDbEntity
  8
0
  6
SLD-Solid
 62
     7
370
    25
100
AcDbSpline
210
0.0
220
0.0
230
1.0
 70
     8
 71
     3
 72
    13
 73
     9
 74
     0
 42
0.00000001
 43
0.00000001
 40
0.0
 40
0.0
 40
0.0
 40
0.0
 40
0.0436902998388336
 40
0.1743074879338825
 40
0.3953408894318906
 40
0.6357016736124288
 40
0.8527447129621691
 40
1.0
 40
1.0
 40
1.0
 40
1.0
 10
10.66698427821472
 20
26.36241641523306
 30
0.0
 10
10.66470556675329
 20
26.36211780957621
 30
0.0
 10
10.65561438468236
 20
26.36092648788424
 30
0.0
 10
10.63639581147974
 20
26.35242403560154
 30
0.0
 10
10.60869082907625
 20
26.33859190792018
 30
0.0
 10
10.57829782047365
 20
26.3199333350006
 30
0.0
 10
10.55196166003153
 20
26.30211741862109
 30
0.0
 10
10.53765173831555
 20
26.28941301553704
 30
0.0
 10
10.5318674360634
 20
26.2842776899336
 30
0.0
  0
LINE
  5
27A
330
1F
100
AcDbEntity
  8
0
  6
SLD-Solid
 62
     7
370
    25
100
AcDbLine
 10
13.6711414492
 20
24.5924164152
 30
0.0
 11
13.9211414492
 21
24.5924164152
 31
0.0
  0
LINE
  5
27B
330
1F
100
AcDbEntity
  8
0
  6
SLD-Solid
 62
     7
370
    25
100
AcDbLine
 10
13.9211414492
 20
24.5924164152
 30
0.0
 11
13.9211414492
 21
24.5474164152
 31
0.0
  0
LINE
  5
27C
330
1F
100
AcDbEntity
  8
0
  6
SLD-Solid
 62
     7
370
    25
100
AcDbLine
 10
7.5761414492
 20
24.5924164152
 30
0.0
 11
7.8261414492
 21
24.5924164152
 31
0.0
  0
LINE
  5
27D
330
1F
100
AcDbEntity
  8
0
  6
SLD-Solid
 62
     7
370
    25
100
AcDbLine
 10
7.5761414492
 20
24.5474164152
 30
0.0
 11
7.5761414492
 21
24.5924164152
 31
0.0
  0
LINE
  5
27E
330
1F
100
AcDbEntity
  8
0
  6
SLD-Solid
 62
     7
370
    25
100
AcDbLine
 10
13.6711414492
 20
24.4324164152
 30
0.0
 11
7.8261414492
 21
24.4324164152
 31
0.0
  0
LINE
  5
27F
330
1F
100
AcDbEntity
  8
0
  6
SLD-Solid
 62
     7
370
    25
100
AcDbLine
 10
13.6711414492
 20
24.5924164152
 30
0.0
 11
7.8261414492
 21
24.5924164152
 31
0.0
  0
SPLINE
  5
280
330
1F
100
AcDbEntity
  8
0
  6
SLD-Solid
 62
     7
370
    25
100
AcDbSpline
210
0.0
220
0.0
230
1.0
 70
    24
 71
     3
 72
    19
 73
    15
 74
     0
 42
0.00000001
 43
0.00000001
 40
0.0
 40
0.0
 40
0.0
 40
0.0
 40
0.0503097936165601
 40
0.1001723975050924
 40
0.1498989116825602
 40
0.1998029813646347
 40
0.2501949364995323
 40
0.3749952946635224
 40
0.5000541502154763
 40
0.6248544864983295
 40
0.7499133648132966
 40
0.8334607406204309
 40
0.916338264249542
 40
1.0
 40
1.0
 40
1.0
 40
1.0
 10
13.72114144924536
 20
24.43241641523306
 30
0.0
 10
13.72111249487861
 20
24.43241641523306
 30
0.0
 10
13.72105484351239
 20
24.43241641523306
 30
0.0
 10
13.72058071613171
 20
24.43241641523306
 30
0.0
 10
13.71982164353657
 20
24.43241641523306
 30
0.0
 10
13.71875000709616
 20
24.43241641523306
 30
0.0
 10
13.71670789886218
 20
24.43241641523306
 30
0.0
 10
13.71299967328504
 20
24.43241641523306
 30
0.0
 10
13.70672291460369
 20
24.43241641523306
 30
0.0
 10
13.69911334470728
 20
24.43241641523306
 30
0.0
 10
13.69135720728487
 20
24.43241641523306
 30
0.0
 10
13.68412575922314
 20
24.43241641523306
 30
0.0
 10
13.67769042642215
 20
24.43241641523306
 30
0.0
 10
13.673331283853
 20
24.43241641523306
 30
0.0
 10
13.67114144924536
 20
24.43241641523306
 30
0.0
  0
SPLINE
  5
281
330
1F
100
AcDbEntity
  8
0
  6
SLD-Solid
 62
     7
370
    25
100
AcDbSpline
210
0.0
220
0.0
230
1.0
 70
     8
 71
     3
 72
    16
 73
    12
 74
     0
 42
0.00000001
 43
0.00000001
 40
0.0
 40
0.0
 40
0.0
 40
0.0
 40
0.2500000000000011
 40
0.2500000000000011
 40
0.5000000000000022
 40
0.5000000000000022
 40
0.6250000000000028
 40
0.6250000000000028
 40
0.7500000000000033
 40
0.7500000000000033
 40
1.0
 40
1.0
 40
1.0
 40
1.0
 10
13.72114144924536
 20
24.43241641523306
 30
0.0
 10
13.74471167528492
 20
24.43241641523306
 30
0.0
 10
13.77014100108096
 20
24.43488647019661
 30
0.0
 10
13.81937978123451
 20
24.44609505102515
 30
0.0
 10
13.84303659089511
 20
24.45487156200875
 30
0.0
 10
13.87232591277645
 20
24.47171292209053
 30
0.0
 10
13.88106532062356
 20
24.47791280836463
 30
0.0
 10
13.89601578235463
 20
24.4910617788229
 30
0.0
 10
13.90222581344544
 20
24.49800744898637
 30
0.0
 10
13.91684570148266
 20
24.51924167292759
 30
0.0
 10
13.92114144924536
 20
24.53386353526031
 30
0.0
 10
13.92114144924536
 20
24.54741641523306
 30
0.0
  0
SPLINE
  5
282
330
1F
100
AcDbEntity
  8
0
  6
SLD-Solid
 62
     7
370
    25
100
AcDbSpline
210
0.0
220
0.0
230
1.0
 70
     8
 71
     3
 72
    16
 73
    12
 74
     0
 42
0.00000001
 43
0.00000001
 40
0.0
 40
0.0
 40
0.0
 40
0.0
 40
0.2500000000000034
 40
0.2500000000000034
 40
0.3750000000000029
 40
0.3750000000000029
 40
0.5000000000000023
 40
0.5000000000000023
 40
0.7500000000000012
 40
0.7500000000000012
 40
1.0
 40
1.0
 40
1.0
 40
1.0
 10
7.576141449245362
 20
24.54741641523306
 30
0.0
 10
7.576141449245362
 20
24.53386353526031
 30
0.0
 10
7.58043719700806
 20
24.51924167292759
 30
0.0
 10
7.595057085045284
 20
24.49800744898637
 30
0.0
 10
7.6012671161361
 20
24.4910617788229
 30
0.0
 10
7.616217577867165
 20
24.47791280836463
 30
0.0
 10
7.62495698571427
 20
24.47171292209053
 30
0.0
 10
7.654246307595615
 20
24.45487156200875
 30
0.0
 10
7.677903117256211
 20
24.44609505102515
 30
0.0
 10
7.727141897409763
 20
24.43488647019661
 30
0.0
 10
7.752571223205811
 20
24.43241641523306
 30
0.0
 10
7.776141449245363
 20
24.43241641523306
 30
0.0
  0
SPLINE
  5
283
330
1F
100
AcDbEntity
  8
0
  6
SLD-Solid
 62
     7
370
    25
100
AcDbSpline
210
0.0
220
0.0
230
1.0
 70
     8
 71
     3
 72
    37
 73
    33
 74
     0
 42
0.00000001
 43
0.00000001
 40
0.0
 40
0.0
 40
0.0
 40
0.0
 40
0.028141604550888
 40
0.0686875464830984
 40
0.1092334884153087
 40
0.1417973643806995
 40
0.1743612403460907
 40
0.2069251163114817
 40
0.2394889922768726
 40
0.2720528682422634
 40
0.3046167442076544
 40
0.3371806201730455
 40
0.3697444961384365
 40
0.4023083721038272
 40
0.4348722480692184
 40
0.4674361240346094
 40
0.5000000000000003
 40
0.5325638759653911
 40
0.5651277519307822
 40
0.5976916278961732
 40
0.6302555038615641
 40
0.6628193798269549
 40
0.6953832557923461
 40
0.7279471317577371
 40
0.760511007723128
 40
0.793074883688519
 40
0.8256387596539099
 40
0.8582026356193009
 40
0.8907665115846919
 40
0.9313124535169283
 40
0.9718583954491651
 40
0.9999999999999999
 40
0.9999999999999999
 40
0.9999999999999999
 40
0.9999999999999999
 10
8.335988284196416
 20
24.59241641523305
 30
0.0
 10
8.35629923183173
 20
24.64770432869456
 30
0.0
 10
8.405873845009658
 20
24.78265012110572
 30
0.0
 10
8.511509225502998
 20
24.98598270329084
 30
0.0
 10
8.638828859371204
 20
25.18704513689157
 30
0.0
 10
8.77404103913652
 20
25.36223471433363
 30
0.0
 10
8.91134903132941
 20
25.51383743969091
 30
0.0
 10
9.060303902125382
 20
25.65403575407039
 30
0.0
 10
9.219909989196868
 20
25.78196915732493
 30
0.0
 10
9.389174005743099
 20
25.89682299560216
 30
0.0
 10
9.567023008500795
 20
25.99787369089279
 30
0.0
 10
9.752334835296816
 20
26.08448257022214
 30
0.0
 10
9.943938852122782
 20
26.15610277717829
 30
0.0
 10
10.14062504516674
 20
26.21228195448289
 30
0.0
 10
10.34115120755687
 20
26.25266530751616
 30
0.0
 10
10.54425090656965
 20
26.27699778967815
 30
0.0
 10
10.74864144924536
 20
26.28512572801051
 30
0.0
 10
10.95303199192107
 20
26.27699778967815
 30
0.0
 10
11.15613169093385
 20
26.25266530751616
 30
0.0
 10
11.35665785332398
 20
26.21228195448289
 30
0.0
 10
11.55334404636794
 20
26.15610277717829
 30
0.0
 10
11.74494806319391
 20
26.08448257022214
 30
0.0
 10
11.93025988998993
 20
25.99787369089279
 30
0.0
 10
12.10810889274763
 20
25.89682299560216
 30
0.0
 10
12.27737290929386
 20
25.78196915732493
 30
0.0
 10
12.43697899636534
 20
25.65403575407039
 30
0.0
 10
12.58593386716131
 20
25.51383743969091
 30
0.0
 10
12.7232418593542
 20
25.36223471433363
 30
0.0
 10
12.85845403911956
 20
25.18704513689153
 30
0.0
 10
12.98577367298781
 20
24.9859827032907
 30
0.0
 10
13.09140905348114
 20
24.78265012110557
 30
0.0
 10
13.14098366665903
 20
24.64770432869446
 30
0.0
 10
13.1612946142943
 20
24.59241641523305
 30
0.0
  0
SPLINE
  5
284
330
1F
100
AcDbEntity
  8
0
  6
SLD-Solid
 62
     7
370
    25
100
AcDbSpline
210
0.0
220
0.0
230
1.0
 70
    24
 71
     3
 72
    16
 73
    12
 74
     0
 42
0.00000001
 43
0.00000001
 40
0.0
 40
0.0
 40
0.0
 40
0.0
 40
0.0000520927814027
 40
0.0625897107559569
 40
0.1250782070166873
 40
0.1875195975328686
 40
0.2499411451226899
 40
0.3124082820721361
 40
0.3749642248519875
 40
0.4375150259485456
 40
0.5000000000003512
 40
0.5000000000003512
 40
0.5000000000003512
 40
0.5000000000003512
 10
10.83029861993085
 20
26.36241641523306
 30
0.0
 10
10.8302986200244
 20
26.36241641523306
 30
0.0
 10
10.83029696731358
 20
26.36241641523306
 30
0.0
 10
10.8260552263668
 20
26.36241641523306
 30
0.0
 10
10.80799993322241
 20
26.36241641523306
 30
0.0
 10
10.78088851362665
 20
26.36241641523306
 30
0.0
 10
10.74866529637546
 20
26.36241641523306
 30
0.0
 10
10.71641688722701
 20
26.36241641523306
 30
0.0
 10
10.68926883943065
 20
26.36241641523306
 30
0.0
 10
10.67121348262978
 20
26.36241641523306
 30
0.0
 10
10.66698427986893
 20
26.36241641523306
 30
0.0
 10
10.66698427821472
 20
26.36241641523306
 30
0.0
  0
SPLINE
  5
285
330
1F
100
AcDbEntity
  8
0
  6
SLD-Solid
 62
     7
370
    25
100
AcDbSpline
210
0.0
220
0.0
230
1.0
 70
     8
 71
     3
 72
    14
 73
    10
 74
     0
 42
0.00000001
 43
0.00000001
 40
0.0
 40
0.0
 40
0.0
 40
0.0
 40
0.25
 40
0.25
 40
0.5
 40
0.5
 40
0.75
 40
0.75
 40
1.0
 40
1.0
 40
1.0
 40
1.0
 10
12.24763657312974
 20
23.59271218916676
 30
0.0
 10
12.24064626583095
 20
23.58567411211422
 30
0.0
 10
12.23292915055535
 20
23.5793180596595
 30
0.0
 10
12.21658471189778
 20
23.56835691401227
 30
0.0
 10
12.20794701423682
 20
23.56371889692552
 30
0.0
 10
12.18973769577148
 20
23.55614093089789
 30
0.0
 10
12.18017495189129
 20
23.55323386986061
 30
0.0
 10
12.16093372309797
 20
23.549395564655
 30
0.0
 10
12.15115446779469
 20
23.54841641523306
 30
0.0
 10
12.1412099947213
 20
23.54841641523306
 30
0.0
  0
SPLINE
  5
286
330
1F
100
AcDbEntity
  8
0
  6
SLD-Solid
 62
     7
370
    25
100
AcDbSpline
210
0.0
220
0.0
230
1.0
 70
     8
 71
     3
 72
    14
 73
    10
 74
     0
 42
0.00000001
 43
0.00000001
 40
0.0
 40
0.0
 40
0.0
 40
0.0
 40
0.25
 40
0.25
 40
0.5
 40
0.5
 40
0.75
 40
0.75
 40
1.0
 40
1.0
 40
1.0
 40
1.0
 10
9.356072903769412
 20
23.54841641523306
 30
0.0
 10
9.346138984245803
 20
23.54841641523306
 30
0.0
 10
9.336221811717445
 20
23.54940770774098
 30
0.0
 10
9.316844171526935
 20
23.55330002287588
 30
0.0
 10
9.307460264101968
 20
23.55617145554216
 30
0.0
 10
9.28929505020898
 20
23.56374074717545
 30
0.0
 10
9.280486794210393
 20
23.56848167813875
 30
0.0
 10
9.264202736445691
 20
23.57943671857036
 30
0.0
 10
9.256629695988062
 20
23.58568109618916
 30
0.0
 10
9.24964632536098
 20
23.59271218916676
 30
0.0
  0
LINE
  5
287
330
1F
100
AcDbEntity
  8
0
  6
SLD-Solid
 62
     7
370
    25
100
AcDbLine
 10
12.1412099947
 20
23.5484164152
 30
0.0
 11
9.3560729038
 21
23.5484164152
 31
0.0
  0
LINE
  5
288
330
1F
100
AcDbEntity
  8
0
  6
SLD-Solid
 62
     7
370
    25
100
AcDbLine
 10
12.2627679119
 20
23.6079469312
 30
0.0
 11
12.2476365731
 21
23.5927121892
 31
0.0
  0
LINE
  5
289
330
1F
100
AcDbEntity
  8
0
  6
SLD-Solid
 62
     7
370
    25
100
AcDbLine
 10
9.2496463254
 20
23.5927121892
 30
0.0
 11
9.2345149866
 21
23.6079469312
 31
0.0
  0
LWPOLYLINE
  5
28A
330
1F
100
AcDbEntity
  8
0
  6
SLD-Solid
 62
     7
370
    25
100
AcDbPolyline
 90
        9
 70
   128
 43
0.0
 10
12.2712738732
 20
23.8184164152
 10
12.2907137439
 20
23.8041804294
 10
12.3089360868
 20
23.7870782229
 10
12.3247996286
 20
23.7681809148
 10
12.3373108285
 20
23.7486720517
 10
12.3456861046
 20
23.7297734824
 10
12.3494009095
 20
23.7126688327
 10
12.3482225835
 20
23.6984293744
 10
12.3422249255
 20
23.6879469312
  0
LINE
  5
28B
330
1F
100
AcDbEntity
  8
0
  6
SLD-Solid
 62
     7
370
    25
100
AcDbLine
 10
12.3422249255
 20
23.6879469312
 30
0.0
 11
12.2627679119
 21
23.6079469312
 31
0.0
  0
LINE
  5
28C
330
1F
100
AcDbEntity
  8
0
  6
SLD-Solid
 62
     7
370
    25
100
AcDbLine
 10
9.2345149866
 20
23.6079469312
 30
0.0
 11
9.155057973
 21
23.6879469312
 31
0.0
  0
LWPOLYLINE
  5
28D
330
1F
100
AcDbEntity
  8
0
  6
SLD-Solid
 62
     7
370
    25
100
AcDbPolyline
 90
        9
 70
   128
 43
0.0
 10
9.2260090253
 20
23.8184164152
 10
9.2065691546
 20
23.8041804294
 10
9.1883468117
 20
23.7870782229
 10
9.1724832699
 20
23.7681809148
 10
9.15997207
 20
23.7486720517
 10
9.1515967939
 20
23.7297734824
 10
9.147881989
 20
23.7126688327
 10
9.149060315
 20
23.6984293744
 10
9.155057973
 20
23.6879469312
  0
LINE
  5
28E
330
1F
100
AcDbEntity
  8
0
  6
SLD-Solid
 62
     7
370
    25
100
AcDbLine
 10
12.2712738732
 20
23.8184164152
 30
0.0
 11
9.2260090253
 21
23.8184164152
 31
0.0
  0
LINE
  5
28F
330
1F
100
AcDbEntity
  8
0
  6
SLD-Solid
 62
     7
370
    25
100
AcDbLine
 10
9.155057973
 20
23.6879469312
 30
0.0
 11
9.0060760725
 21
23.8379469312
 31
0.0
  0
LINE
  5
290
330
1F
100
AcDbEntity
  8
0
  6
SLD-Solid
 62
     7
370
    25
100
AcDbLine
 10
12.491206826
 20
23.8379469312
 30
0.0
 11
12.3422249255
 21
23.6879469312
 31
0.0
  0
LINE
  5
291
330
1F
100
AcDbEntity
  8
0
  6
SLD-Solid
 62
     7
370
    25
100
AcDbLine
 10
13.0393133364
 20
24.3897990442
 30
0.0
 11
12.491206826
 21
23.8379469312
 31
0.0
  0
ARC
  5
292
330
1F
100
AcDbEntity
  8
0
  6
SLD-Solid
 62
     7
370
    25
100
AcDbCircle
 10
8.4757073252
 20
24.4074164152
 30
0.0
 40
0.0250000000000022
100
AcDbArc
 50
90.0
 51
224.8048959431
  0
LINE
  5
293
330
1F
100
AcDbEntity
  8
0
  6
SLD-Solid
 62
     7
370
    25
100
AcDbLine
 10
9.0060760725
 20
23.8379469312
 30
0.0
 11
8.4579695621
 21
24.3897990442
 31
0.0
  0
ARC
  5
294
330
1F
100
AcDbEntity
  8
0
  6
SLD-Solid
 62
     7
370
    25
100
AcDbCircle
 10
13.0215755733
 20
24.4074164152
 30
0.0
 40
0.0250000000000034
100
AcDbArc
 50
315.1951040569
 51
90.0
  0
SPLINE
  5
295
330
1F
100
AcDbEntity
  8
0
  6
SLD-Solid
 62
     8
370
    25
100
AcDbSpline
210
0.0
220
0.0
230
1.0
 70
     8
 71
     3
 72
    37
 73
    33
 74
     0
 42
0.00000001
 43
0.00000001
 40
0.0
 40
0.0
 40
0.0
 40
0.0
 40
0.0298180673409786
 40
0.068841424046395
 40
0.1078517461853989
 40
0.1405250942702466
 40
0.1732097358782909
 40
0.2058882682641778
 40
0.2385677189565666
 40
0.2712510475145861
 40
0.3039257247619954
 40
0.3366120239847451
 40
0.369283774260756
 40
0.4019697812954486
 40
0.4346418693236096
 40
0.4673228882692492
 40
0.4999999820373954
 40
0.5326731941149371
 40
0.565358094758222
 40
0.5980263065369565
 40
0.6307161898115025
 40
0.6633840678560132
 40
0.696074239295979
 40
0.7287450468924007
 40
0.7614322450906973
 40
0.7941078272671357
 40
0.8267902281662964
 40
0.8594710009448735
 40
0.8921482178656944
 40
0.9311552444660772
 40
0.9701815570626993
 40
1.0
 40
1.0
 40
1.0
 40
1.0
 10
13.0017721050282
 20
24.59241641523305
 30
0.0
 10
12.98035870249348
 20
24.64597248889769
 30
0.0
 10
12.93092125548152
 20
24.76961820795946
 30
0.0
 10
12.83076138736912
 20
24.95306546477627
 30
0.0
 10
12.71294567523622
 20
25.13198871580662
 30
0.0
 10
12.58738654335467
 20
25.29021643001462
 30
0.0
 10
12.45825126759501
 20
25.42918371885128
 30
0.0
 10
12.31865042976857
 20
25.55766882612184
 30
0.0
 10
12.16939256796266
 20
25.67478610050297
 30
0.0
 10
12.01147624100382
 20
25.77992623590229
 30
0.0
 10
11.84577356842478
 20
25.87233566012676
 30
0.0
 10
11.67340068623104
 20
25.95155709649912
 30
0.0
 10
11.49531497241987
 20
26.01699562971933
 30
0.0
 10
11.31270127073447
 20
26.06836241835183
 30
0.0
 10
11.12659916980985
 20
26.10522863538027
 30
0.0
 10
10.93820819288401
 20
26.12748596989603
 30
0.0
 10
10.74864894939385
 20
26.13488119553742
 30
0.0
 10
10.55908223434584
 20
26.1274865615279
 30
0.0
 10
10.37069853498694
 20
26.1052309732525
 30
0.0
 10
10.18458896226011
 20
26.0683641726722
 30
0.0
 10
10.00198216906464
 20
26.01700024287701
 30
0.0
 10
9.823889176481158
 20
25.95155996954137
 30
0.0
 10
9.651522667948486
 20
25.87234243233363
 30
0.0
 10
9.485813084200714
 20
25.77993015738767
 30
0.0
 10
9.327902442668782
 20
25.67479486592543
 30
0.0
 10
9.178638205845775
 20
25.55767369936093
 30
0.0
 10
9.039042215559734
 20
25.42919427148878
 30
0.0
 10
8.909901301487523
 20
25.29022211486867
 30
0.0
 10
8.784345121229554
 20
25.13200005935581
 30
0.0
 10
8.666525964759376
 20
24.95307105991379
 30
0.0
 10
8.5663630619872
 20
24.76962525370815
 30
0.0
 10
8.516923808534893
 20
24.64597328060871
 30
0.0
 10
8.495510390090784
 20
24.59241641523305
 30
0.0
  0
SPLINE
  5
296
330
1F
100
AcDbEntity
  8
0
  6
SLD-Solid
 62
     8
370
    25
100
AcDbSpline
210
0.0
220
0.0
230
1.0
 70
     8
 71
     3
 72
    23
 73
    19
 74
     0
 42
0.00000001
 43
0.00000001
 40
0.0
 40
0.0
 40
0.0
 40
0.0
 40
0.0632404657667743
 40
0.1258134976156854
 40
0.1886327752523173
 40
0.251152526487685
 40
0.3135242097552267
 40
0.3759344829147208
 40
0.4379031559393494
 40
0.5001818595036623
 40
0.562099249236665
 40
0.6243918739967221
 40
0.6866683853026686
 40
0.7490426421996882
 40
0.8117767860735569
 40
0.8742889816351631
 40
0.9372219809916441
 40
1.0
 40
1.0
 40
1.0
 40
1.0
 10
10.53230624591784
 20
26.28471270273237
 30
0.0
 10
10.53313666394592
 20
26.28478584790797
 30
0.0
 10
10.53478873584844
 20
26.28493136629187
 30
0.0
 10
10.54792178783509
 20
26.28604465589089
 30
0.0
 10
10.56816811537402
 20
26.28762187238807
 30
0.0
 10
10.59549212202365
 20
26.28948865899414
 30
0.0
 10
10.62854021887885
 20
26.29134076268103
 30
0.0
 10
10.66604375070071
 20
26.29290216679463
 30
0.0
 10
10.70662866806556
 20
26.29394279924312
 30
0.0
 10
10.74868667411072
 20
26.29430626521282
 30
0.0
 10
10.79081110079499
 20
26.29393999427182
 30
0.0
 10
10.83135594175023
 20
26.29289852371945
 30
0.0
 10
10.86888017762701
 20
26.29133376823681
 30
0.0
 10
10.90192629843185
 20
26.289480378358
 30
0.0
 10
10.92920654796442
 20
26.28761512315852
 30
0.0
 10
10.94945013689514
 20
26.28603732695867
 30
0.0
 10
10.96251889529037
 20
26.2849291887704
 30
0.0
 10
10.96415780561014
 20
26.28478482857323
 30
0.0
 10
10.9649762505209
 20
26.28471273746045
 30
0.0
  0
DIMENSION
  5
297
330
1F
100
AcDbEntity
  8
DIMS
100
AcDbDimension
  2
_D_7
 10
13.1641414492
 20
26.7571172026
 30
0.0
 11
9.4754287364
 21
26.7571172026
 31
0.0
 70
   160
  1
<>
 71
     2
 42
-1.0
  3
SLDDIMSTYLE0
100
AcDbAlignedDimension
 13
8.3331414492
 23
24.5924164152
 33
0.0
 14
13.1641414492
 24
24.5924164152
 34
0.0
100
AcDbRotatedDimension
  0
DIMENSION
  5
2A6
330
1F
100
AcDbEntity
  8
DIMS
100
AcDbDimension
  2
_D_8
 10
14.5516377091
 20
26.3624164152
 30
0.0
 11
14.5516377091
 21
24.9681119377
 31
0.0
 70
   160
  1
<>
 71
     2
 42
-1.0
  3
SLDDIMSTYLE0
100
AcDbAlignedDimension
 13
12.1412099947
 23
23.5484164152
 33
0.0
 14
10.8302986199
 24
26.3624164152
 34
0.0
 50
90.0
100
AcDbRotatedDimension
  0
MTEXT
  5
2B5
330
1F
100
AcDbEntity
  8
NOTES
100
AcDbMText
 10
9.4028105363
 20
22.5513920933
 30
0.0
 40
0.5
 41
0.0
 71
     1
 72
     1
  1
Top view
  7
SLDTEXTSTYLE1
 73
     1
 44
1.0
  0
ENDSEC
  0
SECTION
  2
OBJECTS
  0
DICTIONARY
  5
C
330
0
100
AcDbDictionary
281
     1
  3
ACAD_GROUP
350
D
  3
ACAD_LAYOUT
350
1A
  3
ACAD_MLINESTYLE
350
17
  3
ACAD_PLOTSETTINGS
350
19
  3
ACAD_PLOTSTYLENAME
350
E
  3
ACAD_SCALELIST
350
47
  3
DWGPROPS
350
2B6
  0
DICTIONARY
  5
D
102
{ACAD_REACTORS
330
C
102
}
330
C
100
AcDbDictionary
281
     1
  0
DICTIONARY
  5
1A
102
{ACAD_REACTORS
330
C
102
}
330
C
100
AcDbDictionary
281
     1
  3
Layout1
350
1E
  3
Layout2
350
26
  3
Model
350
22
  0
DICTIONARY
  5
17
102
{ACAD_REACTORS
330
C
102
}
330
C
100
AcDbDictionary
281
     1
  3
Standard
350
18
  0
DICTIONARY
  5
19
102
{ACAD_REACTORS
330
C
102
}
330
C
100
AcDbDictionary
281
     1
  0
ACDBDICTIONARYWDFLT
  5
E
102
{ACAD_REACTORS
330
C
102
}
330
C
100
AcDbDictionary
281
     1
  3
Normal
350
F
100
AcDbDictionaryWithDefault
340
F
  0
DICTIONARY
  5
47
102
{ACAD_REACTORS
330
C
102
}
330
C
100
AcDbDictionary
281
     1
  3
A0
350
48
  3
A1
350
49
  3
A2
350
4A
  3
A3
350
4B
  3
A4
350
4C
  3
A5
350
4D
  3
A6
350
4E
  3
A7
350
4F
  3
A8
350
50
  3
A9
350
51
  3
B0
350
52
  3
B1
350
53
  3
B2
350
54
  3
B3
350
55
  3
B4
350
56
  3
B5
350
57
  3
B6
350
58
  3
B7
350
59
  3
B8
350
5A
  3
B9
350
5B
  3
C0
350
5C
  3
C1
350
5D
  3
C2
350
5E
  3
C3
350
5F
  3
C4
350
60
  3
C5
350
61
  3
C6
350
62
  3
C7
350
63
  3
C8
350
64
  3
C9
350
65
  3
D0
350
66
  3
D1
350
67
  3
D2
350
68
  0
XRECORD
  5
2B6
102
{ACAD_REACTORS
330
C
102
}
330
C
100
AcDbXrecord
280
     1
  1
DWGPROPS COOKIE
  2

  3

  4

  6

  7

  8
carl
  9

300
=
301
=
302
=
303
=
304
=
305
=
306
=
307
=
308
=
309
=
 40
0.0
 41
2459475.669360046
 42
2459475.66936397
  1

 90
        0
  0
LAYOUT
  5
1E
102
{ACAD_REACTORS
330
1A
102
}
330
1A
100
AcDbPlotSettings
  1

  2
none_device
  4

  6

 40
0.0
 41
0.0
 42
0.0
 43
0.0
 44
0.0
 45
0.0
 46
0.0
 47
0.0
 48
0.0
 49
0.0
140
0.0
141
0.0
142
1.0
143
1.0
 70
   688
 72
     0
 73
     0
 74
     5
  7

 75
    16
147
1.0
148
0.0
149
0.0
100
AcDbLayout
  1
Layout1
 70
     1
 71
     1
 10
0.0
 20
0.0
 11
12.0
 21
9.0
 12
0.0
 22
0.0
 32
0.0
 14
1.0000000000E+20
 24
1.0000000000E+20
 34
1.0000000000E+20
 15
-1.0000000000E+20
 25
-1.0000000000E+20
 35
-1.0000000000E+20
146
0.0
 13
0.0
 23
0.0
 33
0.0
 16
1.0
 26
0.0
 36
0.0
 17
0.0
 27
1.0
 37
0.0
 76
     0
330
1B
  0
LAYOUT
  5
26
102
{ACAD_REACTORS
330
1A
102
}
330
1A
100
AcDbPlotSettings
  1

  2
none_device
  4

  6

 40
0.0
 41
0.0
 42
0.0
 43
0.0
 44
0.0
 45
0.0
 46
0.0
 47
0.0
 48
0.0
 49
0.0
140
0.0
141
0.0
142
1.0
143
1.0
 70
   688
 72
     0
 73
     0
 74
     5
  7

 75
    16
147
1.0
148
0.0
149
0.0
100
AcDbLayout
  1
Layout2
 70
     1
 71
     2
 10
0.0
 20
0.0
 11
0.0
 21
0.0
 12
0.0
 22
0.0
 32
0.0
 14
0.0
 24
0.0
 34
0.0
 15
0.0
 25
0.0
 35
0.0
146
0.0
 13
0.0
 23
0.0
 33
0.0
 16
1.0
 26
0.0
 36
0.0
 17
0.0
 27
1.0
 37
0.0
 76
     0
330
23
  0
LAYOUT
  5
22
102
{ACAD_REACTORS
330
1A
102
}
330
1A
100
AcDbPlotSettings
  1

  2
none_device
  4
Letter_(8.50_x_11.00_Inches)
  6

 40
6.35
 41
6.35
 42
6.35000508
 43
6.35000508
 44
215.9
 45
279.4
 46
0.0
 47
0.0
 48
0.0
 49
0.0
140
0.0
141
0.0
142
1.0
143
1.0
 70
  1712
 72
     0
 73
     0
 74
     0
  7

 75
     0
147
1.0
148
0.0
149
0.0
100
AcDbLayout
  1
Model
 70
     1
 71
     0
 10
0.0
 20
0.0
 11
48.0
 21
36.0
 12
0.0
 22
0.0
 32
0.0
 14
0.0
 24
0.0
 34
0.0
 15
48.0
 25
36.0
 35
0.0
146
0.0
 13
0.0
 23
0.0
 33
0.0
 16
1.0
 26
0.0
 36
0.0
 17
0.0
 27
1.0
 37
0.0
 76
     0
330
1F
331
29
  0
MLINESTYLE
  5
18
102
{ACAD_REACTORS
330
17
102
}
330
17
100
AcDbMlineStyle
  2
Standard
 70
     0
  3

 62
   256
 51
90.0
 52
90.0
 71
     2
 49
0.5
 62
   256
  6
BYLAYER
 49
-0.5
 62
   256
  6
BYLAYER
  0
ACDBPLACEHOLDER
  5
F
102
{ACAD_REACTORS
330
E
102
}
330
E
  0
SCALE
  5
48
102
{ACAD_REACTORS
330
47
102
}
330
47
100
AcDbScale
 70
     0
300
1:1
140
1.0
141
1.0
290
     1
  0
SCALE
  5
49
102
{ACAD_REACTORS
330
47
102
}
330
47
100
AcDbScale
 70
     0
300
1:2
140
1.0
141
2.0
290
     0
  0
SCALE
  5
4A
102
{ACAD_REACTORS
330
47
102
}
330
47
100
AcDbScale
 70
     0
300
1:4
140
1.0
141
4.0
290
     0
  0
SCALE
  5
4B
102
{ACAD_REACTORS
330
47
102
}
330
47
100
AcDbScale
 70
     0
300
1:5
140
1.0
141
5.0
290
     0
  0
SCALE
  5
4C
102
{ACAD_REACTORS
330
47
102
}
330
47
100
AcDbScale
 70
     0
300
1:8
140
1.0
141
8.0
290
     0
  0
SCALE
  5
4D
102
{ACAD_REACTORS
330
47
102
}
330
47
100
AcDbScale
 70
     0
300
1:10
140
1.0
141
10.0
290
     0
  0
SCALE
  5
4E
102
{ACAD_REACTORS
330
47
102
}
330
47
100
AcDbScale
 70
     0
300
1:16
140
1.0
141
16.0
290
     0
  0
SCALE
  5
4F
102
{ACAD_REACTORS
330
47
102
}
330
47
100
AcDbScale
 70
     0
300
1:20
140
1.0
141
20.0
290
     0
  0
SCALE
  5
50
102
{ACAD_REACTORS
330
47
102
}
330
47
100
AcDbScale
 70
     0
300
1:30
140
1.0
141
30.0
290
     0
  0
SCALE
  5
51
102
{ACAD_REACTORS
330
47
102
}
330
47
100
AcDbScale
 70
     0
300
1:40
140
1.0
141
40.0
290
     0
  0
SCALE
  5
52
102
{ACAD_REACTORS
330
47
102
}
330
47
100
AcDbScale
 70
     0
300
1:50
140
1.0
141
50.0
290
     0
  0
SCALE
  5
53
102
{ACAD_REACTORS
330
47
102
}
330
47
100
AcDbScale
 70
     0
300
1:100
140
1.0
141
100.0
290
     0
  0
SCALE
  5
54
102
{ACAD_REACTORS
330
47
102
}
330
47
100
AcDbScale
 70
     0
300
2:1
140
2.0
141
1.0
290
     0
  0
SCALE
  5
55
102
{ACAD_REACTORS
330
47
102
}
330
47
100
AcDbScale
 70
     0
300
4:1
140
4.0
141
1.0
290
     0
  0
SCALE
  5
56
102
{ACAD_REACTORS
330
47
102
}
330
47
100
AcDbScale
 70
     0
300
8:1
140
8.0
141
1.0
290
     0
  0
SCALE
  5
57
102
{ACAD_REACTORS
330
47
102
}
330
47
100
AcDbScale
 70
     0
300
10:1
140
10.0
141
1.0
290
     0
  0
SCALE
  5
58
102
{ACAD_REACTORS
330
47
102
}
330
47
100
AcDbScale
 70
     0
300
100:1
140
100.0
141
1.0
290
     0
  0
SCALE
  5
59
102
{ACAD_REACTORS
330
47
102
}
330
47
100
AcDbScale
 70
     0
300
1/128" = 1'-0"
140
0.0078125
141
12.0
290
     0
  0
SCALE
  5
5A
102
{ACAD_REACTORS
330
47
102
}
330
47
100
AcDbScale
 70
     0
300
1/64" = 1'-0"
140
0.015625
141
12.0
290
     0
  0
SCALE
  5
5B
102
{ACAD_REACTORS
330
47
102
}
330
47
100
AcDbScale
 70
     0
300
1/32" = 1'-0"
140
0.03125
141
12.0
290
     0
  0
SCALE
  5
5C
102
{ACAD_REACTORS
330
47
102
}
330
47
100
AcDbScale
 70
     0
300
1/16" = 1'-0"
140
0.0625
141
12.0
290
     0
  0
SCALE
  5
5D
102
{ACAD_REACTORS
330
47
102
}
330
47
100
AcDbScale
 70
     0
300
3/32" = 1'-0"
140
0.09375
141
12.0
290
     0
  0
SCALE
  5
5E
102
{ACAD_REACTORS
330
47
102
}
330
47
100
AcDbScale
 70
     0
300
1/8" = 1'-0"
140
0.125
141
12.0
290
     0
  0
SCALE
  5
5F
102
{ACAD_REACTORS
330
47
102
}
330
47
100
AcDbScale
 70
     0
300
3/16" = 1'-0"
140
0.1875
141
12.0
290
     0
  0
SCALE
  5
60
102
{ACAD_REACTORS
330
47
102
}
330
47
100
AcDbScale
 70
     0
300
1/4" = 1'-0"
140
0.25
141
12.0
290
     0
  0
SCALE
  5
61
102
{ACAD_REACTORS
330
47
102
}
330
47
100
AcDbScale
 70
     0
300
3/8" = 1'-0"
140
0.375
141
12.0
290
     0
  0
SCALE
  5
62
102
{ACAD_REACTORS
330
47
102
}
330
47
100
AcDbScale
 70
     0
300
1/2" = 1'-0"
140
0.5
141
12.0
290
     0
  0
SCALE
  5
63
102
{ACAD_REACTORS
330
47
102
}
330
47
100
AcDbScale
 70
     0
300
3/4" = 1'-0"
140
0.75
141
12.0
290
     0
  0
SCALE
  5
64
102
{ACAD_REACTORS
330
47
102
}
330
47
100
AcDbScale
 70
     0
300
1" = 1'-0"
140
1.0
141
12.0
290
     0
  0
SCALE
  5
65
102
{ACAD_REACTORS
330
47
102
}
330
47
100
AcDbScale
 70
     0
300
1-1/2" = 1'-0"
140
1.5
141
12.0
290
     0
  0
SCALE
  5
66
102
{ACAD_REACTORS
330
47
102
}
330
47
100
AcDbScale
 70
     0
300
3" = 1'-0"
140
3.0
141
12.0
290
     0
  0
SCALE
  5
67
102
{ACAD_REACTORS
330
47
102
}
330
47
100
AcDbScale
 70
     0
300
6" = 1'-0"
140
6.0
141
12.0
290
     0
  0
SCALE
  5
68
102
{ACAD_REACTORS
330
47
102
}
330
47
100
AcDbScale
 70
     0
300
1'-0" = 1'-0"
140
12.0
141
12.0
290
     0
  0
ENDSEC
  0
EOF
