  0
SECTION
  2
HEADER
  9
$ACADVER
  1
AC1018
  9
$ACADMAINTVER
 70
    39
  9
$DWGCODEPAGE
  3
ANSI_1252
  9
$LASTSAVEDBY
  1
fottrem
  9
$INSBASE
 10
0.0
 20
0.0
 30
0.0
  9
$EXTMIN
 10
0.1653543307086614
 20
0.1653543307086614
 30
-0.1285260764202439
  9
$EXTMAX
 10
69.83464566929135
 20
49.83464566929134
 30
0.2275049183216633
  9
$LIMMIN
 10
0.0
 20
0.0
  9
$LIMMAX
 10
70.0
 20
50.0
  9
$ORTHOMODE
 70
     0
  9
$REGENMODE
 70
     1
  9
$FILLMODE
 70
     1
  9
$QTEXTMODE
 70
     0
  9
$MIRRTEXT
 70
     1
  9
$LTSCALE
 40
1.0
  9
$ATTMODE
 70
     1
  9
$TEXTSIZE
 40
0.5
  9
$TRACEWID
 40
0.05
  9
$TEXTSTYLE
  7
Standard
  9
$CLAYER
  8
0
  9
$CELTYPE
  6
ByLayer
  9
$CECOLOR
 62
   256
  9
$CELTSCALE
 40
1.0
  9
$DISPSILH
 70
     0
  9
$DIMSCALE
 40
1.0
  9
$DIMASZ
 40
0.3
  9
$DIMEXO
 40
0.1666666666666667
  9
$DIMDLI
 40
0.38
  9
$DIMRND
 40
0.0
  9
$DIMDLE
 40
0.0
  9
$DIMEXE
 40
0.3750000000000001
  9
$DIMTP
 40
0.0
  9
$DIMTM
 40
0.0
  9
$DIMTXT
 40
0.5
  9
$DIMCEN
 40
0.09
  9
$DIMTSZ
 40
0.0
  9
$DIMTOL
 70
     0
  9
$DIMLIM
 70
     0
  9
$DIMTIH
 70
     1
  9
$DIMTOH
 70
     1
  9
$DIMSE1
 70
     0
  9
$DIMSE2
 70
     0
  9
$DIMTAD
 70
     0
  9
$DIMZIN
 70
     1
  9
$DIMBLK
  1

  9
$DIMASO
 70
     1
  9
$DIMSHO
 70
     1
  9
$DIMPOST
  1

  9
$DIMAPOST
  1

  9
$DIMALT
 70
     0
  9
$DIMALTD
 70
     2
  9
$DIMALTF
 40
25.4
  9
$DIMLFAC
 40
1.0
  9
$DIMTOFL
 70
     0
  9
$DIMTVP
 40
0.0
  9
$DIMTIX
 70
     0
  9
$DIMSOXD
 70
     0
  9
$DIMSAH
 70
     0
  9
$DIMBLK1
  1

  9
$DIMBLK2
  1

  9
$DIMSTYLE
  2
Standard
  9
$DIMCLRD
 70
     0
  9
$DIMCLRE
 70
     0
  9
$DIMCLRT
 70
     0
  9
$DIMTFAC
 40
1.0
  9
$DIMGAP
 40
0.125
  9
$DIMJUST
 70
     0
  9
$DIMSD1
 70
     0
  9
$DIMSD2
 70
     0
  9
$DIMTOLJ
 70
     1
  9
$DIMTZIN
 70
     1
  9
$DIMALTZ
 70
     0
  9
$DIMALTTZ
 70
     0
  9
$DIMUPT
 70
     0
  9
$DIMDEC
 70
     2
  9
$DIMTDEC
 70
     2
  9
$DIMALTU
 70
     2
  9
$DIMALTTD
 70
     2
  9
$DIMTXSTY
  7
Standard
  9
$DIMAUNIT
 70
     0
  9
$DIMADEC
 70
     2
  9
$DIMALTRND
 40
0.0
  9
$DIMAZIN
 70
     0
  9
$DIMDSEP
 70
    46
  9
$DIMATFIT
 70
     3
  9
$DIMFRAC
 70
     0
  9
$DIMLDRBLK
  1

  9
$DIMLUNIT
 70
     2
  9
$DIMLWD
 70
    -2
  9
$DIMLWE
 70
    -2
  9
$DIMTMOVE
 70
     0
  9
$LUNITS
 70
     2
  9
$LUPREC
 70
     4
  9
$SKETCHINC
 40
0.1
  9
$FILLETRAD
 40
0.5
  9
$AUNITS
 70
     0
  9
$AUPREC
 70
     2
  9
$MENU
  1
.
  9
$ELEVATION
 40
0.0
  9
$PELEVATION
 40
0.0
  9
$THICKNESS
 40
0.0
  9
$LIMCHECK
 70
     0
  9
$CHAMFERA
 40
0.0
  9
$CHAMFERB
 40
0.0
  9
$CHAMFERC
 40
0.0
  9
$CHAMFERD
 40
0.0
  9
$SKPOLY
 70
     0
  9
$TDCREATE
 40
2453353.550459155
  9
$TDUCREATE
 40
2453353.717125822
  9
$TDUPDATE
 40
2459488.593855035
  9
$TDUUPDATE
 40
2459488.760521702
  9
$TDINDWG
 40
0.0427314931
  9
$TDUSRTIMER
 40
0.0427314931
  9
$USRTIMER
 70
     1
  9
$ANGBASE
 50
0.0
  9
$ANGDIR
 70
     0
  9
$PDMODE
 70
     0
  9
$PDSIZE
 40
-1.0
  9
$PLINEWID
 40
0.0
  9
$SPLFRAME
 70
     0
  9
$SPLINETYPE
 70
     6
  9
$SPLINESEGS
 70
     8
  9
$HANDSEED
  5
557
  9
$SURFTAB1
 70
     6
  9
$SURFTAB2
 70
     6
  9
$SURFTYPE
 70
     6
  9
$SURFU
 70
     6
  9
$SURFV
 70
     6
  9
$UCSBASE
  2

  9
$UCSNAME
  2

  9
$UCSORG
 10
0.0
 20
0.0
 30
0.0
  9
$UCSXDIR
 10
1.0
 20
0.0
 30
0.0
  9
$UCSYDIR
 10
0.0
 20
1.0
 30
0.0
  9
$UCSORTHOREF
  2

  9
$UCSORTHOVIEW
 70
     0
  9
$UCSORGTOP
 10
0.0
 20
0.0
 30
0.0
  9
$UCSORGBOTTOM
 10
0.0
 20
0.0
 30
0.0
  9
$UCSORGLEFT
 10
0.0
 20
0.0
 30
0.0
  9
$UCSORGRIGHT
 10
0.0
 20
0.0
 30
0.0
  9
$UCSORGFRONT
 10
0.0
 20
0.0
 30
0.0
  9
$UCSORGBACK
 10
0.0
 20
0.0
 30
0.0
  9
$PUCSBASE
  2

  9
$PUCSNAME
  2

  9
$PUCSORG
 10
0.0
 20
0.0
 30
0.0
  9
$PUCSXDIR
 10
1.0
 20
0.0
 30
0.0
  9
$PUCSYDIR
 10
0.0
 20
1.0
 30
0.0
  9
$PUCSORTHOREF
  2

  9
$PUCSORTHOVIEW
 70
     0
  9
$PUCSORGTOP
 10
0.0
 20
0.0
 30
0.0
  9
$PUCSORGBOTTOM
 10
0.0
 20
0.0
 30
0.0
  9
$PUCSORGLEFT
 10
0.0
 20
0.0
 30
0.0
  9
$PUCSORGRIGHT
 10
0.0
 20
0.0
 30
0.0
  9
$PUCSORGFRONT
 10
0.0
 20
0.0
 30
0.0
  9
$PUCSORGBACK
 10
0.0
 20
0.0
 30
0.0
  9
$USERI1
 70
     0
  9
$USERI2
 70
     0
  9
$USERI3
 70
     0
  9
$USERI4
 70
     0
  9
$USERI5
 70
     0
  9
$USERR1
 40
0.0
  9
$USERR2
 40
0.0
  9
$USERR3
 40
0.0
  9
$USERR4
 40
0.0
  9
$USERR5
 40
0.0
  9
$WORLDVIEW
 70
     1
  9
$SHADEDGE
 70
     3
  9
$SHADEDIF
 70
    70
  9
$TILEMODE
 70
     1
  9
$MAXACTVP
 70
    64
  9
$PINSBASE
 10
0.0
 20
0.0
 30
0.0
  9
$PLIMCHECK
 70
     0
  9
$PEXTMIN
 10
1.000000000000000E+20
 20
1.000000000000000E+20
 30
1.000000000000000E+20
  9
$PEXTMAX
 10
-1.000000000000000E+20
 20
-1.000000000000000E+20
 30
-1.000000000000000E+20
  9
$PLIMMIN
 10
0.0
 20
0.0
  9
$PLIMMAX
 10
12.0
 20
9.0
  9
$UNITMODE
 70
     0
  9
$VISRETAIN
 70
     1
  9
$PLINEGEN
 70
     0
  9
$PSLTSCALE
 70
     1
  9
$TREEDEPTH
 70
  3020
  9
$CMLSTYLE
  2
Standard
  9
$CMLJUST
 70
     0
  9
$CMLSCALE
 40
1.0
  9
$PROXYGRAPHICS
 70
     1
  9
$MEASUREMENT
 70
     0
  9
$CELWEIGHT
370
    -1
  9
$ENDCAPS
280
     0
  9
$JOINSTYLE
280
     0
  9
$LWDISPLAY
290
     1
  9
$INSUNITS
 70
     1
  9
$HYPERLINKBASE
  1

  9
$STYLESHEET
  1

  9
$XEDIT
290
     0
  9
$CEPSNTYPE
380
     0
  9
$PSTYLEMODE
290
     1
  9
$FINGERPRINTGUID
  2
{6c923464-0d72-4e05-adc3-e28f094a19b5}
  9
$VERSIONGUID
  2
{FAEB1C32-E019-11D5-929B-00C0DF256EC4}
  9
$EXTNAMES
290
     1
  9
$PSVPSCALE
 40
0.0
  9
$OLESTARTUP
290
     0
  9
$SORTENTS
280
   127
  9
$INDEXCTL
280
     0
  9
$HIDETEXT
280
     1
  9
$XCLIPFRAME
290
     0
  9
$HALOGAP
280
     0
  9
$OBSCOLOR
 70
   257
  9
$OBSLTYPE
280
     0
  9
$INTERSECTIONDISPLAY
280
     0
  9
$INTERSECTIONCOLOR
 70
   257
  9
$DIMASSOC
280
     2
  9
$PROJECTNAME
  1

  0
ENDSEC
  0
SECTION
  2
CLASSES
  0
CLASS
  1
ACDBDICTIONARYWDFLT
  2
AcDbDictionaryWithDefault
  3
ObjectDBX Classes
 90
        0
 91
        3
280
     0
281
     0
  0
CLASS
  1
ACDBPLACEHOLDER
  2
AcDbPlaceHolder
  3
ObjectDBX Classes
 90
        0
 91
        1
280
     0
281
     0
  0
CLASS
  1
LAYOUT
  2
AcDbLayout
  3
ObjectDBX Classes
 90
        0
 91
        1
280
     0
281
     0
  0
CLASS
  1
DICTIONARYVAR
  2
AcDbDictionaryVar
  3
ObjectDBX Classes
 90
        0
 91
        3
280
     0
281
     0
  0
CLASS
  1
TABLESTYLE
  2
AcDbTableStyle
  3
ObjectDBX Classes
 90
     2047
 91
        3
280
     0
281
     0
  0
CLASS
  1
SCALE
  2
AcDbScale
  3
ObjectDBX Classes
 90
     1153
 91
       67
280
     1
281
     0
  0
ENDSEC
  0
SECTION
  2
TABLES
  0
TABLE
  2
VPORT
  5
8
330
0
100
AcDbSymbolTable
 70
     2
  0
VPORT
  5
97
330
8
100
AcDbSymbolTableRecord
100
AcDbViewportTableRecord
  2
*Active
 70
     0
 10
0.0
 20
0.0
 11
1.0
 21
1.0
 12
35.00000000000001
 22
25.0
 13
0.0
 23
0.0
 14
0.5
 24
0.5
 15
0.5
 25
0.5
 16
0.0
 26
0.0
 36
1.0
 17
0.0
 27
0.0
 37
0.0
 40
50.66267716535433
 41
1.4
 42
50.0
 43
0.0
 44
0.0
 50
0.0
 51
0.0
 71
    16
 72
  2000
 73
     1
 74
     1
 75
     0
 76
     0
 77
     0
 78
     0
281
     0
 65
     0
110
0.0
120
0.0
130
0.0
111
1.0
121
0.0
131
0.0
112
0.0
122
1.0
132
0.0
 79
     0
146
0.0
  0
ENDTAB
  0
TABLE
  2
LTYPE
  5
5
330
0
100
AcDbSymbolTable
 70
     8
  0
LTYPE
  5
14
330
5
100
AcDbSymbolTableRecord
100
AcDbLinetypeTableRecord
  2
ByBlock
 70
     0
  3

 72
    65
 73
     0
 40
0.0
  0
LTYPE
  5
15
330
5
100
AcDbSymbolTableRecord
100
AcDbLinetypeTableRecord
  2
ByLayer
 70
     0
  3

 72
    65
 73
     0
 40
0.0
  0
LTYPE
  5
16
330
5
100
AcDbSymbolTableRecord
100
AcDbLinetypeTableRecord
  2
Continuous
 70
     0
  3
Solid line
 72
    65
 73
     0
 40
0.0
  0
LTYPE
  5
52D
330
5
100
AcDbSymbolTableRecord
100
AcDbLinetypeTableRecord
  2
SLD-Solid
 70
     0
  3
SolidWorks Line Style
 72
    65
 73
     0
 40
0.0
  0
LTYPE
  5
52E
330
5
100
AcDbSymbolTableRecord
100
AcDbLinetypeTableRecord
  2
SLD-Dashed
 70
     0
  3
SolidWorks Line Style
 72
    65
 73
     2
 40
0.075
 49
0.05
 74
     4
 75
     0
340
0
 46
1.0
 50
0.0
 44
0.0
 45
0.0
 49
-0.025
 74
     4
 75
     0
340
0
 46
1.0
 50
0.0
 44
0.0
 45
0.0
  0
LTYPE
  5
52F
330
5
100
AcDbSymbolTableRecord
100
AcDbLinetypeTableRecord
  2
SLD-Phantom
 70
     0
  3
SolidWorks Line Style
 72
    65
 73
     6
 40
0.4999999999999999
 49
0.25
 74
     4
 75
     0
340
0
 46
1.0
 50
0.0
 44
0.0
 45
0.0
 49
-0.05
 74
     4
 75
     0
340
0
 46
1.0
 50
0.0
 44
0.0
 45
0.0
 49
0.05
 74
     4
 75
     0
340
0
 46
1.0
 50
0.0
 44
0.0
 45
0.0
 49
-0.05
 74
     4
 75
     0
340
0
 46
1.0
 50
0.0
 44
0.0
 45
0.0
 49
0.05
 74
     4
 75
     0
340
0
 46
1.0
 50
0.0
 44
0.0
 45
0.0
 49
-0.05
 74
     4
 75
     0
340
0
 46
1.0
 50
0.0
 44
0.0
 45
0.0
  0
LTYPE
  5
530
330
5
100
AcDbSymbolTableRecord
100
AcDbLinetypeTableRecord
  2
SLD-Chain
 70
     0
  3
SolidWorks Line Style
 72
    65
 73
     4
 40
0.4
 49
0.25
 74
     4
 75
     0
340
0
 46
1.0
 50
0.0
 44
0.0
 45
0.0
 49
-0.05
 74
     4
 75
     0
340
0
 46
1.0
 50
0.0
 44
0.0
 45
0.0
 49
0.05
 74
     4
 75
     0
340
0
 46
1.0
 50
0.0
 44
0.0
 45
0.0
 49
-0.05
 74
     4
 75
     0
340
0
 46
1.0
 50
0.0
 44
0.0
 45
0.0
  0
LTYPE
  5
531
330
5
100
AcDbSymbolTableRecord
100
AcDbLinetypeTableRecord
  2
SLD-Center
 70
     0
  3
SolidWorks Line Style
 72
    65
 73
     4
 40
0.7500000000000002
 49
0.6000000000000001
 74
     4
 75
     0
340
0
 46
1.0
 50
0.0
 44
0.0
 45
0.0
 49
-0.05
 74
     4
 75
     0
340
0
 46
1.0
 50
0.0
 44
0.0
 45
0.0
 49
0.05
 74
     4
 75
     0
340
0
 46
1.0
 50
0.0
 44
0.0
 45
0.0
 49
-0.05
 74
     4
 75
     0
340
0
 46
1.0
 50
0.0
 44
0.0
 45
0.0
  0
LTYPE
  5
532
330
5
100
AcDbSymbolTableRecord
100
AcDbLinetypeTableRecord
  2
SLD-Stitch
 70
     0
  3
SolidWorks Line Style
 72
    65
 73
     2
 40
0.025
 49
0.0
 74
     4
 75
     0
340
0
 46
1.0
 50
0.0
 44
0.0
 45
0.0
 49
-0.025
 74
     4
 75
     0
340
0
 46
1.0
 50
0.0
 44
0.0
 45
0.0
  0
LTYPE
  5
533
330
5
100
AcDbSymbolTableRecord
100
AcDbLinetypeTableRecord
  2
SLD-Thin-Thick-Chain
 70
     0
  3
SolidWorks Line Style
 72
    65
 73
     4
 40
0.4
 49
0.25
 74
     4
 75
     0
340
0
 46
1.0
 50
0.0
 44
0.0
 45
0.0
 49
-0.05
 74
     4
 75
     0
340
0
 46
1.0
 50
0.0
 44
0.0
 45
0.0
 49
0.05
 74
     4
 75
     0
340
0
 46
1.0
 50
0.0
 44
0.0
 45
0.0
 49
-0.05
 74
     4
 75
     0
340
0
 46
1.0
 50
0.0
 44
0.0
 45
0.0
  0
ENDTAB
  0
TABLE
  2
LAYER
  5
2
330
0
100
AcDbSymbolTable
 70
     6
  0
LAYER
  5
10
330
2
100
AcDbSymbolTableRecord
100
AcDbLayerTableRecord
  2
0
 70
     0
 62
     7
  6
Continuous
370
    -3
390
F
  0
LAYER
  5
534
330
2
100
AcDbSymbolTableRecord
100
AcDbLayerTableRecord
  2
FORMAT
 70
     0
 62
     7
  6
SLD-Solid
370
    -3
390
F
  0
LAYER
  5
535
330
2
100
AcDbSymbolTableRecord
100
AcDbLayerTableRecord
  2
NOTES
 70
     0
 62
     1
  6
SLD-Solid
370
    -3
390
F
  0
LAYER
  5
77
330
2
100
AcDbSymbolTableRecord
100
AcDbLayerTableRecord
  2
OBJECT
 70
     0
 62
     7
  6
SLD-Solid
370
    25
390
F
  0
LAYER
  5
78
330
2
100
AcDbSymbolTableRecord
100
AcDbLayerTableRecord
  2
DIMS
 70
     0
 62
     5
  6
SLD-Solid
370
    -3
390
F
  0
LAYER
  5
79
330
2
100
AcDbSymbolTableRecord
100
AcDbLayerTableRecord
  2
TITLE
 70
     0
 62
     8
  6
SLD-Solid
370
    -3
390
F
  0
ENDTAB
  0
TABLE
  2
STYLE
  5
3
330
0
100
AcDbSymbolTable
 70
     5
  0
STYLE
  5
11
330
3
100
AcDbSymbolTableRecord
100
AcDbTextStyleTableRecord
  2
Standard
 70
     0
 40
0.0
 41
1.0
 50
0.0
 71
     0
 42
0.5
  3
GOTHIC.TTF
  4

1001
ACAD
1000
CENTURY GOTHIC
1071
       34
  0
STYLE
  5
104
330
3
100
AcDbSymbolTableRecord
100
AcDbTextStyleTableRecord
  2
SLDTEXTSTYLE0
 70
     0
 40
0.0
 41
0.913
 50
0.0
 71
     0
 42
0.5
  3
GOTHIC.TTF
  4

1001
ACAD
1000
Century Gothic
1071
      290
  0
STYLE
  5
108
330
3
100
AcDbSymbolTableRecord
100
AcDbTextStyleTableRecord
  2
SLDTEXTSTYLE1
 70
     0
 40
0.0
 41
0.948
 50
0.0
 71
     0
 42
0.5
  3
ARIAL.TTF
  4

1001
ACAD
1000
Arial
1071
      290
  0
STYLE
  5
11A
330
3
100
AcDbSymbolTableRecord
100
AcDbTextStyleTableRecord
  2
SLDTEXTSTYLE2
 70
     0
 40
0.0
 41
0.87
 50
0.0
 71
     0
 42
0.5
  3
ARIALNB.TTF
  4

1001
ACAD
1000
Arial Narrow
1071
 33554722
  0
STYLE
  5
11C
330
3
100
AcDbSymbolTableRecord
100
AcDbTextStyleTableRecord
  2
SLDTEXTSTYLE3
 70
     0
 40
0.0
 41
0.87
 50
0.0
 71
     0
 42
0.5
  3
ARIALN.TTF
  4

1001
ACAD
1000
Arial Narrow
1071
      290
  0
ENDTAB
  0
TABLE
  2
VIEW
  5
6
330
0
100
AcDbSymbolTable
 70
     0
  0
ENDTAB
  0
TABLE
  2
UCS
  5
7
330
0
100
AcDbSymbolTable
 70
     0
  0
ENDTAB
  0
TABLE
  2
APPID
  5
9
330
0
100
AcDbSymbolTable
 70
     1
  0
APPID
  5
12
330
9
100
AcDbSymbolTableRecord
100
AcDbRegAppTableRecord
  2
ACAD
 70
     0
  0
ENDTAB
  0
TABLE
  2
DIMSTYLE
  5
A
330
0
100
AcDbSymbolTable
 70
     6
100
AcDbDimStyleTable
  0
DIMSTYLE
105
27
330
A
100
AcDbSymbolTableRecord
100
AcDbDimStyleTableRecord
  2
Standard
 70
     0
340
11
  0
DIMSTYLE
105
2AF
102
{ACAD_REACTORS
330
2AE
330
318
330
508
102
}
330
A
100
AcDbSymbolTableRecord
100
AcDbDimStyleTableRecord
  2
SLDDIMSTYLE0
 70
     0
 41
0.3
 44
0.0
 45
0.000000001
 78
    12
 79
     3
140
0.5
147
0.125
173
     1
271
     6
272
     2
276
     2
277
     5
284
    12
340
104
341
536
343
536
344
536
  0
DIMSTYLE
105
2C5
330
A
100
AcDbSymbolTableRecord
100
AcDbDimStyleTableRecord
  2
SLDDIMSTYLE1
 70
     0
 41
0.3
 44
0.0
 45
0.000000001
146
0.3
147
0.0
173
     1
271
     0
272
     0
276
     2
277
     5
340
11
341
536
343
536
344
536
  0
DIMSTYLE
105
4EF
102
{ACAD_REACTORS
330
4EE
102
}
330
A
100
AcDbSymbolTableRecord
100
AcDbDimStyleTableRecord
  2
SLDDIMSTYLE2
 70
     0
 41
0.3
 44
0.0
 45
0.000000001
 78
    12
 79
     3
140
0.5
141
0.0
147
0.125
173
     1
271
     2
272
     2
276
     2
277
     5
284
    12
340
104
341
536
343
536
344
536
  0
DIMSTYLE
105
4FD
102
{ACAD_REACTORS
330
4FC
102
}
330
A
100
AcDbSymbolTableRecord
100
AcDbDimStyleTableRecord
  2
SLDDIMSTYLE3
 70
     0
 41
0.3
 44
0.0
 45
0.000000001
 78
    12
 79
     3
140
0.5
147
0.125
173
     1
271
     2
272
     2
276
     2
277
     5
284
    12
340
104
341
536
343
536
344
536
  0
DIMSTYLE
105
518
102
{ACAD_REACTORS
330
517
102
}
330
A
100
AcDbSymbolTableRecord
100
AcDbDimStyleTableRecord
  2
SLDDIMSTYLE4
 70
     0
 41
0.3
 44
0.0
 45
0.000000001
 78
    12
 79
     3
140
0.5
147
0.125
172
     1
173
     1
271
     6
272
     2
276
     2
277
     5
284
    12
289
     0
340
104
341
536
343
536
344
536
  0
ENDTAB
  0
TABLE
  2
BLOCK_RECORD
  5
1
330
0
100
AcDbSymbolTable
 70
    11
  0
BLOCK_RECORD
  5
1F
330
1
100
AcDbSymbolTableRecord
100
AcDbBlockTableRecord
  2
*Model_Space
340
22
  0
BLOCK_RECORD
  5
73
330
1
100
AcDbSymbolTableRecord
100
AcDbBlockTableRecord
  2
*Paper_Space
340
74
  0
BLOCK_RECORD
  5
536
330
1
100
AcDbSymbolTableRecord
100
AcDbBlockTableRecord
  2
_Open90
340
0
102
{BLKREFS
331
2B9
331
2BA
331
31C
331
31D
331
4F3
331
501
331
502
331
50C
331
50D
331
51C
331
51D
102
}
  0
BLOCK_RECORD
  5
23
330
1
100
AcDbSymbolTableRecord
100
AcDbBlockTableRecord
  2
*Paper_Space1
340
26
  0
BLOCK_RECORD
  5
101
330
1
100
AcDbSymbolTableRecord
100
AcDbBlockTableRecord
  2
SW_NOTE_0
340
0
102
{BLKREFS
331
107
102
}
  0
BLOCK_RECORD
  5
111
330
1
100
AcDbSymbolTableRecord
100
AcDbBlockTableRecord
  2
SW_NOTE_0_1
340
0
  0
BLOCK_RECORD
  5
117
330
1
100
AcDbSymbolTableRecord
100
AcDbBlockTableRecord
  2
SW_NOTE_0_2
340
0
102
{BLKREFS
331
120
102
}
  0
BLOCK_RECORD
  5
2B6
330
1
100
AcDbSymbolTableRecord
100
AcDbBlockTableRecord
  2
_D
340
0
  0
BLOCK_RECORD
  5
319
330
1
100
AcDbSymbolTableRecord
100
AcDbBlockTableRecord
  2
_D_1
340
0
  0
BLOCK_RECORD
  5
4F0
330
1
100
AcDbSymbolTableRecord
100
AcDbBlockTableRecord
  2
_D_2
340
0
  0
BLOCK_RECORD
  5
4FE
330
1
100
AcDbSymbolTableRecord
100
AcDbBlockTableRecord
  2
_D_3
340
0
  0
BLOCK_RECORD
  5
509
330
1
100
AcDbSymbolTableRecord
100
AcDbBlockTableRecord
  2
_D_4
340
0
  0
BLOCK_RECORD
  5
519
330
1
100
AcDbSymbolTableRecord
100
AcDbBlockTableRecord
  2
_D_5
340
0
  0
ENDTAB
  0
ENDSEC
  0
SECTION
  2
BLOCKS
  0
BLOCK
  5
20
330
1F
100
AcDbEntity
  8
0
100
AcDbBlockBegin
  2
*Model_Space
 70
     0
 71
     0
 10
0.0
 20
0.0
 30
0.0
  3
*Model_Space
  1

  0
ENDBLK
  5
21
330
1F
100
AcDbEntity
  8
0
100
AcDbBlockEnd
  0
BLOCK
  5
75
330
73
100
AcDbEntity
 67
     1
  8
0
100
AcDbBlockBegin
  2
*Paper_Space
 70
     0
 71
     0
 10
0.0
 20
0.0
 30
0.0
  3
*Paper_Space
  1

  0
ENDBLK
  5
76
330
73
100
AcDbEntity
 67
     1
  8
0
100
AcDbBlockEnd
  0
BLOCK
  5
537
330
536
100
AcDbEntity
  8
0
100
AcDbBlockBegin
  2
_Open90
 70
     0
 71
     0
 10
0.0
 20
0.0
 30
0.0
  3
_Open90
  1

  0
LINE
  5
2B3
330
536
100
AcDbEntity
  8
0
  6
ByBlock
 62
     0
370
    -2
100
AcDbLine
 10
-0.5
 20
0.5
 30
0.0
 11
0.0
 21
0.0
 31
0.0
  0
LINE
  5
2B4
330
536
100
AcDbEntity
  8
0
  6
ByBlock
 62
     0
370
    -2
100
AcDbLine
 10
0.0
 20
0.0
 30
0.0
 11
-0.5
 21
-0.5
 31
0.0
  0
LINE
  5
2B5
330
536
100
AcDbEntity
  8
0
  6
ByBlock
 62
     0
370
    -2
100
AcDbLine
 10
0.0
 20
0.0
 30
0.0
 11
-1.0
 21
0.0
 31
0.0
  0
ENDBLK
  5
538
330
536
100
AcDbEntity
  8
0
100
AcDbBlockEnd
  0
BLOCK
  5
53F
330
23
100
AcDbEntity
  8
0
100
AcDbBlockBegin
  2
*Paper_Space1
 70
     0
 71
     0
 10
0.0
 20
0.0
 30
0.0
  3
*Paper_Space1
  1

  0
ENDBLK
  5
540
330
23
100
AcDbEntity
  8
0
100
AcDbBlockEnd
  0
BLOCK
  5
541
330
101
100
AcDbEntity
  8
0
100
AcDbBlockBegin
  2
SW_NOTE_0
 70
     0
 71
     0
 10
0.0
 20
0.0
 30
0.0
  3
SW_NOTE_0
  1

  0
MTEXT
  5
105
330
101
100
AcDbEntity
  8
NOTES
 62
     0
100
AcDbMText
 10
0.0
 20
0.6386718749999982
 30
0.0
 40
0.5
 41
0.0
 71
     1
 72
     1
  1
3D view
  7
SLDTEXTSTYLE0
 73
     1
 44
1.0
  0
MTEXT
  5
106
330
101
100
AcDbEntity
  8
NOTES
 62
     0
100
AcDbMText
 10
0.0
 20
-0.3613281862472943
 30
0.0
 40
0.5
 41
0.0
 71
     1
 72
     1
  1
code 1115
  7
SLDTEXTSTYLE0
 73
     1
 44
1.0
  0
ENDBLK
  5
542
330
101
100
AcDbEntity
  8
0
100
AcDbBlockEnd
  0
BLOCK
  5
543
330
111
100
AcDbEntity
  8
0
100
AcDbBlockBegin
  2
SW_NOTE_0_1
 70
     0
 71
     0
 10
0.0
 20
0.0
 30
0.0
  3
SW_NOTE_0_1
  1

  0
MTEXT
  5
114
330
111
100
AcDbEntity
  8
NOTES
 62
     0
100
AcDbMText
 10
0.0
 20
0.3759780907668229
 30
0.0
 40
0.2916666666666666
 41
0.0
 71
     1
 72
     1
  1
FROST PRODUCTS LTD.
  7
SLDTEXTSTYLE1
 73
     1
 44
1.0
  0
MTEXT
  5
115
330
111
100
AcDbEntity
  8
NOTES
 62
     0
100
AcDbMText
 10
0.0
 20
-0.0495142708586375
 30
0.0
 40
0.2291666666666666
 41
0.0
 71
     1
 72
     1
  1
5280 JOHN LUCUS DRIVE, BURLINGTON, ON, L7L 5Z9
  7
SLDTEXTSTYLE1
 73
     1
 44
1.0
  0
ENDBLK
  5
544
330
111
100
AcDbEntity
  8
0
100
AcDbBlockEnd
  0
BLOCK
  5
545
330
117
100
AcDbEntity
  8
0
100
AcDbBlockBegin
  2
SW_NOTE_0_2
 70
     0
 71
     0
 10
0.0
 20
0.0
 30
0.0
  3
SW_NOTE_0_2
  1

  0
MTEXT
  5
11B
330
117
100
AcDbEntity
  8
NOTES
 62
     0
100
AcDbMText
 10
0.0
 20
0.2381282770514712
 30
0.0
 40
0.1847290640394089
 41
0.0
 71
     1
 72
     1
  1
PROPRIETARY AND CONFIDENTIAL
  7
SLDTEXTSTYLE2
 73
     1
 44
1.0
  0
MTEXT
  5
11D
330
117
100
AcDbEntity
  8
NOTES
 62
     0
100
AcDbMText
 10
0.0
 20
-0.0504364795553608
 30
0.0
 40
0.25
 41
0.0
 71
     1
 72
     1
  1
THE INFORMATION CONTAINED IN THIS DRAWING IS THE SOLE PROPERTY OF 
  7
SLDTEXTSTYLE3
 73
     1
 44
1.0
  0
MTEXT
  5
11E
330
117
100
AcDbEntity
  8
NOTES
 62
     0
100
AcDbMText
 10
0.0
 20
-0.4231398940537119
 30
0.0
 40
0.25
 41
0.0
 71
     1
 72
     1
  1
FROST PRODUCTS LTD.  ANY REPRODUCTION IN PART OR AS A WHOLE WITHOUT 
  7
SLDTEXTSTYLE3
 73
     1
 44
1.0
  0
MTEXT
  5
11F
330
117
100
AcDbEntity
  8
NOTES
 62
     0
100
AcDbMText
 10
0.0
 20
-0.7958433085520636
 30
0.0
 40
0.25
 41
0.0
 71
     1
 72
     1
  1
THE WRITTEN PERMISSION OF FROST PRODUCTS LTD. IS PROHIBITED.
  7
SLDTEXTSTYLE3
 73
     1
 44
1.0
  0
ENDBLK
  5
546
330
117
100
AcDbEntity
  8
0
100
AcDbBlockEnd
  0
BLOCK
  5
547
330
2B6
100
AcDbEntity
  8
0
100
AcDbBlockBegin
  2
_D
 70
     0
 71
     0
 10
0.0
 20
0.0
 30
0.0
  3
_D
  1

  0
INSERT
  5
2B9
330
2B6
100
AcDbEntity
  8
DIMS
100
AcDbBlockReference
  2
_Open90
 10
39.31149514275735
 20
22.35456538508039
 30
-0.1285260764202439
 41
0.3
 42
0.3
 50
269.9999999999998
  0
INSERT
  5
2BA
330
2B6
100
AcDbEntity
  8
DIMS
100
AcDbBlockReference
  2
_Open90
 10
39.31149514275742
 20
28.20675873221122
 30
-0.1285260764202439
 41
0.3
 42
0.3
 50
89.99999999999974
  0
LINE
  5
2BB
330
2B6
100
AcDbEntity
  8
DIMS
100
AcDbLine
 10
39.13510622208391
 20
25.16245592888425
 30
0.0
 11
39.65107847152846
 21
25.16245592888425
 31
0.0
  0
LINE
  5
2BC
330
2B6
100
AcDbEntity
  8
DIMS
100
AcDbLine
 10
33.03454002177573
 20
22.35456538508046
 30
0.0
 11
39.68649514275735
 21
22.35456538508038
 31
0.0
  0
LINE
  5
2BD
330
2B6
100
AcDbEntity
  8
DIMS
100
AcDbLine
 10
39.00922318670269
 20
28.20675873221123
 30
0.0
 11
39.68649514275742
 21
28.20675873221122
 31
0.0
  0
LINE
  5
2BE
330
2B6
100
AcDbEntity
  8
DIMS
100
AcDbLine
 10
39.31149514275735
 20
22.35456538508039
 30
0.0
 11
39.31149514275737
 21
24.45731707720844
 31
0.0
  0
LINE
  5
2BF
330
2B6
100
AcDbEntity
  8
DIMS
100
AcDbLine
 10
39.31149514275742
 20
28.20675873221122
 30
0.0
 11
39.31149514275739
 21
25.76502538378383
 31
0.0
  0
MTEXT
  5
2C0
330
2B6
100
AcDbEntity
  8
DIMS
100
AcDbMText
 10
38.69239787462185
 20
25.39185698931562
 30
0.0
 40
0.5
 41
0.0
 71
     1
 72
     1
  1
5
  7
SLDTEXTSTYLE0
 73
     1
 44
1.0
  0
MTEXT
  5
2C1
330
2B6
100
AcDbEntity
  8
DIMS
100
AcDbMText
 10
39.2083701240664
 20
25.75716948836113
 30
0.0
 40
0.5
 41
0.0
 71
     1
 72
     1
  1
7
  7
SLDTEXTSTYLE0
 73
     1
 44
1.0
  0
MTEXT
  5
2C2
330
2B6
100
AcDbEntity
  8
DIMS
100
AcDbMText
 10
39.2083701240664
 20
25.09598890981309
 30
0.0
 40
0.5
 41
0.0
 71
     1
 72
     1
  1
8
  7
SLDTEXTSTYLE0
 73
     1
 44
1.0
  0
MTEXT
  5
2C3
330
2B6
100
AcDbEntity
  8
DIMS
100
AcDbMText
 10
39.72434237351094
 20
25.39185698931562
 30
0.0
 40
0.5
 41
0.0
 71
     1
 72
     1
  1
"
  7
SLDTEXTSTYLE0
 73
     1
 44
1.0
  0
ENDBLK
  5
548
330
2B6
100
AcDbEntity
  8
0
100
AcDbBlockEnd
  0
BLOCK
  5
549
330
319
100
AcDbEntity
  8
0
100
AcDbBlockBegin
  2
_D_1
 70
     0
 71
     0
 10
0.0
 20
0.0
 30
0.0
  3
_D_1
  1

  0
INSERT
  5
31C
330
319
100
AcDbEntity
  8
DIMS
100
AcDbBlockReference
  2
_Open90
 10
42.84304220040574
 20
29.53865892776583
 30
0.2275049183216633
 41
0.3
 42
0.3
 50
180.0000000000042
  0
INSERT
  5
31D
330
319
100
AcDbEntity
  8
DIMS
100
AcDbBlockReference
  2
_Open90
 10
52.18414648424135
 20
29.53865892776644
 30
0.2275049183216633
 41
0.3
 42
0.3
 50
0.0000000000041729
  0
LINE
  5
31E
330
319
100
AcDbEntity
  8
DIMS
100
AcDbLine
 10
46.89750589919286
 20
29.58994362615424
 30
0.0
 11
47.78292259411698
 21
29.58994362615424
 31
0.0
  0
LINE
  5
31F
330
319
100
AcDbEntity
  8
DIMS
100
AcDbLine
 10
42.84304220040594
 20
26.53832548772073
 30
0.0
 11
42.84304220040571
 21
29.91365892776583
 31
0.0
  0
LINE
  5
320
330
319
100
AcDbEntity
  8
DIMS
100
AcDbLine
 10
52.18414648424144
 20
28.30692933588583
 30
0.0
 11
52.18414648424132
 21
29.91365892776644
 31
0.0
  0
LINE
  5
321
330
319
100
AcDbEntity
  8
DIMS
100
AcDbLine
 10
42.84304220040574
 20
29.53865892776583
 30
0.0
 11
46.4547975517308
 21
29.53865892776607
 31
0.0
  0
LINE
  5
322
330
319
100
AcDbEntity
  8
DIMS
100
AcDbLine
 10
52.18414648424135
 20
29.53865892776644
 30
0.0
 11
48.06243646014894
 21
29.53865892776618
 31
0.0
  0
MTEXT
  5
323
330
319
100
AcDbEntity
  8
DIMS
100
AcDbMText
 10
46.4547975517308
 20
29.81934468658562
 30
0.0
 40
0.5
 41
0.0
 71
     1
 72
     1
  1
9
  7
SLDTEXTSTYLE0
 73
     1
 44
1.0
  0
MTEXT
  5
324
330
319
100
AcDbEntity
  8
DIMS
100
AcDbMText
 10
47.15549202391513
 20
30.18465718563112
 30
0.0
 40
0.5
 41
0.0
 71
     1
 72
     1
  1
5
  7
SLDTEXTSTYLE0
 73
     1
 44
1.0
  0
MTEXT
  5
325
330
319
100
AcDbEntity
  8
DIMS
100
AcDbMText
 10
46.97076980117534
 20
29.52347660708309
 30
0.0
 40
0.5
 41
0.0
 71
     1
 72
     1
  1
16
  7
SLDTEXTSTYLE0
 73
     1
 44
1.0
  0
MTEXT
  5
326
330
319
100
AcDbEntity
  8
DIMS
100
AcDbMText
 10
47.85618649609946
 20
29.81934468658562
 30
0.0
 40
0.5
 41
0.0
 71
     1
 72
     1
  1
"
  7
SLDTEXTSTYLE0
 73
     1
 44
1.0
  0
ENDBLK
  5
54A
330
319
100
AcDbEntity
  8
0
100
AcDbBlockEnd
  0
BLOCK
  5
54B
330
4F0
100
AcDbEntity
  8
0
100
AcDbBlockBegin
  2
_D_2
 70
     0
 71
     0
 10
0.0
 20
0.0
 30
0.0
  3
_D_2
  1

  0
INSERT
  5
4F3
330
4F0
100
AcDbEntity
  8
DIMS
100
AcDbBlockReference
  2
_Open90
 10
10.42495885771059
 20
9.526028204788588
 30
0.1285260764199403
 41
0.3
 42
0.3
 50
135.0000000000004
  0
LINE
  5
4F4
330
4F0
100
AcDbEntity
  8
DIMS
100
AcDbLine
 10
13.03495265766118
 20
8.094645487547787
 30
0.0
 11
13.9203693525853
 21
8.094645487547787
 31
0.0
  0
LINE
  5
4F5
330
4F0
100
AcDbEntity
  8
DIMS
100
AcDbLine
 10
10.42495885771059
 20
9.526028204788588
 30
0.0
 11
11.9076262733395
 21
8.043360789159669
 31
0.0
  0
LINE
  5
4F6
330
4F0
100
AcDbEntity
  8
DIMS
100
AcDbLine
 10
11.9076262733395
 20
8.043360789159669
 30
0.0
 11
12.2076262733395
 21
8.043360789159669
 31
0.0
  0
MTEXT
  5
4F7
330
4F0
100
AcDbEntity
  8
DIMS
100
AcDbMText
 10
12.2076262733395
 20
8.316407658724263
 30
0.0
 40
0.5
 41
0.0
 71
     1
 72
     1
  1
%%c
  7
SLDTEXTSTYLE0
 73
     1
 44
1.0
  0
MTEXT
  5
4F8
330
4F0
100
AcDbEntity
  8
DIMS
100
AcDbMText
 10
13.29293878238345
 20
8.689359047024666
 30
0.0
 40
0.5
 41
0.0
 71
     1
 72
     1
  1
3
  7
SLDTEXTSTYLE0
 73
     1
 44
1.0
  0
MTEXT
  5
4F9
330
4F0
100
AcDbEntity
  8
DIMS
100
AcDbMText
 10
13.10821655964367
 20
8.02817846847663
 30
0.0
 40
0.5
 41
0.0
 71
     1
 72
     1
  1
16
  7
SLDTEXTSTYLE0
 73
     1
 44
1.0
  0
MTEXT
  5
4FA
330
4F0
100
AcDbEntity
  8
DIMS
100
AcDbMText
 10
13.99363325456778
 20
8.324046547979162
 30
0.0
 40
0.5
 41
0.0
 71
     1
 72
     1
  1
"
  7
SLDTEXTSTYLE0
 73
     1
 44
1.0
  0
MTEXT
  5
4FB
330
4F0
100
AcDbEntity
  8
DIMS
100
AcDbMText
 10
14.19988321861726
 20
8.324046547979162
 30
0.0
 40
0.5
 41
0.0
 71
     1
 72
     1
  1
 mounting hole (4)
  7
SLDTEXTSTYLE0
 73
     1
 44
1.0
  0
ENDBLK
  5
54C
330
4F0
100
AcDbEntity
  8
0
100
AcDbBlockEnd
  0
BLOCK
  5
54D
330
4FE
100
AcDbEntity
  8
0
100
AcDbBlockBegin
  2
_D_3
 70
     0
 71
     0
 10
0.0
 20
0.0
 30
0.0
  3
_D_3
  1

  0
INSERT
  5
501
330
4FE
100
AcDbEntity
  8
DIMS
100
AcDbBlockReference
  2
_Open90
 10
8.75699611392076
 20
9.596738882907198
 30
0.1285260764199401
 41
0.3
 42
0.3
 50
270.000000000002
  0
INSERT
  5
502
330
4FE
100
AcDbEntity
  8
DIMS
100
AcDbBlockReference
  2
_Open90
 10
8.756996113920646
 20
13.5967388829072
 30
0.1285260764199401
 41
0.3
 42
0.3
 50
90.00000000000203
  0
LINE
  5
503
330
4FE
100
AcDbEntity
  8
DIMS
100
AcDbLine
 10
10.18758151292526
 20
9.596738882907239
 30
0.0
 11
8.38199611392076
 21
9.596738882907188
 31
0.0
  0
LINE
  5
504
330
4FE
100
AcDbEntity
  8
DIMS
100
AcDbLine
 10
10.18758151292515
 20
13.59673888290724
 30
0.0
 11
8.381996113920646
 21
13.59673888290719
 31
0.0
  0
LINE
  5
505
330
4FE
100
AcDbEntity
  8
DIMS
100
AcDbLine
 10
8.75699611392076
 20
9.596738882907198
 30
0.0
 11
8.756996113920712
 21
11.32915257739617
 31
0.0
  0
LINE
  5
506
330
4FE
100
AcDbEntity
  8
DIMS
100
AcDbLine
 10
8.756996113920646
 20
13.5967388829072
 30
0.0
 11
8.756996113920687
 21
12.1229026012615
 31
0.0
  0
MTEXT
  5
507
330
4FE
100
AcDbEntity
  8
DIMS
100
AcDbMText
 10
8.469148890823048
 20
11.96782450739554
 30
0.0
 40
0.5
 41
0.0
 71
     1
 72
     1
  1
4"
  7
SLDTEXTSTYLE0
 73
     1
 44
1.0
  0
ENDBLK
  5
54E
330
4FE
100
AcDbEntity
  8
0
100
AcDbBlockEnd
  0
BLOCK
  5
54F
330
509
100
AcDbEntity
  8
0
100
AcDbBlockBegin
  2
_D_4
 70
     0
 71
     0
 10
0.0
 20
0.0
 30
0.0
  3
_D_4
  1

  0
INSERT
  5
50C
330
509
100
AcDbEntity
  8
DIMS
100
AcDbBlockReference
  2
_Open90
 10
10.35424817959177
 20
15.48929443476267
 30
0.1285260764199401
 41
0.3
 42
0.3
 50
180.0000000000016
  0
INSERT
  5
50D
330
509
100
AcDbEntity
  8
DIMS
100
AcDbBlockReference
  2
_Open90
 10
32.42568984462156
 20
15.48929443476314
 30
0.1285260764199401
 41
0.3
 42
0.3
 50
0.0000000000016539
  0
LINE
  5
50E
330
509
100
AcDbEntity
  8
DIMS
100
AcDbLine
 10
20.44057935987424
 20
15.54057913315101
 30
0.0
 11
21.32599605479836
 21
15.54057913315101
 31
0.0
  0
LINE
  5
50F
330
509
100
AcDbEntity
  8
DIMS
100
AcDbLine
 10
10.35424817959181
 20
13.76340554957392
 30
0.0
 11
10.35424817959177
 21
15.86429443476267
 31
0.0
  0
LINE
  5
510
330
509
100
AcDbEntity
  8
DIMS
100
AcDbLine
 10
32.42568984462159
 20
13.7634055495744
 30
0.0
 11
32.42568984462155
 21
15.86429443476314
 31
0.0
  0
LINE
  5
511
330
509
100
AcDbEntity
  8
DIMS
100
AcDbLine
 10
10.35424817959177
 20
15.48929443476267
 30
0.0
 11
19.62842656693261
 21
15.48929443476287
 31
0.0
  0
LINE
  5
512
330
509
100
AcDbEntity
  8
DIMS
100
AcDbLine
 10
32.42568984462156
 20
15.48929443476314
 30
0.0
 11
21.60550999416282
 21
15.48929443476291
 31
0.0
  0
MTEXT
  5
513
330
509
100
AcDbEntity
  8
DIMS
100
AcDbMText
 10
19.62842656693261
 20
15.76998019358239
 30
0.0
 40
0.5
 41
0.0
 71
     1
 72
     1
  1
22
  7
SLDTEXTSTYLE0
 73
     1
 44
1.0
  0
MTEXT
  5
514
330
509
100
AcDbEntity
  8
DIMS
100
AcDbMText
 10
20.69856548459651
 20
16.13529269262789
 30
0.0
 40
0.5
 41
0.0
 71
     1
 72
     1
  1
1
  7
SLDTEXTSTYLE0
 73
     1
 44
1.0
  0
MTEXT
  5
515
330
509
100
AcDbEntity
  8
DIMS
100
AcDbMText
 10
20.51384326185672
 20
15.47411211407986
 30
0.0
 40
0.5
 41
0.0
 71
     1
 72
     1
  1
16
  7
SLDTEXTSTYLE0
 73
     1
 44
1.0
  0
MTEXT
  5
516
330
509
100
AcDbEntity
  8
DIMS
100
AcDbMText
 10
21.39926003011333
 20
15.76998019358239
 30
0.0
 40
0.5
 41
0.0
 71
     1
 72
     1
  1
"
  7
SLDTEXTSTYLE0
 73
     1
 44
1.0
  0
ENDBLK
  5
550
330
509
100
AcDbEntity
  8
0
100
AcDbBlockEnd
  0
BLOCK
  5
551
330
519
100
AcDbEntity
  8
0
100
AcDbBlockBegin
  2
_D_5
 70
     0
 71
     0
 10
0.0
 20
0.0
 30
0.0
  3
_D_5
  1

  0
INSERT
  5
51C
330
519
100
AcDbEntity
  8
DIMS
100
AcDbBlockReference
  2
_Open90
 10
8.767607623504713
 20
13.59673888290723
 30
0.1285260764199401
 41
0.3
 42
0.3
 50
90.00000000000105
  0
INSERT
  5
51D
330
519
100
AcDbEntity
  8
DIMS
100
AcDbBlockReference
  2
_Open90
 10
8.767607623504704
 20
14.38693223003811
 30
0.1285260764199401
 41
0.3
 42
0.3
 50
270.0000000000011
  0
LINE
  5
51E
330
519
100
AcDbEntity
  8
DIMS
100
AcDbLine
 10
7.302676989216139
 20
15.91846024181601
 30
0.0
 11
8.188093684140258
 21
15.91846024181601
 31
0.0
  0
LINE
  5
51F
330
519
100
AcDbEntity
  8
DIMS
100
AcDbLine
 10
10.18758151292515
 20
13.59673888290725
 30
0.0
 11
8.392607623504713
 21
13.59673888290723
 31
0.0
  0
LINE
  5
520
330
519
100
AcDbEntity
  8
DIMS
100
AcDbLine
 10
8.467607623504712
 20
15.86717554342789
 30
0.0
 11
8.767607623504713
 21
15.86717554342789
 31
0.0
  0
LINE
  5
521
330
519
100
AcDbEntity
  8
DIMS
100
AcDbLine
 10
8.767607623504713
 20
15.86717554342789
 30
0.0
 11
8.767607623504704
 21
14.38693223003811
 31
0.0
  0
LINE
  5
522
330
519
100
AcDbEntity
  8
DIMS
100
AcDbLine
 10
8.767607623504713
 20
13.59673888290723
 30
0.0
 11
8.767607623504713
 21
13.19673888290723
 31
0.0
  0
MTEXT
  5
523
330
519
100
AcDbEntity
  8
DIMS
100
AcDbMText
 10
7.375940891198625
 20
16.51317380129289
 30
0.0
 40
0.5
 41
0.0
 71
     1
 72
     1
  1
13
  7
SLDTEXTSTYLE0
 73
     1
 44
1.0
  0
MTEXT
  5
524
330
519
100
AcDbEntity
  8
DIMS
100
AcDbMText
 10
7.375940891198625
 20
15.85199322274485
 30
0.0
 40
0.5
 41
0.0
 71
     1
 72
     1
  1
16
  7
SLDTEXTSTYLE0
 73
     1
 44
1.0
  0
MTEXT
  5
525
330
519
100
AcDbEntity
  8
DIMS
100
AcDbMText
 10
8.261357586122744
 20
16.14786130224738
 30
0.0
 40
0.5
 41
0.0
 71
     1
 72
     1
  1
"
  7
SLDTEXTSTYLE0
 73
     1
 44
1.0
  0
ENDBLK
  5
552
330
519
100
AcDbEntity
  8
0
100
AcDbBlockEnd
  0
ENDSEC
  0
SECTION
  2
ENTITIES
  0
LINE
  5
7A
330
1F
100
AcDbEntity
  8
TITLE
370
    50
100
AcDbLine
 10
52.5182230240126
 20
1.487611764461629
 30
0.0
 11
69.49998645119504
 21
1.487611764461629
 31
0.0
  0
LINE
  5
7B
330
1F
100
AcDbEntity
  8
TITLE
370
    50
100
AcDbLine
 10
69.49993174424404
 20
5.475360393555786
 30
0.0
 11
59.31053507231783
 21
5.475360393555786
 31
0.0
  0
LINE
  5
7C
330
1F
100
AcDbEntity
  8
TITLE
  6
SLD-Solid
370
    18
100
AcDbLine
 10
0.5
 20
0.5
 30
0.0
 11
0.5
 21
49.50000000000001
 31
0.0
  0
LINE
  5
7D
330
1F
100
AcDbEntity
  8
TITLE
  6
SLD-Solid
370
    18
100
AcDbLine
 10
0.5
 20
49.50000000000001
 30
0.0
 11
69.5
 21
49.50000000000001
 31
0.0
  0
LINE
  5
7E
330
1F
100
AcDbEntity
  8
TITLE
370
    50
100
AcDbLine
 10
52.5182230240126
 20
2.54278772310344
 30
0.0
 11
45.50597912026433
 21
2.54278772310344
 31
0.0
  0
LINE
  5
7F
330
1F
100
AcDbEntity
  8
TITLE
370
    50
100
AcDbLine
 10
52.5182230240126
 20
1.487611764461629
 30
0.0
 11
45.50597912026433
 21
1.487611764461629
 31
0.0
  0
LINE
  5
80
330
1F
100
AcDbEntity
  8
TITLE
  6
SLD-Solid
370
    18
100
AcDbLine
 10
69.5
 20
49.50000000000001
 30
0.0
 11
69.5
 21
0.5
 31
0.0
  0
LINE
  5
81
330
1F
100
AcDbEntity
  8
TITLE
  6
SLD-Solid
370
    18
100
AcDbLine
 10
69.5
 20
0.5
 30
0.0
 11
0.5
 21
0.5
 31
0.0
  0
LINE
  5
82
330
1F
100
AcDbEntity
  8
TITLE
370
    50
100
AcDbLine
 10
52.5182230240126
 20
1.487611764461629
 30
0.0
 11
52.5182230240126
 21
3.597963681745254
 31
0.0
  0
LINE
  5
83
330
1F
100
AcDbEntity
  8
TITLE
370
    50
100
AcDbLine
 10
45.50597912026433
 20
3.597963681745254
 30
0.0
 11
45.50597912026433
 21
0.4999999999999996
 31
0.0
  0
LINE
  5
84
330
1F
100
AcDbEntity
  8
TITLE
370
    50
100
AcDbLine
 10
45.50597912026433
 20
0.4999999999999996
 30
0.0
 11
69.5
 21
0.4999999999999996
 31
0.0
  0
LINE
  5
85
330
1F
100
AcDbEntity
  8
TITLE
370
    50
100
AcDbLine
 10
69.49993174424404
 20
5.475360393555786
 30
0.0
 11
69.5
 21
0.4999999999999996
 31
0.0
  0
LINE
  5
86
330
1F
100
AcDbEntity
  8
TITLE
  6
SLD-Solid
370
    18
100
AcDbLine
 10
0.4999606299212599
 20
25.0
 30
0.0
 11
0.5000393700787401
 21
25.0
 31
0.0
  0
LINE
  5
87
330
1F
100
AcDbEntity
  8
TITLE
370
    50
100
AcDbLine
 10
52.5182230240126
 20
3.597963681745254
 30
0.0
 11
45.50597912026433
 21
3.597963681745254
 31
0.0
  0
LINE
  5
88
330
1F
100
AcDbEntity
  8
TITLE
370
    50
100
AcDbLine
 10
52.5182230240126
 20
3.597963681745254
 30
0.0
 11
69.49976156426075
 21
3.597964834324629
 31
0.0
  0
LINE
  5
89
330
1F
100
AcDbEntity
  8
TITLE
370
    50
100
AcDbLine
 10
59.31053507231783
 20
5.475360393555786
 30
0.0
 11
59.31053507231783
 21
0.4636772425222307
 31
0.0
  0
LINE
  5
8A
330
1F
100
AcDbEntity
  8
TITLE
  6
SLD-Solid
370
    18
100
AcDbLine
 10
35.0
 20
49.50003937007874
 30
0.0
 11
35.0
 21
49.49996062992127
 31
0.0
  0
LINE
  5
8B
330
1F
100
AcDbEntity
  8
TITLE
  6
SLD-Solid
370
    18
100
AcDbLine
 10
69.50003937007874
 20
25.0
 30
0.0
 11
69.49996062992126
 21
25.0
 31
0.0
  0
LINE
  5
8C
330
1F
100
AcDbEntity
  8
TITLE
  6
SLD-Solid
370
    18
100
AcDbLine
 10
35.0
 20
0.4999606299212599
 30
0.0
 11
35.0
 21
0.5000393700787401
 31
0.0
  0
LINE
  5
8D
330
1F
100
AcDbEntity
  8
TITLE
  6
SLD-Solid
370
    18
100
AcDbLine
 10
0.5
 20
3.346456692913384
 30
0.0
 11
0.1653543307086614
 21
3.346456692913384
 31
0.0
  0
LINE
  5
8E
330
1F
100
AcDbEntity
  8
TITLE
  6
SLD-Solid
370
    18
100
AcDbLine
 10
69.5
 20
3.346456692913384
 30
0.0
 11
69.83464566929135
 21
3.346456692913384
 31
0.0
  0
LINE
  5
8F
330
1F
100
AcDbEntity
  8
TITLE
  6
SLD-Solid
370
    18
100
AcDbLine
 10
0.5
 20
5.31496062992126
 30
0.0
 11
0.1653543307086614
 21
5.31496062992126
 31
0.0
  0
LINE
  5
90
330
1F
100
AcDbEntity
  8
TITLE
  6
SLD-Solid
370
    18
100
AcDbLine
 10
69.5
 20
5.31496062992126
 30
0.0
 11
69.83464566929135
 21
5.31496062992126
 31
0.0
  0
LINE
  5
91
330
1F
100
AcDbEntity
  8
TITLE
  6
SLD-Solid
370
    18
100
AcDbLine
 10
0.5
 20
7.283464566929134
 30
0.0
 11
0.1653543307086614
 21
7.283464566929134
 31
0.0
  0
LINE
  5
553
330
1F
100
AcDbEntity
  8
TITLE
  6
SLD-Solid
370
    18
100
AcDbLine
 10
69.5
 20
7.283464566929134
 30
0.0
 11
69.83464566929135
 21
7.283464566929134
 31
0.0
  0
LINE
  5
554
330
1F
100
AcDbEntity
  8
TITLE
  6
SLD-Solid
370
    18
100
AcDbLine
 10
0.5
 20
9.251968503937007
 30
0.0
 11
0.1653543307086614
 21
9.251968503937007
 31
0.0
  0
LINE
  5
94
330
1F
100
AcDbEntity
  8
TITLE
  6
SLD-Solid
370
    18
100
AcDbLine
 10
69.5
 20
9.251968503937007
 30
0.0
 11
69.83464566929135
 21
9.251968503937007
 31
0.0
  0
LINE
  5
95
330
1F
100
AcDbEntity
  8
TITLE
  6
SLD-Solid
370
    18
100
AcDbLine
 10
0.5
 20
11.22047244094488
 30
0.0
 11
0.1653543307086614
 21
11.22047244094488
 31
0.0
  0
LINE
  5
96
330
1F
100
AcDbEntity
  8
TITLE
  6
SLD-Solid
370
    18
100
AcDbLine
 10
69.5
 20
11.22047244094488
 30
0.0
 11
69.83464566929135
 21
11.22047244094488
 31
0.0
  0
LINE
  5
555
330
1F
100
AcDbEntity
  8
TITLE
  6
SLD-Solid
370
    18
100
AcDbLine
 10
0.5
 20
13.18897637795276
 30
0.0
 11
0.1653543307086614
 21
13.18897637795276
 31
0.0
  0
LINE
  5
556
330
1F
100
AcDbEntity
  8
TITLE
  6
SLD-Solid
370
    18
100
AcDbLine
 10
69.5
 20
13.18897637795276
 30
0.0
 11
69.83464566929135
 21
13.18897637795276
 31
0.0
  0
LINE
  5
99
330
1F
100
AcDbEntity
  8
TITLE
  6
SLD-Solid
370
    18
100
AcDbLine
 10
0.5
 20
15.15748031496063
 30
0.0
 11
0.1653543307086614
 21
15.15748031496063
 31
0.0
  0
LINE
  5
9A
330
1F
100
AcDbEntity
  8
TITLE
  6
SLD-Solid
370
    18
100
AcDbLine
 10
69.5
 20
15.15748031496063
 30
0.0
 11
69.83464566929135
 21
15.15748031496063
 31
0.0
  0
LINE
  5
9B
330
1F
100
AcDbEntity
  8
TITLE
  6
SLD-Solid
370
    18
100
AcDbLine
 10
0.5
 20
17.1259842519685
 30
0.0
 11
0.1653543307086614
 21
17.1259842519685
 31
0.0
  0
LINE
  5
9C
330
1F
100
AcDbEntity
  8
TITLE
  6
SLD-Solid
370
    18
100
AcDbLine
 10
69.5
 20
17.1259842519685
 30
0.0
 11
69.83464566929135
 21
17.1259842519685
 31
0.0
  0
LINE
  5
9D
330
1F
100
AcDbEntity
  8
TITLE
  6
SLD-Solid
370
    18
100
AcDbLine
 10
0.5
 20
19.09448818897638
 30
0.0
 11
0.1653543307086614
 21
19.09448818897638
 31
0.0
  0
LINE
  5
9E
330
1F
100
AcDbEntity
  8
TITLE
  6
SLD-Solid
370
    18
100
AcDbLine
 10
69.5
 20
19.09448818897638
 30
0.0
 11
69.83464566929135
 21
19.09448818897638
 31
0.0
  0
LINE
  5
9F
330
1F
100
AcDbEntity
  8
TITLE
  6
SLD-Solid
370
    18
100
AcDbLine
 10
0.5
 20
21.06299212598426
 30
0.0
 11
0.1653543307086614
 21
21.06299212598426
 31
0.0
  0
LINE
  5
A0
330
1F
100
AcDbEntity
  8
TITLE
  6
SLD-Solid
370
    18
100
AcDbLine
 10
69.5
 20
21.06299212598426
 30
0.0
 11
69.83464566929135
 21
21.06299212598426
 31
0.0
  0
LINE
  5
A1
330
1F
100
AcDbEntity
  8
TITLE
  6
SLD-Solid
370
    18
100
AcDbLine
 10
0.5
 20
23.03149606299213
 30
0.0
 11
0.1653543307086614
 21
23.03149606299213
 31
0.0
  0
LINE
  5
A2
330
1F
100
AcDbEntity
  8
TITLE
  6
SLD-Solid
370
    18
100
AcDbLine
 10
69.5
 20
23.03149606299213
 30
0.0
 11
69.83464566929135
 21
23.03149606299213
 31
0.0
  0
LINE
  5
A3
330
1F
100
AcDbEntity
  8
TITLE
  6
SLD-Solid
370
    18
100
AcDbLine
 10
0.5
 20
25.0
 30
0.0
 11
0.1653543307086614
 21
25.0
 31
0.0
  0
LINE
  5
A4
330
1F
100
AcDbEntity
  8
TITLE
  6
SLD-Solid
370
    18
100
AcDbLine
 10
69.5
 20
25.0
 30
0.0
 11
69.83464566929135
 21
25.0
 31
0.0
  0
LINE
  5
A5
330
1F
100
AcDbEntity
  8
TITLE
  6
SLD-Solid
370
    18
100
AcDbLine
 10
0.5
 20
26.96850393700788
 30
0.0
 11
0.1653543307086614
 21
26.96850393700788
 31
0.0
  0
LINE
  5
A6
330
1F
100
AcDbEntity
  8
TITLE
  6
SLD-Solid
370
    18
100
AcDbLine
 10
69.5
 20
26.96850393700788
 30
0.0
 11
69.83464566929135
 21
26.96850393700788
 31
0.0
  0
LINE
  5
A7
330
1F
100
AcDbEntity
  8
TITLE
  6
SLD-Solid
370
    18
100
AcDbLine
 10
0.5
 20
28.93700787401575
 30
0.0
 11
0.1653543307086614
 21
28.93700787401575
 31
0.0
  0
LINE
  5
A8
330
1F
100
AcDbEntity
  8
TITLE
  6
SLD-Solid
370
    18
100
AcDbLine
 10
69.5
 20
28.93700787401575
 30
0.0
 11
69.83464566929135
 21
28.93700787401575
 31
0.0
  0
LINE
  5
A9
330
1F
100
AcDbEntity
  8
TITLE
  6
SLD-Solid
370
    18
100
AcDbLine
 10
0.5
 20
30.90551181102363
 30
0.0
 11
0.1653543307086614
 21
30.90551181102363
 31
0.0
  0
LINE
  5
AA
330
1F
100
AcDbEntity
  8
TITLE
  6
SLD-Solid
370
    18
100
AcDbLine
 10
69.5
 20
30.90551181102363
 30
0.0
 11
69.83464566929135
 21
30.90551181102363
 31
0.0
  0
LINE
  5
AB
330
1F
100
AcDbEntity
  8
TITLE
  6
SLD-Solid
370
    18
100
AcDbLine
 10
0.5
 20
32.8740157480315
 30
0.0
 11
0.1653543307086614
 21
32.8740157480315
 31
0.0
  0
LINE
  5
AC
330
1F
100
AcDbEntity
  8
TITLE
  6
SLD-Solid
370
    18
100
AcDbLine
 10
69.5
 20
32.8740157480315
 30
0.0
 11
69.83464566929135
 21
32.8740157480315
 31
0.0
  0
LINE
  5
AD
330
1F
100
AcDbEntity
  8
TITLE
  6
SLD-Solid
370
    18
100
AcDbLine
 10
0.5
 20
34.84251968503937
 30
0.0
 11
0.1653543307086614
 21
34.84251968503937
 31
0.0
  0
LINE
  5
AE
330
1F
100
AcDbEntity
  8
TITLE
  6
SLD-Solid
370
    18
100
AcDbLine
 10
69.5
 20
34.84251968503937
 30
0.0
 11
69.83464566929135
 21
34.84251968503937
 31
0.0
  0
LINE
  5
AF
330
1F
100
AcDbEntity
  8
TITLE
  6
SLD-Solid
370
    18
100
AcDbLine
 10
0.5
 20
36.81102362204724
 30
0.0
 11
0.1653543307086614
 21
36.81102362204724
 31
0.0
  0
LINE
  5
B0
330
1F
100
AcDbEntity
  8
TITLE
  6
SLD-Solid
370
    18
100
AcDbLine
 10
69.5
 20
36.81102362204724
 30
0.0
 11
69.83464566929135
 21
36.81102362204724
 31
0.0
  0
LINE
  5
B1
330
1F
100
AcDbEntity
  8
TITLE
  6
SLD-Solid
370
    18
100
AcDbLine
 10
0.5
 20
38.77952755905513
 30
0.0
 11
0.1653543307086614
 21
38.77952755905513
 31
0.0
  0
LINE
  5
B2
330
1F
100
AcDbEntity
  8
TITLE
  6
SLD-Solid
370
    18
100
AcDbLine
 10
69.5
 20
38.77952755905513
 30
0.0
 11
69.83464566929135
 21
38.77952755905513
 31
0.0
  0
LINE
  5
B3
330
1F
100
AcDbEntity
  8
TITLE
  6
SLD-Solid
370
    18
100
AcDbLine
 10
0.5
 20
40.748031496063
 30
0.0
 11
0.1653543307086614
 21
40.748031496063
 31
0.0
  0
LINE
  5
B4
330
1F
100
AcDbEntity
  8
TITLE
  6
SLD-Solid
370
    18
100
AcDbLine
 10
69.5
 20
40.748031496063
 30
0.0
 11
69.83464566929135
 21
40.748031496063
 31
0.0
  0
LINE
  5
B5
330
1F
100
AcDbEntity
  8
TITLE
  6
SLD-Solid
370
    18
100
AcDbLine
 10
0.5
 20
42.71653543307087
 30
0.0
 11
0.1653543307086614
 21
42.71653543307087
 31
0.0
  0
LINE
  5
B6
330
1F
100
AcDbEntity
  8
TITLE
  6
SLD-Solid
370
    18
100
AcDbLine
 10
69.5
 20
42.71653543307087
 30
0.0
 11
69.83464566929135
 21
42.71653543307087
 31
0.0
  0
LINE
  5
B7
330
1F
100
AcDbEntity
  8
TITLE
  6
SLD-Solid
370
    18
100
AcDbLine
 10
0.5
 20
44.68503937007874
 30
0.0
 11
0.1653543307086614
 21
44.68503937007874
 31
0.0
  0
LINE
  5
B8
330
1F
100
AcDbEntity
  8
TITLE
  6
SLD-Solid
370
    18
100
AcDbLine
 10
69.5
 20
44.68503937007874
 30
0.0
 11
69.83464566929135
 21
44.68503937007874
 31
0.0
  0
LINE
  5
B9
330
1F
100
AcDbEntity
  8
TITLE
  6
SLD-Solid
370
    18
100
AcDbLine
 10
0.5
 20
46.65354330708661
 30
0.0
 11
0.1653543307086614
 21
46.65354330708661
 31
0.0
  0
LINE
  5
BA
330
1F
100
AcDbEntity
  8
TITLE
  6
SLD-Solid
370
    18
100
AcDbLine
 10
69.5
 20
46.65354330708661
 30
0.0
 11
69.83464566929135
 21
46.65354330708661
 31
0.0
  0
LINE
  5
BB
330
1F
100
AcDbEntity
  8
TITLE
  6
SLD-Solid
370
    18
100
AcDbLine
 10
1.535433070866139
 20
49.50000000000001
 30
0.0
 11
1.535433070866139
 21
49.83464566929134
 31
0.0
  0
LINE
  5
BC
330
1F
100
AcDbEntity
  8
TITLE
  6
SLD-Solid
370
    18
100
AcDbLine
 10
1.535433070866139
 20
0.5
 30
0.0
 11
1.535433070866139
 21
0.1653543307086614
 31
0.0
  0
LINE
  5
BD
330
1F
100
AcDbEntity
  8
TITLE
  6
SLD-Solid
370
    18
100
AcDbLine
 10
3.503937007874014
 20
49.50000000000001
 30
0.0
 11
3.503937007874014
 21
49.83464566929134
 31
0.0
  0
LINE
  5
BE
330
1F
100
AcDbEntity
  8
TITLE
  6
SLD-Solid
370
    18
100
AcDbLine
 10
3.503937007874014
 20
0.5
 30
0.0
 11
3.503937007874014
 21
0.1653543307086614
 31
0.0
  0
LINE
  5
BF
330
1F
100
AcDbEntity
  8
TITLE
  6
SLD-Solid
370
    18
100
AcDbLine
 10
5.472440944881891
 20
49.50000000000001
 30
0.0
 11
5.472440944881891
 21
49.83464566929134
 31
0.0
  0
LINE
  5
C0
330
1F
100
AcDbEntity
  8
TITLE
  6
SLD-Solid
370
    18
100
AcDbLine
 10
5.472440944881891
 20
0.5
 30
0.0
 11
5.472440944881891
 21
0.1653543307086614
 31
0.0
  0
LINE
  5
C1
330
1F
100
AcDbEntity
  8
TITLE
  6
SLD-Solid
370
    18
100
AcDbLine
 10
7.440944881889762
 20
49.50000000000001
 30
0.0
 11
7.440944881889762
 21
49.83464566929134
 31
0.0
  0
LINE
  5
C2
330
1F
100
AcDbEntity
  8
TITLE
  6
SLD-Solid
370
    18
100
AcDbLine
 10
7.440944881889762
 20
0.5
 30
0.0
 11
7.440944881889762
 21
0.1653543307086614
 31
0.0
  0
LINE
  5
C3
330
1F
100
AcDbEntity
  8
TITLE
  6
SLD-Solid
370
    18
100
AcDbLine
 10
9.409448818897637
 20
49.50000000000001
 30
0.0
 11
9.409448818897637
 21
49.83464566929134
 31
0.0
  0
LINE
  5
C4
330
1F
100
AcDbEntity
  8
TITLE
  6
SLD-Solid
370
    18
100
AcDbLine
 10
9.409448818897637
 20
0.5
 30
0.0
 11
9.409448818897637
 21
0.1653543307086614
 31
0.0
  0
LINE
  5
C5
330
1F
100
AcDbEntity
  8
TITLE
  6
SLD-Solid
370
    18
100
AcDbLine
 10
11.37795275590551
 20
49.50000000000001
 30
0.0
 11
11.37795275590551
 21
49.83464566929134
 31
0.0
  0
LINE
  5
C6
330
1F
100
AcDbEntity
  8
TITLE
  6
SLD-Solid
370
    18
100
AcDbLine
 10
11.37795275590551
 20
0.5
 30
0.0
 11
11.37795275590551
 21
0.1653543307086614
 31
0.0
  0
LINE
  5
C7
330
1F
100
AcDbEntity
  8
TITLE
  6
SLD-Solid
370
    18
100
AcDbLine
 10
13.34645669291339
 20
49.50000000000001
 30
0.0
 11
13.34645669291339
 21
49.83464566929134
 31
0.0
  0
LINE
  5
C8
330
1F
100
AcDbEntity
  8
TITLE
  6
SLD-Solid
370
    18
100
AcDbLine
 10
13.34645669291339
 20
0.5
 30
0.0
 11
13.34645669291339
 21
0.1653543307086614
 31
0.0
  0
LINE
  5
C9
330
1F
100
AcDbEntity
  8
TITLE
  6
SLD-Solid
370
    18
100
AcDbLine
 10
15.31496062992126
 20
49.50000000000001
 30
0.0
 11
15.31496062992126
 21
49.83464566929134
 31
0.0
  0
LINE
  5
CA
330
1F
100
AcDbEntity
  8
TITLE
  6
SLD-Solid
370
    18
100
AcDbLine
 10
15.31496062992126
 20
0.5
 30
0.0
 11
15.31496062992126
 21
0.1653543307086614
 31
0.0
  0
LINE
  5
CB
330
1F
100
AcDbEntity
  8
TITLE
  6
SLD-Solid
370
    18
100
AcDbLine
 10
17.28346456692913
 20
49.50000000000001
 30
0.0
 11
17.28346456692913
 21
49.83464566929134
 31
0.0
  0
LINE
  5
CC
330
1F
100
AcDbEntity
  8
TITLE
  6
SLD-Solid
370
    18
100
AcDbLine
 10
17.28346456692913
 20
0.5
 30
0.0
 11
17.28346456692913
 21
0.1653543307086614
 31
0.0
  0
LINE
  5
CD
330
1F
100
AcDbEntity
  8
TITLE
  6
SLD-Solid
370
    18
100
AcDbLine
 10
19.25196850393701
 20
49.50000000000001
 30
0.0
 11
19.25196850393701
 21
49.83464566929134
 31
0.0
  0
LINE
  5
CE
330
1F
100
AcDbEntity
  8
TITLE
  6
SLD-Solid
370
    18
100
AcDbLine
 10
19.25196850393701
 20
0.5
 30
0.0
 11
19.25196850393701
 21
0.1653543307086614
 31
0.0
  0
LINE
  5
CF
330
1F
100
AcDbEntity
  8
TITLE
  6
SLD-Solid
370
    18
100
AcDbLine
 10
21.22047244094488
 20
49.50000000000001
 30
0.0
 11
21.22047244094488
 21
49.83464566929134
 31
0.0
  0
LINE
  5
D0
330
1F
100
AcDbEntity
  8
TITLE
  6
SLD-Solid
370
    18
100
AcDbLine
 10
21.22047244094488
 20
0.5
 30
0.0
 11
21.22047244094488
 21
0.1653543307086614
 31
0.0
  0
LINE
  5
D1
330
1F
100
AcDbEntity
  8
TITLE
  6
SLD-Solid
370
    18
100
AcDbLine
 10
23.18897637795276
 20
49.50000000000001
 30
0.0
 11
23.18897637795276
 21
49.83464566929134
 31
0.0
  0
LINE
  5
D2
330
1F
100
AcDbEntity
  8
TITLE
  6
SLD-Solid
370
    18
100
AcDbLine
 10
23.18897637795276
 20
0.5
 30
0.0
 11
23.18897637795276
 21
0.1653543307086614
 31
0.0
  0
LINE
  5
D3
330
1F
100
AcDbEntity
  8
TITLE
  6
SLD-Solid
370
    18
100
AcDbLine
 10
25.15748031496063
 20
49.50000000000001
 30
0.0
 11
25.15748031496063
 21
49.83464566929134
 31
0.0
  0
LINE
  5
D4
330
1F
100
AcDbEntity
  8
TITLE
  6
SLD-Solid
370
    18
100
AcDbLine
 10
25.15748031496063
 20
0.5
 30
0.0
 11
25.15748031496063
 21
0.1653543307086614
 31
0.0
  0
LINE
  5
D5
330
1F
100
AcDbEntity
  8
TITLE
  6
SLD-Solid
370
    18
100
AcDbLine
 10
27.12598425196851
 20
49.50000000000001
 30
0.0
 11
27.12598425196851
 21
49.83464566929134
 31
0.0
  0
LINE
  5
D6
330
1F
100
AcDbEntity
  8
TITLE
  6
SLD-Solid
370
    18
100
AcDbLine
 10
27.12598425196851
 20
0.5
 30
0.0
 11
27.12598425196851
 21
0.1653543307086614
 31
0.0
  0
LINE
  5
D7
330
1F
100
AcDbEntity
  8
TITLE
  6
SLD-Solid
370
    18
100
AcDbLine
 10
29.09448818897638
 20
49.50000000000001
 30
0.0
 11
29.09448818897638
 21
49.83464566929134
 31
0.0
  0
LINE
  5
D8
330
1F
100
AcDbEntity
  8
TITLE
  6
SLD-Solid
370
    18
100
AcDbLine
 10
29.09448818897638
 20
0.5
 30
0.0
 11
29.09448818897638
 21
0.1653543307086614
 31
0.0
  0
LINE
  5
D9
330
1F
100
AcDbEntity
  8
TITLE
  6
SLD-Solid
370
    18
100
AcDbLine
 10
31.06299212598426
 20
49.50000000000001
 30
0.0
 11
31.06299212598426
 21
49.83464566929134
 31
0.0
  0
LINE
  5
DA
330
1F
100
AcDbEntity
  8
TITLE
  6
SLD-Solid
370
    18
100
AcDbLine
 10
31.06299212598426
 20
0.5
 30
0.0
 11
31.06299212598426
 21
0.1653543307086614
 31
0.0
  0
LINE
  5
DB
330
1F
100
AcDbEntity
  8
TITLE
  6
SLD-Solid
370
    18
100
AcDbLine
 10
33.03149606299213
 20
49.50000000000001
 30
0.0
 11
33.03149606299213
 21
49.83464566929134
 31
0.0
  0
LINE
  5
DC
330
1F
100
AcDbEntity
  8
TITLE
  6
SLD-Solid
370
    18
100
AcDbLine
 10
33.03149606299213
 20
0.5
 30
0.0
 11
33.03149606299213
 21
0.1653543307086614
 31
0.0
  0
LINE
  5
DD
330
1F
100
AcDbEntity
  8
TITLE
  6
SLD-Solid
370
    18
100
AcDbLine
 10
35.0
 20
49.50000000000001
 30
0.0
 11
35.0
 21
49.83464566929134
 31
0.0
  0
LINE
  5
DE
330
1F
100
AcDbEntity
  8
TITLE
  6
SLD-Solid
370
    18
100
AcDbLine
 10
35.0
 20
0.5
 30
0.0
 11
35.0
 21
0.1653543307086614
 31
0.0
  0
LINE
  5
DF
330
1F
100
AcDbEntity
  8
TITLE
  6
SLD-Solid
370
    18
100
AcDbLine
 10
36.96850393700787
 20
49.50000000000001
 30
0.0
 11
36.96850393700787
 21
49.83464566929134
 31
0.0
  0
LINE
  5
E0
330
1F
100
AcDbEntity
  8
TITLE
  6
SLD-Solid
370
    18
100
AcDbLine
 10
36.96850393700787
 20
0.5
 30
0.0
 11
36.96850393700787
 21
0.1653543307086614
 31
0.0
  0
LINE
  5
E1
330
1F
100
AcDbEntity
  8
TITLE
  6
SLD-Solid
370
    18
100
AcDbLine
 10
38.93700787401575
 20
49.50000000000001
 30
0.0
 11
38.93700787401575
 21
49.83464566929134
 31
0.0
  0
LINE
  5
E2
330
1F
100
AcDbEntity
  8
TITLE
  6
SLD-Solid
370
    18
100
AcDbLine
 10
38.93700787401575
 20
0.5
 30
0.0
 11
38.93700787401575
 21
0.1653543307086614
 31
0.0
  0
LINE
  5
E3
330
1F
100
AcDbEntity
  8
TITLE
  6
SLD-Solid
370
    18
100
AcDbLine
 10
40.90551181102363
 20
49.50000000000001
 30
0.0
 11
40.90551181102363
 21
49.83464566929134
 31
0.0
  0
LINE
  5
E4
330
1F
100
AcDbEntity
  8
TITLE
  6
SLD-Solid
370
    18
100
AcDbLine
 10
40.90551181102363
 20
0.5
 30
0.0
 11
40.90551181102363
 21
0.1653543307086614
 31
0.0
  0
LINE
  5
E5
330
1F
100
AcDbEntity
  8
TITLE
  6
SLD-Solid
370
    18
100
AcDbLine
 10
42.8740157480315
 20
49.50000000000001
 30
0.0
 11
42.8740157480315
 21
49.83464566929134
 31
0.0
  0
LINE
  5
E6
330
1F
100
AcDbEntity
  8
TITLE
  6
SLD-Solid
370
    18
100
AcDbLine
 10
42.8740157480315
 20
0.5
 30
0.0
 11
42.8740157480315
 21
0.1653543307086614
 31
0.0
  0
LINE
  5
E7
330
1F
100
AcDbEntity
  8
TITLE
  6
SLD-Solid
370
    18
100
AcDbLine
 10
44.84251968503937
 20
49.50000000000001
 30
0.0
 11
44.84251968503937
 21
49.83464566929134
 31
0.0
  0
LINE
  5
E8
330
1F
100
AcDbEntity
  8
TITLE
  6
SLD-Solid
370
    18
100
AcDbLine
 10
44.84251968503937
 20
0.5
 30
0.0
 11
44.84251968503937
 21
0.1653543307086614
 31
0.0
  0
LINE
  5
E9
330
1F
100
AcDbEntity
  8
TITLE
  6
SLD-Solid
370
    18
100
AcDbLine
 10
46.81102362204724
 20
49.50000000000001
 30
0.0
 11
46.81102362204724
 21
49.83464566929134
 31
0.0
  0
LINE
  5
EA
330
1F
100
AcDbEntity
  8
TITLE
  6
SLD-Solid
370
    18
100
AcDbLine
 10
46.81102362204724
 20
0.5
 30
0.0
 11
46.81102362204724
 21
0.1653543307086614
 31
0.0
  0
LINE
  5
EB
330
1F
100
AcDbEntity
  8
TITLE
  6
SLD-Solid
370
    18
100
AcDbLine
 10
48.77952755905513
 20
49.50000000000001
 30
0.0
 11
48.77952755905513
 21
49.83464566929134
 31
0.0
  0
LINE
  5
EC
330
1F
100
AcDbEntity
  8
TITLE
  6
SLD-Solid
370
    18
100
AcDbLine
 10
48.77952755905513
 20
0.5
 30
0.0
 11
48.77952755905513
 21
0.1653543307086614
 31
0.0
  0
LINE
  5
ED
330
1F
100
AcDbEntity
  8
TITLE
  6
SLD-Solid
370
    18
100
AcDbLine
 10
50.748031496063
 20
49.50000000000001
 30
0.0
 11
50.748031496063
 21
49.83464566929134
 31
0.0
  0
LINE
  5
EE
330
1F
100
AcDbEntity
  8
TITLE
  6
SLD-Solid
370
    18
100
AcDbLine
 10
50.748031496063
 20
0.5
 30
0.0
 11
50.748031496063
 21
0.1653543307086614
 31
0.0
  0
LINE
  5
EF
330
1F
100
AcDbEntity
  8
TITLE
  6
SLD-Solid
370
    18
100
AcDbLine
 10
52.71653543307087
 20
49.50000000000001
 30
0.0
 11
52.71653543307087
 21
49.83464566929134
 31
0.0
  0
LINE
  5
F0
330
1F
100
AcDbEntity
  8
TITLE
  6
SLD-Solid
370
    18
100
AcDbLine
 10
52.71653543307087
 20
0.5
 30
0.0
 11
52.71653543307087
 21
0.1653543307086614
 31
0.0
  0
LINE
  5
F1
330
1F
100
AcDbEntity
  8
TITLE
  6
SLD-Solid
370
    18
100
AcDbLine
 10
54.68503937007874
 20
49.50000000000001
 30
0.0
 11
54.68503937007874
 21
49.83464566929134
 31
0.0
  0
LINE
  5
F2
330
1F
100
AcDbEntity
  8
TITLE
  6
SLD-Solid
370
    18
100
AcDbLine
 10
54.68503937007874
 20
0.5
 30
0.0
 11
54.68503937007874
 21
0.1653543307086614
 31
0.0
  0
LINE
  5
F3
330
1F
100
AcDbEntity
  8
TITLE
  6
SLD-Solid
370
    18
100
AcDbLine
 10
56.65354330708661
 20
49.50000000000001
 30
0.0
 11
56.65354330708661
 21
49.83464566929134
 31
0.0
  0
LINE
  5
F4
330
1F
100
AcDbEntity
  8
TITLE
  6
SLD-Solid
370
    18
100
AcDbLine
 10
56.65354330708661
 20
0.5
 30
0.0
 11
56.65354330708661
 21
0.1653543307086614
 31
0.0
  0
LINE
  5
F5
330
1F
100
AcDbEntity
  8
TITLE
  6
SLD-Solid
370
    18
100
AcDbLine
 10
58.6220472440945
 20
49.50000000000001
 30
0.0
 11
58.6220472440945
 21
49.83464566929134
 31
0.0
  0
LINE
  5
F6
330
1F
100
AcDbEntity
  8
TITLE
  6
SLD-Solid
370
    18
100
AcDbLine
 10
58.6220472440945
 20
0.5
 30
0.0
 11
58.6220472440945
 21
0.1653543307086614
 31
0.0
  0
LINE
  5
F7
330
1F
100
AcDbEntity
  8
TITLE
  6
SLD-Solid
370
    18
100
AcDbLine
 10
60.59055118110237
 20
49.50000000000001
 30
0.0
 11
60.59055118110237
 21
49.83464566929134
 31
0.0
  0
LINE
  5
F8
330
1F
100
AcDbEntity
  8
TITLE
  6
SLD-Solid
370
    18
100
AcDbLine
 10
60.59055118110237
 20
0.5
 30
0.0
 11
60.59055118110237
 21
0.1653543307086614
 31
0.0
  0
LINE
  5
F9
330
1F
100
AcDbEntity
  8
TITLE
  6
SLD-Solid
370
    18
100
AcDbLine
 10
62.55905511811024
 20
49.50000000000001
 30
0.0
 11
62.55905511811024
 21
49.83464566929134
 31
0.0
  0
LINE
  5
FA
330
1F
100
AcDbEntity
  8
TITLE
  6
SLD-Solid
370
    18
100
AcDbLine
 10
62.55905511811024
 20
0.5
 30
0.0
 11
62.55905511811024
 21
0.1653543307086614
 31
0.0
  0
LINE
  5
FB
330
1F
100
AcDbEntity
  8
TITLE
  6
SLD-Solid
370
    18
100
AcDbLine
 10
64.52755905511812
 20
49.50000000000001
 30
0.0
 11
64.52755905511812
 21
49.83464566929134
 31
0.0
  0
LINE
  5
FC
330
1F
100
AcDbEntity
  8
TITLE
  6
SLD-Solid
370
    18
100
AcDbLine
 10
64.52755905511812
 20
0.5
 30
0.0
 11
64.52755905511812
 21
0.1653543307086614
 31
0.0
  0
LINE
  5
FD
330
1F
100
AcDbEntity
  8
TITLE
  6
SLD-Solid
370
    18
100
AcDbLine
 10
66.49606299212599
 20
49.50000000000001
 30
0.0
 11
66.49606299212599
 21
49.83464566929134
 31
0.0
  0
LINE
  5
FE
330
1F
100
AcDbEntity
  8
TITLE
  6
SLD-Solid
370
    18
100
AcDbLine
 10
66.49606299212599
 20
0.5
 30
0.0
 11
66.49606299212599
 21
0.1653543307086614
 31
0.0
  0
LINE
  5
FF
330
1F
100
AcDbEntity
  8
TITLE
  6
SLD-Solid
370
    18
100
AcDbLine
 10
68.46456692913387
 20
49.50000000000001
 30
0.0
 11
68.46456692913387
 21
49.83464566929134
 31
0.0
  0
LINE
  5
100
330
1F
100
AcDbEntity
  8
TITLE
  6
SLD-Solid
370
    18
100
AcDbLine
 10
68.46456692913387
 20
0.5
 30
0.0
 11
68.46456692913387
 21
0.1653543307086614
 31
0.0
  0
INSERT
  5
107
330
1F
100
AcDbEntity
  8
NOTES
100
AcDbBlockReference
  2
SW_NOTE_0
 10
57.34524684227313
 20
27.32013314386064
 30
0.0
  0
MTEXT
  5
109
330
1F
100
AcDbEntity
  8
NOTES
100
AcDbMText
 10
46.40829780303407
 20
1.070290334694339
 30
0.0
 40
0.25
 41
0.0
 71
     1
 72
     1
  1
UNLESS OTHERWISE SPECIFIED DIMENSIONS ARE IN INCHES.
  7
SLDTEXTSTYLE1
 73
     1
 44
1.0
  0
MTEXT
  5
10A
330
1F
100
AcDbEntity
  8
NOTES
100
AcDbMText
 10
46.43006992789031
 20
3.083062777580424
 30
0.0
 40
0.25
 41
0.0
 71
     1
 72
     1
  1
DATE:
  7
SLDTEXTSTYLE1
 73
     1
 44
1.0
  0
MTEXT
  5
10B
330
1F
100
AcDbEntity
  8
NOTES
100
AcDbMText
 10
48.53870118800533
 20
2.193032963662708
 30
0.0
 40
0.25
 41
0.0
 71
     2
 72
     1
  1
DO NOT SCALE DRAWING
  7
SLDTEXTSTYLE1
 73
     1
 44
1.0
  0
MTEXT
  5
10C
330
1F
100
AcDbEntity
  8
NOTES
100
AcDbMText
 10
52.83073730750539
 20
3.268275555297609
 30
0.0
 40
0.25
 41
0.0
 71
     1
 72
     1
  1
TITLE:
  7
SLDTEXTSTYLE0
 73
     1
 44
1.0
  0
MTEXT
  5
10D
330
1F
100
AcDbEntity
  8
NOTES
100
AcDbMText
 10
60.15618310516096
 20
3.268275555297602
 30
0.0
 40
0.25
 41
0.0
 71
     1
 72
     1
  1
DWG NO.
  7
SLDTEXTSTYLE0
 73
     1
 44
1.0
  0
MTEXT
  5
10E
330
1F
100
AcDbEntity
  8
NOTES
100
AcDbMText
 10
60.18317532028495
 20
1.064581557673832
 30
0.0
 40
0.25
 41
0.0
 71
     1
 72
     1
  1
SCALE:     1:1
  7
SLDTEXTSTYLE0
 73
     1
 44
1.0
  0
MTEXT
  5
10F
330
1F
100
AcDbEntity
  8
NOTES
100
AcDbMText
 10
64.19199777198939
 20
2.651034429460866
 30
0.0
 40
0.25
 41
0.0
 71
     2
 72
     1
  1
1115 CAD
  7
SLDTEXTSTYLE0
 73
     1
 44
1.0
  0
MTEXT
  5
110
330
1F
100
AcDbEntity
  8
NOTES
100
AcDbMText
 10
56.48014989332002
 20
2.651034429460864
 30
0.0
 40
0.25
 41
0.0
 71
     2
 72
     1
  1
1115 Janitorial Shelf
  7
SLDTEXTSTYLE0
 73
     1
 44
1.0
  0
INSERT
  5
120
330
1F
100
AcDbEntity
  8
NOTES
100
AcDbBlockReference
  2
SW_NOTE_0_2
 10
46.61597262459082
 20
5.148152684778704
 30
0.0
  0
MTEXT
  5
121
330
1F
100
AcDbEntity
  8
NOTES
100
AcDbMText
 10
49.4931886539503
 20
3.08647332676587
 30
0.0
 40
0.25
 41
0.0
 71
     2
 72
     1
  1
August 9, 2021
  7
SLDTEXTSTYLE0
 73
     1
 44
1.0
  0
MTEXT
  5
122
330
1F
100
AcDbEntity
  8
TITLE
100
AcDbMText
 10
0.3276279775836454
 20
2.003106290974172
 30
0.0
 40
0.125
 41
0.0
 71
     2
 72
     1
  1
A
  7
SLDTEXTSTYLE0
 73
     1
 44
1.0
  0
MTEXT
  5
123
330
1F
100
AcDbEntity
  8
TITLE
100
AcDbMText
 10
69.662273646875
 20
2.003106290974172
 30
0.0
 40
0.125
 41
0.0
 71
     2
 72
     1
  1
A
  7
SLDTEXTSTYLE0
 73
     1
 44
1.0
  0
MTEXT
  5
124
330
1F
100
AcDbEntity
  8
TITLE
100
AcDbMText
 10
0.3317512413046844
 20
4.410586605934803
 30
0.0
 40
0.125
 41
0.0
 71
     2
 72
     1
  1
B
  7
SLDTEXTSTYLE0
 73
     1
 44
1.0
  0
MTEXT
  5
125
330
1F
100
AcDbEntity
  8
TITLE
100
AcDbMText
 10
69.66639691059605
 20
4.410586605934803
 30
0.0
 40
0.125
 41
0.0
 71
     2
 72
     1
  1
B
  7
SLDTEXTSTYLE0
 73
     1
 44
1.0
  0
MTEXT
  5
126
330
1F
100
AcDbEntity
  8
TITLE
100
AcDbMText
 10
0.3313750816934456
 20
6.379090542942676
 30
0.0
 40
0.125
 41
0.0
 71
     2
 72
     1
  1
C
  7
SLDTEXTSTYLE0
 73
     1
 44
1.0
  0
MTEXT
  5
127
330
1F
100
AcDbEntity
  8
TITLE
100
AcDbMText
 10
69.6660207509848
 20
6.379090542942677
 30
0.0
 40
0.125
 41
0.0
 71
     2
 72
     1
  1
C
  7
SLDTEXTSTYLE0
 73
     1
 44
1.0
  0
MTEXT
  5
128
330
1F
100
AcDbEntity
  8
TITLE
100
AcDbMText
 10
0.3311870028448152
 20
8.34759447995055
 30
0.0
 40
0.125
 41
0.0
 71
     2
 72
     1
  1
D
  7
SLDTEXTSTYLE0
 73
     1
 44
1.0
  0
MTEXT
  5
129
330
1F
100
AcDbEntity
  8
TITLE
100
AcDbMText
 10
69.66583267213616
 20
8.34759447995055
 30
0.0
 40
0.125
 41
0.0
 71
     2
 72
     1
  1
D
  7
SLDTEXTSTYLE0
 73
     1
 44
1.0
  0
MTEXT
  5
12A
330
1F
100
AcDbEntity
  8
TITLE
100
AcDbMText
 10
0.3329231160377541
 20
10.31609841695842
 30
0.0
 40
0.125
 41
0.0
 71
     2
 72
     1
  1
E
  7
SLDTEXTSTYLE0
 73
     1
 44
1.0
  0
MTEXT
  5
12B
330
1F
100
AcDbEntity
  8
TITLE
100
AcDbMText
 10
69.66756878532911
 20
10.31609841695842
 30
0.0
 40
0.125
 41
0.0
 71
     2
 72
     1
  1
E
  7
SLDTEXTSTYLE0
 73
     1
 44
1.0
  0
MTEXT
  5
12C
330
1F
100
AcDbEntity
  8
TITLE
100
AcDbMText
 10
0.3313461474003637
 20
12.28460235396629
 30
0.0
 40
0.125
 41
0.0
 71
     2
 72
     1
  1
F
  7
SLDTEXTSTYLE0
 73
     1
 44
1.0
  0
MTEXT
  5
12D
330
1F
100
AcDbEntity
  8
TITLE
100
AcDbMText
 10
69.66599181669172
 20
12.2846023539663
 30
0.0
 40
0.125
 41
0.0
 71
     2
 72
     1
  1
F
  7
SLDTEXTSTYLE0
 73
     1
 44
1.0
  0
MTEXT
  5
12E
330
1F
100
AcDbEntity
  8
TITLE
100
AcDbMText
 10
0.332257605436456
 20
14.25310629097417
 30
0.0
 40
0.125
 41
0.0
 71
     2
 72
     1
  1
G
  7
SLDTEXTSTYLE0
 73
     1
 44
1.0
  0
MTEXT
  5
12F
330
1F
100
AcDbEntity
  8
TITLE
100
AcDbMText
 10
69.66690327472782
 20
14.25310629097417
 30
0.0
 40
0.125
 41
0.0
 71
     2
 72
     1
  1
G
  7
SLDTEXTSTYLE0
 73
     1
 44
1.0
  0
MTEXT
  5
130
330
1F
100
AcDbEntity
  8
TITLE
100
AcDbMText
 10
0.3323733456814148
 20
16.22161022798205
 30
0.0
 40
0.125
 41
0.0
 71
     2
 72
     1
  1
H
  7
SLDTEXTSTYLE0
 73
     1
 44
1.0
  0
MTEXT
  5
131
330
1F
100
AcDbEntity
  8
TITLE
100
AcDbMText
 10
69.66701901497275
 20
16.22161022798205
 30
0.0
 40
0.125
 41
0.0
 71
     2
 72
     1
  1
H
  7
SLDTEXTSTYLE0
 73
     1
 44
1.0
  0
MTEXT
  5
132
330
1F
100
AcDbEntity
  8
TITLE
100
AcDbMText
 10
0.3315776305595838
 20
18.19011416498992
 30
0.0
 40
0.125
 41
0.0
 71
     2
 72
     1
  1
J
  7
SLDTEXTSTYLE0
 73
     1
 44
1.0
  0
MTEXT
  5
133
330
1F
100
AcDbEntity
  8
TITLE
100
AcDbMText
 10
69.66622329985094
 20
18.19011416498992
 30
0.0
 40
0.125
 41
0.0
 71
     2
 72
     1
  1
J
  7
SLDTEXTSTYLE0
 73
     1
 44
1.0
  0
MTEXT
  5
134
330
1F
100
AcDbEntity
  8
TITLE
100
AcDbMText
 10
0.3323154765159243
 20
20.1586181019978
 30
0.0
 40
0.125
 41
0.0
 71
     2
 72
     1
  1
K
  7
SLDTEXTSTYLE0
 73
     1
 44
1.0
  0
MTEXT
  5
135
330
1F
100
AcDbEntity
  8
TITLE
100
AcDbMText
 10
69.66696114580728
 20
20.1586181019978
 30
0.0
 40
0.125
 41
0.0
 71
     2
 72
     1
  1
K
  7
SLDTEXTSTYLE0
 73
     1
 44
1.0
  0
MTEXT
  5
136
330
1F
100
AcDbEntity
  8
TITLE
100
AcDbMText
 10
0.3312448739242835
 20
22.12712203900567
 30
0.0
 40
0.125
 41
0.0
 71
     2
 72
     1
  1
L
  7
SLDTEXTSTYLE0
 73
     1
 44
1.0
  0
MTEXT
  5
137
330
1F
100
AcDbEntity
  8
TITLE
100
AcDbMText
 10
69.66589054321565
 20
22.12712203900567
 30
0.0
 40
0.125
 41
0.0
 71
     2
 72
     1
  1
L
  7
SLDTEXTSTYLE0
 73
     1
 44
1.0
  0
MTEXT
  5
138
330
1F
100
AcDbEntity
  8
TITLE
100
AcDbMText
 10
0.3283224192293962
 20
24.09562597601354
 30
0.0
 40
0.125
 41
0.0
 71
     2
 72
     1
  1
M
  7
SLDTEXTSTYLE0
 73
     1
 44
1.0
  0
MTEXT
  5
139
330
1F
100
AcDbEntity
  8
TITLE
100
AcDbMText
 10
69.66296808852073
 20
24.09562597601354
 30
0.0
 40
0.125
 41
0.0
 71
     2
 72
     1
  1
M
  7
SLDTEXTSTYLE0
 73
     1
 44
1.0
  0
MTEXT
  5
13A
330
1F
100
AcDbEntity
  8
TITLE
100
AcDbMText
 10
0.3315342275836453
 20
26.06412991302142
 30
0.0
 40
0.125
 41
0.0
 71
     2
 72
     1
  1
N
  7
SLDTEXTSTYLE0
 73
     1
 44
1.0
  0
MTEXT
  5
13B
330
1F
100
AcDbEntity
  8
TITLE
100
AcDbMText
 10
69.666179896875
 20
26.06412991302141
 30
0.0
 40
0.125
 41
0.0
 71
     2
 72
     1
  1
N
  7
SLDTEXTSTYLE0
 73
     1
 44
1.0
  0
MTEXT
  5
13C
330
1F
100
AcDbEntity
  8
TITLE
100
AcDbMText
 10
0.3321997349363143
 20
28.03263385002929
 30
0.0
 40
0.125
 41
0.0
 71
     2
 72
     1
  1
P
  7
SLDTEXTSTYLE0
 73
     1
 44
1.0
  0
MTEXT
  5
13D
330
1F
100
AcDbEntity
  8
TITLE
100
AcDbMText
 10
69.66684540422766
 20
28.03263385002929
 30
0.0
 40
0.125
 41
0.0
 71
     2
 72
     1
  1
P
  7
SLDTEXTSTYLE0
 73
     1
 44
1.0
  0
MTEXT
  5
13E
330
1F
100
AcDbEntity
  8
TITLE
100
AcDbMText
 10
0.3309265867271644
 20
30.00113778703717
 30
0.0
 40
0.125
 41
0.0
 71
     2
 72
     1
  1
R
  7
SLDTEXTSTYLE0
 73
     1
 44
1.0
  0
MTEXT
  5
13F
330
1F
100
AcDbEntity
  8
TITLE
100
AcDbMText
 10
69.6655722560185
 20
30.00113778703717
 30
0.0
 40
0.125
 41
0.0
 71
     2
 72
     1
  1
R
  7
SLDTEXTSTYLE0
 73
     1
 44
1.0
  0
MTEXT
  5
140
330
1F
100
AcDbEntity
  8
TITLE
100
AcDbMText
 10
0.3323010070777432
 20
31.96964172404504
 30
0.0
 40
0.125
 41
0.0
 71
     2
 72
     1
  1
T
  7
SLDTEXTSTYLE0
 73
     1
 44
1.0
  0
MTEXT
  5
141
330
1F
100
AcDbEntity
  8
TITLE
100
AcDbMText
 10
69.6669466763691
 20
31.96964172404504
 30
0.0
 40
0.125
 41
0.0
 71
     2
 72
     1
  1
T
  7
SLDTEXTSTYLE0
 73
     1
 44
1.0
  0
MTEXT
  5
142
330
1F
100
AcDbEntity
  8
TITLE
100
AcDbMText
 10
0.3328507755201046
 20
33.93814566105291
 30
0.0
 40
0.125
 41
0.0
 71
     2
 72
     1
  1
U
  7
SLDTEXTSTYLE0
 73
     1
 44
1.0
  0
MTEXT
  5
143
330
1F
100
AcDbEntity
  8
TITLE
100
AcDbMText
 10
69.66749644481145
 20
33.93814566105292
 30
0.0
 40
0.125
 41
0.0
 71
     2
 72
     1
  1
U
  7
SLDTEXTSTYLE0
 73
     1
 44
1.0
  0
MTEXT
  5
144
330
1F
100
AcDbEntity
  8
TITLE
100
AcDbMText
 10
0.3307529773167151
 20
35.90664959806079
 30
0.0
 40
0.125
 41
0.0
 71
     2
 72
     1
  1
V
  7
SLDTEXTSTYLE0
 73
     1
 44
1.0
  0
MTEXT
  5
145
330
1F
100
AcDbEntity
  8
TITLE
100
AcDbMText
 10
69.66539864660804
 20
35.90664959806078
 30
0.0
 40
0.125
 41
0.0
 71
     2
 72
     1
  1
V
  7
SLDTEXTSTYLE0
 73
     1
 44
1.0
  0
MTEXT
  5
146
330
1F
100
AcDbEntity
  8
TITLE
100
AcDbMText
 10
0.3327784409203867
 20
37.87515353506867
 30
0.0
 40
0.125
 41
0.0
 71
     2
 72
     1
  1
W
  7
SLDTEXTSTYLE0
 73
     1
 44
1.0
  0
MTEXT
  5
147
330
1F
100
AcDbEntity
  8
TITLE
100
AcDbMText
 10
69.66742411021175
 20
37.87515353506867
 30
0.0
 40
0.125
 41
0.0
 71
     2
 72
     1
  1
W
  7
SLDTEXTSTYLE0
 73
     1
 44
1.0
  0
MTEXT
  5
148
330
1F
100
AcDbEntity
  8
TITLE
100
AcDbMText
 10
0.3321997349363144
 20
39.84365747207655
 30
0.0
 40
0.125
 41
0.0
 71
     2
 72
     1
  1
Y
  7
SLDTEXTSTYLE0
 73
     1
 44
1.0
  0
MTEXT
  5
149
330
1F
100
AcDbEntity
  8
TITLE
100
AcDbMText
 10
69.66684540422766
 20
39.84365747207655
 30
0.0
 40
0.125
 41
0.0
 71
     2
 72
     1
  1
Y
  7
SLDTEXTSTYLE0
 73
     1
 44
1.0
  0
MTEXT
  5
14A
330
1F
100
AcDbEntity
  8
TITLE
100
AcDbMText
 10
0.32257878981296
 20
41.81216140908442
 30
0.0
 40
0.125
 41
0.0
 71
     2
 72
     1
  1
AA
  7
SLDTEXTSTYLE0
 73
     1
 44
1.0
  0
MTEXT
  5
14B
330
1F
100
AcDbEntity
  8
TITLE
100
AcDbMText
 10
69.65722445910431
 20
41.81216140908442
 30
0.0
 40
0.125
 41
0.0
 71
     2
 72
     1
  1
AA
  7
SLDTEXTSTYLE0
 73
     1
 44
1.0
  0
MTEXT
  5
14C
330
1F
100
AcDbEntity
  8
TITLE
100
AcDbMText
 10
0.3267020535339989
 20
43.78066534609228
 30
0.0
 40
0.125
 41
0.0
 71
     2
 72
     1
  1
AB
  7
SLDTEXTSTYLE0
 73
     1
 44
1.0
  0
MTEXT
  5
14D
330
1F
100
AcDbEntity
  8
TITLE
100
AcDbMText
 10
69.66134772282535
 20
43.7806653460923
 30
0.0
 40
0.125
 41
0.0
 71
     2
 72
     1
  1
AB
  7
SLDTEXTSTYLE0
 73
     1
 44
1.0
  0
MTEXT
  5
14E
330
1F
100
AcDbEntity
  8
TITLE
100
AcDbMText
 10
0.3263258985060407
 20
45.74916928310017
 30
0.0
 40
0.125
 41
0.0
 71
     2
 72
     1
  1
AC
  7
SLDTEXTSTYLE0
 73
     1
 44
1.0
  0
MTEXT
  5
14F
330
1F
100
AcDbEntity
  8
TITLE
100
AcDbMText
 10
69.66097156779739
 20
45.74916928310017
 30
0.0
 40
0.125
 41
0.0
 71
     2
 72
     1
  1
AC
  7
SLDTEXTSTYLE0
 73
     1
 44
1.0
  0
MTEXT
  5
150
330
1F
100
AcDbEntity
  8
TITLE
100
AcDbMText
 10
0.3261378196574102
 20
48.15664959806079
 30
0.0
 40
0.125
 41
0.0
 71
     2
 72
     1
  1
AD
  7
SLDTEXTSTYLE0
 73
     1
 44
1.0
  0
MTEXT
  5
151
330
1F
100
AcDbEntity
  8
TITLE
100
AcDbMText
 10
69.66078348894875
 20
48.1566495980608
 30
0.0
 40
0.125
 41
0.0
 71
     2
 72
     1
  1
AD
  7
SLDTEXTSTYLE0
 73
     1
 44
1.0
  0
MTEXT
  5
152
330
1F
100
AcDbEntity
  8
TITLE
100
AcDbMText
 10
1.015199174063176
 20
0.4125551098718105
 30
0.0
 40
0.125
 41
0.0
 71
     2
 72
     1
  1
36
  7
SLDTEXTSTYLE0
 73
     1
 44
1.0
  0
MTEXT
  5
153
330
1F
100
AcDbEntity
  8
TITLE
100
AcDbMText
 10
1.015199174063176
 20
49.74720077916316
 30
0.0
 40
0.125
 41
0.0
 71
     2
 72
     1
  1
36
  7
SLDTEXTSTYLE0
 73
     1
 44
1.0
  0
MTEXT
  5
154
330
1F
100
AcDbEntity
  8
TITLE
100
AcDbMText
 10
2.517167678000183
 20
0.4125551098718104
 30
0.0
 40
0.125
 41
0.0
 71
     2
 72
     1
  1
35
  7
SLDTEXTSTYLE0
 73
     1
 44
1.0
  0
MTEXT
  5
155
330
1F
100
AcDbEntity
  8
TITLE
100
AcDbMText
 10
2.517167678000183
 20
49.74720077916316
 30
0.0
 40
0.125
 41
0.0
 71
     2
 72
     1
  1
35
  7
SLDTEXTSTYLE0
 73
     1
 44
1.0
  0
MTEXT
  5
156
330
1F
100
AcDbEntity
  8
TITLE
100
AcDbMText
 10
4.48567161500806
 20
0.4125551098718104
 30
0.0
 40
0.125
 41
0.0
 71
     2
 72
     1
  1
34
  7
SLDTEXTSTYLE0
 73
     1
 44
1.0
  0
MTEXT
  5
157
330
1F
100
AcDbEntity
  8
TITLE
100
AcDbMText
 10
4.485671615008059
 20
49.74720077916316
 30
0.0
 40
0.125
 41
0.0
 71
     2
 72
     1
  1
34
  7
SLDTEXTSTYLE0
 73
     1
 44
1.0
  0
MTEXT
  5
158
330
1F
100
AcDbEntity
  8
TITLE
100
AcDbMText
 10
6.454175552015934
 20
0.4125551098718104
 30
0.0
 40
0.125
 41
0.0
 71
     2
 72
     1
  1
33
  7
SLDTEXTSTYLE0
 73
     1
 44
1.0
  0
MTEXT
  5
159
330
1F
100
AcDbEntity
  8
TITLE
100
AcDbMText
 10
6.454175552015932
 20
49.74720077916316
 30
0.0
 40
0.125
 41
0.0
 71
     2
 72
     1
  1
33
  7
SLDTEXTSTYLE0
 73
     1
 44
1.0
  0
MTEXT
  5
15A
330
1F
100
AcDbEntity
  8
TITLE
100
AcDbMText
 10
8.422679489023805
 20
0.4125551098718104
 30
0.0
 40
0.125
 41
0.0
 71
     2
 72
     1
  1
32
  7
SLDTEXTSTYLE0
 73
     1
 44
1.0
  0
MTEXT
  5
15B
330
1F
100
AcDbEntity
  8
TITLE
100
AcDbMText
 10
8.422679489023807
 20
49.74720077916316
 30
0.0
 40
0.125
 41
0.0
 71
     2
 72
     1
  1
32
  7
SLDTEXTSTYLE0
 73
     1
 44
1.0
  0
MTEXT
  5
15C
330
1F
100
AcDbEntity
  8
TITLE
100
AcDbMText
 10
10.39118342603168
 20
0.4125551098718104
 30
0.0
 40
0.125
 41
0.0
 71
     2
 72
     1
  1
31
  7
SLDTEXTSTYLE0
 73
     1
 44
1.0
  0
MTEXT
  5
15D
330
1F
100
AcDbEntity
  8
TITLE
100
AcDbMText
 10
10.39118342603168
 20
49.74720077916315
 30
0.0
 40
0.125
 41
0.0
 71
     2
 72
     1
  1
31
  7
SLDTEXTSTYLE0
 73
     1
 44
1.0
  0
MTEXT
  5
15E
330
1F
100
AcDbEntity
  8
TITLE
100
AcDbMText
 10
12.35968736303955
 20
0.4125551098718104
 30
0.0
 40
0.125
 41
0.0
 71
     2
 72
     1
  1
30
  7
SLDTEXTSTYLE0
 73
     1
 44
1.0
  0
MTEXT
  5
15F
330
1F
100
AcDbEntity
  8
TITLE
100
AcDbMText
 10
12.35968736303955
 20
49.74720077916316
 30
0.0
 40
0.125
 41
0.0
 71
     2
 72
     1
  1
30
  7
SLDTEXTSTYLE0
 73
     1
 44
1.0
  0
MTEXT
  5
160
330
1F
100
AcDbEntity
  8
TITLE
100
AcDbMText
 10
14.32819130004743
 20
0.4125551098718104
 30
0.0
 40
0.125
 41
0.0
 71
     2
 72
     1
  1
29
  7
SLDTEXTSTYLE0
 73
     1
 44
1.0
  0
MTEXT
  5
161
330
1F
100
AcDbEntity
  8
TITLE
100
AcDbMText
 10
14.32819130004743
 20
49.74720077916316
 30
0.0
 40
0.125
 41
0.0
 71
     2
 72
     1
  1
29
  7
SLDTEXTSTYLE0
 73
     1
 44
1.0
  0
MTEXT
  5
162
330
1F
100
AcDbEntity
  8
TITLE
100
AcDbMText
 10
16.2966952370553
 20
0.4125551098718104
 30
0.0
 40
0.125
 41
0.0
 71
     2
 72
     1
  1
28
  7
SLDTEXTSTYLE0
 73
     1
 44
1.0
  0
MTEXT
  5
163
330
1F
100
AcDbEntity
  8
TITLE
100
AcDbMText
 10
16.29669523705531
 20
49.74720077916317
 30
0.0
 40
0.125
 41
0.0
 71
     2
 72
     1
  1
28
  7
SLDTEXTSTYLE0
 73
     1
 44
1.0
  0
MTEXT
  5
164
330
1F
100
AcDbEntity
  8
TITLE
100
AcDbMText
 10
18.26519917406318
 20
0.4125551098718105
 30
0.0
 40
0.125
 41
0.0
 71
     2
 72
     1
  1
27
  7
SLDTEXTSTYLE0
 73
     1
 44
1.0
  0
MTEXT
  5
165
330
1F
100
AcDbEntity
  8
TITLE
100
AcDbMText
 10
18.26519917406317
 20
49.74720077916316
 30
0.0
 40
0.125
 41
0.0
 71
     2
 72
     1
  1
27
  7
SLDTEXTSTYLE0
 73
     1
 44
1.0
  0
MTEXT
  5
166
330
1F
100
AcDbEntity
  8
TITLE
100
AcDbMText
 10
20.23370311107105
 20
0.4125551098718103
 30
0.0
 40
0.125
 41
0.0
 71
     2
 72
     1
  1
26
  7
SLDTEXTSTYLE0
 73
     1
 44
1.0
  0
MTEXT
  5
167
330
1F
100
AcDbEntity
  8
TITLE
100
AcDbMText
 10
20.23370311107105
 20
49.74720077916316
 30
0.0
 40
0.125
 41
0.0
 71
     2
 72
     1
  1
26
  7
SLDTEXTSTYLE0
 73
     1
 44
1.0
  0
MTEXT
  5
168
330
1F
100
AcDbEntity
  8
TITLE
100
AcDbMText
 10
22.20220704807893
 20
0.4125551098718104
 30
0.0
 40
0.125
 41
0.0
 71
     2
 72
     1
  1
25
  7
SLDTEXTSTYLE0
 73
     1
 44
1.0
  0
MTEXT
  5
169
330
1F
100
AcDbEntity
  8
TITLE
100
AcDbMText
 10
22.20220704807893
 20
49.74720077916316
 30
0.0
 40
0.125
 41
0.0
 71
     2
 72
     1
  1
25
  7
SLDTEXTSTYLE0
 73
     1
 44
1.0
  0
MTEXT
  5
16A
330
1F
100
AcDbEntity
  8
TITLE
100
AcDbMText
 10
24.1707109850868
 20
0.4125551098718104
 30
0.0
 40
0.125
 41
0.0
 71
     2
 72
     1
  1
24
  7
SLDTEXTSTYLE0
 73
     1
 44
1.0
  0
MTEXT
  5
16B
330
1F
100
AcDbEntity
  8
TITLE
100
AcDbMText
 10
24.1707109850868
 20
49.74720077916316
 30
0.0
 40
0.125
 41
0.0
 71
     2
 72
     1
  1
24
  7
SLDTEXTSTYLE0
 73
     1
 44
1.0
  0
MTEXT
  5
16C
330
1F
100
AcDbEntity
  8
TITLE
100
AcDbMText
 10
26.13921492209468
 20
0.4125551098718104
 30
0.0
 40
0.125
 41
0.0
 71
     2
 72
     1
  1
23
  7
SLDTEXTSTYLE0
 73
     1
 44
1.0
  0
MTEXT
  5
16D
330
1F
100
AcDbEntity
  8
TITLE
100
AcDbMText
 10
26.13921492209468
 20
49.74720077916316
 30
0.0
 40
0.125
 41
0.0
 71
     2
 72
     1
  1
23
  7
SLDTEXTSTYLE0
 73
     1
 44
1.0
  0
MTEXT
  5
16E
330
1F
100
AcDbEntity
  8
TITLE
100
AcDbMText
 10
28.10771885910255
 20
0.4125551098718104
 30
0.0
 40
0.125
 41
0.0
 71
     2
 72
     1
  1
22
  7
SLDTEXTSTYLE0
 73
     1
 44
1.0
  0
MTEXT
  5
16F
330
1F
100
AcDbEntity
  8
TITLE
100
AcDbMText
 10
28.10771885910255
 20
49.74720077916316
 30
0.0
 40
0.125
 41
0.0
 71
     2
 72
     1
  1
22
  7
SLDTEXTSTYLE0
 73
     1
 44
1.0
  0
MTEXT
  5
170
330
1F
100
AcDbEntity
  8
TITLE
100
AcDbMText
 10
30.07622279611043
 20
0.4125551098718104
 30
0.0
 40
0.125
 41
0.0
 71
     2
 72
     1
  1
21
  7
SLDTEXTSTYLE0
 73
     1
 44
1.0
  0
MTEXT
  5
171
330
1F
100
AcDbEntity
  8
TITLE
100
AcDbMText
 10
30.07622279611043
 20
49.74720077916316
 30
0.0
 40
0.125
 41
0.0
 71
     2
 72
     1
  1
21
  7
SLDTEXTSTYLE0
 73
     1
 44
1.0
  0
MTEXT
  5
172
330
1F
100
AcDbEntity
  8
TITLE
100
AcDbMText
 10
32.0447267331183
 20
0.4125551098718104
 30
0.0
 40
0.125
 41
0.0
 71
     2
 72
     1
  1
20
  7
SLDTEXTSTYLE0
 73
     1
 44
1.0
  0
MTEXT
  5
173
330
1F
100
AcDbEntity
  8
TITLE
100
AcDbMText
 10
32.0447267331183
 20
49.74720077916316
 30
0.0
 40
0.125
 41
0.0
 71
     2
 72
     1
  1
20
  7
SLDTEXTSTYLE0
 73
     1
 44
1.0
  0
MTEXT
  5
174
330
1F
100
AcDbEntity
  8
TITLE
100
AcDbMText
 10
34.01323067012617
 20
0.4125551098718104
 30
0.0
 40
0.125
 41
0.0
 71
     2
 72
     1
  1
19
  7
SLDTEXTSTYLE0
 73
     1
 44
1.0
  0
MTEXT
  5
175
330
1F
100
AcDbEntity
  8
TITLE
100
AcDbMText
 10
34.01323067012617
 20
49.74720077916317
 30
0.0
 40
0.125
 41
0.0
 71
     2
 72
     1
  1
19
  7
SLDTEXTSTYLE0
 73
     1
 44
1.0
  0
MTEXT
  5
176
330
1F
100
AcDbEntity
  8
TITLE
100
AcDbMText
 10
35.98173460713405
 20
0.4125551098718104
 30
0.0
 40
0.125
 41
0.0
 71
     2
 72
     1
  1
18
  7
SLDTEXTSTYLE0
 73
     1
 44
1.0
  0
MTEXT
  5
177
330
1F
100
AcDbEntity
  8
TITLE
100
AcDbMText
 10
35.98173460713404
 20
49.74720077916316
 30
0.0
 40
0.125
 41
0.0
 71
     2
 72
     1
  1
18
  7
SLDTEXTSTYLE0
 73
     1
 44
1.0
  0
MTEXT
  5
178
330
1F
100
AcDbEntity
  8
TITLE
100
AcDbMText
 10
37.95023854414192
 20
0.4125551098718105
 30
0.0
 40
0.125
 41
0.0
 71
     2
 72
     1
  1
17
  7
SLDTEXTSTYLE0
 73
     1
 44
1.0
  0
MTEXT
  5
179
330
1F
100
AcDbEntity
  8
TITLE
100
AcDbMText
 10
37.95023854414192
 20
49.74720077916315
 30
0.0
 40
0.125
 41
0.0
 71
     2
 72
     1
  1
17
  7
SLDTEXTSTYLE0
 73
     1
 44
1.0
  0
MTEXT
  5
17A
330
1F
100
AcDbEntity
  8
TITLE
100
AcDbMText
 10
39.91874248114979
 20
0.4125551098718104
 30
0.0
 40
0.125
 41
0.0
 71
     2
 72
     1
  1
16
  7
SLDTEXTSTYLE0
 73
     1
 44
1.0
  0
MTEXT
  5
17B
330
1F
100
AcDbEntity
  8
TITLE
100
AcDbMText
 10
39.91874248114979
 20
49.74720077916316
 30
0.0
 40
0.125
 41
0.0
 71
     2
 72
     1
  1
16
  7
SLDTEXTSTYLE0
 73
     1
 44
1.0
  0
MTEXT
  5
17C
330
1F
100
AcDbEntity
  8
TITLE
100
AcDbMText
 10
41.88724641815767
 20
0.4125551098718104
 30
0.0
 40
0.125
 41
0.0
 71
     2
 72
     1
  1
15
  7
SLDTEXTSTYLE0
 73
     1
 44
1.0
  0
MTEXT
  5
17D
330
1F
100
AcDbEntity
  8
TITLE
100
AcDbMText
 10
41.88724641815768
 20
49.74720077916316
 30
0.0
 40
0.125
 41
0.0
 71
     2
 72
     1
  1
15
  7
SLDTEXTSTYLE0
 73
     1
 44
1.0
  0
MTEXT
  5
17E
330
1F
100
AcDbEntity
  8
TITLE
100
AcDbMText
 10
43.85575035516554
 20
0.4125551098718104
 30
0.0
 40
0.125
 41
0.0
 71
     2
 72
     1
  1
14
  7
SLDTEXTSTYLE0
 73
     1
 44
1.0
  0
MTEXT
  5
17F
330
1F
100
AcDbEntity
  8
TITLE
100
AcDbMText
 10
43.85575035516554
 20
49.74720077916316
 30
0.0
 40
0.125
 41
0.0
 71
     2
 72
     1
  1
14
  7
SLDTEXTSTYLE0
 73
     1
 44
1.0
  0
MTEXT
  5
180
330
1F
100
AcDbEntity
  8
TITLE
100
AcDbMText
 10
45.82425429217342
 20
0.4125551098718104
 30
0.0
 40
0.125
 41
0.0
 71
     2
 72
     1
  1
13
  7
SLDTEXTSTYLE0
 73
     1
 44
1.0
  0
MTEXT
  5
181
330
1F
100
AcDbEntity
  8
TITLE
100
AcDbMText
 10
45.82425429217341
 20
49.74720077916315
 30
0.0
 40
0.125
 41
0.0
 71
     2
 72
     1
  1
13
  7
SLDTEXTSTYLE0
 73
     1
 44
1.0
  0
MTEXT
  5
182
330
1F
100
AcDbEntity
  8
TITLE
100
AcDbMText
 10
47.79275822918129
 20
0.4125551098718104
 30
0.0
 40
0.125
 41
0.0
 71
     2
 72
     1
  1
12
  7
SLDTEXTSTYLE0
 73
     1
 44
1.0
  0
MTEXT
  5
183
330
1F
100
AcDbEntity
  8
TITLE
100
AcDbMText
 10
47.79275822918129
 20
49.74720077916316
 30
0.0
 40
0.125
 41
0.0
 71
     2
 72
     1
  1
12
  7
SLDTEXTSTYLE0
 73
     1
 44
1.0
  0
MTEXT
  5
184
330
1F
100
AcDbEntity
  8
TITLE
100
AcDbMText
 10
49.76126216618918
 20
0.4125551098718104
 30
0.0
 40
0.125
 41
0.0
 71
     2
 72
     1
  1
11
  7
SLDTEXTSTYLE0
 73
     1
 44
1.0
  0
MTEXT
  5
185
330
1F
100
AcDbEntity
  8
TITLE
100
AcDbMText
 10
49.76126216618918
 20
49.74720077916316
 30
0.0
 40
0.125
 41
0.0
 71
     2
 72
     1
  1
11
  7
SLDTEXTSTYLE0
 73
     1
 44
1.0
  0
MTEXT
  5
186
330
1F
100
AcDbEntity
  8
TITLE
100
AcDbMText
 10
51.72976610319703
 20
0.4125551098718104
 30
0.0
 40
0.125
 41
0.0
 71
     2
 72
     1
  1
10
  7
SLDTEXTSTYLE0
 73
     1
 44
1.0
  0
MTEXT
  5
187
330
1F
100
AcDbEntity
  8
TITLE
100
AcDbMText
 10
51.72976610319704
 20
49.74720077916316
 30
0.0
 40
0.125
 41
0.0
 71
     2
 72
     1
  1
10
  7
SLDTEXTSTYLE0
 73
     1
 44
1.0
  0
MTEXT
  5
188
330
1F
100
AcDbEntity
  8
TITLE
100
AcDbMText
 10
53.69952872088985
 20
0.4125551098718104
 30
0.0
 40
0.125
 41
0.0
 71
     2
 72
     1
  1
9
  7
SLDTEXTSTYLE0
 73
     1
 44
1.0
  0
MTEXT
  5
189
330
1F
100
AcDbEntity
  8
TITLE
100
AcDbMText
 10
53.69952872088985
 20
49.74720077916316
 30
0.0
 40
0.125
 41
0.0
 71
     2
 72
     1
  1
9
  7
SLDTEXTSTYLE0
 73
     1
 44
1.0
  0
MTEXT
  5
18A
330
1F
100
AcDbEntity
  8
TITLE
100
AcDbMText
 10
55.66803265789773
 20
0.4125551098718104
 30
0.0
 40
0.125
 41
0.0
 71
     2
 72
     1
  1
8
  7
SLDTEXTSTYLE0
 73
     1
 44
1.0
  0
MTEXT
  5
18B
330
1F
100
AcDbEntity
  8
TITLE
100
AcDbMText
 10
55.66803265789774
 20
49.74720077916315
 30
0.0
 40
0.125
 41
0.0
 71
     2
 72
     1
  1
8
  7
SLDTEXTSTYLE0
 73
     1
 44
1.0
  0
MTEXT
  5
18C
330
1F
100
AcDbEntity
  8
TITLE
100
AcDbMText
 10
57.63653659490561
 20
0.4125551098718104
 30
0.0
 40
0.125
 41
0.0
 71
     2
 72
     1
  1
7
  7
SLDTEXTSTYLE0
 73
     1
 44
1.0
  0
MTEXT
  5
18D
330
1F
100
AcDbEntity
  8
TITLE
100
AcDbMText
 10
57.63653659490561
 20
49.74720077916316
 30
0.0
 40
0.125
 41
0.0
 71
     2
 72
     1
  1
7
  7
SLDTEXTSTYLE0
 73
     1
 44
1.0
  0
MTEXT
  5
18E
330
1F
100
AcDbEntity
  8
TITLE
100
AcDbMText
 10
59.60504053191348
 20
0.4125551098718104
 30
0.0
 40
0.125
 41
0.0
 71
     2
 72
     1
  1
6
  7
SLDTEXTSTYLE0
 73
     1
 44
1.0
  0
MTEXT
  5
18F
330
1F
100
AcDbEntity
  8
TITLE
100
AcDbMText
 10
59.6050405319135
 20
49.74720077916316
 30
0.0
 40
0.125
 41
0.0
 71
     2
 72
     1
  1
6
  7
SLDTEXTSTYLE0
 73
     1
 44
1.0
  0
MTEXT
  5
190
330
1F
100
AcDbEntity
  8
TITLE
100
AcDbMText
 10
61.57354446892136
 20
0.4125551098718104
 30
0.0
 40
0.125
 41
0.0
 71
     2
 72
     1
  1
5
  7
SLDTEXTSTYLE0
 73
     1
 44
1.0
  0
MTEXT
  5
191
330
1F
100
AcDbEntity
  8
TITLE
100
AcDbMText
 10
61.57354446892136
 20
49.74720077916314
 30
0.0
 40
0.125
 41
0.0
 71
     2
 72
     1
  1
5
  7
SLDTEXTSTYLE0
 73
     1
 44
1.0
  0
MTEXT
  5
192
330
1F
100
AcDbEntity
  8
TITLE
100
AcDbMText
 10
63.54204840592922
 20
0.4125551098718104
 30
0.0
 40
0.125
 41
0.0
 71
     2
 72
     1
  1
4
  7
SLDTEXTSTYLE0
 73
     1
 44
1.0
  0
MTEXT
  5
193
330
1F
100
AcDbEntity
  8
TITLE
100
AcDbMText
 10
63.54204840592922
 20
49.74720077916318
 30
0.0
 40
0.125
 41
0.0
 71
     2
 72
     1
  1
4
  7
SLDTEXTSTYLE0
 73
     1
 44
1.0
  0
MTEXT
  5
194
330
1F
100
AcDbEntity
  8
TITLE
100
AcDbMText
 10
65.5105523429371
 20
0.4125551098718104
 30
0.0
 40
0.125
 41
0.0
 71
     2
 72
     1
  1
3
  7
SLDTEXTSTYLE0
 73
     1
 44
1.0
  0
MTEXT
  5
195
330
1F
100
AcDbEntity
  8
TITLE
100
AcDbMText
 10
65.5105523429371
 20
49.74720077916316
 30
0.0
 40
0.125
 41
0.0
 71
     2
 72
     1
  1
3
  7
SLDTEXTSTYLE0
 73
     1
 44
1.0
  0
MTEXT
  5
196
330
1F
100
AcDbEntity
  8
TITLE
100
AcDbMText
 10
67.47905627994497
 20
0.4125551098718104
 30
0.0
 40
0.125
 41
0.0
 71
     2
 72
     1
  1
2
  7
SLDTEXTSTYLE0
 73
     1
 44
1.0
  0
MTEXT
  5
197
330
1F
100
AcDbEntity
  8
TITLE
100
AcDbMText
 10
67.47905627994498
 20
49.74720077916317
 30
0.0
 40
0.125
 41
0.0
 71
     2
 72
     1
  1
2
  7
SLDTEXTSTYLE0
 73
     1
 44
1.0
  0
MTEXT
  5
198
330
1F
100
AcDbEntity
  8
TITLE
100
AcDbMText
 10
68.98102478388199
 20
0.4125551098718104
 30
0.0
 40
0.125
 41
0.0
 71
     2
 72
     1
  1
1
  7
SLDTEXTSTYLE0
 73
     1
 44
1.0
  0
MTEXT
  5
199
330
1F
100
AcDbEntity
  8
TITLE
100
AcDbMText
 10
68.98102478388199
 20
49.74720077916316
 30
0.0
 40
0.125
 41
0.0
 71
     2
 72
     1
  1
1
  7
SLDTEXTSTYLE0
 73
     1
 44
1.0
  0
LINE
  5
19A
330
1F
100
AcDbEntity
  8
0
  6
SLD-Solid
 62
     7
370
    25
100
AcDbLine
 10
28.16087867485447
 20
26.21228709075868
 30
0.0
 11
28.16087867485447
 21
26.18014771027434
 31
0.0
  0
LINE
  5
19B
330
1F
100
AcDbEntity
  8
0
  6
SLD-Solid
 62
     7
370
    25
100
AcDbLine
 10
28.1609506700042
 20
25.79725222641031
 30
0.0
 11
29.11087867485445
 21
25.7972522264103
 31
0.0
  0
LINE
  5
19C
330
1F
100
AcDbEntity
  8
0
  6
SLD-Solid
 62
     7
370
    25
100
AcDbLine
 10
12.75903967607217
 20
26.21228709075848
 30
0.0
 11
12.75903967607217
 21
26.18014771027414
 31
0.0
  0
LINE
  5
19D
330
1F
100
AcDbEntity
  8
0
  6
SLD-Solid
 62
     7
370
    25
100
AcDbLine
 10
12.7591116712219
 20
25.79725222641012
 30
0.0
 11
13.70903967607216
 21
25.79725222641011
 31
0.0
  0
ARC
  5
19E
330
1F
100
AcDbEntity
  8
0
  6
SLD-Solid
 62
     7
370
    25
100
AcDbCircle
 10
5.491959175463461
 20
27.68352089689215
 30
0.0
 40
0.1900000000000056
100
AcDbArc
 50
329.2410336598817
 51
242.6240383921259
  0
CIRCLE
  5
19F
330
1F
100
AcDbEntity
  8
0
  6
SLD-Solid
 62
     7
370
    25
100
AcDbCircle
 10
5.491959175463473
 20
27.68352089689214
 30
0.0
 40
0.0976694938846937
  0
CIRCLE
  5
1A0
330
1F
100
AcDbEntity
  8
0
  6
SLD-Solid
 62
     7
370
    25
100
AcDbCircle
 10
5.491959175463473
 20
27.68352089689214
 30
0.0
 40
0.059999999999999
  0
ARC
  5
1A1
330
1F
100
AcDbEntity
  8
0
  6
SLD-Solid
 62
     7
370
    25
100
AcDbCircle
 10
21.42895917546355
 20
27.683520896892
 30
0.0
 40
0.1899999999999986
100
AcDbArc
 50
307.6320837832779
 51
186.2256090819451
  0
ARC
  5
1A2
330
1F
100
AcDbEntity
  8
0
  6
SLD-Solid
 62
     7
370
    25
100
AcDbCircle
 10
21.42895917546357
 20
27.68352089689199
 30
0.0
 40
0.0976694938846968
100
AcDbArc
 50
288.393860629643
 51
208.5856320305456
  0
CIRCLE
  5
1A3
330
1F
100
AcDbEntity
  8
0
  6
SLD-Solid
 62
     7
370
    25
100
AcDbCircle
 10
21.42895917546357
 20
27.68352089689199
 30
0.0
 40
0.0600000000000032
  0
ARC
  5
1A4
330
1F
100
AcDbEntity
  8
0
  6
SLD-Solid
 62
     7
370
    25
100
AcDbCircle
 10
6.491959175463557
 20
27.68352089689217
 30
0.0
 40
0.190000000000001
100
AcDbArc
 50
307.6320837832778
 51
186.225609081945
  0
ARC
  5
1A5
330
1F
100
AcDbEntity
  8
0
  6
SLD-Solid
 62
     7
370
    25
100
AcDbCircle
 10
6.491959175463569
 20
27.68352089689216
 30
0.0
 40
0.0976694938846966
100
AcDbArc
 50
288.3938606296425
 51
208.585632030544
  0
CIRCLE
  5
1A6
330
1F
100
AcDbEntity
  8
0
  6
SLD-Solid
 62
     7
370
    25
100
AcDbCircle
 10
6.491959175463569
 20
27.68352089689216
 30
0.0
 40
0.0600000000000023
  0
ARC
  5
1A7
330
1F
100
AcDbEntity
  8
0
  6
SLD-Solid
 62
     7
370
    25
100
AcDbCircle
 10
20.42895917546346
 20
27.68352089689198
 30
0.0
 40
0.1900000000000024
100
AcDbArc
 50
329.241033659881
 51
242.6240383921254
  0
CIRCLE
  5
1A8
330
1F
100
AcDbEntity
  8
0
  6
SLD-Solid
 62
     7
370
    25
100
AcDbCircle
 10
20.42895917546347
 20
27.68352089689197
 30
0.0
 40
0.0976694938846909
  0
CIRCLE
  5
1A9
330
1F
100
AcDbEntity
  8
0
  6
SLD-Solid
 62
     7
370
    25
100
AcDbCircle
 10
20.42895917546347
 20
27.68352089689197
 30
0.0
 40
0.0599999999999962
  0
ARC
  5
1AA
330
1F
100
AcDbEntity
  8
0
  6
SLD-Solid
 62
     7
370
    25
100
AcDbCircle
 10
35.36595917546346
 20
27.68352089689181
 30
0.0
 40
0.190000000000004
100
AcDbArc
 50
329.2410336598821
 51
242.6240383921244
  0
CIRCLE
  5
1AB
330
1F
100
AcDbEntity
  8
0
  6
SLD-Solid
 62
     7
370
    25
100
AcDbCircle
 10
35.36595917546347
 20
27.6835208968918
 30
0.0
 40
0.0976694938846932
  0
CIRCLE
  5
1AC
330
1F
100
AcDbEntity
  8
0
  6
SLD-Solid
 62
     7
370
    25
100
AcDbCircle
 10
35.36595917546347
 20
27.6835208968918
 30
0.0
 40
0.0599999999999984
  0
ARC
  5
1AD
330
1F
100
AcDbEntity
  8
0
  6
SLD-Solid
 62
     7
370
    25
100
AcDbCircle
 10
36.36595917546355
 20
27.68352089689183
 30
0.0
 40
0.1899999999999986
100
AcDbArc
 50
307.6320837832779
 51
186.2256090819452
  0
ARC
  5
1AE
330
1F
100
AcDbEntity
  8
0
  6
SLD-Solid
 62
     7
370
    25
100
AcDbCircle
 10
36.36595917546357
 20
27.68352089689182
 30
0.0
 40
0.0976694938846968
100
AcDbArc
 50
288.393860629643
 51
208.5856320305438
  0
CIRCLE
  5
1AF
330
1F
100
AcDbEntity
  8
0
  6
SLD-Solid
 62
     7
370
    25
100
AcDbCircle
 10
36.36595917546357
 20
27.68352089689182
 30
0.0
 40
0.0599999999999983
  0
LINE
  5
1B0
330
1F
100
AcDbEntity
  8
0
  6
SLD-Solid
 62
     7
370
    25
100
AcDbLine
 10
3.057123995571332
 20
26.62893337714197
 30
0.0
 11
2.987428731302913
 21
26.62893337714195
 31
0.0
  0
LINE
  5
1B1
330
1F
100
AcDbEntity
  8
0
  6
SLD-Solid
 62
     7
370
    25
100
AcDbLine
 10
3.057123995571332
 20
26.62893337714197
 30
0.0
 11
3.477361830890746
 21
26.62893337714196
 31
0.0
  0
LINE
  5
1B2
330
1F
100
AcDbEntity
  8
0
  6
SLD-Solid
 62
     7
370
    25
100
AcDbLine
 10
32.90787335510882
 20
26.56632695333428
 30
0.0
 11
32.90787335510901
 21
23.099433377142
 31
0.0
  0
LINE
  5
1B3
330
1F
100
AcDbEntity
  8
0
  6
SLD-Solid
 62
     7
370
    25
100
AcDbLine
 10
32.90787335510903
 20
22.786933377142
 30
0.0
 11
32.90787335510905
 21
22.43581770366313
 31
0.0
  0
LINE
  5
1B4
330
1F
100
AcDbEntity
  8
0
  6
SLD-Solid
 62
     7
370
    25
100
AcDbLine
 10
32.94287335510882
 20
26.56632695333428
 30
0.0
 11
32.94287335510901
 21
23.099433377142
 31
0.0
  0
LINE
  5
1B5
330
1F
100
AcDbEntity
  8
0
  6
SLD-Solid
 62
     7
370
    25
100
AcDbLine
 10
32.94287335510902
 20
22.786933377142
 30
0.0
 11
32.94287335510904
 21
22.43581770366313
 31
0.0
  0
LINE
  5
1B6
330
1F
100
AcDbEntity
  8
0
  6
SLD-Solid
 62
     7
370
    25
100
AcDbLine
 10
32.94287335510908
 20
22.35456538508046
 30
0.0
 11
32.90787335510907
 21
22.35456538508046
 31
0.0
  0
LINE
  5
1B7
330
1F
100
AcDbEntity
  8
0
  6
SLD-Solid
 62
     7
370
    25
100
AcDbLine
 10
32.90787335510905
 20
22.43581770366313
 30
0.0
 11
32.90787335510907
 21
22.35456538508046
 31
0.0
  0
LINE
  5
1B8
330
1F
100
AcDbEntity
  8
0
  6
SLD-Solid
 62
     7
370
    25
100
AcDbLine
 10
32.94287335510904
 20
22.43581770366313
 30
0.0
 11
32.94287335510908
 21
22.35456538508046
 31
0.0
  0
LINE
  5
1B9
330
1F
100
AcDbEntity
  8
0
  6
SLD-Solid
 62
     7
370
    25
100
AcDbLine
 10
32.86787335510905
 20
22.35456538508046
 30
0.0
 11
32.90787335510905
 21
22.35456538508046
 31
0.0
  0
CIRCLE
  5
1BA
330
1F
100
AcDbEntity
  8
0
  6
SLD-Solid
 62
     7
370
    25
100
AcDbCircle
 10
31.97068000797839
 20
23.41656538508047
 30
0.0
 40
0.0999999999999979
  0
LINE
  5
1BB
330
1F
100
AcDbEntity
  8
0
  6
SLD-Solid
 62
     7
370
    25
100
AcDbLine
 10
32.86787335510905
 20
22.35456538508046
 30
0.0
 11
31.59568000797836
 21
22.35456538508049
 31
0.0
  0
ARC
  5
1BC
330
1F
100
AcDbEntity
  8
0
  6
SLD-Solid
 62
     7
370
    25
100
AcDbCircle
 10
31.59568000797838
 20
22.60456538508049
 30
0.0
 40
0.2500000000000036
100
AcDbArc
 50
179.9999999999945
 51
269.9999999999968
  0
LINE
  5
1BD
330
1F
100
AcDbEntity
  8
0
  6
SLD-Solid
 62
     7
370
    25
100
AcDbLine
 10
31.34568000797838
 20
22.60456538508051
 30
0.0
 11
31.34568000797838
 21
22.786933377142
 31
0.0
  0
LINE
  5
1BE
330
1F
100
AcDbEntity
  8
0
  6
SLD-Solid
 62
     7
370
    25
100
AcDbLine
 10
31.34568000797839
 20
23.099433377142
 30
0.0
 11
31.3456800079785
 21
26.5663269533343
 31
0.0
  0
SPLINE
  5
1BF
330
1F
100
AcDbEntity
  8
0
  6
SLD-Solid
 62
     7
370
    25
100
AcDbSpline
210
0.0
220
0.0
230
1.0
 70
    12
 71
     3
 72
    11
 73
     7
 74
     0
 42
0.00000001
 43
0.00000001
 40
0.0
 40
0.0
 40
0.0
 40
0.0
 40
0.2779255621981483
 40
0.5865010749870383
 40
0.8150864002480445
 40
1.0
 40
1.0
 40
1.0
 40
1.0
 10
6.930257252905643
 20
26.74037619386699
 30
0.0
 41
1.0
 10
6.938806775182545
 20
26.74728722810774
 30
0.0
 41
1.0
 10
6.956848670884297
 20
26.76187145339243
 30
0.0
 41
1.0
 10
6.972191887088467
 20
26.79050154326719
 30
0.0
 41
1.0
 10
6.982903374356935
 20
26.81691229361559
 30
0.0
 41
1.0
 10
6.984284893337295
 20
26.83314472294454
 30
0.0
 41
1.0
 10
6.984902698202871
 20
26.84040374287993
 30
0.0
 41
1.0
  0
SPLINE
  5
1C0
330
1F
100
AcDbEntity
  8
0
  6
SLD-Solid
 62
     7
370
    25
100
AcDbSpline
210
0.0
220
0.0
230
1.0
 70
    12
 71
     3
 72
    13
 73
     9
 74
     0
 42
0.00000001
 43
0.00000001
 40
0.0
 40
0.0
 40
0.0
 40
0.0
 40
0.17222580293447
 40
0.3651408598546012
 40
0.5673817509133519
 40
0.723778894603529
 40
0.8702274286197412
 40
1.0
 40
1.0
 40
1.0
 40
1.0
 10
6.117297139207616
 20
26.48271602191668
 30
0.0
 41
1.0
 10
6.167476959386433
 20
26.47828932499179
 30
0.0
 41
1.0
 10
6.273864634027815
 20
26.46890415799634
 30
0.0
 41
1.0
 10
6.437823231386333
 20
26.49979969584825
 30
0.0
 41
1.0
 10
6.59154767252885
 20
26.54690757800272
 30
0.0
 41
1.0
 10
6.726358987418574
 20
26.6062699302149
 30
0.0
 41
1.0
 10
6.837430066070444
 20
26.66680706195856
 30
0.0
 41
1.0
 10
6.900585798844491
 20
26.71686042017867
 30
0.0
 41
1.0
 10
6.930257252905645
 20
26.74037619386699
 30
0.0
 41
1.0
  0
SPLINE
  5
1C1
330
1F
100
AcDbEntity
  8
0
  6
SLD-Solid
 62
     7
370
    25
100
AcDbSpline
210
0.0
220
0.0
230
1.0
 70
    12
 71
     3
 72
    17
 73
    13
 74
     0
 42
0.00000001
 43
0.00000001
 40
0.0
 40
0.0
 40
0.0
 40
0.0
 40
0.0678705028656881
 40
0.1510805487614262
 40
0.2455286833004874
 40
0.3480591354729937
 40
0.4570909829180658
 40
0.5477261663855187
 40
0.6442895922105867
 40
0.7494053384969309
 40
0.8666049980989327
 40
1.0
 40
1.0
 40
1.0
 40
1.0
 10
5.027492629889874
 20
27.70911586882858
 30
0.0
 41
1.0
 10
5.034668664340653
 20
27.66927301950132
 30
0.0
 41
1.0
 10
5.050642602605108
 20
27.58058236175723
 30
0.0
 41
1.0
 10
5.078824138711665
 20
27.43681349872884
 30
0.0
 41
1.0
 10
5.123219507588854
 20
27.27543222344746
 30
0.0
 41
1.0
 10
5.190625562063444
 20
27.10527558459811
 30
0.0
 41
1.0
 10
5.281750797968008
 20
26.94868171324726
 30
0.0
 41
1.0
 10
5.3951787803775
 20
26.81227871527662
 30
0.0
 41
1.0
 10
5.527933670691568
 20
26.69782940935412
 30
0.0
 41
1.0
 10
5.692374142169366
 20
26.60055689637889
 30
0.0
 41
1.0
 10
5.891410877809013
 20
26.52329153918947
 30
0.0
 41
1.0
 10
6.038826020996864
 20
26.49681163885531
 30
0.0
 41
1.0
 10
6.117297139207616
 20
26.48271602191668
 30
0.0
 41
1.0
  0
LINE
  5
1C2
330
1F
100
AcDbEntity
  8
0
  6
SLD-Solid
 62
     7
370
    25
100
AcDbLine
 10
5.242462155293772
 20
27.73691464698423
 30
0.0
 11
5.027492629889874
 21
27.70911586882858
 31
0.0
  0
SPLINE
  5
1C3
330
1F
100
AcDbEntity
  8
0
  6
SLD-Solid
 62
     7
370
    25
100
AcDbSpline
210
0.0
220
0.0
230
1.0
 70
    12
 71
     3
 72
    10
 73
     6
 74
     0
 42
0.00000001
 43
0.00000001
 40
0.0
 40
0.0
 40
0.0
 40
0.0
 40
0.3127001080851608
 40
0.5852029065626156
 40
1.0
 40
1.0
 40
1.0
 40
1.0
 10
5.93274972189968
 20
27.75675205407828
 30
0.0
 41
1.0
 10
5.912509968589482
 20
27.75530542292032
 30
0.0
 41
1.0
 10
5.874632263532817
 20
27.75259812370146
 30
0.0
 41
1.0
 10
5.814373024884246
 20
27.72692570651702
 30
0.0
 41
1.0
 10
5.779231682247946
 20
27.69973567368669
 30
0.0
 41
1.0
 10
5.758023288420889
 20
27.68332602962714
 30
0.0
 41
1.0
  0
LINE
  5
1C4
330
1F
100
AcDbEntity
  8
0
  6
SLD-Solid
 62
     7
370
    25
100
AcDbLine
 10
5.255117665800896
 20
27.64555182464407
 30
0.0
 11
5.242462155293772
 21
27.73691464698423
 31
0.0
  0
SPLINE
  5
1C5
330
1F
100
AcDbEntity
  8
0
  6
SLD-Solid
 62
     7
370
    25
100
AcDbSpline
210
0.0
220
0.0
230
1.0
 70
    12
 71
     3
 72
    14
 73
    10
 74
     0
 42
0.00000001
 43
0.00000001
 40
0.0
 40
0.0
 40
0.0
 40
0.0
 40
0.1669732910766127
 40
0.3292393671751783
 40
0.4780643428590164
 40
0.5831555886245423
 40
0.6936208322497689
 40
0.826686169005254
 40
1.0
 40
1.0
 40
1.0
 40
1.0
 10
5.758023288420889
 20
27.68332602962714
 30
0.0
 41
1.0
 10
5.733507288904802
 20
27.65943266144717
 30
0.0
 41
1.0
 10
5.685166430829245
 20
27.61231951317934
 30
0.0
 41
1.0
 10
5.609103857033973
 20
27.55025082246802
 30
0.0
 41
1.0
 10
5.532627961288664
 20
27.50971424802004
 30
0.0
 41
1.0
 10
5.457189379666168
 20
27.49851775637022
 30
0.0
 41
1.0
 10
5.386222891517867
 20
27.51676317502898
 30
0.0
 41
1.0
 10
5.315206948135422
 20
27.56724525529376
 30
0.0
 41
1.0
 10
5.276828017526617
 20
27.617259538616
 30
0.0
 41
1.0
 10
5.255117665800896
 20
27.64555182464407
 30
0.0
 41
1.0
  0
LINE
  5
1C6
330
1F
100
AcDbEntity
  8
0
  6
SLD-Solid
 62
     7
370
    25
100
AcDbLine
 10
6.487837333357536
 20
27.6161020763062
 30
0.0
 11
5.93274972189968
 21
27.75675205407828
 31
0.0
  0
SPLINE
  5
1C7
330
1F
100
AcDbEntity
  8
0
  6
SLD-Solid
 62
     7
370
    25
100
AcDbSpline
210
0.0
220
0.0
230
1.0
 70
    12
 71
     3
 72
    13
 73
     9
 74
     0
 42
0.00000001
 43
0.00000001
 40
0.0
 40
0.0
 40
0.0
 40
0.0
 40
0.1715604978498651
 40
0.333778530762135
 40
0.4983505100946048
 40
0.6405243354068748
 40
0.8045117842881165
 40
0.9999999999999999
 40
0.9999999999999999
 40
0.9999999999999999
 40
0.9999999999999999
 10
6.984902698202871
 20
26.84040374287993
 30
0.0
 41
1.0
 10
6.977750051106593
 20
26.89511728196911
 30
0.0
 41
1.0
 10
6.963834260066247
 20
27.00156489035719
 30
0.0
 41
1.0
 10
6.922595811737109
 20
27.15716507988486
 30
0.0
 41
1.0
 10
6.854429891002702
 20
27.2931827924066
 30
0.0
 41
1.0
 10
6.758922454312957
 20
27.41154128153493
 30
0.0
 41
1.0
 10
6.638116225669234
 20
27.51953326341317
 30
0.0
 41
1.0
 10
6.540773665900524
 20
27.58208533108037
 30
0.0
 41
1.0
 10
6.487837333357536
 20
27.6161020763062
 30
0.0
 41
1.0
  0
SPLINE
  5
1C8
330
1F
100
AcDbEntity
  8
0
  6
SLD-Solid
 62
     7
370
    25
100
AcDbSpline
210
0.0
220
0.0
230
1.0
 70
    12
 71
     3
 72
    13
 73
     9
 74
     0
 42
0.00000001
 43
0.00000001
 40
0.0
 40
0.0
 40
0.0
 40
0.0
 40
0.171560497849865
 40
0.3337785307621348
 40
0.498350510094605
 40
0.6405243354068749
 40
0.8045117842881158
 40
0.9999999999999999
 40
0.9999999999999999
 40
0.9999999999999999
 40
0.9999999999999999
 10
21.92190269820287
 20
26.84040374287976
 30
0.0
 41
1.0
 10
21.91475005110659
 20
26.89511728196895
 30
0.0
 41
1.0
 10
21.90083426006625
 20
27.00156489035702
 30
0.0
 41
1.0
 10
21.8595958117371
 20
27.15716507988469
 30
0.0
 41
1.0
 10
21.7914298910027
 20
27.29318279240643
 30
0.0
 41
1.0
 10
21.69592245431295
 20
27.41154128153476
 30
0.0
 41
1.0
 10
21.57511622566924
 20
27.519533263413
 30
0.0
 41
1.0
 10
21.47777366590052
 20
27.5820853310802
 30
0.0
 41
1.0
 10
21.42483733335753
 20
27.61610207630603
 30
0.0
 41
1.0
  0
LINE
  5
1C9
330
1F
100
AcDbEntity
  8
0
  6
SLD-Solid
 62
     7
370
    25
100
AcDbLine
 10
21.42483733335753
 20
27.61610207630603
 30
0.0
 11
20.86974972189968
 21
27.75675205407811
 31
0.0
  0
SPLINE
  5
1CA
330
1F
100
AcDbEntity
  8
0
  6
SLD-Solid
 62
     7
370
    25
100
AcDbSpline
210
0.0
220
0.0
230
1.0
 70
    12
 71
     3
 72
    10
 73
     6
 74
     0
 42
0.00000001
 43
0.00000001
 40
0.0
 40
0.0
 40
0.0
 40
0.0
 40
0.3127001080851569
 40
0.5852029065626199
 40
1.0
 40
1.0
 40
1.0
 40
1.0
 10
20.86974972189968
 20
27.75675205407811
 30
0.0
 41
1.0
 10
20.84950996858948
 20
27.75530542292016
 30
0.0
 41
1.0
 10
20.81163226353282
 20
27.75259812370129
 30
0.0
 41
1.0
 10
20.75137302488424
 20
27.72692570651685
 30
0.0
 41
1.0
 10
20.71623168224794
 20
27.69973567368652
 30
0.0
 41
1.0
 10
20.69502328842089
 20
27.68332602962698
 30
0.0
 41
1.0
  0
SPLINE
  5
1CB
330
1F
100
AcDbEntity
  8
0
  6
SLD-Solid
 62
     7
370
    25
100
AcDbSpline
210
0.0
220
0.0
230
1.0
 70
    12
 71
     3
 72
    14
 73
    10
 74
     0
 42
0.00000001
 43
0.00000001
 40
0.0
 40
0.0
 40
0.0
 40
0.0
 40
0.1669732910766119
 40
0.329239367175177
 40
0.4780643428590174
 40
0.5831555886245431
 40
0.693620832249767
 40
0.8266861690052525
 40
1.0
 40
1.0
 40
1.0
 40
1.0
 10
20.69502328842089
 20
27.68332602962698
 30
0.0
 41
1.0
 10
20.6705072889048
 20
27.659432661447
 30
0.0
 41
1.0
 10
20.62216643082924
 20
27.61231951317917
 30
0.0
 41
1.0
 10
20.54610385703398
 20
27.55025082246785
 30
0.0
 41
1.0
 10
20.46962796128866
 20
27.50971424801986
 30
0.0
 41
1.0
 10
20.39418937966617
 20
27.49851775637005
 30
0.0
 41
1.0
 10
20.32322289151787
 20
27.51676317502881
 30
0.0
 41
1.0
 10
20.25220694813542
 20
27.5672452552936
 30
0.0
 41
1.0
 10
20.21382801752662
 20
27.61725953861583
 30
0.0
 41
1.0
 10
20.19211766580089
 20
27.6455518246439
 30
0.0
 41
1.0
  0
SPLINE
  5
1CC
330
1F
100
AcDbEntity
  8
0
  6
SLD-Solid
 62
     7
370
    25
100
AcDbSpline
210
0.0
220
0.0
230
1.0
 70
    12
 71
     3
 72
    11
 73
     7
 74
     0
 42
0.00000001
 43
0.00000001
 40
0.0
 40
0.0
 40
0.0
 40
0.0
 40
0.2779255621981477
 40
0.5865010749870352
 40
0.8150864002480438
 40
1.0
 40
1.0
 40
1.0
 40
1.0
 10
21.86725725290565
 20
26.74037619386682
 30
0.0
 41
1.0
 10
21.87580677518255
 20
26.74728722810757
 30
0.0
 41
1.0
 10
21.89384867088429
 20
26.76187145339226
 30
0.0
 41
1.0
 10
21.90919188708846
 20
26.79050154326702
 30
0.0
 41
1.0
 10
21.91990337435694
 20
26.81691229361542
 30
0.0
 41
1.0
 10
21.92128489333729
 20
26.83314472294436
 30
0.0
 41
1.0
 10
21.92190269820287
 20
26.84040374287976
 30
0.0
 41
1.0
  0
SPLINE
  5
1CD
330
1F
100
AcDbEntity
  8
0
  6
SLD-Solid
 62
     7
370
    25
100
AcDbSpline
210
0.0
220
0.0
230
1.0
 70
    12
 71
     3
 72
    13
 73
     9
 74
     0
 42
0.00000001
 43
0.00000001
 40
0.0
 40
0.0
 40
0.0
 40
0.0
 40
0.1722258029344702
 40
0.3651408598546012
 40
0.5673817509133529
 40
0.7237788946035291
 40
0.8702274286197422
 40
1.0
 40
1.0
 40
1.0
 40
1.0
 10
21.05429713920762
 20
26.48271602191651
 30
0.0
 41
1.0
 10
21.10447695938643
 20
26.47828932499162
 30
0.0
 41
1.0
 10
21.21086463402781
 20
26.46890415799617
 30
0.0
 41
1.0
 10
21.37482323138633
 20
26.49979969584808
 30
0.0
 41
1.0
 10
21.52854767252885
 20
26.54690757800255
 30
0.0
 41
1.0
 10
21.66335898741857
 20
26.60626993021473
 30
0.0
 41
1.0
 10
21.77443006607044
 20
26.66680706195839
 30
0.0
 41
1.0
 10
21.83758579884449
 20
26.7168604201785
 30
0.0
 41
1.0
 10
21.86725725290565
 20
26.74037619386682
 30
0.0
 41
1.0
  0
LINE
  5
1CE
330
1F
100
AcDbEntity
  8
0
  6
SLD-Solid
 62
     7
370
    25
100
AcDbLine
 10
20.19211766580089
 20
27.6455518246439
 30
0.0
 11
20.17946215529377
 21
27.73691464698406
 31
0.0
  0
LINE
  5
1CF
330
1F
100
AcDbEntity
  8
0
  6
SLD-Solid
 62
     7
370
    25
100
AcDbLine
 10
20.17946215529377
 20
27.73691464698406
 30
0.0
 11
19.96449262988987
 21
27.70911586882841
 31
0.0
  0
SPLINE
  5
1D0
330
1F
100
AcDbEntity
  8
0
  6
SLD-Solid
 62
     7
370
    25
100
AcDbSpline
210
0.0
220
0.0
230
1.0
 70
    12
 71
     3
 72
    17
 73
    13
 74
     0
 42
0.00000001
 43
0.00000001
 40
0.0
 40
0.0
 40
0.0
 40
0.0
 40
0.0678705028656881
 40
0.1510805487614261
 40
0.2455286833004874
 40
0.3480591354729936
 40
0.4570909829180657
 40
0.5477261663855187
 40
0.6442895922105859
 40
0.7494053384969313
 40
0.8666049980989325
 40
0.9999999999999999
 40
0.9999999999999999
 40
0.9999999999999999
 40
0.9999999999999999
 10
19.96449262988987
 20
27.70911586882841
 30
0.0
 41
1.0
 10
19.97166866434065
 20
27.66927301950115
 30
0.0
 41
1.0
 10
19.98764260260511
 20
27.58058236175706
 30
0.0
 41
1.0
 10
20.01582413871166
 20
27.43681349872867
 30
0.0
 41
1.0
 10
20.06021950758885
 20
27.2754322234473
 30
0.0
 41
1.0
 10
20.12762556206345
 20
27.10527558459794
 30
0.0
 41
1.0
 10
20.21875079796801
 20
26.94868171324709
 30
0.0
 41
1.0
 10
20.3321787803775
 20
26.81227871527645
 30
0.0
 41
1.0
 10
20.46493367069156
 20
26.69782940935395
 30
0.0
 41
1.0
 10
20.62937414216937
 20
26.60055689637872
 30
0.0
 41
1.0
 10
20.82841087780901
 20
26.5232915391893
 30
0.0
 41
1.0
 10
20.97582602099686
 20
26.49681163885514
 30
0.0
 41
1.0
 10
21.05429713920762
 20
26.48271602191651
 30
0.0
 41
1.0
  0
SPLINE
  5
1D1
330
1F
100
AcDbEntity
  8
0
  6
SLD-Solid
 62
     7
370
    25
100
AcDbSpline
210
0.0
220
0.0
230
1.0
 70
    12
 71
     3
 72
    11
 73
     7
 74
     0
 42
0.00000001
 43
0.00000001
 40
0.0
 40
0.0
 40
0.0
 40
0.0
 40
0.2779255621981483
 40
0.5865010749870383
 40
0.8150864002480445
 40
1.0
 40
1.0
 40
1.0
 40
1.0
 10
36.80425725290565
 20
26.74037619386664
 30
0.0
 41
1.0
 10
36.81280677518255
 20
26.7472872281074
 30
0.0
 41
1.0
 10
36.8308486708843
 20
26.76187145339209
 30
0.0
 41
1.0
 10
36.84619188708846
 20
26.79050154326685
 30
0.0
 41
1.0
 10
36.85690337435695
 20
26.81691229361525
 30
0.0
 41
1.0
 10
36.85828489333729
 20
26.83314472294419
 30
0.0
 41
1.0
 10
36.85890269820287
 20
26.84040374287959
 30
0.0
 41
1.0
  0
SPLINE
  5
1D2
330
1F
100
AcDbEntity
  8
0
  6
SLD-Solid
 62
     7
370
    25
100
AcDbSpline
210
0.0
220
0.0
230
1.0
 70
    12
 71
     3
 72
    13
 73
     9
 74
     0
 42
0.00000001
 43
0.00000001
 40
0.0
 40
0.0
 40
0.0
 40
0.0
 40
0.17222580293447
 40
0.3651408598546012
 40
0.5673817509133519
 40
0.723778894603529
 40
0.8702274286197412
 40
1.0
 40
1.0
 40
1.0
 40
1.0
 10
35.99129713920761
 20
26.48271602191634
 30
0.0
 41
1.0
 10
36.04147695938643
 20
26.47828932499145
 30
0.0
 41
1.0
 10
36.14786463402781
 20
26.468904157996
 30
0.0
 41
1.0
 10
36.31182323138633
 20
26.49979969584791
 30
0.0
 41
1.0
 10
36.46554767252886
 20
26.54690757800238
 30
0.0
 41
1.0
 10
36.60035898741857
 20
26.60626993021456
 30
0.0
 41
1.0
 10
36.71143006607044
 20
26.66680706195822
 30
0.0
 41
1.0
 10
36.77458579884449
 20
26.71686042017833
 30
0.0
 41
1.0
 10
36.80425725290564
 20
26.74037619386664
 30
0.0
 41
1.0
  0
SPLINE
  5
1D3
330
1F
100
AcDbEntity
  8
0
  6
SLD-Solid
 62
     7
370
    25
100
AcDbSpline
210
0.0
220
0.0
230
1.0
 70
    12
 71
     3
 72
    17
 73
    13
 74
     0
 42
0.00000001
 43
0.00000001
 40
0.0
 40
0.0
 40
0.0
 40
0.0
 40
0.0678705028656881
 40
0.1510805487614262
 40
0.2455286833004874
 40
0.3480591354729937
 40
0.4570909829180658
 40
0.5477261663855187
 40
0.6442895922105867
 40
0.7494053384969309
 40
0.8666049980989327
 40
1.0
 40
1.0
 40
1.0
 40
1.0
 10
34.90149262988987
 20
27.70911586882823
 30
0.0
 41
1.0
 10
34.90866866434065
 20
27.66927301950098
 30
0.0
 41
1.0
 10
34.92464260260511
 20
27.58058236175689
 30
0.0
 41
1.0
 10
34.95282413871166
 20
27.4368134987285
 30
0.0
 41
1.0
 10
34.99721950758885
 20
27.27543222344713
 30
0.0
 41
1.0
 10
35.06462556206345
 20
27.10527558459777
 30
0.0
 41
1.0
 10
35.15575079796801
 20
26.94868171324692
 30
0.0
 41
1.0
 10
35.26917878037749
 20
26.81227871527628
 30
0.0
 41
1.0
 10
35.40193367069156
 20
26.69782940935378
 30
0.0
 41
1.0
 10
35.56637414216937
 20
26.60055689637855
 30
0.0
 41
1.0
 10
35.765410877809
 20
26.52329153918913
 30
0.0
 41
1.0
 10
35.91282602099686
 20
26.49681163885497
 30
0.0
 41
1.0
 10
35.99129713920761
 20
26.48271602191634
 30
0.0
 41
1.0
  0
LINE
  5
1D4
330
1F
100
AcDbEntity
  8
0
  6
SLD-Solid
 62
     7
370
    25
100
AcDbLine
 10
35.11646215529377
 20
27.73691464698389
 30
0.0
 11
34.90149262988987
 21
27.70911586882823
 31
0.0
  0
LINE
  5
1D5
330
1F
100
AcDbEntity
  8
0
  6
SLD-Solid
 62
     7
370
    25
100
AcDbLine
 10
35.12911766580089
 20
27.64555182464373
 30
0.0
 11
35.11646215529377
 21
27.73691464698389
 31
0.0
  0
SPLINE
  5
1D6
330
1F
100
AcDbEntity
  8
0
  6
SLD-Solid
 62
     7
370
    25
100
AcDbSpline
210
0.0
220
0.0
230
1.0
 70
    12
 71
     3
 72
    14
 73
    10
 74
     0
 42
0.00000001
 43
0.00000001
 40
0.0
 40
0.0
 40
0.0
 40
0.0
 40
0.1669732910766127
 40
0.3292393671751783
 40
0.4780643428590164
 40
0.5831555886245423
 40
0.6936208322497689
 40
0.826686169005254
 40
1.0
 40
1.0
 40
1.0
 40
1.0
 10
35.63202328842089
 20
27.68332602962681
 30
0.0
 41
1.0
 10
35.6075072889048
 20
27.65943266144683
 30
0.0
 41
1.0
 10
35.55916643082924
 20
27.612319513179
 30
0.0
 41
1.0
 10
35.48310385703397
 20
27.55025082246767
 30
0.0
 41
1.0
 10
35.40662796128865
 20
27.50971424801969
 30
0.0
 41
1.0
 10
35.33118937966617
 20
27.49851775636987
 30
0.0
 41
1.0
 10
35.26022289151787
 20
27.51676317502864
 30
0.0
 41
1.0
 10
35.18920694813542
 20
27.56724525529343
 30
0.0
 41
1.0
 10
35.15082801752662
 20
27.61725953861566
 30
0.0
 41
1.0
 10
35.12911766580089
 20
27.64555182464373
 30
0.0
 41
1.0
  0
LINE
  5
1D7
330
1F
100
AcDbEntity
  8
0
  6
SLD-Solid
 62
     7
370
    25
100
AcDbLine
 10
36.36183733335753
 20
27.61610207630586
 30
0.0
 11
35.80674972189968
 21
27.75675205407794
 31
0.0
  0
SPLINE
  5
1D8
330
1F
100
AcDbEntity
  8
0
  6
SLD-Solid
 62
     7
370
    25
100
AcDbSpline
210
0.0
220
0.0
230
1.0
 70
    12
 71
     3
 72
    13
 73
     9
 74
     0
 42
0.00000001
 43
0.00000001
 40
0.0
 40
0.0
 40
0.0
 40
0.0
 40
0.1715604978498651
 40
0.333778530762135
 40
0.4983505100946048
 40
0.6405243354068748
 40
0.8045117842881165
 40
0.9999999999999999
 40
0.9999999999999999
 40
0.9999999999999999
 40
0.9999999999999999
 10
36.85890269820287
 20
26.84040374287959
 30
0.0
 41
1.0
 10
36.85175005110659
 20
26.89511728196878
 30
0.0
 41
1.0
 10
36.83783426006624
 20
27.00156489035685
 30
0.0
 41
1.0
 10
36.79659581173711
 20
27.15716507988452
 30
0.0
 41
1.0
 10
36.7284298910027
 20
27.29318279240626
 30
0.0
 41
1.0
 10
36.63292245431295
 20
27.41154128153459
 30
0.0
 41
1.0
 10
36.51211622566925
 20
27.51953326341283
 30
0.0
 41
1.0
 10
36.41477366590053
 20
27.58208533108003
 30
0.0
 41
1.0
 10
36.36183733335753
 20
27.61610207630586
 30
0.0
 41
1.0
  0
SPLINE
  5
1D9
330
1F
100
AcDbEntity
  8
0
  6
SLD-Solid
 62
     7
370
    25
100
AcDbSpline
210
0.0
220
0.0
230
1.0
 70
    12
 71
     3
 72
    10
 73
     6
 74
     0
 42
0.00000001
 43
0.00000001
 40
0.0
 40
0.0
 40
0.0
 40
0.0
 40
0.3127001080851608
 40
0.5852029065626156
 40
1.0
 40
1.0
 40
1.0
 40
1.0
 10
35.80674972189968
 20
27.75675205407794
 30
0.0
 41
1.0
 10
35.78650996858948
 20
27.75530542291999
 30
0.0
 41
1.0
 10
35.74863226353282
 20
27.75259812370112
 30
0.0
 41
1.0
 10
35.68837302488424
 20
27.72692570651668
 30
0.0
 41
1.0
 10
35.65323168224794
 20
27.69973567368635
 30
0.0
 41
1.0
 10
35.63202328842089
 20
27.68332602962681
 30
0.0
 41
1.0
  0
ELLIPSE
  5
1DA
330
1F
100
AcDbEntity
  8
0
  6
SLD-Solid
 62
     7
370
    25
100
AcDbEllipse
 10
32.41779435535575
 20
27.26632695333451
 30
0.0
 11
1.000000000000007
 21
0.0
 31
0.0
210
0.0
220
0.0
230
1.0
 40
0.2982731449999975
 41
0.0
 42
6.283185307179586
  0
CIRCLE
  5
1DB
330
1F
100
AcDbEntity
  8
0
  6
SLD-Solid
 62
     7
370
    25
100
AcDbCircle
 10
21.3135412423927
 20
27.11256382996286
 30
0.0
 40
0.1562241563062834
  0
CIRCLE
  5
1DC
330
1F
100
AcDbEntity
  8
0
  6
SLD-Solid
 62
     7
370
    25
100
AcDbCircle
 10
6.376541242392705
 20
27.11256382996303
 30
0.0
 40
0.1562241563062825
  0
CIRCLE
  5
1DD
330
1F
100
AcDbEntity
  8
0
  6
SLD-Solid
 62
     7
370
    25
100
AcDbCircle
 10
36.2505412423927
 20
27.11256382996269
 30
0.0
 40
0.1562241563062798
  0
LINE
  5
1DE
330
1F
100
AcDbEntity
  8
0
  6
SLD-Solid
 62
     7
370
    25
100
AcDbLine
 10
4.415539352628919
 20
26.87052308193153
 30
0.0
 11
4.415539352628919
 21
26.72052308193154
 31
0.0
  0
LINE
  5
1DF
330
1F
100
AcDbEntity
  8
0
  6
SLD-Solid
 62
     7
370
    25
100
AcDbLine
 10
4.415539352628919
 20
26.72052308193154
 30
0.0
 11
4.345539352628919
 21
26.72052308193154
 31
0.0
  0
LINE
  5
1E0
330
1F
100
AcDbEntity
  8
0
  6
SLD-Solid
 62
     7
370
    25
100
AcDbLine
 10
4.345539352628919
 20
26.72052308193154
 30
0.0
 11
4.345539352628919
 21
26.87052308193153
 31
0.0
  0
LINE
  5
1E1
330
1F
100
AcDbEntity
  8
0
  6
SLD-Solid
 62
     7
370
    25
100
AcDbLine
 10
4.345539352628919
 20
27.9589372157898
 30
0.0
 11
4.415539352628919
 21
27.9589372157898
 31
0.0
  0
LINE
  5
1E2
330
1F
100
AcDbEntity
  8
0
  6
SLD-Solid
 62
     7
370
    25
100
AcDbLine
 10
4.345539352628919
 20
27.8089372157898
 30
0.0
 11
4.345539352628919
 21
27.9589372157898
 31
0.0
  0
LINE
  5
1E3
330
1F
100
AcDbEntity
  8
0
  6
SLD-Solid
 62
     7
370
    25
100
AcDbLine
 10
4.415539352628919
 20
27.9589372157898
 30
0.0
 11
4.415539352628919
 21
27.8089372157898
 31
0.0
  0
LINE
  5
1E4
330
1F
100
AcDbEntity
  8
0
  6
SLD-Solid
 62
     7
370
    25
100
AcDbLine
 10
4.345539352628919
 20
27.8089372157898
 30
0.0
 11
4.345539352628919
 21
26.87052308193153
 31
0.0
  0
LINE
  5
1E5
330
1F
100
AcDbEntity
  8
0
  6
SLD-Solid
 62
     7
370
    25
100
AcDbLine
 10
4.415539352628919
 20
27.8089372157898
 30
0.0
 11
4.415539352628919
 21
26.87052308193153
 31
0.0
  0
LINE
  5
1E6
330
1F
100
AcDbEntity
  8
0
  6
SLD-Solid
 62
     7
370
    25
100
AcDbLine
 10
6.986565927432074
 20
27.8089372157898
 30
0.0
 11
6.986565927432074
 21
27.9589372157898
 31
0.0
  0
LINE
  5
1E7
330
1F
100
AcDbEntity
  8
0
  6
SLD-Solid
 62
     7
370
    25
100
AcDbLine
 10
6.986565927432074
 20
27.9589372157898
 30
0.0
 11
7.056565927432072
 21
27.9589372157898
 31
0.0
  0
LINE
  5
1E8
330
1F
100
AcDbEntity
  8
0
  6
SLD-Solid
 62
     7
370
    25
100
AcDbLine
 10
7.056565927432072
 20
27.9589372157898
 30
0.0
 11
7.056565927432074
 21
27.8089372157898
 31
0.0
  0
LINE
  5
1E9
330
1F
100
AcDbEntity
  8
0
  6
SLD-Solid
 62
     7
370
    25
100
AcDbLine
 10
7.056565927432072
 20
26.72052308193154
 30
0.0
 11
6.986565927432074
 21
26.72052308193154
 31
0.0
  0
LINE
  5
1EA
330
1F
100
AcDbEntity
  8
0
  6
SLD-Solid
 62
     7
370
    25
100
AcDbLine
 10
6.986565927432074
 20
26.72052308193154
 30
0.0
 11
6.986565927432074
 21
26.87052308193153
 31
0.0
  0
LINE
  5
1EB
330
1F
100
AcDbEntity
  8
0
  6
SLD-Solid
 62
     7
370
    25
100
AcDbLine
 10
7.056565927432074
 20
26.87052308193153
 30
0.0
 11
7.056565927432072
 21
26.72052308193154
 31
0.0
  0
LINE
  5
1EC
330
1F
100
AcDbEntity
  8
0
  6
SLD-Solid
 62
     7
370
    25
100
AcDbLine
 10
6.986565927432074
 20
27.8089372157898
 30
0.0
 11
6.986565927432074
 21
26.87052308193153
 31
0.0
  0
LINE
  5
1ED
330
1F
100
AcDbEntity
  8
0
  6
SLD-Solid
 62
     7
370
    25
100
AcDbLine
 10
7.056565927432074
 20
27.8089372157898
 30
0.0
 11
7.056565927432074
 21
26.87052308193153
 31
0.0
  0
LINE
  5
1EE
330
1F
100
AcDbEntity
  8
0
  6
SLD-Solid
 62
     7
370
    25
100
AcDbLine
 10
4.415539352628921
 20
26.72052308193154
 30
0.0
 11
4.485539352628921
 21
26.72052308193154
 31
0.0
  0
LINE
  5
1EF
330
1F
100
AcDbEntity
  8
0
  6
SLD-Solid
 62
     7
370
    25
100
AcDbLine
 10
4.485539352628921
 20
27.9589372157898
 30
0.0
 11
4.415539352628921
 21
27.9589372157898
 31
0.0
  0
LINE
  5
1F0
330
1F
100
AcDbEntity
  8
0
  6
SLD-Solid
 62
     7
370
    25
100
AcDbLine
 10
6.986565927432071
 20
27.9589372157898
 30
0.0
 11
6.916565927432072
 21
27.9589372157898
 31
0.0
  0
LINE
  5
1F1
330
1F
100
AcDbEntity
  8
0
  6
SLD-Solid
 62
     7
370
    25
100
AcDbLine
 10
6.916565927432072
 20
26.72052308193154
 30
0.0
 11
6.986565927432071
 21
26.72052308193154
 31
0.0
  0
LINE
  5
1F2
330
1F
100
AcDbEntity
  8
0
  6
SLD-Solid
 62
     7
370
    25
100
AcDbLine
 10
4.485539352628921
 20
26.72052308193154
 30
0.0
 11
5.509099798833968
 21
26.72052308193154
 31
0.0
  0
LINE
  5
1F3
330
1F
100
AcDbEntity
  8
0
  6
SLD-Solid
 62
     7
370
    25
100
AcDbLine
 10
6.903780645481722
 20
26.72052308193154
 30
0.0
 11
6.916565927432072
 21
26.72052308193154
 31
0.0
  0
LINE
  5
1F4
330
1F
100
AcDbEntity
  8
0
  6
SLD-Solid
 62
     7
370
    25
100
AcDbLine
 10
6.916565927432072
 20
27.9589372157898
 30
0.0
 11
4.485539352628921
 21
27.9589372157898
 31
0.0
  0
LINE
  5
1F5
330
1F
100
AcDbEntity
  8
0
  6
SLD-Solid
 62
     7
370
    25
100
AcDbLine
 10
34.21953935262891
 20
27.95893721578946
 30
0.0
 11
34.28953935262892
 21
27.95893721578946
 31
0.0
  0
LINE
  5
1F6
330
1F
100
AcDbEntity
  8
0
  6
SLD-Solid
 62
     7
370
    25
100
AcDbLine
 10
34.21953935262891
 20
27.80893721578946
 30
0.0
 11
34.21953935262891
 21
27.95893721578946
 31
0.0
  0
LINE
  5
1F7
330
1F
100
AcDbEntity
  8
0
  6
SLD-Solid
 62
     7
370
    25
100
AcDbLine
 10
34.28953935262892
 20
27.95893721578946
 30
0.0
 11
34.28953935262892
 21
27.80893721578946
 31
0.0
  0
LINE
  5
1F8
330
1F
100
AcDbEntity
  8
0
  6
SLD-Solid
 62
     7
370
    25
100
AcDbLine
 10
34.28953935262892
 20
26.72052308193119
 30
0.0
 11
34.21953935262891
 21
26.72052308193119
 31
0.0
  0
LINE
  5
1F9
330
1F
100
AcDbEntity
  8
0
  6
SLD-Solid
 62
     7
370
    25
100
AcDbLine
 10
34.21953935262891
 20
26.72052308193119
 30
0.0
 11
34.21953935262891
 21
26.87052308193119
 31
0.0
  0
LINE
  5
1FA
330
1F
100
AcDbEntity
  8
0
  6
SLD-Solid
 62
     7
370
    25
100
AcDbLine
 10
34.28953935262892
 20
26.87052308193119
 30
0.0
 11
34.28953935262892
 21
26.72052308193119
 31
0.0
  0
LINE
  5
1FB
330
1F
100
AcDbEntity
  8
0
  6
SLD-Solid
 62
     7
370
    25
100
AcDbLine
 10
34.21953935262891
 20
27.80893721578946
 30
0.0
 11
34.21953935262891
 21
26.87052308193119
 31
0.0
  0
LINE
  5
1FC
330
1F
100
AcDbEntity
  8
0
  6
SLD-Solid
 62
     7
370
    25
100
AcDbLine
 10
34.28953935262892
 20
27.80893721578946
 30
0.0
 11
34.28953935262892
 21
26.87052308193119
 31
0.0
  0
LINE
  5
1FD
330
1F
100
AcDbEntity
  8
0
  6
SLD-Solid
 62
     7
370
    25
100
AcDbLine
 10
36.93056592743207
 20
27.80893721578946
 30
0.0
 11
36.93056592743207
 21
26.87052308193119
 31
0.0
  0
LINE
  5
1FE
330
1F
100
AcDbEntity
  8
0
  6
SLD-Solid
 62
     7
370
    25
100
AcDbLine
 10
36.86056592743207
 20
27.80893721578946
 30
0.0
 11
36.86056592743207
 21
26.87052308193119
 31
0.0
  0
LINE
  5
1FF
330
1F
100
AcDbEntity
  8
0
  6
SLD-Solid
 62
     7
370
    25
100
AcDbLine
 10
36.86056592743207
 20
27.80893721578946
 30
0.0
 11
36.86056592743207
 21
27.95893721578946
 31
0.0
  0
LINE
  5
200
330
1F
100
AcDbEntity
  8
0
  6
SLD-Solid
 62
     7
370
    25
100
AcDbLine
 10
36.86056592743207
 20
27.95893721578946
 30
0.0
 11
36.93056592743207
 21
27.95893721578946
 31
0.0
  0
LINE
  5
201
330
1F
100
AcDbEntity
  8
0
  6
SLD-Solid
 62
     7
370
    25
100
AcDbLine
 10
36.93056592743207
 20
27.95893721578946
 30
0.0
 11
36.93056592743207
 21
27.80893721578946
 31
0.0
  0
LINE
  5
202
330
1F
100
AcDbEntity
  8
0
  6
SLD-Solid
 62
     7
370
    25
100
AcDbLine
 10
36.93056592743207
 20
26.72052308193119
 30
0.0
 11
36.86056592743207
 21
26.72052308193119
 31
0.0
  0
LINE
  5
203
330
1F
100
AcDbEntity
  8
0
  6
SLD-Solid
 62
     7
370
    25
100
AcDbLine
 10
36.93056592743207
 20
26.87052308193119
 30
0.0
 11
36.93056592743207
 21
26.72052308193119
 31
0.0
  0
LINE
  5
204
330
1F
100
AcDbEntity
  8
0
  6
SLD-Solid
 62
     7
370
    25
100
AcDbLine
 10
36.86056592743207
 20
26.72052308193119
 30
0.0
 11
36.86056592743207
 21
26.87052308193119
 31
0.0
  0
LINE
  5
205
330
1F
100
AcDbEntity
  8
0
  6
SLD-Solid
 62
     7
370
    25
100
AcDbLine
 10
36.79056592743207
 20
26.72052308193119
 30
0.0
 11
36.86056592743207
 21
26.72052308193119
 31
0.0
  0
LINE
  5
206
330
1F
100
AcDbEntity
  8
0
  6
SLD-Solid
 62
     7
370
    25
100
AcDbLine
 10
36.86056592743207
 20
27.95893721578946
 30
0.0
 11
36.79056592743207
 21
27.95893721578946
 31
0.0
  0
LINE
  5
207
330
1F
100
AcDbEntity
  8
0
  6
SLD-Solid
 62
     7
370
    25
100
AcDbLine
 10
34.28953935262892
 20
26.72052308193119
 30
0.0
 11
34.35953935262892
 21
26.72052308193119
 31
0.0
  0
LINE
  5
208
330
1F
100
AcDbEntity
  8
0
  6
SLD-Solid
 62
     7
370
    25
100
AcDbLine
 10
34.35953935262892
 20
27.95893721578946
 30
0.0
 11
34.28953935262892
 21
27.95893721578946
 31
0.0
  0
LINE
  5
209
330
1F
100
AcDbEntity
  8
0
  6
SLD-Solid
 62
     7
370
    25
100
AcDbLine
 10
36.79056592743207
 20
27.95893721578946
 30
0.0
 11
34.35953935262892
 21
27.95893721578946
 31
0.0
  0
LINE
  5
20A
330
1F
100
AcDbEntity
  8
0
  6
SLD-Solid
 62
     7
370
    25
100
AcDbLine
 10
34.35953935262892
 20
26.72052308193119
 30
0.0
 11
35.38309979883397
 21
26.72052308193119
 31
0.0
  0
LINE
  5
20B
330
1F
100
AcDbEntity
  8
0
  6
SLD-Solid
 62
     7
370
    25
100
AcDbLine
 10
36.77778064548172
 20
26.72052308193119
 30
0.0
 11
36.79056592743207
 21
26.72052308193119
 31
0.0
  0
LINE
  5
20C
330
1F
100
AcDbEntity
  8
0
  6
SLD-Solid
 62
     7
370
    25
100
AcDbLine
 10
19.28253935262892
 20
27.95893721578963
 30
0.0
 11
19.35253935262892
 21
27.95893721578963
 31
0.0
  0
LINE
  5
20D
330
1F
100
AcDbEntity
  8
0
  6
SLD-Solid
 62
     7
370
    25
100
AcDbLine
 10
19.28253935262892
 20
27.80893721578963
 30
0.0
 11
19.28253935262892
 21
27.95893721578963
 31
0.0
  0
LINE
  5
20E
330
1F
100
AcDbEntity
  8
0
  6
SLD-Solid
 62
     7
370
    25
100
AcDbLine
 10
19.35253935262892
 20
27.95893721578963
 30
0.0
 11
19.35253935262892
 21
27.80893721578963
 31
0.0
  0
LINE
  5
20F
330
1F
100
AcDbEntity
  8
0
  6
SLD-Solid
 62
     7
370
    25
100
AcDbLine
 10
19.35253935262892
 20
26.72052308193136
 30
0.0
 11
19.28253935262892
 21
26.72052308193136
 31
0.0
  0
LINE
  5
210
330
1F
100
AcDbEntity
  8
0
  6
SLD-Solid
 62
     7
370
    25
100
AcDbLine
 10
19.28253935262892
 20
26.72052308193136
 30
0.0
 11
19.28253935262892
 21
26.87052308193136
 31
0.0
  0
LINE
  5
211
330
1F
100
AcDbEntity
  8
0
  6
SLD-Solid
 62
     7
370
    25
100
AcDbLine
 10
19.35253935262892
 20
26.87052308193136
 30
0.0
 11
19.35253935262892
 21
26.72052308193136
 31
0.0
  0
LINE
  5
212
330
1F
100
AcDbEntity
  8
0
  6
SLD-Solid
 62
     7
370
    25
100
AcDbLine
 10
19.28253935262892
 20
27.80893721578963
 30
0.0
 11
19.28253935262892
 21
26.87052308193136
 31
0.0
  0
LINE
  5
213
330
1F
100
AcDbEntity
  8
0
  6
SLD-Solid
 62
     7
370
    25
100
AcDbLine
 10
19.35253935262892
 20
27.80893721578963
 30
0.0
 11
19.35253935262892
 21
26.87052308193136
 31
0.0
  0
LINE
  5
214
330
1F
100
AcDbEntity
  8
0
  6
SLD-Solid
 62
     7
370
    25
100
AcDbLine
 10
21.92356592743207
 20
27.80893721578963
 30
0.0
 11
21.92356592743207
 21
27.95893721578963
 31
0.0
  0
LINE
  5
215
330
1F
100
AcDbEntity
  8
0
  6
SLD-Solid
 62
     7
370
    25
100
AcDbLine
 10
21.92356592743207
 20
27.95893721578963
 30
0.0
 11
21.99356592743207
 21
27.95893721578963
 31
0.0
  0
LINE
  5
216
330
1F
100
AcDbEntity
  8
0
  6
SLD-Solid
 62
     7
370
    25
100
AcDbLine
 10
21.99356592743207
 20
27.95893721578963
 30
0.0
 11
21.99356592743207
 21
27.80893721578963
 31
0.0
  0
LINE
  5
217
330
1F
100
AcDbEntity
  8
0
  6
SLD-Solid
 62
     7
370
    25
100
AcDbLine
 10
21.99356592743207
 20
27.80893721578963
 30
0.0
 11
21.99356592743207
 21
26.87052308193136
 31
0.0
  0
LINE
  5
218
330
1F
100
AcDbEntity
  8
0
  6
SLD-Solid
 62
     7
370
    25
100
AcDbLine
 10
21.92356592743207
 20
27.80893721578963
 30
0.0
 11
21.92356592743207
 21
26.87052308193136
 31
0.0
  0
LINE
  5
219
330
1F
100
AcDbEntity
  8
0
  6
SLD-Solid
 62
     7
370
    25
100
AcDbLine
 10
21.99356592743207
 20
26.72052308193136
 30
0.0
 11
21.92356592743207
 21
26.72052308193136
 31
0.0
  0
LINE
  5
21A
330
1F
100
AcDbEntity
  8
0
  6
SLD-Solid
 62
     7
370
    25
100
AcDbLine
 10
21.99356592743207
 20
26.87052308193136
 30
0.0
 11
21.99356592743207
 21
26.72052308193136
 31
0.0
  0
LINE
  5
21B
330
1F
100
AcDbEntity
  8
0
  6
SLD-Solid
 62
     7
370
    25
100
AcDbLine
 10
21.92356592743207
 20
26.72052308193136
 30
0.0
 11
21.92356592743207
 21
26.87052308193136
 31
0.0
  0
LINE
  5
21C
330
1F
100
AcDbEntity
  8
0
  6
SLD-Solid
 62
     7
370
    25
100
AcDbLine
 10
21.92356592743207
 20
27.95893721578963
 30
0.0
 11
21.85356592743207
 21
27.95893721578963
 31
0.0
  0
LINE
  5
21D
330
1F
100
AcDbEntity
  8
0
  6
SLD-Solid
 62
     7
370
    25
100
AcDbLine
 10
21.85356592743207
 20
26.72052308193136
 30
0.0
 11
21.92356592743207
 21
26.72052308193136
 31
0.0
  0
LINE
  5
21E
330
1F
100
AcDbEntity
  8
0
  6
SLD-Solid
 62
     7
370
    25
100
AcDbLine
 10
19.35253935262892
 20
26.72052308193136
 30
0.0
 11
19.42253935262892
 21
26.72052308193136
 31
0.0
  0
LINE
  5
21F
330
1F
100
AcDbEntity
  8
0
  6
SLD-Solid
 62
     7
370
    25
100
AcDbLine
 10
19.42253935262892
 20
27.95893721578963
 30
0.0
 11
19.35253935262892
 21
27.95893721578963
 31
0.0
  0
LINE
  5
220
330
1F
100
AcDbEntity
  8
0
  6
SLD-Solid
 62
     7
370
    25
100
AcDbLine
 10
21.85356592743207
 20
27.95893721578963
 30
0.0
 11
19.42253935262892
 21
27.95893721578963
 31
0.0
  0
LINE
  5
221
330
1F
100
AcDbEntity
  8
0
  6
SLD-Solid
 62
     7
370
    25
100
AcDbLine
 10
19.42253935262892
 20
26.72052308193136
 30
0.0
 11
20.44609979883397
 21
26.72052308193136
 31
0.0
  0
LINE
  5
222
330
1F
100
AcDbEntity
  8
0
  6
SLD-Solid
 62
     7
370
    25
100
AcDbLine
 10
21.84078064548172
 20
26.72052308193136
 30
0.0
 11
21.85356592743207
 21
26.72052308193136
 31
0.0
  0
LINE
  5
223
330
1F
100
AcDbEntity
  8
0
  6
SLD-Solid
 62
     7
370
    25
100
AcDbLine
 10
38.81279435535576
 20
26.62893337714184
 30
0.0
 11
38.39255652003601
 21
26.62893337714186
 31
0.0
  0
LINE
  5
224
330
1F
100
AcDbEntity
  8
0
  6
SLD-Solid
 62
     7
370
    25
100
AcDbLine
 10
38.81279435535576
 20
26.62893337714184
 30
0.0
 11
38.88279435535577
 21
26.62893337714186
 31
0.0
  0
LINE
  5
225
330
1F
100
AcDbEntity
  8
0
  6
SLD-Solid
 62
     7
370
    25
100
AcDbLine
 10
38.88279435535577
 20
28.12893337714185
 30
0.0
 11
38.84255652003602
 21
28.12893337714183
 31
0.0
  0
LINE
  5
226
330
1F
100
AcDbEntity
  8
0
  6
SLD-Solid
 62
     7
370
    25
100
AcDbLine
 10
29.11087867485448
 20
26.18014771027431
 30
0.0
 11
29.1108786748545
 21
26.21228709075865
 31
0.0
  0
LWPOLYLINE
  5
227
330
1F
100
AcDbEntity
  8
0
  6
SLD-Solid
 62
     7
370
    25
100
AcDbPolyline
 90
        9
 70
   128
 43
0.0
 10
28.86087867485448
 20
26.37165882105406
 10
28.90965125535851
 20
26.36797898876076
 10
28.95654953294575
 20
26.35708090577223
 10
28.99977123310938
 20
26.33938337930598
 10
29.03765537015111
 20
26.31556651537924
 10
29.06874607793011
 20
26.28654558271606
 10
29.0918485579823
 20
26.25343583948356
 10
29.10607499495529
 20
26.217509674546
 10
29.11087867485448
 20
26.18014771027431
  0
LWPOLYLINE
  5
228
330
1F
100
AcDbEntity
  8
0
  6
SLD-Solid
 62
     7
370
    25
100
AcDbPolyline
 90
        9
 70
   128
 43
0.0
 10
28.86087867485449
 20
26.4037982015384
 10
28.90965125535853
 20
26.4001183692451
 10
28.95654953294577
 20
26.38922028625656
 10
28.9997712331094
 20
26.37152275979032
 10
29.03765537015114
 20
26.34770589586358
 10
29.06874607793014
 20
26.31868496320039
 10
29.09184855798233
 20
26.28557521996789
 10
29.10607499495531
 20
26.24964905503033
 10
29.1108786748545
 20
26.21228709075865
  0
LINE
  5
229
330
1F
100
AcDbEntity
  8
0
  6
SLD-Solid
 62
     7
370
    25
100
AcDbLine
 10
28.16122434908389
 20
25.99371904108273
 30
0.0
 11
28.16125120703416
 21
26.16969668214884
 31
0.0
  0
LWPOLYLINE
  5
22A
330
1F
100
AcDbEntity
  8
0
  6
SLD-Solid
 62
     7
370
    25
100
AcDbPolyline
 90
        9
 70
   128
 43
0.0
 10
28.16125120703416
 20
26.16969668214884
 10
28.16363295011043
 20
26.20849706418786
 10
28.17618589076407
 20
26.24613121016701
 10
28.19839362597257
 20
26.28105092613953
 10
28.22934257365968
 20
26.3118196844127
 10
28.26775955564583
 20
26.3371717194412
 10
28.31206417366726
 20
26.35606409890526
 10
28.36043382381868
 20
26.36771962787284
 10
28.41087867485447
 20
26.37165882105406
  0
LINE
  5
22B
330
1F
100
AcDbEntity
  8
0
  6
SLD-Solid
 62
     7
370
    25
100
AcDbLine
 10
28.41087867485447
 20
26.37165882105406
 30
0.0
 11
28.86087867485448
 21
26.37165882105406
 31
0.0
  0
LINE
  5
22C
330
1F
100
AcDbEntity
  8
0
  6
SLD-Solid
 62
     7
370
    25
100
AcDbLine
 10
29.11087867485448
 20
26.18014771027431
 30
0.0
 11
29.11087867485448
 21
25.99371904108271
 31
0.0
  0
LINE
  5
22D
330
1F
100
AcDbEntity
  8
0
  6
SLD-Solid
 62
     7
370
    25
100
AcDbLine
 10
28.41087867485447
 20
26.40379820153841
 30
0.0
 11
28.86087867485449
 21
26.4037982015384
 31
0.0
  0
LWPOLYLINE
  5
22E
330
1F
100
AcDbEntity
  8
0
  6
SLD-Solid
 62
     7
370
    25
100
AcDbPolyline
 90
        9
 70
   128
 43
0.0
 10
28.16087867485448
 20
26.21228709075867
 10
28.16363295011043
 20
26.24063644467222
 10
28.17618589076407
 20
26.27827059065136
 10
28.19839362597257
 20
26.31319030662388
 10
28.22934257365969
 20
26.34395906489704
 10
28.26775955564584
 20
26.36931109992554
 10
28.31206417366727
 20
26.38820347938959
 10
28.36043382381868
 20
26.39985900835717
 10
28.41087867485447
 20
26.40379820153841
  0
LINE
  5
22F
330
1F
100
AcDbEntity
  8
0
  6
SLD-Solid
 62
     7
370
    25
100
AcDbLine
 10
28.16122434908389
 20
26.02585842156703
 30
0.0
 11
28.16124631238306
 21
26.16976551564705
 31
0.0
  0
LINE
  5
230
330
1F
100
AcDbEntity
  8
0
  6
SLD-Solid
 62
     7
370
    25
100
AcDbLine
 10
29.1108786748545
 20
25.79725222641032
 30
0.0
 11
29.11087867485448
 21
25.99371904108271
 31
0.0
  0
SPLINE
  5
231
330
1F
100
AcDbEntity
  8
0
  6
SLD-Solid
 62
     7
370
    25
100
AcDbSpline
210
0.0
220
0.0
230
1.0
 70
    12
 71
     3
 72
    10
 73
     6
 74
     0
 42
0.00000001
 43
0.00000001
 40
0.0
 40
0.0
 40
0.0
 40
0.0
 40
0.3499165485887066
 40
0.6998330971773873
 40
1.0
 40
1.0
 40
1.0
 40
1.0
 10
28.16122434908389
 20
25.99371904108273
 30
0.0
 41
1.0
 10
28.16121819513275
 20
25.95428784676612
 30
0.0
 41
1.0
 10
28.16120588723046
 20
25.87542545813292
 30
0.0
 41
1.0
 10
28.16118830031958
 20
25.80824301634555
 30
0.0
 41
1.0
 10
28.16117686735986
 20
25.80285404638931
 30
0.0
 41
1.0
 10
28.16117158835129
 20
25.80036576520379
 30
0.0
 41
1.0
  0
SPLINE
  5
232
330
1F
100
AcDbEntity
  8
0
  6
SLD-Solid
 62
     7
370
    25
100
AcDbSpline
210
0.0
220
0.0
230
1.0
 70
    12
 71
     3
 72
    11
 73
     7
 74
     0
 42
0.00000001
 43
0.00000001
 40
0.0
 40
0.0
 40
0.0
 40
0.0
 40
0.2551085947878269
 40
0.5102171895756513
 40
0.7653257843634755
 40
1.0
 40
1.0
 40
1.0
 40
1.0
 10
28.16116896352353
 20
25.79777570454029
 30
0.0
 41
1.0
 10
28.16116280957237
 20
25.80516813922998
 30
0.0
 41
1.0
 10
28.16115050167007
 20
25.81995300860935
 30
0.0
 41
1.0
 10
28.16113203981661
 20
25.90493997089069
 30
0.0
 41
1.0
 10
28.16111407089899
 20
26.0225092023926
 30
0.0
 41
1.0
 10
28.16110225593254
 20
26.12211672918749
 30
0.0
 41
1.0
 10
28.16109659491723
 20
26.16984261446679
 30
0.0
 41
1.0
  0
LINE
  5
233
330
1F
100
AcDbEntity
  8
0
  6
SLD-Solid
 62
     7
370
    25
100
AcDbLine
 10
28.16108949207436
 20
26.23224624894876
 30
0.0
 11
28.16107665425619
 21
26.34725222641031
 31
0.0
  0
SPLINE
  5
234
330
1F
100
AcDbEntity
  8
0
  6
SLD-Solid
 62
     7
370
    25
100
AcDbSpline
210
0.0
220
0.0
230
1.0
 70
    12
 71
     3
 72
    10
 73
     6
 74
     0
 42
0.00000001
 43
0.00000001
 40
0.0
 40
0.0
 40
0.0
 40
0.0
 40
0.3499165485886834
 40
0.6998330971773765
 40
1.0
 40
1.0
 40
1.0
 40
1.0
 10
28.16122434908389
 20
26.02585842156703
 30
0.0
 41
1.0
 10
28.16121819513275
 20
25.99001188127922
 30
0.0
 41
1.0
 10
28.16120588723047
 20
25.9183188007036
 30
0.0
 41
1.0
 10
28.16118830031958
 20
25.85724385362417
 30
0.0
 41
1.0
 10
28.16117686735986
 20
25.85234479002758
 30
0.0
 41
1.0
 10
28.16117158835129
 20
25.85008271622257
 30
0.0
 41
1.0
  0
SPLINE
  5
235
330
1F
100
AcDbEntity
  8
0
  6
SLD-Solid
 62
     7
370
    25
100
AcDbSpline
210
0.0
220
0.0
230
1.0
 70
    12
 71
     3
 72
    11
 73
     7
 74
     0
 42
0.00000001
 43
0.00000001
 40
0.0
 40
0.0
 40
0.0
 40
0.0
 40
0.2605017149782515
 40
0.5210034299565
 40
0.7815051449347493
 40
0.9999999999999999
 40
0.9999999999999999
 40
0.9999999999999999
 40
0.9999999999999999
 10
28.16116896352354
 20
25.84772811561938
 30
0.0
 41
1.0
 10
28.16116280957237
 20
25.85444269406899
 30
0.0
 41
1.0
 10
28.16115050167007
 20
25.86787185096821
 30
0.0
 41
1.0
 10
28.16113203981661
 20
25.94521997661192
 30
0.0
 41
1.0
 10
28.16111457031041
 20
26.0488168097218
 30
0.0
 41
1.0
 10
28.16110325475537
 20
26.13540247529961
 30
0.0
 41
1.0
 10
28.16109809315148
 20
26.17489862962371
 30
0.0
 41
1.0
  0
LINE
  5
236
330
1F
100
AcDbEntity
  8
0
  6
SLD-Solid
 62
     7
370
    25
100
AcDbLine
 10
28.16109353684349
 20
26.2097608333659
 30
0.0
 11
28.1610766542562
 21
26.34725222641033
 31
0.0
  0
LINE
  5
237
330
1F
100
AcDbEntity
  8
0
  6
SLD-Solid
 62
     7
370
    25
100
AcDbLine
 10
29.11087867485451
 20
26.34725222641032
 30
0.0
 11
29.11087867485451
 21
26.21228709075864
 31
0.0
  0
LINE
  5
238
330
1F
100
AcDbEntity
  8
0
  6
SLD-Solid
 62
     7
370
    25
100
AcDbLine
 10
28.16103967778069
 20
26.6635208968917
 30
0.0
 11
28.1610766542562
 21
26.34725222641033
 31
0.0
  0
LINE
  5
239
330
1F
100
AcDbEntity
  8
0
  6
SLD-Solid
 62
     7
370
    25
100
AcDbLine
 10
29.11087867485451
 20
26.34725222641032
 30
0.0
 11
29.11087867485452
 21
26.66352089689168
 31
0.0
  0
LINE
  5
23A
330
1F
100
AcDbEntity
  8
0
  6
SLD-Solid
 62
     7
370
    25
100
AcDbLine
 10
13.70903967607218
 20
26.18014771027412
 30
0.0
 11
13.70903967607221
 21
26.21228709075845
 31
0.0
  0
LWPOLYLINE
  5
23B
330
1F
100
AcDbEntity
  8
0
  6
SLD-Solid
 62
     7
370
    25
100
AcDbPolyline
 90
        9
 70
   128
 43
0.0
 10
13.45903967607219
 20
26.37165882105387
 10
13.50781225657622
 20
26.36797898876057
 10
13.55471053416346
 20
26.35708090577203
 10
13.59793223432709
 20
26.33938337930578
 10
13.63581637136882
 20
26.31556651537905
 10
13.66690707914782
 20
26.28654558271587
 10
13.6900095592
 20
26.25343583948336
 10
13.70423599617299
 20
26.21750967454581
 10
13.70903967607218
 20
26.18014771027412
  0
LWPOLYLINE
  5
23C
330
1F
100
AcDbEntity
  8
0
  6
SLD-Solid
 62
     7
370
    25
100
AcDbPolyline
 90
        9
 70
   128
 43
0.0
 10
13.45903967607219
 20
26.4037982015382
 10
13.50781225657623
 20
26.40011836924491
 10
13.55471053416347
 20
26.38922028625637
 10
13.59793223432711
 20
26.37152275979012
 10
13.63581637136884
 20
26.34770589586338
 10
13.66690707914784
 20
26.3186849632002
 10
13.69000955920003
 20
26.28557521996769
 10
13.70423599617302
 20
26.24964905503013
 10
13.70903967607221
 20
26.21228709075845
  0
LINE
  5
23D
330
1F
100
AcDbEntity
  8
0
  6
SLD-Solid
 62
     7
370
    25
100
AcDbLine
 10
12.75938535030159
 20
25.99371904108253
 30
0.0
 11
12.75941220825187
 21
26.16969668214865
 31
0.0
  0
LWPOLYLINE
  5
23E
330
1F
100
AcDbEntity
  8
0
  6
SLD-Solid
 62
     7
370
    25
100
AcDbPolyline
 90
        9
 70
   128
 43
0.0
 10
12.75941220825187
 20
26.16969668214865
 10
12.76179395132813
 20
26.20849706418767
 10
12.77434689198178
 20
26.24613121016682
 10
12.79655462719027
 20
26.28105092613934
 10
12.82750357487738
 20
26.31181968441251
 10
12.86592055686353
 20
26.33717171944101
 10
12.91022517488497
 20
26.35606409890507
 10
12.95859482503638
 20
26.36771962787265
 10
13.00903967607217
 20
26.37165882105387
  0
LINE
  5
23F
330
1F
100
AcDbEntity
  8
0
  6
SLD-Solid
 62
     7
370
    25
100
AcDbLine
 10
13.00903967607217
 20
26.37165882105387
 30
0.0
 11
13.45903967607219
 21
26.37165882105387
 31
0.0
  0
LINE
  5
240
330
1F
100
AcDbEntity
  8
0
  6
SLD-Solid
 62
     7
370
    25
100
AcDbLine
 10
13.70903967607218
 20
26.18014771027412
 30
0.0
 11
13.70903967607218
 21
25.99371904108251
 31
0.0
  0
LINE
  5
241
330
1F
100
AcDbEntity
  8
0
  6
SLD-Solid
 62
     7
370
    25
100
AcDbLine
 10
13.00903967607218
 20
26.40379820153821
 30
0.0
 11
13.45903967607219
 21
26.4037982015382
 31
0.0
  0
LWPOLYLINE
  5
242
330
1F
100
AcDbEntity
  8
0
  6
SLD-Solid
 62
     7
370
    25
100
AcDbPolyline
 90
        9
 70
   128
 43
0.0
 10
12.75903967607219
 20
26.21228709075847
 10
12.76179395132813
 20
26.24063644467202
 10
12.77434689198178
 20
26.27827059065117
 10
12.79655462719028
 20
26.31319030662369
 10
12.82750357487739
 20
26.34395906489685
 10
12.86592055686354
 20
26.36931109992535
 10
12.91022517488498
 20
26.3882034793894
 10
12.95859482503639
 20
26.39985900835698
 10
13.00903967607218
 20
26.40379820153821
  0
LINE
  5
243
330
1F
100
AcDbEntity
  8
0
  6
SLD-Solid
 62
     7
370
    25
100
AcDbLine
 10
12.7593853503016
 20
26.02585842156683
 30
0.0
 11
12.75940731360076
 21
26.16976551564687
 31
0.0
  0
LINE
  5
244
330
1F
100
AcDbEntity
  8
0
  6
SLD-Solid
 62
     7
370
    25
100
AcDbLine
 10
13.70903967607221
 20
25.79725222641012
 30
0.0
 11
13.70903967607218
 21
25.99371904108251
 31
0.0
  0
SPLINE
  5
245
330
1F
100
AcDbEntity
  8
0
  6
SLD-Solid
 62
     7
370
    25
100
AcDbSpline
210
0.0
220
0.0
230
1.0
 70
    12
 71
     3
 72
    10
 73
     6
 74
     0
 42
0.00000001
 43
0.00000001
 40
0.0
 40
0.0
 40
0.0
 40
0.0
 40
0.3499165485887066
 40
0.6998330971773873
 40
1.0
 40
1.0
 40
1.0
 40
1.0
 10
12.75938535030159
 20
25.99371904108253
 30
0.0
 41
1.0
 10
12.75937919635045
 20
25.95428784676593
 30
0.0
 41
1.0
 10
12.75936688844817
 20
25.87542545813272
 30
0.0
 41
1.0
 10
12.75934930153728
 20
25.80824301634536
 30
0.0
 41
1.0
 10
12.75933786857756
 20
25.80285404638912
 30
0.0
 41
1.0
 10
12.759332589569
 20
25.80036576520359
 30
0.0
 41
1.0
  0
SPLINE
  5
246
330
1F
100
AcDbEntity
  8
0
  6
SLD-Solid
 62
     7
370
    25
100
AcDbSpline
210
0.0
220
0.0
230
1.0
 70
    12
 71
     3
 72
    11
 73
     7
 74
     0
 42
0.00000001
 43
0.00000001
 40
0.0
 40
0.0
 40
0.0
 40
0.0
 40
0.2551085947878269
 40
0.5102171895756513
 40
0.7653257843634761
 40
1.0
 40
1.0
 40
1.0
 40
1.0
 10
12.75932996474124
 20
25.79777570454009
 30
0.0
 41
1.0
 10
12.75932381079008
 20
25.80516813922978
 30
0.0
 41
1.0
 10
12.75931150288778
 20
25.81995300860915
 30
0.0
 41
1.0
 10
12.75929304103431
 20
25.9049399708905
 30
0.0
 41
1.0
 10
12.7592750721167
 20
26.0225092023924
 30
0.0
 41
1.0
 10
12.75926325715024
 20
26.12211672918729
 30
0.0
 41
1.0
 10
12.75925759613493
 20
26.16984261446659
 30
0.0
 41
1.0
  0
LINE
  5
247
330
1F
100
AcDbEntity
  8
0
  6
SLD-Solid
 62
     7
370
    25
100
AcDbLine
 10
12.75924982968036
 20
26.23819113080129
 30
0.0
 11
12.75923765547389
 21
26.34725222641011
 31
0.0
  0
SPLINE
  5
248
330
1F
100
AcDbEntity
  8
0
  6
SLD-Solid
 62
     7
370
    25
100
AcDbSpline
210
0.0
220
0.0
230
1.0
 70
    12
 71
     3
 72
    10
 73
     6
 74
     0
 42
0.00000001
 43
0.00000001
 40
0.0
 40
0.0
 40
0.0
 40
0.0
 40
0.3499165485886845
 40
0.6998330971773777
 40
1.0
 40
1.0
 40
1.0
 40
1.0
 10
12.7593853503016
 20
26.02585842156683
 30
0.0
 41
1.0
 10
12.75937919635045
 20
25.99001188127902
 30
0.0
 41
1.0
 10
12.75936688844817
 20
25.9183188007034
 30
0.0
 41
1.0
 10
12.75934930153728
 20
25.85724385362397
 30
0.0
 41
1.0
 10
12.75933786857756
 20
25.85234479002739
 30
0.0
 41
1.0
 10
12.759332589569
 20
25.85008271622237
 30
0.0
 41
1.0
  0
SPLINE
  5
249
330
1F
100
AcDbEntity
  8
0
  6
SLD-Solid
 62
     7
370
    25
100
AcDbSpline
210
0.0
220
0.0
230
1.0
 70
    12
 71
     3
 72
    11
 73
     7
 74
     0
 42
0.00000001
 43
0.00000001
 40
0.0
 40
0.0
 40
0.0
 40
0.0
 40
0.2605017149782519
 40
0.5210034299565008
 40
0.7815051449347507
 40
1.0
 40
1.0
 40
1.0
 40
1.0
 10
12.75932996474124
 20
25.84772811561919
 30
0.0
 41
1.0
 10
12.75932381079008
 20
25.85444269406879
 30
0.0
 41
1.0
 10
12.75931150288778
 20
25.86787185096802
 30
0.0
 41
1.0
 10
12.75929304103432
 20
25.94521997661172
 30
0.0
 41
1.0
 10
12.75927557152812
 20
26.0488168097216
 30
0.0
 41
1.0
 10
12.75926425597307
 20
26.13540247529941
 30
0.0
 41
1.0
 10
12.75925909436918
 20
26.17489862962351
 30
0.0
 41
1.0
  0
LINE
  5
24A
330
1F
100
AcDbEntity
  8
0
  6
SLD-Solid
 62
     7
370
    25
100
AcDbLine
 10
12.75925453806119
 20
26.20976083336573
 30
0.0
 11
12.7592376554739
 21
26.34725222641014
 31
0.0
  0
LINE
  5
24B
330
1F
100
AcDbEntity
  8
0
  6
SLD-Solid
 62
     7
370
    25
100
AcDbLine
 10
13.70903967607222
 20
26.34725222641012
 30
0.0
 11
13.70903967607221
 21
26.21228709075845
 31
0.0
  0
LINE
  5
24C
330
1F
100
AcDbEntity
  8
0
  6
SLD-Solid
 62
     7
370
    25
100
AcDbLine
 10
12.7592006789984
 20
26.66352089689187
 30
0.0
 11
12.7592376554739
 21
26.34725222641014
 31
0.0
  0
LINE
  5
24D
330
1F
100
AcDbEntity
  8
0
  6
SLD-Solid
 62
     7
370
    25
100
AcDbLine
 10
13.70903967607222
 20
26.34725222641012
 30
0.0
 11
13.70903967607222
 21
26.66352089689186
 31
0.0
  0
LINE
  5
24E
330
1F
100
AcDbEntity
  8
0
  6
SLD-Solid
 62
     7
370
    25
100
AcDbLine
 10
8.962044995818054
 20
26.56632695333456
 30
0.0
 11
8.962044995818049
 21
23.099433377142
 31
0.0
  0
LINE
  5
24F
330
1F
100
AcDbEntity
  8
0
  6
SLD-Solid
 62
     7
370
    25
100
AcDbLine
 10
8.962044995818045
 20
22.786933377142
 30
0.0
 11
8.962044995818045
 21
22.43581770366362
 31
0.0
  0
LINE
  5
250
330
1F
100
AcDbEntity
  8
0
  6
SLD-Solid
 62
     7
370
    25
100
AcDbLine
 10
8.927044995818054
 20
26.56632695333456
 30
0.0
 11
8.927044995818049
 21
23.099433377142
 31
0.0
  0
LINE
  5
251
330
1F
100
AcDbEntity
  8
0
  6
SLD-Solid
 62
     7
370
    25
100
AcDbLine
 10
8.927044995818047
 20
22.786933377142
 30
0.0
 11
8.927044995818047
 21
22.43581770366362
 31
0.0
  0
LINE
  5
252
330
1F
100
AcDbEntity
  8
0
  6
SLD-Solid
 62
     7
370
    25
100
AcDbLine
 10
8.927044995818079
 20
22.35456538508095
 30
0.0
 11
8.962044995818081
 21
22.35456538508095
 31
0.0
  0
LINE
  5
253
330
1F
100
AcDbEntity
  8
0
  6
SLD-Solid
 62
     7
370
    25
100
AcDbLine
 10
8.962044995818045
 20
22.43581770366362
 30
0.0
 11
8.962044995818081
 21
22.35456538508095
 31
0.0
  0
LINE
  5
254
330
1F
100
AcDbEntity
  8
0
  6
SLD-Solid
 62
     7
370
    25
100
AcDbLine
 10
8.927044995818047
 20
22.43581770366362
 30
0.0
 11
8.927044995818079
 21
22.35456538508095
 31
0.0
  0
LINE
  5
255
330
1F
100
AcDbEntity
  8
0
  6
SLD-Solid
 62
     7
370
    25
100
AcDbLine
 10
9.002044995818082
 20
22.35456538508095
 30
0.0
 11
8.962044995818081
 21
22.35456538508095
 31
0.0
  0
CIRCLE
  5
256
330
1F
100
AcDbEntity
  8
0
  6
SLD-Solid
 62
     7
370
    25
100
AcDbCircle
 10
9.899238342948776
 20
23.41656538508094
 30
0.0
 40
0.0999999999999979
  0
LINE
  5
257
330
1F
100
AcDbEntity
  8
0
  6
SLD-Solid
 62
     7
370
    25
100
AcDbLine
 10
10.52423834294874
 20
22.60456538508096
 30
0.0
 11
10.52423834294874
 21
22.786933377142
 31
0.0
  0
LINE
  5
258
330
1F
100
AcDbEntity
  8
0
  6
SLD-Solid
 62
     7
370
    25
100
AcDbLine
 10
10.52423834294874
 20
23.099433377142
 30
0.0
 11
10.52423834294873
 21
26.56632695333454
 31
0.0
  0
ARC
  5
259
330
1F
100
AcDbEntity
  8
0
  6
SLD-Solid
 62
     7
370
    25
100
AcDbCircle
 10
10.27423834294874
 20
22.60456538508094
 30
0.0
 40
0.25
100
AcDbArc
 50
270.0000000000094
 51
0.0000000000049023
  0
LINE
  5
25A
330
1F
100
AcDbEntity
  8
0
  6
SLD-Solid
 62
     7
370
    25
100
AcDbLine
 10
9.002044995818082
 20
22.35456538508095
 30
0.0
 11
10.27423834294878
 21
22.35456538508094
 31
0.0
  0
ARC
  5
25B
330
1F
100
AcDbEntity
  8
0
  6
SLD-Solid
 62
     7
370
    25
100
AcDbCircle
 10
37.21845917546352
 20
23.128433377142
 30
0.0
 40
0.0289999999999999
100
AcDbArc
 50
270.0000000000008
 51
0.0
  0
ARC
  5
25C
330
1F
100
AcDbEntity
  8
0
  6
SLD-Solid
 62
     7
370
    25
100
AcDbCircle
 10
4.651459175463514
 20
23.128433377142
 30
0.0
 40
0.3415000000000035
100
AcDbArc
 50
180.000000000002
 51
270.0000000000008
  0
ARC
  5
25D
330
1F
100
AcDbEntity
  8
0
  6
SLD-Solid
 62
     7
370
    25
100
AcDbCircle
 10
37.21845917546352
 20
23.128433377142
 30
0.0
 40
0.3415000000000035
100
AcDbArc
 50
270.0000000000008
 51
359.9999999999997
  0
LINE
  5
25E
330
1F
100
AcDbEntity
  8
0
  6
SLD-Solid
 62
     7
370
    25
100
AcDbLine
 10
37.21845917546352
 20
22.786933377142
 30
0.0
 11
4.651459175463514
 21
22.786933377142
 31
0.0
  0
LINE
  5
25F
330
1F
100
AcDbEntity
  8
0
  6
SLD-Solid
 62
     7
370
    25
100
AcDbLine
 10
37.55995917546352
 20
23.12843337714199
 30
0.0
 11
37.55995917546354
 21
26.56632695333423
 31
0.0
  0
LINE
  5
260
330
1F
100
AcDbEntity
  8
0
  6
SLD-Solid
 62
     7
370
    25
100
AcDbLine
 10
4.651459175463514
 20
23.099433377142
 30
0.0
 11
37.21845917546352
 21
23.099433377142
 31
0.0
  0
LINE
  5
261
330
1F
100
AcDbEntity
  8
0
  6
SLD-Solid
 62
     7
370
    25
100
AcDbLine
 10
4.309959175463513
 20
23.12843337714199
 30
0.0
 11
4.309959175463494
 21
26.56632695333461
 31
0.0
  0
LINE
  5
262
330
1F
100
AcDbEntity
  8
0
  6
SLD-Solid
 62
     7
370
    25
100
AcDbLine
 10
4.622459175463495
 20
26.56632695333461
 30
0.0
 11
4.622459175463515
 21
23.128433377142
 31
0.0
  0
ARC
  5
263
330
1F
100
AcDbEntity
  8
0
  6
SLD-Solid
 62
     7
370
    25
100
AcDbCircle
 10
4.651459175463514
 20
23.128433377142
 30
0.0
 40
0.0289999999999999
100
AcDbArc
 50
180.0
 51
270.0000000000008
  0
LINE
  5
264
330
1F
100
AcDbEntity
  8
0
  6
SLD-Solid
 62
     7
370
    25
100
AcDbLine
 10
37.24745917546353
 20
26.56632695333423
 30
0.0
 11
37.24745917546351
 21
23.128433377142
 31
0.0
  0
LINE
  5
265
330
1F
100
AcDbEntity
  8
0
  6
SLD-Solid
 62
     7
370
    25
100
AcDbLine
 10
38.84255652003602
 20
28.13175873221123
 30
0.0
 11
38.84255652003601
 21
26.63352089689158
 31
0.0
  0
LINE
  5
266
330
1F
100
AcDbEntity
  8
0
  6
SLD-Solid
 62
     7
370
    25
100
AcDbLine
 10
38.84255652003601
 20
26.63352089689158
 30
0.0
 11
38.39255652003601
 21
26.63352089689158
 31
0.0
  0
LINE
  5
267
330
1F
100
AcDbEntity
  8
0
  6
SLD-Solid
 62
     7
370
    25
100
AcDbLine
 10
38.39255652003601
 20
26.63352089689158
 30
0.0
 11
38.39255652003601
 21
26.63282301632635
 31
0.0
  0
LINE
  5
268
330
1F
100
AcDbEntity
  8
0
  6
SLD-Solid
 62
     7
370
    25
100
AcDbLine
 10
29.13595917546341
 20
26.66352089689168
 30
0.0
 11
29.13595917546339
 21
26.63282301632645
 31
0.0
  0
LINE
  5
269
330
1F
100
AcDbEntity
  8
0
  6
SLD-Solid
 62
     7
370
    25
100
AcDbLine
 10
28.1359591754634
 20
26.6635208968917
 30
0.0
 11
29.13595917546341
 21
26.66352089689168
 31
0.0
  0
LINE
  5
26A
330
1F
100
AcDbEntity
  8
0
  6
SLD-Solid
 62
     7
370
    25
100
AcDbLine
 10
28.13595917546338
 20
26.63282301632647
 30
0.0
 11
28.1359591754634
 21
26.6635208968917
 31
0.0
  0
LINE
  5
26B
330
1F
100
AcDbEntity
  8
0
  6
SLD-Solid
 62
     7
370
    25
100
AcDbLine
 10
13.73395917546326
 20
26.66352089689186
 30
0.0
 11
13.73395917546326
 21
26.63282301632663
 31
0.0
  0
LINE
  5
26C
330
1F
100
AcDbEntity
  8
0
  6
SLD-Solid
 62
     7
370
    25
100
AcDbLine
 10
12.73395917546328
 20
26.66352089689187
 30
0.0
 11
13.73395917546326
 21
26.66352089689186
 31
0.0
  0
LINE
  5
26D
330
1F
100
AcDbEntity
  8
0
  6
SLD-Solid
 62
     7
370
    25
100
AcDbLine
 10
12.73395917546328
 20
26.63282301632664
 30
0.0
 11
12.73395917546328
 21
26.66352089689187
 31
0.0
  0
LINE
  5
26E
330
1F
100
AcDbEntity
  8
0
  6
SLD-Solid
 62
     7
370
    25
100
AcDbLine
 10
3.477361830890752
 20
26.63282301632675
 30
0.0
 11
3.477361830890752
 21
26.63352089689197
 31
0.0
  0
LINE
  5
26F
330
1F
100
AcDbEntity
  8
0
  6
SLD-Solid
 62
     7
370
    25
100
AcDbLine
 10
3.477361830890752
 20
26.63352089689197
 30
0.0
 11
3.027361830890746
 21
26.63352089689198
 31
0.0
  0
LINE
  5
270
330
1F
100
AcDbEntity
  8
0
  6
SLD-Solid
 62
     7
370
    25
100
AcDbLine
 10
3.027361830890746
 20
26.63352089689198
 30
0.0
 11
3.027361830890764
 21
28.13175873221164
 31
0.0
  0
LINE
  5
271
330
1F
100
AcDbEntity
  8
0
  6
SLD-Solid
 62
     7
370
    25
100
AcDbLine
 10
29.13595917546339
 20
26.63282301632645
 30
0.0
 11
29.13595917546341
 21
26.56632695333433
 31
0.0
  0
LINE
  5
272
330
1F
100
AcDbEntity
  8
0
  6
SLD-Solid
 62
     7
370
    25
100
AcDbLine
 10
38.39255652003601
 20
26.56632695333422
 30
0.0
 11
38.39255652003601
 21
26.63282301632635
 31
0.0
  0
LINE
  5
273
330
1F
100
AcDbEntity
  8
0
  6
SLD-Solid
 62
     7
370
    25
100
AcDbLine
 10
29.13595917546341
 20
26.56632695333433
 30
0.0
 11
35.67159485226394
 21
26.56632695333426
 31
0.0
  0
LINE
  5
274
330
1F
100
AcDbEntity
  8
0
  6
SLD-Solid
 62
     7
370
    25
100
AcDbLine
 10
36.5040525950777
 20
26.56632695333425
 30
0.0
 11
38.39255652003601
 21
26.56632695333422
 31
0.0
  0
LINE
  5
275
330
1F
100
AcDbEntity
  8
0
  6
SLD-Solid
 62
     7
370
    25
100
AcDbLine
 10
3.027361830890764
 20
28.20675873221164
 30
0.0
 11
3.027361830890764
 21
28.13175873221164
 31
0.0
  0
LINE
  5
276
330
1F
100
AcDbEntity
  8
0
  6
SLD-Solid
 62
     7
370
    25
100
AcDbLine
 10
3.027361830890764
 20
28.20675873221164
 30
0.0
 11
38.84255652003603
 21
28.20675873221123
 31
0.0
  0
LINE
  5
277
330
1F
100
AcDbEntity
  8
0
  6
SLD-Solid
 62
     7
370
    25
100
AcDbLine
 10
38.84255652003602
 20
28.13175873221123
 30
0.0
 11
38.84255652003603
 21
28.20675873221123
 31
0.0
  0
LINE
  5
278
330
1F
100
AcDbEntity
  8
0
  6
SLD-Solid
 62
     7
370
    25
100
AcDbLine
 10
13.73395917546326
 20
26.63282301632663
 30
0.0
 11
13.73395917546327
 21
26.56632695333451
 31
0.0
  0
LINE
  5
279
330
1F
100
AcDbEntity
  8
0
  6
SLD-Solid
 62
     7
370
    25
100
AcDbLine
 10
28.1359591754634
 20
26.56632695333434
 30
0.0
 11
28.13595917546338
 21
26.63282301632647
 31
0.0
  0
LINE
  5
27A
330
1F
100
AcDbEntity
  8
0
  6
SLD-Solid
 62
     7
370
    25
100
AcDbLine
 10
13.73395917546327
 20
26.56632695333451
 30
0.0
 11
20.73459485226372
 21
26.56632695333443
 31
0.0
  0
LINE
  5
27B
330
1F
100
AcDbEntity
  8
0
  6
SLD-Solid
 62
     7
370
    25
100
AcDbLine
 10
21.56705259507749
 20
26.56632695333442
 30
0.0
 11
28.1359591754634
 21
26.56632695333434
 31
0.0
  0
LINE
  5
27C
330
1F
100
AcDbEntity
  8
0
  6
SLD-Solid
 62
     7
370
    25
100
AcDbLine
 10
3.477361830890752
 20
26.63282301632675
 30
0.0
 11
3.477361830890748
 21
26.56632695333462
 31
0.0
  0
LINE
  5
27D
330
1F
100
AcDbEntity
  8
0
  6
SLD-Solid
 62
     7
370
    25
100
AcDbLine
 10
12.73395917546329
 20
26.56632695333451
 30
0.0
 11
12.73395917546328
 21
26.63282301632664
 31
0.0
  0
LINE
  5
27E
330
1F
100
AcDbEntity
  8
0
  6
SLD-Solid
 62
     7
370
    25
100
AcDbLine
 10
3.477361830890748
 20
26.56632695333462
 30
0.0
 11
5.797594852263518
 21
26.5663269533346
 31
0.0
  0
LINE
  5
27F
330
1F
100
AcDbEntity
  8
0
  6
SLD-Solid
 62
     7
370
    25
100
AcDbLine
 10
6.63005259507727
 20
26.56632695333459
 30
0.0
 11
12.73395917546329
 21
26.56632695333451
 31
0.0
  0
LINE
  5
280
330
1F
100
AcDbEntity
  8
0
  6
SLD-Solid
 62
     7
370
    25
100
AcDbLine
 10
38.91779435535567
 20
26.61760408506426
 30
0.0
 11
38.9177943553557
 21
28.13175873221122
 31
0.0
  0
LINE
  5
281
330
1F
100
AcDbEntity
  8
0
  6
SLD-Solid
 62
     7
370
    25
100
AcDbLine
 10
38.88279435535567
 20
26.61760408506426
 30
0.0
 11
38.8827943553557
 21
28.13175873221123
 31
0.0
  0
ARC
  5
282
330
1F
100
AcDbEntity
  8
0
  6
SLD-Solid
 62
     7
370
    25
100
AcDbCircle
 10
38.84279435535569
 20
28.13175873221123
 30
0.0
 40
0.0750000000000028
100
AcDbArc
 50
359.9999999999751
 51
90.0
  0
ARC
  5
283
330
1F
100
AcDbEntity
  8
0
  6
SLD-Solid
 62
     7
370
    25
100
AcDbCircle
 10
38.84279435535569
 20
28.13175873221123
 30
0.0
 40
0.0400000000000063
100
AcDbArc
 50
0.0000000000031806
 51
90.0
  0
ARC
  5
284
330
1F
100
AcDbEntity
  8
0
  6
SLD-Solid
 62
     7
370
    25
100
AcDbCircle
 10
38.85129829236355
 20
26.61760408506425
 30
0.0
 40
0.0314960629921259
100
AcDbArc
 50
270.0000000000008
 51
0.0000000000064629
  0
ARC
  5
285
330
1F
100
AcDbEntity
  8
0
  6
SLD-Solid
 62
     7
370
    25
100
AcDbCircle
 10
38.85129829236355
 20
26.61760408506425
 30
0.0
 40
0.0664960629921225
100
AcDbArc
 50
270.0000000000008
 51
0.0000000000303836
  0
LINE
  5
286
330
1F
100
AcDbEntity
  8
0
  6
SLD-Solid
 62
     7
370
    25
100
AcDbLine
 10
38.48538148053624
 20
26.55110802207214
 30
0.0
 11
38.85129829236355
 21
26.55110802207213
 31
0.0
  0
LINE
  5
287
330
1F
100
AcDbEntity
  8
0
  6
SLD-Solid
 62
     7
370
    25
100
AcDbLine
 10
38.48538148053624
 20
26.55110802207214
 30
0.0
 11
38.48538148053624
 21
26.58610802207214
 31
0.0
  0
LINE
  5
288
330
1F
100
AcDbEntity
  8
0
  6
SLD-Solid
 62
     7
370
    25
100
AcDbLine
 10
38.48538148053624
 20
26.58610802207214
 30
0.0
 11
38.85129829236355
 21
26.58610802207213
 31
0.0
  0
LINE
  5
289
330
1F
100
AcDbEntity
  8
0
  6
SLD-Solid
 62
     7
370
    25
100
AcDbLine
 10
38.84279435535569
 20
28.17175873221123
 30
0.0
 11
38.84255652003602
 21
28.17175873221123
 31
0.0
  0
LINE
  5
28A
330
1F
100
AcDbEntity
  8
0
  6
SLD-Solid
 62
     7
370
    25
100
AcDbLine
 10
38.84279435535569
 20
28.20675873221123
 30
0.0
 11
38.84255652003602
 21
28.20675873221123
 31
0.0
  0
LINE
  5
28B
330
1F
100
AcDbEntity
  8
0
  6
SLD-Solid
 62
     7
370
    25
100
AcDbLine
 10
3.027361830890764
 20
28.17175873221164
 30
0.0
 11
3.027123995571092
 21
28.17175873221164
 31
0.0
  0
LINE
  5
28C
330
1F
100
AcDbEntity
  8
0
  6
SLD-Solid
 62
     7
370
    25
100
AcDbLine
 10
3.027361830890764
 20
28.20675873221164
 30
0.0
 11
3.027123995571092
 21
28.20675873221164
 31
0.0
  0
ARC
  5
28D
330
1F
100
AcDbEntity
  8
0
  6
SLD-Solid
 62
     7
370
    25
100
AcDbCircle
 10
3.027123995571092
 20
28.13175873221164
 30
0.0
 40
0.0750000000000104
100
AcDbArc
 50
90.0
 51
179.9999999999973
  0
ARC
  5
28E
330
1F
100
AcDbEntity
  8
0
  6
SLD-Solid
 62
     7
370
    25
100
AcDbCircle
 10
3.027123995571083
 20
28.13175873221164
 30
0.0
 40
0.0399999999999991
100
AcDbArc
 50
89.99999999998728
 51
179.999999999944
  0
LINE
  5
28F
330
1F
100
AcDbEntity
  8
0
  6
SLD-Solid
 62
     7
370
    25
100
AcDbLine
 10
2.952123995571082
 20
28.13175873221164
 30
0.0
 11
2.952123995571073
 21
26.63330408506467
 31
0.0
  0
LINE
  5
290
330
1F
100
AcDbEntity
  8
0
  6
SLD-Solid
 62
     7
370
    25
100
AcDbLine
 10
2.987123995571087
 20
28.13175873221164
 30
0.0
 11
2.987123995571078
 21
26.63330408506466
 31
0.0
  0
LINE
  5
291
330
1F
100
AcDbEntity
  8
0
  6
SLD-Solid
 62
     7
370
    25
100
AcDbLine
 10
3.018620058563201
 20
26.60180802207254
 30
0.0
 11
3.400236870390509
 21
26.60180802207253
 31
0.0
  0
LINE
  5
292
330
1F
100
AcDbEntity
  8
0
  6
SLD-Solid
 62
     7
370
    25
100
AcDbLine
 10
3.400236870390509
 20
26.56680802207254
 30
0.0
 11
3.400236870390509
 21
26.60180802207253
 31
0.0
  0
LINE
  5
293
330
1F
100
AcDbEntity
  8
0
  6
SLD-Solid
 62
     7
370
    25
100
AcDbLine
 10
3.018620058563201
 20
26.56680802207254
 30
0.0
 11
3.400236870390509
 21
26.56680802207254
 31
0.0
  0
ARC
  5
294
330
1F
100
AcDbEntity
  8
0
  6
SLD-Solid
 62
     7
370
    25
100
AcDbCircle
 10
3.018620058563201
 20
26.63330408506466
 30
0.0
 40
0.0664960629921283
100
AcDbArc
 50
179.9999999999936
 51
270.0000000000008
  0
ARC
  5
295
330
1F
100
AcDbEntity
  8
0
  6
SLD-Solid
 62
     7
370
    25
100
AcDbCircle
 10
3.018620058563201
 20
26.63330408506466
 30
0.0
 40
0.0314960629921259
100
AcDbArc
 50
179.999999999996
 51
270.0000000000008
  0
LINE
  5
296
330
1F
100
AcDbEntity
  8
0
  6
SLD-Solid
 62
     7
370
    25
100
AcDbLine
 10
29.13595917546341
 20
26.56632695333433
 30
0.0
 11
29.11087867485452
 21
26.56632695333433
 31
0.0
  0
LINE
  5
297
330
1F
100
AcDbEntity
  8
0
  6
SLD-Solid
 62
     7
370
    25
100
AcDbLine
 10
28.16105104118721
 20
26.56632695333434
 30
0.0
 11
28.1359591754634
 21
26.56632695333434
 31
0.0
  0
LINE
  5
298
330
1F
100
AcDbEntity
  8
0
  6
SLD-Solid
 62
     7
370
    25
100
AcDbLine
 10
29.13595917546341
 20
26.60132695333433
 30
0.0
 11
29.11087867485452
 21
26.60132695333433
 31
0.0
  0
LINE
  5
299
330
1F
100
AcDbEntity
  8
0
  6
SLD-Solid
 62
     7
370
    25
100
AcDbLine
 10
28.16104694917064
 20
26.60132695333434
 30
0.0
 11
28.1359591754634
 21
26.60132695333434
 31
0.0
  0
LINE
  5
29A
330
1F
100
AcDbEntity
  8
0
  6
SLD-Solid
 62
     7
370
    25
100
AcDbLine
 10
13.73395917546327
 20
26.56632695333451
 30
0.0
 11
13.70903967607222
 21
26.56632695333451
 31
0.0
  0
LINE
  5
29B
330
1F
100
AcDbEntity
  8
0
  6
SLD-Solid
 62
     7
370
    25
100
AcDbLine
 10
12.75921204240492
 20
26.56632695333452
 30
0.0
 11
12.73395917546329
 21
26.56632695333452
 31
0.0
  0
LINE
  5
29C
330
1F
100
AcDbEntity
  8
0
  6
SLD-Solid
 62
     7
370
    25
100
AcDbLine
 10
13.73395917546327
 20
26.60132695333451
 30
0.0
 11
13.70903967607222
 21
26.60132695333451
 31
0.0
  0
LINE
  5
29D
330
1F
100
AcDbEntity
  8
0
  6
SLD-Solid
 62
     7
370
    25
100
AcDbLine
 10
12.75920795038834
 20
26.60132695333452
 30
0.0
 11
12.73395917546329
 21
26.60132695333452
 31
0.0
  0
LINE
  5
29E
330
1F
100
AcDbEntity
  8
0
  6
SLD-Solid
 62
     7
370
    18
100
AcDbLine
 10
38.84255652003603
 20
28.13175873221123
 30
0.0
 11
3.027361830890766
 21
28.13175873221164
 31
0.0
  0
LINE
  5
29F
330
1F
100
AcDbEntity
  8
0
  6
SLD-Solid
 62
     7
370
    18
100
AcDbLine
 10
3.027361830890766
 20
28.13175873221164
 30
0.0
 11
3.027361830890748
 21
26.63352089689198
 31
0.0
  0
LINE
  5
2A0
330
1F
100
AcDbEntity
  8
0
  6
SLD-Solid
 62
     7
370
    18
100
AcDbLine
 10
3.027361830890748
 20
26.63352089689198
 30
0.0
 11
3.477361830890755
 21
26.63352089689197
 31
0.0
  0
LINE
  5
2A1
330
1F
100
AcDbEntity
  8
0
  6
SLD-Solid
 62
     7
370
    18
100
AcDbLine
 10
3.477361830890755
 20
26.63352089689197
 30
0.0
 11
3.477361830890755
 21
26.63282301632675
 31
0.0
  0
LINE
  5
2A2
330
1F
100
AcDbEntity
  8
0
  6
SLD-Solid
 62
     7
370
    18
100
AcDbLine
 10
3.477361830890755
 20
26.63282301632675
 30
0.0
 11
12.73395917546328
 21
26.63282301632664
 31
0.0
  0
LINE
  5
2A3
330
1F
100
AcDbEntity
  8
0
  6
SLD-Solid
 62
     7
370
    18
100
AcDbLine
 10
12.73395917546328
 20
26.63282301632664
 30
0.0
 11
12.73395917546328
 21
26.66352089689187
 31
0.0
  0
LINE
  5
2A4
330
1F
100
AcDbEntity
  8
0
  6
SLD-Solid
 62
     7
370
    18
100
AcDbLine
 10
12.73395917546328
 20
26.66352089689187
 30
0.0
 11
13.73395917546326
 21
26.66352089689186
 31
0.0
  0
LINE
  5
2A5
330
1F
100
AcDbEntity
  8
0
  6
SLD-Solid
 62
     7
370
    18
100
AcDbLine
 10
13.73395917546326
 20
26.66352089689186
 30
0.0
 11
13.73395917546326
 21
26.63282301632663
 31
0.0
  0
LINE
  5
2A6
330
1F
100
AcDbEntity
  8
0
  6
SLD-Solid
 62
     7
370
    18
100
AcDbLine
 10
13.73395917546326
 20
26.63282301632663
 30
0.0
 11
28.13595917546338
 21
26.63282301632647
 31
0.0
  0
LINE
  5
2A7
330
1F
100
AcDbEntity
  8
0
  6
SLD-Solid
 62
     7
370
    18
100
AcDbLine
 10
28.13595917546338
 20
26.63282301632647
 30
0.0
 11
28.1359591754634
 21
26.6635208968917
 31
0.0
  0
LINE
  5
2A8
330
1F
100
AcDbEntity
  8
0
  6
SLD-Solid
 62
     7
370
    18
100
AcDbLine
 10
28.1359591754634
 20
26.6635208968917
 30
0.0
 11
29.13595917546341
 21
26.66352089689168
 31
0.0
  0
LINE
  5
2A9
330
1F
100
AcDbEntity
  8
0
  6
SLD-Solid
 62
     7
370
    18
100
AcDbLine
 10
29.13595917546341
 20
26.66352089689168
 30
0.0
 11
29.13595917546339
 21
26.63282301632645
 31
0.0
  0
LINE
  5
2AA
330
1F
100
AcDbEntity
  8
0
  6
SLD-Solid
 62
     7
370
    18
100
AcDbLine
 10
29.13595917546339
 20
26.63282301632645
 30
0.0
 11
38.39255652003601
 21
26.63282301632635
 31
0.0
  0
LINE
  5
2AB
330
1F
100
AcDbEntity
  8
0
  6
SLD-Solid
 62
     7
370
    18
100
AcDbLine
 10
38.39255652003601
 20
26.63282301632635
 30
0.0
 11
38.39255652003601
 21
26.63352089689158
 31
0.0
  0
LINE
  5
2AC
330
1F
100
AcDbEntity
  8
0
  6
SLD-Solid
 62
     7
370
    18
100
AcDbLine
 10
38.39255652003601
 20
26.63352089689158
 30
0.0
 11
38.84255652003601
 21
26.63352089689158
 31
0.0
  0
LINE
  5
2AD
330
1F
100
AcDbEntity
  8
0
  6
SLD-Solid
 62
     7
370
    18
100
AcDbLine
 10
38.84255652003601
 20
26.63352089689158
 30
0.0
 11
38.84255652003603
 21
28.13175873221123
 31
0.0
  0
DIMENSION
  5
2AE
330
1F
100
AcDbEntity
  8
DIMS
100
AcDbDimension
  2
_D
 10
39.31149514275742
 20
28.20675873221122
 30
0.0
 11
39.31149514275739
 21
25.11117123049614
 31
0.0
 70
    32
  1
<>
 71
     2
 42
-1.0
  3
SLDDIMSTYLE0
100
AcDbAlignedDimension
 13
32.86787335510905
 23
22.35456538508046
 33
0.0
 14
38.84255652003603
 24
28.20675873221123
 34
0.0
 50
90.0000000000002
100
AcDbRotatedDimension
  0
MTEXT
  5
2C4
330
1F
100
AcDbEntity
  8
NOTES
100
AcDbMText
 10
8.328990438724537
 20
30.4988294474979
 30
0.0
 40
0.5
 41
0.0
 71
     1
 72
     1
  1
mop/broom holder (3)
  7
SLDTEXTSTYLE0
 73
     1
 44
1.0
  0
LEADER
  5
2C6
330
1F
100
AcDbEntity
  8
NOTES
100
AcDbLeader
  3
SLDDIMSTYLE1
 76
     3
 10
6.305946928633696
 20
27.9589372157898
 30
0.0
 10
7.805692355682429
 20
30.25354000169795
 30
0.0
 10
8.30569235568243
 20
30.25354000169795
 30
0.0
1001
ACAD
1000
DSTYLE
1002
{
1070
   176
1070
     0
1070
    77
1070
     0
1070
    40
1040
1.0
1070
   147
1040
0.0
1002
}
  0
MTEXT
  5
2C7
330
1F
100
AcDbEntity
  8
NOTES
100
AcDbMText
 10
14.86201535994276
 20
24.5708617899843
 30
0.0
 40
0.5
 41
0.0
 71
     1
 72
     1
  1
pail hook (2)
  7
SLDTEXTSTYLE0
 73
     1
 44
1.0
  0
LEADER
  5
2C8
330
1F
100
AcDbEntity
  8
NOTES
100
AcDbLeader
  3
SLDDIMSTYLE1
 76
     3
 10
13.39167831314744
 20
25.79725222641015
 30
0.0
 10
14.34216521254171
 20
24.32675984081471
 30
0.0
 10
14.84216521254171
 20
24.32675984081471
 30
0.0
1001
ACAD
1000
DSTYLE
1002
{
1070
   176
1070
     0
1070
    77
1070
     0
1070
    40
1040
1.0
1070
   147
1040
0.0
1002
}
  0
MTEXT
  5
2C9
330
1F
100
AcDbEntity
  8
NOTES
100
AcDbMText
 10
13.90147467898307
 20
21.84537676264313
 30
0.0
 40
0.5
 41
0.0
 71
     1
 72
     1
  1
hanger
  7
SLDTEXTSTYLE0
 73
     1
 44
1.0
  0
LEADER
  5
2CA
330
1F
100
AcDbEntity
  8
NOTES
100
AcDbLeader
  3
SLDDIMSTYLE1
 76
     3
 10
12.45094315012276
 20
22.786933377142
 30
0.0
 10
13.3780000189052
 20
21.59968475881339
 30
0.0
 10
13.8780000189052
 20
21.59968475881339
 30
0.0
1001
ACAD
1000
DSTYLE
1002
{
1070
   176
1070
     0
1070
    77
1070
     0
1070
    40
1040
1.0
1070
   147
1040
0.0
1002
}
  0
MTEXT
  5
2CB
330
1F
100
AcDbEntity
  8
NOTES
100
AcDbMText
 10
3.640462109578529
 20
21.84537676264313
 30
0.0
 40
0.5
 41
0.0
 71
     1
 72
     1
  1
Front view
  7
SLDTEXTSTYLE0
 73
     1
 44
1.0
  0
LINE
  5
2CC
330
1F
100
AcDbEntity
  8
0
  6
SLD-Solid
 62
     7
370
    25
100
AcDbLine
 10
43.07649577410277
 20
26.47418412973731
 30
0.0
 11
43.87649577410278
 21
26.47418412973731
 31
0.0
  0
LINE
  5
2CD
330
1F
100
AcDbEntity
  8
0
  6
SLD-Solid
 62
     7
370
    25
100
AcDbLine
 10
43.07649577410277
 20
27.26878798626897
 30
0.0
 11
43.05802473860118
 21
27.26878798626897
 31
0.0
  0
LINE
  5
2CE
330
1F
100
AcDbEntity
  8
0
  6
SLD-Solid
 62
     7
370
    25
100
AcDbLine
 10
43.05802473860118
 20
26.95633967365641
 30
0.0
 11
43.07649577410277
 21
26.95633967365641
 31
0.0
  0
ARC
  5
2CF
330
1F
100
AcDbEntity
  8
0
  6
SLD-Solid
 62
     7
370
    25
100
AcDbCircle
 10
43.33110320799291
 20
27.11256382996269
 30
0.0
 40
0.3146074338901396
100
AcDbArc
 50
150.2267646167128
 51
209.7732353832886
  0
LINE
  5
2D0
330
1F
100
AcDbEntity
  8
0
  6
SLD-Solid
 62
     7
370
    25
100
AcDbLine
 10
51.91764587478791
 20
22.35456538508046
 30
0.0
 11
52.07414648424145
 21
22.35456538508046
 31
0.0
  0
ARC
  5
2D1
330
1F
100
AcDbEntity
  8
0
  6
SLD-Solid
 62
     7
370
    25
100
AcDbCircle
 10
51.91764587478741
 20
22.85456538507719
 30
0.0
 40
0.4999999999967347
100
AcDbArc
 50
236.8765735730252
 51
270.0000000000578
  0
LINE
  5
2D2
330
1F
100
AcDbEntity
  8
0
  6
SLD-Solid
 62
     7
370
    25
100
AcDbLine
 10
45.33721956523078
 20
26.55110802207214
 30
0.0
 11
46.05745229331069
 21
26.08117447800165
 31
0.0
  0
LINE
  5
2D3
330
1F
100
AcDbEntity
  8
0
  6
SLD-Solid
 62
     7
370
    25
100
AcDbLine
 10
46.36995229331069
 20
25.87727617291695
 30
0.0
 11
51.64442365880364
 21
22.43581770366313
 31
0.0
  0
LINE
  5
2D4
330
1F
100
AcDbEntity
  8
0
  6
SLD-Solid
 62
     7
370
    25
100
AcDbLine
 10
52.14914648424144
 20
22.35456538508046
 30
0.0
 11
52.07414648424145
 21
22.35456538508046
 31
0.0
  0
LINE
  5
2D5
330
1F
100
AcDbEntity
  8
0
  6
SLD-Solid
 62
     7
370
    25
100
AcDbLine
 10
52.14914648424144
 20
22.35456538508046
 30
0.0
 11
52.14914648424143
 21
27.60934585739192
 31
0.0
  0
LINE
  5
2D6
330
1F
100
AcDbEntity
  8
0
  6
SLD-Solid
 62
     7
370
    25
100
AcDbLine
 10
52.11673360942219
 20
28.16656538508046
 30
0.0
 11
52.13497581077837
 21
28.16656538508046
 31
0.0
  0
LINE
  5
2D7
330
1F
100
AcDbEntity
  8
0
  6
SLD-Solid
 62
     7
370
    25
100
AcDbLine
 10
43.07649577410277
 20
27.61610207630586
 30
0.0
 11
43.24649577410278
 21
27.61610207630586
 31
0.0
  0
SPLINE
  5
2D8
330
1F
100
AcDbEntity
  8
0
  6
SLD-Solid
 62
     7
370
    25
100
AcDbSpline
210
0.0
220
0.0
230
1.0
 70
    28
 71
     3
 72
    13
 73
     9
 74
     0
 42
0.00000001
 43
0.00000001
 40
0.0
 40
0.0
 40
0.0
 40
0.0
 40
0.1715604978498651
 40
0.333778530762135
 40
0.4983505100946048
 40
0.6405243354068748
 40
0.8045117842881165
 40
0.9999999999999999
 40
0.9999999999999999
 40
0.9999999999999999
 40
0.9999999999999999
 10
43.07649577410277
 20
26.84040374287959
 30
0.0
 41
1.0
 10
43.07649577410277
 20
26.89511728196878
 30
0.0
 41
1.0
 10
43.07649577410277
 20
27.00156489035685
 30
0.0
 41
1.0
 10
43.07649577410277
 20
27.15716507988452
 30
0.0
 41
1.0
 10
43.07649577410277
 20
27.29318279240626
 30
0.0
 41
1.0
 10
43.07649577410278
 20
27.41154128153459
 30
0.0
 41
1.0
 10
43.07649577410277
 20
27.51953326341283
 30
0.0
 41
1.0
 10
43.07649577410277
 20
27.58208533108003
 30
0.0
 41
1.0
 10
43.07649577410277
 20
27.61610207630586
 30
0.0
 41
1.0
  0
LINE
  5
2D9
330
1F
100
AcDbEntity
  8
0
  6
SLD-Solid
 62
     7
370
    25
100
AcDbLine
 10
43.07649577410277
 20
26.74037619386664
 30
0.0
 11
43.32191838123393
 21
26.74037619386664
 31
0.0
  0
SPLINE
  5
2DA
330
1F
100
AcDbEntity
  8
0
  6
SLD-Solid
 62
     7
370
    25
100
AcDbSpline
210
0.0
220
0.0
230
1.0
 70
    28
 71
     3
 72
    11
 73
     7
 74
     0
 42
0.00000001
 43
0.00000001
 40
0.0
 40
0.0
 40
0.0
 40
0.0
 40
0.2779255621981483
 40
0.5865010749870383
 40
0.8150864002480445
 40
1.0
 40
1.0
 40
1.0
 40
1.0
 10
43.07649577410277
 20
26.74037619386664
 30
0.0
 41
1.0
 10
43.07649577410277
 20
26.7472872281074
 30
0.0
 41
1.0
 10
43.07649577410277
 20
26.76187145339209
 30
0.0
 41
1.0
 10
43.07649577410277
 20
26.79050154326685
 30
0.0
 41
1.0
 10
43.07649577410277
 20
26.81691229361525
 30
0.0
 41
1.0
 10
43.07649577410277
 20
26.83314472294419
 30
0.0
 41
1.0
 10
43.07649577410277
 20
26.84040374287959
 30
0.0
 41
1.0
  0
SPLINE
  5
2DB
330
1F
100
AcDbEntity
  8
0
  6
SLD-Solid
 62
     7
370
    25
100
AcDbSpline
210
0.0
220
0.0
230
1.0
 70
    28
 71
     3
 72
    13
 73
     9
 74
     0
 42
0.00000001
 43
0.00000001
 40
0.0
 40
0.0
 40
0.0
 40
0.0
 40
0.0650681590851488
 40
0.2829566000946881
 40
0.511378130091774
 40
0.6880213136827049
 40
0.853428012746821
 40
1.0
 40
1.0
 40
1.0
 40
1.0
 10
43.07649577410277
 20
26.47821144999489
 30
0.0
 41
1.0
 10
43.07649577410277
 20
26.4770901645067
 30
0.0
 41
1.0
 10
43.07649577410277
 20
26.47221412169354
 30
0.0
 41
1.0
 10
43.07649577410277
 20
26.50098470548177
 30
0.0
 41
1.0
 10
43.07649577410277
 20
26.54666359568475
 30
0.0
 41
1.0
 10
43.07649577410277
 20
26.60632391359016
 30
0.0
 41
1.0
 10
43.07649577410278
 20
26.66679566988592
 30
0.0
 41
1.0
 10
43.07649577410277
 20
26.71685677879522
 30
0.0
 41
1.0
 10
43.07649577410277
 20
26.74037619386664
 30
0.0
 41
1.0
  0
SPLINE
  5
2DC
330
1F
100
AcDbEntity
  8
0
  6
SLD-Solid
 62
     7
370
    25
100
AcDbSpline
210
0.0
220
0.0
230
1.0
 70
    28
 71
     3
 72
    13
 73
     9
 74
     0
 42
0.00000001
 43
0.00000001
 40
0.0
 40
0.0
 40
0.0
 40
0.0
 40
0.06797571333187
 40
0.2956004442699395
 40
0.5342289326153699
 40
0.7187653722292973
 40
0.8915632278446638
 40
0.9999999999999999
 40
0.9999999999999999
 40
0.9999999999999999
 40
0.9999999999999999
 10
43.87649577410278
 20
26.47821144999489
 30
0.0
 41
1.0
 10
43.87649577410278
 20
26.4770899744272
 30
0.0
 41
1.0
 10
43.87649577410278
 20
26.47221310503078
 30
0.0
 41
1.0
 10
43.87649577410278
 20
26.50100168360027
 30
0.0
 41
1.0
 10
43.87649577410278
 20
26.54660523637583
 30
0.0
 41
1.0
 10
43.87649577410278
 20
26.60648275681549
 30
0.0
 41
1.0
 10
43.87649577410278
 20
26.66103338565114
 30
0.0
 41
1.0
 10
43.87649577410278
 20
26.70396843962915
 30
0.0
 41
1.0
 10
43.87649577410278
 20
26.72052308193119
 30
0.0
 41
1.0
  0
LINE
  5
2DD
330
1F
100
AcDbEntity
  8
0
  6
SLD-Solid
 62
     7
370
    25
100
AcDbLine
 10
43.07649577410277
 20
27.75675205407794
 30
0.0
 11
43.24649577410278
 21
27.75675205407794
 31
0.0
  0
LINE
  5
2DE
330
1F
100
AcDbEntity
  8
0
  6
SLD-Solid
 62
     7
370
    25
100
AcDbLine
 10
43.07649577410277
 20
27.61610207630586
 30
0.0
 11
43.07649577410277
 21
27.75675205407794
 31
0.0
  0
ARC
  5
2DF
330
1F
100
AcDbEntity
  8
0
  6
SLD-Solid
 62
     7
370
    25
100
AcDbCircle
 10
43.39649577410277
 20
27.80893721578946
 30
0.0
 40
0.1499999999999986
100
AcDbArc
 50
90.0
 51
179.9999999999993
  0
LINE
  5
2E0
330
1F
100
AcDbEntity
  8
0
  6
SLD-Solid
 62
     7
370
    25
100
AcDbLine
 10
43.90649577410277
 20
27.95893721578946
 30
0.0
 11
43.39649577410277
 21
27.95893721578946
 31
0.0
  0
LINE
  5
2E1
330
1F
100
AcDbEntity
  8
0
  6
SLD-Solid
 62
     7
370
    25
100
AcDbLine
 10
43.39649577410277
 20
26.72052308193119
 30
0.0
 11
43.90649577410277
 21
26.72052308193119
 31
0.0
  0
ARC
  5
2E2
330
1F
100
AcDbEntity
  8
0
  6
SLD-Solid
 62
     7
370
    25
100
AcDbCircle
 10
43.39649577410277
 20
26.87052308193119
 30
0.0
 40
0.1499999999999986
100
AcDbArc
 50
179.9999999999993
 51
270.0000000000008
  0
LINE
  5
2E3
330
1F
100
AcDbEntity
  8
0
  6
SLD-Solid
 62
     7
370
    25
100
AcDbLine
 10
43.24649577410278
 20
27.80893721578946
 30
0.0
 11
43.24649577410278
 21
26.87052308193119
 31
0.0
  0
LINE
  5
2E4
330
1F
100
AcDbEntity
  8
0
  6
SLD-Solid
 62
     7
370
    25
100
AcDbLine
 10
44.04649577410278
 20
26.72052308193119
 30
0.0
 11
43.90649577410277
 21
26.72052308193119
 31
0.0
  0
LINE
  5
2E5
330
1F
100
AcDbEntity
  8
0
  6
SLD-Solid
 62
     7
370
    25
100
AcDbLine
 10
43.90649577410277
 20
27.95893721578946
 30
0.0
 11
44.04649577410278
 21
27.95893721578946
 31
0.0
  0
ARC
  5
2E6
330
1F
100
AcDbEntity
  8
0
  6
SLD-Solid
 62
     7
370
    25
100
AcDbCircle
 10
43.29649577410278
 20
27.80893721578946
 30
0.0
 40
0.1500000000000057
100
AcDbArc
 50
90.0
 51
180.0
  0
LINE
  5
2E7
330
1F
100
AcDbEntity
  8
0
  6
SLD-Solid
 62
     7
370
    25
100
AcDbLine
 10
43.29649577410278
 20
27.95893721578946
 30
0.0
 11
43.39649577410277
 21
27.95893721578946
 31
0.0
  0
LINE
  5
2E8
330
1F
100
AcDbEntity
  8
0
  6
SLD-Solid
 62
     7
370
    25
100
AcDbLine
 10
43.14649577410277
 20
27.80893721578946
 30
0.0
 11
43.14649577410277
 21
27.75675205407794
 31
0.0
  0
LINE
  5
2E9
330
1F
100
AcDbEntity
  8
0
  6
SLD-Solid
 62
     7
370
    25
100
AcDbLine
 10
44.08149577410283
 20
26.62893337714184
 30
0.0
 11
44.12173360942202
 21
26.62893337714184
 31
0.0
  0
LINE
  5
2EA
330
1F
100
AcDbEntity
  8
0
  6
SLD-Solid
 62
     7
370
    25
100
AcDbLine
 10
44.08149577410283
 20
26.62893337714184
 30
0.0
 11
44.08149577410283
 21
26.63352089689158
 31
0.0
  0
LINE
  5
2EB
330
1F
100
AcDbEntity
  8
0
  6
SLD-Solid
 62
     7
370
    25
100
AcDbLine
 10
44.12173360942202
 20
28.12893337714183
 30
0.0
 11
44.08149577410282
 21
28.12893337714183
 31
0.0
  0
LINE
  5
2EC
330
1F
100
AcDbEntity
  8
0
  6
SLD-Solid
 62
     7
370
    25
100
AcDbLine
 10
44.1314957741026
 20
26.34725222641031
 30
0.0
 11
44.1314957741026
 21
26.55110802207213
 31
0.0
  0
LINE
  5
2ED
330
1F
100
AcDbEntity
  8
0
  6
SLD-Solid
 62
     7
370
    25
100
AcDbLine
 10
44.0814957741026
 20
26.34725222641032
 30
0.0
 11
44.08149577410259
 21
26.57425916732829
 31
0.0
  0
ARC
  5
2EE
330
1F
100
AcDbEntity
  8
0
  6
SLD-Solid
 62
     7
370
    25
100
AcDbCircle
 10
43.58149577410259
 20
26.34725222641032
 30
0.0
 40
0.5500000000000114
100
AcDbArc
 50
220.0000000000026
 51
359.9999999999996
  0
ARC
  5
2EF
330
1F
100
AcDbEntity
  8
0
  6
SLD-Solid
 62
     7
370
    25
100
AcDbCircle
 10
43.58149577410259
 20
26.34725222641032
 30
0.0
 40
0.5000000000000148
100
AcDbArc
 50
220.0000000000034
 51
0.0000000000002036
  0
LINE
  5
2F0
330
1F
100
AcDbEntity
  8
0
  6
SLD-Solid
 62
     7
370
    25
100
AcDbLine
 10
43.04204132498355
 20
26.21228709075865
 30
0.0
 11
43.19847355254311
 21
26.02585842156703
 31
0.0
  0
LINE
  5
2F1
330
1F
100
AcDbEntity
  8
0
  6
SLD-Solid
 62
     7
370
    25
100
AcDbLine
 10
43.00373910282761
 20
26.18014771027431
 30
0.0
 11
43.16017133038716
 21
25.99371904108271
 31
0.0
  0
LINE
  5
2F2
330
1F
100
AcDbEntity
  8
0
  6
SLD-Solid
 62
     7
370
    25
100
AcDbLine
 10
42.84304220040597
 20
26.37165882105406
 30
0.0
 11
42.88134442256194
 21
26.4037982015384
 31
0.0
  0
LINE
  5
2F3
330
1F
100
AcDbEntity
  8
0
  6
SLD-Solid
 62
     7
370
    25
100
AcDbLine
 10
42.88134442256194
 20
26.4037982015384
 30
0.0
 11
43.04204132498355
 21
26.21228709075865
 31
0.0
  0
LINE
  5
2F4
330
1F
100
AcDbEntity
  8
0
  6
SLD-Solid
 62
     7
370
    25
100
AcDbLine
 10
42.84304220040597
 20
26.37165882105406
 30
0.0
 11
43.00373910282761
 21
26.18014771027431
 31
0.0
  0
LINE
  5
2F5
330
1F
100
AcDbEntity
  8
0
  6
SLD-Solid
 62
     7
370
    25
100
AcDbLine
 10
46.36995229331071
 20
23.128433377142
 30
0.0
 11
46.36995229331071
 21
26.55110802207215
 31
0.0
  0
LINE
  5
2F6
330
1F
100
AcDbEntity
  8
0
  6
SLD-Solid
 62
     7
370
    25
100
AcDbLine
 10
46.05745229331071
 20
26.55110802207215
 30
0.0
 11
46.05745229331071
 21
23.128433377142
 31
0.0
  0
LINE
  5
2F7
330
1F
100
AcDbEntity
  8
0
  6
SLD-Solid
 62
     7
370
    25
100
AcDbLine
 10
46.05745229331071
 20
23.128433377142
 30
0.0
 11
46.05745229331071
 21
22.941933377142
 31
0.0
  0
ARC
  5
2F8
330
1F
100
AcDbEntity
  8
0
  6
SLD-Solid
 62
     7
370
    25
100
AcDbCircle
 10
46.2124522933107
 20
22.941933377142
 30
0.0
 40
0.1550000000000011
100
AcDbArc
 50
180.0
 51
270.0000000000008
  0
LINE
  5
2F9
330
1F
100
AcDbEntity
  8
0
  6
SLD-Solid
 62
     7
370
    25
100
AcDbLine
 10
46.36995229331071
 20
22.941933377142
 30
0.0
 11
46.36995229331071
 21
23.128433377142
 31
0.0
  0
ARC
  5
2FA
330
1F
100
AcDbEntity
  8
0
  6
SLD-Solid
 62
     7
370
    25
100
AcDbCircle
 10
46.2149522933107
 20
22.941933377142
 30
0.0
 40
0.1550000000000082
100
AcDbArc
 50
270.0000000000008
 51
0.0
  0
LINE
  5
2FB
330
1F
100
AcDbEntity
  8
0
  6
SLD-Solid
 62
     7
370
    25
100
AcDbLine
 10
46.2124522933107
 20
22.786933377142
 30
0.0
 11
46.2149522933107
 21
22.786933377142
 31
0.0
  0
LINE
  5
2FC
330
1F
100
AcDbEntity
  8
0
  6
SLD-Solid
 62
     7
370
    25
100
AcDbLine
 10
44.12173360942202
 20
28.20675873221123
 30
0.0
 11
44.12173360942198
 21
28.13175873221122
 31
0.0
  0
LINE
  5
2FD
330
1F
100
AcDbEntity
  8
0
  6
SLD-Solid
 62
     7
370
    25
100
AcDbLine
 10
44.12173360942202
 20
28.20675873221123
 30
0.0
 11
52.11673360942208
 21
28.20675873221128
 31
0.0
  0
LINE
  5
2FE
330
1F
100
AcDbEntity
  8
0
  6
SLD-Solid
 62
     7
370
    25
100
AcDbLine
 10
52.11673360942205
 20
28.13175873221129
 30
0.0
 11
52.11673360942208
 21
28.20675873221128
 31
0.0
  0
LINE
  5
2FF
330
1F
100
AcDbEntity
  8
0
  6
SLD-Solid
 62
     7
370
    25
100
AcDbLine
 10
44.12173360942199
 20
26.61760408506426
 30
0.0
 11
44.12173360942198
 21
28.13175873221122
 31
0.0
  0
LINE
  5
300
330
1F
100
AcDbEntity
  8
0
  6
SLD-Solid
 62
     7
370
    25
100
AcDbLine
 10
52.11673360942205
 20
28.13175873221129
 30
0.0
 11
52.11673360942206
 21
26.61760408506431
 31
0.0
  0
LINE
  5
301
330
1F
100
AcDbEntity
  8
0
  6
SLD-Solid
 62
     7
370
    25
100
AcDbLine
 10
44.12173360942199
 20
26.61760408506426
 30
0.0
 11
44.12173360942199
 21
26.55110802207213
 31
0.0
  0
LINE
  5
302
330
1F
100
AcDbEntity
  8
0
  6
SLD-Solid
 62
     7
370
    25
100
AcDbLine
 10
44.12173360942199
 20
26.55110802207213
 30
0.0
 11
52.11673360942207
 21
26.55110802207219
 31
0.0
  0
LINE
  5
303
330
1F
100
AcDbEntity
  8
0
  6
SLD-Solid
 62
     7
370
    25
100
AcDbLine
 10
52.11673360942207
 20
26.55110802207219
 30
0.0
 11
52.11673360942206
 21
26.61760408506431
 31
0.0
  0
LINE
  5
304
330
1F
100
AcDbEntity
  8
0
  6
SLD-Solid
 62
     7
370
    25
100
AcDbLine
 10
52.18414648424154
 20
27.60934585739192
 30
0.0
 11
52.14914648424154
 21
27.60934585739192
 31
0.0
  0
LINE
  5
305
330
1F
100
AcDbEntity
  8
0
  6
SLD-Solid
 62
     7
370
    25
100
AcDbLine
 10
52.18414648424154
 20
27.60934585739192
 30
0.0
 11
52.18414648424151
 21
28.14026266921916
 31
0.0
  0
LINE
  5
306
330
1F
100
AcDbEntity
  8
0
  6
SLD-Solid
 62
     7
370
    25
100
AcDbLine
 10
52.14914648424154
 20
27.60934585739192
 30
0.0
 11
52.14914648424151
 21
28.14026266921916
 31
0.0
  0
LINE
  5
307
330
1F
100
AcDbEntity
  8
0
  6
SLD-Solid
 62
     7
370
    25
100
AcDbLine
 10
52.11765042124942
 20
28.20675873221128
 30
0.0
 11
52.11765042124938
 21
28.17175873221129
 31
0.0
  0
ARC
  5
308
330
1F
100
AcDbEntity
  8
0
  6
SLD-Solid
 62
     7
370
    25
100
AcDbCircle
 10
52.11765042124938
 20
28.14026266921916
 30
0.0
 40
0.0664960629921296
100
AcDbArc
 50
0.0
 51
89.99999999996939
  0
ARC
  5
309
330
1F
100
AcDbEntity
  8
0
  6
SLD-Solid
 62
     7
370
    25
100
AcDbCircle
 10
52.11765042124938
 20
28.14026266921916
 30
0.0
 40
0.0314960629921259
100
AcDbArc
 50
0.0
 51
90.0
  0
LINE
  5
30A
330
1F
100
AcDbEntity
  8
0
  6
SLD-Solid
 62
     7
370
    25
100
AcDbLine
 10
52.11765042124938
 20
28.17175873221129
 30
0.0
 11
52.11673360942205
 21
28.17175873221129
 31
0.0
  0
LINE
  5
30B
330
1F
100
AcDbEntity
  8
0
  6
SLD-Solid
 62
     7
370
    25
100
AcDbLine
 10
52.11765042124942
 20
28.20675873221128
 30
0.0
 11
52.11673360942208
 21
28.20675873221128
 31
0.0
  0
LINE
  5
30C
330
1F
100
AcDbEntity
  8
0
  6
SLD-Solid
 62
     7
370
    25
100
AcDbLine
 10
44.08149577410234
 20
28.13175873221123
 30
0.0
 11
44.08149577410236
 21
26.63352089689158
 31
0.0
  0
LINE
  5
30D
330
1F
100
AcDbEntity
  8
0
  6
SLD-Solid
 62
     7
370
    25
100
AcDbLine
 10
44.04649577410234
 20
28.13175873221123
 30
0.0
 11
44.04649577410236
 21
26.63352089689158
 31
0.0
  0
LINE
  5
30E
330
1F
100
AcDbEntity
  8
0
  6
SLD-Solid
 62
     7
370
    25
100
AcDbLine
 10
44.12149577410234
 20
28.20675873221123
 30
0.0
 11
44.12149577410234
 21
28.17175873221123
 31
0.0
  0
ARC
  5
30F
330
1F
100
AcDbEntity
  8
0
  6
SLD-Solid
 62
     7
370
    25
100
AcDbCircle
 10
44.12149577410234
 20
28.13175873221123
 30
0.0
 40
0.0400000000000063
100
AcDbArc
 50
90.0
 51
179.9999999999949
  0
ARC
  5
310
330
1F
100
AcDbEntity
  8
0
  6
SLD-Solid
 62
     7
370
    25
100
AcDbCircle
 10
44.12149577410234
 20
28.13175873221123
 30
0.0
 40
0.0750000000000028
100
AcDbArc
 50
90.0
 51
179.9999999999973
  0
LINE
  5
311
330
1F
100
AcDbEntity
  8
0
  6
SLD-Solid
 62
     7
370
    25
100
AcDbLine
 10
44.12173360942202
 20
28.17175873221123
 30
0.0
 11
44.12149577410234
 21
28.17175873221123
 31
0.0
  0
LINE
  5
312
330
1F
100
AcDbEntity
  8
0
  6
SLD-Solid
 62
     7
370
    25
100
AcDbLine
 10
44.12173360942202
 20
28.20675873221123
 30
0.0
 11
44.12149577410234
 21
28.20675873221123
 31
0.0
  0
LINE
  5
313
330
1F
100
AcDbEntity
  8
0
  6
SLD-Solid
 62
     7
370
    25
100
AcDbLine
 10
44.11299183709446
 20
26.56632695333422
 30
0.0
 11
44.12173360942202
 21
26.56632695333422
 31
0.0
  0
LINE
  5
314
330
1F
100
AcDbEntity
  8
0
  6
SLD-Solid
 62
     7
370
    25
100
AcDbLine
 10
44.1129918370945
 20
26.60132695333422
 30
0.0
 11
44.12173360942202
 21
26.60132695333422
 31
0.0
  0
ARC
  5
315
330
1F
100
AcDbEntity
  8
0
  6
SLD-Solid
 62
     7
370
    25
100
AcDbCircle
 10
44.1129918370945
 20
26.63282301632635
 30
0.0
 40
0.0664960629921296
100
AcDbArc
 50
179.999999999997
 51
269.9999999999702
  0
ARC
  5
316
330
1F
100
AcDbEntity
  8
0
  6
SLD-Solid
 62
     7
370
    25
100
AcDbCircle
 10
44.1129918370945
 20
26.63282301632635
 30
0.0
 40
0.0314960629921272
100
AcDbArc
 50
187.0939125159016
 51
270.0000000000008
  0
LINE
  5
317
330
1F
100
AcDbEntity
  8
0
  6
SLD-Solid
 62
     7
370
    25
100
AcDbLine
 10
44.04649577410237
 20
26.63352089689158
 30
0.0
 11
44.04649577410237
 21
26.63282301632635
 31
0.0
  0
DIMENSION
  5
318
330
1F
100
AcDbEntity
  8
DIMS
100
AcDbDimension
  2
_D_1
 10
52.18414648424136
 20
29.53865892776645
 30
0.0
 11
47.25861700593988
 21
29.53865892776613
 31
0.0
 70
    32
  1
<>
 71
     2
 42
-1.0
  3
SLDDIMSTYLE0
100
AcDbAlignedDimension
 13
42.84304220040595
 23
26.37165882105406
 33
0.0
 14
52.18414648424145
 24
28.14026266921916
 34
0.0
 50
0.0000000000037917
100
AcDbRotatedDimension
  0
MTEXT
  5
327
330
1F
100
AcDbEntity
  8
NOTES
100
AcDbMText
 10
49.22059162054437
 20
22.030229905606
 30
0.0
 40
0.5
 41
0.0
 71
     1
 72
     1
  1
Side view
  7
SLDTEXTSTYLE0
 73
     1
 44
1.0
  0
LINE
  5
328
330
1F
100
AcDbEntity
  8
0
  6
SLD-Solid
 62
     7
370
    25
100
AcDbLine
 10
38.2759551762128
 20
43.6831595326879
 30
0.0
 11
38.25474197277502
 21
43.6709134110093
 31
0.0
  0
LINE
  5
329
330
1F
100
AcDbEntity
  8
0
  6
SLD-Solid
 62
     7
370
    25
100
AcDbLine
 10
49.54511594798284
 20
37.17761149362846
 30
0.0
 11
49.52390274454506
 21
37.16536537194986
 31
0.0
  0
LINE
  5
32A
330
1F
100
AcDbEntity
  8
0
  6
SLD-Solid
 62
     7
370
    25
100
AcDbLine
 10
38.98306195739966
 20
43.27495547677665
 30
0.0
 11
38.96184875396188
 21
43.26270935509806
 31
0.0
  0
LINE
  5
32B
330
1F
100
AcDbEntity
  8
0
  6
SLD-Solid
 62
     7
370
    25
100
AcDbLine
 10
48.83800916679599
 20
37.5858155495397
 30
0.0
 11
48.81679596335821
 21
37.5735694278611
 31
0.0
  0
LINE
  5
32C
330
1F
100
AcDbEntity
  8
0
  6
SLD-Solid
 62
     7
370
    25
100
AcDbLine
 10
59.40006315737917
 20
31.4884715663915
 30
0.0
 11
59.3788499539414
 21
31.4762254447129
 31
0.0
  0
LINE
  5
32D
330
1F
100
AcDbEntity
  8
0
  6
SLD-Solid
 62
     7
370
    25
100
AcDbLine
 10
60.10716993856603
 20
31.08026751048026
 30
0.0
 11
60.08595673512826
 21
31.06802138880166
 31
0.0
  0
LINE
  5
32E
330
1F
100
AcDbEntity
  8
0
  6
SLD-Solid
 62
     7
370
    25
100
AcDbLine
 10
38.76219598086676
 20
41.79746672375317
 30
0.0
 11
38.92668774359315
 21
41.89242579711441
 31
0.0
  0
LINE
  5
32F
330
1F
100
AcDbEntity
  8
0
  6
SLD-Solid
 62
     7
370
    25
100
AcDbLine
 10
49.32424997144994
 20
35.70012274060498
 30
0.0
 11
49.48874173417634
 21
35.79508181396621
 31
0.0
  0
LINE
  5
330
330
1F
100
AcDbEntity
  8
0
  6
SLD-Solid
 62
     7
370
    25
100
AcDbLine
 10
59.88630396203313
 20
29.60277875745678
 30
0.0
 11
60.05079572475953
 21
29.69773783081802
 31
0.0
  0
LINE
  5
331
330
1F
100
AcDbEntity
  8
0
  6
SLD-Solid
 62
     7
370
    25
100
AcDbLine
 10
48.84399359117997
 20
36.36188063372357
 30
0.0
 11
48.83093259672126
 21
36.35434068211493
 31
0.0
  0
LINE
  5
332
330
1F
100
AcDbEntity
  8
0
  6
SLD-Solid
 62
     7
370
    25
100
AcDbLine
 10
48.98714405710219
 20
36.08374517642406
 30
0.0
 11
49.00020505156089
 21
36.09128512803269
 31
0.0
  0
LINE
  5
333
330
1F
100
AcDbEntity
  8
0
  6
SLD-Solid
 62
     7
370
    25
100
AcDbLine
 10
38.28193960059679
 20
42.45922461687177
 30
0.0
 11
38.26887860613808
 21
42.45168466526314
 31
0.0
  0
LINE
  5
334
330
1F
100
AcDbEntity
  8
0
  6
SLD-Solid
 62
     7
370
    25
100
AcDbLine
 10
38.42509006651899
 20
42.18108915957225
 30
0.0
 11
38.4381510609777
 21
42.18862911118089
 31
0.0
  0
LINE
  5
335
330
1F
100
AcDbEntity
  8
0
  6
SLD-Solid
 62
     7
370
    25
100
AcDbLine
 10
59.40604758176316
 20
30.26453665057537
 30
0.0
 11
59.39298658730446
 21
30.25699669896674
 31
0.0
  0
LINE
  5
336
330
1F
100
AcDbEntity
  8
0
  6
SLD-Solid
 62
     7
370
    25
100
AcDbLine
 10
59.54919804768537
 20
29.98640119327586
 30
0.0
 11
59.56225904214407
 21
29.9939411448845
 31
0.0
  0
LINE
  5
337
330
1F
100
AcDbEntity
  8
0
  6
SLD-Solid
 62
     7
370
    25
100
AcDbLine
 10
39.46879907597155
 20
42.12217869301749
 30
0.0
 11
39.46879907597155
 21
43.1333943753289
 31
0.0
  0
LINE
  5
338
330
1F
100
AcDbEntity
  8
0
  6
SLD-Solid
 62
     7
370
    25
100
AcDbLine
 10
38.94267818730176
 20
41.87799413301467
 30
0.0
 11
38.99217566198482
 21
41.84941984910088
 31
0.0
  0
LINE
  5
339
330
1F
100
AcDbEntity
  8
0
  6
SLD-Solid
 62
     7
370
    25
100
AcDbLine
 10
37.00447970884592
 20
42.91525148702785
 30
0.0
 11
37.05397718352897
 21
42.88667720311406
 31
0.0
  0
LINE
  5
33A
330
1F
100
AcDbEntity
  8
0
  6
SLD-Solid
 62
     7
370
    25
100
AcDbLine
 10
60.59290705713792
 20
29.9274907267211
 30
0.0
 11
60.59290705713792
 21
30.93870640903252
 31
0.0
  0
LINE
  5
33B
330
1F
100
AcDbEntity
  8
0
  6
SLD-Solid
 62
     7
370
    25
100
AcDbLine
 10
60.06678616846813
 20
29.68330616671827
 30
0.0
 11
60.1162836431512
 21
29.65473188280448
 31
0.0
  0
LINE
  5
33C
330
1F
100
AcDbEntity
  8
0
  6
SLD-Solid
 62
     7
370
    25
100
AcDbLine
 10
58.1285876900123
 20
30.72056352073146
 30
0.0
 11
58.17808516469535
 21
30.69198923681766
 31
0.0
  0
LINE
  5
33D
330
1F
100
AcDbEntity
  8
0
  6
SLD-Solid
 62
     7
370
    25
100
AcDbLine
 10
50.03085306655473
 20
36.0248347098693
 30
0.0
 11
50.03085306655473
 21
37.03605039218071
 31
0.0
  0
LINE
  5
33E
330
1F
100
AcDbEntity
  8
0
  6
SLD-Solid
 62
     7
370
    25
100
AcDbLine
 10
49.50473217788495
 20
35.78065014986647
 30
0.0
 11
49.554229652568
 21
35.75207586595268
 31
0.0
  0
LINE
  5
33F
330
1F
100
AcDbEntity
  8
0
  6
SLD-Solid
 62
     7
370
    25
100
AcDbLine
 10
47.5665336994291
 20
36.81790750387965
 30
0.0
 11
47.61603117411217
 21
36.78933321996586
 31
0.0
  0
LINE
  5
340
330
1F
100
AcDbEntity
  8
0
  6
SLD-Solid
 62
     7
370
    25
100
AcDbLine
 10
53.84606023421913
 20
32.53635059585674
 30
0.0
 11
54.51776076808774
 21
32.14858613145307
 31
0.0
  0
LINE
  5
341
330
1F
100
AcDbEntity
  8
0
  6
SLD-Solid
 62
     7
370
    25
100
AcDbLine
 10
53.70638740901106
 20
32.71600743166417
 30
0.0
 11
53.67930364799007
 21
32.67412919339551
 31
0.0
  0
LINE
  5
342
330
1F
100
AcDbEntity
  8
0
  6
SLD-Solid
 62
     7
370
    25
100
AcDbLine
 10
42.95531543543703
 20
38.82344374365336
 30
0.0
 11
43.62701596930562
 21
38.43567927924968
 31
0.0
  0
LINE
  5
343
330
1F
100
AcDbEntity
  8
0
  6
SLD-Solid
 62
     7
370
    25
100
AcDbLine
 10
42.81564261022896
 20
39.00310057946079
 30
0.0
 11
42.78855884920797
 21
38.96122234119211
 31
0.0
  0
LINE
  5
344
330
1F
100
AcDbEntity
  8
0
  6
SLD-Solid
 62
     7
370
    25
100
AcDbLine
 10
62.67467394794241
 20
27.68592638107078
 30
0.0
 11
62.67467394794242
 21
29.36687231169412
 31
0.0
  0
LINE
  5
345
330
1F
100
AcDbEntity
  8
0
  6
SLD-Solid
 62
     7
370
    25
100
AcDbLine
 10
62.36113841403648
 20
29.18587210066805
 30
0.0
 11
62.36113841403647
 21
27.68592638107078
 31
0.0
  0
SPLINE
  5
346
330
1F
100
AcDbEntity
  8
0
  6
SLD-Solid
 62
     7
370
    25
100
AcDbSpline
210
0.0
220
0.0
230
1.0
 70
    12
 71
     3
 72
    13
 73
     9
 74
     0
 42
0.00000001
 43
0.00000001
 40
0.0
 40
0.0
 40
0.0
 40
0.0
 40
0.1497001611499962
 40
0.358674167531104
 40
0.5570369222389251
 40
0.7491774592798475
 40
0.9385341708313544
 40
0.9999999999999999
 40
0.9999999999999999
 40
0.9999999999999999
 40
0.9999999999999999
 10
62.30853706451885
 20
27.47451349227277
 30
0.0
 41
1.0
 10
62.32010803212231
 20
27.46836623552877
 30
0.0
 41
1.0
 10
62.34783149708598
 20
27.45363771300536
 30
0.0
 41
1.0
 10
62.39408869756598
 20
27.43945027079487
 30
0.0
 41
1.0
 10
62.44590508381101
 20
27.43381121313551
 30
0.0
 41
1.0
 10
62.49580445644121
 20
27.4400578428445
 30
0.0
 41
1.0
 10
62.53346859408231
 20
27.45111674777234
 30
0.0
 41
1.0
 10
62.55153590630984
 20
27.46337855023962
 30
0.0
 41
1.0
 10
62.55596342834882
 20
27.46638339124629
 30
0.0
 41
1.0
  0
LINE
  5
347
330
1F
100
AcDbEntity
  8
0
  6
SLD-Solid
 62
     7
370
    25
100
AcDbLine
 10
62.55676688989575
 20
27.46528024085546
 30
0.0
 11
62.55853465684872
 21
27.46630075099525
 31
0.0
  0
LINE
  5
348
330
1F
100
AcDbEntity
  8
0
  6
SLD-Solid
 62
     7
370
    25
100
AcDbLine
 10
62.36113841403647
 20
27.68592638107078
 30
0.0
 11
62.36115814182622
 21
27.68585986000775
 31
0.0
  0
SPLINE
  5
349
330
1F
100
AcDbEntity
  8
0
  6
SLD-Solid
 62
     7
370
    25
100
AcDbSpline
210
0.0
220
0.0
230
1.0
 70
    12
 71
     3
 72
    13
 73
     9
 74
     0
 42
0.00000001
 43
0.00000001
 40
0.0
 40
0.0
 40
0.0
 40
0.0
 40
0.1398883552830822
 40
0.3342222078799232
 40
0.5249758695423269
 40
0.7183405874918299
 40
0.9200747934854763
 40
0.9999999999999999
 40
0.9999999999999999
 40
0.9999999999999999
 40
0.9999999999999999
 10
62.5579592618102
 20
27.467550339361
 30
0.0
 41
1.0
 10
62.56849817040755
 20
27.47370037541175
 30
0.0
 41
1.0
 10
62.59367780235708
 20
27.48839408328516
 30
0.0
 41
1.0
 10
62.62475884777653
 20
27.5226279643258
 30
0.0
 41
1.0
 10
62.65090498471663
 20
27.5654380042795
 30
0.0
 41
1.0
 10
62.66763412908119
 20
27.61342796206549
 30
0.0
 41
1.0
 10
62.67405566054904
 20
27.65426166552965
 30
0.0
 41
1.0
 10
62.67453728076963
 20
27.67892716485498
 30
0.0
 41
1.0
 10
62.67467394794241
 20
27.68592638107078
 30
0.0
 41
1.0
  0
LINE
  5
34A
330
1F
100
AcDbEntity
  8
0
  6
SLD-Solid
 62
     7
370
    25
100
AcDbLine
 10
39.2801905216166
 20
40.76849498113788
 30
0.0
 11
62.30853706451885
 21
27.47451349227277
 31
0.0
  0
LINE
  5
34B
330
1F
100
AcDbEntity
  8
0
  6
SLD-Solid
 62
     7
370
    25
100
AcDbLine
 10
62.36113841403647
 20
27.80617722280683
 30
0.0
 11
54.79231030412264
 21
32.17556868554774
 31
0.0
  0
LINE
  5
34C
330
1F
100
AcDbEntity
  8
0
  6
SLD-Solid
 62
     7
370
    25
100
AcDbLine
 10
54.07873297476061
 20
32.58750810941127
 30
0.0
 11
43.90156550534041
 21
38.46266183334428
 31
0.0
  0
LINE
  5
34D
330
1F
100
AcDbEntity
  8
0
  6
SLD-Solid
 62
     7
370
    25
100
AcDbLine
 10
43.18798817597835
 20
38.87460125720782
 30
0.0
 11
39.43694569212815
 21
41.04003199064537
 31
0.0
  0
LINE
  5
34E
330
1F
100
AcDbEntity
  8
0
  6
SLD-Solid
 62
     7
370
    25
100
AcDbLine
 10
39.38434434261054
 20
41.13114747265104
 30
0.0
 11
39.38434434261053
 21
42.03994715725752
 31
0.0
  0
LINE
  5
34F
330
1F
100
AcDbEntity
  8
0
  6
SLD-Solid
 62
     7
370
    25
100
AcDbLine
 10
39.0708088087046
 20
41.85894694623145
 30
0.0
 11
39.07080880870461
 21
41.13114747265104
 31
0.0
  0
SPLINE
  5
350
330
1F
100
AcDbEntity
  8
0
  6
SLD-Solid
 62
     7
370
    25
100
AcDbSpline
210
0.0
220
0.0
230
1.0
 70
    12
 71
     3
 72
    15
 73
    11
 74
     0
 42
0.00000001
 43
0.00000001
 40
0.0
 40
0.0
 40
0.0
 40
0.0
 40
0.090357602586892
 40
0.2344959352853111
 40
0.379867988149599
 40
0.5256896568724679
 40
0.672705327598172
 40
0.8225183589220759
 40
0.9640717689903217
 40
1.0
 40
1.0
 40
1.0
 40
1.0
 10
39.07080880870461
 20
41.13114747265104
 30
0.0
 41
1.0
 10
39.07123916159313
 20
41.11847843906428
 30
0.0
 41
1.0
 10
39.07235601286199
 20
41.0855997792168
 30
0.0
 41
1.0
 10
39.08321817915934
 20
41.03175966921428
 30
0.0
 41
1.0
 10
39.10456955586493
 20
40.97110156242982
 30
0.0
 41
1.0
 10
39.13490780890316
 20
40.91281314226094
 30
0.0
 41
1.0
 10
39.17315548700778
 20
40.85882534218526
 30
0.0
 41
1.0
 10
39.21753352878033
 20
40.81236550831309
 30
0.0
 41
1.0
 10
39.25455765770769
 20
40.78378451421627
 30
0.0
 41
1.0
 10
39.27587514741694
 20
40.77106902268102
 30
0.0
 41
1.0
 10
39.2801905216166
 20
40.76849498113788
 30
0.0
 41
1.0
  0
SPLINE
  5
351
330
1F
100
AcDbEntity
  8
0
  6
SLD-Solid
 62
     7
370
    25
100
AcDbSpline
210
0.0
220
0.0
230
1.0
 70
    12
 71
     3
 72
    16
 73
    12
 74
     0
 42
0.00000001
 43
0.00000001
 40
0.0
 40
0.0
 40
0.0
 40
0.0
 40
0.0922548510169265
 40
0.2080340677317446
 40
0.3267023592597239
 40
0.4540783740590215
 40
0.589802914024084
 40
0.7283699102331394
 40
0.8465008936999214
 40
0.963198384583498
 40
1.0
 40
1.0
 40
1.0
 40
1.0
 10
39.43694569212815
 20
41.04003199064538
 30
0.0
 41
1.0
 10
39.43603423753371
 20
41.04058450496507
 30
0.0
 41
1.0
 10
39.43397891356162
 20
41.04183042103494
 30
0.0
 41
1.0
 10
39.42626132011279
 20
41.04809329088987
 30
0.0
 41
1.0
 10
39.41592201082356
 20
41.05916611293747
 30
0.0
 41
1.0
 10
39.40479902414994
 20
41.07445751072628
 30
0.0
 41
1.0
 10
39.39483439313654
 20
41.09256837689856
 30
0.0
 41
1.0
 10
39.3881026451557
 20
41.10996387167197
 30
0.0
 41
1.0
 10
39.38490163454163
 20
41.12333601783545
 30
0.0
 41
1.0
 10
39.38436287856178
 20
41.12940377637751
 30
0.0
 41
1.0
 10
39.3843479272157
 20
41.13081026510352
 30
0.0
 41
1.0
 10
39.38434434261054
 20
41.13114747265104
 30
0.0
 41
1.0
  0
LINE
  5
352
330
1F
100
AcDbEntity
  8
0
  6
SLD-Solid
 62
     7
370
    25
100
AcDbLine
 10
62.09550634902995
 20
29.03252597360389
 30
0.0
 11
67.74882506461677
 21
32.29611740061524
 31
0.0
  0
LINE
  5
353
330
1F
100
AcDbEntity
  8
0
  6
SLD-Solid
 62
     7
370
    25
100
AcDbLine
 10
55.15305215241834
 20
33.00722525724568
 30
0.0
 11
58.09751557778202
 21
31.3074227030978
 31
0.0
  0
LINE
  5
354
330
1F
100
AcDbEntity
  8
0
  6
SLD-Solid
 62
     7
370
    25
100
AcDbLine
 10
60.56783465369935
 20
29.88133785564011
 30
0.0
 11
61.69845490547905
 21
29.22864467725257
 31
0.0
  0
LINE
  5
355
330
1F
100
AcDbEntity
  8
0
  6
SLD-Solid
 62
     7
370
    25
100
AcDbLine
 10
67.74329198198396
 20
33.65855062978653
 30
0.0
 11
42.41812494777284
 21
48.27845836515156
 31
0.0
  0
LINE
  5
356
330
1F
100
AcDbEntity
  8
0
  6
SLD-Solid
 62
     7
370
    25
100
AcDbLine
 10
44.26219350858342
 20
39.2943841263927
 30
0.0
 11
47.53546158719882
 21
37.40476668624603
 31
0.0
  0
LINE
  5
357
330
1F
100
AcDbEntity
  8
0
  6
SLD-Solid
 62
     7
370
    25
100
AcDbLine
 10
50.00578066311621
 20
35.9786818387883
 30
0.0
 11
54.44594537123219
 21
33.41542931315686
 31
0.0
  0
LINE
  5
358
330
1F
100
AcDbEntity
  8
0
  6
SLD-Solid
 62
     7
370
    25
100
AcDbLine
 10
39.44372667253295
 20
42.07602582193654
 30
0.0
 11
43.55508672739703
 21
39.70258818230399
 31
0.0
  0
LINE
  5
359
330
1F
100
AcDbEntity
  8
0
  6
SLD-Solid
 62
     7
370
    25
100
AcDbLine
 10
42.34656620695624
 20
48.27860221752941
 30
0.0
 11
36.69324749136945
 21
45.01501079051807
 31
0.0
  0
LWPOLYLINE
  5
35A
330
1F
100
AcDbEntity
  8
0
  6
SLD-Solid
 62
     7
370
    25
100
AcDbPolyline
 90
       19
 70
   128
 43
0.0
 10
38.26470605576923
 20
43.4353311516751
 10
38.23979481296209
 20
43.48065708331058
 10
38.22303727543677
 20
43.52788958878624
 10
38.21567627309088
 20
43.57352564924531
 10
38.21825773779408
 20
43.6141806468546
 10
38.23059021411876
 20
43.64683938642567
 10
38.25175905871322
 20
43.66907971864833
 10
38.28019427521492
 20
43.67925217982438
 10
38.31378695369839
 20
43.67660232504431
 10
38.35004567887678
 20
43.66132668191486
 10
38.38628130697626
 20
43.63455817500555
 10
38.41980640722763
 20
43.59828210201605
 10
38.44813457631241
 20
43.555188893328
 10
38.46916484352231
 20
43.5084745750915
 10
38.48133749014544
 20
43.46160373458635
 10
38.48374972666792
 20
43.418052567633
 10
38.47622264854213
 20
43.38105106505103
 10
38.45931450471858
 20
43.35334345901634
 10
38.45379097738608
 20
43.3481576309585
  0
ARC
  5
35B
330
1F
100
AcDbEntity
  8
0
  6
SLD-Solid
 62
     7
370
    25
100
AcDbCircle
 10
38.42775395910918
 20
43.51638036400578
 30
0.0
 40
0.1820812829562001
100
AcDbArc
 50
206.4314353403086
 51
269.0134294404625
  0
LWPOLYLINE
  5
35C
330
1F
100
AcDbEntity
  8
0
  6
SLD-Solid
 62
     7
370
    25
100
AcDbPolyline
 90
       17
 70
   128
 43
0.0
 10
38.28481230721167
 20
43.45760350671973
 10
38.26767674555173
 20
43.49151114116973
 10
38.25980417752774
 20
43.52581564707968
 10
38.26239313025633
 20
43.55529447439591
 10
38.27504945915349
 20
43.57545973888574
 10
38.29584635287454
 20
43.5832414618292
 10
38.32161767287475
 20
43.57745494644962
 10
38.34843996930171
 20
43.55898113725866
 10
38.37222979066911
 20
43.53063250424015
 10
38.38936535232904
 20
43.49672486979014
 10
38.39723792035304
 20
43.4624203638802
 10
38.39464896762445
 20
43.43294153656397
 10
38.38199263872729
 20
43.41277627207413
 10
38.36119574500623
 20
43.40499454913068
 10
38.33542442500602
 20
43.41078106451025
 10
38.30860212857907
 20
43.42925487370122
 10
38.28481230721167
 20
43.45760350671973
  0
LWPOLYLINE
  5
35D
330
1F
100
AcDbEntity
  8
0
  6
SLD-Solid
 62
     7
370
    25
100
AcDbPolyline
 90
       13
 70
   128
 43
0.0
 10
38.2759551762128
 20
43.68315953268792
 10
38.30140747865269
 20
43.69149830150298
 10
38.33500015713616
 20
43.68884844672291
 10
38.37125888231456
 20
43.67357280359347
 10
38.40749451041403
 20
43.64680429668415
 10
38.44101961066541
 20
43.61052822369465
 10
38.46934777975019
 20
43.56743501500661
 10
38.49037804696008
 20
43.5207206967701
 10
38.50255069358322
 20
43.47384985626495
 10
38.5049629301057
 20
43.43029868931159
 10
38.49743585197992
 20
43.39329718672963
 10
38.48052770815635
 20
43.36558958069494
 10
38.46593973541364
 20
43.35406096498325
  0
LWPOLYLINE
  5
35E
330
1F
100
AcDbEntity
  8
0
  6
SLD-Solid
 62
     7
370
    25
100
AcDbPolyline
 90
       17
 70
   128
 43
0.0
 10
38.3016700394858
 20
43.47168653953829
 10
38.29114337800018
 20
43.49251656523088
 10
38.28630712808577
 20
43.5135903956843
 10
38.28789756495134
 20
43.53169973124675
 10
38.29567255900144
 20
43.5440875897404
 10
38.30844843787244
 20
43.54886803200581
 10
38.32428018981987
 20
43.54531327904288
 10
38.34075757412491
 20
43.5339645097663
 10
38.35537205839498
 20
43.51654947142159
 10
38.3658987198806
 20
43.49571944572899
 10
38.37073496979501
 20
43.47464561527558
 10
38.36914453292944
 20
43.45653627971313
 10
38.36136953887934
 20
43.44414842121947
 10
38.34859366000833
 20
43.43936797895406
 10
38.33276190806092
 20
43.44292273191699
 10
38.31628452375588
 20
43.45427150119357
 10
38.3016700394858
 20
43.47168653953829
  0
LWPOLYLINE
  5
35F
330
1F
100
AcDbEntity
  8
0
  6
SLD-Solid
 62
     7
370
    25
100
AcDbPolyline
 90
       16
 70
   128
 43
0.0
 10
49.51391659663773
 20
36.96460086128513
 10
49.50107382558836
 20
36.99427977873473
 10
49.48802451719919
 20
37.0412849669116
 10
49.48468127561748
 20
37.08528876347963
 10
49.49129205377707
 20
37.12302760815135
 10
49.50736656050411
 20
37.15170258346119
 10
49.53171262317068
 20
37.16918699766968
 10
49.56252460568459
 20
37.17418411176087
 10
49.59751732425826
 20
37.16632331264289
 10
49.63409552903607
 20
37.14618759982555
 10
49.66954638190385
 20
37.11527034701376
 10
49.70124065528123
 20
37.07586454541154
 10
49.72682772990346
 20
37.0308927430542
 10
49.74440992949889
 20
36.98369029279026
 10
49.75268326275676
 20
36.93775798441897
 10
49.75134725094009
 20
36.89836683123432
  0
LWPOLYLINE
  5
360
330
1F
100
AcDbEntity
  8
0
  6
SLD-Solid
 62
     7
370
    25
100
AcDbPolyline
 90
        3
 70
   128
 43
0.0
 10
49.6413769989672
 20
36.83488235607542
 10
49.62201265946743
 20
36.84391533790666
 10
49.61693137871654
 20
36.84682349416698
  0
LWPOLYLINE
  5
361
330
1F
100
AcDbEntity
  8
0
  6
SLD-Solid
 62
     7
370
    25
100
AcDbPolyline
 90
       17
 70
   128
 43
0.0
 10
49.56317689100293
 20
36.9394051097025
 10
49.54290924461485
 20
36.97161211781795
 10
49.53098022642268
 20
37.00640080465986
 10
49.52920592130936
 20
37.03847490801678
 10
49.53785645114429
 20
37.06295143640509
 10
49.55561485117733
 20
37.07610406025795
 10
49.57977756598376
 20
37.07593041182259
 10
49.60666604126985
 20
37.06245692749918
 10
49.63218675041794
 20
37.03773482313851
 10
49.65245439680602
 20
37.00552781502305
 10
49.66438341499819
 20
36.97073912818114
 10
49.66615772011151
 20
36.93866502482422
 10
49.65750719027658
 20
36.91418849643591
 10
49.63974879024354
 20
36.90103587258305
 10
49.61558607543711
 20
36.90120952101841
 10
49.58869760015101
 20
36.91468300534182
 10
49.56317689100293
 20
36.9394051097025
  0
LWPOLYLINE
  5
362
330
1F
100
AcDbEntity
  8
0
  6
SLD-Solid
 62
     7
370
    25
100
AcDbPolyline
 90
       11
 70
   128
 43
0.0
 10
49.54511594798284
 20
37.17761149362848
 10
49.55292582660845
 20
37.18143311934828
 10
49.58373780912238
 20
37.18643023343947
 10
49.61873052769603
 20
37.17856943432148
 10
49.65530873247386
 20
37.15843372150415
 10
49.69075958534163
 20
37.12751646869236
 10
49.72245385871901
 20
37.08811066709014
 10
49.74804093334124
 20
37.0431388647328
 10
49.76562313293667
 20
36.99593641446886
 10
49.77389646619454
 20
36.95000410609757
 10
49.77256045437786
 20
36.91061295291291
  0
LWPOLYLINE
  5
363
330
1F
100
AcDbEntity
  8
0
  6
SLD-Solid
 62
     7
370
    25
100
AcDbPolyline
 90
       17
 70
   128
 43
0.0
 10
49.57648486657351
 20
36.95836717447645
 10
49.56403411317122
 20
36.9781524770317
 10
49.55670591822454
 20
36.99952374791162
 10
49.55561593298386
 20
37.0192274048558
 10
49.56093009782133
 20
37.03426374470857
 10
49.57183937931347
 20
37.04234362103212
 10
49.58668293824599
 20
37.04223694590044
 10
49.60320097732858
 20
37.03395995963532
 10
49.61887877484736
 20
37.01877275836456
 10
49.63132952824964
 20
36.9989874558093
 10
49.63865772319632
 20
36.97761618492938
 10
49.63974770843701
 20
36.9579125279852
 10
49.63443354359953
 20
36.94287618813243
 10
49.6235242621074
 20
36.93479631180888
 10
49.60868070317488
 20
36.93490298694056
 10
49.59216266409229
 20
36.94317997320569
 10
49.57648486657351
 20
36.95836717447645
  0
LWPOLYLINE
  5
364
330
1F
100
AcDbEntity
  8
0
  6
SLD-Solid
 62
     7
370
    25
100
AcDbPolyline
 90
       16
 70
   128
 43
0.0
 10
38.95186260605454
 20
43.06194484443332
 10
38.93901983500518
 20
43.09162376188293
 10
38.925970526616
 20
43.1386289500598
 10
38.9226272850343
 20
43.18263274662783
 10
38.92923806319387
 20
43.22037159129955
 10
38.94531256992093
 20
43.24904656660938
 10
38.96965863258749
 20
43.26653098081788
 10
39.00047061510141
 20
43.27152809490907
 10
39.03546333367507
 20
43.26366729579108
 10
39.07204153845289
 20
43.24353158297374
 10
39.10749239132066
 20
43.21261433016195
 10
39.13918666469803
 20
43.17320852855974
 10
39.16477373932027
 20
43.1282367262024
 10
39.18235593891571
 20
43.08103427593846
 10
39.19062927217357
 20
43.03510196756717
 10
39.18929326035689
 20
42.99571081438251
  0
LWPOLYLINE
  5
365
330
1F
100
AcDbEntity
  8
0
  6
SLD-Solid
 62
     7
370
    25
100
AcDbPolyline
 90
        3
 70
   128
 43
0.0
 10
39.079323008384
 20
42.93222633922362
 10
39.05995866888424
 20
42.94125932105486
 10
39.05487738813336
 20
42.94416747731518
  0
LWPOLYLINE
  5
366
330
1F
100
AcDbEntity
  8
0
  6
SLD-Solid
 62
     7
370
    25
100
AcDbPolyline
 90
       17
 70
   128
 43
0.0
 10
39.00112290041974
 20
43.0367490928507
 10
38.98085525403165
 20
43.06895610096615
 10
38.96892623583949
 20
43.10374478780805
 10
38.96715193072617
 20
43.13581889116497
 10
38.9758024605611
 20
43.16029541955329
 10
38.99356086059414
 20
43.17344804340615
 10
39.01772357540057
 20
43.1732743949708
 10
39.04461205068667
 20
43.15980091064738
 10
39.07013275983476
 20
43.1350788062867
 10
39.09040040622284
 20
43.10287179817125
 10
39.102329424415
 20
43.06808311132934
 10
39.10410372952832
 20
43.03600900797242
 10
39.0954531996934
 20
43.01153247958411
 10
39.07769479966035
 20
42.99837985573125
 10
39.05353208485392
 20
42.9985535041666
 10
39.02664360956782
 20
43.01202698849002
 10
39.00112290041974
 20
43.0367490928507
  0
LWPOLYLINE
  5
367
330
1F
100
AcDbEntity
  8
0
  6
SLD-Solid
 62
     7
370
    25
100
AcDbPolyline
 90
       11
 70
   128
 43
0.0
 10
38.98306195739965
 20
43.27495547677668
 10
38.99087183602527
 20
43.27877710249648
 10
39.02168381853919
 20
43.28377421658767
 10
39.05667653711284
 20
43.27591341746969
 10
39.09325474189068
 20
43.25577770465235
 10
39.12870559475844
 20
43.22486045184055
 10
39.16039986813581
 20
43.18545465023833
 10
39.18598694275805
 20
43.140482847881
 10
39.20356914235349
 20
43.09328039761706
 10
39.21184247561135
 20
43.04734808924576
 10
39.21050646379467
 20
43.00795693606111
  0
LWPOLYLINE
  5
368
330
1F
100
AcDbEntity
  8
0
  6
SLD-Solid
 62
     7
370
    25
100
AcDbPolyline
 90
       17
 70
   128
 43
0.0
 10
39.01443087599032
 20
43.05571115762464
 10
39.00198012258803
 20
43.0754964601799
 10
38.99465192764136
 20
43.09686773105982
 10
38.99356194240068
 20
43.116571388004
 10
38.99887610723815
 20
43.13160772785677
 10
39.00978538873029
 20
43.13968760418032
 10
39.02462894766279
 20
43.13958092904864
 10
39.0411469867454
 20
43.13130394278352
 10
39.05682478426417
 20
43.11611674151276
 10
39.06927553766646
 20
43.0963314389575
 10
39.07660373261314
 20
43.07496016807758
 10
39.07769371785381
 20
43.0552565111334
 10
39.07237955301635
 20
43.04022017128063
 10
39.06147027152421
 20
43.03214029495708
 10
39.0466267125917
 20
43.03224697008877
 10
39.03010867350909
 20
43.04052395635389
 10
39.01443087599032
 20
43.05571115762464
  0
LWPOLYLINE
  5
369
330
1F
100
AcDbEntity
  8
0
  6
SLD-Solid
 62
     7
370
    25
100
AcDbPolyline
 90
       19
 70
   128
 43
0.0
 10
48.82676004635242
 20
37.33798716852691
 10
48.80184880354528
 20
37.38331310016238
 10
48.78509126601995
 20
37.43054560563805
 10
48.77773026367407
 20
37.4761816660971
 10
48.78031172837728
 20
37.51683666370639
 10
48.79264420470194
 20
37.54949540327747
 10
48.81381304929641
 20
37.57173573550013
 10
48.8422482657981
 20
37.58190819667619
 10
48.87584094428157
 20
37.57925834189611
 10
48.91209966945997
 20
37.56398269876667
 10
48.94833529755945
 20
37.53721419185735
 10
48.98186039781083
 20
37.50093811886785
 10
49.01018856689559
 20
37.45784491017981
 10
49.03121883410549
 20
37.41113059194331
 10
49.04339148072863
 20
37.36425975143815
 10
49.04580371725111
 20
37.32070858448479
 10
49.03827663912532
 20
37.28370708190283
 10
49.02136849530176
 20
37.25599947586815
 10
49.01584496796927
 20
37.2508136478103
  0
ARC
  5
36A
330
1F
100
AcDbEntity
  8
0
  6
SLD-Solid
 62
     7
370
    25
100
AcDbCircle
 10
48.9898079496924
 20
37.41903638085764
 30
0.0
 40
0.1820812829562572
100
AcDbArc
 50
206.4314353403176
 51
269.0134294404494
  0
LWPOLYLINE
  5
36B
330
1F
100
AcDbEntity
  8
0
  6
SLD-Solid
 62
     7
370
    25
100
AcDbPolyline
 90
       17
 70
   128
 43
0.0
 10
48.84686629779486
 20
37.36025952357154
 10
48.82973073613493
 20
37.39416715802154
 10
48.82185816811093
 20
37.42847166393148
 10
48.82444712083952
 20
37.45795049124771
 10
48.83710344973668
 20
37.47811575573754
 10
48.85790034345773
 20
37.485897478681
 10
48.88367166345795
 20
37.48011096330142
 10
48.91049395988489
 20
37.46163715411046
 10
48.93428378125229
 20
37.43328852109195
 10
48.95141934291222
 20
37.39938088664194
 10
48.95929191093622
 20
37.365076380732
 10
48.95670295820764
 20
37.33559755341577
 10
48.94404662931047
 20
37.31543228892593
 10
48.92324973558943
 20
37.30765056598248
 10
48.89747841558921
 20
37.31343708136206
 10
48.87065611916226
 20
37.33191089055302
 10
48.84686629779486
 20
37.36025952357154
  0
LWPOLYLINE
  5
36C
330
1F
100
AcDbEntity
  8
0
  6
SLD-Solid
 62
     7
370
    25
100
AcDbPolyline
 90
       13
 70
   128
 43
0.0
 10
48.83800916679598
 20
37.58581554953972
 10
48.86346146923589
 20
37.59415431835479
 10
48.89705414771935
 20
37.59150446357471
 10
48.93331287289774
 20
37.57622882044527
 10
48.96954850099722
 20
37.54946031353595
 10
49.00307360124861
 20
37.51318424054645
 10
49.03140177033337
 20
37.47009103185841
 10
49.05243203754327
 20
37.4233767136219
 10
49.0646046841664
 20
37.37650587311676
 10
49.06701692068889
 20
37.33295470616339
 10
49.0594898425631
 20
37.29595320358143
 10
49.04258169873953
 20
37.26824559754675
 10
49.02799372599683
 20
37.25671698183505
  0
LWPOLYLINE
  5
36D
330
1F
100
AcDbEntity
  8
0
  6
SLD-Solid
 62
     7
370
    25
100
AcDbPolyline
 90
       17
 70
   128
 43
0.0
 10
48.86372403006899
 20
37.37434255639009
 10
48.85319736858337
 20
37.39517258208268
 10
48.84836111866895
 20
37.4162464125361
 10
48.84995155553452
 20
37.43435574809855
 10
48.85772654958463
 20
37.44674360659221
 10
48.87050242845563
 20
37.45152404885761
 10
48.88633418040305
 20
37.44796929589469
 10
48.90281156470809
 20
37.43662052661811
 10
48.91742604897816
 20
37.41920548827338
 10
48.92795271046379
 20
37.3983754625808
 10
48.9327889603782
 20
37.37730163212738
 10
48.93119852351263
 20
37.35919229656493
 10
48.92342352946253
 20
37.34680443807127
 10
48.91064765059153
 20
37.34202399580587
 10
48.8948158986441
 20
37.3455787487688
 10
48.87833851433906
 20
37.35692751804538
 10
48.86372403006899
 20
37.37434255639009
  0
LWPOLYLINE
  5
36E
330
1F
100
AcDbEntity
  8
0
  6
SLD-Solid
 62
     7
370
    25
100
AcDbPolyline
 90
       19
 70
   128
 43
0.0
 10
59.38881403693561
 20
31.2406431853787
 10
59.36390279412846
 20
31.28596911701418
 10
59.34714525660314
 20
31.33320162248985
 10
59.33978425425725
 20
31.37883768294891
 10
59.34236571896046
 20
31.4194926805582
 10
59.35469819528513
 20
31.45215142012927
 10
59.37586703987959
 20
31.47439175235194
 10
59.40430225638129
 20
31.48456421352799
 10
59.43789493486476
 20
31.48191435874791
 10
59.47415366004316
 20
31.46663871561847
 10
59.51038928814263
 20
31.43987020870915
 10
59.54391438839401
 20
31.40359413571965
 10
59.57224255747879
 20
31.36050092703161
 10
59.59327282468868
 20
31.31378660879511
 10
59.60544547131181
 20
31.26691576828995
 10
59.60785770783429
 20
31.2233646013366
 10
59.60033062970851
 20
31.18636309875463
 10
59.58342248588495
 20
31.15865549271995
 10
59.57789895855246
 20
31.1534696646621
  0
ARC
  5
36F
330
1F
100
AcDbEntity
  8
0
  6
SLD-Solid
 62
     7
370
    25
100
AcDbCircle
 10
59.55186194027556
 20
31.32169239770938
 30
0.0
 40
0.1820812829561986
100
AcDbArc
 50
206.4314353403076
 51
269.0134294404602
  0
LWPOLYLINE
  5
370
330
1F
100
AcDbEntity
  8
0
  6
SLD-Solid
 62
     7
370
    25
100
AcDbPolyline
 90
       17
 70
   128
 43
0.0
 10
59.40892028837805
 20
31.26291554042334
 10
59.39178472671811
 20
31.29682317487334
 10
59.38391215869412
 20
31.33112768078329
 10
59.3865011114227
 20
31.36060650809951
 10
59.39915744031987
 20
31.38077177258935
 10
59.41995433404092
 20
31.3885534955328
 10
59.44572565404113
 20
31.38276698015322
 10
59.47254795046808
 20
31.36429317096227
 10
59.49633777183548
 20
31.33594453794375
 10
59.51347333349542
 20
31.30203690349375
 10
59.52134590151942
 20
31.2677323975838
 10
59.51875694879082
 20
31.23825357026757
 10
59.50610061989367
 20
31.21808830577773
 10
59.48530372617261
 20
31.21030658283428
 10
59.4595324061724
 20
31.21609309821386
 10
59.43271010974545
 20
31.23456690740482
 10
59.40892028837805
 20
31.26291554042334
  0
LWPOLYLINE
  5
371
330
1F
100
AcDbEntity
  8
0
  6
SLD-Solid
 62
     7
370
    25
100
AcDbPolyline
 90
       13
 70
   128
 43
0.0
 10
59.40006315737917
 20
31.48847156639152
 10
59.42551545981907
 20
31.49681033520659
 10
59.45910813830254
 20
31.49416048042652
 10
59.49536686348094
 20
31.47888483729707
 10
59.53160249158041
 20
31.45211633038775
 10
59.56512759183179
 20
31.41584025739825
 10
59.59345576091657
 20
31.37274704871021
 10
59.61448602812646
 20
31.32603273047371
 10
59.62665867474959
 20
31.27916188996856
 10
59.62907091127207
 20
31.2356107230152
 10
59.62154383314628
 20
31.19860922043323
 10
59.60463568932273
 20
31.17090161439856
 10
59.59004771658002
 20
31.15937299868686
  0
LWPOLYLINE
  5
372
330
1F
100
AcDbEntity
  8
0
  6
SLD-Solid
 62
     7
370
    25
100
AcDbPolyline
 90
       17
 70
   128
 43
0.0
 10
59.42577802065217
 20
31.27699857324189
 10
59.41525135916655
 20
31.29782859893448
 10
59.41041510925215
 20
31.3189024293879
 10
59.41200554611771
 20
31.33701176495036
 10
59.41978054016781
 20
31.34939962344401
 10
59.43255641903881
 20
31.35418006570942
 10
59.44838817098624
 20
31.35062531274648
 10
59.46486555529128
 20
31.33927654346991
 10
59.47948003956136
 20
31.32186150512519
 10
59.49000670104698
 20
31.3010314794326
 10
59.49484295096138
 20
31.27995764897919
 10
59.49325251409582
 20
31.26184831341673
 10
59.48547752004572
 20
31.24946045492307
 10
59.47270164117471
 20
31.24468001265767
 10
59.45686988922729
 20
31.2482347656206
 10
59.44039250492225
 20
31.25958353489718
 10
59.42577802065217
 20
31.27699857324189
  0
LWPOLYLINE
  5
373
330
1F
100
AcDbEntity
  8
0
  6
SLD-Solid
 62
     7
370
    25
100
AcDbPolyline
 90
       16
 70
   128
 43
0.0
 10
60.07597058722092
 20
30.86725687813693
 10
60.06312781617155
 20
30.89693579558654
 10
60.05007850778237
 20
30.94394098376341
 10
60.04673526620067
 20
30.98794478033144
 10
60.05334604436025
 20
31.02568362500316
 10
60.0694205510873
 20
31.05435860031298
 10
60.09376661375386
 20
31.07184301452148
 10
60.12457859626778
 20
31.07684012861268
 10
60.15957131484144
 20
31.06897932949469
 10
60.19614951961927
 20
31.04884361667735
 10
60.23160037248703
 20
31.01792636386556
 10
60.26329464586441
 20
30.97852056226334
 10
60.28888172048664
 20
30.933548759906
 10
60.30646392008209
 20
30.88634630964206
 10
60.31473725333994
 20
30.84041400127077
 10
60.31340124152327
 20
30.80102284808612
  0
LWPOLYLINE
  5
374
330
1F
100
AcDbEntity
  8
0
  6
SLD-Solid
 62
     7
370
    25
100
AcDbPolyline
 90
        3
 70
   128
 43
0.0
 10
60.20343098955038
 20
30.73753837292722
 10
60.18406665005062
 20
30.74657135475846
 10
60.17898536929973
 20
30.74947951101879
  0
LWPOLYLINE
  5
375
330
1F
100
AcDbEntity
  8
0
  6
SLD-Solid
 62
     7
370
    25
100
AcDbPolyline
 90
       17
 70
   128
 43
0.0
 10
60.12523088158611
 20
30.8420611265543
 10
60.10496323519803
 20
30.87426813466975
 10
60.09303421700587
 20
30.90905682151166
 10
60.09125991189255
 20
30.94113092486858
 10
60.09991044172747
 20
30.96560745325689
 10
60.11766884176052
 20
30.97876007710975
 10
60.14183155656695
 20
30.9785864286744
 10
60.16872003185305
 20
30.96511294435098
 10
60.19424074100112
 20
30.94039083999031
 10
60.21450838738922
 20
30.90818383187486
 10
60.22643740558138
 20
30.87339514503294
 10
60.22821171069469
 20
30.84132104167603
 10
60.21956118085977
 20
30.81684451328772
 10
60.20180278082672
 20
30.80369188943486
 10
60.17764006602029
 20
30.80386553787021
 10
60.1507515907342
 20
30.81733902219363
 10
60.12523088158611
 20
30.8420611265543
  0
LWPOLYLINE
  5
376
330
1F
100
AcDbEntity
  8
0
  6
SLD-Solid
 62
     7
370
    25
100
AcDbPolyline
 90
       11
 70
   128
 43
0.0
 10
60.10716993856602
 20
31.08026751048028
 10
60.11497981719165
 20
31.08408913620008
 10
60.14579179970556
 20
31.08908625029127
 10
60.18078451827922
 20
31.08122545117329
 10
60.21736272305704
 20
31.06108973835595
 10
60.25281357592481
 20
31.03017248554416
 10
60.28450784930219
 20
30.99076668394195
 10
60.31009492392442
 20
30.9457948815846
 10
60.32767712351986
 20
30.89859243132066
 10
60.33595045677772
 20
30.85266012294937
 10
60.33461444496104
 20
30.81326896976472
  0
LWPOLYLINE
  5
377
330
1F
100
AcDbEntity
  8
0
  6
SLD-Solid
 62
     7
370
    25
100
AcDbPolyline
 90
       17
 70
   128
 43
0.0
 10
60.1385388571567
 20
30.86102319132825
 10
60.12608810375441
 20
30.8808084938835
 10
60.11875990880773
 20
30.90217976476343
 10
60.11766992356706
 20
30.9218834217076
 10
60.12298408840452
 20
30.93691976156038
 10
60.13389336989665
 20
30.94499963788392
 10
60.14873692882917
 20
30.94489296275224
 10
60.16525496791178
 20
30.93661597648712
 10
60.18093276543054
 20
30.92142877521636
 10
60.19338351883283
 20
30.9016434726611
 10
60.20071171377951
 20
30.88027220178119
 10
60.20180169902019
 20
30.860568544837
 10
60.19648753418272
 20
30.84553220498423
 10
60.18557825269058
 20
30.83745232866069
 10
60.17073469375808
 20
30.83755900379237
 10
60.15421665467547
 20
30.84583599005749
 10
60.1385388571567
 20
30.86102319132825
  0
SPLINE
  5
378
330
1F
100
AcDbEntity
  8
0
  6
SLD-Solid
 62
     7
370
    25
100
AcDbSpline
210
0.0
220
0.0
230
1.0
 70
    12
 71
     3
 72
    11
 73
     7
 74
     0
 42
0.00000001
 43
0.00000001
 40
0.0
 40
0.0
 40
0.0
 40
0.0
 40
0.2779255621981483
 40
0.5865010749870383
 40
0.8150864002480445
 40
1.0
 40
1.0
 40
1.0
 40
1.0
 10
38.7515816766725
 20
41.79399134816019
 30
0.0
 41
1.0
 10
38.7576271018504
 20
41.79614454000056
 30
0.0
 41
1.0
 10
38.77038464864658
 20
41.80068838015347
 30
0.0
 41
1.0
 10
38.78123394086975
 20
41.8178028538989
 30
0.0
 41
1.0
 10
38.78880810615388
 20
41.83499583688306
 30
0.0
 41
1.0
 10
38.78978498759323
 20
41.84768633625509
 30
0.0
 41
1.0
 10
38.79022184160313
 20
41.85336143183475
 30
0.0
 41
1.0
  0
SPLINE
  5
379
330
1F
100
AcDbEntity
  8
0
  6
SLD-Solid
 62
     7
370
    25
100
AcDbSpline
210
0.0
220
0.0
230
1.0
 70
    12
 71
     3
 72
    13
 73
     9
 74
     0
 42
0.00000001
 43
0.00000001
 40
0.0
 40
0.0
 40
0.0
 40
0.0
 40
0.17222580293447
 40
0.3651408598546012
 40
0.5673817509133519
 40
0.723778894603529
 40
0.8702274286197412
 40
1.0
 40
1.0
 40
1.0
 40
1.0
 10
38.17673206744244
 20
41.91545491787095
 30
0.0
 41
1.0
 10
38.21221455856961
 20
41.89135673304804
 30
0.0
 41
1.0
 10
38.2874420047432
 20
41.84026548088229
 30
0.0
 41
1.0
 10
38.40337824076924
 20
41.79856438400027
 30
0.0
 41
1.0
 10
38.51207783553522
 20
41.7742789519738
 30
0.0
 41
1.0
 10
38.60740383047442
 20
41.76772020972386
 30
0.0
 41
1.0
 10
38.68594294338286
 20
41.77181158362692
 30
0.0
 41
1.0
 10
38.7306007902982
 20
41.78690176711315
 30
0.0
 41
1.0
 10
38.75158167667251
 20
41.79399134816019
 30
0.0
 41
1.0
  0
SPLINE
  5
37A
330
1F
100
AcDbEntity
  8
0
  6
SLD-Solid
 62
     7
370
    25
100
AcDbSpline
210
0.0
220
0.0
230
1.0
 70
    12
 71
     3
 72
    17
 73
    13
 74
     0
 42
0.00000001
 43
0.00000001
 40
0.0
 40
0.0
 40
0.0
 40
0.0
 40
0.0678705028656881
 40
0.1510805487614262
 40
0.2455286833004874
 40
0.3480591354729937
 40
0.4570909829180658
 40
0.5477261663855187
 40
0.6442895922105867
 40
0.7494053384969309
 40
0.8666049980989327
 40
1.0
 40
1.0
 40
1.0
 40
1.0
 10
37.40612390873619
 20
43.36172306541894
 30
0.0
 41
1.0
 10
37.41119813135837
 20
43.32626046651325
 30
0.0
 41
1.0
 10
37.42249341142742
 20
43.24732029844378
 30
0.0
 41
1.0
 10
37.44242076671262
 20
43.11842333696218
 30
0.0
 41
1.0
 10
37.47381303309896
 20
42.96852656978142
 30
0.0
 41
1.0
 10
37.52147631131096
 20
42.80207130491812
 30
0.0
 41
1.0
 10
37.5859115835563
 20
42.63700832717684
 30
0.0
 41
1.0
 10
37.66611727909437
 20
42.47932794999684
 30
0.0
 41
1.0
 10
37.75998916227113
 20
42.33168433615086
 30
0.0
 41
1.0
 10
37.87626613475459
 20
42.18513209201867
 30
0.0
 41
1.0
 10
38.01700636023062
 20
42.04079417176513
 30
0.0
 41
1.0
 10
38.12124460762833
 20
41.95899679309558
 30
0.0
 41
1.0
 10
38.17673206744244
 20
41.91545491787095
 30
0.0
 41
1.0
  0
LINE
  5
37B
330
1F
100
AcDbEntity
  8
0
  6
SLD-Solid
 62
     7
370
    25
100
AcDbLine
 10
37.55813031789774
 20
43.29667047013638
 30
0.0
 11
37.40612390873619
 21
43.36172306541894
 31
0.0
  0
LINE
  5
37C
330
1F
100
AcDbEntity
  8
0
  6
SLD-Solid
 62
     7
370
    25
100
AcDbLine
 10
37.56707911519671
 20
43.21690296628793
 30
0.0
 11
37.55813031789774
 21
43.29667047013638
 31
0.0
  0
SPLINE
  5
37D
330
1F
100
AcDbEntity
  8
0
  6
SLD-Solid
 62
     7
370
    25
100
AcDbSpline
210
0.0
220
0.0
230
1.0
 70
    12
 71
     3
 72
    14
 73
    10
 74
     0
 42
0.00000001
 43
0.00000001
 40
0.0
 40
0.0
 40
0.0
 40
0.0
 40
0.1669732910766127
 40
0.3292393671751783
 40
0.4780643428590164
 40
0.5831555886245423
 40
0.6936208322497689
 40
0.826686169005254
 40
1.0
 40
1.0
 40
1.0
 40
1.0
 10
37.92268709124815
 20
43.04245903139905
 30
0.0
 41
1.0
 10
37.90535166174276
 20
43.03295665158387
 30
0.0
 41
1.0
 10
37.87116951318915
 20
43.01421977757943
 30
0.0
 41
1.0
 10
37.81738515146401
 20
42.99458720959962
 30
0.0
 41
1.0
 10
37.76330852698518
 20
42.99270521301149
 30
0.0
 41
1.0
 10
37.70996539435682
 20
43.01435715561998
 30
0.0
 41
1.0
 10
37.65978450935017
 20
43.05822409288072
 30
0.0
 41
1.0
 10
37.60956865421208
 20
43.12843376780889
 30
0.0
 41
1.0
 10
37.5824306521239
 20
43.18493890645477
 30
0.0
 41
1.0
 10
37.56707911519671
 20
43.21690296628793
 30
0.0
 41
1.0
  0
SPLINE
  5
37E
330
1F
100
AcDbEntity
  8
0
  6
SLD-Solid
 62
     7
370
    25
100
AcDbSpline
210
0.0
220
0.0
230
1.0
 70
    12
 71
     3
 72
    10
 73
     6
 74
     0
 42
0.00000001
 43
0.00000001
 40
0.0
 40
0.0
 40
0.0
 40
0.0
 40
0.3127001080851608
 40
0.5852029065626156
 40
1.0
 40
1.0
 40
1.0
 40
1.0
 10
38.04623733721353
 20
43.03109033819695
 30
0.0
 41
1.0
 10
38.03192567039835
 20
43.0381710542086
 30
0.0
 41
1.0
 10
38.005142088297
 20
43.05142226673917
 30
0.0
 41
1.0
 10
37.96253237201947
 20
43.05505775599079
 30
0.0
 41
1.0
 10
37.93768369034133
 20
43.04720082310261
 30
0.0
 41
1.0
 10
37.92268709124815
 20
43.04245903139905
 30
0.0
 41
1.0
  0
LINE
  5
37F
330
1F
100
AcDbEntity
  8
0
  6
SLD-Solid
 62
     7
370
    25
100
AcDbLine
 10
38.43874355142803
 20
42.68965487677198
 30
0.0
 11
38.04623733721353
 21
43.03109033819695
 31
0.0
  0
SPLINE
  5
380
330
1F
100
AcDbEntity
  8
0
  6
SLD-Solid
 62
     7
370
    25
100
AcDbSpline
210
0.0
220
0.0
230
1.0
 70
    12
 71
     3
 72
    13
 73
     9
 74
     0
 42
0.00000001
 43
0.00000001
 40
0.0
 40
0.0
 40
0.0
 40
0.0
 40
0.1715604978498651
 40
0.333778530762135
 40
0.4983505100946048
 40
0.6405243354068748
 40
0.8045117842881165
 40
0.9999999999999999
 40
0.9999999999999999
 40
0.9999999999999999
 40
0.9999999999999999
 10
38.79022184160313
 20
41.85336143183475
 30
0.0
 41
1.0
 10
38.78516415633792
 20
41.90095700901898
 30
0.0
 41
1.0
 10
38.77532420612772
 20
41.99355630793936
 30
0.0
 41
1.0
 10
38.74616421966857
 20
42.1374439148933
 30
0.0
 41
1.0
 10
38.69796363487145
 20
42.27633353362536
 30
0.0
 41
1.0
 10
38.63042967873438
 20
42.41196459345824
 30
0.0
 41
1.0
 10
38.54500677525083
 20
42.54945804652996
 30
0.0
 41
1.0
 10
38.47617519114032
 20
42.64026999035845
 30
0.0
 41
1.0
 10
38.43874355142803
 20
42.68965487677198
 30
0.0
 41
1.0
  0
LINE
  5
381
330
1F
100
AcDbEntity
  8
0
  6
SLD-Solid
 62
     7
370
    25
100
AcDbLine
 10
38.43874355142803
 20
42.68965487677198
 30
0.0
 11
39.00442897637727
 21
43.01621812150106
 31
0.0
  0
LINE
  5
382
330
1F
100
AcDbEntity
  8
0
  6
SLD-Solid
 62
     7
370
    25
100
AcDbLine
 10
39.06986268137853
 20
42.92676500869104
 30
0.0
 11
39.00442897637727
 21
43.01621812150106
 31
0.0
  0
LINE
  5
383
330
1F
100
AcDbEntity
  8
0
  6
SLD-Solid
 62
     7
370
    25
100
AcDbLine
 10
39.00442897637727
 20
43.01621812150106
 30
0.0
 11
38.61192276216278
 21
43.35765358292603
 31
0.0
  0
LINE
  5
384
330
1F
100
AcDbEntity
  8
0
  6
SLD-Solid
 62
     7
370
    25
100
AcDbLine
 10
37.92268709124815
 20
43.04245903139905
 30
0.0
 11
38.48837251619739
 21
43.36902227612813
 31
0.0
  0
SPLINE
  5
385
330
1F
100
AcDbEntity
  8
0
  6
SLD-Solid
 62
     7
370
    25
100
AcDbSpline
210
0.0
220
0.0
230
1.0
 70
    12
 71
     3
 72
    10
 73
     6
 74
     0
 42
0.00000001
 43
0.00000001
 40
0.0
 40
0.0
 40
0.0
 40
0.0
 40
0.3127001080851608
 40
0.5852029065626156
 40
1.0
 40
1.0
 40
1.0
 40
1.0
 10
38.61192276216278
 20
43.35765358292603
 30
0.0
 41
1.0
 10
38.5976110953476
 20
43.36473429893769
 30
0.0
 41
1.0
 10
38.57082751324624
 20
43.37798551146825
 30
0.0
 41
1.0
 10
38.5282177969687
 20
43.38162100071987
 30
0.0
 41
1.0
 10
38.50336911529057
 20
43.3737640678317
 30
0.0
 41
1.0
 10
38.48837251619739
 20
43.36902227612813
 30
0.0
 41
1.0
  0
SPLINE
  5
386
330
1F
100
AcDbEntity
  8
0
  6
SLD-Solid
 62
     7
370
    25
100
AcDbSpline
210
0.0
220
0.0
230
1.0
 70
    12
 71
     3
 72
    14
 73
    10
 74
     0
 42
0.00000001
 43
0.00000001
 40
0.0
 40
0.0
 40
0.0
 40
0.0
 40
0.1669732910766127
 40
0.3292393671751783
 40
0.4780643428590164
 40
0.5831555886245423
 40
0.6936208322497689
 40
0.826686169005254
 40
1.0
 40
1.0
 40
1.0
 40
1.0
 10
38.48837251619739
 20
43.36902227612813
 30
0.0
 41
1.0
 10
38.47103708669199
 20
43.35951989631295
 30
0.0
 41
1.0
 10
38.43685493813839
 20
43.34078302230852
 30
0.0
 41
1.0
 10
38.38307057641325
 20
43.32115045432869
 30
0.0
 41
1.0
 10
38.32899395193443
 20
43.31926845774057
 30
0.0
 41
1.0
 10
38.27565081930607
 20
43.34092040034906
 30
0.0
 41
1.0
 10
38.22546993429941
 20
43.3847873376098
 30
0.0
 41
1.0
 10
38.17525407916132
 20
43.45499701253798
 30
0.0
 41
1.0
 10
38.14811607707314
 20
43.51150215118385
 30
0.0
 41
1.0
 10
38.13276454014594
 20
43.54346621101702
 30
0.0
 41
1.0
  0
LINE
  5
387
330
1F
100
AcDbEntity
  8
0
  6
SLD-Solid
 62
     7
370
    25
100
AcDbLine
 10
37.55813031789774
 20
43.29667047013638
 30
0.0
 11
38.12381574284698
 21
43.62323371486546
 31
0.0
  0
LINE
  5
388
330
1F
100
AcDbEntity
  8
0
  6
SLD-Solid
 62
     7
370
    25
100
AcDbLine
 10
38.13276454014594
 20
43.54346621101702
 30
0.0
 11
38.12381574284698
 21
43.62323371486546
 31
0.0
  0
LINE
  5
389
330
1F
100
AcDbEntity
  8
0
  6
SLD-Solid
 62
     7
370
    25
100
AcDbLine
 10
37.40612390873619
 20
43.36172306541894
 30
0.0
 11
37.97180933368543
 21
43.68828631014802
 31
0.0
  0
LINE
  5
38A
330
1F
100
AcDbEntity
  8
0
  6
SLD-Solid
 62
     7
370
    25
100
AcDbLine
 10
38.12381574284698
 20
43.62323371486546
 30
0.0
 11
37.97180933368543
 21
43.68828631014802
 31
0.0
  0
SPLINE
  5
38B
330
1F
100
AcDbEntity
  8
0
  6
SLD-Solid
 62
     7
370
    25
100
AcDbSpline
210
0.0
220
0.0
230
1.0
 70
    12
 71
     3
 72
    11
 73
     7
 74
     0
 42
0.00000001
 43
0.00000001
 40
0.0
 40
0.0
 40
0.0
 40
0.0
 40
0.2779255621981477
 40
0.5865010749870352
 40
0.8150864002480438
 40
1.0
 40
1.0
 40
1.0
 40
1.0
 10
49.31363566725569
 20
35.69664736501199
 30
0.0
 41
1.0
 10
49.3196810924336
 20
35.69880055685237
 30
0.0
 41
1.0
 10
49.33243863922976
 20
35.70334439700527
 30
0.0
 41
1.0
 10
49.34328793145293
 20
35.7204588707507
 30
0.0
 41
1.0
 10
49.35086209673707
 20
35.73765185373486
 30
0.0
 41
1.0
 10
49.35183897817642
 20
35.75034235310689
 30
0.0
 41
1.0
 10
49.35227583218632
 20
35.75601744868655
 30
0.0
 41
1.0
  0
SPLINE
  5
38C
330
1F
100
AcDbEntity
  8
0
  6
SLD-Solid
 62
     7
370
    25
100
AcDbSpline
210
0.0
220
0.0
230
1.0
 70
    12
 71
     3
 72
    13
 73
     9
 74
     0
 42
0.00000001
 43
0.00000001
 40
0.0
 40
0.0
 40
0.0
 40
0.0
 40
0.1722258029344702
 40
0.3651408598546012
 40
0.5673817509133529
 40
0.7237788946035291
 40
0.8702274286197422
 40
1.0
 40
1.0
 40
1.0
 40
1.0
 10
48.73878605802563
 20
35.81811093472275
 30
0.0
 41
1.0
 10
48.77426854915279
 20
35.79401274989984
 30
0.0
 41
1.0
 10
48.84949599532638
 20
35.7429214977341
 30
0.0
 41
1.0
 10
48.96543223135242
 20
35.70122040085206
 30
0.0
 41
1.0
 10
49.07413182611841
 20
35.67693496882561
 30
0.0
 41
1.0
 10
49.16945782105761
 20
35.67037622657567
 30
0.0
 41
1.0
 10
49.24799693396605
 20
35.67446760047872
 30
0.0
 41
1.0
 10
49.29265478088139
 20
35.68955778396496
 30
0.0
 41
1.0
 10
49.31363566725569
 20
35.69664736501199
 30
0.0
 41
1.0
  0
SPLINE
  5
38D
330
1F
100
AcDbEntity
  8
0
  6
SLD-Solid
 62
     7
370
    25
100
AcDbSpline
210
0.0
220
0.0
230
1.0
 70
    12
 71
     3
 72
    17
 73
    13
 74
     0
 42
0.00000001
 43
0.00000001
 40
0.0
 40
0.0
 40
0.0
 40
0.0
 40
0.0678705028656881
 40
0.1510805487614261
 40
0.2455286833004874
 40
0.3480591354729936
 40
0.4570909829180657
 40
0.5477261663855187
 40
0.6442895922105859
 40
0.7494053384969313
 40
0.8666049980989325
 40
0.9999999999999999
 40
0.9999999999999999
 40
0.9999999999999999
 40
0.9999999999999999
 10
47.96817789931938
 20
37.26437908227074
 30
0.0
 41
1.0
 10
47.97325212194155
 20
37.22891648336506
 30
0.0
 41
1.0
 10
47.98454740201061
 20
37.14997631529559
 30
0.0
 41
1.0
 10
48.0044747572958
 20
37.02107935381399
 30
0.0
 41
1.0
 10
48.03586702368214
 20
36.87118258663322
 30
0.0
 41
1.0
 10
48.08353030189416
 20
36.70472732176991
 30
0.0
 41
1.0
 10
48.14796557413949
 20
36.53966434402864
 30
0.0
 41
1.0
 10
48.22817126967756
 20
36.38198396684864
 30
0.0
 41
1.0
 10
48.32204315285431
 20
36.23434035300266
 30
0.0
 41
1.0
 10
48.43832012533778
 20
36.08778810887047
 30
0.0
 41
1.0
 10
48.5790603508138
 20
35.94345018861692
 30
0.0
 41
1.0
 10
48.68329859821151
 20
35.86165280994739
 30
0.0
 41
1.0
 10
48.73878605802563
 20
35.81811093472275
 30
0.0
 41
1.0
  0
LINE
  5
38E
330
1F
100
AcDbEntity
  8
0
  6
SLD-Solid
 62
     7
370
    25
100
AcDbLine
 10
48.12018430848093
 20
37.19932648698818
 30
0.0
 11
47.96817789931938
 21
37.26437908227074
 31
0.0
  0
LINE
  5
38F
330
1F
100
AcDbEntity
  8
0
  6
SLD-Solid
 62
     7
370
    25
100
AcDbLine
 10
48.12913310577989
 20
37.11955898313973
 30
0.0
 11
48.12018430848093
 21
37.19932648698818
 31
0.0
  0
SPLINE
  5
390
330
1F
100
AcDbEntity
  8
0
  6
SLD-Solid
 62
     7
370
    25
100
AcDbSpline
210
0.0
220
0.0
230
1.0
 70
    12
 71
     3
 72
    14
 73
    10
 74
     0
 42
0.00000001
 43
0.00000001
 40
0.0
 40
0.0
 40
0.0
 40
0.0
 40
0.1669732910766119
 40
0.329239367175177
 40
0.4780643428590174
 40
0.5831555886245431
 40
0.693620832249767
 40
0.8266861690052525
 40
1.0
 40
1.0
 40
1.0
 40
1.0
 10
48.48474108183133
 20
36.94511504825085
 30
0.0
 41
1.0
 10
48.46740565232594
 20
36.93561266843567
 30
0.0
 41
1.0
 10
48.43322350377233
 20
36.91687579443124
 30
0.0
 41
1.0
 10
48.3794391420472
 20
36.89724322645142
 30
0.0
 41
1.0
 10
48.32536251756838
 20
36.89536122986329
 30
0.0
 41
1.0
 10
48.27201938494002
 20
36.91701317247178
 30
0.0
 41
1.0
 10
48.22183849993336
 20
36.96088010973252
 30
0.0
 41
1.0
 10
48.17162264479527
 20
37.0310897846607
 30
0.0
 41
1.0
 10
48.1444846427071
 20
37.08759492330657
 30
0.0
 41
1.0
 10
48.12913310577989
 20
37.11955898313973
 30
0.0
 41
1.0
  0
SPLINE
  5
391
330
1F
100
AcDbEntity
  8
0
  6
SLD-Solid
 62
     7
370
    25
100
AcDbSpline
210
0.0
220
0.0
230
1.0
 70
    12
 71
     3
 72
    10
 73
     6
 74
     0
 42
0.00000001
 43
0.00000001
 40
0.0
 40
0.0
 40
0.0
 40
0.0
 40
0.3127001080851569
 40
0.5852029065626199
 40
1.0
 40
1.0
 40
1.0
 40
1.0
 10
48.60829132779673
 20
36.93374635504875
 30
0.0
 41
1.0
 10
48.59397966098155
 20
36.9408270710604
 30
0.0
 41
1.0
 10
48.56719607888019
 20
36.95407828359096
 30
0.0
 41
1.0
 10
48.52458636260265
 20
36.95771377284259
 30
0.0
 41
1.0
 10
48.49973768092452
 20
36.94985683995442
 30
0.0
 41
1.0
 10
48.48474108183133
 20
36.94511504825085
 30
0.0
 41
1.0
  0
LINE
  5
392
330
1F
100
AcDbEntity
  8
0
  6
SLD-Solid
 62
     7
370
    25
100
AcDbLine
 10
49.00079754201121
 20
36.59231089362378
 30
0.0
 11
48.60829132779673
 21
36.93374635504875
 31
0.0
  0
SPLINE
  5
393
330
1F
100
AcDbEntity
  8
0
  6
SLD-Solid
 62
     7
370
    25
100
AcDbSpline
210
0.0
220
0.0
230
1.0
 70
    12
 71
     3
 72
    13
 73
     9
 74
     0
 42
0.00000001
 43
0.00000001
 40
0.0
 40
0.0
 40
0.0
 40
0.0
 40
0.171560497849865
 40
0.3337785307621348
 40
0.498350510094605
 40
0.6405243354068749
 40
0.8045117842881158
 40
0.9999999999999999
 40
0.9999999999999999
 40
0.9999999999999999
 40
0.9999999999999999
 10
49.35227583218632
 20
35.75601744868655
 30
0.0
 41
1.0
 10
49.3472181469211
 20
35.80361302587078
 30
0.0
 41
1.0
 10
49.3373781967109
 20
35.89621232479116
 30
0.0
 41
1.0
 10
49.30821821025176
 20
36.0400999317451
 30
0.0
 41
1.0
 10
49.26001762545463
 20
36.17898955047717
 30
0.0
 41
1.0
 10
49.19248366931757
 20
36.31462061031004
 30
0.0
 41
1.0
 10
49.10706076583403
 20
36.45211406338176
 30
0.0
 41
1.0
 10
49.03822918172351
 20
36.54292600721025
 30
0.0
 41
1.0
 10
49.00079754201121
 20
36.59231089362378
 30
0.0
 41
1.0
  0
LINE
  5
394
330
1F
100
AcDbEntity
  8
0
  6
SLD-Solid
 62
     7
370
    25
100
AcDbLine
 10
49.00079754201121
 20
36.59231089362378
 30
0.0
 11
49.56648296696046
 21
36.91887413835286
 31
0.0
  0
LINE
  5
395
330
1F
100
AcDbEntity
  8
0
  6
SLD-Solid
 62
     7
370
    25
100
AcDbLine
 10
49.63191667196171
 20
36.82942102554284
 30
0.0
 11
49.56648296696046
 21
36.91887413835286
 31
0.0
  0
LINE
  5
396
330
1F
100
AcDbEntity
  8
0
  6
SLD-Solid
 62
     7
370
    25
100
AcDbLine
 10
49.56648296696046
 20
36.91887413835286
 30
0.0
 11
49.17397675274596
 21
37.26030959977783
 31
0.0
  0
LINE
  5
397
330
1F
100
AcDbEntity
  8
0
  6
SLD-Solid
 62
     7
370
    25
100
AcDbLine
 10
48.48474108183133
 20
36.94511504825085
 30
0.0
 11
49.05042650678057
 21
37.27167829297994
 31
0.0
  0
SPLINE
  5
398
330
1F
100
AcDbEntity
  8
0
  6
SLD-Solid
 62
     7
370
    25
100
AcDbSpline
210
0.0
220
0.0
230
1.0
 70
    12
 71
     3
 72
    10
 73
     6
 74
     0
 42
0.00000001
 43
0.00000001
 40
0.0
 40
0.0
 40
0.0
 40
0.0
 40
0.3127001080851569
 40
0.5852029065626199
 40
1.0
 40
1.0
 40
1.0
 40
1.0
 10
49.17397675274596
 20
37.26030959977783
 30
0.0
 41
1.0
 10
49.15966508593078
 20
37.26739031578948
 30
0.0
 41
1.0
 10
49.13288150382943
 20
37.28064152832005
 30
0.0
 41
1.0
 10
49.09027178755188
 20
37.28427701757168
 30
0.0
 41
1.0
 10
49.06542310587376
 20
37.2764200846835
 30
0.0
 41
1.0
 10
49.05042650678057
 20
37.27167829297994
 30
0.0
 41
1.0
  0
SPLINE
  5
399
330
1F
100
AcDbEntity
  8
0
  6
SLD-Solid
 62
     7
370
    25
100
AcDbSpline
210
0.0
220
0.0
230
1.0
 70
    12
 71
     3
 72
    14
 73
    10
 74
     0
 42
0.00000001
 43
0.00000001
 40
0.0
 40
0.0
 40
0.0
 40
0.0
 40
0.1669732910766119
 40
0.329239367175177
 40
0.4780643428590174
 40
0.5831555886245431
 40
0.693620832249767
 40
0.8266861690052525
 40
1.0
 40
1.0
 40
1.0
 40
1.0
 10
49.05042650678057
 20
37.27167829297994
 30
0.0
 41
1.0
 10
49.03309107727518
 20
37.26217591316475
 30
0.0
 41
1.0
 10
48.99890892872158
 20
37.24343903916032
 30
0.0
 41
1.0
 10
48.94512456699644
 20
37.2238064711805
 30
0.0
 41
1.0
 10
48.89104794251761
 20
37.22192447459237
 30
0.0
 41
1.0
 10
48.83770480988925
 20
37.24357641720086
 30
0.0
 41
1.0
 10
48.78752392488259
 20
37.2874433544616
 30
0.0
 41
1.0
 10
48.73730806974451
 20
37.35765302938978
 30
0.0
 41
1.0
 10
48.71017006765634
 20
37.41415816803565
 30
0.0
 41
1.0
 10
48.69481853072913
 20
37.44612222786882
 30
0.0
 41
1.0
  0
LINE
  5
39A
330
1F
100
AcDbEntity
  8
0
  6
SLD-Solid
 62
     7
370
    25
100
AcDbLine
 10
48.12018430848093
 20
37.19932648698818
 30
0.0
 11
48.68586973343017
 21
37.52588973171726
 31
0.0
  0
LINE
  5
39B
330
1F
100
AcDbEntity
  8
0
  6
SLD-Solid
 62
     7
370
    25
100
AcDbLine
 10
48.69481853072913
 20
37.44612222786882
 30
0.0
 11
48.68586973343017
 21
37.52588973171726
 31
0.0
  0
LINE
  5
39C
330
1F
100
AcDbEntity
  8
0
  6
SLD-Solid
 62
     7
370
    25
100
AcDbLine
 10
47.96817789931938
 20
37.26437908227074
 30
0.0
 11
48.53386332426862
 21
37.59094232699982
 31
0.0
  0
LINE
  5
39D
330
1F
100
AcDbEntity
  8
0
  6
SLD-Solid
 62
     7
370
    25
100
AcDbLine
 10
48.68586973343017
 20
37.52588973171726
 30
0.0
 11
48.53386332426862
 21
37.59094232699982
 31
0.0
  0
SPLINE
  5
39E
330
1F
100
AcDbEntity
  8
0
  6
SLD-Solid
 62
     7
370
    25
100
AcDbSpline
210
0.0
220
0.0
230
1.0
 70
    12
 71
     3
 72
    11
 73
     7
 74
     0
 42
0.00000001
 43
0.00000001
 40
0.0
 40
0.0
 40
0.0
 40
0.0
 40
0.2779255621981483
 40
0.5865010749870383
 40
0.8150864002480445
 40
1.0
 40
1.0
 40
1.0
 40
1.0
 10
59.87568965783888
 20
29.59930338186379
 30
0.0
 41
1.0
 10
59.88173508301679
 20
29.60145657370417
 30
0.0
 41
1.0
 10
59.89449262981295
 20
29.60600041385707
 30
0.0
 41
1.0
 10
59.90534192203613
 20
29.6231148876025
 30
0.0
 41
1.0
 10
59.91291608732027
 20
29.64030787058666
 30
0.0
 41
1.0
 10
59.9138929687596
 20
29.6529983699587
 30
0.0
 41
1.0
 10
59.91432982276951
 20
29.65867346553835
 30
0.0
 41
1.0
  0
SPLINE
  5
39F
330
1F
100
AcDbEntity
  8
0
  6
SLD-Solid
 62
     7
370
    25
100
AcDbSpline
210
0.0
220
0.0
230
1.0
 70
    12
 71
     3
 72
    13
 73
     9
 74
     0
 42
0.00000001
 43
0.00000001
 40
0.0
 40
0.0
 40
0.0
 40
0.0
 40
0.17222580293447
 40
0.3651408598546012
 40
0.5673817509133519
 40
0.723778894603529
 40
0.8702274286197412
 40
1.0
 40
1.0
 40
1.0
 40
1.0
 10
59.30084004860882
 20
29.72076695157455
 30
0.0
 41
1.0
 10
59.33632253973598
 20
29.69666876675165
 30
0.0
 41
1.0
 10
59.41154998590957
 20
29.6455775145859
 30
0.0
 41
1.0
 10
59.52748622193562
 20
29.60387641770387
 30
0.0
 41
1.0
 10
59.63618581670161
 20
29.5795909856774
 30
0.0
 41
1.0
 10
59.73151181164079
 20
29.57303224342747
 30
0.0
 41
1.0
 10
59.81005092454924
 20
29.57712361733052
 30
0.0
 41
1.0
 10
59.85470877146457
 20
29.59221380081676
 30
0.0
 41
1.0
 10
59.87568965783888
 20
29.59930338186379
 30
0.0
 41
1.0
  0
SPLINE
  5
3A0
330
1F
100
AcDbEntity
  8
0
  6
SLD-Solid
 62
     7
370
    25
100
AcDbSpline
210
0.0
220
0.0
230
1.0
 70
    12
 71
     3
 72
    17
 73
    13
 74
     0
 42
0.00000001
 43
0.00000001
 40
0.0
 40
0.0
 40
0.0
 40
0.0
 40
0.0678705028656881
 40
0.1510805487614262
 40
0.2455286833004874
 40
0.3480591354729937
 40
0.4570909829180658
 40
0.5477261663855187
 40
0.6442895922105867
 40
0.7494053384969309
 40
0.8666049980989327
 40
1.0
 40
1.0
 40
1.0
 40
1.0
 10
58.53023188990257
 20
31.16703509912254
 30
0.0
 41
1.0
 10
58.53530611252474
 20
31.13157250021686
 30
0.0
 41
1.0
 10
58.54660139259379
 20
31.05263233214739
 30
0.0
 41
1.0
 10
58.56652874787899
 20
30.92373537066579
 30
0.0
 41
1.0
 10
58.59792101426532
 20
30.77383860348503
 30
0.0
 41
1.0
 10
58.64558429247734
 20
30.60738333862172
 30
0.0
 41
1.0
 10
58.71001956472269
 20
30.44232036088044
 30
0.0
 41
1.0
 10
58.79022526026074
 20
30.28463998370045
 30
0.0
 41
1.0
 10
58.88409714343749
 20
30.13699636985446
 30
0.0
 41
1.0
 10
59.00037411592097
 20
29.99044412572227
 30
0.0
 41
1.0
 10
59.14111434139699
 20
29.84610620546873
 30
0.0
 41
1.0
 10
59.24535258879471
 20
29.76430882679919
 30
0.0
 41
1.0
 10
59.30084004860882
 20
29.72076695157455
 30
0.0
 41
1.0
  0
LINE
  5
3A1
330
1F
100
AcDbEntity
  8
0
  6
SLD-Solid
 62
     7
370
    25
100
AcDbLine
 10
58.68223829906412
 20
31.10198250383998
 30
0.0
 11
58.53023188990257
 21
31.16703509912254
 31
0.0
  0
LINE
  5
3A2
330
1F
100
AcDbEntity
  8
0
  6
SLD-Solid
 62
     7
370
    25
100
AcDbLine
 10
58.69118709636308
 20
31.02221499999154
 30
0.0
 11
58.68223829906412
 21
31.10198250383998
 31
0.0
  0
SPLINE
  5
3A3
330
1F
100
AcDbEntity
  8
0
  6
SLD-Solid
 62
     7
370
    25
100
AcDbSpline
210
0.0
220
0.0
230
1.0
 70
    12
 71
     3
 72
    14
 73
    10
 74
     0
 42
0.00000001
 43
0.00000001
 40
0.0
 40
0.0
 40
0.0
 40
0.0
 40
0.1669732910766127
 40
0.3292393671751783
 40
0.4780643428590164
 40
0.5831555886245423
 40
0.6936208322497689
 40
0.826686169005254
 40
1.0
 40
1.0
 40
1.0
 40
1.0
 10
59.04679507241452
 20
30.84777106510265
 30
0.0
 41
1.0
 10
59.02945964290913
 20
30.83826868528747
 30
0.0
 41
1.0
 10
58.99527749435553
 20
30.81953181128305
 30
0.0
 41
1.0
 10
58.94149313263039
 20
30.79989924330322
 30
0.0
 41
1.0
 10
58.88741650815156
 20
30.79801724671509
 30
0.0
 41
1.0
 10
58.8340733755232
 20
30.81966918932358
 30
0.0
 41
1.0
 10
58.78389249051654
 20
30.86353612658432
 30
0.0
 41
1.0
 10
58.73367663537845
 20
30.9337458015125
 30
0.0
 41
1.0
 10
58.70653863329029
 20
30.99025094015837
 30
0.0
 41
1.0
 10
58.69118709636308
 20
31.02221499999154
 30
0.0
 41
1.0
  0
SPLINE
  5
3A4
330
1F
100
AcDbEntity
  8
0
  6
SLD-Solid
 62
     7
370
    25
100
AcDbSpline
210
0.0
220
0.0
230
1.0
 70
    12
 71
     3
 72
    10
 73
     6
 74
     0
 42
0.00000001
 43
0.00000001
 40
0.0
 40
0.0
 40
0.0
 40
0.0
 40
0.3127001080851608
 40
0.5852029065626156
 40
1.0
 40
1.0
 40
1.0
 40
1.0
 10
59.17034531837991
 20
30.83640237190055
 30
0.0
 41
1.0
 10
59.15603365156473
 20
30.84348308791221
 30
0.0
 41
1.0
 10
59.12925006946338
 20
30.85673430044277
 30
0.0
 41
1.0
 10
59.08664035318583
 20
30.8603697896944
 30
0.0
 41
1.0
 10
59.06179167150771
 20
30.85251285680622
 30
0.0
 41
1.0
 10
59.04679507241452
 20
30.84777106510265
 30
0.0
 41
1.0
  0
LINE
  5
3A5
330
1F
100
AcDbEntity
  8
0
  6
SLD-Solid
 62
     7
370
    25
100
AcDbLine
 10
59.56285153259441
 20
30.49496691047558
 30
0.0
 11
59.17034531837991
 21
30.83640237190055
 31
0.0
  0
SPLINE
  5
3A6
330
1F
100
AcDbEntity
  8
0
  6
SLD-Solid
 62
     7
370
    25
100
AcDbSpline
210
0.0
220
0.0
230
1.0
 70
    12
 71
     3
 72
    13
 73
     9
 74
     0
 42
0.00000001
 43
0.00000001
 40
0.0
 40
0.0
 40
0.0
 40
0.0
 40
0.1715604978498651
 40
0.333778530762135
 40
0.4983505100946048
 40
0.6405243354068748
 40
0.8045117842881165
 40
0.9999999999999999
 40
0.9999999999999999
 40
0.9999999999999999
 40
0.9999999999999999
 10
59.91432982276951
 20
29.65867346553835
 30
0.0
 41
1.0
 10
59.9092721375043
 20
29.70626904272259
 30
0.0
 41
1.0
 10
59.8994321872941
 20
29.79886834164296
 30
0.0
 41
1.0
 10
59.87027220083495
 20
29.9427559485969
 30
0.0
 41
1.0
 10
59.82207161603782
 20
30.08164556732897
 30
0.0
 41
1.0
 10
59.75453765990076
 20
30.21727662716184
 30
0.0
 41
1.0
 10
59.66911475641722
 20
30.35477008023356
 30
0.0
 41
1.0
 10
59.6002831723067
 20
30.44558202406206
 30
0.0
 41
1.0
 10
59.56285153259441
 20
30.49496691047558
 30
0.0
 41
1.0
  0
LINE
  5
3A7
330
1F
100
AcDbEntity
  8
0
  6
SLD-Solid
 62
     7
370
    25
100
AcDbLine
 10
59.56285153259441
 20
30.49496691047558
 30
0.0
 11
60.12853695754364
 21
30.82153015520467
 31
0.0
  0
LINE
  5
3A8
330
1F
100
AcDbEntity
  8
0
  6
SLD-Solid
 62
     7
370
    25
100
AcDbLine
 10
60.19397066254491
 20
30.73207704239464
 30
0.0
 11
60.12853695754364
 21
30.82153015520467
 31
0.0
  0
LINE
  5
3A9
330
1F
100
AcDbEntity
  8
0
  6
SLD-Solid
 62
     7
370
    25
100
AcDbLine
 10
60.12853695754364
 20
30.82153015520467
 30
0.0
 11
59.73603074332915
 21
31.16296561662963
 31
0.0
  0
LINE
  5
3AA
330
1F
100
AcDbEntity
  8
0
  6
SLD-Solid
 62
     7
370
    25
100
AcDbLine
 10
59.04679507241452
 20
30.84777106510265
 30
0.0
 11
59.61248049736376
 21
31.17433430983173
 31
0.0
  0
SPLINE
  5
3AB
330
1F
100
AcDbEntity
  8
0
  6
SLD-Solid
 62
     7
370
    25
100
AcDbSpline
210
0.0
220
0.0
230
1.0
 70
    12
 71
     3
 72
    10
 73
     6
 74
     0
 42
0.00000001
 43
0.00000001
 40
0.0
 40
0.0
 40
0.0
 40
0.0
 40
0.3127001080851608
 40
0.5852029065626156
 40
1.0
 40
1.0
 40
1.0
 40
1.0
 10
59.73603074332915
 20
31.16296561662963
 30
0.0
 41
1.0
 10
59.72171907651397
 20
31.17004633264129
 30
0.0
 41
1.0
 10
59.69493549441263
 20
31.18329754517185
 30
0.0
 41
1.0
 10
59.65232577813507
 20
31.18693303442348
 30
0.0
 41
1.0
 10
59.62747709645694
 20
31.1790761015353
 30
0.0
 41
1.0
 10
59.61248049736376
 20
31.17433430983173
 30
0.0
 41
1.0
  0
SPLINE
  5
3AC
330
1F
100
AcDbEntity
  8
0
  6
SLD-Solid
 62
     7
370
    25
100
AcDbSpline
210
0.0
220
0.0
230
1.0
 70
    12
 71
     3
 72
    14
 73
    10
 74
     0
 42
0.00000001
 43
0.00000001
 40
0.0
 40
0.0
 40
0.0
 40
0.0
 40
0.1669732910766127
 40
0.3292393671751783
 40
0.4780643428590164
 40
0.5831555886245423
 40
0.6936208322497689
 40
0.826686169005254
 40
1.0
 40
1.0
 40
1.0
 40
1.0
 10
59.61248049736376
 20
31.17433430983173
 30
0.0
 41
1.0
 10
59.59514506785837
 20
31.16483193001656
 30
0.0
 41
1.0
 10
59.56096291930476
 20
31.14609505601213
 30
0.0
 41
1.0
 10
59.50717855757964
 20
31.1264624880323
 30
0.0
 41
1.0
 10
59.4531019331008
 20
31.12458049144417
 30
0.0
 41
1.0
 10
59.39975880047245
 20
31.14623243405266
 30
0.0
 41
1.0
 10
59.34957791546579
 20
31.1900993713134
 30
0.0
 41
1.0
 10
59.2993620603277
 20
31.26030904624158
 30
0.0
 41
1.0
 10
59.27222405823952
 20
31.31681418488745
 30
0.0
 41
1.0
 10
59.25687252131232
 20
31.34877824472062
 30
0.0
 41
1.0
  0
LINE
  5
3AD
330
1F
100
AcDbEntity
  8
0
  6
SLD-Solid
 62
     7
370
    25
100
AcDbLine
 10
58.68223829906412
 20
31.10198250383998
 30
0.0
 11
59.24792372401336
 21
31.42854574856906
 31
0.0
  0
LINE
  5
3AE
330
1F
100
AcDbEntity
  8
0
  6
SLD-Solid
 62
     7
370
    25
100
AcDbLine
 10
59.25687252131232
 20
31.34877824472062
 30
0.0
 11
59.24792372401336
 21
31.42854574856906
 31
0.0
  0
LINE
  5
3AF
330
1F
100
AcDbEntity
  8
0
  6
SLD-Solid
 62
     7
370
    25
100
AcDbLine
 10
58.53023188990257
 20
31.16703509912254
 30
0.0
 11
59.0959173148518
 21
31.49359834385163
 31
0.0
  0
LINE
  5
3B0
330
1F
100
AcDbEntity
  8
0
  6
SLD-Solid
 62
     7
370
    25
100
AcDbLine
 10
59.24792372401336
 20
31.42854574856906
 30
0.0
 11
59.0959173148518
 21
31.49359834385163
 31
0.0
  0
SPLINE
  5
3B1
330
1F
100
AcDbEntity
  8
0
  6
SLD-Solid
 62
     7
370
    25
100
AcDbSpline
210
0.0
220
0.0
230
1.0
 70
    12
 71
     3
 72
    17
 73
    13
 74
     0
 42
0.00000001
 43
0.00000001
 40
0.0
 40
0.0
 40
0.0
 40
0.0
 40
0.0139242822449552
 40
0.0323321121949605
 40
0.0598988193071535
 40
0.1091848762190959
 40
0.1993457441099445
 40
0.2884166706631587
 40
0.466404718954214
 40
0.6441730606901758
 40
0.8219504068609031
 40
1.0
 40
1.0
 40
1.0
 40
1.0
 10
56.75723743525042
 20
32.61088049886102
 30
0.0
 41
1.0
 10
56.75776183483439
 20
32.604322223695
 30
0.0
 41
1.0
 10
56.75897948798774
 20
32.58909394228395
 30
0.0
 41
1.0
 10
56.77023374316227
 20
32.55831727876192
 30
0.0
 41
1.0
 10
56.79532722885504
 20
32.51229693966318
 30
0.0
 41
1.0
 10
56.84968073760064
 20
32.43958981619227
 30
0.0
 41
1.0
 10
56.9317783700033
 20
32.35388650210634
 30
0.0
 41
1.0
 10
57.0650570267578
 20
32.23541701806675
 30
0.0
 41
1.0
 10
57.23565192954414
 20
32.10782222732074
 30
0.0
 41
1.0
 10
57.44194978562145
 20
31.97795361369688
 30
0.0
 41
1.0
 10
57.6489383910529
 20
31.86642930010515
 30
0.0
 41
1.0
 10
57.78512248905169
 20
31.81482379870841
 30
0.0
 41
1.0
 10
57.85326663600057
 20
31.78900130605159
 30
0.0
 41
1.0
  0
ELLIPSE
  5
3B2
330
1F
100
AcDbEntity
  8
0
  6
SLD-Solid
 62
     7
370
    25
100
AcDbEllipse
 10
57.45988557530912
 20
32.21529352213016
 30
0.0
 11
0.6982763835041509
 21
-0.4414766190748126
 31
0.0
210
0.0
220
0.0
230
1.0
 40
0.2523363383780829
 41
0.1582033314706833
 42
3.402888610208801
  0
ELLIPSE
  5
3B3
330
1F
100
AcDbEntity
  8
0
  6
SLD-Solid
 62
     7
370
    25
100
AcDbEllipse
 10
57.45988557530912
 20
32.21529352213016
 30
0.0
 11
0.6982763835041509
 21
-0.4414766190748126
 31
0.0
210
0.0
220
0.0
230
1.0
 40
0.2523363383780829
 41
4.885466541060912
 42
6.441388638650284
  0
LWPOLYLINE
  5
3B4
330
1F
100
AcDbEntity
  8
0
  6
SLD-Solid
 62
     7
370
    25
100
AcDbPolyline
 90
       22
 70
   128
 43
0.0
 10
48.7985711666024
 20
36.28281426350505
 10
48.80347891258771
 20
36.3175810541001
 10
48.81776607577558
 20
36.34359229987651
 10
48.84016317901857
 20
36.35853678749857
 10
48.86868014140547
 20
36.36108663365827
 10
48.90078310568358
 20
36.3510152733345
 10
48.93361958259526
 20
36.32921759108945
 10
48.96427190706638
 20
36.29763040664817
 10
48.9900164855522
 20
36.25906037996632
 10
49.00856579927601
 20
36.21693462717638
 10
49.01827166031113
 20
36.17499620627954
 10
49.01827166031113
 20
36.13697153001621
 10
49.00856579927601
 20
36.10623925774095
 10
48.9900164855522
 20
36.08553008671176
 10
48.96427190706638
 20
36.07668411765528
 10
48.93361958259526
 20
36.08048735374207
 10
48.90078310568358
 20
36.09660186075561
 10
48.86868014140547
 20
36.12359579403039
 10
48.84016317901857
 20
36.15907062413401
 10
48.81776607577558
 20
36.19987425673305
 10
48.80347891258771
 20
36.24238111000729
 10
48.7985711666024
 20
36.28281426350505
  0
LWPOLYLINE
  5
3B5
330
1F
100
AcDbEntity
  8
0
  6
SLD-Solid
 62
     7
370
    25
100
AcDbPolyline
 90
       13
 70
   128
 43
0.0
 10
48.84399359117997
 20
36.36188063372357
 10
48.85322417347728
 20
36.3660767391072
 10
48.88174113586417
 20
36.3686265852669
 10
48.91384410014228
 20
36.35855522494312
 10
48.94668057705396
 20
36.33675754269808
 10
48.9773329015251
 20
36.3051703582568
 10
49.0030774800109
 20
36.26660033157496
 10
49.02162679373471
 20
36.22447457878501
 10
49.03133265476984
 20
36.18253615788817
 10
49.03133265476984
 20
36.14451148162485
 10
49.02162679373471
 20
36.11377920934958
 10
49.0030774800109
 20
36.09307003832038
 10
49.00020505156089
 20
36.09128512803269
  0
LWPOLYLINE
  5
3B6
330
1F
100
AcDbEntity
  8
0
  6
SLD-Solid
 62
     7
370
    25
100
AcDbPolyline
 90
       22
 70
   128
 43
0.0
 10
38.23651717601922
 20
42.38015824665325
 10
38.24142492200453
 20
42.4149250372483
 10
38.25571208519239
 20
42.4409362830247
 10
38.27810918843538
 20
42.45588077064676
 10
38.30662615082228
 20
42.45843061680647
 10
38.3387291151004
 20
42.4483592564827
 10
38.37156559201206
 20
42.42656157423765
 10
38.4022179164832
 20
42.39497438979637
 10
38.42796249496901
 20
42.35640436311452
 10
38.44651180869281
 20
42.31427861032457
 10
38.45621766972794
 20
42.27234018942774
 10
38.45621766972794
 20
42.23431551316441
 10
38.44651180869281
 20
42.20358324088915
 10
38.42796249496901
 20
42.18287406985996
 10
38.4022179164832
 20
42.17402810080347
 10
38.37156559201206
 20
42.17783133689027
 10
38.33872911510039
 20
42.1939458439038
 10
38.30662615082228
 20
42.22093977717859
 10
38.27810918843538
 20
42.25641460728221
 10
38.25571208519239
 20
42.29721823988125
 10
38.24142492200453
 20
42.33972509315549
 10
38.23651717601922
 20
42.38015824665325
  0
LWPOLYLINE
  5
3B7
330
1F
100
AcDbEntity
  8
0
  6
SLD-Solid
 62
     7
370
    25
100
AcDbPolyline
 90
       13
 70
   128
 43
0.0
 10
38.28193960059679
 20
42.45922461687177
 10
38.29117018289409
 20
42.46342072225539
 10
38.31968714528099
 20
42.46597056841509
 10
38.3517901095591
 20
42.45589920809132
 10
38.38462658647078
 20
42.43410152584628
 10
38.4152789109419
 20
42.402514341405
 10
38.44102348942771
 20
42.36394431472316
 10
38.45957280315152
 20
42.32181856193321
 10
38.46927866418666
 20
42.27988014103637
 10
38.46927866418665
 20
42.24185546477305
 10
38.45957280315152
 20
42.21112319249777
 10
38.44102348942771
 20
42.19041402146858
 10
38.4381510609777
 20
42.18862911118089
  0
LWPOLYLINE
  5
3B8
330
1F
100
AcDbEntity
  8
0
  6
SLD-Solid
 62
     7
370
    25
100
AcDbPolyline
 90
       22
 70
   128
 43
0.0
 10
59.36062515718559
 20
30.18547028035685
 10
59.36553290317091
 20
30.2202370709519
 10
59.37982006635877
 20
30.24624831672831
 10
59.40221716960176
 20
30.26119280435037
 10
59.43073413198866
 20
30.26374265051007
 10
59.46283709626677
 20
30.2536712901863
 10
59.49567357317844
 20
30.23187360794126
 10
59.52632589764957
 20
30.20028642349997
 10
59.55207047613538
 20
30.16171639681813
 10
59.57061978985919
 20
30.11959064402819
 10
59.58032565089432
 20
30.07765222313134
 10
59.58032565089432
 20
30.03962754686802
 10
59.57061978985919
 20
30.00889527459275
 10
59.55207047613538
 20
29.98818610356355
 10
59.52632589764957
 20
29.97934013450707
 10
59.49567357317844
 20
29.98314337059387
 10
59.46283709626676
 20
29.99925787760741
 10
59.43073413198865
 20
30.02625181088219
 10
59.40221716960176
 20
30.06172664098581
 10
59.37982006635877
 20
30.10253027358485
 10
59.36553290317091
 20
30.14503712685909
 10
59.36062515718559
 20
30.18547028035685
  0
LWPOLYLINE
  5
3B9
330
1F
100
AcDbEntity
  8
0
  6
SLD-Solid
 62
     7
370
    25
100
AcDbPolyline
 90
       13
 70
   128
 43
0.0
 10
59.40604758176316
 20
30.26453665057537
 10
59.41527816406047
 20
30.268732755959
 10
59.44379512644737
 20
30.27128260211871
 10
59.47589809072548
 20
30.26121124179493
 10
59.50873456763716
 20
30.23941355954988
 10
59.53938689210828
 20
30.2078263751086
 10
59.56513147059409
 20
30.16925634842676
 10
59.58368078431791
 20
30.12713059563681
 10
59.59338664535303
 20
30.08519217473997
 10
59.59338664535302
 20
30.04716749847665
 10
59.58368078431791
 20
30.01643522620138
 10
59.56513147059409
 20
29.99572605517218
 10
59.56225904214407
 20
29.9939411448845
  0
ARC
  5
3BA
330
1F
100
AcDbEntity
  8
0
  6
SLD-Solid
 62
     7
370
    25
100
AcDbCircle
 10
39.14188849027659
 20
42.70244516489169
 30
0.0
 40
0.2305207211357939
100
AcDbArc
 50
122.6054783400232
 51
177.3945215143484
  0
ARC
  5
3BB
330
1F
100
AcDbEntity
  8
0
  6
SLD-Solid
 62
     7
370
    25
100
AcDbCircle
 10
39.19138596495969
 20
42.67387088097787
 30
0.0
 40
0.2305207211358395
100
AcDbArc
 50
122.6054783400298
 51
177.3945215143418
  0
LINE
  5
3BC
330
1F
100
AcDbEntity
  8
0
  6
SLD-Solid
 62
     7
370
    25
100
AcDbLine
 10
39.42779402533765
 20
43.07624580750132
 30
0.0
 11
39.06716956693252
 21
42.86806173898653
 31
0.0
  0
LINE
  5
3BD
330
1F
100
AcDbEntity
  8
0
  6
SLD-Solid
 62
     7
370
    25
100
AcDbLine
 10
39.06716956693252
 20
41.85684605667512
 30
0.0
 11
39.42779402533765
 21
42.06503012518991
 31
0.0
  0
ARC
  5
3BE
330
1F
100
AcDbEntity
  8
0
  6
SLD-Solid
 62
     7
370
    25
100
AcDbCircle
 10
39.02576470486852
 20
41.90760749053617
 30
0.0
 40
0.065506379614266
100
AcDbArc
 50
170.7859630095339
 51
309.2032852357225
  0
LINE
  5
3BF
330
1F
100
AcDbEntity
  8
0
  6
SLD-Solid
 62
     7
370
    25
100
AcDbLine
 10
38.96110354975454
 20
42.68435000881697
 30
0.0
 11
38.96110354975454
 21
41.91809657007127
 31
0.0
  0
LINE
  5
3C0
330
1F
100
AcDbEntity
  8
0
  6
SLD-Solid
 62
     7
370
    25
100
AcDbLine
 10
38.91160607507148
 20
42.71292429273076
 30
0.0
 11
38.91160607507148
 21
41.94667085398507
 31
0.0
  0
LINE
  5
3C1
330
1F
100
AcDbEntity
  8
0
  6
SLD-Solid
 62
     7
370
    25
100
AcDbLine
 10
39.3782965506546
 20
43.10482009141511
 30
0.0
 11
39.01767209224947
 21
42.89663602290032
 31
0.0
  0
ARC
  5
3C2
330
1F
100
AcDbEntity
  8
0
  6
SLD-Solid
 62
     7
370
    25
100
AcDbCircle
 10
39.39873508722288
 20
42.12916558578338
 30
0.0
 40
0.070411498989121
100
AcDbArc
 50
294.3746582935718
 51
354.3052007487998
  0
ARC
  5
3C3
330
1F
100
AcDbEntity
  8
0
  6
SLD-Solid
 62
     7
370
    25
100
AcDbCircle
 10
39.40610424158624
 20
43.13339437532891
 30
0.0
 40
0.0611261443567938
100
AcDbArc
 50
290.7834207994615
 51
69.21657920053936
  0
ARC
  5
3C4
330
1F
100
AcDbEntity
  8
0
  6
SLD-Solid
 62
     7
370
    25
100
AcDbCircle
 10
39.36745165877888
 20
43.13339437532891
 30
0.0
 40
0.0305630721784053
100
AcDbArc
 50
290.783420799484
 51
69.21657920051682
  0
LINE
  5
3C5
330
1F
100
AcDbEntity
  8
0
  6
SLD-Solid
 62
     7
370
    25
100
AcDbLine
 10
39.42779402533765
 20
43.1905429431565
 30
0.0
 11
37.70879864904965
 21
44.18289785101943
 31
0.0
  0
LINE
  5
3C6
330
1F
100
AcDbEntity
  8
0
  6
SLD-Solid
 62
     7
370
    25
100
AcDbLine
 10
39.3782965506546
 20
43.16196865924271
 30
0.0
 11
37.6593011743666
 21
44.15432356710564
 31
0.0
  0
ARC
  5
3C7
330
1F
100
AcDbEntity
  8
0
  6
SLD-Solid
 62
     7
370
    25
100
AcDbCircle
 10
38.985106360439
 20
41.93855784338877
 30
0.0
 40
0.0739466895137496
100
AcDbArc
 50
173.701152487735
 51
234.9866671188848
  0
ARC
  5
3C8
330
1F
100
AcDbEntity
  8
0
  6
SLD-Solid
 62
     7
370
    25
100
AcDbCircle
 10
37.2531874865038
 20
43.71112823499107
 30
0.0
 40
0.2305207211357909
100
AcDbArc
 50
122.6054783400208
 51
177.3945215143465
  0
ARC
  5
3C9
330
1F
100
AcDbEntity
  8
0
  6
SLD-Solid
 62
     7
370
    25
100
AcDbCircle
 10
37.2036900118208
 20
43.73970251890484
 30
0.0
 40
0.2305207211358531
100
AcDbArc
 50
122.6054783400318
 51
177.394521514342
  0
LINE
  5
3CA
330
1F
100
AcDbEntity
  8
0
  6
SLD-Solid
 62
     7
370
    25
100
AcDbLine
 10
37.12897108847668
 20
43.90531909299971
 30
0.0
 11
37.56030622500047
 21
44.15432356710564
 31
0.0
  0
LINE
  5
3CB
330
1F
100
AcDbEntity
  8
0
  6
SLD-Solid
 62
     7
370
    25
100
AcDbLine
 10
37.45192798342089
 20
43.08054245767289
 30
0.0
 11
37.12897108847668
 21
42.8941034106883
 31
0.0
  0
ARC
  5
3CC
330
1F
100
AcDbEntity
  8
0
  6
SLD-Solid
 62
     7
370
    25
100
AcDbCircle
 10
37.0875662264127
 20
42.94486484454936
 30
0.0
 40
0.0655063796142832
100
AcDbArc
 50
170.7859630095492
 51
309.2032852357011
  0
LINE
  5
3CD
330
1F
100
AcDbEntity
  8
0
  6
SLD-Solid
 62
     7
370
    25
100
AcDbLine
 10
37.02290507129869
 20
43.72160736283015
 30
0.0
 11
37.02290507129869
 21
42.95535392408446
 31
0.0
  0
LINE
  5
3CE
330
1F
100
AcDbEntity
  8
0
  6
SLD-Solid
 62
     7
370
    25
100
AcDbLine
 10
36.97340759661564
 20
43.75018164674395
 30
0.0
 11
36.97340759661564
 21
42.98392820799825
 31
0.0
  0
LINE
  5
3CF
330
1F
100
AcDbEntity
  8
0
  6
SLD-Solid
 62
     7
370
    25
100
AcDbLine
 10
37.07947361379362
 20
43.93389337691352
 30
0.0
 11
37.51080875031742
 21
44.18289785101943
 31
0.0
  0
ARC
  5
3D0
330
1F
100
AcDbEntity
  8
0
  6
SLD-Solid
 62
     7
370
    25
100
AcDbCircle
 10
37.60980369968354
 20
44.05879379115871
 30
0.0
 40
0.107591533553865
100
AcDbArc
 50
62.60967223661089
 51
117.3903277633925
  0
ARC
  5
3D1
330
1F
100
AcDbEntity
  8
0
  6
SLD-Solid
 62
     7
370
    25
100
AcDbCircle
 10
37.60980369968353
 20
43.99183829912572
 30
0.0
 40
0.2151830671075783
100
AcDbArc
 50
62.60967223659087
 51
117.3903277634075
  0
ARC
  5
3D2
330
1F
100
AcDbEntity
  8
0
  6
SLD-Solid
 62
     7
370
    25
100
AcDbCircle
 10
37.04690788198319
 20
42.97581519740197
 30
0.0
 40
0.0739466895137826
100
AcDbArc
 50
173.7011524877545
 51
234.9866671188686
  0
ARC
  5
3D3
330
1F
100
AcDbEntity
  8
0
  6
SLD-Solid
 62
     7
370
    25
100
AcDbCircle
 10
60.315493946126
 20
30.47918291468151
 30
0.0
 40
0.2305207211357661
100
AcDbArc
 50
122.6054783400226
 51
177.3945215143524
  0
LINE
  5
3D4
330
1F
100
AcDbEntity
  8
0
  6
SLD-Solid
 62
     7
370
    25
100
AcDbLine
 10
60.55190200650404
 20
30.88155784120493
 30
0.0
 11
60.1912775480989
 21
30.67337377269013
 31
0.0
  0
LINE
  5
3D5
330
1F
100
AcDbEntity
  8
0
  6
SLD-Solid
 62
     7
370
    25
100
AcDbLine
 10
60.1912775480989
 20
29.66215809037872
 30
0.0
 11
60.55190200650404
 21
29.87034215889351
 31
0.0
  0
ARC
  5
3D6
330
1F
100
AcDbEntity
  8
0
  6
SLD-Solid
 62
     7
370
    25
100
AcDbCircle
 10
60.1498726860349
 20
29.71291952423977
 30
0.0
 40
0.0655063796142655
100
AcDbArc
 50
170.7859630095278
 51
309.2032852357177
  0
LINE
  5
3D7
330
1F
100
AcDbEntity
  8
0
  6
SLD-Solid
 62
     7
370
    25
100
AcDbLine
 10
60.08521153092092
 20
30.48966204252057
 30
0.0
 11
60.08521153092092
 21
29.72340860377488
 31
0.0
  0
ARC
  5
3D8
330
1F
100
AcDbEntity
  8
0
  6
SLD-Solid
 62
     7
370
    25
100
AcDbCircle
 10
60.26599647144295
 20
30.50775719859528
 30
0.0
 40
0.2305207211357832
100
AcDbArc
 50
122.6054783400178
 51
177.3945215143463
  0
LINE
  5
3D9
330
1F
100
AcDbEntity
  8
0
  6
SLD-Solid
 62
     7
370
    25
100
AcDbLine
 10
60.03571405623786
 20
30.51823632643436
 30
0.0
 11
60.03571405623786
 21
29.75198288768867
 31
0.0
  0
LINE
  5
3DA
330
1F
100
AcDbEntity
  8
0
  6
SLD-Solid
 62
     7
370
    25
100
AcDbLine
 10
60.50240453182098
 20
30.91013212511872
 30
0.0
 11
60.14178007341584
 21
30.70194805660392
 31
0.0
  0
ARC
  5
3DB
330
1F
100
AcDbEntity
  8
0
  6
SLD-Solid
 62
     7
370
    25
100
AcDbCircle
 10
60.52284306838921
 20
29.93447761948701
 30
0.0
 40
0.0704114989891712
100
AcDbArc
 50
294.3746582936031
 51
354.305200748786
  0
ARC
  5
3DC
330
1F
100
AcDbEntity
  8
0
  6
SLD-Solid
 62
     7
370
    25
100
AcDbCircle
 10
60.5302122227526
 20
30.93870640903252
 30
0.0
 40
0.0611261443568039
100
AcDbArc
 50
290.7834207994864
 51
69.21657920051327
  0
ARC
  5
3DD
330
1F
100
AcDbEntity
  8
0
  6
SLD-Solid
 62
     7
370
    25
100
AcDbCircle
 10
60.49155963994527
 20
30.93870640903252
 30
0.0
 40
0.0305630721783994
100
AcDbArc
 50
290.7834207994739
 51
69.21657920052691
  0
LINE
  5
3DE
330
1F
100
AcDbEntity
  8
0
  6
SLD-Solid
 62
     7
370
    25
100
AcDbLine
 10
60.55190200650404
 20
30.9958549768601
 30
0.0
 11
58.83290663021602
 21
31.98820988472304
 31
0.0
  0
LINE
  5
3DF
330
1F
100
AcDbEntity
  8
0
  6
SLD-Solid
 62
     7
370
    25
100
AcDbLine
 10
60.50240453182098
 20
30.96728069294631
 30
0.0
 11
58.78340915553296
 21
31.95963560080925
 31
0.0
  0
ARC
  5
3E0
330
1F
100
AcDbEntity
  8
0
  6
SLD-Solid
 62
     7
370
    25
100
AcDbCircle
 10
60.10921434160537
 20
29.74386987709238
 30
0.0
 40
0.0739466895137392
100
AcDbArc
 50
173.7011524877338
 51
234.9866671188938
  0
ARC
  5
3E1
330
1F
100
AcDbEntity
  8
0
  6
SLD-Solid
 62
     7
370
    25
100
AcDbCircle
 10
58.37729546767022
 20
31.51644026869464
 30
0.0
 40
0.2305207211358446
100
AcDbArc
 50
122.6054783400269
 51
177.3945215143409
  0
LINE
  5
3E2
330
1F
100
AcDbEntity
  8
0
  6
SLD-Solid
 62
     7
370
    25
100
AcDbLine
 10
58.25307906964306
 20
31.71063112670332
 30
0.0
 11
58.68441420616685
 21
31.95963560080925
 31
0.0
  0
LINE
  5
3E3
330
1F
100
AcDbEntity
  8
0
  6
SLD-Solid
 62
     7
370
    25
100
AcDbLine
 10
58.57603596458726
 20
30.88585449137649
 30
0.0
 11
58.25307906964306
 21
30.6994154443919
 31
0.0
  0
ARC
  5
3E4
330
1F
100
AcDbEntity
  8
0
  6
SLD-Solid
 62
     7
370
    25
100
AcDbCircle
 10
58.21167420757907
 20
30.75017687825297
 30
0.0
 40
0.0655063796142832
100
AcDbArc
 50
170.7859630095492
 51
309.2032852357011
  0
LINE
  5
3E5
330
1F
100
AcDbEntity
  8
0
  6
SLD-Solid
 62
     7
370
    25
100
AcDbLine
 10
58.14701305246507
 20
31.52691939653375
 30
0.0
 11
58.14701305246507
 21
30.76066595778806
 31
0.0
  0
ARC
  5
3E6
330
1F
100
AcDbEntity
  8
0
  6
SLD-Solid
 62
     7
370
    25
100
AcDbCircle
 10
58.32779799298714
 20
31.54501455260847
 30
0.0
 40
0.230520721135801
100
AcDbArc
 50
122.6054783400276
 51
177.3945215143484
  0
LINE
  5
3E7
330
1F
100
AcDbEntity
  8
0
  6
SLD-Solid
 62
     7
370
    25
100
AcDbLine
 10
58.09751557778202
 20
31.55549368044755
 30
0.0
 11
58.09751557778202
 21
30.78924024170186
 31
0.0
  0
LINE
  5
3E8
330
1F
100
AcDbEntity
  8
0
  6
SLD-Solid
 62
     7
370
    25
100
AcDbLine
 10
58.20358159495999
 20
31.73920541061711
 30
0.0
 11
58.63491673148379
 21
31.98820988472304
 31
0.0
  0
ARC
  5
3E9
330
1F
100
AcDbEntity
  8
0
  6
SLD-Solid
 62
     7
370
    25
100
AcDbCircle
 10
58.73391168084991
 20
31.86410582486235
 30
0.0
 40
0.1075915335538302
100
AcDbArc
 50
62.60967223660219
 51
117.3903277633978
  0
ARC
  5
3EA
330
1F
100
AcDbEntity
  8
0
  6
SLD-Solid
 62
     7
370
    25
100
AcDbCircle
 10
58.73391168084989
 20
31.79715033282925
 30
0.0
 40
0.2151830671076574
100
AcDbArc
 50
62.60967223659752
 51
117.3903277633958
  0
ARC
  5
3EB
330
1F
100
AcDbEntity
  8
0
  6
SLD-Solid
 62
     7
370
    25
100
AcDbCircle
 10
58.17101586314951
 20
30.78112723110555
 30
0.0
 40
0.0739466895137162
100
AcDbArc
 50
173.7011524877183
 51
234.986667118901
  0
ARC
  5
3EC
330
1F
100
AcDbEntity
  8
0
  6
SLD-Solid
 62
     7
370
    25
100
AcDbCircle
 10
49.75343995554284
 20
36.57652689782969
 30
0.0
 40
0.2305207211357985
100
AcDbArc
 50
122.6054783400237
 51
177.3945215143484
  0
LINE
  5
3ED
330
1F
100
AcDbEntity
  8
0
  6
SLD-Solid
 62
     7
370
    25
100
AcDbLine
 10
49.98984801592085
 20
36.97890182435312
 30
0.0
 11
49.62922355751571
 21
36.77071775583833
 31
0.0
  0
LINE
  5
3EE
330
1F
100
AcDbEntity
  8
0
  6
SLD-Solid
 62
     7
370
    25
100
AcDbLine
 10
49.62922355751571
 20
35.75950207352692
 30
0.0
 11
49.98984801592085
 21
35.96768614204171
 31
0.0
  0
ARC
  5
3EF
330
1F
100
AcDbEntity
  8
0
  6
SLD-Solid
 62
     7
370
    25
100
AcDbCircle
 10
49.58781869545172
 20
35.81026350738797
 30
0.0
 40
0.0655063796142714
100
AcDbArc
 50
170.7859630095349
 51
309.2032852357177
  0
LINE
  5
3F0
330
1F
100
AcDbEntity
  8
0
  6
SLD-Solid
 62
     7
370
    25
100
AcDbLine
 10
49.52315754033773
 20
36.58700602566876
 30
0.0
 11
49.52315754033773
 21
35.82075258692307
 31
0.0
  0
ARC
  5
3F1
330
1F
100
AcDbEntity
  8
0
  6
SLD-Solid
 62
     7
370
    25
100
AcDbCircle
 10
49.70394248085976
 20
36.60510118174349
 30
0.0
 40
0.2305207211357751
100
AcDbArc
 50
122.6054783400212
 51
177.3945215143499
  0
LINE
  5
3F2
330
1F
100
AcDbEntity
  8
0
  6
SLD-Solid
 62
     7
370
    25
100
AcDbLine
 10
49.47366006565467
 20
36.61558030958256
 30
0.0
 11
49.47366006565467
 21
35.84932687083687
 31
0.0
  0
LINE
  5
3F3
330
1F
100
AcDbEntity
  8
0
  6
SLD-Solid
 62
     7
370
    25
100
AcDbLine
 10
49.94035054123779
 20
37.00747610826692
 30
0.0
 11
49.57972608283265
 21
36.79929203975212
 31
0.0
  0
ARC
  5
3F4
330
1F
100
AcDbEntity
  8
0
  6
SLD-Solid
 62
     7
370
    25
100
AcDbCircle
 10
49.96078907780608
 20
36.03182160263517
 30
0.0
 40
0.0704114989891126
100
AcDbArc
 50
294.3746582935742
 51
354.3052007488107
  0
ARC
  5
3F5
330
1F
100
AcDbEntity
  8
0
  6
SLD-Solid
 62
     7
370
    25
100
AcDbCircle
 10
49.96815823216943
 20
37.03605039218071
 30
0.0
 40
0.0611261443567963
100
AcDbArc
 50
290.7834207994677
 51
69.21657920053313
  0
ARC
  5
3F6
330
1F
100
AcDbEntity
  8
0
  6
SLD-Solid
 62
     7
370
    25
100
AcDbCircle
 10
49.92950564936208
 20
37.03605039218071
 30
0.0
 40
0.0305630721784027
100
AcDbArc
 50
290.7834207994762
 51
69.21657920052927
  0
LINE
  5
3F7
330
1F
100
AcDbEntity
  8
0
  6
SLD-Solid
 62
     7
370
    25
100
AcDbLine
 10
49.94035054123779
 20
37.06462467609451
 30
0.0
 11
48.22135516494978
 21
38.05697958395744
 31
0.0
  0
LINE
  5
3F8
330
1F
100
AcDbEntity
  8
0
  6
SLD-Solid
 62
     7
370
    25
100
AcDbLine
 10
49.98984801592085
 20
37.0931989600083
 30
0.0
 11
48.27085263963284
 21
38.08555386787124
 31
0.0
  0
ARC
  5
3F9
330
1F
100
AcDbEntity
  8
0
  6
SLD-Solid
 62
     7
370
    25
100
AcDbCircle
 10
49.54716035095871
 20
35.84121386021187
 30
0.0
 40
0.0739466894538099
100
AcDbArc
 50
173.7011524602363
 51
234.9866671464116
  0
ARC
  5
3FA
330
1F
100
AcDbEntity
  8
0
  6
SLD-Solid
 62
     7
370
    25
100
AcDbCircle
 10
47.815241477087
 20
37.61378425184288
 30
0.0
 40
0.2305207211357964
100
AcDbArc
 50
122.6054783400261
 51
177.3945215143484
  0
LINE
  5
3FB
330
1F
100
AcDbEntity
  8
0
  6
SLD-Solid
 62
     7
370
    25
100
AcDbLine
 10
47.69102507905986
 20
37.80797510985152
 30
0.0
 11
48.12236021558367
 21
38.05697958395744
 31
0.0
  0
LINE
  5
3FC
330
1F
100
AcDbEntity
  8
0
  6
SLD-Solid
 62
     7
370
    25
100
AcDbLine
 10
48.01398197400407
 20
36.98319847452469
 30
0.0
 11
47.69102507905986
 21
36.7967594275401
 31
0.0
  0
ARC
  5
3FD
330
1F
100
AcDbEntity
  8
0
  6
SLD-Solid
 62
     7
370
    25
100
AcDbCircle
 10
47.64962021699588
 20
36.84752086140115
 30
0.0
 40
0.0655063796142726
100
AcDbArc
 50
170.7859630095288
 51
309.2032852357129
  0
LINE
  5
3FE
330
1F
100
AcDbEntity
  8
0
  6
SLD-Solid
 62
     7
370
    25
100
AcDbLine
 10
47.58495906188189
 20
37.62426337968196
 30
0.0
 11
47.58495906188189
 21
36.85800994093626
 31
0.0
  0
ARC
  5
3FF
330
1F
100
AcDbEntity
  8
0
  6
SLD-Solid
 62
     7
370
    25
100
AcDbCircle
 10
47.76574400240398
 20
37.64235853575664
 30
0.0
 40
0.2305207211358416
100
AcDbArc
 50
122.6054783400273
 51
177.3945215143418
  0
LINE
  5
400
330
1F
100
AcDbEntity
  8
0
  6
SLD-Solid
 62
     7
370
    25
100
AcDbLine
 10
47.53546158719882
 20
37.65283766359575
 30
0.0
 11
47.53546158719882
 21
36.88658422485005
 31
0.0
  0
LINE
  5
401
330
1F
100
AcDbEntity
  8
0
  6
SLD-Solid
 62
     7
370
    25
100
AcDbLine
 10
47.64152760437681
 20
37.83654939376532
 30
0.0
 11
48.0728627409006
 21
38.08555386787124
 31
0.0
  0
ARC
  5
402
330
1F
100
AcDbEntity
  8
0
  6
SLD-Solid
 62
     7
370
    25
100
AcDbCircle
 10
48.17185769026672
 20
37.96144980801063
 30
0.0
 40
0.1075915335537481
100
AcDbArc
 50
62.60967223657956
 51
117.3903277634171
  0
ARC
  5
403
330
1F
100
AcDbEntity
  8
0
  6
SLD-Solid
 62
     7
370
    25
100
AcDbCircle
 10
48.17185769026672
 20
37.89449431597742
 30
0.0
 40
0.2151830671076825
100
AcDbArc
 50
62.60967223660312
 51
117.3903277633952
  0
ARC
  5
404
330
1F
100
AcDbEntity
  8
0
  6
SLD-Solid
 62
     7
370
    25
100
AcDbCircle
 10
47.60896187256638
 20
36.87847121425377
 30
0.0
 40
0.0739466895137763
100
AcDbArc
 50
173.7011524877484
 51
234.9866671188731
  0
ARC
  5
405
330
1F
100
AcDbEntity
  8
0
  6
SLD-Solid
 62
     7
370
    25
100
AcDbCircle
 10
62.05607965302186
 20
30.42735606192159
 30
0.0
 40
0.1157845375550111
100
AcDbArc
 50
255.7893082635036
 51
284.2106917260339
  0
ARC
  5
406
330
1F
100
AcDbEntity
  8
0
  6
SLD-Solid
 62
     7
370
    25
100
AcDbCircle
 10
62.05607965302185
 20
30.3924159528287
 30
0.0
 40
0.0635499621479625
100
AcDbArc
 50
247.7364700913629
 51
292.2635299042215
  0
ARC
  5
407
330
1F
100
AcDbEntity
  8
0
  6
SLD-Solid
 62
     7
370
    25
100
AcDbCircle
 10
62.05607965302173
 20
29.20253747583225
 30
0.0
 40
0.1157773037303215
100
AcDbArc
 50
255.7737505382466
 51
284.2262494613414
  0
LINE
  5
408
330
1F
100
AcDbEntity
  8
0
  6
SLD-Solid
 62
     7
370
    25
100
AcDbLine
 10
54.4746571073121
 20
33.44641348773518
 30
0.0
 11
54.47468036060624
 21
33.21672807083915
 31
0.0
  0
LINE
  5
409
330
1F
100
AcDbEntity
  8
0
  6
SLD-Solid
 62
     7
370
    25
100
AcDbLine
 10
55.14629181015597
 20
32.8290150337181
 30
0.0
 11
55.14629181015598
 21
33.01318920012351
 31
0.0
  0
LINE
  5
40A
330
1F
100
AcDbEntity
  8
0
  6
SLD-Solid
 62
     7
370
    25
100
AcDbLine
 10
55.18164714921529
 20
32.84942523651367
 30
0.0
 11
55.14629181015597
 21
32.8290150337181
 31
0.0
  0
LINE
  5
40B
330
1F
100
AcDbEntity
  8
0
  6
SLD-Solid
 62
     7
370
    25
100
AcDbLine
 10
55.18164714921529
 20
32.84942523651367
 30
0.0
 11
55.1816471492153
 21
32.99071771696767
 31
0.0
  0
ARC
  5
40C
330
1F
100
AcDbEntity
  8
0
  6
SLD-Solid
 62
     7
370
    25
100
AcDbCircle
 10
52.70535450400382
 20
30.03933848353971
 30
0.0
 40
2.777977434928276
100
AcDbArc
 50
52.8184972051877
 51
60.01302696824973
  0
ARC
  5
40D
330
1F
100
AcDbEntity
  8
0
  6
SLD-Solid
 62
     7
370
    25
100
AcDbCircle
 10
52.73243826502284
 20
30.08121672180554
 30
0.0
 40
2.777977434931726
100
AcDbArc
 50
52.81849720519017
 51
60.01302696824342
  0
LINE
  5
40E
330
1F
100
AcDbEntity
  8
0
  6
SLD-Solid
 62
     7
370
    25
100
AcDbLine
 10
53.82331003479633
 20
32.55190513230058
 30
0.0
 11
53.71891567761309
 21
32.63531055154901
 31
0.0
  0
LWPOLYLINE
  5
40F
330
1F
100
AcDbEntity
  8
0
  6
SLD-Solid
 62
     7
370
    25
100
AcDbPolyline
 90
        9
 70
   128
 43
0.0
 10
53.71891567761309
 20
32.63531055154901
 10
53.69757827569227
 20
32.65273035269618
 10
53.68412496293716
 20
32.66544541409139
 10
53.67910918188853
 20
32.6729326633871
 10
53.68273727180708
 20
32.67488409003237
 10
53.69485998028639
 20
32.67121941621456
 10
53.71497860320027
 20
32.66208939932896
 10
53.74226550039901
 20
32.64786963011924
 10
53.77559814317977
 20
32.62914508162097
  0
LINE
  5
410
330
1F
100
AcDbEntity
  8
0
  6
SLD-Solid
 62
     7
370
    25
100
AcDbLine
 10
53.77559814317977
 20
32.62914508162097
 30
0.0
 11
54.09379619471371
 21
32.44545325646085
 31
0.0
  0
LINE
  5
411
330
1F
100
AcDbEntity
  8
0
  6
SLD-Solid
 62
     7
370
    25
100
AcDbLine
 10
54.38420275942836
 20
32.25262273194267
 30
0.0
 11
54.49481704833184
 21
32.16425238480724
 31
0.0
  0
LINE
  5
412
330
1F
100
AcDbEntity
  8
0
  6
SLD-Solid
 62
     7
370
    25
100
AcDbLine
 10
54.49481704833184
 20
32.16425238480724
 30
0.0
 11
53.82331003479633
 21
32.55190513230058
 31
0.0
  0
LINE
  5
413
330
1F
100
AcDbEntity
  8
0
  6
SLD-Solid
 62
     7
370
    25
100
AcDbLine
 10
53.80268190420076
 20
32.67102331988963
 30
0.0
 11
54.12087995573471
 21
32.48733149472951
 31
0.0
  0
LINE
  5
414
330
1F
100
AcDbEntity
  8
0
  6
SLD-Solid
 62
     7
370
    25
100
AcDbLine
 10
54.41128652044937
 20
32.29450097021132
 30
0.0
 11
54.52190080935282
 21
32.20613062307588
 31
0.0
  0
LWPOLYLINE
  5
415
330
1F
100
AcDbEntity
  8
0
  6
SLD-Solid
 62
     7
370
    25
100
AcDbPolyline
 90
       16
 70
   128
 43
0.0
 10
55.18164714921529
 20
32.84942523651367
 10
55.17649859348665
 20
32.77361934740512
 10
55.16118924428008
 20
32.69387617003959
 10
55.13612444625128
 20
32.61230705940267
 10
55.10196783844787
 20
32.53107171559789
 10
55.05962378318095
 20
32.45232100160583
 10
55.01021342128225
 20
32.37813999502307
 10
54.9550449877304
 20
32.31049278159662
 10
54.89557917359733
 20
32.25117045225172
 10
54.83339045142465
 20
32.20174368049246
 10
54.77012538801525
 20
32.16352113578024
 10
54.70745904838981
 20
32.13751483397657
 10
54.64705064519782
 20
32.12441334226406
 10
54.59049960785088
 20
32.12456354799733
 10
54.53930323453281
 20
32.13796147418881
 10
54.49481704833184
 20
32.16425238480724
  0
LINE
  5
416
330
1F
100
AcDbEntity
  8
0
  6
SLD-Solid
 62
     7
370
    25
100
AcDbLine
 10
53.82331003479633
 20
32.55190513230058
 30
0.0
 11
53.84868676948096
 21
32.54085631731342
 31
0.0
  0
LWPOLYLINE
  5
417
330
1F
100
AcDbEntity
  8
0
  6
SLD-Solid
 62
     7
370
    25
100
AcDbPolyline
 90
       15
 70
   128
 43
0.0
 10
55.14629181015597
 20
32.8290150337181
 10
55.14092053972271
 20
32.75501885331138
 10
55.12496993175704
 20
32.67706947256361
 10
55.0989246374106
 20
32.59753534396453
 10
55.06357602977255
 20
32.51883307176541
 10
55.01999815839872
 20
32.44335398468176
 10
54.96951511485934
 20
32.37339147658035
 10
54.91366080088669
 20
32.31107132286711
 10
54.85413232154718
 20
32.25828708987707
 10
54.7927384195627
 20
32.21664259981955
 10
54.73134451757821
 20
32.18740319945181
 10
54.67181603823871
 20
32.17145731315818
 10
54.61596172426606
 20
32.16928944862467
 10
54.56547868072668
 20
32.18096547531815
 10
54.52190080935282
 20
32.20613062307588
  0
SPLINE
  5
418
330
1F
100
AcDbEntity
  8
0
  6
SLD-Solid
 62
     7
370
    25
100
AcDbSpline
210
0.0
220
0.0
230
1.0
 70
    12
 71
     3
 72
    14
 73
    10
 74
     0
 42
0.00000001
 43
0.00000001
 40
0.0
 40
0.0
 40
0.0
 40
0.0
 40
0.0624248289565325
 40
0.2186873574637749
 40
0.3749498859710182
 40
0.5312124144782595
 40
0.6874749429855015
 40
0.8437374714927441
 40
1.0
 40
1.0
 40
1.0
 40
1.0
 10
53.99037158352047
 20
32.56267237433308
 30
0.0
 41
1.0
 10
54.00330552223738
 20
32.56288114526305
 30
0.0
 41
1.0
 10
54.04861584069367
 20
32.5636125139148
 30
0.0
 41
1.0
 10
54.13736096323773
 20
32.6090061572996
 30
0.0
 41
1.0
 10
54.24383445842135
 20
32.69337946775563
 30
0.0
 41
1.0
 10
54.33991061914141
 20
32.81000126272355
 30
0.0
 41
1.0
 10
54.41489786985361
 20
32.94431659841879
 30
0.0
 41
1.0
 10
54.46510027156216
 20
33.08649602007116
 30
0.0
 41
1.0
 10
54.47148699759154
 20
33.17331738724982
 30
0.0
 41
1.0
 10
54.47468036060624
 20
33.21672807083915
 30
0.0
 41
1.0
  0
ARC
  5
419
330
1F
100
AcDbEntity
  8
0
  6
SLD-Solid
 62
     7
370
    25
100
AcDbCircle
 10
53.63811246635283
 20
32.44429813891129
 30
0.0
 40
0.2801560414541255
100
AcDbArc
 50
54.02581899588365
 51
75.8947861917812
  0
LINE
  5
41A
330
1F
100
AcDbEntity
  8
0
  6
SLD-Solid
 62
     7
370
    25
100
AcDbLine
 10
43.58391230853
 20
39.73350663553209
 30
0.0
 11
43.58393556182413
 21
39.50382121863577
 31
0.0
  0
LINE
  5
41B
330
1F
100
AcDbEntity
  8
0
  6
SLD-Solid
 62
     7
370
    25
100
AcDbLine
 10
44.25554701137387
 20
39.11610818151472
 30
0.0
 11
44.25554701137388
 21
39.30020200781332
 31
0.0
  0
LINE
  5
41C
330
1F
100
AcDbEntity
  8
0
  6
SLD-Solid
 62
     7
370
    25
100
AcDbLine
 10
44.29090235043319
 20
39.13651838431028
 30
0.0
 11
44.2909023504332
 21
39.27781086476461
 31
0.0
  0
ARC
  5
41D
330
1F
100
AcDbEntity
  8
0
  6
SLD-Solid
 62
     7
370
    25
100
AcDbCircle
 10
41.81460970522228
 20
36.32643163133708
 30
0.0
 40
2.777977434927333
100
AcDbArc
 50
52.8184972051875
 51
60.01302696825187
  0
ARC
  5
41E
330
1F
100
AcDbEntity
  8
0
  6
SLD-Solid
 62
     7
370
    25
100
AcDbCircle
 10
41.84169346624075
 20
36.36830986960209
 30
0.0
 40
2.777977434931765
100
AcDbArc
 50
52.81849720519115
 51
60.01302696824421
  0
LINE
  5
41F
330
1F
100
AcDbEntity
  8
0
  6
SLD-Solid
 62
     7
370
    25
100
AcDbLine
 10
42.93256523601423
 20
38.83899828009719
 30
0.0
 11
42.82817087883099
 21
38.92240369934562
 31
0.0
  0
LWPOLYLINE
  5
420
330
1F
100
AcDbEntity
  8
0
  6
SLD-Solid
 62
     7
370
    25
100
AcDbPolyline
 90
        9
 70
   128
 43
0.0
 10
42.82817087883099
 20
38.92240369934562
 10
42.80683347691017
 20
38.93982350049279
 10
42.79338016415505
 20
38.952538561888
 10
42.78836438310643
 20
38.96002581118371
 10
42.79199247302497
 20
38.96197723782898
 10
42.80411518150429
 20
38.95831256401117
 10
42.82423380441816
 20
38.94918254712557
 10
42.85152070161691
 20
38.93496277791585
 10
42.88485334439766
 20
38.91623822941758
  0
LINE
  5
421
330
1F
100
AcDbEntity
  8
0
  6
SLD-Solid
 62
     7
370
    25
100
AcDbLine
 10
42.88485334439766
 20
38.91623822941758
 30
0.0
 11
43.20305139593161
 21
38.73254640425746
 31
0.0
  0
LINE
  5
422
330
1F
100
AcDbEntity
  8
0
  6
SLD-Solid
 62
     7
370
    25
100
AcDbLine
 10
43.49345796064626
 20
38.53971587973928
 30
0.0
 11
43.60407224954974
 21
38.45134553260385
 31
0.0
  0
LINE
  5
423
330
1F
100
AcDbEntity
  8
0
  6
SLD-Solid
 62
     7
370
    25
100
AcDbLine
 10
43.60407224954974
 20
38.45134553260385
 30
0.0
 11
42.93256523601423
 21
38.83899828009719
 31
0.0
  0
LINE
  5
424
330
1F
100
AcDbEntity
  8
0
  6
SLD-Solid
 62
     7
370
    25
100
AcDbLine
 10
42.91193710541865
 20
38.95811646768625
 30
0.0
 11
43.23013515695261
 21
38.77442464252612
 31
0.0
  0
LINE
  5
425
330
1F
100
AcDbEntity
  8
0
  6
SLD-Solid
 62
     7
370
    25
100
AcDbLine
 10
43.52054172166726
 20
38.58159411800793
 30
0.0
 11
43.63115601057072
 21
38.49322377087249
 31
0.0
  0
LWPOLYLINE
  5
426
330
1F
100
AcDbEntity
  8
0
  6
SLD-Solid
 62
     7
370
    25
100
AcDbPolyline
 90
       16
 70
   128
 43
0.0
 10
44.29090235043319
 20
39.13651838431028
 10
44.28575379470455
 20
39.06071249520173
 10
44.27044444549798
 20
38.98096931783621
 10
44.24537964746918
 20
38.89940020719928
 10
44.21122303966577
 20
38.8181648633945
 10
44.16887898439884
 20
38.73941414940244
 10
44.11946862250014
 20
38.66523314281968
 10
44.06430018894829
 20
38.59758592939323
 10
44.00483437481523
 20
38.53826360004834
 10
43.94264565264255
 20
38.48883682828907
 10
43.87938058923315
 20
38.45061428357685
 10
43.81671424960771
 20
38.42460798177319
 10
43.75630584641572
 20
38.41150649006067
 10
43.69975480906878
 20
38.41165669579394
 10
43.64855843575072
 20
38.42505462198542
 10
43.60407224954974
 20
38.45134553260385
  0
LINE
  5
427
330
1F
100
AcDbEntity
  8
0
  6
SLD-Solid
 62
     7
370
    25
100
AcDbLine
 10
42.93256523601423
 20
38.83899828009719
 30
0.0
 11
42.95794197069885
 21
38.82794946511003
 31
0.0
  0
LWPOLYLINE
  5
428
330
1F
100
AcDbEntity
  8
0
  6
SLD-Solid
 62
     7
370
    25
100
AcDbPolyline
 90
       15
 70
   128
 43
0.0
 10
44.25554701137387
 20
39.11610818151472
 10
44.25017574094061
 20
39.04211200110799
 10
44.23422513297493
 20
38.96416262036022
 10
44.2081798386285
 20
38.88462849176114
 10
44.17283123099045
 20
38.80592621956203
 10
44.12925335961662
 20
38.73044713247838
 10
44.07877031607724
 20
38.66048462437696
 10
44.02291600210459
 20
38.59816447066372
 10
43.96338752276508
 20
38.54538023767368
 10
43.90199362078059
 20
38.50373574761616
 10
43.84059971879611
 20
38.47449634724843
 10
43.78107123945661
 20
38.45855046095479
 10
43.72521692548396
 20
38.45638259642128
 10
43.67473388194457
 20
38.46805862311476
 10
43.63115601057072
 20
38.49322377087249
  0
SPLINE
  5
429
330
1F
100
AcDbEntity
  8
0
  6
SLD-Solid
 62
     7
370
    25
100
AcDbSpline
210
0.0
220
0.0
230
1.0
 70
    12
 71
     3
 72
    14
 73
    10
 74
     0
 42
0.00000001
 43
0.00000001
 40
0.0
 40
0.0
 40
0.0
 40
0.0
 40
0.062424828956534
 40
0.2186873574637757
 40
0.3749498859710187
 40
0.53121241447826
 40
0.6874749429855017
 40
0.8437374714927441
 40
1.0
 40
1.0
 40
1.0
 40
1.0
 10
43.09962678473837
 20
38.84976552212969
 30
0.0
 41
1.0
 10
43.11256072345527
 20
38.84997429305967
 30
0.0
 41
1.0
 10
43.15787104191157
 20
38.85070566171142
 30
0.0
 41
1.0
 10
43.24661616445562
 20
38.89609930509621
 30
0.0
 41
1.0
 10
43.35308965963924
 20
38.98047261555224
 30
0.0
 41
1.0
 10
43.4491658203593
 20
39.09709441052016
 30
0.0
 41
1.0
 10
43.5241530710715
 20
39.2314097462154
 30
0.0
 41
1.0
 10
43.57435547278006
 20
39.37358916786778
 30
0.0
 41
1.0
 10
43.58074219880944
 20
39.46041053504644
 30
0.0
 41
1.0
 10
43.58393556182413
 20
39.50382121863577
 30
0.0
 41
1.0
  0
ARC
  5
42A
330
1F
100
AcDbEntity
  8
0
  6
SLD-Solid
 62
     7
370
    25
100
AcDbCircle
 10
42.74736766757052
 20
38.73139128670751
 30
0.0
 40
0.2801560414545586
100
AcDbArc
 50
54.02581899589767
 51
75.89478619175979
  0
ARC
  5
42B
330
1F
100
AcDbEntity
  8
0
  6
SLD-Solid
 62
     7
370
    25
100
AcDbCircle
 10
61.99413962897518
 20
30.29410035167794
 30
0.0
 40
0.1152603605677951
100
AcDbArc
 50
2.605478485608031
 51
57.3945216599851
  0
ARC
  5
42C
330
1F
100
AcDbEntity
  8
0
  6
SLD-Solid
 62
     7
370
    25
100
AcDbCircle
 10
62.02312345518144
 20
30.31083262346389
 30
0.0
 40
0.0614721923028688
100
AcDbArc
 50
2.605478485640346
 51
57.39452165997456
  0
LINE
  5
42D
330
1F
100
AcDbEntity
  8
0
  6
SLD-Solid
 62
     7
370
    25
100
AcDbLine
 10
62.05624782798867
 20
30.36261685226619
 30
0.0
 11
62.05624782798867
 21
30.39119578068219
 31
0.0
  0
ARC
  5
42E
330
1F
100
AcDbEntity
  8
0
  6
SLD-Solid
 62
     7
370
    25
100
AcDbCircle
 10
67.64745834456154
 20
33.55769177868907
 30
0.0
 40
0.1152603605680767
100
AcDbArc
 50
2.605478485672338
 51
57.3945216599051
  0
LINE
  5
42F
330
1F
100
AcDbEntity
  8
0
  6
SLD-Solid
 62
     7
370
    25
100
AcDbLine
 10
62.10928083657763
 20
30.29933991559739
 30
0.0
 11
67.76259955216427
 21
33.56293134260866
 31
0.0
  0
ARC
  5
430
330
1F
100
AcDbEntity
  8
0
  6
SLD-Solid
 62
     7
370
    25
100
AcDbCircle
 10
36.79285264285715
 20
44.91400808704248
 30
0.0
 40
0.115260360567892
100
AcDbArc
 50
122.6054783400344
 51
177.3945215143482
  0
ARC
  5
431
330
1F
100
AcDbEntity
  8
0
  6
SLD-Solid
 62
     7
370
    25
100
AcDbCircle
 10
62.11801967706755
 20
30.29410035167784
 30
0.0
 40
0.1152603605679142
100
AcDbArc
 50
122.605478340019
 51
177.3945215143381
  0
LINE
  5
432
330
1F
100
AcDbEntity
  8
0
  6
SLD-Solid
 62
     7
370
    25
100
AcDbLine
 10
36.6777114352546
 20
44.91924765096201
 30
0.0
 11
62.00287846946498
 21
30.2993399155974
 31
0.0
  0
LINE
  5
433
330
1F
100
AcDbEntity
  8
0
  6
SLD-Solid
 62
     7
370
    25
100
AcDbLine
 10
62.05591147805399
 20
30.39119578068219
 30
0.0
 11
62.05591147805397
 21
30.36261685226619
 31
0.0
  0
ARC
  5
434
330
1F
100
AcDbEntity
  8
0
  6
SLD-Solid
 62
     7
370
    25
100
AcDbCircle
 10
62.0890358508612
 20
30.31083262346389
 30
0.0
 40
0.0614721923028688
100
AcDbArc
 50
122.6054783400255
 51
177.3945215143597
  0
LINE
  5
435
330
1F
100
AcDbEntity
  8
0
  6
SLD-Solid
 62
     7
370
    25
100
AcDbLine
 10
62.05607965302132
 20
30.39129286602432
 30
0.0
 11
62.05591147805399
 21
30.39119578068219
 31
0.0
  0
LINE
  5
436
330
1F
100
AcDbEntity
  8
0
  6
SLD-Solid
 62
     7
370
    25
100
AcDbLine
 10
36.73074444384357
 20
45.01110351604678
 30
0.0
 11
36.73091261881091
 21
45.01120060138891
 31
0.0
  0
LINE
  5
437
330
1F
100
AcDbEntity
  8
0
  6
SLD-Solid
 62
     7
370
    25
100
AcDbLine
 10
36.73091261881091
 20
45.01120060138891
 30
0.0
 11
36.73074444384357
 21
45.01129768673105
 31
0.0
  0
LINE
  5
438
330
1F
100
AcDbEntity
  8
0
  6
SLD-Solid
 62
     7
370
    25
100
AcDbLine
 10
42.38406315943021
 20
48.27488911374231
 30
0.0
 11
42.38423133439756
 21
48.27479202840019
 31
0.0
  0
LINE
  5
439
330
1F
100
AcDbEntity
  8
0
  6
SLD-Solid
 62
     7
370
    25
100
AcDbLine
 10
42.38423133439756
 20
48.27479202840019
 30
0.0
 11
42.38487961825773
 21
48.27516627470661
 31
0.0
  0
LINE
  5
43A
330
1F
100
AcDbEntity
  8
0
  6
SLD-Solid
 62
     7
370
    25
100
AcDbLine
 10
67.71004665246815
 20
33.65525853934201
 30
0.0
 11
67.70939836860798
 21
33.65488429303559
 31
0.0
  0
LINE
  5
43B
330
1F
100
AcDbEntity
  8
0
  6
SLD-Solid
 62
     7
370
    25
100
AcDbLine
 10
67.70939836860798
 20
33.65488429303559
 30
0.0
 11
67.70956654357532
 21
33.65478720769346
 31
0.0
  0
LINE
  5
43C
330
1F
100
AcDbEntity
  8
0
  6
SLD-Solid
 62
     7
370
    25
100
AcDbLine
 10
62.05624782798867
 20
30.39119578068219
 30
0.0
 11
62.05607965302132
 21
30.39129286602432
 31
0.0
  0
LINE
  5
43D
330
1F
100
AcDbEntity
  8
0
  6
SLD-Solid
 62
     7
370
    25
100
AcDbLine
 10
62.00287846946498
 20
30.2993399155974
 30
0.0
 11
62.00287846946499
 21
29.07596757714756
 31
0.0
  0
LINE
  5
43E
330
1F
100
AcDbEntity
  8
0
  6
SLD-Solid
 62
     7
370
    25
100
AcDbLine
 10
62.00287846946499
 20
29.07596757714756
 30
0.0
 11
61.68468041793105
 21
29.25965940230768
 31
0.0
  0
LINE
  5
43F
330
1F
100
AcDbEntity
  8
0
  6
SLD-Solid
 62
     7
370
    25
100
AcDbLine
 10
61.68468041793105
 20
29.25965940230768
 30
0.0
 11
61.68468041793105
 21
29.25908955434435
 31
0.0
  0
LINE
  5
440
330
1F
100
AcDbEntity
  8
0
  6
SLD-Solid
 62
     7
370
    25
100
AcDbLine
 10
55.13927766487052
 20
33.06273620665722
 30
0.0
 11
55.1392776648705
 21
33.03767013433733
 31
0.0
  0
LINE
  5
441
330
1F
100
AcDbEntity
  8
0
  6
SLD-Solid
 62
     7
370
    25
100
AcDbLine
 10
54.43217088368398
 20
33.4709402625686
 30
0.0
 11
55.13927766487052
 21
33.06273620665722
 31
0.0
  0
LINE
  5
442
330
1F
100
AcDbEntity
  8
0
  6
SLD-Solid
 62
     7
370
    25
100
AcDbLine
 10
54.43217088368397
 20
33.44587419024871
 30
0.0
 11
54.43217088368398
 21
33.4709402625686
 31
0.0
  0
LINE
  5
443
330
1F
100
AcDbEntity
  8
0
  6
SLD-Solid
 62
     7
370
    25
100
AcDbLine
 10
44.2484190210355
 20
39.34989507580428
 30
0.0
 11
44.24841902103549
 21
39.32482900348437
 31
0.0
  0
LINE
  5
444
330
1F
100
AcDbEntity
  8
0
  6
SLD-Solid
 62
     7
370
    25
100
AcDbLine
 10
43.54131223984898
 20
39.75809913171564
 30
0.0
 11
44.2484190210355
 21
39.34989507580428
 31
0.0
  0
LINE
  5
445
330
1F
100
AcDbEntity
  8
0
  6
SLD-Solid
 62
     7
370
    25
100
AcDbLine
 10
43.54131223984898
 20
39.73303305939573
 30
0.0
 11
43.54131223984898
 21
39.75809913171564
 31
0.0
  0
LINE
  5
446
330
1F
100
AcDbEntity
  8
0
  6
SLD-Solid
 62
     7
370
    25
100
AcDbLine
 10
36.97340759661564
 20
43.52517355204756
 30
0.0
 11
36.6777114352546
 21
43.69587531251216
 31
0.0
  0
LINE
  5
447
330
1F
100
AcDbEntity
  8
0
  6
SLD-Solid
 62
     7
370
    25
100
AcDbLine
 10
36.6777114352546
 20
43.69587531251216
 30
0.0
 11
36.6777114352546
 21
44.91924765096201
 31
0.0
  0
LINE
  5
448
330
1F
100
AcDbEntity
  8
0
  6
SLD-Solid
 62
     7
370
    25
100
AcDbLine
 10
67.76259955216427
 20
33.56293134260866
 30
0.0
 11
67.76259955216427
 21
32.32656227770671
 31
0.0
  0
LINE
  5
449
330
1F
100
AcDbEntity
  8
0
  6
SLD-Solid
 62
     7
370
    25
100
AcDbLine
 10
62.10928083657762
 20
29.06297085069544
 30
0.0
 11
62.10928083657763
 21
30.29933991559739
 31
0.0
  0
LINE
  5
44A
330
1F
100
AcDbEntity
  8
0
  6
SLD-Solid
 62
     7
370
    25
100
AcDbLine
 10
62.08453209923613
 20
29.07725799265235
 30
0.0
 11
62.08453209923613
 21
30.3136270575543
 31
0.0
  0
LINE
  5
44B
330
1F
100
AcDbEntity
  8
0
  6
SLD-Solid
 62
     7
370
    25
100
AcDbLine
 10
62.02762720680651
 20
30.3136270575543
 30
0.0
 11
62.02762720680652
 21
29.09025471910445
 31
0.0
  0
LINE
  5
44C
330
1F
100
AcDbEntity
  8
0
  6
SLD-Solid
 62
     7
370
    25
100
AcDbLine
 10
62.00287846946499
 20
29.07596757714756
 30
0.0
 11
62.02762720680652
 21
29.09025471910445
 31
0.0
  0
LINE
  5
44D
330
1F
100
AcDbEntity
  8
0
  6
SLD-Solid
 62
     7
370
    25
100
AcDbLine
 10
62.05607965302132
 20
30.39129286602432
 30
0.0
 11
62.05607965302132
 21
30.36271393760831
 31
0.0
  0
LINE
  5
44E
330
1F
100
AcDbEntity
  8
0
  6
SLD-Solid
 62
     7
370
    25
100
AcDbLine
 10
62.05607965302132
 20
30.36271393760831
 30
0.0
 11
62.05591147805397
 21
30.36261685226619
 31
0.0
  0
LINE
  5
44F
330
1F
100
AcDbEntity
  8
0
  6
SLD-Solid
 62
     7
370
    25
100
AcDbLine
 10
62.05624782798867
 20
30.36261685226619
 30
0.0
 11
62.05607965302132
 21
30.36271393760831
 31
0.0
  0
ARC
  5
450
330
1F
100
AcDbEntity
  8
0
  6
SLD-Solid
 62
     7
370
    25
100
AcDbCircle
 10
62.08061608828693
 20
29.05832096740547
 30
0.0
 40
0.029039442301449
100
AcDbArc
 50
230.7967147643029
 51
9.21403699045583
  0
ARC
  5
451
330
1F
100
AcDbEntity
  8
0
  6
SLD-Solid
 62
     7
370
    25
100
AcDbCircle
 10
67.7300163547655
 20
32.32296572262791
 30
0.0
 40
0.0327810915187916
100
AcDbArc
 50
305.0133329076974
 51
6.298847485658232
  0
ARC
  5
452
330
1F
100
AcDbEntity
  8
0
  6
SLD-Solid
 62
     7
370
    25
100
AcDbCircle
 10
62.07095495380537
 20
29.07505556125391
 30
0.0
 40
0.0137546203914607
100
AcDbArc
 50
230.7967147643084
 51
9.21403699042452
  0
LINE
  5
453
330
1F
100
AcDbEntity
  8
0
  6
SLD-Solid
 62
     7
370
    25
100
AcDbLine
 10
62.02254823836584
 20
29.08732269303358
 30
0.0
 11
62.06226101951371
 21
29.06439699246417
 31
0.0
  0
LINE
  5
454
330
1F
100
AcDbEntity
  8
0
  6
SLD-Solid
 62
     7
370
    25
100
AcDbLine
 10
61.80351876052044
 20
29.18518679076223
 30
0.0
 11
62.06226101951368
 21
29.03581806404816
 31
0.0
  0
LINE
  5
455
330
1F
100
AcDbEntity
  8
0
  6
SLD-Solid
 62
     7
370
    25
100
AcDbLine
 10
61.80351876052044
 20
29.18518679076223
 30
0.0
 11
61.80351876052045
 21
29.1910554874062
 31
0.0
  0
ARC
  5
456
330
1F
100
AcDbEntity
  8
0
  6
SLD-Solid
 62
     7
370
    25
100
AcDbCircle
 10
55.17090888157792
 20
33.0336428648845
 30
0.0
 40
0.0318865609565824
100
AcDbArc
 50
172.7441704556884
 51
235.9436491509614
  0
ARC
  5
457
330
1F
100
AcDbEntity
  8
0
  6
SLD-Solid
 62
     7
370
    25
100
AcDbCircle
 10
61.71334516622174
 20
29.25443967105437
 30
0.0
 40
0.0290394423014431
100
AcDbArc
 50
170.7859630095281
 51
309.2032852356681
  0
LINE
  5
458
330
1F
100
AcDbEntity
  8
0
  6
SLD-Solid
 62
     7
370
    25
100
AcDbLine
 10
61.73170023499497
 20
29.23193676769705
 30
0.0
 11
61.73220143394914
 21
29.23222610369461
 31
0.0
  0
ARC
  5
459
330
1F
100
AcDbEntity
  8
0
  6
SLD-Solid
 62
     7
370
    25
100
AcDbCircle
 10
42.40435764867675
 20
48.24797727608924
 30
0.0
 40
0.0334460059621436
100
AcDbArc
 50
65.69288095391124
 51
125.6175774752265
  0
ARC
  5
45A
330
1F
100
AcDbEntity
  8
0
  6
SLD-Solid
 62
     7
370
    25
100
AcDbCircle
 10
67.72840172124138
 20
33.63275563598469
 30
0.0
 40
0.0290394423014484
100
AcDbArc
 50
350.7859630095519
 51
129.2032852356629
  0
LINE
  5
45B
330
1F
100
AcDbEntity
  8
0
  6
SLD-Solid
 62
     7
370
    25
100
AcDbLine
 10
67.75706646953209
 20
33.59336072843995
 30
0.0
 11
67.75706646953208
 21
33.62810575269472
 31
0.0
  0
LWPOLYLINE
  5
45C
330
1F
100
AcDbEntity
  8
0
  6
SLD-Solid
 62
     7
370
    25
100
AcDbPolyline
 90
        9
 70
   128
 43
0.0
 10
54.47466015006056
 20
33.41635860850649
 10
54.4700175894958
 20
33.41446917600608
 10
54.46119699576473
 20
33.41246695275673
 10
54.45306789002518
 20
33.41279167817002
 10
54.44594266925186
 20
33.4154308732304
 10
54.44009515168324
 20
33.4202831151518
 10
54.43575005414013
 20
33.42716193499833
 10
54.43307435628436
 20
33.43580298358099
 10
54.43217088368397
 20
33.44587419024871
  0
ARC
  5
45D
330
1F
100
AcDbEntity
  8
0
  6
SLD-Solid
 62
     7
370
    25
100
AcDbCircle
 10
54.46998533854887
 20
33.45718172402486
 30
0.0
 40
0.0128401452908608
100
AcDbArc
 50
182.986088983744
 51
291.3368391207635
  0
ARC
  5
45E
330
1F
100
AcDbEntity
  8
0
  6
SLD-Solid
 62
     7
370
    25
100
AcDbCircle
 10
44.28005023772584
 20
39.32080173402381
 30
0.0
 40
0.0318865609406201
100
AcDbArc
 50
172.7441704380337
 51
235.9436491686111
  0
LWPOLYLINE
  5
45F
330
1F
100
AcDbEntity
  8
0
  6
SLD-Solid
 62
     7
370
    25
100
AcDbPolyline
 90
        9
 70
   128
 43
0.0
 10
43.58391533924387
 20
39.70357062841182
 10
43.57915894566079
 20
39.70162804515311
 10
43.57033835192972
 20
39.69962582190376
 10
43.56220924619017
 20
39.69995054731705
 10
43.55508402541685
 20
39.70258974237743
 10
43.54923650784823
 20
39.70744198429882
 10
43.54489141030511
 20
39.71432080414536
 10
43.54221571244935
 20
39.72296185272802
 10
43.54131223984898
 20
39.73303305939573
  0
ARC
  5
460
330
1F
100
AcDbEntity
  8
0
  6
SLD-Solid
 62
     7
370
    25
100
AcDbCircle
 10
43.57913447931593
 20
39.74434604837761
 30
0.0
 40
0.0128482044932359
100
AcDbArc
 50
183.0085746850471
 51
291.831363606814
  0
ARC
  5
461
330
1F
100
AcDbEntity
  8
0
  6
SLD-Solid
 62
     7
370
    25
100
AcDbCircle
 10
36.71004201281157
 20
44.98591696980054
 30
0.0
 40
0.0327531898071192
100
AcDbArc
 50
50.79671476425867
 51
189.2140369904851
  0
ARC
  5
462
330
1F
100
AcDbEntity
  8
0
  6
SLD-Solid
 62
     7
370
    25
100
AcDbCircle
 10
42.36209415531643
 20
48.24422301405843
 30
0.0
 40
0.0377232926926248
100
AcDbArc
 50
54.38242252480067
 51
114.3071190461
  0
LINE
  5
463
330
1F
100
AcDbEntity
  8
0
  6
SLD-Solid
 62
     7
370
    25
100
AcDbLine
 10
36.6777114352546
 20
44.98067243003298
 30
0.0
 11
36.67771143525453
 21
44.91924765096201
 31
0.0
  0
SPLINE
  5
464
330
1F
100
AcDbEntity
  8
0
  6
SLD-Solid
 62
     8
370
    25
100
AcDbSpline
210
0.0
220
0.0
230
1.0
 70
    12
 71
     3
 72
    25
 73
    21
 74
     0
 42
0.00000001
 43
0.00000001
 40
0.0
 40
0.0
 40
0.0
 40
0.0
 40
0.0104495417352779
 40
0.0237993564711928
 40
0.029133646294788
 40
0.061312481012949
 40
0.0931022365769485
 40
0.1564490224922216
 40
0.2196450884863316
 40
0.2828835806386364
 40
0.4089115627720369
 40
0.5348684746472598
 40
0.6608619235290412
 40
0.787072718615144
 40
0.8502223506632511
 40
0.913719842503798
 40
0.9456006828513984
 40
0.9735169460502913
 40
0.9889841767795757
 40
1.0
 40
1.0
 40
1.0
 40
1.0
 10
58.14513656619152
 20
31.80966338495451
 30
0.0
 41
1.0
 10
58.14461887251713
 20
31.81603379269017
 30
0.0
 41
1.0
 10
58.14343979915563
 20
31.83054271646964
 30
0.0
 41
1.0
 10
58.13620946836693
 20
31.84985186664854
 30
0.0
 41
1.0
 10
58.12103678995689
 20
31.88226832265919
 30
0.0
 41
1.0
 10
58.09348092770264
 20
31.92420377972935
 30
0.0
 41
1.0
 10
58.03745575009306
 20
31.99283631498616
 30
0.0
 41
1.0
 10
57.96220556112576
 20
32.06876293485499
 30
0.0
 41
1.0
 10
57.86960376105358
 20
32.15033167860476
 30
0.0
 41
1.0
 10
57.74437458363916
 20
32.24921989024683
 30
0.0
 41
1.0
 10
57.58622914815709
 20
32.35918581044816
 30
0.0
 41
1.0
 10
57.39589035404256
 20
32.4729641041032
 30
0.0
 41
1.0
 10
57.20601347876039
 20
32.56873918782573
 30
0.0
 41
1.0
 10
57.04920477414937
 20
32.63081315120819
 30
0.0
 41
1.0
 10
56.92695845114613
 20
32.66290738760492
 30
0.0
 41
1.0
 10
56.8530154025028
 20
32.6717793527486
 30
0.0
 41
1.0
 10
56.80048475083842
 20
32.66506755800351
 30
0.0
 41
1.0
 10
56.77301865926257
 20
32.65126541811161
 30
0.0
 41
1.0
 10
56.75913764729498
 20
32.63157765680087
 30
0.0
 41
1.0
 10
56.75779564929692
 20
32.6169605804591
 30
0.0
 41
1.0
 10
56.75723743525042
 20
32.61088049886102
 30
0.0
 41
1.0
  0
SPLINE
  5
465
330
1F
100
AcDbEntity
  8
0
  6
SLD-Solid
 62
     8
370
    25
100
AcDbSpline
210
0.0
220
0.0
230
1.0
 70
    12
 71
     3
 72
    13
 73
     9
 74
     0
 42
0.00000001
 43
0.00000001
 40
0.0
 40
0.0
 40
0.0
 40
0.0
 40
0.2973527587674343
 40
0.5962491910482883
 40
0.7462912808691818
 40
0.876549999560781
 40
0.9467874347221155
 40
1.0
 40
1.0
 40
1.0
 40
1.0
 10
57.85326663600057
 20
31.78900130605159
 30
0.0
 41
1.0
 10
57.88693069852712
 20
31.77885822316187
 30
0.0
 41
1.0
 10
57.95443358678703
 20
31.75851940070467
 30
0.0
 41
1.0
 10
58.03623662988851
 20
31.7474265282657
 30
0.0
 41
1.0
 10
58.09515651355195
 20
31.753014119213
 30
0.0
 41
1.0
 10
58.12626809406735
 20
31.76684781648961
 30
0.0
 41
1.0
 10
58.14271505341348
 20
31.7872699988092
 30
0.0
 41
1.0
 10
58.14440718186356
 20
31.80291826882188
 30
0.0
 41
1.0
 10
58.14513656619152
 20
31.80966338495451
 30
0.0
 41
1.0
  0
LINE
  5
466
330
1F
100
AcDbEntity
  8
0
  6
SLD-Solid
 62
     8
370
    25
100
AcDbLine
 10
61.68468041793105
 20
29.25908955434435
 30
0.0
 11
61.68517397422143
 21
29.25937447832601
 31
0.0
  0
LINE
  5
467
330
1F
100
AcDbEntity
  8
0
  6
SLD-Solid
 62
     8
370
    25
100
AcDbLine
 10
61.73170023499497
 20
29.23193676769705
 30
0.0
 11
61.73170023499497
 21
29.23251543969216
 31
0.0
  0
LINE
  5
468
330
1F
100
AcDbEntity
  8
0
  6
SLD-Solid
 62
     8
370
    25
100
AcDbLine
 10
67.71004665246815
 20
33.65525853934201
 30
0.0
 11
67.71004665246815
 21
33.65450753712609
 31
0.0
  0
LINE
  5
469
330
1F
100
AcDbEntity
  8
0
  6
SLD-Solid
 62
     8
370
    25
100
AcDbLine
 10
43.56302244759733
 20
39.74556609555569
 30
0.0
 11
43.54131223984898
 21
39.73303305939573
 31
0.0
  0
LINE
  5
46A
330
1F
100
AcDbEntity
  8
0
  6
SLD-Solid
 62
     8
370
    25
100
AcDbLine
 10
36.73074444384357
 20
45.01110351604678
 30
0.0
 11
36.73074444384357
 21
45.01129768673105
 31
0.0
  0
LINE
  5
46B
330
1F
100
AcDbEntity
  8
0
  6
SLD-Solid
 62
     8
370
    25
100
AcDbLine
 10
36.69332556465071
 20
44.9716585849977
 30
0.0
 11
36.6777114352546
 21
44.98067243003298
 31
0.0
  0
LINE
  5
46C
330
1F
100
AcDbEntity
  8
0
  6
SLD-Solid
 62
     7
370
    25
100
AcDbLine
 10
13.2140495127159
 20
11.97742572423707
 30
0.0
 11
14.16397751756615
 21
11.97742572423708
 31
0.0
  0
LINE
  5
46D
330
1F
100
AcDbEntity
  8
0
  6
SLD-Solid
 62
     7
370
    25
100
AcDbLine
 10
14.16404951271589
 20
12.3603212081011
 30
0.0
 11
14.16404951271589
 21
12.39246058858545
 31
0.0
  0
LINE
  5
46E
330
1F
100
AcDbEntity
  8
0
  6
SLD-Solid
 62
     7
370
    25
100
AcDbLine
 10
28.6158885114982
 20
11.97742572423687
 30
0.0
 11
29.56581651634845
 21
11.97742572423688
 31
0.0
  0
LINE
  5
46F
330
1F
100
AcDbEntity
  8
0
  6
SLD-Solid
 62
     7
370
    25
100
AcDbLine
 10
29.56588851149818
 20
12.36032120810091
 30
0.0
 11
29.56588851149818
 21
12.39246058858525
 31
0.0
  0
LINE
  5
470
330
1F
100
AcDbEntity
  8
0
  6
SLD-Solid
 62
     7
370
    25
100
AcDbLine
 10
39.33749945626718
 20
12.80910687496873
 30
0.0
 11
39.30780419199903
 21
12.80910687496873
 31
0.0
  0
LINE
  5
471
330
1F
100
AcDbEntity
  8
0
  6
SLD-Solid
 62
     7
370
    25
100
AcDbLine
 10
39.33780419199902
 20
14.30910687496873
 30
0.0
 11
39.30780419199903
 21
14.30910687496873
 31
0.0
  0
LINE
  5
472
330
1F
100
AcDbEntity
  8
0
  6
SLD-Solid
 62
     7
370
    25
100
AcDbLine
 10
39.30780419199903
 20
14.30910687496873
 30
0.0
 11
39.30780419199903
 21
14.25910687496875
 31
0.0
  0
LINE
  5
473
330
1F
100
AcDbEntity
  8
0
  6
SLD-Solid
 62
     7
370
    25
100
AcDbLine
 10
39.30780419199902
 20
14.30910687496872
 30
0.0
 11
39.29756635667959
 21
14.30910687496872
 31
0.0
  0
LINE
  5
474
330
1F
100
AcDbEntity
  8
0
  6
SLD-Solid
 62
     7
370
    25
100
AcDbLine
 10
39.26780419199902
 20
12.80910687496874
 30
0.0
 11
39.30780419199903
 21
12.80910687496873
 31
0.0
  0
ARC
  5
475
330
1F
100
AcDbEntity
  8
0
  6
SLD-Solid
 62
     7
370
    25
100
AcDbCircle
 10
38.60723117980157
 20
12.85910687496873
 30
0.0
 40
0.0499999999999989
100
AcDbArc
 50
179.9999999999898
 51
270.0000000000008
  0
LINE
  5
476
330
1F
100
AcDbEntity
  8
0
  6
SLD-Solid
 62
     7
370
    25
100
AcDbLine
 10
38.55723117980158
 20
12.85910687496873
 30
0.0
 11
38.55723117980158
 21
13.05910687496915
 31
0.0
  0
LINE
  5
477
330
1F
100
AcDbEntity
  8
0
  6
SLD-Solid
 62
     7
370
    25
100
AcDbLine
 10
39.26780419199902
 20
12.80910687496874
 30
0.0
 11
38.60723117980157
 21
12.80910687496873
 31
0.0
  0
LINE
  5
478
330
1F
100
AcDbEntity
  8
0
  6
SLD-Solid
 62
     7
370
    25
100
AcDbLine
 10
39.28780419199909
 20
13.09110687496918
 30
0.0
 11
39.28780419199908
 21
13.78951935521903
 31
0.0
  0
LINE
  5
479
330
1F
100
AcDbEntity
  8
0
  6
SLD-Solid
 62
     7
370
    25
100
AcDbLine
 10
39.28780419199912
 20
13.05910687496918
 30
0.0
 11
39.33780419199912
 21
13.05910687496918
 31
0.0
  0
LINE
  5
47A
330
1F
100
AcDbEntity
  8
0
  6
SLD-Solid
 62
     7
370
    25
100
AcDbLine
 10
39.28780419199912
 20
13.05910687496918
 30
0.0
 11
39.28780419199909
 21
13.09110687496918
 31
0.0
  0
LINE
  5
47B
330
1F
100
AcDbEntity
  8
0
  6
SLD-Solid
 62
     7
370
    25
100
AcDbLine
 10
39.29756635667962
 20
14.05910687496918
 30
0.0
 11
39.3378041919991
 21
14.05910687496918
 31
0.0
  0
LINE
  5
47C
330
1F
100
AcDbEntity
  8
0
  6
SLD-Solid
 62
     7
370
    25
100
AcDbLine
 10
39.28780419199912
 20
13.05910687496917
 30
0.0
 11
39.24780419199912
 21
13.05910687496917
 31
0.0
  0
LINE
  5
47D
330
1F
100
AcDbEntity
  8
0
  6
SLD-Solid
 62
     7
370
    25
100
AcDbLine
 10
38.56292068498863
 20
13.05910687496916
 30
0.0
 11
39.24780419199912
 21
13.05910687496917
 31
0.0
  0
LINE
  5
47E
330
1F
100
AcDbEntity
  8
0
  6
SLD-Solid
 62
     7
370
    25
100
AcDbLine
 10
38.56292068498863
 20
13.05910687496916
 30
0.0
 11
38.47292068498864
 21
13.05910687496915
 31
0.0
  0
LINE
  5
47F
330
1F
100
AcDbEntity
  8
0
  6
SLD-Solid
 62
     7
370
    25
100
AcDbLine
 10
38.47292068498864
 20
13.78951935521902
 30
0.0
 11
38.47292068498864
 21
13.05910687496915
 31
0.0
  0
LINE
  5
480
330
1F
100
AcDbEntity
  8
0
  6
SLD-Solid
 62
     7
370
    25
100
AcDbLine
 10
10.97924817959198
 20
8.784738882907272
 30
0.0
 11
10.97924817959184
 21
13.78951935521876
 31
0.0
  0
ARC
  5
481
330
1F
100
AcDbEntity
  8
0
  6
SLD-Solid
 62
     7
370
    25
100
AcDbCircle
 10
10.72924817959197
 20
8.784738882907254
 30
0.0
 40
0.2500000000000018
100
AcDbArc
 50
270.0000000000045
 51
0.0000000000057574
  0
LINE
  5
482
330
1F
100
AcDbEntity
  8
0
  6
SLD-Solid
 62
     7
370
    25
100
AcDbLine
 10
9.457054832461294
 20
8.534738882907229
 30
0.0
 11
10.72924817959199
 21
8.534738882907256
 31
0.0
  0
CIRCLE
  5
483
330
1F
100
AcDbEntity
  8
0
  6
SLD-Solid
 62
     7
370
    25
100
AcDbCircle
 10
10.35424817959185
 20
13.59673888290725
 30
0.0
 40
0.0999999999999996
  0
CIRCLE
  5
484
330
1F
100
AcDbEntity
  8
0
  6
SLD-Solid
 62
     7
370
    25
100
AcDbCircle
 10
10.35424817959196
 20
9.596738882907243
 30
0.0
 40
0.0999999999999996
  0
LINE
  5
485
330
1F
100
AcDbEntity
  8
0
  6
SLD-Solid
 62
     7
370
    25
100
AcDbLine
 10
9.457054832461294
 20
8.534738882907229
 30
0.0
 11
9.382054832461296
 21
8.53473888290723
 31
0.0
  0
LINE
  5
486
330
1F
100
AcDbEntity
  8
0
  6
SLD-Solid
 62
     7
370
    25
100
AcDbLine
 10
9.382054832461296
 20
8.53473888290723
 30
0.0
 11
9.382054832461153
 21
13.78951935521874
 31
0.0
  0
LINE
  5
487
330
1F
100
AcDbEntity
  8
0
  6
SLD-Solid
 62
     7
370
    25
100
AcDbLine
 10
3.442133832214588
 20
12.80910687496863
 30
0.0
 11
3.472133832214587
 21
12.80910687496861
 31
0.0
  0
LINE
  5
488
330
1F
100
AcDbEntity
  8
0
  6
SLD-Solid
 62
     7
370
    25
100
AcDbLine
 10
3.442133832214583
 20
14.30910687496862
 30
0.0
 11
3.472133832214583
 21
14.30910687496861
 31
0.0
  0
LINE
  5
489
330
1F
100
AcDbEntity
  8
0
  6
SLD-Solid
 62
     7
370
    25
100
AcDbLine
 10
3.472133832214583
 20
14.30910687496861
 30
0.0
 11
3.472133832214583
 21
14.25910687496863
 31
0.0
  0
LINE
  5
48A
330
1F
100
AcDbEntity
  8
0
  6
SLD-Solid
 62
     7
370
    25
100
AcDbLine
 10
3.512133832214586
 20
12.8091068749686
 30
0.0
 11
3.472133832214585
 21
12.8091068749686
 31
0.0
  0
LINE
  5
48B
330
1F
100
AcDbEntity
  8
0
  6
SLD-Solid
 62
     7
370
    25
100
AcDbLine
 10
3.472133832214581
 20
14.3091068749686
 30
0.0
 11
3.48237166753433
 21
14.3091068749686
 31
0.0
  0
LINE
  5
48C
330
1F
100
AcDbEntity
  8
0
  6
SLD-Solid
 62
     7
370
    25
100
AcDbLine
 10
4.222706844412034
 20
12.85910687496861
 30
0.0
 11
4.222706844412034
 21
13.05910687496876
 31
0.0
  0
ARC
  5
48D
330
1F
100
AcDbEntity
  8
0
  6
SLD-Solid
 62
     7
370
    25
100
AcDbCircle
 10
4.172706844412034
 20
12.85910687496863
 30
0.0
 40
0.0500000000000007
100
AcDbArc
 50
270.0000000000008
 51
359.9999999999804
  0
LINE
  5
48E
330
1F
100
AcDbEntity
  8
0
  6
SLD-Solid
 62
     7
370
    25
100
AcDbLine
 10
3.512133832214586
 20
12.8091068749686
 30
0.0
 11
4.172706844412034
 21
12.80910687496863
 31
0.0
  0
SPLINE
  5
48F
330
1F
100
AcDbEntity
  8
0
  6
SLD-Solid
 62
     7
370
    25
100
AcDbSpline
210
0.0
220
0.0
230
1.0
 70
    12
 71
     3
 72
    13
 73
     9
 74
     0
 42
0.00000001
 43
0.00000001
 40
0.0
 40
0.0
 40
0.0
 40
0.0
 40
0.0276489469529029
 40
0.2221191575623272
 40
0.4165893681717497
 40
0.6110595787811719
 40
0.8055297893905947
 40
1.0
 40
1.0
 40
1.0
 40
1.0
 10
14.16375659921906
 20
11.98053926303055
 30
0.0
 41
1.0
 10
14.16375747416165
 20
11.97954071781257
 30
0.0
 41
1.0
 10
14.1637645030554
 20
11.97151885632961
 30
0.0
 41
1.0
 10
14.16377768590028
 20
12.00556539036305
 30
0.0
 41
1.0
 10
14.16379614775374
 20
12.08342205432929
 30
0.0
 41
1.0
 10
14.16381460960721
 20
12.20723471478118
 30
0.0
 41
1.0
 10
14.16383307146065
 20
12.35939119201003
 30
0.0
 41
1.0
 10
14.16384537936299
 20
12.47141421349473
 30
0.0
 41
1.0
 10
14.16385153331416
 20
12.52742572423707
 30
0.0
 41
1.0
  0
LINE
  5
490
330
1F
100
AcDbEntity
  8
0
  6
SLD-Solid
 62
     7
370
    25
100
AcDbLine
 10
13.21404951271585
 20
12.52742572423708
 30
0.0
 11
13.21404951271585
 21
11.97742572423709
 31
0.0
  0
LINE
  5
491
330
1F
100
AcDbEntity
  8
0
  6
SLD-Solid
 62
     7
370
    25
100
AcDbLine
 10
13.21404951271585
 20
12.52742572423708
 30
0.0
 11
13.21404951271584
 21
12.7465004511611
 31
0.0
  0
LINE
  5
492
330
1F
100
AcDbEntity
  8
0
  6
SLD-Solid
 62
     7
370
    25
100
AcDbLine
 10
13.21404951271584
 20
12.7815004511611
 30
0.0
 11
13.21404951271582
 21
13.78951935521878
 31
0.0
  0
LINE
  5
493
330
1F
100
AcDbEntity
  8
0
  6
SLD-Solid
 62
     7
370
    25
100
AcDbLine
 10
14.16399909068732
 20
13.78951935521879
 30
0.0
 11
14.16388123839972
 21
12.78150045116111
 31
0.0
  0
LINE
  5
494
330
1F
100
AcDbEntity
  8
0
  6
SLD-Solid
 62
     7
370
    25
100
AcDbLine
 10
14.16387714638314
 20
12.74650045116111
 30
0.0
 11
14.16385153331416
 21
12.52742572423707
 31
0.0
  0
LINE
  5
495
330
1F
100
AcDbEntity
  8
0
  6
SLD-Solid
 62
     7
370
    25
100
AcDbLine
 10
14.16367698053619
 20
12.38200956045997
 30
0.0
 11
14.16404951271587
 21
12.39246058858543
 31
0.0
  0
LINE
  5
496
330
1F
100
AcDbEntity
  8
0
  6
SLD-Solid
 62
     7
370
    25
100
AcDbLine
 10
14.16367698053619
 20
12.34987017997561
 30
0.0
 11
14.16404951271589
 21
12.36032120810111
 31
0.0
  0
SPLINE
  5
497
330
1F
100
AcDbEntity
  8
0
  6
SLD-Solid
 62
     7
370
    25
100
AcDbSpline
210
0.0
220
0.0
230
1.0
 70
    12
 71
     3
 72
    13
 73
     9
 74
     0
 42
0.00000001
 43
0.00000001
 40
0.0
 40
0.0
 40
0.0
 40
0.0
 40
0.0276489469529029
 40
0.2221191575623271
 40
0.4165893681717495
 40
0.6110595787811721
 40
0.8055297893905946
 40
1.0
 40
1.0
 40
1.0
 40
1.0
 10
29.56559559800136
 20
11.98053926303036
 30
0.0
 41
1.0
 10
29.56559647294394
 20
11.97954071781237
 30
0.0
 41
1.0
 10
29.56560350183769
 20
11.97151885632941
 30
0.0
 41
1.0
 10
29.56561668468258
 20
12.00556539036286
 30
0.0
 41
1.0
 10
29.56563514653604
 20
12.0834220543291
 30
0.0
 41
1.0
 10
29.5656536083895
 20
12.20723471478098
 30
0.0
 41
1.0
 10
29.56567207024295
 20
12.35939119200983
 30
0.0
 41
1.0
 10
29.56568437814529
 20
12.47141421349453
 30
0.0
 41
1.0
 10
29.56569053209646
 20
12.52742572423688
 30
0.0
 41
1.0
  0
LINE
  5
498
330
1F
100
AcDbEntity
  8
0
  6
SLD-Solid
 62
     7
370
    25
100
AcDbLine
 10
28.61588851149815
 20
12.52742572423689
 30
0.0
 11
28.61588851149815
 21
11.97742572423689
 31
0.0
  0
LINE
  5
499
330
1F
100
AcDbEntity
  8
0
  6
SLD-Solid
 62
     7
370
    25
100
AcDbLine
 10
28.61588851149815
 20
12.52742572423689
 30
0.0
 11
28.61588851149814
 21
12.74650045116127
 31
0.0
  0
LINE
  5
49A
330
1F
100
AcDbEntity
  8
0
  6
SLD-Solid
 62
     7
370
    25
100
AcDbLine
 10
28.61588851149814
 20
12.78150045116127
 30
0.0
 11
28.61588851149812
 21
13.78951935521893
 31
0.0
  0
LINE
  5
49B
330
1F
100
AcDbEntity
  8
0
  6
SLD-Solid
 62
     7
370
    25
100
AcDbLine
 10
29.56583808946962
 20
13.78951935521894
 30
0.0
 11
29.56572023718202
 21
12.78150045116129
 31
0.0
  0
LINE
  5
49C
330
1F
100
AcDbEntity
  8
0
  6
SLD-Solid
 62
     7
370
    25
100
AcDbLine
 10
29.56571614516544
 20
12.74650045116128
 30
0.0
 11
29.56569053209646
 21
12.52742572423688
 31
0.0
  0
LINE
  5
49D
330
1F
100
AcDbEntity
  8
0
  6
SLD-Solid
 62
     7
370
    25
100
AcDbLine
 10
29.56551597931849
 20
12.38200956045977
 30
0.0
 11
29.56588851149816
 21
12.39246058858524
 31
0.0
  0
LINE
  5
49E
330
1F
100
AcDbEntity
  8
0
  6
SLD-Solid
 62
     7
370
    25
100
AcDbLine
 10
29.56551597931848
 20
12.34987017997541
 30
0.0
 11
29.56588851149818
 21
12.36032120810092
 31
0.0
  0
ARC
  5
49F
330
1F
100
AcDbEntity
  8
0
  6
SLD-Solid
 62
     7
370
    25
100
AcDbCircle
 10
32.05068984462162
 20
8.78473888290771
 30
0.0
 40
0.2500000000000036
100
AcDbArc
 50
179.9999999999953
 51
269.9999999999927
  0
LINE
  5
4A0
330
1F
100
AcDbEntity
  8
0
  6
SLD-Solid
 62
     7
370
    25
100
AcDbLine
 10
31.80068984462161
 20
8.784738882907721
 30
0.0
 11
31.80068984462163
 21
13.78951935521896
 31
0.0
  0
LINE
  5
4A1
330
1F
100
AcDbEntity
  8
0
  6
SLD-Solid
 62
     7
370
    25
100
AcDbLine
 10
33.32288319175228
 20
8.534738882907716
 30
0.0
 11
32.05068984462158
 21
8.534738882907712
 31
0.0
  0
CIRCLE
  5
4A2
330
1F
100
AcDbEntity
  8
0
  6
SLD-Solid
 62
     7
370
    25
100
AcDbCircle
 10
32.42568984462163
 20
13.59673888290773
 30
0.0
 40
0.0999999999999996
  0
CIRCLE
  5
4A3
330
1F
100
AcDbEntity
  8
0
  6
SLD-Solid
 62
     7
370
    25
100
AcDbCircle
 10
32.42568984462158
 20
9.596738882907708
 30
0.0
 40
0.0999999999999996
  0
LINE
  5
4A4
330
1F
100
AcDbEntity
  8
0
  6
SLD-Solid
 62
     7
370
    25
100
AcDbLine
 10
33.39788319175228
 20
8.534738882907721
 30
0.0
 11
33.39788319175232
 21
13.78951935521897
 31
0.0
  0
LINE
  5
4A5
330
1F
100
AcDbEntity
  8
0
  6
SLD-Solid
 62
     7
370
    25
100
AcDbLine
 10
33.32288319175228
 20
8.534738882907716
 30
0.0
 11
33.39788319175228
 21
8.534738882907721
 31
0.0
  0
LINE
  5
4A6
330
1F
100
AcDbEntity
  8
0
  6
SLD-Solid
 62
     7
370
    25
100
AcDbLine
 10
3.492133832214601
 20
13.09110687496877
 30
0.0
 11
3.492133832214601
 21
13.78951935521868
 31
0.0
  0
LINE
  5
4A7
330
1F
100
AcDbEntity
  8
0
  6
SLD-Solid
 62
     7
370
    25
100
AcDbLine
 10
3.492133832214601
 20
13.05910687496876
 30
0.0
 11
3.442133832214601
 21
13.05910687496876
 31
0.0
  0
LINE
  5
4A8
330
1F
100
AcDbEntity
  8
0
  6
SLD-Solid
 62
     7
370
    25
100
AcDbLine
 10
3.492133832214601
 20
13.05910687496876
 30
0.0
 11
3.492133832214601
 21
13.09110687496877
 31
0.0
  0
LINE
  5
4A9
330
1F
100
AcDbEntity
  8
0
  6
SLD-Solid
 62
     7
370
    25
100
AcDbLine
 10
3.482371667534354
 20
14.05910687496876
 30
0.0
 11
3.442133832214601
 21
14.05910687496877
 31
0.0
  0
LINE
  5
4AA
330
1F
100
AcDbEntity
  8
0
  6
SLD-Solid
 62
     7
370
    25
100
AcDbLine
 10
3.492133832214601
 20
13.05910687496876
 30
0.0
 11
3.532133832214601
 21
13.05910687496876
 31
0.0
  0
LINE
  5
4AB
330
1F
100
AcDbEntity
  8
0
  6
SLD-Solid
 62
     7
370
    25
100
AcDbLine
 10
4.217017339225086
 20
13.05910687496876
 30
0.0
 11
4.307017339225088
 21
13.05910687496876
 31
0.0
  0
LINE
  5
4AC
330
1F
100
AcDbEntity
  8
0
  6
SLD-Solid
 62
     7
370
    25
100
AcDbLine
 10
4.307017339225088
 20
13.78951935521869
 30
0.0
 11
4.307017339225088
 21
13.05910687496876
 31
0.0
  0
LINE
  5
4AD
330
1F
100
AcDbEntity
  8
0
  6
SLD-Solid
 62
     7
370
    25
100
AcDbLine
 10
4.217017339225086
 20
13.05910687496876
 30
0.0
 11
3.532133832214601
 21
13.05910687496876
 31
0.0
  0
LINE
  5
4AE
330
1F
100
AcDbEntity
  8
0
  6
SLD-Solid
 62
     7
370
    25
100
AcDbLine
 10
38.04396901210686
 20
13.71660687496876
 30
0.0
 11
38.47292068498863
 21
13.71660687496876
 31
0.0
  0
LINE
  5
4AF
330
1F
100
AcDbEntity
  8
0
  6
SLD-Solid
 62
     7
370
    25
100
AcDbLine
 10
38.47292068498863
 20
13.40410687496876
 30
0.0
 11
38.04396901210686
 21
13.40410687496876
 31
0.0
  0
ARC
  5
4B0
330
1F
100
AcDbEntity
  8
0
  6
SLD-Solid
 62
     7
370
    25
100
AcDbCircle
 10
38.04396901210686
 20
13.37510687496876
 30
0.0
 40
0.0290000000000035
100
AcDbArc
 50
90.0
 51
180.0
  0
ARC
  5
4B1
330
1F
100
AcDbEntity
  8
0
  6
SLD-Solid
 62
     7
370
    25
100
AcDbCircle
 10
38.04396901210686
 20
13.37510687496876
 30
0.0
 40
0.3415000000000035
100
AcDbArc
 50
90.0
 51
180.0
  0
LINE
  5
4B2
330
1F
100
AcDbEntity
  8
0
  6
SLD-Solid
 62
     7
370
    25
100
AcDbLine
 10
38.01496901210686
 20
13.37510687496876
 30
0.0
 11
38.01496901210684
 21
9.308606874968763
 31
0.0
  0
ARC
  5
4B3
330
1F
100
AcDbEntity
  8
0
  6
SLD-Solid
 62
     7
370
    25
100
AcDbCircle
 10
37.67346901210684
 20
9.308606874968763
 30
0.0
 40
0.3414999999999999
100
AcDbArc
 50
270.0000000000008
 51
0.0
  0
LINE
  5
4B4
330
1F
100
AcDbEntity
  8
0
  6
SLD-Solid
 62
     7
370
    25
100
AcDbLine
 10
37.70246901210684
 20
9.308606874968763
 30
0.0
 11
37.70246901210686
 21
13.37510687496876
 31
0.0
  0
ARC
  5
4B5
330
1F
100
AcDbEntity
  8
0
  6
SLD-Solid
 62
     7
370
    25
100
AcDbCircle
 10
37.67346901210684
 20
9.308606874968763
 30
0.0
 40
0.0289999999999999
100
AcDbArc
 50
270.0000000000008
 51
0.0
  0
LINE
  5
4B6
330
1F
100
AcDbEntity
  8
0
  6
SLD-Solid
 62
     7
370
    25
100
AcDbLine
 10
5.10646901210684
 20
9.279606874968763
 30
0.0
 11
9.382054832461238
 21
9.279606874968763
 31
0.0
  0
LINE
  5
4B7
330
1F
100
AcDbEntity
  8
0
  6
SLD-Solid
 62
     7
370
    25
100
AcDbLine
 10
10.97924817959192
 20
9.279606874968763
 30
0.0
 11
31.80068984462158
 21
9.279606874968763
 31
0.0
  0
LINE
  5
4B8
330
1F
100
AcDbEntity
  8
0
  6
SLD-Solid
 62
     7
370
    25
100
AcDbLine
 10
33.39788319175224
 20
9.279606874968763
 30
0.0
 11
37.67346901210684
 21
9.279606874968763
 31
0.0
  0
LINE
  5
4B9
330
1F
100
AcDbEntity
  8
0
  6
SLD-Solid
 62
     7
370
    25
100
AcDbLine
 10
37.67346901210684
 20
8.967106874968763
 30
0.0
 11
33.39788319175224
 21
8.967106874968763
 31
0.0
  0
LINE
  5
4BA
330
1F
100
AcDbEntity
  8
0
  6
SLD-Solid
 62
     7
370
    25
100
AcDbLine
 10
31.80068984462157
 20
8.967106874968763
 30
0.0
 11
10.97924817959193
 21
8.967106874968763
 31
0.0
  0
LINE
  5
4BB
330
1F
100
AcDbEntity
  8
0
  6
SLD-Solid
 62
     7
370
    25
100
AcDbLine
 10
9.38205483246124
 20
8.967106874968763
 30
0.0
 11
5.10646901210684
 21
8.967106874968763
 31
0.0
  0
ARC
  5
4BC
330
1F
100
AcDbEntity
  8
0
  6
SLD-Solid
 62
     7
370
    25
100
AcDbCircle
 10
5.10646901210684
 20
9.308606874968763
 30
0.0
 40
0.0289999999999999
100
AcDbArc
 50
180.0
 51
270.0000000000008
  0
ARC
  5
4BD
330
1F
100
AcDbEntity
  8
0
  6
SLD-Solid
 62
     7
370
    25
100
AcDbCircle
 10
5.10646901210684
 20
9.308606874968763
 30
0.0
 40
0.3415000000000008
100
AcDbArc
 50
180.0
 51
270.0000000000008
  0
LINE
  5
4BE
330
1F
100
AcDbEntity
  8
0
  6
SLD-Solid
 62
     7
370
    25
100
AcDbLine
 10
5.077469012106841
 20
9.308606874968763
 30
0.0
 11
5.077469012106818
 21
13.37510687496876
 31
0.0
  0
ARC
  5
4BF
330
1F
100
AcDbEntity
  8
0
  6
SLD-Solid
 62
     7
370
    25
100
AcDbCircle
 10
4.735969012106818
 20
13.37510687496876
 30
0.0
 40
0.3415000000000017
100
AcDbArc
 50
0.0
 51
90.0
  0
ARC
  5
4C0
330
1F
100
AcDbEntity
  8
0
  6
SLD-Solid
 62
     7
370
    25
100
AcDbCircle
 10
4.735969012106818
 20
13.37510687496876
 30
0.0
 40
0.0290000000000017
100
AcDbArc
 50
0.0
 51
90.0
  0
LINE
  5
4C1
330
1F
100
AcDbEntity
  8
0
  6
SLD-Solid
 62
     7
370
    25
100
AcDbLine
 10
4.764969012106817
 20
13.37510687496876
 30
0.0
 11
4.764969012106839
 21
9.308606874968763
 31
0.0
  0
LINE
  5
4C2
330
1F
100
AcDbEntity
  8
0
  6
SLD-Solid
 62
     7
370
    25
100
AcDbLine
 10
4.735969012106818
 20
13.71660687496876
 30
0.0
 11
4.307017339225079
 21
13.71660687496876
 31
0.0
  0
LINE
  5
4C3
330
1F
100
AcDbEntity
  8
0
  6
SLD-Solid
 62
     7
370
    25
100
AcDbLine
 10
4.307017339225079
 20
13.40410687496876
 30
0.0
 11
4.735969012106818
 21
13.40410687496876
 31
0.0
  0
LINE
  5
4C4
330
1F
100
AcDbEntity
  8
0
  6
SLD-Solid
 62
     7
370
    25
100
AcDbLine
 10
39.29756635667938
 20
13.78951935521903
 30
0.0
 11
3.482371667534133
 21
13.78951935521868
 31
0.0
  0
LINE
  5
4C5
330
1F
100
AcDbEntity
  8
0
  6
SLD-Solid
 62
     7
370
    25
100
AcDbLine
 10
3.482371667534133
 20
13.78951935521868
 30
0.0
 11
3.482371667534129
 21
14.32043616704593
 31
0.0
  0
LINE
  5
4C6
330
1F
100
AcDbEntity
  8
0
  6
SLD-Solid
 62
     7
370
    25
100
AcDbLine
 10
39.2975663566794
 20
14.32043616704633
 30
0.0
 11
39.29756635667938
 21
13.78951935521903
 31
0.0
  0
LINE
  5
4C7
330
1F
100
AcDbEntity
  8
0
  6
SLD-Solid
 62
     7
370
    25
100
AcDbLine
 10
3.482371667534129
 20
14.38693223003805
 30
0.0
 11
3.482371667534129
 21
14.32043616704593
 31
0.0
  0
LINE
  5
4C8
330
1F
100
AcDbEntity
  8
0
  6
SLD-Solid
 62
     7
370
    25
100
AcDbLine
 10
39.2975663566794
 20
14.38693223003846
 30
0.0
 11
3.482371667534129
 21
14.38693223003805
 31
0.0
  0
LINE
  5
4C9
330
1F
100
AcDbEntity
  8
0
  6
SLD-Solid
 62
     7
370
    25
100
AcDbLine
 10
39.2975663566794
 20
14.32043616704633
 30
0.0
 11
39.2975663566794
 21
14.38693223003846
 31
0.0
  0
ARC
  5
4CA
330
1F
100
AcDbEntity
  8
0
  6
SLD-Solid
 62
     7
370
    25
100
AcDbCircle
 10
39.30630812900695
 20
12.81347758289149
 30
0.0
 40
0.0664960629921296
100
AcDbArc
 50
270.0000000000008
 51
0.0000000000048401
  0
ARC
  5
4CB
330
1F
100
AcDbEntity
  8
0
  6
SLD-Solid
 62
     7
370
    25
100
AcDbCircle
 10
39.30630812900695
 20
12.81347758289149
 30
0.0
 40
0.031496062992133
100
AcDbArc
 50
270.0000000000008
 51
0.0000000000646289
  0
LINE
  5
4CC
330
1F
100
AcDbEntity
  8
0
  6
SLD-Solid
 62
     7
370
    25
100
AcDbLine
 10
39.33780419199908
 20
12.81347758289149
 30
0.0
 11
39.33780419199906
 21
14.31193223003846
 31
0.0
  0
LINE
  5
4CD
330
1F
100
AcDbEntity
  8
0
  6
SLD-Solid
 62
     7
370
    25
100
AcDbLine
 10
39.37280419199908
 20
12.81347758289149
 30
0.0
 11
39.37280419199907
 21
14.31193223003846
 31
0.0
  0
LINE
  5
4CE
330
1F
100
AcDbEntity
  8
0
  6
SLD-Solid
 62
     7
370
    25
100
AcDbLine
 10
38.92469131717965
 20
12.74698151989936
 30
0.0
 11
38.92469131717965
 21
12.78198151989935
 31
0.0
  0
LINE
  5
4CF
330
1F
100
AcDbEntity
  8
0
  6
SLD-Solid
 62
     7
370
    25
100
AcDbLine
 10
38.92469131717965
 20
12.78198151989935
 30
0.0
 11
39.30630812900695
 21
12.78198151989936
 31
0.0
  0
LINE
  5
4D0
330
1F
100
AcDbEntity
  8
0
  6
SLD-Solid
 62
     7
370
    25
100
AcDbLine
 10
38.92469131717965
 20
12.74698151989936
 30
0.0
 11
39.30630812900695
 21
12.74698151989936
 31
0.0
  0
ARC
  5
4D1
330
1F
100
AcDbEntity
  8
0
  6
SLD-Solid
 62
     7
370
    25
100
AcDbCircle
 10
39.29780419199907
 20
14.31193223003846
 30
0.0
 40
0.0750000000000011
100
AcDbArc
 50
359.9999999999974
 51
90.0
  0
ARC
  5
4D2
330
1F
100
AcDbEntity
  8
0
  6
SLD-Solid
 62
     7
370
    25
100
AcDbCircle
 10
39.29780419199907
 20
14.31193223003846
 30
0.0
 40
0.0399999999999991
100
AcDbArc
 50
359.9999999999512
 51
90.0
  0
LINE
  5
4D3
330
1F
100
AcDbEntity
  8
0
  6
SLD-Solid
 62
     7
370
    25
100
AcDbLine
 10
39.29780419199907
 20
14.38693223003846
 30
0.0
 11
39.2975663566794
 21
14.38693223003846
 31
0.0
  0
LINE
  5
4D4
330
1F
100
AcDbEntity
  8
0
  6
SLD-Solid
 62
     7
370
    25
100
AcDbLine
 10
39.29780419199907
 20
14.35193223003846
 30
0.0
 11
39.2975663566794
 21
14.35193223003846
 31
0.0
  0
LINE
  5
4D5
330
1F
100
AcDbEntity
  8
0
  6
SLD-Solid
 62
     7
370
    25
100
AcDbLine
 10
3.407133832214464
 20
14.31193223003805
 30
0.0
 11
3.407133832214491
 21
12.79777758289108
 31
0.0
  0
LINE
  5
4D6
330
1F
100
AcDbEntity
  8
0
  6
SLD-Solid
 62
     7
370
    25
100
AcDbLine
 10
3.442133832214465
 20
14.31193223003805
 30
0.0
 11
3.442133832214487
 21
12.79777758289108
 31
0.0
  0
ARC
  5
4D7
330
1F
100
AcDbEntity
  8
0
  6
SLD-Solid
 62
     7
370
    25
100
AcDbCircle
 10
3.473629895206614
 20
12.79777758289108
 30
0.0
 40
0.0664960629921261
100
AcDbArc
 50
179.9999999999962
 51
270.0000000000046
  0
ARC
  5
4D8
330
1F
100
AcDbEntity
  8
0
  6
SLD-Solid
 62
     7
370
    25
100
AcDbCircle
 10
3.473629895206614
 20
12.79777758289108
 30
0.0
 40
0.0314960629921277
100
AcDbArc
 50
179.9999999999367
 51
270.0000000000008
  0
LINE
  5
4D9
330
1F
100
AcDbEntity
  8
0
  6
SLD-Solid
 62
     7
370
    25
100
AcDbLine
 10
3.482371667534129
 20
14.38693223003805
 30
0.0
 11
3.482133832214466
 21
14.38693223003805
 31
0.0
  0
LINE
  5
4DA
330
1F
100
AcDbEntity
  8
0
  6
SLD-Solid
 62
     7
370
    25
100
AcDbLine
 10
3.482371667534129
 20
14.35193223003805
 30
0.0
 11
3.482133832214466
 21
14.35193223003805
 31
0.0
  0
ARC
  5
4DB
330
1F
100
AcDbEntity
  8
0
  6
SLD-Solid
 62
     7
370
    25
100
AcDbCircle
 10
3.482133832214466
 20
14.31193223003805
 30
0.0
 40
0.075000000000002
100
AcDbArc
 50
90.0
 51
180.0000000000042
  0
ARC
  5
4DC
330
1F
100
AcDbEntity
  8
0
  6
SLD-Solid
 62
     7
370
    25
100
AcDbCircle
 10
3.482133832214466
 20
14.31193223003805
 30
0.0
 40
0.0400000000000005
100
AcDbArc
 50
90.0
 51
179.9999999999377
  0
LINE
  5
4DD
330
1F
100
AcDbEntity
  8
0
  6
SLD-Solid
 62
     7
370
    25
100
AcDbLine
 10
3.83954670703392
 20
12.73128151989897
 30
0.0
 11
3.839546707033885
 21
12.76628151989897
 31
0.0
  0
LINE
  5
4DE
330
1F
100
AcDbEntity
  8
0
  6
SLD-Solid
 62
     7
370
    25
100
AcDbLine
 10
3.473629895206618
 20
12.73128151989895
 30
0.0
 11
3.83954670703392
 21
12.73128151989897
 31
0.0
  0
LINE
  5
4DF
330
1F
100
AcDbEntity
  8
0
  6
SLD-Solid
 62
     7
370
    25
100
AcDbLine
 10
3.473629895206614
 20
12.76628151989895
 30
0.0
 11
3.839546707033885
 21
12.76628151989897
 31
0.0
  0
LINE
  5
4E0
330
1F
100
AcDbEntity
  8
0
  6
SLD-Solid
 62
     7
370
    25
100
AcDbLine
 10
38.84756635667959
 20
12.74650045116139
 30
0.0
 11
38.84756635667959
 21
12.78150045116139
 31
0.0
  0
LINE
  5
4E1
330
1F
100
AcDbEntity
  8
0
  6
SLD-Solid
 62
     7
370
    25
100
AcDbLine
 10
3.932371667534336
 20
12.74650045116099
 30
0.0
 11
4.76496901210681
 21
12.746500451161
 31
0.0
  0
LINE
  5
4E2
330
1F
100
AcDbEntity
  8
0
  6
SLD-Solid
 62
     7
370
    25
100
AcDbLine
 10
5.077469012106812
 20
12.746500451161
 30
0.0
 11
9.382054832461128
 21
12.74650045116105
 31
0.0
  0
LINE
  5
4E3
330
1F
100
AcDbEntity
  8
0
  6
SLD-Solid
 62
     7
370
    25
100
AcDbLine
 10
10.97924817959182
 20
12.74650045116107
 30
0.0
 11
31.80068984462158
 21
12.74650045116131
 31
0.0
  0
LINE
  5
4E4
330
1F
100
AcDbEntity
  8
0
  6
SLD-Solid
 62
     7
370
    25
100
AcDbLine
 10
33.39788319175226
 20
12.74650045116133
 30
0.0
 11
37.70246901210685
 21
12.74650045116138
 31
0.0
  0
LINE
  5
4E5
330
1F
100
AcDbEntity
  8
0
  6
SLD-Solid
 62
     7
370
    25
100
AcDbLine
 10
38.01496901210685
 20
12.74650045116138
 30
0.0
 11
38.84756635667959
 21
12.74650045116139
 31
0.0
  0
LINE
  5
4E6
330
1F
100
AcDbEntity
  8
0
  6
SLD-Solid
 62
     7
370
    25
100
AcDbLine
 10
3.932371667534336
 20
12.74650045116099
 30
0.0
 11
3.932371667534332
 21
12.78150045116099
 31
0.0
  0
LINE
  5
4E7
330
1F
100
AcDbEntity
  8
0
  6
SLD-Solid
 62
     7
370
    25
100
AcDbLine
 10
3.932371667534332
 20
12.78150045116099
 30
0.0
 11
4.76496901210681
 21
12.781500451161
 31
0.0
  0
LINE
  5
4E8
330
1F
100
AcDbEntity
  8
0
  6
SLD-Solid
 62
     7
370
    25
100
AcDbLine
 10
5.077469012106812
 20
12.781500451161
 30
0.0
 11
9.382054832461126
 21
12.78150045116105
 31
0.0
  0
LINE
  5
4E9
330
1F
100
AcDbEntity
  8
0
  6
SLD-Solid
 62
     7
370
    25
100
AcDbLine
 10
10.97924817959182
 20
12.78150045116107
 30
0.0
 11
31.80068984462158
 21
12.78150045116131
 31
0.0
  0
LINE
  5
4EA
330
1F
100
AcDbEntity
  8
0
  6
SLD-Solid
 62
     7
370
    25
100
AcDbLine
 10
33.39788319175226
 20
12.78150045116133
 30
0.0
 11
37.70246901210685
 21
12.78150045116138
 31
0.0
  0
LINE
  5
4EB
330
1F
100
AcDbEntity
  8
0
  6
SLD-Solid
 62
     7
370
    25
100
AcDbLine
 10
38.01496901210685
 20
12.78150045116138
 30
0.0
 11
38.84756635667959
 21
12.78150045116139
 31
0.0
  0
LINE
  5
4EC
330
1F
100
AcDbEntity
  8
0
  6
SLD-Solid
 62
     7
370
    25
100
AcDbLine
 10
38.8475663566796
 20
12.80910687496873
 30
0.0
 11
38.8475663566796
 21
12.78150045116139
 31
0.0
  0
LINE
  5
4ED
330
1F
100
AcDbEntity
  8
0
  6
SLD-Solid
 62
     7
370
    25
100
AcDbLine
 10
3.932371667534341
 20
12.78150045116099
 30
0.0
 11
3.932371667534341
 21
12.80910687496862
 31
0.0
  0
DIMENSION
  5
4EE
330
1F
100
AcDbEntity
  8
DIMS
100
AcDbDimension
  2
_D_2
 10
10.28353750147327
 20
9.667449561025895
 30
0.0
 11
16.16000469512671
 21
8.043360789159669
 31
0.0
 70
    35
  1
<> mounting hole (4)
 71
     1
 42
-1.0
  3
SLDDIMSTYLE2
100
AcDbDiametricDimension
 15
10.42495885771059
 25
9.526028204788588
 35
0.0
 40
0.0
  0
DIMENSION
  5
4FC
330
1F
100
AcDbEntity
  8
DIMS
100
AcDbDimension
  2
_D_3
 10
8.756996113920646
 20
13.59673888290721
 30
0.0
 11
8.7569961139207
 21
11.72602758932884
 31
0.0
 70
    32
  1
<>
 71
     2
 42
-1.0
  3
SLDDIMSTYLE3
100
AcDbAlignedDimension
 13
10.35424817959193
 23
9.596738882907243
 33
0.0
 14
10.35424817959182
 24
13.59673888290725
 34
0.0
 50
90.0000000000002
100
AcDbRotatedDimension
  0
DIMENSION
  5
508
330
1F
100
AcDbEntity
  8
DIMS
100
AcDbDimension
  2
_D_4
 10
32.42568984462155
 20
15.48929443476314
 30
0.0
 11
20.61696828054771
 21
15.48929443476289
 31
0.0
 70
    32
  1
<>
 71
     2
 42
-1.0
  3
SLDDIMSTYLE0
100
AcDbAlignedDimension
 13
10.35424817959182
 23
13.59673888290725
 33
0.0
 14
32.42568984462159
 24
13.59673888290773
 34
0.0
 50
0.0000000000012404
100
AcDbRotatedDimension
  0
DIMENSION
  5
517
330
1F
100
AcDbEntity
  8
DIMS
100
AcDbDimension
  2
_D_5
 10
8.767607623504702
 20
14.38693223003811
 30
0.0
 11
8.767607623504684
 21
15.86717554342789
 31
0.0
 70
    32
  1
<>
 71
     2
 42
-1.0
  3
SLDDIMSTYLE4
100
AcDbAlignedDimension
 13
10.35424817959182
 23
13.59673888290725
 33
0.0
 14
3.482371667534093
 24
14.38693223003805
 34
0.0
 50
90.0000000000002
100
AcDbRotatedDimension
  0
MTEXT
  5
526
330
1F
100
AcDbEntity
  8
NOTES
100
AcDbMText
 10
3.362110173633698
 20
7.903869156405895
 30
0.0
 40
0.5
 41
0.0
 71
     1
 72
     1
  1
Back view
  7
SLDTEXTSTYLE0
 73
     1
 44
1.0
  0
MTEXT
  5
52A
330
1F
100
AcDbEntity
  8
NOTES
100
AcDbMText
 10
60.2661315570167
 20
4.98650087456716
 30
0.0
 40
0.2916666666666666
 41
0.0
 71
     1
 72
     1
  1
FROST PRODUCTS LTD.
  7
SLDTEXTSTYLE1
 73
     1
 44
1.0
  0
MTEXT
  5
52B
330
1F
100
AcDbEntity
  8
NOTES
100
AcDbMText
 10
60.2661315570167
 20
4.5610085129417
 30
0.0
 40
0.2291666666666666
 41
0.0
 71
     1
 72
     1
  1
5280 JOHN LUCAS DRIVE, BURLINGTON, ON, L7L 5Z9
  7
SLDTEXTSTYLE1
 73
     1
 44
1.0
  0
ENDSEC
  0
SECTION
  2
OBJECTS
  0
DICTIONARY
  5
C
330
0
100
AcDbDictionary
281
     1
  3
ACAD_COLOR
350
6C
  3
ACAD_GROUP
350
D
  3
ACAD_LAYOUT
350
1A
  3
ACAD_MATERIAL
350
6B
  3
ACAD_MLINESTYLE
350
17
  3
ACAD_PLOTSETTINGS
350
19
  3
ACAD_PLOTSTYLENAME
350
E
  3
ACAD_SCALELIST
350
47
  3
ACAD_TABLESTYLE
350
92
  3
AcDbVariableDictionary
350
59
  0
DICTIONARY
  5
6C
102
{ACAD_REACTORS
330
C
102
}
330
C
100
AcDbDictionary
281
     1
  0
DICTIONARY
  5
D
102
{ACAD_REACTORS
330
C
102
}
330
C
100
AcDbDictionary
281
     1
  0
DICTIONARY
  5
1A
102
{ACAD_REACTORS
330
C
102
}
330
C
100
AcDbDictionary
281
     1
  3
Layout1
350
74
  3
Layout2
350
26
  3
Model
350
22
  0
DICTIONARY
  5
6B
102
{ACAD_REACTORS
330
C
102
}
330
C
100
AcDbDictionary
281
     1
  0
DICTIONARY
  5
17
102
{ACAD_REACTORS
330
C
102
}
330
C
100
AcDbDictionary
281
     1
  3
Standard
350
18
  0
DICTIONARY
  5
19
102
{ACAD_REACTORS
330
C
102
}
330
C
100
AcDbDictionary
281
     1
  0
ACDBDICTIONARYWDFLT
  5
E
102
{ACAD_REACTORS
330
C
102
}
330
C
100
AcDbDictionary
281
     1
  3
Normal
350
F
100
AcDbDictionaryWithDefault
340
F
  0
DICTIONARY
  5
47
102
{ACAD_REACTORS
330
C
102
}
330
C
100
AcDbDictionary
281
     1
  3
A0
350
48
  3
A1
350
49
  3
A2
350
4A
  3
A3
350
4B
  3
A4
350
4C
  3
A5
350
4D
  3
A6
350
4E
  3
A7
350
4F
  3
A8
350
50
  3
A9
350
51
  3
B0
350
52
  3
B1
350
53
  3
B2
350
54
  3
B3
350
55
  3
B4
350
56
  3
B5
350
57
  3
B6
350
58
  3
B7
350
53C
  3
B8
350
53D
  3
B9
350
5B
  3
C0
350
5C
  3
C1
350
5D
  3
C2
350
53E
  3
C3
350
5F
  3
C4
350
60
  3
C5
350
61
  3
C6
350
62
  3
C7
350
63
  3
C8
350
64
  3
C9
350
65
  3
D0
350
66
  3
D1
350
67
  3
D2
350
68
  0
DICTIONARY
  5
92
102
{ACAD_REACTORS
330
C
102
}
330
C
100
AcDbDictionary
281
     1
  3
Standard
350
93
  0
DICTIONARY
  5
59
102
{ACAD_REACTORS
330
C
102
}
330
C
100
AcDbDictionary
281
     1
  3
CTABLESTYLE
350
98
  3
HIDETEXT
350
529
  0
LAYOUT
  5
74
102
{ACAD_REACTORS
330
1A
102
}
330
1A
100
AcDbPlotSettings
  1

  2
none_device
  4

  6

 40
0.0
 41
0.0
 42
0.0
 43
0.0
 44
0.0
 45
0.0
 46
0.0
 47
0.0
 48
0.0
 49
0.0
140
0.0
141
0.0
142
1.0
143
1.0
 70
   688
 72
     0
 73
     0
 74
     5
  7

 75
    16
 76
     0
 77
     2
 78
   300
147
1.0
148
0.0
149
0.0
100
AcDbLayout
  1
Layout1
 70
     1
 71
     1
 10
0.0
 20
0.0
 11
12.0
 21
9.0
 12
0.0
 22
0.0
 32
0.0
 14
1.000000000000000E+20
 24
1.000000000000000E+20
 34
1.000000000000000E+20
 15
-1.000000000000000E+20
 25
-1.000000000000000E+20
 35
-1.000000000000000E+20
146
0.0
 13
0.0
 23
0.0
 33
0.0
 16
1.0
 26
0.0
 36
0.0
 17
0.0
 27
1.0
 37
0.0
 76
     0
330
73
  0
LAYOUT
  5
26
102
{ACAD_REACTORS
330
1A
102
}
330
1A
100
AcDbPlotSettings
  1

  2
none_device
  4

  6

 40
0.0
 41
0.0
 42
0.0
 43
0.0
 44
0.0
 45
0.0
 46
0.0
 47
0.0
 48
0.0
 49
0.0
140
0.0
141
0.0
142
1.0
143
1.0
 70
   688
 72
     0
 73
     0
 74
     5
  7

 75
    16
 76
     0
 77
     2
 78
   300
147
1.0
148
0.0
149
0.0
100
AcDbLayout
  1
Layout2
 70
     1
 71
     2
 10
0.0
 20
0.0
 11
0.0
 21
0.0
 12
0.0
 22
0.0
 32
0.0
 14
0.0
 24
0.0
 34
0.0
 15
0.0
 25
0.0
 35
0.0
146
0.0
 13
0.0
 23
0.0
 33
0.0
 16
1.0
 26
0.0
 36
0.0
 17
0.0
 27
1.0
 37
0.0
 76
     0
330
23
  0
LAYOUT
  5
22
102
{ACAD_REACTORS
330
1A
102
}
330
1A
100
AcDbPlotSettings
  1

  2
none_device
  4
Letter_(8.50_x_11.00_Inches)
  6

 40
6.35
 41
6.35
 42
6.35000508
 43
6.35000508
 44
215.9
 45
279.4
 46
0.0
 47
0.0
 48
0.0
 49
0.0
140
0.0
141
0.0
142
1.0
143
1.0
 70
 11952
 72
     0
 73
     0
 74
     0
  7

 75
     0
 76
     0
 77
     2
 78
   300
147
1.0
148
0.0
149
0.0
100
AcDbLayout
  1
Model
 70
     1
 71
     0
 10
0.0
 20
0.0
 11
70.0
 21
50.0
 12
0.0
 22
0.0
 32
0.0
 14
0.1653543307086614
 24
0.1653543307086614
 34
-0.1285260764202439
 15
69.83464566929135
 25
49.83464566929134
 35
0.2275049183216633
146
0.0
 13
0.0
 23
0.0
 33
0.0
 16
1.0
 26
0.0
 36
0.0
 17
0.0
 27
1.0
 37
0.0
 76
     0
330
1F
  0
MLINESTYLE
  5
18
102
{ACAD_REACTORS
330
17
102
}
330
17
100
AcDbMlineStyle
  2
Standard
 70
     0
  3

 62
   256
 51
90.0
 52
90.0
 71
     2
 49
0.5
 62
   256
  6
BYLAYER
 49
-0.5
 62
   256
  6
BYLAYER
  0
ACDBPLACEHOLDER
  5
F
102
{ACAD_REACTORS
330
E
102
}
330
E
  0
ACAD_PROXY_OBJECT
  5
48
102
{ACAD_REACTORS
330
47
102
}
330
47
100
AcDbProxyObject
 90
      499
 91
      505
 95
   393239
 70
     0
 93
       41
310
903313A31580
  0
ACAD_PROXY_OBJECT
  5
49
102
{ACAD_REACTORS
330
47
102
}
330
47
100
AcDbProxyObject
 90
      499
 91
      505
 95
   393239
 70
     0
 93
      105
310
903313A324000000000000004000
  0
ACAD_PROXY_OBJECT
  5
4A
102
{ACAD_REACTORS
330
47
102
}
330
47
100
AcDbProxyObject
 90
      499
 91
      505
 95
   393239
 70
     0
 93
      105
310
903313A344000000000000104000
  0
ACAD_PROXY_OBJECT
  5
4B
102
{ACAD_REACTORS
330
47
102
}
330
47
100
AcDbProxyObject
 90
      499
 91
      505
 95
   393239
 70
     0
 93
      105
310
903313A354000000000000144000
  0
ACAD_PROXY_OBJECT
  5
4C
102
{ACAD_REACTORS
330
47
102
}
330
47
100
AcDbProxyObject
 90
      499
 91
      505
 95
   393239
 70
     0
 93
      105
310
903313A384000000000000204000
  0
ACAD_PROXY_OBJECT
  5
4D
102
{ACAD_REACTORS
330
47
102
}
330
47
100
AcDbProxyObject
 90
      499
 91
      505
 95
   393239
 70
     0
 93
      113
310
904313A31304000000000000244000
  0
ACAD_PROXY_OBJECT
  5
4E
102
{ACAD_REACTORS
330
47
102
}
330
47
100
AcDbProxyObject
 90
      499
 91
      505
 95
   393239
 70
     0
 93
      113
310
904313A31364000000000000304000
  0
ACAD_PROXY_OBJECT
  5
4F
102
{ACAD_REACTORS
330
47
102
}
330
47
100
AcDbProxyObject
 90
      499
 91
      505
 95
   393239
 70
     0
 93
      113
310
904313A32304000000000000344000
  0
ACAD_PROXY_OBJECT
  5
50
102
{ACAD_REACTORS
330
47
102
}
330
47
100
AcDbProxyObject
 90
      499
 91
      505
 95
   393239
 70
     0
 93
      113
310
904313A333040000000000003E4000
  0
ACAD_PROXY_OBJECT
  5
51
102
{ACAD_REACTORS
330
47
102
}
330
47
100
AcDbProxyObject
 90
      499
 91
      505
 95
   393239
 70
     0
 93
      113
310
904313A34304000000000000444000
  0
ACAD_PROXY_OBJECT
  5
52
102
{ACAD_REACTORS
330
47
102
}
330
47
100
AcDbProxyObject
 90
      499
 91
      505
 95
   393239
 70
     0
 93
      113
310
904313A35304000000000000494000
  0
ACAD_PROXY_OBJECT
  5
53
102
{ACAD_REACTORS
330
47
102
}
330
47
100
AcDbProxyObject
 90
      499
 91
      505
 95
   393239
 70
     0
 93
      121
310
905313A3130304000000000000594000
  0
ACAD_PROXY_OBJECT
  5
54
102
{ACAD_REACTORS
330
47
102
}
330
47
100
AcDbProxyObject
 90
      499
 91
      505
 95
   393239
 70
     0
 93
      105
310
903323A310000000000000010100
  0
ACAD_PROXY_OBJECT
  5
55
102
{ACAD_REACTORS
330
47
102
}
330
47
100
AcDbProxyObject
 90
      499
 91
      505
 95
   393239
 70
     0
 93
      105
310
903343A310000000000000410100
  0
ACAD_PROXY_OBJECT
  5
56
102
{ACAD_REACTORS
330
47
102
}
330
47
100
AcDbProxyObject
 90
      499
 91
      505
 95
   393239
 70
     0
 93
      105
310
903383A310000000000000810100
  0
ACAD_PROXY_OBJECT
  5
57
102
{ACAD_REACTORS
330
47
102
}
330
47
100
AcDbProxyObject
 90
      499
 91
      505
 95
   393239
 70
     0
 93
      113
310
90431303A310000000000000910100
  0
ACAD_PROXY_OBJECT
  5
58
102
{ACAD_REACTORS
330
47
102
}
330
47
100
AcDbProxyObject
 90
      499
 91
      505
 95
   393239
 70
     0
 93
      121
310
9053130303A310000000000001650100
  0
ACAD_PROXY_OBJECT
  5
53C
102
{ACAD_REACTORS
330
47
102
}
330
47
100
AcDbProxyObject
 90
      499
 91
      505
 95
   393239
 70
     0
 93
      257
310
90E312F31323822203D2031272D3022000000000000200FC000000000000284000
  0
ACAD_PROXY_OBJECT
  5
53D
102
{ACAD_REACTORS
330
47
102
}
330
47
100
AcDbProxyObject
 90
      499
 91
      505
 95
   393239
 70
     0
 93
      249
310
90D312F363422203D2031272D3022000000000000240FC000000000000284000
  0
ACAD_PROXY_OBJECT
  5
5B
102
{ACAD_REACTORS
330
47
102
}
330
47
100
AcDbProxyObject
 90
      499
 91
      505
 95
   393239
 70
     0
 93
      249
310
90D312F333222203D2031272D3022000000000000280FC000000000000284000
  0
ACAD_PROXY_OBJECT
  5
5C
102
{ACAD_REACTORS
330
47
102
}
330
47
100
AcDbProxyObject
 90
      499
 91
      505
 95
   393239
 70
     0
 93
      249
310
90D312F313622203D2031272D30220000000000002C0FC000000000000284000
  0
ACAD_PROXY_OBJECT
  5
5D
102
{ACAD_REACTORS
330
47
102
}
330
47
100
AcDbProxyObject
 90
      499
 91
      505
 95
   393239
 70
     0
 93
      249
310
90D332F333222203D2031272D30220000000000002E0FC000000000000284000
  0
ACAD_PROXY_OBJECT
  5
53E
102
{ACAD_REACTORS
330
47
102
}
330
47
100
AcDbProxyObject
 90
      499
 91
      505
 95
   393239
 70
     0
 93
      241
310
90C312F3822203D2031272D3022000000000000300FC000000000000284000
  0
ACAD_PROXY_OBJECT
  5
5F
102
{ACAD_REACTORS
330
47
102
}
330
47
100
AcDbProxyObject
 90
      499
 91
      505
 95
   393239
 70
     0
 93
      249
310
90D332F313622203D2031272D3022000000000000320FC000000000000284000
  0
ACAD_PROXY_OBJECT
  5
60
102
{ACAD_REACTORS
330
47
102
}
330
47
100
AcDbProxyObject
 90
      499
 91
      505
 95
   393239
 70
     0
 93
      241
310
90C312F3422203D2031272D3022000000000000340FC000000000000284000
  0
ACAD_PROXY_OBJECT
  5
61
102
{ACAD_REACTORS
330
47
102
}
330
47
100
AcDbProxyObject
 90
      499
 91
      505
 95
   393239
 70
     0
 93
      241
310
90C332F3822203D2031272D3022000000000000360FC000000000000284000
  0
ACAD_PROXY_OBJECT
  5
62
102
{ACAD_REACTORS
330
47
102
}
330
47
100
AcDbProxyObject
 90
      499
 91
      505
 95
   393239
 70
     0
 93
      241
310
90C312F3222203D2031272D3022000000000000380FC000000000000284000
  0
ACAD_PROXY_OBJECT
  5
63
102
{ACAD_REACTORS
330
47
102
}
330
47
100
AcDbProxyObject
 90
      499
 91
      505
 95
   393239
 70
     0
 93
      241
310
90C332F3422203D2031272D30220000000000003A0FC000000000000284000
  0
ACAD_PROXY_OBJECT
  5
64
102
{ACAD_REACTORS
330
47
102
}
330
47
100
AcDbProxyObject
 90
      499
 91
      505
 95
   393239
 70
     0
 93
      161
310
90A3122203D2031272D30224000000000000284000
  0
ACAD_PROXY_OBJECT
  5
65
102
{ACAD_REACTORS
330
47
102
}
330
47
100
AcDbProxyObject
 90
      499
 91
      505
 95
   393239
 70
     0
 93
      257
310
90E312D312F3222203D2031272D30220000000000003E0FC000000000000284000
  0
ACAD_PROXY_OBJECT
  5
66
102
{ACAD_REACTORS
330
47
102
}
330
47
100
AcDbProxyObject
 90
      499
 91
      505
 95
   393239
 70
     0
 93
      225
310
90A3322203D2031272D302200000000000002100000000000000284000
  0
ACAD_PROXY_OBJECT
  5
67
102
{ACAD_REACTORS
330
47
102
}
330
47
100
AcDbProxyObject
 90
      499
 91
      505
 95
   393239
 70
     0
 93
      225
310
90A3622203D2031272D302200000000000006100000000000000284000
  0
ACAD_PROXY_OBJECT
  5
68
102
{ACAD_REACTORS
330
47
102
}
330
47
100
AcDbProxyObject
 90
      499
 91
      505
 95
   393239
 70
     0
 93
      249
310
90D31272D3022203D2031272D30220000000000000A100000000000000284000
  0
TABLESTYLE
  5
93
102
{ACAD_REACTORS
330
92
102
}
330
92
100
AcDbTableStyle
  3
Standard
 70
     0
 71
     0
 40
0.06
 41
0.06
280
     0
281
     0
  7
Standard
140
0.18
170
     2
 62
     0
 63
     7
283
     0
274
    -2
284
     1
 64
     0
275
    -2
285
     1
 65
     0
276
    -2
286
     1
 66
     0
277
    -2
287
     1
 67
     0
278
    -2
288
     1
 68
     0
279
    -2
289
     1
 69
     0
  7
Standard
140
0.25
170
     5
 62
     0
 63
     7
283
     0
274
    -2
284
     1
 64
     0
275
    -2
285
     1
 65
     0
276
    -2
286
     1
 66
     0
277
    -2
287
     1
 67
     0
278
    -2
288
     1
 68
     0
279
    -2
289
     1
 69
     0
  7
Standard
140
0.18
170
     5
 62
     0
 63
     7
283
     0
274
    -2
284
     1
 64
     0
275
    -2
285
     1
 65
     0
276
    -2
286
     1
 66
     0
277
    -2
287
     1
 67
     0
278
    -2
288
     1
 68
     0
279
    -2
289
     1
 69
     0
  0
DICTIONARYVAR
  5
98
102
{ACAD_REACTORS
330
59
102
}
330
59
100
DictionaryVariables
280
     0
  1
STANDARD
  0
DICTIONARYVAR
  5
529
102
{ACAD_REACTORS
330
59
102
}
330
59
100
DictionaryVariables
280
     0
  1
2
  0
ENDSEC
  0
EOF
