  0
SECTION
  2
HEADER
  9
$ACADVER
  1
AC1015
  9
$ACADMAINTVER
 70
     6
  9
$DWGCODEPAGE
  3
ANSI_1252
  9
$INSBASE
 10
0.0
 20
0.0
 30
0.0
  9
$EXTMIN
 10
0.0
 20
0.0
 30
0.0
  9
$EXTMAX
 10
48.0
 20
36.0
 30
0.0
  9
$LIMMIN
 10
0.0
 20
0.0
  9
$LIMMAX
 10
48.0
 20
36.0
  9
$ORTHOMODE
 70
     0
  9
$REGENMODE
 70
     1
  9
$FILLMODE
 70
     1
  9
$QTEXTMODE
 70
     0
  9
$MIRRTEXT
 70
     1
  9
$LTSCALE
 40
1.0
  9
$ATTMODE
 70
     1
  9
$TEXTSIZE
 40
0.5
  9
$TRACEWID
 40
0.05
  9
$TEXTSTYLE
  7
STANDARD
  9
$CLAYER
  8
0
  9
$CELTYPE
  6
ByLayer
  9
$CECOLOR
 62
   256
  9
$CELTSCALE
 40
1.0
  9
$DISPSILH
 70
     0
  9
$DIMSCALE
 40
1.0
  9
$DIMASZ
 40
0.3
  9
$DIMEXO
 40
0.1666666667
  9
$DIMDLI
 40
0.38
  9
$DIMRND
 40
0.0
  9
$DIMDLE
 40
0.0
  9
$DIMEXE
 40
0.375
  9
$DIMTP
 40
0.0
  9
$DIMTM
 40
0.0
  9
$DIMTXT
 40
0.5
  9
$DIMCEN
 40
0.09
  9
$DIMTSZ
 40
0.0
  9
$DIMTOL
 70
     0
  9
$DIMLIM
 70
     0
  9
$DIMTIH
 70
     1
  9
$DIMTOH
 70
     1
  9
$DIMSE1
 70
     0
  9
$DIMSE2
 70
     0
  9
$DIMTAD
 70
     0
  9
$DIMZIN
 70
     1
  9
$DIMBLK
  1

  9
$DIMASO
 70
     1
  9
$DIMSHO
 70
     1
  9
$DIMPOST
  1

  9
$DIMAPOST
  1

  9
$DIMALT
 70
     0
  9
$DIMALTD
 70
     2
  9
$DIMALTF
 40
25.4
  9
$DIMLFAC
 40
1.0
  9
$DIMTOFL
 70
     0
  9
$DIMTVP
 40
0.0
  9
$DIMTIX
 70
     0
  9
$DIMSOXD
 70
     0
  9
$DIMSAH
 70
     0
  9
$DIMBLK1
  1

  9
$DIMBLK2
  1

  9
$DIMSTYLE
  2
Standard
  9
$DIMCLRD
 70
     0
  9
$DIMCLRE
 70
     0
  9
$DIMCLRT
 70
     0
  9
$DIMTFAC
 40
1.0
  9
$DIMGAP
 40
0.125
  9
$DIMJUST
 70
     0
  9
$DIMSD1
 70
     0
  9
$DIMSD2
 70
     0
  9
$DIMTOLJ
 70
     1
  9
$DIMTZIN
 70
     1
  9
$DIMALTZ
 70
     0
  9
$DIMALTTZ
 70
     0
  9
$DIMUPT
 70
     0
  9
$DIMDEC
 70
     2
  9
$DIMTDEC
 70
     2
  9
$DIMALTU
 70
     2
  9
$DIMALTTD
 70
     2
  9
$DIMTXSTY
  7
STANDARD
  9
$DIMAUNIT
 70
     0
  9
$DIMADEC
 70
     2
  9
$DIMALTRND
 40
0.0
  9
$DIMAZIN
 70
     0
  9
$DIMDSEP
 70
    46
  9
$DIMATFIT
 70
     3
  9
$DIMFRAC
 70
     0
  9
$DIMLDRBLK
  1

  9
$DIMLUNIT
 70
     2
  9
$DIMLWD
 70
    -2
  9
$DIMLWE
 70
    -2
  9
$DIMTMOVE
 70
     0
  9
$LUNITS
 70
     2
  9
$LUPREC
 70
     4
  9
$SKETCHINC
 40
0.1
  9
$FILLETRAD
 40
0.5
  9
$AUNITS
 70
     0
  9
$AUPREC
 70
     2
  9
$MENU
  1
.
  9
$ELEVATION
 40
0.0
  9
$PELEVATION
 40
0.0
  9
$THICKNESS
 40
0.0
  9
$LIMCHECK
 70
     0
  9
$CHAMFERA
 40
0.0
  9
$CHAMFERB
 40
0.0
  9
$CHAMFERC
 40
0.0
  9
$CHAMFERD
 40
0.0
  9
$SKPOLY
 70
     0
  9
$TDCREATE
 40
2459466.422380764
  9
$TDUCREATE
 40
2459466.589047431
  9
$TDUPDATE
 40
2459466.422385335
  9
$TDUUPDATE
 40
2459466.589052002
  9
$TDINDWG
 40
0.0000000116
  9
$TDUSRTIMER
 40
0.0000000116
  9
$USRTIMER
 70
     1
  9
$ANGBASE
 50
0.0
  9
$ANGDIR
 70
     0
  9
$PDMODE
 70
     0
  9
$PDSIZE
 40
-1.0
  9
$PLINEWID
 40
0.0
  9
$SPLFRAME
 70
     0
  9
$SPLINETYPE
 70
     6
  9
$SPLINESEGS
 70
     8
  9
$HANDSEED
  5
4CC
  9
$SURFTAB1
 70
     6
  9
$SURFTAB2
 70
     6
  9
$SURFTYPE
 70
     6
  9
$SURFU
 70
     6
  9
$SURFV
 70
     6
  9
$UCSBASE
  2

  9
$UCSNAME
  2

  9
$UCSORG
 10
0.0
 20
0.0
 30
0.0
  9
$UCSXDIR
 10
1.0
 20
0.0
 30
0.0
  9
$UCSYDIR
 10
0.0
 20
1.0
 30
0.0
  9
$UCSORTHOREF
  2

  9
$UCSORTHOVIEW
 70
     0
  9
$UCSORGTOP
 10
0.0
 20
0.0
 30
0.0
  9
$UCSORGBOTTOM
 10
0.0
 20
0.0
 30
0.0
  9
$UCSORGLEFT
 10
0.0
 20
0.0
 30
0.0
  9
$UCSORGRIGHT
 10
0.0
 20
0.0
 30
0.0
  9
$UCSORGFRONT
 10
0.0
 20
0.0
 30
0.0
  9
$UCSORGBACK
 10
0.0
 20
0.0
 30
0.0
  9
$PUCSBASE
  2

  9
$PUCSNAME
  2

  9
$PUCSORG
 10
0.0
 20
0.0
 30
0.0
  9
$PUCSXDIR
 10
1.0
 20
0.0
 30
0.0
  9
$PUCSYDIR
 10
0.0
 20
1.0
 30
0.0
  9
$PUCSORTHOREF
  2

  9
$PUCSORTHOVIEW
 70
     0
  9
$PUCSORGTOP
 10
0.0
 20
0.0
 30
0.0
  9
$PUCSORGBOTTOM
 10
0.0
 20
0.0
 30
0.0
  9
$PUCSORGLEFT
 10
0.0
 20
0.0
 30
0.0
  9
$PUCSORGRIGHT
 10
0.0
 20
0.0
 30
0.0
  9
$PUCSORGFRONT
 10
0.0
 20
0.0
 30
0.0
  9
$PUCSORGBACK
 10
0.0
 20
0.0
 30
0.0
  9
$USERI1
 70
     0
  9
$USERI2
 70
     0
  9
$USERI3
 70
     0
  9
$USERI4
 70
     0
  9
$USERI5
 70
     0
  9
$USERR1
 40
0.0
  9
$USERR2
 40
0.0
  9
$USERR3
 40
0.0
  9
$USERR4
 40
0.0
  9
$USERR5
 40
0.0
  9
$WORLDVIEW
 70
     1
  9
$SHADEDGE
 70
     3
  9
$SHADEDIF
 70
    70
  9
$TILEMODE
 70
     1
  9
$MAXACTVP
 70
    64
  9
$PINSBASE
 10
0.0
 20
0.0
 30
0.0
  9
$PLIMCHECK
 70
     0
  9
$PEXTMIN
 10
1.0000000000E+20
 20
1.0000000000E+20
 30
1.0000000000E+20
  9
$PEXTMAX
 10
-1.0000000000E+20
 20
-1.0000000000E+20
 30
-1.0000000000E+20
  9
$PLIMMIN
 10
0.0
 20
0.0
  9
$PLIMMAX
 10
12.0
 20
9.0
  9
$UNITMODE
 70
     0
  9
$VISRETAIN
 70
     1
  9
$PLINEGEN
 70
     0
  9
$PSLTSCALE
 70
     1
  9
$TREEDEPTH
 70
  3020
  9
$CMLSTYLE
  2
Standard
  9
$CMLJUST
 70
     0
  9
$CMLSCALE
 40
1.0
  9
$PROXYGRAPHICS
 70
     1
  9
$MEASUREMENT
 70
     0
  9
$CELWEIGHT
370
    -1
  9
$ENDCAPS
280
     0
  9
$JOINSTYLE
280
     0
  9
$LWDISPLAY
290
     1
  9
$INSUNITS
 70
     1
  9
$HYPERLINKBASE
  1

  9
$STYLESHEET
  1

  9
$XEDIT
290
     1
  9
$CEPSNTYPE
380
     0
  9
$PSTYLEMODE
290
     1
  9
$FINGERPRINTGUID
  2
{9025e888-6179-4f51-ad5e-e8241c4256d1}
  9
$VERSIONGUID
  2
{FAEB1C32-E019-11D5-929B-00C0DF256EC4}
  9
$EXTNAMES
290
     1
  9
$PSVPSCALE
 40
0.0
  9
$OLESTARTUP
290
     0
  0
ENDSEC
  0
SECTION
  2
CLASSES
  0
CLASS
  1
ACDBDICTIONARYWDFLT
  2
AcDbDictionaryWithDefault
  3
ObjectDBX Classes
 90
        0
280
     0
281
     0
  0
CLASS
  1
VISUALSTYLE
  2
AcDbVisualStyle
  3
ObjectDBX Classes
 90
     4095
280
     0
281
     0
  0
CLASS
  1
MATERIAL
  2
AcDbMaterial
  3
ObjectDBX Classes
 90
     1153
280
     0
281
     0
  0
CLASS
  1
SCALE
  2
AcDbScale
  3
ObjectDBX Classes
 90
     1153
280
     0
281
     0
  0
CLASS
  1
TABLESTYLE
  2
AcDbTableStyle
  3
ObjectDBX Classes
 90
     4095
280
     0
281
     0
  0
CLASS
  1
MLEADERSTYLE
  2
AcDbMLeaderStyle
  3
ACDB_MLEADERSTYLE_CLASS
 90
     4095
280
     0
281
     0
  0
CLASS
  1
SUN
  2
AcDbSun
  3
SCENEOE
 90
     1153
280
     0
281
     0
  0
CLASS
  1
ACDBPLACEHOLDER
  2
AcDbPlaceHolder
  3
ObjectDBX Classes
 90
        0
280
     0
281
     0
  0
CLASS
  1
LAYOUT
  2
AcDbLayout
  3
ObjectDBX Classes
 90
        0
280
     0
281
     0
  0
ENDSEC
  0
SECTION
  2
TABLES
  0
TABLE
  2
VPORT
  5
8
330
0
100
AcDbSymbolTable
 70
     1
  0
VPORT
  5
29
330
8
100
AcDbSymbolTableRecord
100
AcDbViewportTableRecord
  2
*Active
 70
     0
 10
0.0
 20
0.0
 11
1.0
 21
1.0
 12
24.0
 22
18.0
 13
0.0
 23
0.0
 14
0.5
 24
0.5
 15
0.5
 25
0.5
 16
0.0
 26
0.0
 36
1.0
 17
0.0
 27
0.0
 37
0.0
 40
36.0
 41
1.3333333333
 42
50.0
 43
0.0
 44
0.0
 50
0.0
 51
0.0
 71
     0
 72
  2000
 73
     1
 74
     3
 75
     0
 76
     0
 77
     0
 78
     0
281
     0
 65
     1
110
0.0
120
0.0
130
0.0
111
1.0
121
0.0
131
0.0
112
0.0
122
1.0
132
0.0
 79
     0
146
0.0
  0
ENDTAB
  0
TABLE
  2
LTYPE
  5
5
330
0
100
AcDbSymbolTable
 70
     8
  0
LTYPE
  5
14
330
5
100
AcDbSymbolTableRecord
100
AcDbLinetypeTableRecord
  2
ByBlock
 70
     0
  3

 72
    65
 73
     0
 40
0.0
  0
LTYPE
  5
15
330
5
100
AcDbSymbolTableRecord
100
AcDbLinetypeTableRecord
  2
ByLayer
 70
     0
  3

 72
    65
 73
     0
 40
0.0
  0
LTYPE
  5
16
330
5
100
AcDbSymbolTableRecord
100
AcDbLinetypeTableRecord
  2
Continuous
 70
     0
  3
Solid line
 72
    65
 73
     0
 40
0.0
  0
LTYPE
  5
6E
330
5
100
AcDbSymbolTableRecord
100
AcDbLinetypeTableRecord
  2
SLD-Solid
 70
     0
  3
SolidWorks Line Style
 72
    65
 73
     0
 40
0.0
  0
LTYPE
  5
6F
330
5
100
AcDbSymbolTableRecord
100
AcDbLinetypeTableRecord
  2
SLD-Dashed
 70
     0
  3
SolidWorks Line Style
 72
    65
 73
     2
 40
0.075
 49
0.05
 74
     0
 49
-0.025
 74
     0
  0
LTYPE
  5
70
330
5
100
AcDbSymbolTableRecord
100
AcDbLinetypeTableRecord
  2
SLD-Phantom
 70
     0
  3
SolidWorks Line Style
 72
    65
 73
     6
 40
0.5
 49
0.25
 74
     0
 49
-0.05
 74
     0
 49
0.05
 74
     0
 49
-0.05
 74
     0
 49
0.05
 74
     0
 49
-0.05
 74
     0
  0
LTYPE
  5
71
330
5
100
AcDbSymbolTableRecord
100
AcDbLinetypeTableRecord
  2
SLD-Chain
 70
     0
  3
SolidWorks Line Style
 72
    65
 73
     4
 40
0.4
 49
0.25
 74
     0
 49
-0.05
 74
     0
 49
0.05
 74
     0
 49
-0.05
 74
     0
  0
LTYPE
  5
72
330
5
100
AcDbSymbolTableRecord
100
AcDbLinetypeTableRecord
  2
SLD-Center
 70
     0
  3
SolidWorks Line Style
 72
    65
 73
     4
 40
0.75
 49
0.6
 74
     0
 49
-0.05
 74
     0
 49
0.05
 74
     0
 49
-0.05
 74
     0
  0
LTYPE
  5
73
330
5
100
AcDbSymbolTableRecord
100
AcDbLinetypeTableRecord
  2
SLD-Stitch
 70
     0
  3
SolidWorks Line Style
 72
    65
 73
     2
 40
0.025
 49
0.0
 74
     0
 49
-0.025
 74
     0
  0
LTYPE
  5
74
330
5
100
AcDbSymbolTableRecord
100
AcDbLinetypeTableRecord
  2
SLD-Thin-Thick-Chain
 70
     0
  3
SolidWorks Line Style
 72
    65
 73
     4
 40
0.4
 49
0.25
 74
     0
 49
-0.05
 74
     0
 49
0.05
 74
     0
 49
-0.05
 74
     0
  0
ENDTAB
  0
TABLE
  2
LAYER
  5
2
330
0
100
AcDbSymbolTable
 70
     6
  0
LAYER
  5
10
330
2
100
AcDbSymbolTableRecord
100
AcDbLayerTableRecord
  2
0
 70
     0
 62
     7
  6
Continuous
370
    -3
390
F
  0
LAYER
  5
75
330
2
100
AcDbSymbolTableRecord
100
AcDbLayerTableRecord
  2
FORMAT
 70
     0
 62
     7
  6
SLD-Solid
370
    -3
390
F
  0
LAYER
  5
76
330
2
100
AcDbSymbolTableRecord
100
AcDbLayerTableRecord
  2
NOTES
 70
     0
 62
     1
  6
SLD-Solid
370
    -3
390
F
  0
LAYER
  5
77
330
2
100
AcDbSymbolTableRecord
100
AcDbLayerTableRecord
  2
OBJECT
 70
     0
 62
     7
  6
SLD-Solid
370
    25
390
F
  0
LAYER
  5
78
330
2
100
AcDbSymbolTableRecord
100
AcDbLayerTableRecord
  2
DIMS
 70
     0
 62
     5
  6
SLD-Solid
370
    -3
390
F
  0
LAYER
  5
79
330
2
100
AcDbSymbolTableRecord
100
AcDbLayerTableRecord
  2
TITLE
 70
     0
 62
     8
  6
SLD-Solid
370
    -3
390
F
  0
ENDTAB
  0
TABLE
  2
STYLE
  5
3
330
0
100
AcDbSymbolTable
 70
     5
  0
STYLE
  5
11
330
3
100
AcDbSymbolTableRecord
100
AcDbTextStyleTableRecord
  2
STANDARD
 70
     0
 40
0.0
 41
1.0
 50
0.0
 71
     0
 42
0.5
  3
GOTHIC.TTF
  4

1001
ACAD
1000
CENTURY GOTHIC
1071
       34
  0
STYLE
  5
DD
330
3
100
AcDbSymbolTableRecord
100
AcDbTextStyleTableRecord
  2
SLDTEXTSTYLE0
 70
     0
 40
0.0
 41
0.948
 50
0.0
 71
     0
 42
0.5
  3
ARIAL.TTF
  4

1001
ACAD
1000
Arial
1071
      290
  0
STYLE
  5
E1
330
3
100
AcDbSymbolTableRecord
100
AcDbTextStyleTableRecord
  2
SLDTEXTSTYLE1
 70
     0
 40
0.0
 41
0.913
 50
0.0
 71
     0
 42
0.5
  3
GOTHIC.TTF
  4

1001
ACAD
1000
Century Gothic
1071
      290
  0
STYLE
  5
F0
330
3
100
AcDbSymbolTableRecord
100
AcDbTextStyleTableRecord
  2
SLDTEXTSTYLE2
 70
     0
 40
0.0
 41
0.87
 50
0.0
 71
     0
 42
0.5
  3
ARIALNB.TTF
  4

1001
ACAD
1000
Arial Narrow
1071
 33554722
  0
STYLE
  5
F2
330
3
100
AcDbSymbolTableRecord
100
AcDbTextStyleTableRecord
  2
SLDTEXTSTYLE3
 70
     0
 40
0.0
 41
0.87
 50
0.0
 71
     0
 42
0.5
  3
ARIALN.TTF
  4

1001
ACAD
1000
Arial Narrow
1071
      290
  0
ENDTAB
  0
TABLE
  2
VIEW
  5
6
330
0
100
AcDbSymbolTable
 70
     0
  0
ENDTAB
  0
TABLE
  2
UCS
  5
7
330
0
100
AcDbSymbolTable
 70
     0
  0
ENDTAB
  0
TABLE
  2
APPID
  5
9
330
0
100
AcDbSymbolTable
 70
     1
  0
APPID
  5
12
330
9
100
AcDbSymbolTableRecord
100
AcDbRegAppTableRecord
  2
ACAD
 70
     0
  0
ENDTAB
  0
TABLE
  2
DIMSTYLE
  5
A
330
0
100
AcDbSymbolTable
 70
     5
100
AcDbDimStyleTable
  0
DIMSTYLE
105
27
330
A
100
AcDbSymbolTableRecord
100
AcDbDimStyleTableRecord
  2
Standard
 70
     0
178
     0
340
11
  0
DIMSTYLE
105
1F8
102
{ACAD_REACTORS
330
1F7
330
20D
330
26A
330
4BA
102
}
330
A
100
AcDbSymbolTableRecord
100
AcDbDimStyleTableRecord
  2
SLDDIMSTYLE0
 70
     0
 41
0.3
 44
0.0
 45
0.000000001
 78
    12
 79
     3
140
0.5
147
0.125
173
     1
178
     0
271
     6
272
     2
276
     2
277
     5
284
    12
340
E1
341
1F9
343
1F9
344
1F9
  0
DIMSTYLE
105
21D
102
{ACAD_REACTORS
330
21C
330
4AF
102
}
330
A
100
AcDbSymbolTableRecord
100
AcDbDimStyleTableRecord
  2
SLDDIMSTYLE1
 70
     0
 41
0.3
 44
0.0
 45
0.000000001
 78
    12
 79
     3
140
0.5
147
0.125
173
     1
178
     0
271
     2
272
     2
276
     2
277
     5
284
    12
340
E1
341
1F9
343
1F9
344
1F9
  0
DIMSTYLE
105
229
102
{ACAD_REACTORS
330
228
102
}
330
A
100
AcDbSymbolTableRecord
100
AcDbDimStyleTableRecord
  2
SLDDIMSTYLE2
 70
     0
 41
0.3
 44
0.0
 45
0.000000001
 78
    12
 79
     3
140
0.5
141
0.0
147
0.125
173
     1
178
     0
271
     2
272
     2
276
     2
277
     5
284
    12
340
E1
341
1F9
343
1F9
344
1F9
  0
DIMSTYLE
105
27A
102
{ACAD_REACTORS
330
279
102
}
330
A
100
AcDbSymbolTableRecord
100
AcDbDimStyleTableRecord
  2
SLDDIMSTYLE3
 70
     0
 41
0.3
 44
0.0
 45
0.000000001
 78
    12
 79
     3
140
0.5
147
0.125
172
     1
173
     1
178
     0
271
     6
272
     2
276
     2
277
     5
284
    12
289
     0
340
E1
341
1F9
343
1F9
344
1F9
  0
ENDTAB
  0
TABLE
  2
BLOCK_RECORD
  5
1
330
0
100
AcDbSymbolTable
 70
    13
  0
BLOCK_RECORD
  5
1F
330
1
100
AcDbSymbolTableRecord
100
AcDbBlockTableRecord
  2
*Model_Space
340
22
  0
BLOCK_RECORD
  5
1B
330
1
100
AcDbSymbolTableRecord
100
AcDbBlockTableRecord
  2
*Paper_Space
340
1E
  0
BLOCK_RECORD
  5
23
330
1
100
AcDbSymbolTableRecord
100
AcDbBlockTableRecord
  2
*Paper_Space0
340
26
  0
BLOCK_RECORD
  5
E7
330
1
100
AcDbSymbolTableRecord
100
AcDbBlockTableRecord
  2
SW_NOTE_0
340
0
102
{BLKREFS
331
EC
102
}
  0
BLOCK_RECORD
  5
ED
330
1
100
AcDbSymbolTableRecord
100
AcDbBlockTableRecord
  2
SW_NOTE_0_1
340
0
102
{BLKREFS
331
F6
102
}
  0
BLOCK_RECORD
  5
1F9
330
1
100
AcDbSymbolTableRecord
100
AcDbBlockTableRecord
  2
_Open90
340
0
102
{BLKREFS
331
202
331
203
331
211
331
212
331
221
331
222
331
22D
331
26E
331
26F
331
27E
331
27F
331
4B3
331
4B4
331
4BE
331
4BF
102
}
  0
BLOCK_RECORD
  5
1FF
330
1
100
AcDbSymbolTableRecord
100
AcDbBlockTableRecord
  2
_D
340
0
  0
BLOCK_RECORD
  5
20E
330
1
100
AcDbSymbolTableRecord
100
AcDbBlockTableRecord
  2
_D_1
340
0
  0
BLOCK_RECORD
  5
21E
330
1
100
AcDbSymbolTableRecord
100
AcDbBlockTableRecord
  2
_D_2
340
0
  0
BLOCK_RECORD
  5
22A
330
1
100
AcDbSymbolTableRecord
100
AcDbBlockTableRecord
  2
_D_3
340
0
  0
BLOCK_RECORD
  5
26B
330
1
100
AcDbSymbolTableRecord
100
AcDbBlockTableRecord
  2
_D_4
340
0
  0
BLOCK_RECORD
  5
27B
330
1
100
AcDbSymbolTableRecord
100
AcDbBlockTableRecord
  2
_D_5
340
0
  0
BLOCK_RECORD
  5
3C7
330
1
100
AcDbSymbolTableRecord
100
AcDbBlockTableRecord
  2
SW_NOTE_0_2
340
0
102
{BLKREFS
331
3CC
102
}
  0
BLOCK_RECORD
  5
4B0
330
1
100
AcDbSymbolTableRecord
100
AcDbBlockTableRecord
  2
_D_6
340
0
  0
BLOCK_RECORD
  5
4BB
330
1
100
AcDbSymbolTableRecord
100
AcDbBlockTableRecord
  2
_D_7
340
0
  0
ENDTAB
  0
ENDSEC
  0
SECTION
  2
BLOCKS
  0
BLOCK
  5
20
330
1F
100
AcDbEntity
  8
0
100
AcDbBlockBegin
  2
*Model_Space
 70
     0
 10
0.0
 20
0.0
 30
0.0
  3
*Model_Space
  1

  0
ENDBLK
  5
21
330
1F
100
AcDbEntity
  8
0
100
AcDbBlockEnd
  0
BLOCK
  5
1C
330
1B
100
AcDbEntity
 67
     1
  8
0
100
AcDbBlockBegin
  2
*Paper_Space
 70
     0
 10
0.0
 20
0.0
 30
0.0
  3
*Paper_Space
  1

  0
ENDBLK
  5
1D
330
1B
100
AcDbEntity
 67
     1
  8
0
100
AcDbBlockEnd
  0
BLOCK
  5
24
330
23
100
AcDbEntity
  8
0
100
AcDbBlockBegin
  2
*Paper_Space0
 70
     0
 10
0.0
 20
0.0
 30
0.0
  3
*Paper_Space0
  1

  0
ENDBLK
  5
25
330
23
100
AcDbEntity
  8
0
100
AcDbBlockEnd
  0
BLOCK
  5
E8
330
E7
100
AcDbEntity
  8
0
100
AcDbBlockBegin
  2
SW_NOTE_0
 70
     0
 10
0.0
 20
0.0
 30
0.0
  3
SW_NOTE_0
  1

  0
MTEXT
  5
EA
330
E7
100
AcDbEntity
  8
NOTES
 62
     0
100
AcDbMText
 10
0.0
 20
0.3759780908
 30
0.0
 40
0.2916666667
 41
0.0
 71
     1
 72
     1
  1
FROST PRODUCTS LTD.
  7
SLDTEXTSTYLE0
 73
     1
 44
1.0
  0
MTEXT
  5
EB
330
E7
100
AcDbEntity
  8
NOTES
 62
     0
100
AcDbMText
 10
0.0
 20
-0.0495142709
 30
0.0
 40
0.2291666667
 41
0.0
 71
     1
 72
     1
  1
5280 JOHN LUCAS DRIVE, BURLINGTON, ON, L7L 5Z9
  7
SLDTEXTSTYLE0
 73
     1
 44
1.0
  0
ENDBLK
  5
E9
330
E7
100
AcDbEntity
  8
0
100
AcDbBlockEnd
  0
BLOCK
  5
EE
330
ED
100
AcDbEntity
  8
0
100
AcDbBlockBegin
  2
SW_NOTE_0_1
 70
     0
 10
0.0
 20
0.0
 30
0.0
  3
SW_NOTE_0_1
  1

  0
MTEXT
  5
F1
330
ED
100
AcDbEntity
  8
NOTES
 62
     0
100
AcDbMText
 10
0.0
 20
0.2381282771
 30
0.0
 40
0.184729064
 41
0.0
 71
     1
 72
     1
  1
PROPRIETARY AND CONFIDENTIAL
  7
SLDTEXTSTYLE2
 73
     1
 44
1.0
  0
MTEXT
  5
F3
330
ED
100
AcDbEntity
  8
NOTES
 62
     0
100
AcDbMText
 10
0.0
 20
-0.0504364796
 30
0.0
 40
0.25
 41
0.0
 71
     1
 72
     1
  1
THE INFORMATION CONTAINED IN THIS DRAWING IS THE SOLE PROPERTY OF 
  7
SLDTEXTSTYLE3
 73
     1
 44
1.0
  0
MTEXT
  5
F4
330
ED
100
AcDbEntity
  8
NOTES
 62
     0
100
AcDbMText
 10
0.0
 20
-0.4231398941
 30
0.0
 40
0.25
 41
0.0
 71
     1
 72
     1
  1
FROST PRODUCTS LTD.  ANY REPRODUCTION IN PART OR AS A WHOLE WITHOUT 
  7
SLDTEXTSTYLE3
 73
     1
 44
1.0
  0
MTEXT
  5
F5
330
ED
100
AcDbEntity
  8
NOTES
 62
     0
100
AcDbMText
 10
0.0
 20
-0.7958433086
 30
0.0
 40
0.25
 41
0.0
 71
     1
 72
     1
  1
THE WRITTEN PERMISSION OF FROST PRODUCTS LTD. IS PROHIBITED.
  7
SLDTEXTSTYLE3
 73
     1
 44
1.0
  0
ENDBLK
  5
EF
330
ED
100
AcDbEntity
  8
0
100
AcDbBlockEnd
  0
BLOCK
  5
1FA
330
1F9
100
AcDbEntity
  8
0
100
AcDbBlockBegin
  2
_Open90
 70
     0
 10
0.0
 20
0.0
 30
0.0
  3
_Open90
  1

  0
LINE
  5
1FC
330
1F9
100
AcDbEntity
  8
0
  6
ByBlock
 62
     0
370
    -2
100
AcDbLine
 10
-0.5
 20
0.5
 30
0.0
 11
0.0
 21
0.0
 31
0.0
  0
LINE
  5
1FD
330
1F9
100
AcDbEntity
  8
0
  6
ByBlock
 62
     0
370
    -2
100
AcDbLine
 10
0.0
 20
0.0
 30
0.0
 11
-0.5
 21
-0.5
 31
0.0
  0
LINE
  5
1FE
330
1F9
100
AcDbEntity
  8
0
  6
ByBlock
 62
     0
370
    -2
100
AcDbLine
 10
0.0
 20
0.0
 30
0.0
 11
-1.0
 21
0.0
 31
0.0
  0
ENDBLK
  5
1FB
330
1F9
100
AcDbEntity
  8
0
100
AcDbBlockEnd
  0
BLOCK
  5
200
330
1FF
100
AcDbEntity
  8
0
100
AcDbBlockBegin
  2
_D
 70
     0
 10
0.0
 20
0.0
 30
0.0
  3
_D
  1

  0
INSERT
  5
202
330
1FF
100
AcDbEntity
  8
DIMS
100
AcDbBlockReference
  2
_Open90
 10
2.2589180124
 20
12.0311252129
 30
-0.3322475372
 41
0.3
 42
0.3
 50
180.0
  0
INSERT
  5
203
330
1FF
100
AcDbEntity
  8
DIMS
100
AcDbBlockReference
  2
_Open90
 10
19.7589180124
 20
12.0311252129
 30
-0.3322475372
 41
0.3
 42
0.3
 50
0.0
  0
LINE
  5
204
330
1FF
100
AcDbEntity
  8
DIMS
100
AcDbLine
 10
11.0172513512
 20
12.0824099113
 30
0.0
 11
11.5332236006
 21
12.0824099113
 31
0.0
  0
LINE
  5
205
330
1FF
100
AcDbEntity
  8
DIMS
100
AcDbLine
 10
2.2589180124
 20
9.9041661115
 30
0.0
 11
2.2589180124
 21
12.4061252129
 31
0.0
  0
LINE
  5
206
330
1FF
100
AcDbEntity
  8
DIMS
100
AcDbLine
 10
19.7589180124
 20
9.9041661115
 30
0.0
 11
19.7589180124
 21
12.4061252129
 31
0.0
  0
LINE
  5
207
330
1FF
100
AcDbEntity
  8
DIMS
100
AcDbLine
 10
2.2589180124
 20
12.0311252129
 30
0.0
 11
10.2050985582
 21
12.0311252129
 31
0.0
  0
LINE
  5
208
330
1FF
100
AcDbEntity
  8
DIMS
100
AcDbLine
 10
19.7589180124
 20
12.0311252129
 30
0.0
 11
11.8127374667
 21
12.0311252129
 31
0.0
  0
MTEXT
  5
209
330
1FF
100
AcDbEntity
  8
DIMS
100
AcDbMText
 10
10.2050985582
 20
12.3118109717
 30
0.0
 40
0.5
 41
0.0
 71
     1
 72
     1
  1
17
  7
SLDTEXTSTYLE1
 73
     1
 44
1.0
  0
MTEXT
  5
20A
330
1FF
100
AcDbEntity
  8
DIMS
100
AcDbMText
 10
11.0905152532
 20
12.6771234708
 30
0.0
 40
0.5
 41
0.0
 71
     1
 72
     1
  1
1
  7
SLDTEXTSTYLE1
 73
     1
 44
1.0
  0
MTEXT
  5
20B
330
1FF
100
AcDbEntity
  8
DIMS
100
AcDbMText
 10
11.0905152532
 20
12.0159428922
 30
0.0
 40
0.5
 41
0.0
 71
     1
 72
     1
  1
2
  7
SLDTEXTSTYLE1
 73
     1
 44
1.0
  0
MTEXT
  5
20C
330
1FF
100
AcDbEntity
  8
DIMS
100
AcDbMText
 10
11.6064875026
 20
12.3118109717
 30
0.0
 40
0.5
 41
0.0
 71
     1
 72
     1
  1
"
  7
SLDTEXTSTYLE1
 73
     1
 44
1.0
  0
ENDBLK
  5
201
330
1FF
100
AcDbEntity
  8
0
100
AcDbBlockEnd
  0
BLOCK
  5
20F
330
20E
100
AcDbEntity
  8
0
100
AcDbBlockBegin
  2
_D_1
 70
     0
 10
0.0
 20
0.0
 30
0.0
  3
_D_1
  1

  0
INSERT
  5
211
330
20E
100
AcDbEntity
  8
DIMS
100
AcDbBlockReference
  2
_Open90
 10
19.7589180124
 20
12.0311252129
 30
-0.3322475372
 41
0.3
 42
0.3
 50
180.0
  0
INSERT
  5
212
330
20E
100
AcDbEntity
  8
DIMS
100
AcDbBlockReference
  2
_Open90
 10
37.2589180124
 20
12.0311252129
 30
-0.3322475372
 41
0.3
 42
0.3
 50
0.0
  0
LINE
  5
213
330
20E
100
AcDbEntity
  8
DIMS
100
AcDbLine
 10
28.5172513512
 20
12.0824099113
 30
0.0
 11
29.0332236006
 21
12.0824099113
 31
0.0
  0
LINE
  5
214
330
20E
100
AcDbEntity
  8
DIMS
100
AcDbLine
 10
19.7589180124
 20
9.9041661115
 30
0.0
 11
19.7589180124
 21
12.4061252129
 31
0.0
  0
LINE
  5
215
330
20E
100
AcDbEntity
  8
DIMS
100
AcDbLine
 10
37.2589180124
 20
9.9041661115
 30
0.0
 11
37.2589180124
 21
12.4061252129
 31
0.0
  0
LINE
  5
216
330
20E
100
AcDbEntity
  8
DIMS
100
AcDbLine
 10
19.7589180124
 20
12.0311252129
 30
0.0
 11
27.7050985582
 21
12.0311252129
 31
0.0
  0
LINE
  5
217
330
20E
100
AcDbEntity
  8
DIMS
100
AcDbLine
 10
37.2589180124
 20
12.0311252129
 30
0.0
 11
29.3127374667
 21
12.0311252129
 31
0.0
  0
MTEXT
  5
218
330
20E
100
AcDbEntity
  8
DIMS
100
AcDbMText
 10
27.7050985582
 20
12.3118109717
 30
0.0
 40
0.5
 41
0.0
 71
     1
 72
     1
  1
17
  7
SLDTEXTSTYLE1
 73
     1
 44
1.0
  0
MTEXT
  5
219
330
20E
100
AcDbEntity
  8
DIMS
100
AcDbMText
 10
28.5905152532
 20
12.6771234708
 30
0.0
 40
0.5
 41
0.0
 71
     1
 72
     1
  1
1
  7
SLDTEXTSTYLE1
 73
     1
 44
1.0
  0
MTEXT
  5
21A
330
20E
100
AcDbEntity
  8
DIMS
100
AcDbMText
 10
28.5905152532
 20
12.0159428922
 30
0.0
 40
0.5
 41
0.0
 71
     1
 72
     1
  1
2
  7
SLDTEXTSTYLE1
 73
     1
 44
1.0
  0
MTEXT
  5
21B
330
20E
100
AcDbEntity
  8
DIMS
100
AcDbMText
 10
29.1064875026
 20
12.3118109717
 30
0.0
 40
0.5
 41
0.0
 71
     1
 72
     1
  1
"
  7
SLDTEXTSTYLE1
 73
     1
 44
1.0
  0
ENDBLK
  5
210
330
20E
100
AcDbEntity
  8
0
100
AcDbBlockEnd
  0
BLOCK
  5
21F
330
21E
100
AcDbEntity
  8
0
100
AcDbBlockBegin
  2
_D_2
 70
     0
 10
0.0
 20
0.0
 30
0.0
  3
_D_2
  1

  0
INSERT
  5
221
330
21E
100
AcDbEntity
  8
DIMS
100
AcDbBlockReference
  2
_Open90
 10
37.2589180124
 20
12.9760071027
 30
-0.3322475372
 41
0.3
 42
0.3
 50
0.0
  0
INSERT
  5
222
330
21E
100
AcDbEntity
  8
DIMS
100
AcDbBlockReference
  2
_Open90
 10
2.2589180124
 20
12.9760071027
 30
-0.3322475372
 41
0.3
 42
0.3
 50
180.0
  0
LINE
  5
223
330
21E
100
AcDbEntity
  8
DIMS
100
AcDbLine
 10
37.2589180124
 20
9.9041661115
 30
0.0
 11
37.2589180124
 21
13.3510071027
 31
0.0
  0
LINE
  5
224
330
21E
100
AcDbEntity
  8
DIMS
100
AcDbLine
 10
2.2589180124
 20
9.9041661115
 30
0.0
 11
2.2589180124
 21
13.3510071027
 31
0.0
  0
LINE
  5
225
330
21E
100
AcDbEntity
  8
DIMS
100
AcDbLine
 10
37.2589180124
 20
12.9760071027
 30
0.0
 11
20.2314874399
 21
12.9760071027
 31
0.0
  0
LINE
  5
226
330
21E
100
AcDbEntity
  8
DIMS
100
AcDbLine
 10
2.2589180124
 20
12.9760071027
 30
0.0
 11
19.2863485849
 21
12.9760071027
 31
0.0
  0
MTEXT
  5
227
330
21E
100
AcDbEntity
  8
DIMS
100
AcDbMText
 10
19.2863485849
 20
13.2178040208
 30
0.0
 40
0.5
 41
0.0
 71
     1
 72
     1
  1
35"
  7
SLDTEXTSTYLE1
 73
     1
 44
1.0
  0
ENDBLK
  5
220
330
21E
100
AcDbEntity
  8
0
100
AcDbBlockEnd
  0
BLOCK
  5
22B
330
22A
100
AcDbEntity
  8
0
100
AcDbBlockBegin
  2
_D_3
 70
     0
 10
0.0
 20
0.0
 30
0.0
  3
_D_3
  1

  0
INSERT
  5
22D
330
22A
100
AcDbEntity
  8
DIMS
100
AcDbBlockReference
  2
_Open90
 10
2.3296286906
 20
9.6667887667
 30
-0.3322475372
 41
0.3
 42
0.3
 50
135.0
  0
LINE
  5
22E
330
22A
100
AcDbEntity
  8
DIMS
100
AcDbLine
 10
6.4724717797
 20
6.7025567603
 30
0.0
 11
7.3578884746
 21
6.7025567603
 31
0.0
  0
LINE
  5
22F
330
22A
100
AcDbEntity
  8
DIMS
100
AcDbLine
 10
2.3296286906
 20
9.6667887667
 30
0.0
 11
5.3451453954
 21
6.6512720619
 31
0.0
  0
LINE
  5
230
330
22A
100
AcDbEntity
  8
DIMS
100
AcDbLine
 10
5.3451453954
 20
6.6512720619
 30
0.0
 11
5.6451453954
 21
6.6512720619
 31
0.0
  0
MTEXT
  5
231
330
22A
100
AcDbEntity
  8
DIMS
100
AcDbMText
 10
5.6451453954
 20
6.9243189315
 30
0.0
 40
0.5
 41
0.0
 71
     1
 72
     1
  1
%%c
  7
SLDTEXTSTYLE1
 73
     1
 44
1.0
  0
MTEXT
  5
232
330
22A
100
AcDbEntity
  8
DIMS
100
AcDbMText
 10
6.7304579044
 20
7.2972703198
 30
0.0
 40
0.5
 41
0.0
 71
     1
 72
     1
  1
3
  7
SLDTEXTSTYLE1
 73
     1
 44
1.0
  0
MTEXT
  5
233
330
22A
100
AcDbEntity
  8
DIMS
100
AcDbMText
 10
6.5457356817
 20
6.6360897412
 30
0.0
 40
0.5
 41
0.0
 71
     1
 72
     1
  1
16
  7
SLDTEXTSTYLE1
 73
     1
 44
1.0
  0
MTEXT
  5
234
330
22A
100
AcDbEntity
  8
DIMS
100
AcDbMText
 10
7.4311523766
 20
6.9319578207
 30
0.0
 40
0.5
 41
0.0
 71
     1
 72
     1
  1
"
  7
SLDTEXTSTYLE1
 73
     1
 44
1.0
  0
MTEXT
  5
235
330
22A
100
AcDbEntity
  8
DIMS
100
AcDbMText
 10
7.6374023406
 20
6.9319578207
 30
0.0
 40
0.5
 41
0.0
 71
     1
 72
     1
  1
mounting hole (3)
  7
SLDTEXTSTYLE1
 73
     1
 44
1.0
  0
ENDBLK
  5
22C
330
22A
100
AcDbEntity
  8
0
100
AcDbBlockEnd
  0
BLOCK
  5
26C
330
26B
100
AcDbEntity
  8
0
100
AcDbBlockBegin
  2
_D_4
 70
     0
 10
0.0
 20
0.0
 30
0.0
  3
_D_4
  1

  0
INSERT
  5
26E
330
26B
100
AcDbEntity
  8
DIMS
100
AcDbBlockReference
  2
_Open90
 10
43.2847673467
 20
11.1649834806
 30
-0.2046585157
 41
0.3
 42
0.3
 50
90.0
  0
INSERT
  5
26F
330
26B
100
AcDbEntity
  8
DIMS
100
AcDbBlockReference
  2
_Open90
 10
43.2847673467
 20
8.310015409
 30
-0.2046585157
 41
0.3
 42
0.3
 50
270.0
  0
LINE
  5
270
330
26B
100
AcDbEntity
  8
DIMS
100
AcDbLine
 10
43.108378426
 20
9.7975089549
 30
0.0
 11
43.6243506754
 21
9.7975089549
 31
0.0
  0
LINE
  5
271
330
26B
100
AcDbEntity
  8
DIMS
100
AcDbLine
 10
42.8215127535
 20
11.1649834806
 30
0.0
 11
43.6597673467
 21
11.1649834806
 31
0.0
  0
LINE
  5
272
330
26B
100
AcDbEntity
  8
DIMS
100
AcDbLine
 10
42.8215127535
 20
8.310015409
 30
0.0
 11
43.6597673467
 21
8.310015409
 31
0.0
  0
LINE
  5
273
330
26B
100
AcDbEntity
  8
DIMS
100
AcDbLine
 10
43.2847673467
 20
11.1649834806
 30
0.0
 11
43.2847673467
 21
10.4000784098
 31
0.0
  0
LINE
  5
274
330
26B
100
AcDbEntity
  8
DIMS
100
AcDbLine
 10
43.2847673467
 20
8.310015409
 30
0.0
 11
43.2847673467
 21
9.0923701033
 31
0.0
  0
MTEXT
  5
275
330
26B
100
AcDbEntity
  8
DIMS
100
AcDbMText
 10
42.6656700785
 20
10.0269100154
 30
0.0
 40
0.5
 41
0.0
 71
     1
 72
     1
  1
2
  7
SLDTEXTSTYLE1
 73
     1
 44
1.0
  0
MTEXT
  5
276
330
26B
100
AcDbEntity
  8
DIMS
100
AcDbMText
 10
43.181642328
 20
10.3922225144
 30
0.0
 40
0.5
 41
0.0
 71
     1
 72
     1
  1
7
  7
SLDTEXTSTYLE1
 73
     1
 44
1.0
  0
MTEXT
  5
277
330
26B
100
AcDbEntity
  8
DIMS
100
AcDbMText
 10
43.181642328
 20
9.7310419359
 30
0.0
 40
0.5
 41
0.0
 71
     1
 72
     1
  1
8
  7
SLDTEXTSTYLE1
 73
     1
 44
1.0
  0
MTEXT
  5
278
330
26B
100
AcDbEntity
  8
DIMS
100
AcDbMText
 10
43.6976145774
 20
10.0269100154
 30
0.0
 40
0.5
 41
0.0
 71
     1
 72
     1
  1
"
  7
SLDTEXTSTYLE1
 73
     1
 44
1.0
  0
ENDBLK
  5
26D
330
26B
100
AcDbEntity
  8
0
100
AcDbBlockEnd
  0
BLOCK
  5
27C
330
27B
100
AcDbEntity
  8
0
100
AcDbBlockBegin
  2
_D_5
 70
     0
 10
0.0
 20
0.0
 30
0.0
  3
_D_5
  1

  0
INSERT
  5
27E
330
27B
100
AcDbEntity
  8
DIMS
100
AcDbBlockReference
  2
_Open90
 10
42.6548460868
 20
11.7949047405
 30
-0.2046585157
 41
0.3
 42
0.3
 50
180.0
  0
INSERT
  5
27F
330
27B
100
AcDbEntity
  8
DIMS
100
AcDbBlockReference
  2
_Open90
 10
42.1742730746
 20
11.7949047405
 30
-0.2046585157
 41
0.3
 42
0.3
 50
0.0
  0
LINE
  5
280
330
27B
100
AcDbEntity
  8
DIMS
100
AcDbLine
 10
40.7031453426
 20
11.8461894389
 30
0.0
 11
41.2191175921
 21
11.8461894389
 31
0.0
  0
LINE
  5
281
330
27B
100
AcDbEntity
  8
DIMS
100
AcDbLine
 10
42.6548460868
 20
11.3316501473
 30
0.0
 11
42.6548460868
 21
12.1699047405
 31
0.0
  0
LINE
  5
282
330
27B
100
AcDbEntity
  8
DIMS
100
AcDbLine
 10
42.1742730746
 20
11.2616501473
 30
0.0
 11
42.1742730746
 21
12.1699047405
 31
0.0
  0
LINE
  5
283
330
27B
100
AcDbEntity
  8
DIMS
100
AcDbLine
 10
42.6548460868
 20
11.7949047405
 30
0.0
 11
42.9548460868
 21
11.7949047405
 31
0.0
  0
LINE
  5
284
330
27B
100
AcDbEntity
  8
DIMS
100
AcDbLine
 10
42.1742730746
 20
11.7949047405
 30
0.0
 11
41.4986314581
 21
11.7949047405
 31
0.0
  0
MTEXT
  5
285
330
27B
100
AcDbEntity
  8
DIMS
100
AcDbMText
 10
40.7764092446
 20
12.4409029984
 30
0.0
 40
0.5
 41
0.0
 71
     1
 72
     1
  1
1
  7
SLDTEXTSTYLE1
 73
     1
 44
1.0
  0
MTEXT
  5
286
330
27B
100
AcDbEntity
  8
DIMS
100
AcDbMText
 10
40.7764092446
 20
11.7797224198
 30
0.0
 40
0.5
 41
0.0
 71
     1
 72
     1
  1
2
  7
SLDTEXTSTYLE1
 73
     1
 44
1.0
  0
MTEXT
  5
287
330
27B
100
AcDbEntity
  8
DIMS
100
AcDbMText
 10
41.2923814941
 20
12.0755904993
 30
0.0
 40
0.5
 41
0.0
 71
     1
 72
     1
  1
"
  7
SLDTEXTSTYLE1
 73
     1
 44
1.0
  0
ENDBLK
  5
27D
330
27B
100
AcDbEntity
  8
0
100
AcDbBlockEnd
  0
BLOCK
  5
3C8
330
3C7
100
AcDbEntity
  8
0
100
AcDbBlockBegin
  2
SW_NOTE_0_2
 70
     0
 10
0.0
 20
0.0
 30
0.0
  3
SW_NOTE_0_2
  1

  0
MTEXT
  5
3CA
330
3C7
100
AcDbEntity
  8
NOTES
 62
     0
100
AcDbMText
 10
0.0
 20
0.638671875
 30
0.0
 40
0.5
 41
0.0
 71
     1
 72
     1
  1
3D view
  7
SLDTEXTSTYLE1
 73
     1
 44
1.0
  0
MTEXT
  5
3CB
330
3C7
100
AcDbEntity
  8
NOTES
 62
     0
100
AcDbMText
 10
0.0
 20
-0.3613281862
 30
0.0
 40
0.5
 41
0.0
 71
     1
 72
     1
  1
code 1114
  7
SLDTEXTSTYLE1
 73
     1
 44
1.0
  0
ENDBLK
  5
3C9
330
3C7
100
AcDbEntity
  8
0
100
AcDbBlockEnd
  0
BLOCK
  5
4B1
330
4B0
100
AcDbEntity
  8
0
100
AcDbBlockBegin
  2
_D_6
 70
     0
 10
0.0
 20
0.0
 30
0.0
  3
_D_6
  1

  0
INSERT
  5
4B3
330
4B0
100
AcDbEntity
  8
DIMS
100
AcDbBlockReference
  2
_Open90
 10
37.7589180124
 20
17.5644263359
 30
-0.0427577585
 41
0.3
 42
0.3
 50
0.0
  0
INSERT
  5
4B4
330
4B0
100
AcDbEntity
  8
DIMS
100
AcDbBlockReference
  2
_Open90
 10
1.7589180124
 20
17.5644263359
 30
-0.0427577585
 41
0.3
 42
0.3
 50
180.0
  0
LINE
  5
4B5
330
4B0
100
AcDbEntity
  8
DIMS
100
AcDbLine
 10
37.7589180124
 20
17.1011717427
 30
0.0
 11
37.7589180124
 21
17.9394263359
 31
0.0
  0
LINE
  5
4B6
330
4B0
100
AcDbEntity
  8
DIMS
100
AcDbLine
 10
1.7589180124
 20
17.1011717427
 30
0.0
 11
1.7589180124
 21
17.9394263359
 31
0.0
  0
LINE
  5
4B7
330
4B0
100
AcDbEntity
  8
DIMS
100
AcDbLine
 10
37.7589180124
 20
17.5644263359
 30
0.0
 11
20.6987829567
 21
17.5644263359
 31
0.0
  0
LINE
  5
4B8
330
4B0
100
AcDbEntity
  8
DIMS
100
AcDbLine
 10
1.7589180124
 20
17.5644263359
 30
0.0
 11
19.7536441016
 21
17.5644263359
 31
0.0
  0
MTEXT
  5
4B9
330
4B0
100
AcDbEntity
  8
DIMS
100
AcDbMText
 10
19.7536441016
 20
17.806223254
 30
0.0
 40
0.5
 41
0.0
 71
     1
 72
     1
  1
36"
  7
SLDTEXTSTYLE1
 73
     1
 44
1.0
  0
ENDBLK
  5
4B2
330
4B0
100
AcDbEntity
  8
0
100
AcDbBlockEnd
  0
BLOCK
  5
4BC
330
4BB
100
AcDbEntity
  8
0
100
AcDbBlockBegin
  2
_D_7
 70
     0
 10
0.0
 20
0.0
 30
0.0
  3
_D_7
  1

  0
INSERT
  5
4BE
330
4BB
100
AcDbEntity
  8
DIMS
100
AcDbBlockReference
  2
_Open90
 10
38.8612802172
 20
16.934505076
 30
-0.0427577585
 41
0.3
 42
0.3
 50
90.0
  0
INSERT
  5
4BF
330
4BB
100
AcDbEntity
  8
DIMS
100
AcDbBlockReference
  2
_Open90
 10
38.8612802172
 20
15.5339320638
 30
-0.0427577585
 41
0.3
 42
0.3
 50
270.0
  0
LINE
  5
4C0
330
4BB
100
AcDbEntity
  8
DIMS
100
AcDbLine
 10
39.6039885646
 20
14.4228545575
 30
0.0
 11
40.1199608141
 21
14.4228545575
 31
0.0
  0
LINE
  5
4C1
330
4BB
100
AcDbEntity
  8
DIMS
100
AcDbLine
 10
37.9255846791
 20
16.934505076
 30
0.0
 11
39.2362802172
 21
16.934505076
 31
0.0
  0
LINE
  5
4C2
330
4BB
100
AcDbEntity
  8
DIMS
100
AcDbLine
 10
36.2096904182
 20
15.5339320638
 30
0.0
 11
39.2362802172
 21
15.5339320638
 31
0.0
  0
LINE
  5
4C3
330
4BB
100
AcDbEntity
  8
DIMS
100
AcDbLine
 10
39.1612802172
 20
14.3715698591
 30
0.0
 11
38.8612802172
 21
14.3715698591
 31
0.0
  0
LINE
  5
4C4
330
4BB
100
AcDbEntity
  8
DIMS
100
AcDbLine
 10
38.8612802172
 20
14.3715698591
 30
0.0
 11
38.8612802172
 21
15.5339320638
 31
0.0
  0
LINE
  5
4C5
330
4BB
100
AcDbEntity
  8
DIMS
100
AcDbLine
 10
38.8612802172
 20
16.934505076
 30
0.0
 11
38.8612802172
 21
15.5339320638
 31
0.0
  0
MTEXT
  5
4C6
330
4BB
100
AcDbEntity
  8
DIMS
100
AcDbMText
 10
39.1612802172
 20
14.6522556179
 30
0.0
 40
0.5
 41
0.0
 71
     1
 72
     1
  1
1
  7
SLDTEXTSTYLE1
 73
     1
 44
1.0
  0
MTEXT
  5
4C7
330
4BB
100
AcDbEntity
  8
DIMS
100
AcDbMText
 10
39.6772524666
 20
15.017568117
 30
0.0
 40
0.5
 41
0.0
 71
     1
 72
     1
  1
3
  7
SLDTEXTSTYLE1
 73
     1
 44
1.0
  0
MTEXT
  5
4C8
330
4BB
100
AcDbEntity
  8
DIMS
100
AcDbMText
 10
39.6772524666
 20
14.3563875384
 30
0.0
 40
0.5
 41
0.0
 71
     1
 72
     1
  1
8
  7
SLDTEXTSTYLE1
 73
     1
 44
1.0
  0
MTEXT
  5
4C9
330
4BB
100
AcDbEntity
  8
DIMS
100
AcDbMText
 10
40.1932247161
 20
14.6522556179
 30
0.0
 40
0.5
 41
0.0
 71
     1
 72
     1
  1
"
  7
SLDTEXTSTYLE1
 73
     1
 44
1.0
  0
ENDBLK
  5
4BD
330
4BB
100
AcDbEntity
  8
0
100
AcDbBlockEnd
  0
ENDSEC
  0
SECTION
  2
ENTITIES
  0
LINE
  5
7A
330
1F
100
AcDbEntity
  8
TITLE
370
    35
100
AcDbLine
 10
30.5182229757
 20
1.4876117645
 30
0.0
 11
47.4999864512
 21
1.4876117645
 31
0.0
  0
LINE
  5
7B
330
1F
100
AcDbEntity
  8
TITLE
370
    35
100
AcDbLine
 10
47.4999317442
 20
5.4753603936
 30
0.0
 11
37.3105350723
 21
5.4753603936
 31
0.0
  0
LINE
  5
7C
330
1F
100
AcDbEntity
  8
TITLE
  6
SLD-Solid
370
    18
100
AcDbLine
 10
0.5
 20
0.5
 30
0.0
 11
0.5
 21
35.5
 31
0.0
  0
LINE
  5
7D
330
1F
100
AcDbEntity
  8
TITLE
  6
SLD-Solid
370
    18
100
AcDbLine
 10
0.5
 20
35.5
 30
0.0
 11
47.5
 21
35.5
 31
0.0
  0
LINE
  5
7E
330
1F
100
AcDbEntity
  8
TITLE
370
    35
100
AcDbLine
 10
30.5182229757
 20
2.5427877231
 30
0.0
 11
23.5059791203
 21
2.5427877231
 31
0.0
  0
LINE
  5
7F
330
1F
100
AcDbEntity
  8
TITLE
370
    35
100
AcDbLine
 10
30.5182229757
 20
1.4876117645
 30
0.0
 11
23.5059791203
 21
1.4876117645
 31
0.0
  0
LINE
  5
80
330
1F
100
AcDbEntity
  8
TITLE
  6
SLD-Solid
370
    18
100
AcDbLine
 10
47.5
 20
35.5
 30
0.0
 11
47.5
 21
0.5
 31
0.0
  0
LINE
  5
81
330
1F
100
AcDbEntity
  8
TITLE
  6
SLD-Solid
370
    18
100
AcDbLine
 10
47.5
 20
0.5
 30
0.0
 11
0.5
 21
0.5
 31
0.0
  0
LINE
  5
82
330
1F
100
AcDbEntity
  8
TITLE
370
    35
100
AcDbLine
 10
30.5182229757
 20
1.4876117645
 30
0.0
 11
30.5182229757
 21
3.5979636817
 31
0.0
  0
LINE
  5
83
330
1F
100
AcDbEntity
  8
TITLE
370
    35
100
AcDbLine
 10
23.5059791203
 20
3.5979636817
 30
0.0
 11
23.5059791203
 21
0.5
 31
0.0
  0
LINE
  5
84
330
1F
100
AcDbEntity
  8
TITLE
370
    35
100
AcDbLine
 10
23.5059791203
 20
0.5
 30
0.0
 11
47.5
 21
0.5
 31
0.0
  0
LINE
  5
85
330
1F
100
AcDbEntity
  8
TITLE
370
    35
100
AcDbLine
 10
47.4999317442
 20
5.4753603936
 30
0.0
 11
47.5
 21
0.5
 31
0.0
  0
LINE
  5
86
330
1F
100
AcDbEntity
  8
TITLE
  6
SLD-Solid
370
    18
100
AcDbLine
 10
0.4999606299
 20
18.0
 30
0.0
 11
0.5000393701
 21
18.0
 31
0.0
  0
LINE
  5
87
330
1F
100
AcDbEntity
  8
TITLE
370
    35
100
AcDbLine
 10
30.5182229757
 20
3.5979636817
 30
0.0
 11
23.5059791203
 21
3.5979636817
 31
0.0
  0
LINE
  5
88
330
1F
100
AcDbEntity
  8
TITLE
370
    35
100
AcDbLine
 10
30.5182229757
 20
3.5979636817
 30
0.0
 11
47.4997615643
 21
3.5979648343
 31
0.0
  0
LINE
  5
89
330
1F
100
AcDbEntity
  8
TITLE
370
    35
100
AcDbLine
 10
37.3105350723
 20
5.4753603936
 30
0.0
 11
37.3105350723
 21
0.4636772425
 31
0.0
  0
LINE
  5
8A
330
1F
100
AcDbEntity
  8
TITLE
  6
SLD-Solid
370
    18
100
AcDbLine
 10
24.0
 20
35.5000393701
 30
0.0
 11
24.0
 21
35.4999606299
 31
0.0
  0
LINE
  5
8B
330
1F
100
AcDbEntity
  8
TITLE
  6
SLD-Solid
370
    18
100
AcDbLine
 10
47.5000393701
 20
18.0
 30
0.0
 11
47.4999606299
 21
18.0
 31
0.0
  0
LINE
  5
8C
330
1F
100
AcDbEntity
  8
TITLE
  6
SLD-Solid
370
    18
100
AcDbLine
 10
24.0
 20
0.4999606299
 30
0.0
 11
24.0
 21
0.5000393701
 31
0.0
  0
LINE
  5
8D
330
1F
100
AcDbEntity
  8
TITLE
  6
SLD-Solid
370
    18
100
AcDbLine
 10
0.5
 20
2.2519685039
 30
0.0
 11
0.1653543307
 21
2.2519685039
 31
0.0
  0
LINE
  5
8E
330
1F
100
AcDbEntity
  8
TITLE
  6
SLD-Solid
370
    18
100
AcDbLine
 10
47.5
 20
2.2519685039
 30
0.0
 11
47.8346456693
 21
2.2519685039
 31
0.0
  0
LINE
  5
8F
330
1F
100
AcDbEntity
  8
TITLE
  6
SLD-Solid
370
    18
100
AcDbLine
 10
0.5
 20
4.2204724409
 30
0.0
 11
0.1653543307
 21
4.2204724409
 31
0.0
  0
LINE
  5
90
330
1F
100
AcDbEntity
  8
TITLE
  6
SLD-Solid
370
    18
100
AcDbLine
 10
47.5
 20
4.2204724409
 30
0.0
 11
47.8346456693
 21
4.2204724409
 31
0.0
  0
LINE
  5
91
330
1F
100
AcDbEntity
  8
TITLE
  6
SLD-Solid
370
    18
100
AcDbLine
 10
0.5
 20
6.188976378
 30
0.0
 11
0.1653543307
 21
6.188976378
 31
0.0
  0
LINE
  5
92
330
1F
100
AcDbEntity
  8
TITLE
  6
SLD-Solid
370
    18
100
AcDbLine
 10
47.5
 20
6.188976378
 30
0.0
 11
47.8346456693
 21
6.188976378
 31
0.0
  0
LINE
  5
93
330
1F
100
AcDbEntity
  8
TITLE
  6
SLD-Solid
370
    18
100
AcDbLine
 10
0.5
 20
8.157480315
 30
0.0
 11
0.1653543307
 21
8.157480315
 31
0.0
  0
LINE
  5
94
330
1F
100
AcDbEntity
  8
TITLE
  6
SLD-Solid
370
    18
100
AcDbLine
 10
47.5
 20
8.157480315
 30
0.0
 11
47.8346456693
 21
8.157480315
 31
0.0
  0
LINE
  5
95
330
1F
100
AcDbEntity
  8
TITLE
  6
SLD-Solid
370
    18
100
AcDbLine
 10
0.5
 20
10.125984252
 30
0.0
 11
0.1653543307
 21
10.125984252
 31
0.0
  0
LINE
  5
96
330
1F
100
AcDbEntity
  8
TITLE
  6
SLD-Solid
370
    18
100
AcDbLine
 10
47.5
 20
10.125984252
 30
0.0
 11
47.8346456693
 21
10.125984252
 31
0.0
  0
LINE
  5
97
330
1F
100
AcDbEntity
  8
TITLE
  6
SLD-Solid
370
    18
100
AcDbLine
 10
0.5
 20
12.094488189
 30
0.0
 11
0.1653543307
 21
12.094488189
 31
0.0
  0
LINE
  5
98
330
1F
100
AcDbEntity
  8
TITLE
  6
SLD-Solid
370
    18
100
AcDbLine
 10
47.5
 20
12.094488189
 30
0.0
 11
47.8346456693
 21
12.094488189
 31
0.0
  0
LINE
  5
99
330
1F
100
AcDbEntity
  8
TITLE
  6
SLD-Solid
370
    18
100
AcDbLine
 10
0.5
 20
14.062992126
 30
0.0
 11
0.1653543307
 21
14.062992126
 31
0.0
  0
LINE
  5
9A
330
1F
100
AcDbEntity
  8
TITLE
  6
SLD-Solid
370
    18
100
AcDbLine
 10
47.5
 20
14.062992126
 30
0.0
 11
47.8346456693
 21
14.062992126
 31
0.0
  0
LINE
  5
9B
330
1F
100
AcDbEntity
  8
TITLE
  6
SLD-Solid
370
    18
100
AcDbLine
 10
0.5
 20
16.031496063
 30
0.0
 11
0.1653543307
 21
16.031496063
 31
0.0
  0
LINE
  5
9C
330
1F
100
AcDbEntity
  8
TITLE
  6
SLD-Solid
370
    18
100
AcDbLine
 10
47.5
 20
16.031496063
 30
0.0
 11
47.8346456693
 21
16.031496063
 31
0.0
  0
LINE
  5
9D
330
1F
100
AcDbEntity
  8
TITLE
  6
SLD-Solid
370
    18
100
AcDbLine
 10
0.5
 20
18.0
 30
0.0
 11
0.1653543307
 21
18.0
 31
0.0
  0
LINE
  5
9E
330
1F
100
AcDbEntity
  8
TITLE
  6
SLD-Solid
370
    18
100
AcDbLine
 10
47.5
 20
18.0
 30
0.0
 11
47.8346456693
 21
18.0
 31
0.0
  0
LINE
  5
9F
330
1F
100
AcDbEntity
  8
TITLE
  6
SLD-Solid
370
    18
100
AcDbLine
 10
0.5
 20
19.968503937
 30
0.0
 11
0.1653543307
 21
19.968503937
 31
0.0
  0
LINE
  5
A0
330
1F
100
AcDbEntity
  8
TITLE
  6
SLD-Solid
370
    18
100
AcDbLine
 10
47.5
 20
19.968503937
 30
0.0
 11
47.8346456693
 21
19.968503937
 31
0.0
  0
LINE
  5
A1
330
1F
100
AcDbEntity
  8
TITLE
  6
SLD-Solid
370
    18
100
AcDbLine
 10
0.5
 20
21.937007874
 30
0.0
 11
0.1653543307
 21
21.937007874
 31
0.0
  0
LINE
  5
A2
330
1F
100
AcDbEntity
  8
TITLE
  6
SLD-Solid
370
    18
100
AcDbLine
 10
47.5
 20
21.937007874
 30
0.0
 11
47.8346456693
 21
21.937007874
 31
0.0
  0
LINE
  5
A3
330
1F
100
AcDbEntity
  8
TITLE
  6
SLD-Solid
370
    18
100
AcDbLine
 10
0.5
 20
23.905511811
 30
0.0
 11
0.1653543307
 21
23.905511811
 31
0.0
  0
LINE
  5
A4
330
1F
100
AcDbEntity
  8
TITLE
  6
SLD-Solid
370
    18
100
AcDbLine
 10
47.5
 20
23.905511811
 30
0.0
 11
47.8346456693
 21
23.905511811
 31
0.0
  0
LINE
  5
A5
330
1F
100
AcDbEntity
  8
TITLE
  6
SLD-Solid
370
    18
100
AcDbLine
 10
0.5
 20
25.874015748
 30
0.0
 11
0.1653543307
 21
25.874015748
 31
0.0
  0
LINE
  5
A6
330
1F
100
AcDbEntity
  8
TITLE
  6
SLD-Solid
370
    18
100
AcDbLine
 10
47.5
 20
25.874015748
 30
0.0
 11
47.8346456693
 21
25.874015748
 31
0.0
  0
LINE
  5
A7
330
1F
100
AcDbEntity
  8
TITLE
  6
SLD-Solid
370
    18
100
AcDbLine
 10
0.5
 20
27.842519685
 30
0.0
 11
0.1653543307
 21
27.842519685
 31
0.0
  0
LINE
  5
A8
330
1F
100
AcDbEntity
  8
TITLE
  6
SLD-Solid
370
    18
100
AcDbLine
 10
47.5
 20
27.842519685
 30
0.0
 11
47.8346456693
 21
27.842519685
 31
0.0
  0
LINE
  5
A9
330
1F
100
AcDbEntity
  8
TITLE
  6
SLD-Solid
370
    18
100
AcDbLine
 10
0.5
 20
29.811023622
 30
0.0
 11
0.1653543307
 21
29.811023622
 31
0.0
  0
LINE
  5
AA
330
1F
100
AcDbEntity
  8
TITLE
  6
SLD-Solid
370
    18
100
AcDbLine
 10
47.5
 20
29.811023622
 30
0.0
 11
47.8346456693
 21
29.811023622
 31
0.0
  0
LINE
  5
AB
330
1F
100
AcDbEntity
  8
TITLE
  6
SLD-Solid
370
    18
100
AcDbLine
 10
0.5
 20
31.7795275591
 30
0.0
 11
0.1653543307
 21
31.7795275591
 31
0.0
  0
LINE
  5
AC
330
1F
100
AcDbEntity
  8
TITLE
  6
SLD-Solid
370
    18
100
AcDbLine
 10
47.5
 20
31.7795275591
 30
0.0
 11
47.8346456693
 21
31.7795275591
 31
0.0
  0
LINE
  5
AD
330
1F
100
AcDbEntity
  8
TITLE
  6
SLD-Solid
370
    18
100
AcDbLine
 10
0.5
 20
33.7480314961
 30
0.0
 11
0.1653543307
 21
33.7480314961
 31
0.0
  0
LINE
  5
AE
330
1F
100
AcDbEntity
  8
TITLE
  6
SLD-Solid
370
    18
100
AcDbLine
 10
47.5
 20
33.7480314961
 30
0.0
 11
47.8346456693
 21
33.7480314961
 31
0.0
  0
LINE
  5
AF
330
1F
100
AcDbEntity
  8
TITLE
  6
SLD-Solid
370
    18
100
AcDbLine
 10
2.3464566929
 20
35.5
 30
0.0
 11
2.3464566929
 21
35.8346456693
 31
0.0
  0
LINE
  5
B0
330
1F
100
AcDbEntity
  8
TITLE
  6
SLD-Solid
370
    18
100
AcDbLine
 10
2.3464566929
 20
0.5
 30
0.0
 11
2.3464566929
 21
0.1653543307
 31
0.0
  0
LINE
  5
B1
330
1F
100
AcDbEntity
  8
TITLE
  6
SLD-Solid
370
    18
100
AcDbLine
 10
4.3149606299
 20
35.5
 30
0.0
 11
4.3149606299
 21
35.8346456693
 31
0.0
  0
LINE
  5
B2
330
1F
100
AcDbEntity
  8
TITLE
  6
SLD-Solid
370
    18
100
AcDbLine
 10
4.3149606299
 20
0.5
 30
0.0
 11
4.3149606299
 21
0.1653543307
 31
0.0
  0
LINE
  5
B3
330
1F
100
AcDbEntity
  8
TITLE
  6
SLD-Solid
370
    18
100
AcDbLine
 10
6.2834645669
 20
35.5
 30
0.0
 11
6.2834645669
 21
35.8346456693
 31
0.0
  0
LINE
  5
B4
330
1F
100
AcDbEntity
  8
TITLE
  6
SLD-Solid
370
    18
100
AcDbLine
 10
6.2834645669
 20
0.5
 30
0.0
 11
6.2834645669
 21
0.1653543307
 31
0.0
  0
LINE
  5
B5
330
1F
100
AcDbEntity
  8
TITLE
  6
SLD-Solid
370
    18
100
AcDbLine
 10
8.2519685039
 20
35.5
 30
0.0
 11
8.2519685039
 21
35.8346456693
 31
0.0
  0
LINE
  5
B6
330
1F
100
AcDbEntity
  8
TITLE
  6
SLD-Solid
370
    18
100
AcDbLine
 10
8.2519685039
 20
0.5
 30
0.0
 11
8.2519685039
 21
0.1653543307
 31
0.0
  0
LINE
  5
B7
330
1F
100
AcDbEntity
  8
TITLE
  6
SLD-Solid
370
    18
100
AcDbLine
 10
10.2204724409
 20
35.5
 30
0.0
 11
10.2204724409
 21
35.8346456693
 31
0.0
  0
LINE
  5
B8
330
1F
100
AcDbEntity
  8
TITLE
  6
SLD-Solid
370
    18
100
AcDbLine
 10
10.2204724409
 20
0.5
 30
0.0
 11
10.2204724409
 21
0.1653543307
 31
0.0
  0
LINE
  5
B9
330
1F
100
AcDbEntity
  8
TITLE
  6
SLD-Solid
370
    18
100
AcDbLine
 10
12.188976378
 20
35.5
 30
0.0
 11
12.188976378
 21
35.8346456693
 31
0.0
  0
LINE
  5
BA
330
1F
100
AcDbEntity
  8
TITLE
  6
SLD-Solid
370
    18
100
AcDbLine
 10
12.188976378
 20
0.5
 30
0.0
 11
12.188976378
 21
0.1653543307
 31
0.0
  0
LINE
  5
BB
330
1F
100
AcDbEntity
  8
TITLE
  6
SLD-Solid
370
    18
100
AcDbLine
 10
14.157480315
 20
35.5
 30
0.0
 11
14.157480315
 21
35.8346456693
 31
0.0
  0
LINE
  5
BC
330
1F
100
AcDbEntity
  8
TITLE
  6
SLD-Solid
370
    18
100
AcDbLine
 10
14.157480315
 20
0.5
 30
0.0
 11
14.157480315
 21
0.1653543307
 31
0.0
  0
LINE
  5
BD
330
1F
100
AcDbEntity
  8
TITLE
  6
SLD-Solid
370
    18
100
AcDbLine
 10
16.125984252
 20
35.5
 30
0.0
 11
16.125984252
 21
35.8346456693
 31
0.0
  0
LINE
  5
BE
330
1F
100
AcDbEntity
  8
TITLE
  6
SLD-Solid
370
    18
100
AcDbLine
 10
16.125984252
 20
0.5
 30
0.0
 11
16.125984252
 21
0.1653543307
 31
0.0
  0
LINE
  5
BF
330
1F
100
AcDbEntity
  8
TITLE
  6
SLD-Solid
370
    18
100
AcDbLine
 10
18.094488189
 20
35.5
 30
0.0
 11
18.094488189
 21
35.8346456693
 31
0.0
  0
LINE
  5
C0
330
1F
100
AcDbEntity
  8
TITLE
  6
SLD-Solid
370
    18
100
AcDbLine
 10
18.094488189
 20
0.5
 30
0.0
 11
18.094488189
 21
0.1653543307
 31
0.0
  0
LINE
  5
C1
330
1F
100
AcDbEntity
  8
TITLE
  6
SLD-Solid
370
    18
100
AcDbLine
 10
20.062992126
 20
35.5
 30
0.0
 11
20.062992126
 21
35.8346456693
 31
0.0
  0
LINE
  5
C2
330
1F
100
AcDbEntity
  8
TITLE
  6
SLD-Solid
370
    18
100
AcDbLine
 10
20.062992126
 20
0.5
 30
0.0
 11
20.062992126
 21
0.1653543307
 31
0.0
  0
LINE
  5
C3
330
1F
100
AcDbEntity
  8
TITLE
  6
SLD-Solid
370
    18
100
AcDbLine
 10
22.031496063
 20
35.5
 30
0.0
 11
22.031496063
 21
35.8346456693
 31
0.0
  0
LINE
  5
C4
330
1F
100
AcDbEntity
  8
TITLE
  6
SLD-Solid
370
    18
100
AcDbLine
 10
22.031496063
 20
0.5
 30
0.0
 11
22.031496063
 21
0.1653543307
 31
0.0
  0
LINE
  5
C5
330
1F
100
AcDbEntity
  8
TITLE
  6
SLD-Solid
370
    18
100
AcDbLine
 10
24.0
 20
35.5
 30
0.0
 11
24.0
 21
35.8346456693
 31
0.0
  0
LINE
  5
C6
330
1F
100
AcDbEntity
  8
TITLE
  6
SLD-Solid
370
    18
100
AcDbLine
 10
24.0
 20
0.5
 30
0.0
 11
24.0
 21
0.1653543307
 31
0.0
  0
LINE
  5
C7
330
1F
100
AcDbEntity
  8
TITLE
  6
SLD-Solid
370
    18
100
AcDbLine
 10
25.968503937
 20
35.5
 30
0.0
 11
25.968503937
 21
35.8346456693
 31
0.0
  0
LINE
  5
C8
330
1F
100
AcDbEntity
  8
TITLE
  6
SLD-Solid
370
    18
100
AcDbLine
 10
25.968503937
 20
0.5
 30
0.0
 11
25.968503937
 21
0.1653543307
 31
0.0
  0
LINE
  5
C9
330
1F
100
AcDbEntity
  8
TITLE
  6
SLD-Solid
370
    18
100
AcDbLine
 10
27.937007874
 20
35.5
 30
0.0
 11
27.937007874
 21
35.8346456693
 31
0.0
  0
LINE
  5
CA
330
1F
100
AcDbEntity
  8
TITLE
  6
SLD-Solid
370
    18
100
AcDbLine
 10
27.937007874
 20
0.5
 30
0.0
 11
27.937007874
 21
0.1653543307
 31
0.0
  0
LINE
  5
CB
330
1F
100
AcDbEntity
  8
TITLE
  6
SLD-Solid
370
    18
100
AcDbLine
 10
29.905511811
 20
35.5
 30
0.0
 11
29.905511811
 21
35.8346456693
 31
0.0
  0
LINE
  5
CC
330
1F
100
AcDbEntity
  8
TITLE
  6
SLD-Solid
370
    18
100
AcDbLine
 10
29.905511811
 20
0.5
 30
0.0
 11
29.905511811
 21
0.1653543307
 31
0.0
  0
LINE
  5
CD
330
1F
100
AcDbEntity
  8
TITLE
  6
SLD-Solid
370
    18
100
AcDbLine
 10
31.874015748
 20
35.5
 30
0.0
 11
31.874015748
 21
35.8346456693
 31
0.0
  0
LINE
  5
CE
330
1F
100
AcDbEntity
  8
TITLE
  6
SLD-Solid
370
    18
100
AcDbLine
 10
31.874015748
 20
0.5
 30
0.0
 11
31.874015748
 21
0.1653543307
 31
0.0
  0
LINE
  5
CF
330
1F
100
AcDbEntity
  8
TITLE
  6
SLD-Solid
370
    18
100
AcDbLine
 10
33.842519685
 20
35.5
 30
0.0
 11
33.842519685
 21
35.8346456693
 31
0.0
  0
LINE
  5
D0
330
1F
100
AcDbEntity
  8
TITLE
  6
SLD-Solid
370
    18
100
AcDbLine
 10
33.842519685
 20
0.5
 30
0.0
 11
33.842519685
 21
0.1653543307
 31
0.0
  0
LINE
  5
D1
330
1F
100
AcDbEntity
  8
TITLE
  6
SLD-Solid
370
    18
100
AcDbLine
 10
35.811023622
 20
35.5
 30
0.0
 11
35.811023622
 21
35.8346456693
 31
0.0
  0
LINE
  5
D2
330
1F
100
AcDbEntity
  8
TITLE
  6
SLD-Solid
370
    18
100
AcDbLine
 10
35.811023622
 20
0.5
 30
0.0
 11
35.811023622
 21
0.1653543307
 31
0.0
  0
LINE
  5
D3
330
1F
100
AcDbEntity
  8
TITLE
  6
SLD-Solid
370
    18
100
AcDbLine
 10
37.7795275591
 20
35.5
 30
0.0
 11
37.7795275591
 21
35.8346456693
 31
0.0
  0
LINE
  5
D4
330
1F
100
AcDbEntity
  8
TITLE
  6
SLD-Solid
370
    18
100
AcDbLine
 10
37.7795275591
 20
0.5
 30
0.0
 11
37.7795275591
 21
0.1653543307
 31
0.0
  0
LINE
  5
D5
330
1F
100
AcDbEntity
  8
TITLE
  6
SLD-Solid
370
    18
100
AcDbLine
 10
39.7480314961
 20
35.5
 30
0.0
 11
39.7480314961
 21
35.8346456693
 31
0.0
  0
LINE
  5
D6
330
1F
100
AcDbEntity
  8
TITLE
  6
SLD-Solid
370
    18
100
AcDbLine
 10
39.7480314961
 20
0.5
 30
0.0
 11
39.7480314961
 21
0.1653543307
 31
0.0
  0
LINE
  5
D7
330
1F
100
AcDbEntity
  8
TITLE
  6
SLD-Solid
370
    18
100
AcDbLine
 10
41.7165354331
 20
35.5
 30
0.0
 11
41.7165354331
 21
35.8346456693
 31
0.0
  0
LINE
  5
D8
330
1F
100
AcDbEntity
  8
TITLE
  6
SLD-Solid
370
    18
100
AcDbLine
 10
41.7165354331
 20
0.5
 30
0.0
 11
41.7165354331
 21
0.1653543307
 31
0.0
  0
LINE
  5
D9
330
1F
100
AcDbEntity
  8
TITLE
  6
SLD-Solid
370
    18
100
AcDbLine
 10
43.6850393701
 20
35.5
 30
0.0
 11
43.6850393701
 21
35.8346456693
 31
0.0
  0
LINE
  5
DA
330
1F
100
AcDbEntity
  8
TITLE
  6
SLD-Solid
370
    18
100
AcDbLine
 10
43.6850393701
 20
0.5
 30
0.0
 11
43.6850393701
 21
0.1653543307
 31
0.0
  0
LINE
  5
DB
330
1F
100
AcDbEntity
  8
TITLE
  6
SLD-Solid
370
    18
100
AcDbLine
 10
45.6535433071
 20
35.5
 30
0.0
 11
45.6535433071
 21
35.8346456693
 31
0.0
  0
LINE
  5
DC
330
1F
100
AcDbEntity
  8
TITLE
  6
SLD-Solid
370
    18
100
AcDbLine
 10
45.6535433071
 20
0.5
 30
0.0
 11
45.6535433071
 21
0.1653543307
 31
0.0
  0
MTEXT
  5
DE
330
1F
100
AcDbEntity
  8
NOTES
100
AcDbMText
 10
24.408297803
 20
1.0702903347
 30
0.0
 40
0.25
 41
0.0
 71
     1
 72
     1
  1
UNLESS OTHERWISE SPECIFIED DIMENSIONS ARE IN INCHES.
  7
SLDTEXTSTYLE0
 73
     1
 44
1.0
  0
MTEXT
  5
DF
330
1F
100
AcDbEntity
  8
NOTES
100
AcDbMText
 10
24.4368251132
 20
3.2193045501
 30
0.0
 40
0.25
 41
0.0
 71
     1
 72
     1
  1
DATE:
  7
SLDTEXTSTYLE0
 73
     1
 44
1.0
  0
MTEXT
  5
E0
330
1F
100
AcDbEntity
  8
NOTES
100
AcDbMText
 10
26.7130669976
 20
2.1722148141
 30
0.0
 40
0.25
 41
0.0
 71
     2
 72
     1
  1
DO NOT SCALE DRAWING
  7
SLDTEXTSTYLE0
 73
     1
 44
1.0
  0
MTEXT
  5
E2
330
1F
100
AcDbEntity
  8
NOTES
100
AcDbMText
 10
30.8307373075
 20
3.2682755553
 30
0.0
 40
0.25
 41
0.0
 71
     1
 72
     1
  1
TITLE:
  7
SLDTEXTSTYLE1
 73
     1
 44
1.0
  0
MTEXT
  5
E3
330
1F
100
AcDbEntity
  8
NOTES
100
AcDbMText
 10
38.1561831052
 20
3.2682755553
 30
0.0
 40
0.25
 41
0.0
 71
     1
 72
     1
  1
DWG NO.
  7
SLDTEXTSTYLE1
 73
     1
 44
1.0
  0
MTEXT
  5
E4
330
1F
100
AcDbEntity
  8
NOTES
100
AcDbMText
 10
38.1831753203
 20
1.0645815577
 30
0.0
 40
0.25
 41
0.0
 71
     1
 72
     1
  1
SCALE:     1:1
  7
SLDTEXTSTYLE1
 73
     1
 44
1.0
  0
MTEXT
  5
E5
330
1F
100
AcDbEntity
  8
NOTES
100
AcDbMText
 10
42.1913033133
 20
2.6510344295
 30
0.0
 40
0.25
 41
0.0
 71
     2
 72
     1
  1
1114 CAD
  7
SLDTEXTSTYLE1
 73
     1
 44
1.0
  0
MTEXT
  5
E6
330
1F
100
AcDbEntity
  8
NOTES
100
AcDbMText
 10
33.9699995579
 20
2.6388861441
 30
0.0
 40
0.25
 41
0.0
 71
     2
 72
     1
  1
1114 Broom / Mop Rack
  7
SLDTEXTSTYLE1
 73
     1
 44
1.0
  0
INSERT
  5
EC
330
1F
100
AcDbEntity
  8
NOTES
100
AcDbBlockReference
  2
SW_NOTE_0
 10
38.266131557
 20
4.6105227838
 30
0.0
  0
INSERT
  5
F6
330
1F
100
AcDbEntity
  8
NOTES
100
AcDbBlockReference
  2
SW_NOTE_0_1
 10
24.6159726246
 20
5.1481526848
 30
0.0
  0
MTEXT
  5
F7
330
1F
100
AcDbEntity
  8
NOTES
100
AcDbMText
 10
27.5199469256
 20
3.2135957731
 30
0.0
 40
0.25
 41
0.0
 71
     2
 72
     1
  1
September 8, 2021
  7
SLDTEXTSTYLE1
 73
     1
 44
1.0
  0
MTEXT
  5
F8
330
1F
100
AcDbEntity
  8
TITLE
100
AcDbMText
 10
0.3276279776
 20
1.4558621965
 30
0.0
 40
0.125
 41
0.0
 71
     2
 72
     1
  1
A
  7
SLDTEXTSTYLE1
 73
     1
 44
1.0
  0
MTEXT
  5
F9
330
1F
100
AcDbEntity
  8
TITLE
100
AcDbMText
 10
47.6622736469
 20
1.4558621965
 30
0.0
 40
0.125
 41
0.0
 71
     2
 72
     1
  1
A
  7
SLDTEXTSTYLE1
 73
     1
 44
1.0
  0
MTEXT
  5
FA
330
1F
100
AcDbEntity
  8
TITLE
100
AcDbMText
 10
0.3317512413
 20
3.316098417
 30
0.0
 40
0.125
 41
0.0
 71
     2
 72
     1
  1
B
  7
SLDTEXTSTYLE1
 73
     1
 44
1.0
  0
MTEXT
  5
FB
330
1F
100
AcDbEntity
  8
TITLE
100
AcDbMText
 10
47.6663969106
 20
3.316098417
 30
0.0
 40
0.125
 41
0.0
 71
     2
 72
     1
  1
B
  7
SLDTEXTSTYLE1
 73
     1
 44
1.0
  0
MTEXT
  5
FC
330
1F
100
AcDbEntity
  8
TITLE
100
AcDbMText
 10
0.3313750817
 20
5.284602354
 30
0.0
 40
0.125
 41
0.0
 71
     2
 72
     1
  1
C
  7
SLDTEXTSTYLE1
 73
     1
 44
1.0
  0
MTEXT
  5
FD
330
1F
100
AcDbEntity
  8
TITLE
100
AcDbMText
 10
47.666020751
 20
5.284602354
 30
0.0
 40
0.125
 41
0.0
 71
     2
 72
     1
  1
C
  7
SLDTEXTSTYLE1
 73
     1
 44
1.0
  0
MTEXT
  5
FE
330
1F
100
AcDbEntity
  8
TITLE
100
AcDbMText
 10
0.3311870028
 20
7.253106291
 30
0.0
 40
0.125
 41
0.0
 71
     2
 72
     1
  1
D
  7
SLDTEXTSTYLE1
 73
     1
 44
1.0
  0
MTEXT
  5
FF
330
1F
100
AcDbEntity
  8
TITLE
100
AcDbMText
 10
47.6658326721
 20
7.253106291
 30
0.0
 40
0.125
 41
0.0
 71
     2
 72
     1
  1
D
  7
SLDTEXTSTYLE1
 73
     1
 44
1.0
  0
MTEXT
  5
100
330
1F
100
AcDbEntity
  8
TITLE
100
AcDbMText
 10
0.332923116
 20
9.221610228
 30
0.0
 40
0.125
 41
0.0
 71
     2
 72
     1
  1
E
  7
SLDTEXTSTYLE1
 73
     1
 44
1.0
  0
MTEXT
  5
101
330
1F
100
AcDbEntity
  8
TITLE
100
AcDbMText
 10
47.6675687853
 20
9.221610228
 30
0.0
 40
0.125
 41
0.0
 71
     2
 72
     1
  1
E
  7
SLDTEXTSTYLE1
 73
     1
 44
1.0
  0
MTEXT
  5
102
330
1F
100
AcDbEntity
  8
TITLE
100
AcDbMText
 10
0.3313461474
 20
11.190114165
 30
0.0
 40
0.125
 41
0.0
 71
     2
 72
     1
  1
F
  7
SLDTEXTSTYLE1
 73
     1
 44
1.0
  0
MTEXT
  5
103
330
1F
100
AcDbEntity
  8
TITLE
100
AcDbMText
 10
47.6659918167
 20
11.190114165
 30
0.0
 40
0.125
 41
0.0
 71
     2
 72
     1
  1
F
  7
SLDTEXTSTYLE1
 73
     1
 44
1.0
  0
MTEXT
  5
104
330
1F
100
AcDbEntity
  8
TITLE
100
AcDbMText
 10
0.3322576054
 20
13.158618102
 30
0.0
 40
0.125
 41
0.0
 71
     2
 72
     1
  1
G
  7
SLDTEXTSTYLE1
 73
     1
 44
1.0
  0
MTEXT
  5
105
330
1F
100
AcDbEntity
  8
TITLE
100
AcDbMText
 10
47.6669032747
 20
13.158618102
 30
0.0
 40
0.125
 41
0.0
 71
     2
 72
     1
  1
G
  7
SLDTEXTSTYLE1
 73
     1
 44
1.0
  0
MTEXT
  5
106
330
1F
100
AcDbEntity
  8
TITLE
100
AcDbMText
 10
0.3323733457
 20
15.127122039
 30
0.0
 40
0.125
 41
0.0
 71
     2
 72
     1
  1
H
  7
SLDTEXTSTYLE1
 73
     1
 44
1.0
  0
MTEXT
  5
107
330
1F
100
AcDbEntity
  8
TITLE
100
AcDbMText
 10
47.667019015
 20
15.127122039
 30
0.0
 40
0.125
 41
0.0
 71
     2
 72
     1
  1
H
  7
SLDTEXTSTYLE1
 73
     1
 44
1.0
  0
MTEXT
  5
108
330
1F
100
AcDbEntity
  8
TITLE
100
AcDbMText
 10
0.3315776306
 20
17.095625976
 30
0.0
 40
0.125
 41
0.0
 71
     2
 72
     1
  1
J
  7
SLDTEXTSTYLE1
 73
     1
 44
1.0
  0
MTEXT
  5
109
330
1F
100
AcDbEntity
  8
TITLE
100
AcDbMText
 10
47.6662232999
 20
17.095625976
 30
0.0
 40
0.125
 41
0.0
 71
     2
 72
     1
  1
J
  7
SLDTEXTSTYLE1
 73
     1
 44
1.0
  0
MTEXT
  5
10A
330
1F
100
AcDbEntity
  8
TITLE
100
AcDbMText
 10
0.3323154765
 20
19.064129913
 30
0.0
 40
0.125
 41
0.0
 71
     2
 72
     1
  1
K
  7
SLDTEXTSTYLE1
 73
     1
 44
1.0
  0
MTEXT
  5
10B
330
1F
100
AcDbEntity
  8
TITLE
100
AcDbMText
 10
47.6669611458
 20
19.064129913
 30
0.0
 40
0.125
 41
0.0
 71
     2
 72
     1
  1
K
  7
SLDTEXTSTYLE1
 73
     1
 44
1.0
  0
MTEXT
  5
10C
330
1F
100
AcDbEntity
  8
TITLE
100
AcDbMText
 10
0.3312448739
 20
21.03263385
 30
0.0
 40
0.125
 41
0.0
 71
     2
 72
     1
  1
L
  7
SLDTEXTSTYLE1
 73
     1
 44
1.0
  0
MTEXT
  5
10D
330
1F
100
AcDbEntity
  8
TITLE
100
AcDbMText
 10
47.6658905432
 20
21.03263385
 30
0.0
 40
0.125
 41
0.0
 71
     2
 72
     1
  1
L
  7
SLDTEXTSTYLE1
 73
     1
 44
1.0
  0
MTEXT
  5
10E
330
1F
100
AcDbEntity
  8
TITLE
100
AcDbMText
 10
0.3283224192
 20
23.001137787
 30
0.0
 40
0.125
 41
0.0
 71
     2
 72
     1
  1
M
  7
SLDTEXTSTYLE1
 73
     1
 44
1.0
  0
MTEXT
  5
10F
330
1F
100
AcDbEntity
  8
TITLE
100
AcDbMText
 10
47.6629680885
 20
23.001137787
 30
0.0
 40
0.125
 41
0.0
 71
     2
 72
     1
  1
M
  7
SLDTEXTSTYLE1
 73
     1
 44
1.0
  0
MTEXT
  5
110
330
1F
100
AcDbEntity
  8
TITLE
100
AcDbMText
 10
0.3315342276
 20
24.969641724
 30
0.0
 40
0.125
 41
0.0
 71
     2
 72
     1
  1
N
  7
SLDTEXTSTYLE1
 73
     1
 44
1.0
  0
MTEXT
  5
111
330
1F
100
AcDbEntity
  8
TITLE
100
AcDbMText
 10
47.6661798969
 20
24.969641724
 30
0.0
 40
0.125
 41
0.0
 71
     2
 72
     1
  1
N
  7
SLDTEXTSTYLE1
 73
     1
 44
1.0
  0
MTEXT
  5
112
330
1F
100
AcDbEntity
  8
TITLE
100
AcDbMText
 10
0.3321997349
 20
26.9381456611
 30
0.0
 40
0.125
 41
0.0
 71
     2
 72
     1
  1
P
  7
SLDTEXTSTYLE1
 73
     1
 44
1.0
  0
MTEXT
  5
113
330
1F
100
AcDbEntity
  8
TITLE
100
AcDbMText
 10
47.6668454042
 20
26.9381456611
 30
0.0
 40
0.125
 41
0.0
 71
     2
 72
     1
  1
P
  7
SLDTEXTSTYLE1
 73
     1
 44
1.0
  0
MTEXT
  5
114
330
1F
100
AcDbEntity
  8
TITLE
100
AcDbMText
 10
0.3309265867
 20
28.9066495981
 30
0.0
 40
0.125
 41
0.0
 71
     2
 72
     1
  1
R
  7
SLDTEXTSTYLE1
 73
     1
 44
1.0
  0
MTEXT
  5
115
330
1F
100
AcDbEntity
  8
TITLE
100
AcDbMText
 10
47.665572256
 20
28.9066495981
 30
0.0
 40
0.125
 41
0.0
 71
     2
 72
     1
  1
R
  7
SLDTEXTSTYLE1
 73
     1
 44
1.0
  0
MTEXT
  5
116
330
1F
100
AcDbEntity
  8
TITLE
100
AcDbMText
 10
0.3323010071
 20
30.8751535351
 30
0.0
 40
0.125
 41
0.0
 71
     2
 72
     1
  1
T
  7
SLDTEXTSTYLE1
 73
     1
 44
1.0
  0
MTEXT
  5
117
330
1F
100
AcDbEntity
  8
TITLE
100
AcDbMText
 10
47.6669466764
 20
30.8751535351
 30
0.0
 40
0.125
 41
0.0
 71
     2
 72
     1
  1
T
  7
SLDTEXTSTYLE1
 73
     1
 44
1.0
  0
MTEXT
  5
118
330
1F
100
AcDbEntity
  8
TITLE
100
AcDbMText
 10
0.3328507755
 20
32.8436574721
 30
0.0
 40
0.125
 41
0.0
 71
     2
 72
     1
  1
U
  7
SLDTEXTSTYLE1
 73
     1
 44
1.0
  0
MTEXT
  5
119
330
1F
100
AcDbEntity
  8
TITLE
100
AcDbMText
 10
47.6674964448
 20
32.8436574721
 30
0.0
 40
0.125
 41
0.0
 71
     2
 72
     1
  1
U
  7
SLDTEXTSTYLE1
 73
     1
 44
1.0
  0
MTEXT
  5
11A
330
1F
100
AcDbEntity
  8
TITLE
100
AcDbMText
 10
0.3307529773
 20
34.7038936925
 30
0.0
 40
0.125
 41
0.0
 71
     2
 72
     1
  1
V
  7
SLDTEXTSTYLE1
 73
     1
 44
1.0
  0
MTEXT
  5
11B
330
1F
100
AcDbEntity
  8
TITLE
100
AcDbMText
 10
47.6653986466
 20
34.7038936925
 30
0.0
 40
0.125
 41
0.0
 71
     2
 72
     1
  1
V
  7
SLDTEXTSTYLE1
 73
     1
 44
1.0
  0
MTEXT
  5
11C
330
1F
100
AcDbEntity
  8
TITLE
100
AcDbMText
 10
1.4207109851
 20
0.4125551099
 30
0.0
 40
0.125
 41
0.0
 71
     2
 72
     1
  1
24
  7
SLDTEXTSTYLE1
 73
     1
 44
1.0
  0
MTEXT
  5
11D
330
1F
100
AcDbEntity
  8
TITLE
100
AcDbMText
 10
1.4207109851
 20
35.7472007792
 30
0.0
 40
0.125
 41
0.0
 71
     2
 72
     1
  1
24
  7
SLDTEXTSTYLE1
 73
     1
 44
1.0
  0
MTEXT
  5
11E
330
1F
100
AcDbEntity
  8
TITLE
100
AcDbMText
 10
3.3281913
 20
0.4125551099
 30
0.0
 40
0.125
 41
0.0
 71
     2
 72
     1
  1
23
  7
SLDTEXTSTYLE1
 73
     1
 44
1.0
  0
MTEXT
  5
11F
330
1F
100
AcDbEntity
  8
TITLE
100
AcDbMText
 10
3.3281913
 20
35.7472007792
 30
0.0
 40
0.125
 41
0.0
 71
     2
 72
     1
  1
23
  7
SLDTEXTSTYLE1
 73
     1
 44
1.0
  0
MTEXT
  5
120
330
1F
100
AcDbEntity
  8
TITLE
100
AcDbMText
 10
5.2966952371
 20
0.4125551099
 30
0.0
 40
0.125
 41
0.0
 71
     2
 72
     1
  1
22
  7
SLDTEXTSTYLE1
 73
     1
 44
1.0
  0
MTEXT
  5
121
330
1F
100
AcDbEntity
  8
TITLE
100
AcDbMText
 10
5.2966952371
 20
35.7472007792
 30
0.0
 40
0.125
 41
0.0
 71
     2
 72
     1
  1
22
  7
SLDTEXTSTYLE1
 73
     1
 44
1.0
  0
MTEXT
  5
122
330
1F
100
AcDbEntity
  8
TITLE
100
AcDbMText
 10
7.2651991741
 20
0.4125551099
 30
0.0
 40
0.125
 41
0.0
 71
     2
 72
     1
  1
21
  7
SLDTEXTSTYLE1
 73
     1
 44
1.0
  0
MTEXT
  5
123
330
1F
100
AcDbEntity
  8
TITLE
100
AcDbMText
 10
7.2651991741
 20
35.7472007792
 30
0.0
 40
0.125
 41
0.0
 71
     2
 72
     1
  1
21
  7
SLDTEXTSTYLE1
 73
     1
 44
1.0
  0
MTEXT
  5
124
330
1F
100
AcDbEntity
  8
TITLE
100
AcDbMText
 10
9.2337031111
 20
0.4125551099
 30
0.0
 40
0.125
 41
0.0
 71
     2
 72
     1
  1
20
  7
SLDTEXTSTYLE1
 73
     1
 44
1.0
  0
MTEXT
  5
125
330
1F
100
AcDbEntity
  8
TITLE
100
AcDbMText
 10
9.2337031111
 20
35.7472007792
 30
0.0
 40
0.125
 41
0.0
 71
     2
 72
     1
  1
20
  7
SLDTEXTSTYLE1
 73
     1
 44
1.0
  0
MTEXT
  5
126
330
1F
100
AcDbEntity
  8
TITLE
100
AcDbMText
 10
11.2022070481
 20
0.4125551099
 30
0.0
 40
0.125
 41
0.0
 71
     2
 72
     1
  1
19
  7
SLDTEXTSTYLE1
 73
     1
 44
1.0
  0
MTEXT
  5
127
330
1F
100
AcDbEntity
  8
TITLE
100
AcDbMText
 10
11.2022070481
 20
35.7472007792
 30
0.0
 40
0.125
 41
0.0
 71
     2
 72
     1
  1
19
  7
SLDTEXTSTYLE1
 73
     1
 44
1.0
  0
MTEXT
  5
128
330
1F
100
AcDbEntity
  8
TITLE
100
AcDbMText
 10
13.1707109851
 20
0.4125551099
 30
0.0
 40
0.125
 41
0.0
 71
     2
 72
     1
  1
18
  7
SLDTEXTSTYLE1
 73
     1
 44
1.0
  0
MTEXT
  5
129
330
1F
100
AcDbEntity
  8
TITLE
100
AcDbMText
 10
13.1707109851
 20
35.7472007792
 30
0.0
 40
0.125
 41
0.0
 71
     2
 72
     1
  1
18
  7
SLDTEXTSTYLE1
 73
     1
 44
1.0
  0
MTEXT
  5
12A
330
1F
100
AcDbEntity
  8
TITLE
100
AcDbMText
 10
15.1392149221
 20
0.4125551099
 30
0.0
 40
0.125
 41
0.0
 71
     2
 72
     1
  1
17
  7
SLDTEXTSTYLE1
 73
     1
 44
1.0
  0
MTEXT
  5
12B
330
1F
100
AcDbEntity
  8
TITLE
100
AcDbMText
 10
15.1392149221
 20
35.7472007792
 30
0.0
 40
0.125
 41
0.0
 71
     2
 72
     1
  1
17
  7
SLDTEXTSTYLE1
 73
     1
 44
1.0
  0
MTEXT
  5
12C
330
1F
100
AcDbEntity
  8
TITLE
100
AcDbMText
 10
17.1077188591
 20
0.4125551099
 30
0.0
 40
0.125
 41
0.0
 71
     2
 72
     1
  1
16
  7
SLDTEXTSTYLE1
 73
     1
 44
1.0
  0
MTEXT
  5
12D
330
1F
100
AcDbEntity
  8
TITLE
100
AcDbMText
 10
17.1077188591
 20
35.7472007792
 30
0.0
 40
0.125
 41
0.0
 71
     2
 72
     1
  1
16
  7
SLDTEXTSTYLE1
 73
     1
 44
1.0
  0
MTEXT
  5
12E
330
1F
100
AcDbEntity
  8
TITLE
100
AcDbMText
 10
19.0762227961
 20
0.4125551099
 30
0.0
 40
0.125
 41
0.0
 71
     2
 72
     1
  1
15
  7
SLDTEXTSTYLE1
 73
     1
 44
1.0
  0
MTEXT
  5
12F
330
1F
100
AcDbEntity
  8
TITLE
100
AcDbMText
 10
19.0762227961
 20
35.7472007792
 30
0.0
 40
0.125
 41
0.0
 71
     2
 72
     1
  1
15
  7
SLDTEXTSTYLE1
 73
     1
 44
1.0
  0
MTEXT
  5
130
330
1F
100
AcDbEntity
  8
TITLE
100
AcDbMText
 10
21.0447267331
 20
0.4125551099
 30
0.0
 40
0.125
 41
0.0
 71
     2
 72
     1
  1
14
  7
SLDTEXTSTYLE1
 73
     1
 44
1.0
  0
MTEXT
  5
131
330
1F
100
AcDbEntity
  8
TITLE
100
AcDbMText
 10
21.0447267331
 20
35.7472007792
 30
0.0
 40
0.125
 41
0.0
 71
     2
 72
     1
  1
14
  7
SLDTEXTSTYLE1
 73
     1
 44
1.0
  0
MTEXT
  5
132
330
1F
100
AcDbEntity
  8
TITLE
100
AcDbMText
 10
23.0132306701
 20
0.4125551099
 30
0.0
 40
0.125
 41
0.0
 71
     2
 72
     1
  1
13
  7
SLDTEXTSTYLE1
 73
     1
 44
1.0
  0
MTEXT
  5
133
330
1F
100
AcDbEntity
  8
TITLE
100
AcDbMText
 10
23.0132306701
 20
35.7472007792
 30
0.0
 40
0.125
 41
0.0
 71
     2
 72
     1
  1
13
  7
SLDTEXTSTYLE1
 73
     1
 44
1.0
  0
MTEXT
  5
134
330
1F
100
AcDbEntity
  8
TITLE
100
AcDbMText
 10
24.9817346071
 20
0.4125551099
 30
0.0
 40
0.125
 41
0.0
 71
     2
 72
     1
  1
12
  7
SLDTEXTSTYLE1
 73
     1
 44
1.0
  0
MTEXT
  5
135
330
1F
100
AcDbEntity
  8
TITLE
100
AcDbMText
 10
24.9817346071
 20
35.7472007792
 30
0.0
 40
0.125
 41
0.0
 71
     2
 72
     1
  1
12
  7
SLDTEXTSTYLE1
 73
     1
 44
1.0
  0
MTEXT
  5
136
330
1F
100
AcDbEntity
  8
TITLE
100
AcDbMText
 10
26.9502385441
 20
0.4125551099
 30
0.0
 40
0.125
 41
0.0
 71
     2
 72
     1
  1
11
  7
SLDTEXTSTYLE1
 73
     1
 44
1.0
  0
MTEXT
  5
137
330
1F
100
AcDbEntity
  8
TITLE
100
AcDbMText
 10
26.9502385441
 20
35.7472007792
 30
0.0
 40
0.125
 41
0.0
 71
     2
 72
     1
  1
11
  7
SLDTEXTSTYLE1
 73
     1
 44
1.0
  0
MTEXT
  5
138
330
1F
100
AcDbEntity
  8
TITLE
100
AcDbMText
 10
28.9187424811
 20
0.4125551099
 30
0.0
 40
0.125
 41
0.0
 71
     2
 72
     1
  1
10
  7
SLDTEXTSTYLE1
 73
     1
 44
1.0
  0
MTEXT
  5
139
330
1F
100
AcDbEntity
  8
TITLE
100
AcDbMText
 10
28.9187424811
 20
35.7472007792
 30
0.0
 40
0.125
 41
0.0
 71
     2
 72
     1
  1
10
  7
SLDTEXTSTYLE1
 73
     1
 44
1.0
  0
MTEXT
  5
13A
330
1F
100
AcDbEntity
  8
TITLE
100
AcDbMText
 10
30.8885050988
 20
0.4125551099
 30
0.0
 40
0.125
 41
0.0
 71
     2
 72
     1
  1
9
  7
SLDTEXTSTYLE1
 73
     1
 44
1.0
  0
MTEXT
  5
13B
330
1F
100
AcDbEntity
  8
TITLE
100
AcDbMText
 10
30.8885050988
 20
35.7472007792
 30
0.0
 40
0.125
 41
0.0
 71
     2
 72
     1
  1
9
  7
SLDTEXTSTYLE1
 73
     1
 44
1.0
  0
MTEXT
  5
13C
330
1F
100
AcDbEntity
  8
TITLE
100
AcDbMText
 10
32.8570090359
 20
0.4125551099
 30
0.0
 40
0.125
 41
0.0
 71
     2
 72
     1
  1
8
  7
SLDTEXTSTYLE1
 73
     1
 44
1.0
  0
MTEXT
  5
13D
330
1F
100
AcDbEntity
  8
TITLE
100
AcDbMText
 10
32.8570090359
 20
35.7472007792
 30
0.0
 40
0.125
 41
0.0
 71
     2
 72
     1
  1
8
  7
SLDTEXTSTYLE1
 73
     1
 44
1.0
  0
MTEXT
  5
13E
330
1F
100
AcDbEntity
  8
TITLE
100
AcDbMText
 10
34.8255129729
 20
0.4125551099
 30
0.0
 40
0.125
 41
0.0
 71
     2
 72
     1
  1
7
  7
SLDTEXTSTYLE1
 73
     1
 44
1.0
  0
MTEXT
  5
13F
330
1F
100
AcDbEntity
  8
TITLE
100
AcDbMText
 10
34.8255129729
 20
35.7472007792
 30
0.0
 40
0.125
 41
0.0
 71
     2
 72
     1
  1
7
  7
SLDTEXTSTYLE1
 73
     1
 44
1.0
  0
MTEXT
  5
140
330
1F
100
AcDbEntity
  8
TITLE
100
AcDbMText
 10
36.7940169099
 20
0.4125551099
 30
0.0
 40
0.125
 41
0.0
 71
     2
 72
     1
  1
6
  7
SLDTEXTSTYLE1
 73
     1
 44
1.0
  0
MTEXT
  5
141
330
1F
100
AcDbEntity
  8
TITLE
100
AcDbMText
 10
36.7940169099
 20
35.7472007792
 30
0.0
 40
0.125
 41
0.0
 71
     2
 72
     1
  1
6
  7
SLDTEXTSTYLE1
 73
     1
 44
1.0
  0
MTEXT
  5
142
330
1F
100
AcDbEntity
  8
TITLE
100
AcDbMText
 10
38.7625208469
 20
0.4125551099
 30
0.0
 40
0.125
 41
0.0
 71
     2
 72
     1
  1
5
  7
SLDTEXTSTYLE1
 73
     1
 44
1.0
  0
MTEXT
  5
143
330
1F
100
AcDbEntity
  8
TITLE
100
AcDbMText
 10
38.7625208469
 20
35.7472007792
 30
0.0
 40
0.125
 41
0.0
 71
     2
 72
     1
  1
5
  7
SLDTEXTSTYLE1
 73
     1
 44
1.0
  0
MTEXT
  5
144
330
1F
100
AcDbEntity
  8
TITLE
100
AcDbMText
 10
40.7310247839
 20
0.4125551099
 30
0.0
 40
0.125
 41
0.0
 71
     2
 72
     1
  1
4
  7
SLDTEXTSTYLE1
 73
     1
 44
1.0
  0
MTEXT
  5
145
330
1F
100
AcDbEntity
  8
TITLE
100
AcDbMText
 10
40.7310247839
 20
35.7472007792
 30
0.0
 40
0.125
 41
0.0
 71
     2
 72
     1
  1
4
  7
SLDTEXTSTYLE1
 73
     1
 44
1.0
  0
MTEXT
  5
146
330
1F
100
AcDbEntity
  8
TITLE
100
AcDbMText
 10
42.6995287209
 20
0.4125551099
 30
0.0
 40
0.125
 41
0.0
 71
     2
 72
     1
  1
3
  7
SLDTEXTSTYLE1
 73
     1
 44
1.0
  0
MTEXT
  5
147
330
1F
100
AcDbEntity
  8
TITLE
100
AcDbMText
 10
42.6995287209
 20
35.7472007792
 30
0.0
 40
0.125
 41
0.0
 71
     2
 72
     1
  1
3
  7
SLDTEXTSTYLE1
 73
     1
 44
1.0
  0
MTEXT
  5
148
330
1F
100
AcDbEntity
  8
TITLE
100
AcDbMText
 10
44.6680326579
 20
0.4125551099
 30
0.0
 40
0.125
 41
0.0
 71
     2
 72
     1
  1
2
  7
SLDTEXTSTYLE1
 73
     1
 44
1.0
  0
MTEXT
  5
149
330
1F
100
AcDbEntity
  8
TITLE
100
AcDbMText
 10
44.6680326579
 20
35.7472007792
 30
0.0
 40
0.125
 41
0.0
 71
     2
 72
     1
  1
2
  7
SLDTEXTSTYLE1
 73
     1
 44
1.0
  0
MTEXT
  5
14A
330
1F
100
AcDbEntity
  8
TITLE
100
AcDbMText
 10
46.5755129729
 20
0.4125551099
 30
0.0
 40
0.125
 41
0.0
 71
     2
 72
     1
  1
1
  7
SLDTEXTSTYLE1
 73
     1
 44
1.0
  0
MTEXT
  5
14B
330
1F
100
AcDbEntity
  8
TITLE
100
AcDbMText
 10
46.5755129729
 20
35.7472007792
 30
0.0
 40
0.125
 41
0.0
 71
     2
 72
     1
  1
1
  7
SLDTEXTSTYLE1
 73
     1
 44
1.0
  0
LINE
  5
14C
330
1F
100
AcDbEntity
  8
0
  6
SLD-Solid
 62
     7
370
    25
100
AcDbLine
 10
4.7400290383
 20
9.818441027
 30
0.0
 11
4.5244439712
 21
9.7959077679
 31
0.0
  0
LINE
  5
14D
330
1F
100
AcDbEntity
  8
0
  6
SLD-Solid
 62
     7
370
    25
100
AcDbLine
 10
4.7504464327
 20
9.7267960318
 30
0.0
 11
4.7400290383
 21
9.818441027
 31
0.0
  0
SPLINE
  5
14E
330
1F
100
AcDbEntity
  8
0
  6
SLD-Solid
 62
     7
370
    25
100
AcDbSpline
210
0.0
220
0.0
230
1.0
 70
     8
 71
     3
 72
    14
 73
    10
 74
     0
 42
0.00000001
 43
0.00000001
 40
0.0
 40
0.0
 40
0.0
 40
0.0
 40
0.1669732910766208
 40
0.3292393671751918
 40
0.4780643428590361
 40
0.5831555886245606
 40
0.6936208322497824
 40
0.8266861690052619
 40
1.0
 40
1.0
 40
1.0
 40
1.0
 10
5.254125435244143
 20
9.752260089328116
 30
0.0
 10
5.22903244180142
 20
9.728973420280347
 30
0.0
 10
5.17955386215348
 20
9.683056566563977
 30
0.0
 10
5.101996111365833
 20
9.622866594045782
 30
0.0
 10
5.024551742687404
 20
9.584212405941203
 30
0.0
 10
4.948861906699594
 20
9.57486415740917
 30
0.0
 10
4.878362845722521
 20
9.594839645976094
 30
0.0
 10
4.808602710634279
 20
9.647043364184935
 30
0.0
 10
4.77145838691436
 20
9.697981268208373
 30
0.0
 10
4.75044643270455
 20
9.726796031803339
 30
0.0
  0
SPLINE
  5
14F
330
1F
100
AcDbEntity
  8
0
  6
SLD-Solid
 62
     7
370
    25
100
AcDbSpline
210
0.0
220
0.0
230
1.0
 70
     8
 71
     3
 72
    10
 73
     6
 74
     0
 42
0.00000001
 43
0.00000001
 40
0.0
 40
0.0
 40
0.0
 40
0.0
 40
0.3127001080851344
 40
0.585202906562633
 40
1.0
 40
1.0
 40
1.0
 40
1.0
 10
5.430595287293855
 20
9.821391116663646
 30
0.0
 10
5.41032620913187
 20
9.820439893121033
 30
0.0
 10
5.372393624054195
 20
9.81865972494221
 30
0.0
 10
5.31152457397615
 20
9.79446866069952
 30
0.0
 10
5.275728793413417
 20
9.768146161929437
 30
0.0
 10
5.254125435244143
 20
9.752260089328116
 30
0.0
  0
LINE
  5
150
330
1F
100
AcDbEntity
  8
0
  6
SLD-Solid
 62
     7
370
    25
100
AcDbLine
 10
5.8688886394
 20
9.6988533883
 30
0.0
 11
5.4305952873
 21
9.8213911167
 31
0.0
  0
LINE
  5
151
330
1F
100
AcDbEntity
  8
0
  6
SLD-Solid
 62
     7
370
    25
100
AcDbLine
 10
5.9740102242
 20
9.6723509766
 30
0.0
 11
5.8688886394
 21
9.6988533883
 31
0.0
  0
SPLINE
  5
152
330
1F
100
AcDbEntity
  8
0
  6
SLD-Solid
 62
     7
370
    25
100
AcDbSpline
210
0.0
220
0.0
230
1.0
 70
     8
 71
     3
 72
    11
 73
     7
 74
     0
 42
0.00000001
 43
0.00000001
 40
0.0
 40
0.0
 40
0.0
 40
0.0
 40
0.2779255621982136
 40
0.586501074987086
 40
0.8150864002480661
 40
1.0
 40
1.0
 40
1.0
 40
1.0
 10
6.402948417752961
 20
8.780924609119943
 30
0.0
 10
6.41166439638438
 20
8.787624492845566
 30
0.0
 10
6.430057561793342
 20
8.801763131178385
 30
0.0
 10
6.446096354630288
 20
8.830009431007895
 30
0.0
 10
6.457450528559987
 20
8.85615032670491
 30
0.0
 10
6.459228607864006
 20
8.8723441153475
 30
0.0
 10
6.460023751514596
 20
8.879585855459473
 30
0.0
  0
SPLINE
  5
153
330
1F
100
AcDbEntity
  8
0
  6
SLD-Solid
 62
     7
370
    25
100
AcDbSpline
210
0.0
220
0.0
230
1.0
 70
     8
 71
     3
 72
    13
 73
     9
 74
     0
 42
0.00000001
 43
0.00000001
 40
0.0
 40
0.0
 40
0.0
 40
0.0
 40
0.1722258029344766
 40
0.3651408598546105
 40
0.5673817509133596
 40
0.7237788946035334
 40
0.870227428619743
 40
1.0
 40
1.0
 40
1.0
 40
1.0
 10
5.583930216633876
 20
8.543222911799587
 30
0.0
 10
5.633986771456628
 20
8.537570362098784
 30
0.0
 10
5.740113107684501
 20
8.525586229506828
 30
0.0
 10
5.90477823626873
 20
8.552462824069185
 30
0.0
 10
6.059608751814534
 20
8.595797196355843
 30
0.0
 10
6.19583148789355
 20
8.651844905119033
 30
0.0
 10
6.308349817940958
 20
8.709647623359436
 30
0.0
 10
6.372710745964474
 20
8.758141501274984
 30
0.0
 10
6.402948417752961
 20
8.780924609119943
 30
0.0
  0
SPLINE
  5
154
330
1F
100
AcDbEntity
  8
0
  6
SLD-Solid
 62
     7
370
    25
100
AcDbSpline
210
0.0
220
0.0
230
1.0
 70
     8
 71
     3
 72
    17
 73
    13
 74
     0
 42
0.00000001
 43
0.00000001
 40
0.0
 40
0.0
 40
0.0
 40
0.0
 40
0.0678705028656887
 40
0.1510805487614269
 40
0.2455286833004882
 40
0.3480591354729947
 40
0.4570909829180667
 40
0.5477261663855204
 40
0.6442895922105873
 40
0.7494053384969317
 40
0.8666049980989338
 40
1.0
 40
1.0
 40
1.0
 40
1.0
 10
4.524443971168869
 20
9.795907767900815
 30
0.0
 10
4.53064347931171
 20
9.755901340770418
 30
0.0
 10
4.54444365836924
 20
9.666846556885798
 30
0.0
 10
4.569100814606648
 20
9.522431496729018
 30
0.0
 10
4.609536232543586
 20
9.360012773161044
 30
0.0
 10
4.672760847358905
 20
9.18825857086661
 30
0.0
 10
4.760029234989707
 20
9.029483013290427
 30
0.0
 10
4.870087478330906
 20
8.890346863704789
 30
0.0
 10
5.000003739560355
 20
8.772685189415313
 30
0.0
 10
5.162016173825391
 20
8.671420281456642
 30
0.0
 10
5.359103811761229
 20
8.58931047370772
 30
0.0
 10
5.505827284280113
 20
8.559233369877676
 30
0.0
 10
5.583930216633876
 20
8.543222911799587
 30
0.0
  0
SPLINE
  5
155
330
1F
100
AcDbEntity
  8
0
  6
SLD-Solid
 62
     7
370
    25
100
AcDbSpline
210
0.0
220
0.0
230
1.0
 70
     8
 71
     3
 72
    13
 73
     9
 74
     0
 42
0.00000001
 43
0.00000001
 40
0.0
 40
0.0
 40
0.0
 40
0.0
 40
0.1709847685286761
 40
0.3326578081366876
 40
0.4968967494144843
 40
0.6391258064239841
 40
0.8035705820916744
 40
0.9999999999999999
 40
0.9999999999999999
 40
0.9999999999999999
 40
0.9999999999999999
 10
6.460023751514596
 20
8.879585855459473
 30
0.0
 10
6.454170970042426
 20
8.934815298363024
 30
0.0
 10
6.44278414610022
 20
9.042266421518617
 30
0.0
 10
6.404855521774889
 20
9.199878385395442
 30
0.0
 10
6.33894139526914
 20
9.338400320865098
 30
0.0
 10
6.244740891714102
 20
9.459795830885838
 30
0.0
 10
6.124468731713964
 20
9.57145309662146
 30
0.0
 10
6.02704142020404
 20
9.636788113859353
 30
0.0
 10
5.974010224211251
 20
9.672350976578619
 30
0.0
  0
LINE
  5
156
330
1F
100
AcDbEntity
  8
0
  6
SLD-Solid
 62
     7
370
    25
100
AcDbLine
 10
14.6010290383
 20
9.818441027
 30
0.0
 11
14.3854439712
 21
9.7959077679
 31
0.0
  0
LINE
  5
157
330
1F
100
AcDbEntity
  8
0
  6
SLD-Solid
 62
     7
370
    25
100
AcDbLine
 10
14.6114464327
 20
9.7267960318
 30
0.0
 11
14.6010290383
 21
9.818441027
 31
0.0
  0
SPLINE
  5
158
330
1F
100
AcDbEntity
  8
0
  6
SLD-Solid
 62
     7
370
    25
100
AcDbSpline
210
0.0
220
0.0
230
1.0
 70
     8
 71
     3
 72
    14
 73
    10
 74
     0
 42
0.00000001
 43
0.00000001
 40
0.0
 40
0.0
 40
0.0
 40
0.0
 40
0.1669732910766208
 40
0.3292393671751918
 40
0.4780643428590361
 40
0.5831555886245606
 40
0.6936208322497824
 40
0.8266861690052619
 40
1.0
 40
1.0
 40
1.0
 40
1.0
 10
15.11512543524414
 20
9.752260089328116
 30
0.0
 10
15.09003244180142
 20
9.728973420280347
 30
0.0
 10
15.04055386215347
 20
9.683056566563977
 30
0.0
 10
14.96299611136583
 20
9.622866594045782
 30
0.0
 10
14.8855517426874
 20
9.584212405941203
 30
0.0
 10
14.80986190669959
 20
9.57486415740917
 30
0.0
 10
14.73936284572252
 20
9.594839645976094
 30
0.0
 10
14.66960271063427
 20
9.647043364184935
 30
0.0
 10
14.63245838691436
 20
9.697981268208373
 30
0.0
 10
14.61144643270455
 20
9.726796031803339
 30
0.0
  0
SPLINE
  5
159
330
1F
100
AcDbEntity
  8
0
  6
SLD-Solid
 62
     7
370
    25
100
AcDbSpline
210
0.0
220
0.0
230
1.0
 70
     8
 71
     3
 72
    10
 73
     6
 74
     0
 42
0.00000001
 43
0.00000001
 40
0.0
 40
0.0
 40
0.0
 40
0.0
 40
0.3127001080851344
 40
0.585202906562633
 40
1.0
 40
1.0
 40
1.0
 40
1.0
 10
15.29159528729385
 20
9.821391116663646
 30
0.0
 10
15.27132620913187
 20
9.820439893121033
 30
0.0
 10
15.2333936240542
 20
9.81865972494221
 30
0.0
 10
15.17252457397615
 20
9.79446866069952
 30
0.0
 10
15.13672879341342
 20
9.768146161929437
 30
0.0
 10
15.11512543524414
 20
9.752260089328116
 30
0.0
  0
LINE
  5
15A
330
1F
100
AcDbEntity
  8
0
  6
SLD-Solid
 62
     7
370
    25
100
AcDbLine
 10
15.8350102242
 20
9.6723509766
 30
0.0
 11
15.7298886394
 21
9.6988533883
 31
0.0
  0
SPLINE
  5
15B
330
1F
100
AcDbEntity
  8
0
  6
SLD-Solid
 62
     7
370
    25
100
AcDbSpline
210
0.0
220
0.0
230
1.0
 70
     8
 71
     3
 72
    13
 73
     9
 74
     0
 42
0.00000001
 43
0.00000001
 40
0.0
 40
0.0
 40
0.0
 40
0.0
 40
0.1709847685286762
 40
0.3326578081366875
 40
0.4968967494144849
 40
0.6391258064239842
 40
0.8035705820916746
 40
1.0
 40
1.0
 40
1.0
 40
1.0
 10
16.32102375151459
 20
8.879585855459473
 30
0.0
 10
16.31517097004242
 20
8.934815298363024
 30
0.0
 10
16.30378414610022
 20
9.042266421518617
 30
0.0
 10
16.26585552177489
 20
9.199878385395442
 30
0.0
 10
16.19994139526913
 20
9.338400320865096
 30
0.0
 10
16.1057408917141
 20
9.459795830885838
 30
0.0
 10
15.98546873171396
 20
9.57145309662146
 30
0.0
 10
15.88804142020403
 20
9.636788113859353
 30
0.0
 10
15.83501022421125
 20
9.672350976578619
 30
0.0
  0
SPLINE
  5
15C
330
1F
100
AcDbEntity
  8
0
  6
SLD-Solid
 62
     7
370
    25
100
AcDbSpline
210
0.0
220
0.0
230
1.0
 70
     8
 71
     3
 72
    11
 73
     7
 74
     0
 42
0.00000001
 43
0.00000001
 40
0.0
 40
0.0
 40
0.0
 40
0.0
 40
0.2779255621982198
 40
0.5865010749870865
 40
0.8150864002480659
 40
1.0
 40
1.0
 40
1.0
 40
1.0
 10
16.26394841775296
 20
8.780924609119943
 30
0.0
 10
16.27266439638438
 20
8.787624492845566
 30
0.0
 10
16.29105756179334
 20
8.801763131178383
 30
0.0
 10
16.30709635463028
 20
8.830009431007893
 30
0.0
 10
16.31845052855999
 20
8.85615032670491
 30
0.0
 10
16.320228607864
 20
8.8723441153475
 30
0.0
 10
16.32102375151459
 20
8.879585855459473
 30
0.0
  0
SPLINE
  5
15D
330
1F
100
AcDbEntity
  8
0
  6
SLD-Solid
 62
     7
370
    25
100
AcDbSpline
210
0.0
220
0.0
230
1.0
 70
     8
 71
     3
 72
    13
 73
     9
 74
     0
 42
0.00000001
 43
0.00000001
 40
0.0
 40
0.0
 40
0.0
 40
0.0
 40
0.1722258029344766
 40
0.3651408598546104
 40
0.5673817509133606
 40
0.7237788946035344
 40
0.870227428619744
 40
1.0
 40
1.0
 40
1.0
 40
1.0
 10
15.44493021663387
 20
8.543222911799587
 30
0.0
 10
15.49498677145663
 20
8.537570362098784
 30
0.0
 10
15.6011131076845
 20
8.52558622950683
 30
0.0
 10
15.76577823626873
 20
8.552462824069185
 30
0.0
 10
15.92060875181453
 20
8.595797196355843
 30
0.0
 10
16.05683148789354
 20
8.651844905119031
 30
0.0
 10
16.16934981794096
 20
8.709647623359434
 30
0.0
 10
16.23371074596447
 20
8.758141501274984
 30
0.0
 10
16.26394841775296
 20
8.780924609119943
 30
0.0
  0
SPLINE
  5
15E
330
1F
100
AcDbEntity
  8
0
  6
SLD-Solid
 62
     7
370
    25
100
AcDbSpline
210
0.0
220
0.0
230
1.0
 70
     8
 71
     3
 72
    17
 73
    13
 74
     0
 42
0.00000001
 43
0.00000001
 40
0.0
 40
0.0
 40
0.0
 40
0.0
 40
0.0678705028656887
 40
0.151080548761427
 40
0.2455286833004882
 40
0.3480591354729948
 40
0.4570909829180668
 40
0.5477261663855205
 40
0.6442895922105875
 40
0.7494053384969324
 40
0.8666049980989338
 40
1.0
 40
1.0
 40
1.0
 40
1.0
 10
14.38544397116887
 20
9.795907767900815
 30
0.0
 10
14.39164347931171
 20
9.755901340770418
 30
0.0
 10
14.40544365836925
 20
9.666846556885798
 30
0.0
 10
14.43010081460664
 20
9.522431496729016
 30
0.0
 10
14.47053623254359
 20
9.360012773161044
 30
0.0
 10
14.5337608473589
 20
9.18825857086661
 30
0.0
 10
14.62102923498971
 20
9.029483013290427
 30
0.0
 10
14.7310874783309
 20
8.890346863704789
 30
0.0
 10
14.86100373956035
 20
8.772685189415313
 30
0.0
 10
15.0230161738254
 20
8.671420281456644
 30
0.0
 10
15.22010381176123
 20
8.58931047370772
 30
0.0
 10
15.36682728428011
 20
8.559233369877676
 30
0.0
 10
15.44493021663387
 20
8.543222911799587
 30
0.0
  0
LINE
  5
15F
330
1F
100
AcDbEntity
  8
0
  6
SLD-Solid
 62
     7
370
    25
100
AcDbLine
 10
15.7298886394
 20
9.6988533883
 30
0.0
 11
15.2915952873
 21
9.8213911167
 31
0.0
  0
LINE
  5
160
330
1F
100
AcDbEntity
  8
0
  6
SLD-Solid
 62
     7
370
    25
100
AcDbLine
 10
34.3230290383
 20
9.818441027
 30
0.0
 11
34.1074439712
 21
9.7959077679
 31
0.0
  0
LINE
  5
161
330
1F
100
AcDbEntity
  8
0
  6
SLD-Solid
 62
     7
370
    25
100
AcDbLine
 10
34.3334464327
 20
9.7267960318
 30
0.0
 11
34.3230290383
 21
9.818441027
 31
0.0
  0
SPLINE
  5
162
330
1F
100
AcDbEntity
  8
0
  6
SLD-Solid
 62
     7
370
    25
100
AcDbSpline
210
0.0
220
0.0
230
1.0
 70
     8
 71
     3
 72
    14
 73
    10
 74
     0
 42
0.00000001
 43
0.00000001
 40
0.0
 40
0.0
 40
0.0
 40
0.0
 40
0.1669732910766208
 40
0.3292393671751918
 40
0.4780643428590361
 40
0.5831555886245606
 40
0.6936208322497824
 40
0.8266861690052619
 40
1.0
 40
1.0
 40
1.0
 40
1.0
 10
34.83712543524414
 20
9.752260089328116
 30
0.0
 10
34.81203244180141
 20
9.728973420280347
 30
0.0
 10
34.76255386215347
 20
9.683056566563977
 30
0.0
 10
34.68499611136583
 20
9.622866594045782
 30
0.0
 10
34.6075517426874
 20
9.584212405941203
 30
0.0
 10
34.53186190669959
 20
9.57486415740917
 30
0.0
 10
34.46136284572252
 20
9.594839645976094
 30
0.0
 10
34.39160271063427
 20
9.647043364184935
 30
0.0
 10
34.35445838691435
 20
9.697981268208373
 30
0.0
 10
34.33344643270455
 20
9.726796031803339
 30
0.0
  0
SPLINE
  5
163
330
1F
100
AcDbEntity
  8
0
  6
SLD-Solid
 62
     7
370
    25
100
AcDbSpline
210
0.0
220
0.0
230
1.0
 70
     8
 71
     3
 72
    10
 73
     6
 74
     0
 42
0.00000001
 43
0.00000001
 40
0.0
 40
0.0
 40
0.0
 40
0.0
 40
0.3127001080851344
 40
0.585202906562633
 40
1.0
 40
1.0
 40
1.0
 40
1.0
 10
35.01359528729385
 20
9.821391116663646
 30
0.0
 10
34.99332620913187
 20
9.820439893121033
 30
0.0
 10
34.9553936240542
 20
9.81865972494221
 30
0.0
 10
34.89452457397614
 20
9.79446866069952
 30
0.0
 10
34.85872879341341
 20
9.768146161929437
 30
0.0
 10
34.83712543524414
 20
9.752260089328116
 30
0.0
  0
LINE
  5
164
330
1F
100
AcDbEntity
  8
0
  6
SLD-Solid
 62
     7
370
    25
100
AcDbLine
 10
35.5570102242
 20
9.6723509766
 30
0.0
 11
35.4518886394
 21
9.6988533883
 31
0.0
  0
SPLINE
  5
165
330
1F
100
AcDbEntity
  8
0
  6
SLD-Solid
 62
     7
370
    25
100
AcDbSpline
210
0.0
220
0.0
230
1.0
 70
     8
 71
     3
 72
    13
 73
     9
 74
     0
 42
0.00000001
 43
0.00000001
 40
0.0
 40
0.0
 40
0.0
 40
0.0
 40
0.1709847685286761
 40
0.3326578081366876
 40
0.4968967494144843
 40
0.6391258064239841
 40
0.8035705820916744
 40
0.9999999999999999
 40
0.9999999999999999
 40
0.9999999999999999
 40
0.9999999999999999
 10
36.04302375151459
 20
8.879585855459473
 30
0.0
 10
36.03717097004242
 20
8.934815298363024
 30
0.0
 10
36.02578414610021
 20
9.042266421518617
 30
0.0
 10
35.98785552177489
 20
9.199878385395442
 30
0.0
 10
35.92194139526913
 20
9.338400320865098
 30
0.0
 10
35.8277408917141
 20
9.459795830885838
 30
0.0
 10
35.70746873171394
 20
9.57145309662146
 30
0.0
 10
35.61004142020403
 20
9.636788113859353
 30
0.0
 10
35.55701022421125
 20
9.672350976578619
 30
0.0
  0
SPLINE
  5
166
330
1F
100
AcDbEntity
  8
0
  6
SLD-Solid
 62
     7
370
    25
100
AcDbSpline
210
0.0
220
0.0
230
1.0
 70
     8
 71
     3
 72
    11
 73
     7
 74
     0
 42
0.00000001
 43
0.00000001
 40
0.0
 40
0.0
 40
0.0
 40
0.0
 40
0.2779255621982136
 40
0.586501074987086
 40
0.8150864002480661
 40
1.0
 40
1.0
 40
1.0
 40
1.0
 10
35.98594841775296
 20
8.780924609119943
 30
0.0
 10
35.99466439638437
 20
8.787624492845566
 30
0.0
 10
36.01305756179335
 20
8.801763131178385
 30
0.0
 10
36.02909635463026
 20
8.830009431007895
 30
0.0
 10
36.04045052855999
 20
8.85615032670491
 30
0.0
 10
36.042228607864
 20
8.8723441153475
 30
0.0
 10
36.04302375151459
 20
8.879585855459473
 30
0.0
  0
SPLINE
  5
167
330
1F
100
AcDbEntity
  8
0
  6
SLD-Solid
 62
     7
370
    25
100
AcDbSpline
210
0.0
220
0.0
230
1.0
 70
     8
 71
     3
 72
    17
 73
    13
 74
     0
 42
0.00000001
 43
0.00000001
 40
0.0
 40
0.0
 40
0.0
 40
0.0
 40
0.0678705028656887
 40
0.1510805487614269
 40
0.2455286833004882
 40
0.3480591354729947
 40
0.4570909829180667
 40
0.5477261663855204
 40
0.6442895922105873
 40
0.7494053384969317
 40
0.8666049980989338
 40
1.0
 40
1.0
 40
1.0
 40
1.0
 10
34.10744397116886
 20
9.795907767900815
 30
0.0
 10
34.1136434793117
 20
9.755901340770418
 30
0.0
 10
34.12744365836924
 20
9.666846556885798
 30
0.0
 10
34.15210081460663
 20
9.522431496729018
 30
0.0
 10
34.19253623254359
 20
9.360012773161044
 30
0.0
 10
34.25576084735889
 20
9.18825857086661
 30
0.0
 10
34.34302923498971
 20
9.029483013290427
 30
0.0
 10
34.4530874783309
 20
8.890346863704789
 30
0.0
 10
34.58300373956035
 20
8.772685189415313
 30
0.0
 10
34.74501617382539
 20
8.671420281456642
 30
0.0
 10
34.94210381176123
 20
8.58931047370772
 30
0.0
 10
35.08882728428011
 20
8.559233369877676
 30
0.0
 10
35.16693021663387
 20
8.543222911799587
 30
0.0
  0
SPLINE
  5
168
330
1F
100
AcDbEntity
  8
0
  6
SLD-Solid
 62
     7
370
    25
100
AcDbSpline
210
0.0
220
0.0
230
1.0
 70
     8
 71
     3
 72
    13
 73
     9
 74
     0
 42
0.00000001
 43
0.00000001
 40
0.0
 40
0.0
 40
0.0
 40
0.0
 40
0.1722258029344766
 40
0.3651408598546105
 40
0.5673817509133596
 40
0.7237788946035334
 40
0.870227428619743
 40
1.0
 40
1.0
 40
1.0
 40
1.0
 10
35.16693021663387
 20
8.543222911799587
 30
0.0
 10
35.21698677145663
 20
8.537570362098784
 30
0.0
 10
35.3231131076845
 20
8.525586229506828
 30
0.0
 10
35.48777823626872
 20
8.552462824069185
 30
0.0
 10
35.64260875181453
 20
8.595797196355843
 30
0.0
 10
35.77883148789354
 20
8.651844905119033
 30
0.0
 10
35.89134981794096
 20
8.709647623359436
 30
0.0
 10
35.95571074596447
 20
8.758141501274984
 30
0.0
 10
35.98594841775296
 20
8.780924609119943
 30
0.0
  0
LINE
  5
169
330
1F
100
AcDbEntity
  8
0
  6
SLD-Solid
 62
     7
370
    25
100
AcDbLine
 10
35.4518886394
 20
9.6988533883
 30
0.0
 11
35.0135952873
 21
9.8213911167
 31
0.0
  0
LINE
  5
16A
330
1F
100
AcDbEntity
  8
0
  6
SLD-Solid
 62
     7
370
    25
100
AcDbLine
 10
24.4724464327
 20
9.7267960318
 30
0.0
 11
24.4620290383
 21
9.818441027
 31
0.0
  0
SPLINE
  5
16B
330
1F
100
AcDbEntity
  8
0
  6
SLD-Solid
 62
     7
370
    25
100
AcDbSpline
210
0.0
220
0.0
230
1.0
 70
     8
 71
     3
 72
    10
 73
     6
 74
     0
 42
0.00000001
 43
0.00000001
 40
0.0
 40
0.0
 40
0.0
 40
0.0
 40
0.3127001080851385
 40
0.5852029065626303
 40
1.0
 40
1.0
 40
1.0
 40
1.0
 10
25.15259528729385
 20
9.821391116663646
 30
0.0
 10
25.13232620913187
 20
9.820439893121033
 30
0.0
 10
25.0943936240542
 20
9.818659724942211
 30
0.0
 10
25.03352457397614
 20
9.79446866069952
 30
0.0
 10
24.99772879341342
 20
9.768146161929437
 30
0.0
 10
24.97612543524414
 20
9.752260089328116
 30
0.0
  0
LINE
  5
16C
330
1F
100
AcDbEntity
  8
0
  6
SLD-Solid
 62
     7
370
    25
100
AcDbLine
 10
25.5908886394
 20
9.6988533883
 30
0.0
 11
25.1525952873
 21
9.8213911167
 31
0.0
  0
LINE
  5
16D
330
1F
100
AcDbEntity
  8
0
  6
SLD-Solid
 62
     7
370
    25
100
AcDbLine
 10
25.6960102242
 20
9.6723509766
 30
0.0
 11
25.5908886394
 21
9.6988533883
 31
0.0
  0
SPLINE
  5
16E
330
1F
100
AcDbEntity
  8
0
  6
SLD-Solid
 62
     7
370
    25
100
AcDbSpline
210
0.0
220
0.0
230
1.0
 70
     8
 71
     3
 72
    17
 73
    13
 74
     0
 42
0.00000001
 43
0.00000001
 40
0.0
 40
0.0
 40
0.0
 40
0.0
 40
0.0678705028656887
 40
0.1510805487614269
 40
0.2455286833004882
 40
0.3480591354729948
 40
0.4570909829180668
 40
0.5477261663855203
 40
0.6442895922105873
 40
0.7494053384969325
 40
0.8666049980989335
 40
1.0
 40
1.0
 40
1.0
 40
1.0
 10
24.24644397116887
 20
9.795907767900815
 30
0.0
 10
24.25264347931171
 20
9.755901340770418
 30
0.0
 10
24.26644365836924
 20
9.666846556885798
 30
0.0
 10
24.29110081460664
 20
9.522431496729016
 30
0.0
 10
24.33153623254358
 20
9.360012773161044
 30
0.0
 10
24.3947608473589
 20
9.18825857086661
 30
0.0
 10
24.48202923498971
 20
9.029483013290427
 30
0.0
 10
24.5920874783309
 20
8.890346863704789
 30
0.0
 10
24.72200373956035
 20
8.772685189415313
 30
0.0
 10
24.88401617382539
 20
8.671420281456644
 30
0.0
 10
25.08110381176123
 20
8.58931047370772
 30
0.0
 10
25.22782728428011
 20
8.559233369877676
 30
0.0
 10
25.30593021663387
 20
8.543222911799587
 30
0.0
  0
SPLINE
  5
16F
330
1F
100
AcDbEntity
  8
0
  6
SLD-Solid
 62
     7
370
    25
100
AcDbSpline
210
0.0
220
0.0
230
1.0
 70
     8
 71
     3
 72
    11
 73
     7
 74
     0
 42
0.00000001
 43
0.00000001
 40
0.0
 40
0.0
 40
0.0
 40
0.0
 40
0.27792556219822
 40
0.5865010749870868
 40
0.8150864002480664
 40
1.0
 40
1.0
 40
1.0
 40
1.0
 10
26.12494841775296
 20
8.780924609119943
 30
0.0
 10
26.13366439638438
 20
8.787624492845566
 30
0.0
 10
26.15205756179334
 20
8.801763131178385
 30
0.0
 10
26.16809635463028
 20
8.830009431007893
 30
0.0
 10
26.17945052855999
 20
8.856150326704912
 30
0.0
 10
26.181228607864
 20
8.8723441153475
 30
0.0
 10
26.18202375151459
 20
8.879585855459473
 30
0.0
  0
SPLINE
  5
170
330
1F
100
AcDbEntity
  8
0
  6
SLD-Solid
 62
     7
370
    25
100
AcDbSpline
210
0.0
220
0.0
230
1.0
 70
     8
 71
     3
 72
    13
 73
     9
 74
     0
 42
0.00000001
 43
0.00000001
 40
0.0
 40
0.0
 40
0.0
 40
0.0
 40
0.1722258029344772
 40
0.3651408598546104
 40
0.5673817509133606
 40
0.7237788946035344
 40
0.870227428619744
 40
1.0
 40
1.0
 40
1.0
 40
1.0
 10
25.30593021663387
 20
8.543222911799587
 30
0.0
 10
25.35598677145663
 20
8.537570362098784
 30
0.0
 10
25.4621131076845
 20
8.52558622950683
 30
0.0
 10
25.62677823626873
 20
8.552462824069185
 30
0.0
 10
25.78160875181453
 20
8.595797196355841
 30
0.0
 10
25.91783148789354
 20
8.651844905119031
 30
0.0
 10
26.03034981794096
 20
8.709647623359434
 30
0.0
 10
26.09471074596447
 20
8.758141501274984
 30
0.0
 10
26.12494841775296
 20
8.780924609119943
 30
0.0
  0
SPLINE
  5
171
330
1F
100
AcDbEntity
  8
0
  6
SLD-Solid
 62
     7
370
    25
100
AcDbSpline
210
0.0
220
0.0
230
1.0
 70
     8
 71
     3
 72
    14
 73
    10
 74
     0
 42
0.00000001
 43
0.00000001
 40
0.0
 40
0.0
 40
0.0
 40
0.0
 40
0.1669732910766201
 40
0.3292393671751912
 40
0.4780643428590354
 40
0.5831555886245608
 40
0.6936208322497819
 40
0.8266861690052614
 40
1.0
 40
1.0
 40
1.0
 40
1.0
 10
24.97612543524414
 20
9.752260089328116
 30
0.0
 10
24.95103244180141
 20
9.728973420280347
 30
0.0
 10
24.90155386215347
 20
9.683056566563977
 30
0.0
 10
24.82399611136584
 20
9.622866594045782
 30
0.0
 10
24.7465517426874
 20
9.584212405941201
 30
0.0
 10
24.67086190669959
 20
9.57486415740917
 30
0.0
 10
24.60036284572252
 20
9.594839645976094
 30
0.0
 10
24.53060271063427
 20
9.647043364184935
 30
0.0
 10
24.49345838691436
 20
9.697981268208373
 30
0.0
 10
24.47244643270455
 20
9.726796031803339
 30
0.0
  0
SPLINE
  5
172
330
1F
100
AcDbEntity
  8
0
  6
SLD-Solid
 62
     7
370
    25
100
AcDbSpline
210
0.0
220
0.0
230
1.0
 70
     8
 71
     3
 72
    13
 73
     9
 74
     0
 42
0.00000001
 43
0.00000001
 40
0.0
 40
0.0
 40
0.0
 40
0.0
 40
0.1709847685286761
 40
0.3326578081366873
 40
0.4968967494144849
 40
0.6391258064239841
 40
0.803570582091675
 40
0.9999999999999999
 40
0.9999999999999999
 40
0.9999999999999999
 40
0.9999999999999999
 10
26.18202375151459
 20
8.879585855459473
 30
0.0
 10
26.17617097004242
 20
8.934815298363022
 30
0.0
 10
26.16478414610022
 20
9.042266421518617
 30
0.0
 10
26.12685552177489
 20
9.199878385395444
 30
0.0
 10
26.06094139526913
 20
9.338400320865096
 30
0.0
 10
25.9667408917141
 20
9.45979583088584
 30
0.0
 10
25.84646873171395
 20
9.57145309662146
 30
0.0
 10
25.74904142020403
 20
9.636788113859353
 30
0.0
 10
25.69601022421125
 20
9.672350976578619
 30
0.0
  0
LINE
  5
173
330
1F
100
AcDbEntity
  8
0
  6
SLD-Solid
 62
     7
370
    25
100
AcDbLine
 10
24.4620290383
 20
9.818441027
 30
0.0
 11
24.2464439712
 21
9.7959077679
 31
0.0
  0
LINE
  5
174
330
1F
100
AcDbEntity
  8
0
  6
SLD-Solid
 62
     7
370
    25
100
AcDbLine
 10
13.7584981896
 20
9.8629157637
 30
0.0
 11
13.7584981896
 21
8.9245016299
 31
0.0
  0
LINE
  5
175
330
1F
100
AcDbEntity
  8
0
  6
SLD-Solid
 62
     7
370
    25
100
AcDbLine
 10
13.6884981896
 20
9.8629157637
 30
0.0
 11
13.6884981896
 21
8.9245016299
 31
0.0
  0
LINE
  5
176
330
1F
100
AcDbEntity
  8
0
  6
SLD-Solid
 62
     7
370
    25
100
AcDbLine
 10
13.7584981896
 20
8.9245016299
 30
0.0
 11
13.7584981896
 21
8.7745016299
 31
0.0
  0
LINE
  5
177
330
1F
100
AcDbEntity
  8
0
  6
SLD-Solid
 62
     7
370
    25
100
AcDbLine
 10
13.7584981896
 20
8.7745016299
 30
0.0
 11
13.6884981896
 21
8.7745016299
 31
0.0
  0
LINE
  5
178
330
1F
100
AcDbEntity
  8
0
  6
SLD-Solid
 62
     7
370
    25
100
AcDbLine
 10
13.6884981896
 20
8.7745016299
 30
0.0
 11
13.6884981896
 21
8.9245016299
 31
0.0
  0
LINE
  5
179
330
1F
100
AcDbEntity
  8
0
  6
SLD-Solid
 62
     7
370
    25
100
AcDbLine
 10
13.6884981896
 20
10.0129157637
 30
0.0
 11
13.7584981896
 21
10.0129157637
 31
0.0
  0
LINE
  5
17A
330
1F
100
AcDbEntity
  8
0
  6
SLD-Solid
 62
     7
370
    25
100
AcDbLine
 10
13.6884981896
 20
9.8629157637
 30
0.0
 11
13.6884981896
 21
10.0129157637
 31
0.0
  0
LINE
  5
17B
330
1F
100
AcDbEntity
  8
0
  6
SLD-Solid
 62
     7
370
    25
100
AcDbLine
 10
13.7584981896
 20
10.0129157637
 30
0.0
 11
13.7584981896
 21
9.8629157637
 31
0.0
  0
LINE
  5
17C
330
1F
100
AcDbEntity
  8
0
  6
SLD-Solid
 62
     7
370
    25
100
AcDbLine
 10
16.3995247644
 20
8.7745016299
 30
0.0
 11
16.3295247644
 21
8.7745016299
 31
0.0
  0
LINE
  5
17D
330
1F
100
AcDbEntity
  8
0
  6
SLD-Solid
 62
     7
370
    25
100
AcDbLine
 10
16.3295247644
 20
8.7745016299
 30
0.0
 11
16.3295247644
 21
8.9245016299
 31
0.0
  0
LINE
  5
17E
330
1F
100
AcDbEntity
  8
0
  6
SLD-Solid
 62
     7
370
    25
100
AcDbLine
 10
16.3995247644
 20
8.9245016299
 30
0.0
 11
16.3995247644
 21
8.7745016299
 31
0.0
  0
LINE
  5
17F
330
1F
100
AcDbEntity
  8
0
  6
SLD-Solid
 62
     7
370
    25
100
AcDbLine
 10
16.3995247644
 20
9.8629157637
 30
0.0
 11
16.3995247644
 21
8.9245016299
 31
0.0
  0
LINE
  5
180
330
1F
100
AcDbEntity
  8
0
  6
SLD-Solid
 62
     7
370
    25
100
AcDbLine
 10
16.3295247644
 20
9.8629157637
 30
0.0
 11
16.3295247644
 21
8.9245016299
 31
0.0
  0
LINE
  5
181
330
1F
100
AcDbEntity
  8
0
  6
SLD-Solid
 62
     7
370
    25
100
AcDbLine
 10
16.3295247644
 20
9.8629157637
 30
0.0
 11
16.3295247644
 21
10.0129157637
 31
0.0
  0
LINE
  5
182
330
1F
100
AcDbEntity
  8
0
  6
SLD-Solid
 62
     7
370
    25
100
AcDbLine
 10
16.3295247644
 20
10.0129157637
 30
0.0
 11
16.3995247644
 21
10.0129157637
 31
0.0
  0
LINE
  5
183
330
1F
100
AcDbEntity
  8
0
  6
SLD-Solid
 62
     7
370
    25
100
AcDbLine
 10
16.3995247644
 20
10.0129157637
 30
0.0
 11
16.3995247644
 21
9.8629157637
 31
0.0
  0
LINE
  5
184
330
1F
100
AcDbEntity
  8
0
  6
SLD-Solid
 62
     7
370
    25
100
AcDbLine
 10
16.3295247644
 20
10.0129157637
 30
0.0
 11
16.2595247644
 21
10.0129157637
 31
0.0
  0
LINE
  5
185
330
1F
100
AcDbEntity
  8
0
  6
SLD-Solid
 62
     7
370
    25
100
AcDbLine
 10
16.2595247644
 20
8.7745016299
 30
0.0
 11
16.3295247644
 21
8.7745016299
 31
0.0
  0
LINE
  5
186
330
1F
100
AcDbEntity
  8
0
  6
SLD-Solid
 62
     7
370
    25
100
AcDbLine
 10
13.7584981896
 20
8.7745016299
 30
0.0
 11
13.8284981896
 21
8.7745016299
 31
0.0
  0
LINE
  5
187
330
1F
100
AcDbEntity
  8
0
  6
SLD-Solid
 62
     7
370
    25
100
AcDbLine
 10
13.8284981896
 20
10.0129157637
 30
0.0
 11
13.7584981896
 21
10.0129157637
 31
0.0
  0
LINE
  5
188
330
1F
100
AcDbEntity
  8
0
  6
SLD-Solid
 62
     7
370
    25
100
AcDbLine
 10
13.8284981896
 20
8.7745016299
 30
0.0
 11
14.8689332116
 21
8.7745016299
 31
0.0
  0
LINE
  5
189
330
1F
100
AcDbEntity
  8
0
  6
SLD-Solid
 62
     7
370
    25
100
AcDbLine
 10
16.2595247644
 20
10.0129157637
 30
0.0
 11
13.8284981896
 21
10.0129157637
 31
0.0
  0
LINE
  5
18A
330
1F
100
AcDbEntity
  8
0
  6
SLD-Solid
 62
     7
370
    25
100
AcDbLine
 10
33.4104981896
 20
10.0129157637
 30
0.0
 11
33.4804981896
 21
10.0129157637
 31
0.0
  0
LINE
  5
18B
330
1F
100
AcDbEntity
  8
0
  6
SLD-Solid
 62
     7
370
    25
100
AcDbLine
 10
33.4804981896
 20
10.0129157637
 30
0.0
 11
33.4804981896
 21
9.8629157637
 31
0.0
  0
LINE
  5
18C
330
1F
100
AcDbEntity
  8
0
  6
SLD-Solid
 62
     7
370
    25
100
AcDbLine
 10
33.4104981896
 20
9.8629157637
 30
0.0
 11
33.4104981896
 21
10.0129157637
 31
0.0
  0
LINE
  5
18D
330
1F
100
AcDbEntity
  8
0
  6
SLD-Solid
 62
     7
370
    25
100
AcDbLine
 10
33.4804981896
 20
8.9245016299
 30
0.0
 11
33.4804981896
 21
8.7745016299
 31
0.0
  0
LINE
  5
18E
330
1F
100
AcDbEntity
  8
0
  6
SLD-Solid
 62
     7
370
    25
100
AcDbLine
 10
33.4804981896
 20
8.7745016299
 30
0.0
 11
33.4104981896
 21
8.7745016299
 31
0.0
  0
LINE
  5
18F
330
1F
100
AcDbEntity
  8
0
  6
SLD-Solid
 62
     7
370
    25
100
AcDbLine
 10
33.4104981896
 20
8.7745016299
 30
0.0
 11
33.4104981896
 21
8.9245016299
 31
0.0
  0
LINE
  5
190
330
1F
100
AcDbEntity
  8
0
  6
SLD-Solid
 62
     7
370
    25
100
AcDbLine
 10
33.4104981896
 20
9.8629157637
 30
0.0
 11
33.4104981896
 21
8.9245016299
 31
0.0
  0
LINE
  5
191
330
1F
100
AcDbEntity
  8
0
  6
SLD-Solid
 62
     7
370
    25
100
AcDbLine
 10
33.4804981896
 20
9.8629157637
 30
0.0
 11
33.4804981896
 21
8.9245016299
 31
0.0
  0
LINE
  5
192
330
1F
100
AcDbEntity
  8
0
  6
SLD-Solid
 62
     7
370
    25
100
AcDbLine
 10
36.1215247644
 20
9.8629157637
 30
0.0
 11
36.1215247644
 21
8.9245016299
 31
0.0
  0
LINE
  5
193
330
1F
100
AcDbEntity
  8
0
  6
SLD-Solid
 62
     7
370
    25
100
AcDbLine
 10
36.0515247644
 20
9.8629157637
 30
0.0
 11
36.0515247644
 21
8.9245016299
 31
0.0
  0
LINE
  5
194
330
1F
100
AcDbEntity
  8
0
  6
SLD-Solid
 62
     7
370
    25
100
AcDbLine
 10
36.1215247644
 20
8.7745016299
 30
0.0
 11
36.0515247644
 21
8.7745016299
 31
0.0
  0
LINE
  5
195
330
1F
100
AcDbEntity
  8
0
  6
SLD-Solid
 62
     7
370
    25
100
AcDbLine
 10
36.0515247644
 20
8.7745016299
 30
0.0
 11
36.0515247644
 21
8.9245016299
 31
0.0
  0
LINE
  5
196
330
1F
100
AcDbEntity
  8
0
  6
SLD-Solid
 62
     7
370
    25
100
AcDbLine
 10
36.1215247644
 20
8.9245016299
 30
0.0
 11
36.1215247644
 21
8.7745016299
 31
0.0
  0
LINE
  5
197
330
1F
100
AcDbEntity
  8
0
  6
SLD-Solid
 62
     7
370
    25
100
AcDbLine
 10
36.0515247644
 20
9.8629157637
 30
0.0
 11
36.0515247644
 21
10.0129157637
 31
0.0
  0
LINE
  5
198
330
1F
100
AcDbEntity
  8
0
  6
SLD-Solid
 62
     7
370
    25
100
AcDbLine
 10
36.0515247644
 20
10.0129157637
 30
0.0
 11
36.1215247644
 21
10.0129157637
 31
0.0
  0
LINE
  5
199
330
1F
100
AcDbEntity
  8
0
  6
SLD-Solid
 62
     7
370
    25
100
AcDbLine
 10
36.1215247644
 20
10.0129157637
 30
0.0
 11
36.1215247644
 21
9.8629157637
 31
0.0
  0
LINE
  5
19A
330
1F
100
AcDbEntity
  8
0
  6
SLD-Solid
 62
     7
370
    25
100
AcDbLine
 10
36.0515247644
 20
10.0129157637
 30
0.0
 11
35.9815247644
 21
10.0129157637
 31
0.0
  0
LINE
  5
19B
330
1F
100
AcDbEntity
  8
0
  6
SLD-Solid
 62
     7
370
    25
100
AcDbLine
 10
35.9815247644
 20
8.7745016299
 30
0.0
 11
36.0515247644
 21
8.7745016299
 31
0.0
  0
LINE
  5
19C
330
1F
100
AcDbEntity
  8
0
  6
SLD-Solid
 62
     7
370
    25
100
AcDbLine
 10
33.5504981896
 20
10.0129157637
 30
0.0
 11
33.4804981896
 21
10.0129157637
 31
0.0
  0
LINE
  5
19D
330
1F
100
AcDbEntity
  8
0
  6
SLD-Solid
 62
     7
370
    25
100
AcDbLine
 10
33.4804981896
 20
8.7745016299
 30
0.0
 11
33.5504981896
 21
8.7745016299
 31
0.0
  0
LINE
  5
19E
330
1F
100
AcDbEntity
  8
0
  6
SLD-Solid
 62
     7
370
    25
100
AcDbLine
 10
33.5504981896
 20
8.7745016299
 30
0.0
 11
34.5909332116
 21
8.7745016299
 31
0.0
  0
LINE
  5
19F
330
1F
100
AcDbEntity
  8
0
  6
SLD-Solid
 62
     7
370
    25
100
AcDbLine
 10
35.9815247644
 20
10.0129157637
 30
0.0
 11
33.5504981896
 21
10.0129157637
 31
0.0
  0
LINE
  5
1A0
330
1F
100
AcDbEntity
  8
0
  6
SLD-Solid
 62
     7
370
    25
100
AcDbLine
 10
3.8974981896
 20
8.9245016299
 30
0.0
 11
3.8974981896
 21
8.7745016299
 31
0.0
  0
LINE
  5
1A1
330
1F
100
AcDbEntity
  8
0
  6
SLD-Solid
 62
     7
370
    25
100
AcDbLine
 10
3.8974981896
 20
8.7745016299
 30
0.0
 11
3.8274981896
 21
8.7745016299
 31
0.0
  0
LINE
  5
1A2
330
1F
100
AcDbEntity
  8
0
  6
SLD-Solid
 62
     7
370
    25
100
AcDbLine
 10
3.8274981896
 20
8.7745016299
 30
0.0
 11
3.8274981896
 21
8.9245016299
 31
0.0
  0
LINE
  5
1A3
330
1F
100
AcDbEntity
  8
0
  6
SLD-Solid
 62
     7
370
    25
100
AcDbLine
 10
3.8274981896
 20
9.8629157637
 30
0.0
 11
3.8274981896
 21
8.9245016299
 31
0.0
  0
LINE
  5
1A4
330
1F
100
AcDbEntity
  8
0
  6
SLD-Solid
 62
     7
370
    25
100
AcDbLine
 10
3.8974981896
 20
9.8629157637
 30
0.0
 11
3.8974981896
 21
8.9245016299
 31
0.0
  0
LINE
  5
1A5
330
1F
100
AcDbEntity
  8
0
  6
SLD-Solid
 62
     7
370
    25
100
AcDbLine
 10
3.8274981896
 20
10.0129157637
 30
0.0
 11
3.8974981896
 21
10.0129157637
 31
0.0
  0
LINE
  5
1A6
330
1F
100
AcDbEntity
  8
0
  6
SLD-Solid
 62
     7
370
    25
100
AcDbLine
 10
3.8274981896
 20
9.8629157637
 30
0.0
 11
3.8274981896
 21
10.0129157637
 31
0.0
  0
LINE
  5
1A7
330
1F
100
AcDbEntity
  8
0
  6
SLD-Solid
 62
     7
370
    25
100
AcDbLine
 10
3.8974981896
 20
10.0129157637
 30
0.0
 11
3.8974981896
 21
9.8629157637
 31
0.0
  0
LINE
  5
1A8
330
1F
100
AcDbEntity
  8
0
  6
SLD-Solid
 62
     7
370
    25
100
AcDbLine
 10
6.4685247644
 20
10.0129157637
 30
0.0
 11
6.5385247644
 21
10.0129157637
 31
0.0
  0
LINE
  5
1A9
330
1F
100
AcDbEntity
  8
0
  6
SLD-Solid
 62
     7
370
    25
100
AcDbLine
 10
6.5385247644
 20
10.0129157637
 30
0.0
 11
6.5385247644
 21
9.8629157637
 31
0.0
  0
LINE
  5
1AA
330
1F
100
AcDbEntity
  8
0
  6
SLD-Solid
 62
     7
370
    25
100
AcDbLine
 10
6.4685247644
 20
9.8629157637
 30
0.0
 11
6.4685247644
 21
10.0129157637
 31
0.0
  0
LINE
  5
1AB
330
1F
100
AcDbEntity
  8
0
  6
SLD-Solid
 62
     7
370
    25
100
AcDbLine
 10
6.5385247644
 20
8.7745016299
 30
0.0
 11
6.4685247644
 21
8.7745016299
 31
0.0
  0
LINE
  5
1AC
330
1F
100
AcDbEntity
  8
0
  6
SLD-Solid
 62
     7
370
    25
100
AcDbLine
 10
6.5385247644
 20
8.9245016299
 30
0.0
 11
6.5385247644
 21
8.7745016299
 31
0.0
  0
LINE
  5
1AD
330
1F
100
AcDbEntity
  8
0
  6
SLD-Solid
 62
     7
370
    25
100
AcDbLine
 10
6.4685247644
 20
8.7745016299
 30
0.0
 11
6.4685247644
 21
8.9245016299
 31
0.0
  0
LINE
  5
1AE
330
1F
100
AcDbEntity
  8
0
  6
SLD-Solid
 62
     7
370
    25
100
AcDbLine
 10
6.5385247644
 20
9.8629157637
 30
0.0
 11
6.5385247644
 21
8.9245016299
 31
0.0
  0
LINE
  5
1AF
330
1F
100
AcDbEntity
  8
0
  6
SLD-Solid
 62
     7
370
    25
100
AcDbLine
 10
6.4685247644
 20
9.8629157637
 30
0.0
 11
6.4685247644
 21
8.9245016299
 31
0.0
  0
LINE
  5
1B0
330
1F
100
AcDbEntity
  8
0
  6
SLD-Solid
 62
     7
370
    25
100
AcDbLine
 10
6.4685247644
 20
10.0129157637
 30
0.0
 11
6.3985247644
 21
10.0129157637
 31
0.0
  0
LINE
  5
1B1
330
1F
100
AcDbEntity
  8
0
  6
SLD-Solid
 62
     7
370
    25
100
AcDbLine
 10
6.3985247644
 20
8.7745016299
 30
0.0
 11
6.4685247644
 21
8.7745016299
 31
0.0
  0
LINE
  5
1B2
330
1F
100
AcDbEntity
  8
0
  6
SLD-Solid
 62
     7
370
    25
100
AcDbLine
 10
3.8974981896
 20
8.7745016299
 30
0.0
 11
3.9674981896
 21
8.7745016299
 31
0.0
  0
LINE
  5
1B3
330
1F
100
AcDbEntity
  8
0
  6
SLD-Solid
 62
     7
370
    25
100
AcDbLine
 10
3.9674981896
 20
10.0129157637
 30
0.0
 11
3.8974981896
 21
10.0129157637
 31
0.0
  0
LINE
  5
1B4
330
1F
100
AcDbEntity
  8
0
  6
SLD-Solid
 62
     7
370
    25
100
AcDbLine
 10
3.9674981896
 20
8.7745016299
 30
0.0
 11
5.0079332116
 21
8.7745016299
 31
0.0
  0
LINE
  5
1B5
330
1F
100
AcDbEntity
  8
0
  6
SLD-Solid
 62
     7
370
    25
100
AcDbLine
 10
6.3985247644
 20
10.0129157637
 30
0.0
 11
3.9674981896
 21
10.0129157637
 31
0.0
  0
LINE
  5
1B6
330
1F
100
AcDbEntity
  8
0
  6
SLD-Solid
 62
     7
370
    25
100
AcDbLine
 10
23.5494981896
 20
10.0129157637
 30
0.0
 11
23.6194981896
 21
10.0129157637
 31
0.0
  0
LINE
  5
1B7
330
1F
100
AcDbEntity
  8
0
  6
SLD-Solid
 62
     7
370
    25
100
AcDbLine
 10
23.6194981896
 20
10.0129157637
 30
0.0
 11
23.6194981896
 21
9.8629157637
 31
0.0
  0
LINE
  5
1B8
330
1F
100
AcDbEntity
  8
0
  6
SLD-Solid
 62
     7
370
    25
100
AcDbLine
 10
23.5494981896
 20
9.8629157637
 30
0.0
 11
23.5494981896
 21
10.0129157637
 31
0.0
  0
LINE
  5
1B9
330
1F
100
AcDbEntity
  8
0
  6
SLD-Solid
 62
     7
370
    25
100
AcDbLine
 10
23.6194981896
 20
9.8629157637
 30
0.0
 11
23.6194981896
 21
8.9245016299
 31
0.0
  0
LINE
  5
1BA
330
1F
100
AcDbEntity
  8
0
  6
SLD-Solid
 62
     7
370
    25
100
AcDbLine
 10
23.5494981896
 20
9.8629157637
 30
0.0
 11
23.5494981896
 21
8.9245016299
 31
0.0
  0
LINE
  5
1BB
330
1F
100
AcDbEntity
  8
0
  6
SLD-Solid
 62
     7
370
    25
100
AcDbLine
 10
23.6194981896
 20
8.9245016299
 30
0.0
 11
23.6194981896
 21
8.7745016299
 31
0.0
  0
LINE
  5
1BC
330
1F
100
AcDbEntity
  8
0
  6
SLD-Solid
 62
     7
370
    25
100
AcDbLine
 10
23.6194981896
 20
8.7745016299
 30
0.0
 11
23.5494981896
 21
8.7745016299
 31
0.0
  0
LINE
  5
1BD
330
1F
100
AcDbEntity
  8
0
  6
SLD-Solid
 62
     7
370
    25
100
AcDbLine
 10
23.5494981896
 20
8.7745016299
 30
0.0
 11
23.5494981896
 21
8.9245016299
 31
0.0
  0
LINE
  5
1BE
330
1F
100
AcDbEntity
  8
0
  6
SLD-Solid
 62
     7
370
    25
100
AcDbLine
 10
26.2605247644
 20
9.8629157637
 30
0.0
 11
26.2605247644
 21
8.9245016299
 31
0.0
  0
LINE
  5
1BF
330
1F
100
AcDbEntity
  8
0
  6
SLD-Solid
 62
     7
370
    25
100
AcDbLine
 10
26.1905247644
 20
9.8629157637
 30
0.0
 11
26.1905247644
 21
8.9245016299
 31
0.0
  0
LINE
  5
1C0
330
1F
100
AcDbEntity
  8
0
  6
SLD-Solid
 62
     7
370
    25
100
AcDbLine
 10
26.2605247644
 20
8.7745016299
 30
0.0
 11
26.1905247644
 21
8.7745016299
 31
0.0
  0
LINE
  5
1C1
330
1F
100
AcDbEntity
  8
0
  6
SLD-Solid
 62
     7
370
    25
100
AcDbLine
 10
26.2605247644
 20
8.9245016299
 30
0.0
 11
26.2605247644
 21
8.7745016299
 31
0.0
  0
LINE
  5
1C2
330
1F
100
AcDbEntity
  8
0
  6
SLD-Solid
 62
     7
370
    25
100
AcDbLine
 10
26.1905247644
 20
8.7745016299
 30
0.0
 11
26.1905247644
 21
8.9245016299
 31
0.0
  0
LINE
  5
1C3
330
1F
100
AcDbEntity
  8
0
  6
SLD-Solid
 62
     7
370
    25
100
AcDbLine
 10
26.1905247644
 20
10.0129157637
 30
0.0
 11
26.2605247644
 21
10.0129157637
 31
0.0
  0
LINE
  5
1C4
330
1F
100
AcDbEntity
  8
0
  6
SLD-Solid
 62
     7
370
    25
100
AcDbLine
 10
26.2605247644
 20
10.0129157637
 30
0.0
 11
26.2605247644
 21
9.8629157637
 31
0.0
  0
LINE
  5
1C5
330
1F
100
AcDbEntity
  8
0
  6
SLD-Solid
 62
     7
370
    25
100
AcDbLine
 10
26.1905247644
 20
9.8629157637
 30
0.0
 11
26.1905247644
 21
10.0129157637
 31
0.0
  0
LINE
  5
1C6
330
1F
100
AcDbEntity
  8
0
  6
SLD-Solid
 62
     7
370
    25
100
AcDbLine
 10
26.1905247644
 20
10.0129157637
 30
0.0
 11
26.1205247644
 21
10.0129157637
 31
0.0
  0
LINE
  5
1C7
330
1F
100
AcDbEntity
  8
0
  6
SLD-Solid
 62
     7
370
    25
100
AcDbLine
 10
26.1205247644
 20
8.7745016299
 30
0.0
 11
26.1905247644
 21
8.7745016299
 31
0.0
  0
LINE
  5
1C8
330
1F
100
AcDbEntity
  8
0
  6
SLD-Solid
 62
     7
370
    25
100
AcDbLine
 10
23.6194981896
 20
8.7745016299
 30
0.0
 11
23.6894981896
 21
8.7745016299
 31
0.0
  0
LINE
  5
1C9
330
1F
100
AcDbEntity
  8
0
  6
SLD-Solid
 62
     7
370
    25
100
AcDbLine
 10
23.6894981896
 20
10.0129157637
 30
0.0
 11
23.6194981896
 21
10.0129157637
 31
0.0
  0
LINE
  5
1CA
330
1F
100
AcDbEntity
  8
0
  6
SLD-Solid
 62
     7
370
    25
100
AcDbLine
 10
23.6894981896
 20
8.7745016299
 30
0.0
 11
24.7299332116
 21
8.7745016299
 31
0.0
  0
LINE
  5
1CB
330
1F
100
AcDbEntity
  8
0
  6
SLD-Solid
 62
     7
370
    25
100
AcDbLine
 10
26.1205247644
 20
10.0129157637
 30
0.0
 11
23.6894981896
 21
10.0129157637
 31
0.0
  0
ARC
  5
1CC
330
1F
100
AcDbEntity
  8
0
  6
SLD-Solid
 62
     7
370
    25
100
AcDbCircle
 10
15.8349180124
 20
9.7374994448
 30
0.0
 40
0.0976694938847433
100
AcDbArc
 50
359.818359104
 51
206.1327020062
  0
ARC
  5
1CD
330
1F
100
AcDbEntity
  8
0
  6
SLD-Solid
 62
     7
370
    25
100
AcDbCircle
 10
15.8349180124
 20
9.7374994448
 30
0.0
 40
0.0976694938847418
100
AcDbArc
 50
290.9504445995
 51
359.818359104
  0
ARC
  5
1CE
330
1F
100
AcDbEntity
  8
0
  6
SLD-Solid
 62
     7
370
    25
100
AcDbCircle
 10
15.8349180124
 20
9.7374994448
 30
0.0
 40
0.1899999999999996
100
AcDbArc
 50
308.0040270291
 51
359.818359104
  0
ARC
  5
1CF
330
1F
100
AcDbEntity
  8
0
  6
SLD-Solid
 62
     7
370
    25
100
AcDbCircle
 10
15.8349180124
 20
9.7374994448
 30
0.0
 40
0.1900000000000016
100
AcDbArc
 50
359.818359104
 51
184.5453353425
  0
CIRCLE
  5
1D0
330
1F
100
AcDbEntity
  8
0
  6
SLD-Solid
 62
     7
370
    25
100
AcDbCircle
 10
15.8349180124
 20
9.7374994448
 30
0.0
 40
0.0600000000000011
  0
LWPOLYLINE
  5
1D1
330
1F
100
AcDbEntity
  8
0
  6
SLD-Solid
 62
     7
370
    25
100
AcDbPolyline
 90
        3
 70
   128
 43
0.0
 10
5.1639170577
 20
9.7368971018
 10
5.1567088675
 20
9.6856583094
 10
5.1476032444
 20
9.6604706178
  0
ARC
  5
1D2
330
1F
100
AcDbEntity
  8
0
  6
SLD-Solid
 62
     7
370
    25
100
AcDbCircle
 10
4.9739180124
 20
9.7374994448
 30
0.0
 40
0.1899999999999988
100
AcDbArc
 50
359.818359104
 51
201.7698034877
  0
CIRCLE
  5
1D3
330
1F
100
AcDbEntity
  8
0
  6
SLD-Solid
 62
     7
370
    25
100
AcDbCircle
 10
4.9739180124
 20
9.7374994448
 30
0.0
 40
0.0600000000000002
  0
CIRCLE
  5
1D4
330
1F
100
AcDbEntity
  8
0
  6
SLD-Solid
 62
     7
370
    25
100
AcDbCircle
 10
14.8349180124
 20
9.7374994448
 30
0.0
 40
0.0599999999999993
  0
LWPOLYLINE
  5
1D5
330
1F
100
AcDbEntity
  8
0
  6
SLD-Solid
 62
     7
370
    25
100
AcDbPolyline
 90
        3
 70
   128
 43
0.0
 10
15.0249170577
 20
9.7368971018
 10
15.0177088675
 20
9.6856583094
 10
15.0086032444
 20
9.6604706178
  0
ARC
  5
1D6
330
1F
100
AcDbEntity
  8
0
  6
SLD-Solid
 62
     7
370
    25
100
AcDbCircle
 10
14.8349180124
 20
9.7374994448
 30
0.0
 40
0.1899999999999985
100
AcDbArc
 50
359.818359104
 51
201.7698034877
  0
LWPOLYLINE
  5
1D7
330
1F
100
AcDbEntity
  8
0
  6
SLD-Solid
 62
     7
370
    25
100
AcDbPolyline
 90
        3
 70
   128
 43
0.0
 10
24.8859170577
 20
9.7368971018
 10
24.8787088675
 20
9.6856583094
 10
24.8696032444
 20
9.6604706178
  0
ARC
  5
1D8
330
1F
100
AcDbEntity
  8
0
  6
SLD-Solid
 62
     7
370
    25
100
AcDbCircle
 10
24.6959180124
 20
9.7374994448
 30
0.0
 40
0.1900000000000032
100
AcDbArc
 50
359.818359104
 51
201.7698034877
  0
CIRCLE
  5
1D9
330
1F
100
AcDbEntity
  8
0
  6
SLD-Solid
 62
     7
370
    25
100
AcDbCircle
 10
24.6959180124
 20
9.7374994448
 30
0.0
 40
0.0600000000000029
  0
LWPOLYLINE
  5
1DA
330
1F
100
AcDbEntity
  8
0
  6
SLD-Solid
 62
     7
370
    25
100
AcDbPolyline
 90
        3
 70
   128
 43
0.0
 10
34.7469170577
 20
9.7368971018
 10
34.7397088675
 20
9.6856583094
 10
34.7306032444
 20
9.6604706178
  0
ARC
  5
1DB
330
1F
100
AcDbEntity
  8
0
  6
SLD-Solid
 62
     7
370
    25
100
AcDbCircle
 10
34.5569180124
 20
9.7374994448
 30
0.0
 40
0.1899999999999988
100
AcDbArc
 50
359.818359104
 51
201.7698034877
  0
CIRCLE
  5
1DC
330
1F
100
AcDbEntity
  8
0
  6
SLD-Solid
 62
     7
370
    25
100
AcDbCircle
 10
34.5569180124
 20
9.7374994448
 30
0.0
 40
0.0599999999999958
  0
ARC
  5
1DD
330
1F
100
AcDbEntity
  8
0
  6
SLD-Solid
 62
     7
370
    25
100
AcDbCircle
 10
35.5569180124
 20
9.7374994448
 30
0.0
 40
0.0976694938847473
100
AcDbArc
 50
359.818359104
 51
206.1327020062
  0
ARC
  5
1DE
330
1F
100
AcDbEntity
  8
0
  6
SLD-Solid
 62
     7
370
    25
100
AcDbCircle
 10
35.5569180124
 20
9.7374994448
 30
0.0
 40
0.0976694938847401
100
AcDbArc
 50
290.9504445995
 51
359.818359104
  0
CIRCLE
  5
1DF
330
1F
100
AcDbEntity
  8
0
  6
SLD-Solid
 62
     7
370
    25
100
AcDbCircle
 10
35.5569180124
 20
9.7374994448
 30
0.0
 40
0.0600000000000029
  0
ARC
  5
1E0
330
1F
100
AcDbEntity
  8
0
  6
SLD-Solid
 62
     7
370
    25
100
AcDbCircle
 10
35.5569180124
 20
9.7374994448
 30
0.0
 40
0.1900000000000032
100
AcDbArc
 50
308.0040270291
 51
359.818359104
  0
ARC
  5
1E1
330
1F
100
AcDbEntity
  8
0
  6
SLD-Solid
 62
     7
370
    25
100
AcDbCircle
 10
35.5569180124
 20
9.7374994448
 30
0.0
 40
0.1900000000000032
100
AcDbArc
 50
359.818359104
 51
184.5453353425
  0
ARC
  5
1E2
330
1F
100
AcDbEntity
  8
0
  6
SLD-Solid
 62
     7
370
    25
100
AcDbCircle
 10
25.6959180124
 20
9.7374994448
 30
0.0
 40
0.1899999999999996
100
AcDbArc
 50
308.0040270291
 51
359.818359104
  0
ARC
  5
1E3
330
1F
100
AcDbEntity
  8
0
  6
SLD-Solid
 62
     7
370
    25
100
AcDbCircle
 10
25.6959180124
 20
9.7374994448
 30
0.0
 40
0.1899999999999998
100
AcDbArc
 50
359.818359104
 51
184.5453353425
  0
CIRCLE
  5
1E4
330
1F
100
AcDbEntity
  8
0
  6
SLD-Solid
 62
     7
370
    25
100
AcDbCircle
 10
25.6959180124
 20
9.7374994448
 30
0.0
 40
0.0600000000000029
  0
CIRCLE
  5
1E5
330
1F
100
AcDbEntity
  8
0
  6
SLD-Solid
 62
     7
370
    25
100
AcDbCircle
 10
5.9739180124
 20
9.7374994448
 30
0.0
 40
0.0600000000000002
  0
ARC
  5
1E6
330
1F
100
AcDbEntity
  8
0
  6
SLD-Solid
 62
     7
370
    25
100
AcDbCircle
 10
5.9739180124
 20
9.7374994448
 30
0.0
 40
0.1899999999999988
100
AcDbArc
 50
308.0040270291
 51
359.818359104
  0
ARC
  5
1E7
330
1F
100
AcDbEntity
  8
0
  6
SLD-Solid
 62
     7
370
    25
100
AcDbCircle
 10
5.9739180124
 20
9.7374994448
 30
0.0
 40
0.1899999999999989
100
AcDbArc
 50
359.818359104
 51
184.5453353425
  0
CIRCLE
  5
1E8
330
1F
100
AcDbEntity
  8
0
  6
SLD-Solid
 62
     7
370
    25
100
AcDbCircle
 10
15.7195000794
 20
9.1665423779
 30
0.0
 40
0.1562241563062825
  0
CIRCLE
  5
1E9
330
1F
100
AcDbEntity
  8
0
  6
SLD-Solid
 62
     7
370
    25
100
AcDbCircle
 10
25.5805000794
 20
9.1665423779
 30
0.0
 40
0.1562241563062838
  0
CIRCLE
  5
1EA
330
1F
100
AcDbEntity
  8
0
  6
SLD-Solid
 62
     7
370
    25
100
AcDbCircle
 10
35.4415000794
 20
9.1665423779
 30
0.0
 40
0.1562241563062838
  0
CIRCLE
  5
1EB
330
1F
100
AcDbEntity
  8
0
  6
SLD-Solid
 62
     7
370
    25
100
AcDbCircle
 10
5.8585000794
 20
9.1665423779
 30
0.0
 40
0.1562241563062825
  0
CIRCLE
  5
1EC
330
1F
100
AcDbEntity
  8
0
  6
SLD-Solid
 62
     7
370
    25
100
AcDbCircle
 10
2.2589180124
 20
9.7374994448
 30
0.0
 40
0.0999999999999996
  0
LINE
  5
1ED
330
1F
100
AcDbEntity
  8
0
  6
SLD-Solid
 62
     7
370
    25
100
AcDbLine
 10
37.7589180124
 20
8.380015409
 30
0.0
 11
37.7589180124
 21
11.0949834806
 31
0.0
  0
LINE
  5
1EE
330
1F
100
AcDbEntity
  8
0
  6
SLD-Solid
 62
     7
370
    25
100
AcDbLine
 10
1.7589180124
 20
11.0949834806
 30
0.0
 11
1.7589180124
 21
8.380015409
 31
0.0
  0
CIRCLE
  5
1EF
330
1F
100
AcDbEntity
  8
0
  6
SLD-Solid
 62
     7
370
    25
100
AcDbCircle
 10
19.7589180124
 20
9.7374994448
 30
0.0
 40
0.0999999999999979
  0
CIRCLE
  5
1F0
330
1F
100
AcDbEntity
  8
0
  6
SLD-Solid
 62
     7
370
    25
100
AcDbCircle
 10
37.2589180124
 20
9.7374994448
 30
0.0
 40
0.1000000000000014
  0
LINE
  5
1F1
330
1F
100
AcDbEntity
  8
0
  6
SLD-Solid
 62
     7
370
    25
100
AcDbLine
 10
37.7589180124
 20
8.310015409
 30
0.0
 11
1.7589180124
 21
8.310015409
 31
0.0
  0
LINE
  5
1F2
330
1F
100
AcDbEntity
  8
0
  6
SLD-Solid
 62
     7
370
    25
100
AcDbLine
 10
1.7589180124
 20
8.310015409
 30
0.0
 11
1.7589180124
 21
8.380015409
 31
0.0
  0
LINE
  5
1F3
330
1F
100
AcDbEntity
  8
0
  6
SLD-Solid
 62
     7
370
    25
100
AcDbLine
 10
37.7589180124
 20
8.380015409
 30
0.0
 11
37.7589180124
 21
8.310015409
 31
0.0
  0
LINE
  5
1F4
330
1F
100
AcDbEntity
  8
0
  6
SLD-Solid
 62
     7
370
    25
100
AcDbLine
 10
37.7589180124
 20
11.1649834806
 30
0.0
 11
1.7589180124
 21
11.1649834806
 31
0.0
  0
LINE
  5
1F5
330
1F
100
AcDbEntity
  8
0
  6
SLD-Solid
 62
     7
370
    25
100
AcDbLine
 10
1.7589180124
 20
11.0949834806
 30
0.0
 11
1.7589180124
 21
11.1649834806
 31
0.0
  0
LINE
  5
1F6
330
1F
100
AcDbEntity
  8
0
  6
SLD-Solid
 62
     7
370
    25
100
AcDbLine
 10
37.7589180124
 20
11.1649834806
 30
0.0
 11
37.7589180124
 21
11.0949834806
 31
0.0
  0
DIMENSION
  5
1F7
330
1F
100
AcDbEntity
  8
DIMS
100
AcDbDimension
  2
_D
 10
19.7589180124
 20
12.0311252129
 30
0.0
 11
11.0089180124
 21
12.0311252129
 31
0.0
 70
   160
  1
<>
 71
     2
 42
-1.0
  3
SLDDIMSTYLE0
100
AcDbAlignedDimension
 13
2.2589180124
 23
9.7374994448
 33
0.0
 14
19.7589180124
 24
9.7374994448
 34
0.0
100
AcDbRotatedDimension
  0
DIMENSION
  5
20D
330
1F
100
AcDbEntity
  8
DIMS
100
AcDbDimension
  2
_D_1
 10
37.2589180124
 20
12.0311252129
 30
0.0
 11
28.5089180124
 21
12.0311252129
 31
0.0
 70
   160
  1
<>
 71
     2
 42
-1.0
  3
SLDDIMSTYLE0
100
AcDbAlignedDimension
 13
19.7589180124
 23
9.7374994448
 33
0.0
 14
37.2589180124
 24
9.7374994448
 34
0.0
 50
0.0
100
AcDbRotatedDimension
  0
DIMENSION
  5
21C
330
1F
100
AcDbEntity
  8
DIMS
100
AcDbDimension
  2
_D_2
 10
2.2589180124
 20
12.9760071027
 30
0.0
 11
19.7589180124
 21
12.9760071027
 31
0.0
 70
   160
  1
<>
 71
     2
 42
-1.0
  3
SLDDIMSTYLE1
100
AcDbAlignedDimension
 13
37.2589180124
 23
9.7374994448
 33
0.0
 14
2.2589180124
 24
9.7374994448
 34
0.0
100
AcDbRotatedDimension
  0
DIMENSION
  5
228
330
1F
100
AcDbEntity
  8
DIMS
100
AcDbDimension
  2
_D_3
 10
2.1882073343
 20
9.8082101229
 30
0.0
 11
9.5051630174
 21
6.6512720619
 31
0.0
 70
   163
  1
<>mounting hole (3)
 71
     1
 42
-1.0
  3
SLDDIMSTYLE2
100
AcDbDiametricDimension
 15
2.3296286906
 25
9.6667887667
 35
0.0
 40
0.0
  0
MTEXT
  5
236
330
1F
100
AcDbEntity
  8
NOTES
100
AcDbMText
 10
19.2975180305
 20
8.0716445421
 30
0.0
 40
0.5
 41
0.0
 71
     1
 72
     1
  1
Front view
  7
SLDTEXTSTYLE1
 73
     1
 44
1.0
  0
LINE
  5
237
330
1F
100
AcDbEntity
  8
0
  6
SLD-Solid
 62
     7
370
    25
100
AcDbLine
 10
41.2542730746
 20
8.5320432963
 30
0.0
 11
42.0542730746
 21
8.5320432963
 31
0.0
  0
LINE
  5
238
330
1F
100
AcDbEntity
  8
0
  6
SLD-Solid
 62
     7
370
    25
100
AcDbLine
 10
41.3742730746
 20
9.8214277611
 30
0.0
 11
41.2542730746
 21
9.8214277611
 31
0.0
  0
LINE
  5
239
330
1F
100
AcDbEntity
  8
0
  6
SLD-Solid
 62
     7
370
    25
100
AcDbLine
 10
42.2442730746
 20
9.6024994448
 30
0.0
 11
42.4242730746
 21
9.6024994448
 31
0.0
  0
LINE
  5
23A
330
1F
100
AcDbEntity
  8
0
  6
SLD-Solid
 62
     7
370
    25
100
AcDbLine
 10
42.4242730746
 20
9.8724994448
 30
0.0
 11
42.2442730746
 21
9.8724994448
 31
0.0
  0
LINE
  5
23B
330
1F
100
AcDbEntity
  8
0
  6
SLD-Solid
 62
     7
370
    25
100
AcDbLine
 10
42.4242730746
 20
9.6024994448
 30
0.0
 11
42.4442730746
 21
9.6224994448
 31
0.0
  0
LINE
  5
23C
330
1F
100
AcDbEntity
  8
0
  6
SLD-Solid
 62
     7
370
    25
100
AcDbLine
 10
42.4442730746
 20
9.8524994448
 30
0.0
 11
42.4242730746
 21
9.8724994448
 31
0.0
  0
LINE
  5
23D
330
1F
100
AcDbEntity
  8
0
  6
SLD-Solid
 62
     7
370
    25
100
AcDbLine
 10
42.2442730746
 20
9.8724994448
 30
0.0
 11
42.2242730746
 21
9.8524994448
 31
0.0
  0
LINE
  5
23E
330
1F
100
AcDbEntity
  8
0
  6
SLD-Solid
 62
     7
370
    25
100
AcDbLine
 10
42.2242730746
 20
9.6224994448
 30
0.0
 11
42.2442730746
 21
9.6024994448
 31
0.0
  0
LINE
  5
23F
330
1F
100
AcDbEntity
  8
0
  6
SLD-Solid
 62
     7
370
    25
100
AcDbLine
 10
42.2042730746
 20
9.6437494448
 30
0.0
 11
42.2242730746
 21
9.6437494448
 31
0.0
  0
LINE
  5
240
330
1F
100
AcDbEntity
  8
0
  6
SLD-Solid
 62
     7
370
    25
100
AcDbLine
 10
42.2242730746
 20
9.8312494448
 30
0.0
 11
42.2042730746
 21
9.8312494448
 31
0.0
  0
LINE
  5
241
330
1F
100
AcDbEntity
  8
0
  6
SLD-Solid
 62
     7
370
    25
100
AcDbLine
 10
41.2542730746
 20
9.3227665342
 30
0.0
 11
41.2358020391
 21
9.3227665342
 31
0.0
  0
LINE
  5
242
330
1F
100
AcDbEntity
  8
0
  6
SLD-Solid
 62
     7
370
    25
100
AcDbLine
 10
41.2358020391
 20
9.0103182216
 30
0.0
 11
41.2542730746
 21
9.0103182216
 31
0.0
  0
ARC
  5
243
330
1F
100
AcDbEntity
  8
0
  6
SLD-Solid
 62
     7
370
    25
100
AcDbCircle
 10
41.5088805085
 20
9.1665423779
 30
0.0
 40
0.3146074338901334
100
AcDbArc
 50
150.2267646167
 51
209.7732353833
  0
LINE
  5
244
330
1F
100
AcDbEntity
  8
0
  6
SLD-Solid
 62
     7
370
    25
100
AcDbLine
 10
41.2542730746
 20
8.8795858555
 30
0.0
 11
41.3811557339
 21
8.8795858555
 31
0.0
  0
LINE
  5
245
330
1F
100
AcDbEntity
  8
0
  6
SLD-Solid
 62
     7
370
    25
100
AcDbLine
 10
41.2542730746
 20
9.6723509766
 30
0.0
 11
41.3742730746
 21
9.6723509766
 31
0.0
  0
SPLINE
  5
246
330
1F
100
AcDbEntity
  8
0
  6
SLD-Solid
 62
     7
370
    25
100
AcDbSpline
210
0.0
220
0.0
230
1.0
 70
    24
 71
     3
 72
    13
 73
     9
 74
     0
 42
0.00000001
 43
0.00000001
 40
0.0
 40
0.0
 40
0.0
 40
0.0
 40
0.1709847685286761
 40
0.3326578081366876
 40
0.4968967494144843
 40
0.6391258064239841
 40
0.8035705820916744
 40
0.9999999999999999
 40
0.9999999999999999
 40
0.9999999999999999
 40
0.9999999999999999
 10
41.25427307463184
 20
8.879585855459473
 30
0.0
 10
41.25427307463184
 20
8.934815298363024
 30
0.0
 10
41.25427307463184
 20
9.042266421518617
 30
0.0
 10
41.25427307463184
 20
9.199878385395442
 30
0.0
 10
41.25427307463184
 20
9.338400320865098
 30
0.0
 10
41.25427307463183
 20
9.459795830885838
 30
0.0
 10
41.25427307463184
 20
9.57145309662146
 30
0.0
 10
41.25427307463184
 20
9.636788113859353
 30
0.0
 10
41.25427307463183
 20
9.672350976578619
 30
0.0
  0
LINE
  5
247
330
1F
100
AcDbEntity
  8
0
  6
SLD-Solid
 62
     7
370
    25
100
AcDbLine
 10
41.2542730746
 20
8.7809246091
 30
0.0
 11
41.4808491283
 21
8.7809246091
 31
0.0
  0
SPLINE
  5
248
330
1F
100
AcDbEntity
  8
0
  6
SLD-Solid
 62
     7
370
    25
100
AcDbSpline
210
0.0
220
0.0
230
1.0
 70
    24
 71
     3
 72
    11
 73
     7
 74
     0
 42
0.00000001
 43
0.00000001
 40
0.0
 40
0.0
 40
0.0
 40
0.0
 40
0.2779255621982136
 40
0.586501074987086
 40
0.8150864002480661
 40
1.0
 40
1.0
 40
1.0
 40
1.0
 10
41.25427307463184
 20
8.780924609119943
 30
0.0
 10
41.25427307463183
 20
8.787624492845566
 30
0.0
 10
41.25427307463183
 20
8.801763131178385
 30
0.0
 10
41.25427307463184
 20
8.830009431007895
 30
0.0
 10
41.25427307463183
 20
8.85615032670491
 30
0.0
 10
41.25427307463184
 20
8.8723441153475
 30
0.0
 10
41.25427307463184
 20
8.879585855459473
 30
0.0
  0
SPLINE
  5
249
330
1F
100
AcDbEntity
  8
0
  6
SLD-Solid
 62
     7
370
    25
100
AcDbSpline
210
0.0
220
0.0
230
1.0
 70
    24
 71
     3
 72
    13
 73
     9
 74
     0
 42
0.00000001
 43
0.00000001
 40
0.0
 40
0.0
 40
0.0
 40
0.0
 40
0.043871925913769
 40
0.2667002074537924
 40
0.5003003780739679
 40
0.6809483136090215
 40
0.8501050175484012
 40
1.0
 40
1.0
 40
1.0
 40
1.0
 10
41.25427307463183
 20
8.535082592901784
 30
0.0
 10
41.25427307463183
 20
8.534140225612418
 30
0.0
 10
41.25427307463183
 20
8.528411515364652
 30
0.0
 10
41.25427307463184
 20
8.553984054290954
 30
0.0
 10
41.25427307463183
 20
8.59548398938727
 30
0.0
 10
41.25427307463184
 20
8.65191420509777
 30
0.0
 10
41.25427307463183
 20
8.709632999035573
 30
0.0
 10
41.25427307463184
 20
8.758136826729
 30
0.0
 10
41.25427307463184
 20
8.780924609119943
 30
0.0
  0
SPLINE
  5
24A
330
1F
100
AcDbEntity
  8
0
  6
SLD-Solid
 62
     7
370
    25
100
AcDbSpline
210
0.0
220
0.0
230
1.0
 70
    24
 71
     3
 72
    13
 73
     9
 74
     0
 42
0.00000001
 43
0.00000001
 40
0.0
 40
0.0
 40
0.0
 40
0.0
 40
0.043871925913769
 40
0.2667002074537924
 40
0.5003003780739679
 40
0.6809483136090215
 40
0.8501050175484012
 40
1.0
 40
1.0
 40
1.0
 40
1.0
 10
42.05427307463184
 20
8.535082592901784
 30
0.0
 10
42.05427307463184
 20
8.534140225612418
 30
0.0
 10
42.05427307463184
 20
8.528411515364652
 30
0.0
 10
42.05427307463184
 20
8.553984054290954
 30
0.0
 10
42.05427307463184
 20
8.59548398938727
 30
0.0
 10
42.05427307463184
 20
8.65191420509777
 30
0.0
 10
42.05427307463184
 20
8.709632999035573
 30
0.0
 10
42.05427307463184
 20
8.758136826729
 30
0.0
 10
42.05427307463184
 20
8.780924609119943
 30
0.0
  0
LINE
  5
24B
330
1F
100
AcDbEntity
  8
0
  6
SLD-Solid
 62
     7
370
    25
100
AcDbLine
 10
41.2542730746
 20
9.6988533883
 30
0.0
 11
41.3742730746
 21
9.6988533883
 31
0.0
  0
LINE
  5
24C
330
1F
100
AcDbEntity
  8
0
  6
SLD-Solid
 62
     7
370
    25
100
AcDbLine
 10
41.2542730746
 20
9.6723509766
 30
0.0
 11
41.2542730746
 21
9.6988533883
 31
0.0
  0
LINE
  5
24D
330
1F
100
AcDbEntity
  8
0
  6
SLD-Solid
 62
     7
370
    25
100
AcDbLine
 10
41.2542730746
 20
9.8213911167
 30
0.0
 11
41.3742730746
 21
9.8213911167
 31
0.0
  0
LINE
  5
24E
330
1F
100
AcDbEntity
  8
0
  6
SLD-Solid
 62
     7
370
    25
100
AcDbLine
 10
41.2542730746
 20
9.6988533883
 30
0.0
 11
41.2542730746
 21
9.8213911167
 31
0.0
  0
ARC
  5
24F
330
1F
100
AcDbEntity
  8
0
  6
SLD-Solid
 62
     7
370
    25
100
AcDbCircle
 10
41.5242730746
 20
9.8629157637
 30
0.0
 40
0.1500000000000004
100
AcDbArc
 50
90.0
 51
180.0
  0
LINE
  5
250
330
1F
100
AcDbEntity
  8
0
  6
SLD-Solid
 62
     7
370
    25
100
AcDbLine
 10
42.0342730746
 20
10.0129157637
 30
0.0
 11
41.5242730746
 21
10.0129157637
 31
0.0
  0
LINE
  5
251
330
1F
100
AcDbEntity
  8
0
  6
SLD-Solid
 62
     7
370
    25
100
AcDbLine
 10
41.5242730746
 20
8.7745016299
 30
0.0
 11
42.0342730746
 21
8.7745016299
 31
0.0
  0
ARC
  5
252
330
1F
100
AcDbEntity
  8
0
  6
SLD-Solid
 62
     7
370
    25
100
AcDbCircle
 10
41.5242730746
 20
8.9245016299
 30
0.0
 40
0.1500000000000004
100
AcDbArc
 50
180.0
 51
270.0
  0
LINE
  5
253
330
1F
100
AcDbEntity
  8
0
  6
SLD-Solid
 62
     7
370
    25
100
AcDbLine
 10
41.3742730746
 20
9.8629157637
 30
0.0
 11
41.3742730746
 21
8.9245016299
 31
0.0
  0
LINE
  5
254
330
1F
100
AcDbEntity
  8
0
  6
SLD-Solid
 62
     7
370
    25
100
AcDbLine
 10
42.1742730746
 20
8.7745016299
 30
0.0
 11
42.0342730746
 21
8.7745016299
 31
0.0
  0
LINE
  5
255
330
1F
100
AcDbEntity
  8
0
  6
SLD-Solid
 62
     7
370
    25
100
AcDbLine
 10
42.0342730746
 20
10.0129157637
 30
0.0
 11
42.1742730746
 21
10.0129157637
 31
0.0
  0
ARC
  5
256
330
1F
100
AcDbEntity
  8
0
  6
SLD-Solid
 62
     7
370
    25
100
AcDbCircle
 10
41.4242730746
 20
9.8629157637
 30
0.0
 40
0.1500000000000004
100
AcDbArc
 50
90.0
 51
180.0
  0
LINE
  5
257
330
1F
100
AcDbEntity
  8
0
  6
SLD-Solid
 62
     7
370
    25
100
AcDbLine
 10
41.4242730746
 20
10.0129157637
 30
0.0
 11
41.5242730746
 21
10.0129157637
 31
0.0
  0
LINE
  5
258
330
1F
100
AcDbEntity
  8
0
  6
SLD-Solid
 62
     7
370
    25
100
AcDbLine
 10
41.2742730746
 20
9.8629157637
 30
0.0
 11
41.2742730746
 21
9.8214277611
 31
0.0
  0
LINE
  5
259
330
1F
100
AcDbEntity
  8
0
  6
SLD-Solid
 62
     7
370
    25
100
AcDbLine
 10
42.2442730746
 20
9.8724994448
 30
0.0
 11
42.2442730746
 21
9.6024994448
 31
0.0
  0
LINE
  5
25A
330
1F
100
AcDbEntity
  8
0
  6
SLD-Solid
 62
     7
370
    25
100
AcDbLine
 10
42.4242730746
 20
9.6024994448
 30
0.0
 11
42.4242730746
 21
9.8724994448
 31
0.0
  0
LINE
  5
25B
330
1F
100
AcDbEntity
  8
0
  6
SLD-Solid
 62
     7
370
    25
100
AcDbLine
 10
42.4442730746
 20
9.8524994448
 30
0.0
 11
42.4442730746
 21
9.6224994448
 31
0.0
  0
LINE
  5
25C
330
1F
100
AcDbEntity
  8
0
  6
SLD-Solid
 62
     7
370
    25
100
AcDbLine
 10
42.2242730746
 20
9.6224994448
 30
0.0
 11
42.2242730746
 21
9.8524994448
 31
0.0
  0
LINE
  5
25D
330
1F
100
AcDbEntity
  8
0
  6
SLD-Solid
 62
     7
370
    25
100
AcDbLine
 10
41.2358020391
 20
9.3227665342
 30
0.0
 11
41.2358020391
 21
9.0103182216
 31
0.0
  0
LINE
  5
25E
330
1F
100
AcDbEntity
  8
0
  6
SLD-Solid
 62
     7
370
    25
100
AcDbLine
 10
42.1742730746
 20
8.380015409
 30
0.0
 11
42.1742730746
 21
11.0949834806
 31
0.0
  0
LINE
  5
25F
330
1F
100
AcDbEntity
  8
0
  6
SLD-Solid
 62
     7
370
    25
100
AcDbLine
 10
42.2042730746
 20
8.380015409
 30
0.0
 11
42.2042730746
 21
11.0949834806
 31
0.0
  0
ARC
  5
260
330
1F
100
AcDbEntity
  8
0
  6
SLD-Solid
 62
     7
370
    25
100
AcDbCircle
 10
42.2442730746
 20
11.0949834806
 30
0.0
 40
0.0400000000000009
100
AcDbArc
 50
90.0
 51
180.0
  0
ARC
  5
261
330
1F
100
AcDbEntity
  8
0
  6
SLD-Solid
 62
     7
370
    25
100
AcDbCircle
 10
42.2442730746
 20
11.0949834806
 30
0.0
 40
0.0700000000000021
100
AcDbArc
 50
90.0
 51
180.0
  0
LINE
  5
262
330
1F
100
AcDbEntity
  8
0
  6
SLD-Solid
 62
     7
370
    25
100
AcDbLine
 10
42.6548460868
 20
11.1349834806
 30
0.0
 11
42.6548460868
 21
11.1649834806
 31
0.0
  0
LINE
  5
263
330
1F
100
AcDbEntity
  8
0
  6
SLD-Solid
 62
     7
370
    25
100
AcDbLine
 10
42.2442730746
 20
11.1349834806
 30
0.0
 11
42.6548460868
 21
11.1349834806
 31
0.0
  0
LINE
  5
264
330
1F
100
AcDbEntity
  8
0
  6
SLD-Solid
 62
     7
370
    25
100
AcDbLine
 10
42.2442730746
 20
11.1649834806
 30
0.0
 11
42.6548460868
 21
11.1649834806
 31
0.0
  0
LINE
  5
265
330
1F
100
AcDbEntity
  8
0
  6
SLD-Solid
 62
     7
370
    25
100
AcDbLine
 10
42.6548460868
 20
8.340015409
 30
0.0
 11
42.6548460868
 21
8.310015409
 31
0.0
  0
LINE
  5
266
330
1F
100
AcDbEntity
  8
0
  6
SLD-Solid
 62
     7
370
    25
100
AcDbLine
 10
42.6548460868
 20
8.310015409
 30
0.0
 11
42.2442730746
 21
8.310015409
 31
0.0
  0
LINE
  5
267
330
1F
100
AcDbEntity
  8
0
  6
SLD-Solid
 62
     7
370
    25
100
AcDbLine
 10
42.6548460868
 20
8.340015409
 30
0.0
 11
42.2442730746
 21
8.340015409
 31
0.0
  0
ARC
  5
268
330
1F
100
AcDbEntity
  8
0
  6
SLD-Solid
 62
     7
370
    25
100
AcDbCircle
 10
42.2442730746
 20
8.380015409
 30
0.0
 40
0.0400000000000009
100
AcDbArc
 50
180.0
 51
270.0
  0
ARC
  5
269
330
1F
100
AcDbEntity
  8
0
  6
SLD-Solid
 62
     7
370
    25
100
AcDbCircle
 10
42.2442730746
 20
8.380015409
 30
0.0
 40
0.0700000000000003
100
AcDbArc
 50
180.0
 51
270.0
  0
DIMENSION
  5
26A
330
1F
100
AcDbEntity
  8
DIMS
100
AcDbDimension
  2
_D_4
 10
43.2847673467
 20
8.310015409
 30
0.0
 11
43.2847673467
 21
9.7462242566
 31
0.0
 70
   160
  1
<>
 71
     2
 42
-1.0
  3
SLDDIMSTYLE0
100
AcDbAlignedDimension
 13
42.6548460868
 23
11.1649834806
 33
0.0
 14
42.6548460868
 24
8.310015409
 34
0.0
 50
90.0
100
AcDbRotatedDimension
  0
DIMENSION
  5
279
330
1F
100
AcDbEntity
  8
DIMS
100
AcDbDimension
  2
_D_5
 10
42.1742730746
 20
11.7949047405
 30
0.0
 11
41.0642564494
 21
11.7949047405
 31
0.0
 70
   160
  1
<>
 71
     2
 42
-1.0
  3
SLDDIMSTYLE3
100
AcDbAlignedDimension
 13
42.6548460868
 23
11.1649834806
 33
0.0
 14
42.1742730746
 24
11.0949834806
 34
0.0
100
AcDbRotatedDimension
  0
MTEXT
  5
288
330
1F
100
AcDbEntity
  8
NOTES
100
AcDbMText
 10
41.6871359786
 20
7.7044445421
 30
0.0
 40
0.5
 41
0.0
 71
     1
 72
     1
  1
Side view
  7
SLDTEXTSTYLE1
 73
     1
 44
1.0
  0
LINE
  5
289
330
1F
100
AcDbEntity
  8
0
  6
SLD-Solid
 62
     7
370
    25
100
AcDbLine
 10
23.2880881314
 20
30.5257060114
 30
0.0
 11
23.4245099621
 21
30.604460658
 31
0.0
  0
LINE
  5
28A
330
1F
100
AcDbEntity
  8
0
  6
SLD-Solid
 62
     7
370
    25
100
AcDbLine
 10
30.2608681007
 20
26.5004058161
 30
0.0
 11
30.3972899314
 21
26.5791604626
 31
0.0
  0
LINE
  5
28B
330
1F
100
AcDbEntity
  8
0
  6
SLD-Solid
 62
     7
370
    25
100
AcDbLine
 10
44.2064280393
 20
18.4498054254
 30
0.0
 11
44.34284987
 21
18.5285600719
 31
0.0
  0
LINE
  5
28C
330
1F
100
AcDbEntity
  8
0
  6
SLD-Solid
 62
     7
370
    25
100
AcDbLine
 10
37.23364807
 20
22.4751056207
 30
0.0
 11
37.3700699007
 21
22.5538602673
 31
0.0
  0
LINE
  5
28D
330
1F
100
AcDbEntity
  8
0
  6
SLD-Solid
 62
     7
370
    25
100
AcDbLine
 10
30.937252469
 20
26.8116403052
 30
0.0
 11
30.937252469
 21
27.8228559875
 31
0.0
  0
LINE
  5
28E
330
1F
100
AcDbEntity
  8
0
  6
SLD-Solid
 62
     7
370
    25
100
AcDbLine
 10
30.4111315803
 20
26.5674557452
 30
0.0
 11
30.460629055
 21
26.5388814613
 31
0.0
  0
LINE
  5
28F
330
1F
100
AcDbEntity
  8
0
  6
SLD-Solid
 62
     7
370
    25
100
AcDbLine
 10
28.4729331018
 20
27.6047130992
 30
0.0
 11
28.5224305765
 21
27.5761388153
 31
0.0
  0
LINE
  5
290
330
1F
100
AcDbEntity
  8
0
  6
SLD-Solid
 62
     7
370
    25
100
AcDbLine
 10
44.8828124075
 20
18.7610399145
 30
0.0
 11
44.8828124075
 21
19.7722555968
 31
0.0
  0
LINE
  5
291
330
1F
100
AcDbEntity
  8
0
  6
SLD-Solid
 62
     7
370
    25
100
AcDbLine
 10
44.3566915189
 20
18.5168553545
 30
0.0
 11
44.4061889935
 21
18.4882810706
 31
0.0
  0
LINE
  5
292
330
1F
100
AcDbEntity
  8
0
  6
SLD-Solid
 62
     7
370
    25
100
AcDbLine
 10
42.4184930404
 20
19.5541127085
 30
0.0
 11
42.4679905151
 21
19.5255384246
 31
0.0
  0
LINE
  5
293
330
1F
100
AcDbEntity
  8
0
  6
SLD-Solid
 62
     7
370
    25
100
AcDbLine
 10
23.9644724997
 20
30.8369405005
 30
0.0
 11
23.9644724997
 21
31.8481561828
 31
0.0
  0
LINE
  5
294
330
1F
100
AcDbEntity
  8
0
  6
SLD-Solid
 62
     7
370
    25
100
AcDbLine
 10
23.438351611
 20
30.5927559405
 30
0.0
 11
23.4878490857
 21
30.5641816566
 31
0.0
  0
LINE
  5
295
330
1F
100
AcDbEntity
  8
0
  6
SLD-Solid
 62
     7
370
    25
100
AcDbLine
 10
21.5001531326
 20
31.6300132945
 30
0.0
 11
21.5496506072
 21
31.6014390106
 31
0.0
  0
LINE
  5
296
330
1F
100
AcDbEntity
  8
0
  6
SLD-Solid
 62
     7
370
    25
100
AcDbLine
 10
37.9100324383
 20
22.7863401098
 30
0.0
 11
37.9100324383
 21
23.7975557922
 31
0.0
  0
LINE
  5
297
330
1F
100
AcDbEntity
  8
0
  6
SLD-Solid
 62
     7
370
    25
100
AcDbLine
 10
37.3839115496
 20
22.5421555498
 30
0.0
 11
37.4334090243
 21
22.5135812659
 31
0.0
  0
LINE
  5
298
330
1F
100
AcDbEntity
  8
0
  6
SLD-Solid
 62
     7
370
    25
100
AcDbLine
 10
35.4457130711
 20
23.5794129038
 30
0.0
 11
35.4952105458
 21
23.5508386199
 31
0.0
  0
LINE
  5
299
330
1F
100
AcDbEntity
  8
0
  6
SLD-Solid
 62
     7
370
    25
100
AcDbLine
 10
30.4515153504
 20
27.9644170889
 30
0.0
 11
30.430302147
 21
27.9521709673
 31
0.0
  0
LINE
  5
29A
330
1F
100
AcDbEntity
  8
0
  6
SLD-Solid
 62
     7
370
    25
100
AcDbLine
 10
22.7716285999
 20
32.3979213402
 30
0.0
 11
22.7504153965
 21
32.3856752185
 31
0.0
  0
LINE
  5
29B
330
1F
100
AcDbEntity
  8
0
  6
SLD-Solid
 62
     7
370
    25
100
AcDbLine
 10
29.7444085692
 20
28.3726211449
 30
0.0
 11
29.7231953658
 21
28.3603750232
 31
0.0
  0
LINE
  5
29C
330
1F
100
AcDbEntity
  8
0
  6
SLD-Solid
 62
     7
370
    25
100
AcDbLine
 10
36.7171885385
 20
24.3473209495
 30
0.0
 11
36.6959753351
 21
24.3350748278
 31
0.0
  0
LINE
  5
29D
330
1F
100
AcDbEntity
  8
0
  6
SLD-Solid
 62
     7
370
    25
100
AcDbLine
 10
43.6899685078
 20
20.3220207542
 30
0.0
 11
43.6687553043
 21
20.3097746325
 31
0.0
  0
LINE
  5
29E
330
1F
100
AcDbEntity
  8
0
  6
SLD-Solid
 62
     7
370
    25
100
AcDbLine
 10
44.397075289
 20
19.9138166983
 30
0.0
 11
44.3758620855
 21
19.9015705766
 31
0.0
  0
LINE
  5
29F
330
1F
100
AcDbEntity
  8
0
  6
SLD-Solid
 62
     7
370
    25
100
AcDbLine
 10
37.4242953197
 20
23.9391168936
 30
0.0
 11
37.4030821162
 21
23.9268707719
 31
0.0
  0
LINE
  5
2A0
330
1F
100
AcDbEntity
  8
0
  6
SLD-Solid
 62
     7
370
    25
100
AcDbLine
 10
23.4787353811
 20
31.9897172843
 30
0.0
 11
23.4575221777
 21
31.9774711626
 31
0.0
  0
LINE
  5
2A1
330
1F
100
AcDbEntity
  8
0
  6
SLD-Solid
 62
     7
370
    25
100
AcDbLine
 10
29.7857483327
 20
27.1690964318
 30
0.0
 11
29.7726873382
 21
27.1615564802
 31
0.0
  0
LINE
  5
2A2
330
1F
100
AcDbEntity
  8
0
  6
SLD-Solid
 62
     7
370
    25
100
AcDbLine
 10
29.9288987986
 20
26.8909609745
 30
0.0
 11
29.941959793
 21
26.8985009261
 31
0.0
  0
LINE
  5
2A3
330
1F
100
AcDbEntity
  8
0
  6
SLD-Solid
 62
     7
370
    25
100
AcDbLine
 10
36.7585283019
 20
23.1437962365
 30
0.0
 11
36.7454673075
 21
23.1362562849
 31
0.0
  0
LINE
  5
2A4
330
1F
100
AcDbEntity
  8
0
  6
SLD-Solid
 62
     7
370
    25
100
AcDbLine
 10
36.9016787679
 20
22.8656607792
 30
0.0
 11
36.9147397623
 21
22.8732007308
 31
0.0
  0
LINE
  5
2A5
330
1F
100
AcDbEntity
  8
0
  6
SLD-Solid
 62
     7
370
    25
100
AcDbLine
 10
43.7313082712
 20
19.1184960411
 30
0.0
 11
43.7182472768
 21
19.1109560895
 31
0.0
  0
LINE
  5
2A6
330
1F
100
AcDbEntity
  8
0
  6
SLD-Solid
 62
     7
370
    25
100
AcDbLine
 10
43.8744587371
 20
18.8403605838
 30
0.0
 11
43.8875197316
 21
18.8479005355
 31
0.0
  0
LINE
  5
2A7
330
1F
100
AcDbEntity
  8
0
  6
SLD-Solid
 62
     7
370
    25
100
AcDbLine
 10
22.8129683634
 20
31.1943966272
 30
0.0
 11
22.7999073689
 21
31.1868566756
 31
0.0
  0
LINE
  5
2A8
330
1F
100
AcDbEntity
  8
0
  6
SLD-Solid
 62
     7
370
    25
100
AcDbLine
 10
22.9561188293
 20
30.9162611699
 30
0.0
 11
22.9691798238
 21
30.9238011215
 31
0.0
  0
LINE
  5
2A9
330
1F
100
AcDbEntity
  8
0
  6
SLD-Solid
 62
     7
370
    25
100
AcDbLine
 10
20.6572703717
 20
32.4338321268
 30
0.0
 11
21.4690810203
 21
31.9651838149
 31
0.0
  0
LINE
  5
2AA
330
1F
100
AcDbEntity
  8
0
  6
SLD-Solid
 62
     7
370
    25
100
AcDbLine
 10
21.8554771618
 20
31.7421220704
 30
0.0
 11
22.0341438699
 21
31.6389799753
 31
0.0
  0
LINE
  5
2AB
330
1F
100
AcDbEntity
  8
0
  6
SLD-Solid
 62
     7
370
    25
100
AcDbLine
 10
23.7229649622
 20
30.6640443108
 30
0.0
 11
28.4418609896
 21
27.9398836195
 31
0.0
  0
LINE
  5
2AC
330
1F
100
AcDbEntity
  8
0
  6
SLD-Solid
 62
     7
370
    25
100
AcDbLine
 10
28.8282571311
 20
27.716821875
 30
0.0
 11
29.0069238391
 21
27.6136797799
 31
0.0
  0
LINE
  5
2AD
330
1F
100
AcDbEntity
  8
0
  6
SLD-Solid
 62
     7
370
    25
100
AcDbLine
 10
30.6957449314
 20
26.6387441154
 30
0.0
 11
35.4146409589
 21
23.9145834242
 31
0.0
  0
LINE
  5
2AE
330
1F
100
AcDbEntity
  8
0
  6
SLD-Solid
 62
     7
370
    25
100
AcDbLine
 10
35.8010371004
 20
23.6915216797
 30
0.0
 11
35.9797038084
 21
23.5883795846
 31
0.0
  0
LINE
  5
2AF
330
1F
100
AcDbEntity
  8
0
  6
SLD-Solid
 62
     7
370
    25
100
AcDbLine
 10
37.6685249007
 20
22.6134439201
 30
0.0
 11
42.3874209282
 21
19.8892832288
 31
0.0
  0
LINE
  5
2B0
330
1F
100
AcDbEntity
  8
0
  6
SLD-Solid
 62
     7
370
    25
100
AcDbLine
 10
42.7738170697
 20
19.6662214843
 30
0.0
 11
42.9524837777
 21
19.5630793892
 31
0.0
  0
LINE
  5
2B1
330
1F
100
AcDbEntity
  8
0
  6
SLD-Solid
 62
     7
370
    25
100
AcDbLine
 10
44.64130487
 20
18.5881437247
 30
0.0
 11
46.1131144945
 21
17.738486114
 31
0.0
  0
LINE
  5
2B2
330
1F
100
AcDbEntity
  8
0
  6
SLD-Solid
 62
     7
370
    25
100
AcDbLine
 10
22.1001956358
 20
32.0479651419
 30
0.0
 11
21.947753973
 21
32.117568515
 31
0.0
  0
LINE
  5
2B3
330
1F
100
AcDbEntity
  8
0
  6
SLD-Solid
 62
     7
370
    25
100
AcDbLine
 10
22.1075618461
 20
31.9688808405
 30
0.0
 11
22.1001956358
 21
32.0479651419
 31
0.0
  0
SPLINE
  5
2B4
330
1F
100
AcDbEntity
  8
0
  6
SLD-Solid
 62
     7
370
    25
100
AcDbSpline
210
0.0
220
0.0
230
1.0
 70
     8
 71
     3
 72
    14
 73
    10
 74
     0
 42
0.00000001
 43
0.00000001
 40
0.0
 40
0.0
 40
0.0
 40
0.0
 40
0.1669732910766208
 40
0.3292393671751918
 40
0.4780643428590361
 40
0.5831555886245606
 40
0.6936208322497824
 40
0.8266861690052619
 40
1.0
 40
1.0
 40
1.0
 40
1.0
 10
22.46371668432785
 20
31.7840694709792
 30
0.0
 10
22.44597325850423
 20
31.7752980170271
 30
0.0
 10
22.41098661931169
 20
31.75800238890732
 30
0.0
 10
22.35614500779617
 20
31.74051420831881
 30
0.0
 10
22.30138356953895
 20
31.74056459158314
 30
0.0
 10
22.24786277324507
 20
31.76382826317857
 30
0.0
 10
22.19801240916089
 20
31.80891706745961
 30
0.0
 10
22.14868454458351
 20
31.88001990399325
 30
0.0
 10
22.12241954139856
 20
31.93677524509687
 30
0.0
 10
22.10756184609083
 20
31.96888084048807
 30
0.0
  0
SPLINE
  5
2B5
330
1F
100
AcDbEntity
  8
0
  6
SLD-Solid
 62
     7
370
    25
100
AcDbSpline
210
0.0
220
0.0
230
1.0
 70
     8
 71
     3
 72
    10
 73
     6
 74
     0
 42
0.00000001
 43
0.00000001
 40
0.0
 40
0.0
 40
0.0
 40
0.0
 40
0.3127001080851344
 40
0.585202906562633
 40
1.0
 40
1.0
 40
1.0
 40
1.0
 10
22.58849971338719
 20
31.76848206681348
 30
0.0
 10
22.57416731077045
 20
31.77597927388502
 30
0.0
 10
22.54734492263409
 20
31.7900099289949
 30
0.0
 10
22.50430400455952
 20
31.79510393087912
 30
0.0
 10
22.47899256538575
 20
31.78822251917276
 30
0.0
 10
22.46371668432785
 20
31.7840694709792
 30
0.0
  0
LINE
  5
2B6
330
1F
100
AcDbEntity
  8
0
  6
SLD-Solid
 62
     7
370
    25
100
AcDbLine
 10
22.8984199148
 20
31.4895118866
 30
0.0
 11
22.5884997134
 21
31.7684820668
 31
0.0
  0
LINE
  5
2B7
330
1F
100
AcDbEntity
  8
0
  6
SLD-Solid
 62
     7
370
    25
100
AcDbLine
 10
22.9727521003
 20
31.4249605285
 30
0.0
 11
22.8984199148
 21
31.4895118866
 31
0.0
  0
SPLINE
  5
2B8
330
1F
100
AcDbEntity
  8
0
  6
SLD-Solid
 62
     7
370
    25
100
AcDbSpline
210
0.0
220
0.0
230
1.0
 70
     8
 71
     3
 72
    13
 73
     9
 74
     0
 42
0.00000001
 43
0.00000001
 40
0.0
 40
0.0
 40
0.0
 40
0.0
 40
0.1709847685286761
 40
0.3326578081366876
 40
0.4968967494144843
 40
0.6391258064239841
 40
0.8035705820916744
 40
0.9999999999999999
 40
0.9999999999999999
 40
0.9999999999999999
 40
0.9999999999999999
 10
23.31641556118412
 20
30.57924275982605
 30
0.0
 10
23.31227701971635
 20
30.62672898310982
 30
0.0
 10
23.30422531929064
 20
30.71911535816648
 30
0.0
 10
23.27740573182912
 20
30.86329457739811
 30
0.0
 10
23.23079740600092
 20
31.00330980483199
 30
0.0
 10
23.16418759114596
 20
31.14088722076366
 30
0.0
 10
23.07914233122192
 20
31.28115551870565
 30
0.0
 10
23.01025081858047
 20
31.37427445044054
 30
0.0
 10
22.97275210027954
 20
31.4249605285324
 30
0.0
  0
SPLINE
  5
2B9
330
1F
100
AcDbEntity
  8
0
  6
SLD-Solid
 62
     7
370
    25
100
AcDbSpline
210
0.0
220
0.0
230
1.0
 70
     8
 71
     3
 72
    11
 73
     7
 74
     0
 42
0.00000001
 43
0.00000001
 40
0.0
 40
0.0
 40
0.0
 40
0.0
 40
0.2779255621982136
 40
0.586501074987086
 40
0.8150864002480661
 40
1.0
 40
1.0
 40
1.0
 40
1.0
 10
23.27605720564279
 20
30.52198020837231
 30
0.0
 10
23.28222033323774
 20
30.52389303904059
 30
0.0
 10
23.2952262652259
 20
30.52792964954284
 30
0.0
 10
23.30656740440295
 20
30.54444680585043
 30
0.0
 10
23.31459601778342
 20
30.56115709419667
 30
0.0
 10
23.31585330971678
 20
30.57365416433876
 30
0.0
 10
23.31641556118412
 20
30.57924275982605
 30
0.0
  0
SPLINE
  5
2BA
330
1F
100
AcDbEntity
  8
0
  6
SLD-Solid
 62
     7
370
    25
100
AcDbSpline
210
0.0
220
0.0
230
1.0
 70
     8
 71
     3
 72
    13
 73
     9
 74
     0
 42
0.00000001
 43
0.00000001
 40
0.0
 40
0.0
 40
0.0
 40
0.0
 40
0.1722258029344766
 40
0.3651408598546105
 40
0.5673817509133596
 40
0.7237788946035334
 40
0.870227428619743
 40
1.0
 40
1.0
 40
1.0
 40
1.0
 10
22.69692388171628
 20
30.66221362301776
 30
0.0
 10
22.73231921107428
 20
30.63716479679224
 30
0.0
 10
22.80736186308349
 20
30.58405806254863
 30
0.0
 10
22.92379769213036
 20
30.53878692553806
 30
0.0
 10
23.0332793996074
 20
30.51096876464292
 30
0.0
 10
23.12960342004066
 20
30.50112733288595
 30
0.0
 10
23.20916589422497
 20
30.50239517267745
 30
0.0
 10
23.25467594287386
 20
30.51572001126068
 30
0.0
 10
23.27605720564279
 20
30.52198020837231
 30
0.0
  0
SPLINE
  5
2BB
330
1F
100
AcDbEntity
  8
0
  6
SLD-Solid
 62
     7
370
    25
100
AcDbSpline
210
0.0
220
0.0
230
1.0
 70
     8
 71
     3
 72
    17
 73
    13
 74
     0
 42
0.00000001
 43
0.00000001
 40
0.0
 40
0.0
 40
0.0
 40
0.0
 40
0.0678705028656887
 40
0.1510805487614269
 40
0.2455286833004882
 40
0.3480591354729947
 40
0.4570909829180667
 40
0.5477261663855204
 40
0.6442895922105873
 40
0.7494053384969317
 40
0.8666049980989338
 40
1.0
 40
1.0
 40
1.0
 40
1.0
 10
21.94775397297409
 20
32.11756851503674
 30
0.0
 10
21.95213768722192
 20
32.08237097017848
 30
0.0
 10
21.96189588741509
 20
32.00402081557944
 30
0.0
 10
21.97933112979534
 20
31.87603487392714
 30
0.0
 10
22.00792328801866
 20
31.72690745591517
 30
0.0
 10
22.05262984189247
 20
31.56085459592784
 30
0.0
 10
22.11433791056943
 20
31.39558456345323
 30
0.0
 10
22.19216084076147
 20
31.23704799758956
 30
0.0
 10
22.28402551006322
 20
31.08794009377469
 30
0.0
 10
22.39858560096857
 20
30.93911903083953
 30
0.0
 10
22.53794760624103
 20
30.79162104858104
 30
0.0
 10
22.64169676861837
 20
30.70716874922088
 30
0.0
 10
22.69692388171628
 20
30.66221362301776
 30
0.0
  0
LINE
  5
2BC
330
1F
100
AcDbEntity
  8
0
  6
SLD-Solid
 62
     7
370
    25
100
AcDbLine
 10
23.3164155612
 20
30.5792427598
 30
0.0
 11
23.4104526967
 21
30.6335292426
 31
0.0
  0
LINE
  5
2BD
330
1F
100
AcDbEntity
  8
0
  6
SLD-Solid
 62
     7
370
    25
100
AcDbLine
 10
22.9727521003
 20
31.4249605285
 30
0.0
 11
23.5313664574
 21
31.7474417327
 31
0.0
  0
LINE
  5
2BE
330
1F
100
AcDbEntity
  8
0
  6
SLD-Solid
 62
     7
370
    25
100
AcDbLine
 10
23.6019629663
 20
31.6625555956
 30
0.0
 11
23.5821923341
 21
31.6902446141
 31
0.0
  0
LINE
  5
2BF
330
1F
100
AcDbEntity
  8
0
  6
SLD-Solid
 62
     7
370
    25
100
AcDbLine
 10
22.8984199148
 20
31.4895118866
 30
0.0
 11
23.4603069308
 21
31.8138823566
 31
0.0
  0
LINE
  5
2C0
330
1F
100
AcDbEntity
  8
0
  6
SLD-Solid
 62
     7
370
    25
100
AcDbLine
 10
22.5884997134
 20
31.7684820668
 30
0.0
 11
23.1541851383
 21
32.0950453115
 31
0.0
  0
LINE
  5
2C1
330
1F
100
AcDbEntity
  8
0
  6
SLD-Solid
 62
     7
370
    25
100
AcDbLine
 10
23.4506579365
 20
31.8281796166
 30
0.0
 11
23.1541851383
 21
32.0950453115
 31
0.0
  0
LINE
  5
2C2
330
1F
100
AcDbEntity
  8
0
  6
SLD-Solid
 62
     7
370
    25
100
AcDbLine
 10
22.4637166843
 20
31.784069471
 30
0.0
 11
23.0294021093
 21
32.1106327157
 31
0.0
  0
SPLINE
  5
2C3
330
1F
100
AcDbEntity
  8
0
  6
SLD-Solid
 62
     7
370
    25
100
AcDbSpline
210
0.0
220
0.0
230
1.0
 70
     8
 71
     3
 72
    10
 73
     6
 74
     0
 42
0.00000001
 43
0.00000001
 40
0.0
 40
0.0
 40
0.0
 40
0.0
 40
0.3127001080851344
 40
0.585202906562633
 40
1.0
 40
1.0
 40
1.0
 40
1.0
 10
23.15418513833643
 20
32.09504531154256
 30
0.0
 10
23.13985273571968
 20
32.10254251861411
 30
0.0
 10
23.11303034758333
 20
32.11657317372399
 30
0.0
 10
23.06998942950876
 20
32.12166717560821
 30
0.0
 10
23.04467799033499
 20
32.11478576390184
 30
0.0
 10
23.02940210927709
 20
32.11063271570828
 30
0.0
  0
LINE
  5
2C4
330
1F
100
AcDbEntity
  8
0
  6
SLD-Solid
 62
     7
370
    25
100
AcDbLine
 10
22.1075618461
 20
31.9688808405
 30
0.0
 11
22.673247271
 21
32.2954440852
 31
0.0
  0
SPLINE
  5
2C5
330
1F
100
AcDbEntity
  8
0
  6
SLD-Solid
 62
     7
370
    25
100
AcDbSpline
210
0.0
220
0.0
230
1.0
 70
     8
 71
     3
 72
    14
 73
    10
 74
     0
 42
0.00000001
 43
0.00000001
 40
0.0
 40
0.0
 40
0.0
 40
0.0
 40
0.1669732910766208
 40
0.3292393671751918
 40
0.4780643428590361
 40
0.5831555886245606
 40
0.6936208322497824
 40
0.8266861690052619
 40
1.0
 40
1.0
 40
1.0
 40
1.0
 10
23.02940210927709
 20
32.11063271570828
 30
0.0
 10
23.01165868345347
 20
32.10186126175618
 30
0.0
 10
22.97667204426093
 20
32.08456563363641
 30
0.0
 10
22.92183043274541
 20
32.06707745304789
 30
0.0
 10
22.86706899448818
 20
32.06712783631222
 30
0.0
 10
22.81354819819431
 20
32.09039150790766
 30
0.0
 10
22.76369783411013
 20
32.13548031218869
 30
0.0
 10
22.71436996953275
 20
32.20658314872234
 30
0.0
 10
22.6881049663478
 20
32.26333848982595
 30
0.0
 10
22.67324727104007
 20
32.29544408521715
 30
0.0
  0
LINE
  5
2C6
330
1F
100
AcDbEntity
  8
0
  6
SLD-Solid
 62
     7
370
    25
100
AcDbLine
 10
22.1001956358
 20
32.0479651419
 30
0.0
 11
22.6658810608
 21
32.3745283867
 31
0.0
  0
LINE
  5
2C7
330
1F
100
AcDbEntity
  8
0
  6
SLD-Solid
 62
     7
370
    25
100
AcDbLine
 10
22.673247271
 20
32.2954440852
 30
0.0
 11
22.6658810608
 21
32.3745283867
 31
0.0
  0
LINE
  5
2C8
330
1F
100
AcDbEntity
  8
0
  6
SLD-Solid
 62
     7
370
    25
100
AcDbLine
 10
21.947753973
 20
32.117568515
 30
0.0
 11
22.5134393979
 21
32.4441317598
 31
0.0
  0
LINE
  5
2C9
330
1F
100
AcDbEntity
  8
0
  6
SLD-Solid
 62
     7
370
    25
100
AcDbLine
 10
22.6658810608
 20
32.3745283867
 30
0.0
 11
22.5134393979
 21
32.4441317598
 31
0.0
  0
LINE
  5
2CA
330
1F
100
AcDbEntity
  8
0
  6
SLD-Solid
 62
     7
370
    25
100
AcDbLine
 10
29.0729756051
 20
28.0226649466
 30
0.0
 11
28.9205339423
 21
28.0922683197
 31
0.0
  0
LINE
  5
2CB
330
1F
100
AcDbEntity
  8
0
  6
SLD-Solid
 62
     7
370
    25
100
AcDbLine
 10
29.0803418154
 20
27.9435806451
 30
0.0
 11
29.0729756051
 21
28.0226649466
 31
0.0
  0
SPLINE
  5
2CC
330
1F
100
AcDbEntity
  8
0
  6
SLD-Solid
 62
     7
370
    25
100
AcDbSpline
210
0.0
220
0.0
230
1.0
 70
     8
 71
     3
 72
    14
 73
    10
 74
     0
 42
0.00000001
 43
0.00000001
 40
0.0
 40
0.0
 40
0.0
 40
0.0
 40
0.1669732910766208
 40
0.3292393671751918
 40
0.4780643428590361
 40
0.5831555886245606
 40
0.6936208322497824
 40
0.8266861690052619
 40
1.0
 40
1.0
 40
1.0
 40
1.0
 10
29.43649665360838
 20
27.75876927563733
 30
0.0
 10
29.41875322778476
 20
27.74999782168523
 30
0.0
 10
29.38376658859222
 20
27.73270219356545
 30
0.0
 10
29.32892497707671
 20
27.71521401297694
 30
0.0
 10
29.27416353881948
 20
27.71526439624127
 30
0.0
 10
29.2206427425256
 20
27.7385280678367
 30
0.0
 10
29.17079237844143
 20
27.78361687211774
 30
0.0
 10
29.12146451386404
 20
27.85471970865138
 30
0.0
 10
29.09519951067909
 20
27.911475049755
 30
0.0
 10
29.08034181537136
 20
27.94358064514619
 30
0.0
  0
SPLINE
  5
2CD
330
1F
100
AcDbEntity
  8
0
  6
SLD-Solid
 62
     7
370
    25
100
AcDbSpline
210
0.0
220
0.0
230
1.0
 70
     8
 71
     3
 72
    10
 73
     6
 74
     0
 42
0.00000001
 43
0.00000001
 40
0.0
 40
0.0
 40
0.0
 40
0.0
 40
0.3127001080851344
 40
0.585202906562633
 40
1.0
 40
1.0
 40
1.0
 40
1.0
 10
29.56127968266772
 20
27.74318187147161
 30
0.0
 10
29.54694728005098
 20
27.75067907854315
 30
0.0
 10
29.52012489191462
 20
27.76470973365303
 30
0.0
 10
29.47708397384005
 20
27.76980373553725
 30
0.0
 10
29.45177253466628
 20
27.76292232383088
 30
0.0
 10
29.43649665360838
 20
27.75876927563733
 30
0.0
  0
LINE
  5
2CE
330
1F
100
AcDbEntity
  8
0
  6
SLD-Solid
 62
     7
370
    25
100
AcDbLine
 10
29.8711998841
 20
27.4642116913
 30
0.0
 11
29.5612796827
 21
27.7431818715
 31
0.0
  0
LINE
  5
2CF
330
1F
100
AcDbEntity
  8
0
  6
SLD-Solid
 62
     7
370
    25
100
AcDbLine
 10
29.9455320696
 20
27.3996603332
 30
0.0
 11
29.8711998841
 21
27.4642116913
 31
0.0
  0
SPLINE
  5
2D0
330
1F
100
AcDbEntity
  8
0
  6
SLD-Solid
 62
     7
370
    25
100
AcDbSpline
210
0.0
220
0.0
230
1.0
 70
     8
 71
     3
 72
    13
 73
     9
 74
     0
 42
0.00000001
 43
0.00000001
 40
0.0
 40
0.0
 40
0.0
 40
0.0
 40
0.1709847685286762
 40
0.3326578081366875
 40
0.4968967494144849
 40
0.6391258064239842
 40
0.8035705820916746
 40
1.0
 40
1.0
 40
1.0
 40
1.0
 10
30.28919553046466
 20
26.55394256448418
 30
0.0
 10
30.28505698899688
 20
26.60142878776795
 30
0.0
 10
30.27700528857117
 20
26.69381516282461
 30
0.0
 10
30.25018570110965
 20
26.83799438205623
 30
0.0
 10
30.20357737528145
 20
26.97800960949012
 30
0.0
 10
30.1369675604265
 20
27.11558702542179
 30
0.0
 10
30.05192230050244
 20
27.25585532336378
 30
0.0
 10
29.983030787861
 20
27.34897425509867
 30
0.0
 10
29.94553206956007
 20
27.39966033319052
 30
0.0
  0
SPLINE
  5
2D1
330
1F
100
AcDbEntity
  8
0
  6
SLD-Solid
 62
     7
370
    25
100
AcDbSpline
210
0.0
220
0.0
230
1.0
 70
     8
 71
     3
 72
    11
 73
     7
 74
     0
 42
0.00000001
 43
0.00000001
 40
0.0
 40
0.0
 40
0.0
 40
0.0
 40
0.2779255621982198
 40
0.5865010749870865
 40
0.8150864002480659
 40
1.0
 40
1.0
 40
1.0
 40
1.0
 10
30.24883717492332
 20
26.49668001303043
 30
0.0
 10
30.25500030251828
 20
26.49859284369871
 30
0.0
 10
30.26800623450644
 20
26.50262945420096
 30
0.0
 10
30.27934737368348
 20
26.51914661050856
 30
0.0
 10
30.28737598706395
 20
26.53585689885479
 30
0.0
 10
30.2886332789973
 20
26.54835396899689
 30
0.0
 10
30.28919553046466
 20
26.55394256448418
 30
0.0
  0
SPLINE
  5
2D2
330
1F
100
AcDbEntity
  8
0
  6
SLD-Solid
 62
     7
370
    25
100
AcDbSpline
210
0.0
220
0.0
230
1.0
 70
     8
 71
     3
 72
    13
 73
     9
 74
     0
 42
0.00000001
 43
0.00000001
 40
0.0
 40
0.0
 40
0.0
 40
0.0
 40
0.1722258029344766
 40
0.3651408598546104
 40
0.5673817509133606
 40
0.7237788946035344
 40
0.870227428619744
 40
1.0
 40
1.0
 40
1.0
 40
1.0
 10
29.66970385099681
 20
26.63691342767588
 30
0.0
 10
29.70509918035481
 20
26.61186460145037
 30
0.0
 10
29.78014183236402
 20
26.55875786720675
 30
0.0
 10
29.89657766141089
 20
26.51348673019618
 30
0.0
 10
30.00605936888794
 20
26.48566856930104
 30
0.0
 10
30.10238338932119
 20
26.47582713754408
 30
0.0
 10
30.1819458635055
 20
26.47709497733558
 30
0.0
 10
30.22745591215439
 20
26.49041981591881
 30
0.0
 10
30.24883717492332
 20
26.49668001303043
 30
0.0
  0
SPLINE
  5
2D3
330
1F
100
AcDbEntity
  8
0
  6
SLD-Solid
 62
     7
370
    25
100
AcDbSpline
210
0.0
220
0.0
230
1.0
 70
     8
 71
     3
 72
    17
 73
    13
 74
     0
 42
0.00000001
 43
0.00000001
 40
0.0
 40
0.0
 40
0.0
 40
0.0
 40
0.0678705028656887
 40
0.151080548761427
 40
0.2455286833004882
 40
0.3480591354729948
 40
0.4570909829180668
 40
0.5477261663855205
 40
0.6442895922105875
 40
0.7494053384969324
 40
0.8666049980989338
 40
1.0
 40
1.0
 40
1.0
 40
1.0
 10
28.92053394225463
 20
28.09226831969487
 30
0.0
 10
28.92491765650245
 20
28.05707077483661
 30
0.0
 10
28.93467585669563
 20
27.97872062023756
 30
0.0
 10
28.95211109907586
 20
27.85073467858527
 30
0.0
 10
28.98070325729919
 20
27.70160726057329
 30
0.0
 10
29.02540981117301
 20
27.53555440058597
 30
0.0
 10
29.08711787984997
 20
27.37028436811136
 30
0.0
 10
29.164940810042
 20
27.21174780224769
 30
0.0
 10
29.25680547934375
 20
27.06263989843282
 30
0.0
 10
29.3713655702491
 20
26.91381883549765
 30
0.0
 10
29.51072757552157
 20
26.76632085323917
 30
0.0
 10
29.61447673789891
 20
26.681868553879
 30
0.0
 10
29.66970385099681
 20
26.63691342767588
 30
0.0
  0
LINE
  5
2D4
330
1F
100
AcDbEntity
  8
0
  6
SLD-Solid
 62
     7
370
    25
100
AcDbLine
 10
30.2891955305
 20
26.5539425645
 30
0.0
 11
30.383232666
 21
26.6082290473
 31
0.0
  0
LINE
  5
2D5
330
1F
100
AcDbEntity
  8
0
  6
SLD-Solid
 62
     7
370
    25
100
AcDbLine
 10
29.9455320696
 20
27.3996603332
 30
0.0
 11
30.5041464267
 21
27.7221415374
 31
0.0
  0
LINE
  5
2D6
330
1F
100
AcDbEntity
  8
0
  6
SLD-Solid
 62
     7
370
    25
100
AcDbLine
 10
30.5747429356
 20
27.6372554002
 30
0.0
 11
30.5549723034
 21
27.6649444188
 31
0.0
  0
LINE
  5
2D7
330
1F
100
AcDbEntity
  8
0
  6
SLD-Solid
 62
     7
370
    25
100
AcDbLine
 10
29.8711998841
 20
27.4642116913
 30
0.0
 11
30.4330869001
 21
27.7885821612
 31
0.0
  0
LINE
  5
2D8
330
1F
100
AcDbEntity
  8
0
  6
SLD-Solid
 62
     7
370
    25
100
AcDbLine
 10
29.5612796827
 20
27.7431818715
 30
0.0
 11
30.1269651076
 21
28.0697451162
 31
0.0
  0
LINE
  5
2D9
330
1F
100
AcDbEntity
  8
0
  6
SLD-Solid
 62
     7
370
    25
100
AcDbLine
 10
30.4234379058
 20
27.8028794212
 30
0.0
 11
30.1269651076
 21
28.0697451162
 31
0.0
  0
LINE
  5
2DA
330
1F
100
AcDbEntity
  8
0
  6
SLD-Solid
 62
     7
370
    25
100
AcDbLine
 10
29.4364966536
 20
27.7587692756
 30
0.0
 11
30.0021820786
 21
28.0853325204
 31
0.0
  0
SPLINE
  5
2DB
330
1F
100
AcDbEntity
  8
0
  6
SLD-Solid
 62
     7
370
    25
100
AcDbSpline
210
0.0
220
0.0
230
1.0
 70
     8
 71
     3
 72
    10
 73
     6
 74
     0
 42
0.00000001
 43
0.00000001
 40
0.0
 40
0.0
 40
0.0
 40
0.0
 40
0.3127001080851344
 40
0.585202906562633
 40
1.0
 40
1.0
 40
1.0
 40
1.0
 10
30.12696510761696
 20
28.06974511620069
 30
0.0
 10
30.11263270500022
 20
28.07724232327223
 30
0.0
 10
30.08581031686386
 20
28.09127297838211
 30
0.0
 10
30.04276939878929
 20
28.09636698026634
 30
0.0
 10
30.01745795961552
 20
28.08948556855997
 30
0.0
 10
30.00218207855762
 20
28.08533252036642
 30
0.0
  0
LINE
  5
2DC
330
1F
100
AcDbEntity
  8
0
  6
SLD-Solid
 62
     7
370
    25
100
AcDbLine
 10
29.0803418154
 20
27.9435806451
 30
0.0
 11
29.6460272403
 21
28.2701438899
 31
0.0
  0
SPLINE
  5
2DD
330
1F
100
AcDbEntity
  8
0
  6
SLD-Solid
 62
     7
370
    25
100
AcDbSpline
210
0.0
220
0.0
230
1.0
 70
     8
 71
     3
 72
    14
 73
    10
 74
     0
 42
0.00000001
 43
0.00000001
 40
0.0
 40
0.0
 40
0.0
 40
0.0
 40
0.1669732910766208
 40
0.3292393671751918
 40
0.4780643428590361
 40
0.5831555886245606
 40
0.6936208322497824
 40
0.8266861690052619
 40
1.0
 40
1.0
 40
1.0
 40
1.0
 10
30.00218207855762
 20
28.08533252036642
 30
0.0
 10
29.984438652734
 20
28.07656106641431
 30
0.0
 10
29.94945201354146
 20
28.05926543829453
 30
0.0
 10
29.89461040202595
 20
28.04177725770602
 30
0.0
 10
29.83984896376872
 20
28.04182764097035
 30
0.0
 10
29.78632816747484
 20
28.06509131256579
 30
0.0
 10
29.73647780339067
 20
28.11018011684682
 30
0.0
 10
29.68714993881328
 20
28.18128295338046
 30
0.0
 10
29.66088493562834
 20
28.23803829448408
 30
0.0
 10
29.6460272403206
 20
28.27014388987528
 30
0.0
  0
LINE
  5
2DE
330
1F
100
AcDbEntity
  8
0
  6
SLD-Solid
 62
     7
370
    25
100
AcDbLine
 10
29.0729756051
 20
28.0226649466
 30
0.0
 11
29.6386610301
 21
28.3492281913
 31
0.0
  0
LINE
  5
2DF
330
1F
100
AcDbEntity
  8
0
  6
SLD-Solid
 62
     7
370
    25
100
AcDbLine
 10
29.6460272403
 20
28.2701438899
 30
0.0
 11
29.6386610301
 21
28.3492281913
 31
0.0
  0
LINE
  5
2E0
330
1F
100
AcDbEntity
  8
0
  6
SLD-Solid
 62
     7
370
    25
100
AcDbLine
 10
28.9205339423
 20
28.0922683197
 30
0.0
 11
29.4862193672
 21
28.4188315644
 31
0.0
  0
LINE
  5
2E1
330
1F
100
AcDbEntity
  8
0
  6
SLD-Solid
 62
     7
370
    25
100
AcDbLine
 10
29.6386610301
 20
28.3492281913
 30
0.0
 11
29.4862193672
 21
28.4188315644
 31
0.0
  0
LINE
  5
2E2
330
1F
100
AcDbEntity
  8
0
  6
SLD-Solid
 62
     7
370
    25
100
AcDbLine
 10
43.0185355437
 20
19.9720645559
 30
0.0
 11
42.8660938808
 21
20.041667929
 31
0.0
  0
LINE
  5
2E3
330
1F
100
AcDbEntity
  8
0
  6
SLD-Solid
 62
     7
370
    25
100
AcDbLine
 10
43.0259017539
 20
19.8929802545
 30
0.0
 11
43.0185355437
 21
19.9720645559
 31
0.0
  0
SPLINE
  5
2E4
330
1F
100
AcDbEntity
  8
0
  6
SLD-Solid
 62
     7
370
    25
100
AcDbSpline
210
0.0
220
0.0
230
1.0
 70
     8
 71
     3
 72
    14
 73
    10
 74
     0
 42
0.00000001
 43
0.00000001
 40
0.0
 40
0.0
 40
0.0
 40
0.0
 40
0.1669732910766208
 40
0.3292393671751918
 40
0.4780643428590361
 40
0.5831555886245606
 40
0.6936208322497824
 40
0.8266861690052619
 40
1.0
 40
1.0
 40
1.0
 40
1.0
 10
43.38205659216945
 20
19.70816888495359
 30
0.0
 10
43.36431316634583
 20
19.69939743100148
 30
0.0
 10
43.32932652715328
 20
19.6821018028817
 30
0.0
 10
43.27448491563777
 20
19.66461362229319
 30
0.0
 10
43.21972347738053
 20
19.66466400555753
 30
0.0
 10
43.16620268108666
 20
19.68792767715296
 30
0.0
 10
43.11635231700249
 20
19.73301648143399
 30
0.0
 10
43.0670244524251
 20
19.80411931796764
 30
0.0
 10
43.04075944924016
 20
19.86087465907125
 30
0.0
 10
43.02590175393243
 20
19.89298025446245
 30
0.0
  0
SPLINE
  5
2E5
330
1F
100
AcDbEntity
  8
0
  6
SLD-Solid
 62
     7
370
    25
100
AcDbSpline
210
0.0
220
0.0
230
1.0
 70
     8
 71
     3
 72
    10
 73
     6
 74
     0
 42
0.00000001
 43
0.00000001
 40
0.0
 40
0.0
 40
0.0
 40
0.0
 40
0.3127001080851344
 40
0.585202906562633
 40
1.0
 40
1.0
 40
1.0
 40
1.0
 10
43.50683962122878
 20
19.69258148078787
 30
0.0
 10
43.49250721861205
 20
19.7000786878594
 30
0.0
 10
43.46568483047568
 20
19.71410934296928
 30
0.0
 10
43.42264391240111
 20
19.71920334485351
 30
0.0
 10
43.39733247322734
 20
19.71232193314714
 30
0.0
 10
43.38205659216945
 20
19.70816888495359
 30
0.0
  0
LINE
  5
2E6
330
1F
100
AcDbEntity
  8
0
  6
SLD-Solid
 62
     7
370
    25
100
AcDbLine
 10
43.8167598226
 20
19.4136113006
 30
0.0
 11
43.5068396212
 21
19.6925814808
 31
0.0
  0
LINE
  5
2E7
330
1F
100
AcDbEntity
  8
0
  6
SLD-Solid
 62
     7
370
    25
100
AcDbLine
 10
43.8910920081
 20
19.3490599425
 30
0.0
 11
43.8167598226
 21
19.4136113006
 31
0.0
  0
SPLINE
  5
2E8
330
1F
100
AcDbEntity
  8
0
  6
SLD-Solid
 62
     7
370
    25
100
AcDbSpline
210
0.0
220
0.0
230
1.0
 70
     8
 71
     3
 72
    13
 73
     9
 74
     0
 42
0.00000001
 43
0.00000001
 40
0.0
 40
0.0
 40
0.0
 40
0.0
 40
0.1709847685286761
 40
0.3326578081366876
 40
0.4968967494144843
 40
0.6391258064239841
 40
0.8035705820916744
 40
0.9999999999999999
 40
0.9999999999999999
 40
0.9999999999999999
 40
0.9999999999999999
 10
44.23475546902572
 20
18.50334217380044
 30
0.0
 10
44.23061692755795
 20
18.5508283970842
 30
0.0
 10
44.22256522713224
 20
18.64321477214086
 30
0.0
 10
44.19574563967073
 20
18.78739399137249
 30
0.0
 10
44.14913731384252
 20
18.92740921880637
 30
0.0
 10
44.08252749898756
 20
19.06498663473805
 30
0.0
 10
43.99748223906351
 20
19.20525493268003
 30
0.0
 10
43.92859072642207
 20
19.29837386441492
 30
0.0
 10
43.89109200812113
 20
19.34905994250678
 30
0.0
  0
SPLINE
  5
2E9
330
1F
100
AcDbEntity
  8
0
  6
SLD-Solid
 62
     7
370
    25
100
AcDbSpline
210
0.0
220
0.0
230
1.0
 70
     8
 71
     3
 72
    11
 73
     7
 74
     0
 42
0.00000001
 43
0.00000001
 40
0.0
 40
0.0
 40
0.0
 40
0.0
 40
0.2779255621982136
 40
0.586501074987086
 40
0.8150864002480661
 40
1.0
 40
1.0
 40
1.0
 40
1.0
 10
44.19439711348438
 20
18.44607962234669
 30
0.0
 10
44.20056024107934
 20
18.44799245301497
 30
0.0
 10
44.21356617306751
 20
18.45202906351722
 30
0.0
 10
44.22490731224454
 20
18.46854621982482
 30
0.0
 10
44.23293592562502
 20
18.48525650817104
 30
0.0
 10
44.23419321755837
 20
18.49775357831314
 30
0.0
 10
44.23475546902572
 20
18.50334217380044
 30
0.0
  0
SPLINE
  5
2EA
330
1F
100
AcDbEntity
  8
0
  6
SLD-Solid
 62
     7
370
    25
100
AcDbSpline
210
0.0
220
0.0
230
1.0
 70
     8
 71
     3
 72
    13
 73
     9
 74
     0
 42
0.00000001
 43
0.00000001
 40
0.0
 40
0.0
 40
0.0
 40
0.0
 40
0.1722258029344766
 40
0.3651408598546105
 40
0.5673817509133596
 40
0.7237788946035334
 40
0.870227428619743
 40
1.0
 40
1.0
 40
1.0
 40
1.0
 10
43.61526378955788
 20
18.58631303699214
 30
0.0
 10
43.65065911891588
 20
18.56126421076662
 30
0.0
 10
43.72570177092508
 20
18.50815747652301
 30
0.0
 10
43.84213759997195
 20
18.46288633951244
 30
0.0
 10
43.951619307449
 20
18.4350681786173
 30
0.0
 10
44.04794332788226
 20
18.42522674686034
 30
0.0
 10
44.12750580206657
 20
18.42649458665183
 30
0.0
 10
44.17301585071546
 20
18.43981942523506
 30
0.0
 10
44.19439711348438
 20
18.44607962234669
 30
0.0
  0
SPLINE
  5
2EB
330
1F
100
AcDbEntity
  8
0
  6
SLD-Solid
 62
     7
370
    25
100
AcDbSpline
210
0.0
220
0.0
230
1.0
 70
     8
 71
     3
 72
    17
 73
    13
 74
     0
 42
0.00000001
 43
0.00000001
 40
0.0
 40
0.0
 40
0.0
 40
0.0
 40
0.0678705028656887
 40
0.1510805487614269
 40
0.2455286833004882
 40
0.3480591354729947
 40
0.4570909829180667
 40
0.5477261663855204
 40
0.6442895922105873
 40
0.7494053384969317
 40
0.8666049980989338
 40
1.0
 40
1.0
 40
1.0
 40
1.0
 10
42.86609388081569
 20
20.04166792901113
 30
0.0
 10
42.87047759506351
 20
20.00647038415286
 30
0.0
 10
42.8802357952567
 20
19.92812022955381
 30
0.0
 10
42.89767103763693
 20
19.80013428790153
 30
0.0
 10
42.92626319586026
 20
19.65100686988955
 30
0.0
 10
42.97096974973407
 20
19.48495400990222
 30
0.0
 10
43.03267781841104
 20
19.31968397742761
 30
0.0
 10
43.11050074860307
 20
19.16114741156394
 30
0.0
 10
43.20236541790482
 20
19.01203950774908
 30
0.0
 10
43.31692550881017
 20
18.8632184448139
 30
0.0
 10
43.45628751408263
 20
18.71572046255542
 30
0.0
 10
43.56003667645997
 20
18.63126816319526
 30
0.0
 10
43.61526378955788
 20
18.58631303699214
 30
0.0
  0
LINE
  5
2EC
330
1F
100
AcDbEntity
  8
0
  6
SLD-Solid
 62
     7
370
    25
100
AcDbLine
 10
44.234755469
 20
18.5033421738
 30
0.0
 11
44.3287926045
 21
18.5576286566
 31
0.0
  0
LINE
  5
2ED
330
1F
100
AcDbEntity
  8
0
  6
SLD-Solid
 62
     7
370
    25
100
AcDbLine
 10
43.8910920081
 20
19.3490599425
 30
0.0
 11
44.4497063653
 21
19.6715411467
 31
0.0
  0
LINE
  5
2EE
330
1F
100
AcDbEntity
  8
0
  6
SLD-Solid
 62
     7
370
    25
100
AcDbLine
 10
44.5203028742
 20
19.5866550095
 30
0.0
 11
44.500532242
 21
19.6143440281
 31
0.0
  0
LINE
  5
2EF
330
1F
100
AcDbEntity
  8
0
  6
SLD-Solid
 62
     7
370
    25
100
AcDbLine
 10
43.8167598226
 20
19.4136113006
 30
0.0
 11
44.3786468386
 21
19.7379817705
 31
0.0
  0
LINE
  5
2F0
330
1F
100
AcDbEntity
  8
0
  6
SLD-Solid
 62
     7
370
    25
100
AcDbLine
 10
43.5068396212
 20
19.6925814808
 30
0.0
 11
44.0725250462
 21
20.0191447255
 31
0.0
  0
LINE
  5
2F1
330
1F
100
AcDbEntity
  8
0
  6
SLD-Solid
 62
     7
370
    25
100
AcDbLine
 10
44.3689978444
 20
19.7522790306
 30
0.0
 11
44.0725250462
 21
20.0191447255
 31
0.0
  0
LINE
  5
2F2
330
1F
100
AcDbEntity
  8
0
  6
SLD-Solid
 62
     7
370
    25
100
AcDbLine
 10
43.3820565922
 20
19.708168885
 30
0.0
 11
43.9477420171
 21
20.0347321297
 31
0.0
  0
SPLINE
  5
2F3
330
1F
100
AcDbEntity
  8
0
  6
SLD-Solid
 62
     7
370
    25
100
AcDbSpline
210
0.0
220
0.0
230
1.0
 70
     8
 71
     3
 72
    10
 73
     6
 74
     0
 42
0.00000001
 43
0.00000001
 40
0.0
 40
0.0
 40
0.0
 40
0.0
 40
0.3127001080851344
 40
0.585202906562633
 40
1.0
 40
1.0
 40
1.0
 40
1.0
 10
44.07252504617802
 20
20.01914472551695
 30
0.0
 10
44.05819264356128
 20
20.02664193258849
 30
0.0
 10
44.03137025542492
 20
20.04067258769836
 30
0.0
 10
43.98832933735035
 20
20.04576658958259
 30
0.0
 10
43.96301789817659
 20
20.03888517787622
 30
0.0
 10
43.94774201711868
 20
20.03473212968267
 30
0.0
  0
LINE
  5
2F4
330
1F
100
AcDbEntity
  8
0
  6
SLD-Solid
 62
     7
370
    25
100
AcDbLine
 10
43.0259017539
 20
19.8929802545
 30
0.0
 11
43.5915871789
 21
20.2195434992
 31
0.0
  0
SPLINE
  5
2F5
330
1F
100
AcDbEntity
  8
0
  6
SLD-Solid
 62
     7
370
    25
100
AcDbSpline
210
0.0
220
0.0
230
1.0
 70
     8
 71
     3
 72
    14
 73
    10
 74
     0
 42
0.00000001
 43
0.00000001
 40
0.0
 40
0.0
 40
0.0
 40
0.0
 40
0.1669732910766208
 40
0.3292393671751918
 40
0.4780643428590361
 40
0.5831555886245606
 40
0.6936208322497824
 40
0.8266861690052619
 40
1.0
 40
1.0
 40
1.0
 40
1.0
 10
43.94774201711868
 20
20.03473212968267
 30
0.0
 10
43.92999859129507
 20
20.02596067573057
 30
0.0
 10
43.89501195210253
 20
20.00866504761079
 30
0.0
 10
43.84017034058702
 20
19.99117686702228
 30
0.0
 10
43.78540890232978
 20
19.99122725028661
 30
0.0
 10
43.7318881060359
 20
20.01449092188204
 30
0.0
 10
43.68203774195173
 20
20.05957972616307
 30
0.0
 10
43.63270987737434
 20
20.13068256269672
 30
0.0
 10
43.6064448741894
 20
20.18743790380033
 30
0.0
 10
43.59158717888167
 20
20.21954349919153
 30
0.0
  0
LINE
  5
2F6
330
1F
100
AcDbEntity
  8
0
  6
SLD-Solid
 62
     7
370
    25
100
AcDbLine
 10
43.0185355437
 20
19.9720645559
 30
0.0
 11
43.5842209686
 21
20.2986278006
 31
0.0
  0
LINE
  5
2F7
330
1F
100
AcDbEntity
  8
0
  6
SLD-Solid
 62
     7
370
    25
100
AcDbLine
 10
43.5915871789
 20
20.2195434992
 30
0.0
 11
43.5842209686
 21
20.2986278006
 31
0.0
  0
LINE
  5
2F8
330
1F
100
AcDbEntity
  8
0
  6
SLD-Solid
 62
     7
370
    25
100
AcDbLine
 10
42.8660938808
 20
20.041667929
 30
0.0
 11
43.4317793058
 21
20.3682311737
 31
0.0
  0
LINE
  5
2F9
330
1F
100
AcDbEntity
  8
0
  6
SLD-Solid
 62
     7
370
    25
100
AcDbLine
 10
43.5842209686
 20
20.2986278006
 30
0.0
 11
43.4317793058
 21
20.3682311737
 31
0.0
  0
LINE
  5
2FA
330
1F
100
AcDbEntity
  8
0
  6
SLD-Solid
 62
     7
370
    25
100
AcDbLine
 10
36.0457555744
 20
23.9973647513
 30
0.0
 11
35.8933139115
 21
24.0669681244
 31
0.0
  0
LINE
  5
2FB
330
1F
100
AcDbEntity
  8
0
  6
SLD-Solid
 62
     7
370
    25
100
AcDbLine
 10
36.0531217847
 20
23.9182804498
 30
0.0
 11
36.0457555744
 21
23.9973647513
 31
0.0
  0
SPLINE
  5
2FC
330
1F
100
AcDbEntity
  8
0
  6
SLD-Solid
 62
     7
370
    25
100
AcDbSpline
210
0.0
220
0.0
230
1.0
 70
     8
 71
     3
 72
    14
 73
    10
 74
     0
 42
0.00000001
 43
0.00000001
 40
0.0
 40
0.0
 40
0.0
 40
0.0
 40
0.1669732910766201
 40
0.3292393671751912
 40
0.4780643428590354
 40
0.5831555886245608
 40
0.6936208322497819
 40
0.8266861690052614
 40
1.0
 40
1.0
 40
1.0
 40
1.0
 10
36.40927662288891
 20
23.73346908029546
 30
0.0
 10
36.39153319706529
 20
23.72469762634335
 30
0.0
 10
36.35654655787275
 20
23.70740199822357
 30
0.0
 10
36.30170494635724
 20
23.68991381763506
 30
0.0
 10
36.2469435081
 20
23.6899642008994
 30
0.0
 10
36.19342271180613
 20
23.71322787249483
 30
0.0
 10
36.14357234772196
 20
23.75831667677586
 30
0.0
 10
36.09424448314456
 20
23.82941951330951
 30
0.0
 10
36.06797947995963
 20
23.88617485441312
 30
0.0
 10
36.05312178465189
 20
23.91828044980432
 30
0.0
  0
SPLINE
  5
2FD
330
1F
100
AcDbEntity
  8
0
  6
SLD-Solid
 62
     7
370
    25
100
AcDbSpline
210
0.0
220
0.0
230
1.0
 70
     8
 71
     3
 72
    10
 73
     6
 74
     0
 42
0.00000001
 43
0.00000001
 40
0.0
 40
0.0
 40
0.0
 40
0.0
 40
0.3127001080851385
 40
0.5852029065626303
 40
1.0
 40
1.0
 40
1.0
 40
1.0
 10
36.53405965194825
 20
23.71788167612974
 30
0.0
 10
36.51972724933152
 20
23.72537888320128
 30
0.0
 10
36.49290486119516
 20
23.73940953831116
 30
0.0
 10
36.44986394312058
 20
23.74450354019538
 30
0.0
 10
36.42455250394681
 20
23.73762212848901
 30
0.0
 10
36.40927662288891
 20
23.73346908029546
 30
0.0
  0
LINE
  5
2FE
330
1F
100
AcDbEntity
  8
0
  6
SLD-Solid
 62
     7
370
    25
100
AcDbLine
 10
36.8439798533
 20
23.4389114959
 30
0.0
 11
36.5340596519
 21
23.7178816761
 31
0.0
  0
LINE
  5
2FF
330
1F
100
AcDbEntity
  8
0
  6
SLD-Solid
 62
     7
370
    25
100
AcDbLine
 10
36.9183120388
 20
23.3743601378
 30
0.0
 11
36.8439798533
 21
23.4389114959
 31
0.0
  0
SPLINE
  5
300
330
1F
100
AcDbEntity
  8
0
  6
SLD-Solid
 62
     7
370
    25
100
AcDbSpline
210
0.0
220
0.0
230
1.0
 70
     8
 71
     3
 72
    13
 73
     9
 74
     0
 42
0.00000001
 43
0.00000001
 40
0.0
 40
0.0
 40
0.0
 40
0.0
 40
0.1709847685286761
 40
0.3326578081366873
 40
0.4968967494144849
 40
0.6391258064239841
 40
0.803570582091675
 40
0.9999999999999999
 40
0.9999999999999999
 40
0.9999999999999999
 40
0.9999999999999999
 10
37.26197549974519
 20
22.52864236914231
 30
0.0
 10
37.25783695827742
 20
22.57612859242607
 30
0.0
 10
37.24978525785171
 20
22.66851496748274
 30
0.0
 10
37.22296567039019
 20
22.81269418671437
 30
0.0
 10
37.17635734456198
 20
22.95270941414824
 30
0.0
 10
37.10974752970704
 20
23.09028683007992
 30
0.0
 10
37.02470226978297
 20
23.2305551280219
 30
0.0
 10
36.95581075714153
 20
23.3236740597568
 30
0.0
 10
36.9183120388406
 20
23.37436013784865
 30
0.0
  0
SPLINE
  5
301
330
1F
100
AcDbEntity
  8
0
  6
SLD-Solid
 62
     7
370
    25
100
AcDbSpline
210
0.0
220
0.0
230
1.0
 70
     8
 71
     3
 72
    11
 73
     7
 74
     0
 42
0.00000001
 43
0.00000001
 40
0.0
 40
0.0
 40
0.0
 40
0.0
 40
0.27792556219822
 40
0.5865010749870868
 40
0.8150864002480664
 40
1.0
 40
1.0
 40
1.0
 40
1.0
 10
37.22161714420385
 20
22.47137981768856
 30
0.0
 10
37.22778027179881
 20
22.47329264835684
 30
0.0
 10
37.24078620378697
 20
22.47732925885909
 30
0.0
 10
37.25212734296401
 20
22.49384641516669
 30
0.0
 10
37.26015595634448
 20
22.51055670351292
 30
0.0
 10
37.26141324827784
 20
22.52305377365501
 30
0.0
 10
37.26197549974519
 20
22.52864236914231
 30
0.0
  0
SPLINE
  5
302
330
1F
100
AcDbEntity
  8
0
  6
SLD-Solid
 62
     7
370
    25
100
AcDbSpline
210
0.0
220
0.0
230
1.0
 70
     8
 71
     3
 72
    13
 73
     9
 74
     0
 42
0.00000001
 43
0.00000001
 40
0.0
 40
0.0
 40
0.0
 40
0.0
 40
0.1722258029344772
 40
0.3651408598546104
 40
0.5673817509133606
 40
0.7237788946035344
 40
0.870227428619744
 40
1.0
 40
1.0
 40
1.0
 40
1.0
 10
36.64248382027734
 20
22.61161323233401
 30
0.0
 10
36.67787914963534
 20
22.58656440610849
 30
0.0
 10
36.75292180164456
 20
22.53345767186488
 30
0.0
 10
36.86935763069143
 20
22.4881865348543
 30
0.0
 10
36.97883933816846
 20
22.46036837395917
 30
0.0
 10
37.07516335860172
 20
22.45052694220221
 30
0.0
 10
37.15472583278603
 20
22.4517947819937
 30
0.0
 10
37.20023588143492
 20
22.46511962057694
 30
0.0
 10
37.22161714420385
 20
22.47137981768856
 30
0.0
  0
SPLINE
  5
303
330
1F
100
AcDbEntity
  8
0
  6
SLD-Solid
 62
     7
370
    25
100
AcDbSpline
210
0.0
220
0.0
230
1.0
 70
     8
 71
     3
 72
    17
 73
    13
 74
     0
 42
0.00000001
 43
0.00000001
 40
0.0
 40
0.0
 40
0.0
 40
0.0
 40
0.0678705028656887
 40
0.1510805487614269
 40
0.2455286833004882
 40
0.3480591354729948
 40
0.4570909829180668
 40
0.5477261663855203
 40
0.6442895922105873
 40
0.7494053384969325
 40
0.8666049980989335
 40
1.0
 40
1.0
 40
1.0
 40
1.0
 10
35.89331391153516
 20
24.066968124353
 30
0.0
 10
35.89769762578298
 20
24.03177057949473
 30
0.0
 10
35.90745582597616
 20
23.95342042489569
 30
0.0
 10
35.92489106835639
 20
23.8254344832434
 30
0.0
 10
35.95348322657972
 20
23.67630706523142
 30
0.0
 10
35.99818978045354
 20
23.5102542052441
 30
0.0
 10
36.0598978491305
 20
23.34498417276948
 30
0.0
 10
36.13772077932254
 20
23.18644760690582
 30
0.0
 10
36.22958544862428
 20
23.03733970309095
 30
0.0
 10
36.34414553952963
 20
22.88851864015578
 30
0.0
 10
36.4835075448021
 20
22.74102065789729
 30
0.0
 10
36.58725670717944
 20
22.65656835853713
 30
0.0
 10
36.64248382027734
 20
22.61161323233401
 30
0.0
  0
LINE
  5
304
330
1F
100
AcDbEntity
  8
0
  6
SLD-Solid
 62
     7
370
    25
100
AcDbLine
 10
37.2619754997
 20
22.5286423691
 30
0.0
 11
37.3560126352
 21
22.5829288519
 31
0.0
  0
LINE
  5
305
330
1F
100
AcDbEntity
  8
0
  6
SLD-Solid
 62
     7
370
    25
100
AcDbLine
 10
36.9183120388
 20
23.3743601378
 30
0.0
 11
37.476926396
 21
23.696841342
 31
0.0
  0
LINE
  5
306
330
1F
100
AcDbEntity
  8
0
  6
SLD-Solid
 62
     7
370
    25
100
AcDbLine
 10
37.5475229049
 20
23.6119552049
 30
0.0
 11
37.5277522727
 21
23.6396442235
 31
0.0
  0
LINE
  5
307
330
1F
100
AcDbEntity
  8
0
  6
SLD-Solid
 62
     7
370
    25
100
AcDbLine
 10
36.8439798533
 20
23.4389114959
 30
0.0
 11
37.4058668694
 21
23.7632819659
 31
0.0
  0
LINE
  5
308
330
1F
100
AcDbEntity
  8
0
  6
SLD-Solid
 62
     7
370
    25
100
AcDbLine
 10
36.5340596519
 20
23.7178816761
 30
0.0
 11
37.0997450769
 21
24.0444449209
 31
0.0
  0
LINE
  5
309
330
1F
100
AcDbEntity
  8
0
  6
SLD-Solid
 62
     7
370
    25
100
AcDbLine
 10
37.3962178751
 20
23.7775792259
 30
0.0
 11
37.0997450769
 21
24.0444449209
 31
0.0
  0
LINE
  5
30A
330
1F
100
AcDbEntity
  8
0
  6
SLD-Solid
 62
     7
370
    25
100
AcDbLine
 10
36.4092766229
 20
23.7334690803
 30
0.0
 11
36.9749620478
 21
24.060032325
 31
0.0
  0
SPLINE
  5
30B
330
1F
100
AcDbEntity
  8
0
  6
SLD-Solid
 62
     7
370
    25
100
AcDbSpline
210
0.0
220
0.0
230
1.0
 70
     8
 71
     3
 72
    10
 73
     6
 74
     0
 42
0.00000001
 43
0.00000001
 40
0.0
 40
0.0
 40
0.0
 40
0.0
 40
0.3127001080851385
 40
0.5852029065626303
 40
1.0
 40
1.0
 40
1.0
 40
1.0
 10
37.09974507689749
 20
24.04444492085882
 30
0.0
 10
37.08541267428075
 20
24.05194212793036
 30
0.0
 10
37.05859028614439
 20
24.06597278304024
 30
0.0
 10
37.01554936806982
 20
24.07106678492446
 30
0.0
 10
36.99023792889605
 20
24.06418537321809
 30
0.0
 10
36.97496204783815
 20
24.06003232502454
 30
0.0
  0
LINE
  5
30C
330
1F
100
AcDbEntity
  8
0
  6
SLD-Solid
 62
     7
370
    25
100
AcDbLine
 10
36.0531217847
 20
23.9182804498
 30
0.0
 11
36.6188072096
 21
24.2448436945
 31
0.0
  0
SPLINE
  5
30D
330
1F
100
AcDbEntity
  8
0
  6
SLD-Solid
 62
     7
370
    25
100
AcDbSpline
210
0.0
220
0.0
230
1.0
 70
     8
 71
     3
 72
    14
 73
    10
 74
     0
 42
0.00000001
 43
0.00000001
 40
0.0
 40
0.0
 40
0.0
 40
0.0
 40
0.1669732910766201
 40
0.3292393671751912
 40
0.4780643428590354
 40
0.5831555886245608
 40
0.6936208322497819
 40
0.8266861690052614
 40
1.0
 40
1.0
 40
1.0
 40
1.0
 10
36.97496204783815
 20
24.06003232502454
 30
0.0
 10
36.95721862201454
 20
24.05126087107244
 30
0.0
 10
36.92223198282199
 20
24.03396524295266
 30
0.0
 10
36.86739037130648
 20
24.01647706236415
 30
0.0
 10
36.81262893304925
 20
24.01652744562848
 30
0.0
 10
36.75910813675537
 20
24.03979111722391
 30
0.0
 10
36.7092577726712
 20
24.08487992150495
 30
0.0
 10
36.65992990809381
 20
24.15598275803859
 30
0.0
 10
36.63366490490887
 20
24.2127380991422
 30
0.0
 10
36.61880720960113
 20
24.2448436945334
 30
0.0
  0
LINE
  5
30E
330
1F
100
AcDbEntity
  8
0
  6
SLD-Solid
 62
     7
370
    25
100
AcDbLine
 10
36.0457555744
 20
23.9973647513
 30
0.0
 11
36.6114409993
 21
24.323927996
 31
0.0
  0
LINE
  5
30F
330
1F
100
AcDbEntity
  8
0
  6
SLD-Solid
 62
     7
370
    25
100
AcDbLine
 10
36.6188072096
 20
24.2448436945
 30
0.0
 11
36.6114409993
 21
24.323927996
 31
0.0
  0
LINE
  5
310
330
1F
100
AcDbEntity
  8
0
  6
SLD-Solid
 62
     7
370
    25
100
AcDbLine
 10
35.8933139115
 20
24.0669681244
 30
0.0
 11
36.4589993365
 21
24.3935313691
 31
0.0
  0
LINE
  5
311
330
1F
100
AcDbEntity
  8
0
  6
SLD-Solid
 62
     7
370
    25
100
AcDbLine
 10
36.6114409993
 20
24.323927996
 30
0.0
 11
36.4589993365
 21
24.3935313691
 31
0.0
  0
ARC
  5
312
330
1F
100
AcDbEntity
  8
0
  6
SLD-Solid
 62
     7
370
    25
100
AcDbCircle
 10
30.6103418833
 20
27.3919067771
 30
0.0
 40
0.2305207211358263
100
AcDbArc
 50
122.60547834
 51
177.3945215143
  0
ARC
  5
313
330
1F
100
AcDbEntity
  8
0
  6
SLD-Solid
 62
     7
370
    25
100
AcDbCircle
 10
30.659839358
 20
27.3633324931
 30
0.0
 40
0.2305207211357757
100
AcDbArc
 50
122.60547834
 51
177.3945215144
  0
LINE
  5
314
330
1F
100
AcDbEntity
  8
0
  6
SLD-Solid
 62
     7
370
    25
100
AcDbLine
 10
30.8962474183
 20
27.7657074197
 30
0.0
 11
30.5356229599
 21
27.5575233511
 31
0.0
  0
LINE
  5
315
330
1F
100
AcDbEntity
  8
0
  6
SLD-Solid
 62
     7
370
    25
100
AcDbLine
 10
30.5356229599
 20
26.5463076688
 30
0.0
 11
30.8962474183
 21
26.7544917374
 31
0.0
  0
ARC
  5
316
330
1F
100
AcDbEntity
  8
0
  6
SLD-Solid
 62
     7
370
    25
100
AcDbCircle
 10
30.4942180979
 20
26.5970691027
 30
0.0
 40
0.0655063796142708
100
AcDbArc
 50
170.7859630095
 51
309.2032852357
  0
LINE
  5
317
330
1F
100
AcDbEntity
  8
0
  6
SLD-Solid
 62
     7
370
    25
100
AcDbLine
 10
30.4295569428
 20
27.373811621
 30
0.0
 11
30.4295569428
 21
26.6075581822
 31
0.0
  0
LINE
  5
318
330
1F
100
AcDbEntity
  8
0
  6
SLD-Solid
 62
     7
370
    25
100
AcDbLine
 10
30.3800594681
 20
27.4023859049
 30
0.0
 11
30.3800594681
 21
26.6361324661
 31
0.0
  0
LINE
  5
319
330
1F
100
AcDbEntity
  8
0
  6
SLD-Solid
 62
     7
370
    25
100
AcDbLine
 10
30.8467499437
 20
27.7942817036
 30
0.0
 11
30.4861254853
 21
27.5860976351
 31
0.0
  0
ARC
  5
31A
330
1F
100
AcDbEntity
  8
0
  6
SLD-Solid
 62
     7
370
    25
100
AcDbCircle
 10
30.8745576346
 20
27.8228559875
 30
0.0
 40
0.0611261443568001
100
AcDbArc
 50
290.7834207995
 51
69.2165792005
  0
ARC
  5
31B
330
1F
100
AcDbEntity
  8
0
  6
SLD-Solid
 62
     7
370
    25
100
AcDbCircle
 10
30.8359050518
 20
27.8228559875
 30
0.0
 40
0.0305630721784002
100
AcDbArc
 50
290.7834207995
 51
69.2165792005
  0
ARC
  5
31C
330
1F
100
AcDbEntity
  8
0
  6
SLD-Solid
 62
     7
370
    25
100
AcDbCircle
 10
30.8671884802
 20
26.8186271979
 30
0.0
 40
0.0704114989891274
100
AcDbArc
 50
294.3746582936
 51
354.3052007488
  0
LINE
  5
31D
330
1F
100
AcDbEntity
  8
0
  6
SLD-Solid
 62
     7
370
    25
100
AcDbLine
 10
30.8962474183
 20
27.8800045553
 30
0.0
 11
29.1772520421
 21
28.8723594632
 31
0.0
  0
LINE
  5
31E
330
1F
100
AcDbEntity
  8
0
  6
SLD-Solid
 62
     7
370
    25
100
AcDbLine
 10
30.8467499437
 20
27.8514302714
 30
0.0
 11
29.1277545674
 21
28.8437851793
 31
0.0
  0
ARC
  5
31F
330
1F
100
AcDbEntity
  8
0
  6
SLD-Solid
 62
     7
370
    25
100
AcDbCircle
 10
30.4535597534
 20
26.6280194556
 30
0.0
 40
0.0739466895137563
100
AcDbArc
 50
173.7011524877
 51
234.9866671189
  0
ARC
  5
320
330
1F
100
AcDbEntity
  8
0
  6
SLD-Solid
 62
     7
370
    25
100
AcDbCircle
 10
28.7216408795
 20
28.4005898472
 30
0.0
 40
0.230520721135822
100
AcDbArc
 50
122.60547834
 51
177.3945215143
  0
LINE
  5
321
330
1F
100
AcDbEntity
  8
0
  6
SLD-Solid
 62
     7
370
    25
100
AcDbLine
 10
28.5974244815
 20
28.5947807052
 30
0.0
 11
29.028759618
 21
28.8437851793
 31
0.0
  0
LINE
  5
322
330
1F
100
AcDbEntity
  8
0
  6
SLD-Solid
 62
     7
370
    25
100
AcDbLine
 10
28.9643570529
 20
27.7953906875
 30
0.0
 11
28.5974244815
 21
27.5835650229
 31
0.0
  0
ARC
  5
323
330
1F
100
AcDbEntity
  8
0
  6
SLD-Solid
 62
     7
370
    25
100
AcDbCircle
 10
28.5560196194
 20
27.6343264567
 30
0.0
 40
0.0655063796142743
100
AcDbArc
 50
170.7859630095
 51
309.2032852357
  0
LINE
  5
324
330
1F
100
AcDbEntity
  8
0
  6
SLD-Solid
 62
     7
370
    25
100
AcDbLine
 10
28.4913584643
 20
28.411068975
 30
0.0
 11
28.4913584643
 21
27.6448155362
 31
0.0
  0
ARC
  5
325
330
1F
100
AcDbEntity
  8
0
  6
SLD-Solid
 62
     7
370
    25
100
AcDbCircle
 10
28.6721434048
 20
28.4291641311
 30
0.0
 40
0.2305207211358049
100
AcDbArc
 50
122.60547834
 51
177.3945215143
  0
LINE
  5
326
330
1F
100
AcDbEntity
  8
0
  6
SLD-Solid
 62
     7
370
    25
100
AcDbLine
 10
28.4418609896
 20
28.4396432589
 30
0.0
 11
28.4418609896
 21
27.6733898202
 31
0.0
  0
LINE
  5
327
330
1F
100
AcDbEntity
  8
0
  6
SLD-Solid
 62
     7
370
    25
100
AcDbLine
 10
28.5479270068
 20
28.6233549891
 30
0.0
 11
28.9792621433
 21
28.8723594632
 31
0.0
  0
ARC
  5
328
330
1F
100
AcDbEntity
  8
0
  6
SLD-Solid
 62
     7
370
    25
100
AcDbCircle
 10
29.0782570927
 20
28.7482554033
 30
0.0
 40
0.1075915335538381
100
AcDbArc
 50
62.6096722366
 51
117.3903277634
  0
ARC
  5
329
330
1F
100
AcDbEntity
  8
0
  6
SLD-Solid
 62
     7
370
    25
100
AcDbCircle
 10
29.0782570927
 20
28.6812999113
 30
0.0
 40
0.2151830671076809
100
AcDbArc
 50
62.6096722366
 51
117.3903277634
  0
ARC
  5
32A
330
1F
100
AcDbEntity
  8
0
  6
SLD-Solid
 62
     7
370
    25
100
AcDbCircle
 10
28.515361275
 20
27.6652768096
 30
0.0
 40
0.0739466895137563
100
AcDbArc
 50
173.7011524877
 51
234.9866671189
  0
ARC
  5
32B
330
1F
100
AcDbEntity
  8
0
  6
SLD-Solid
 62
     7
370
    25
100
AcDbCircle
 10
44.6053992965
 20
19.3127321025
 30
0.0
 40
0.2305207211357593
100
AcDbArc
 50
122.60547834
 51
177.3945215144
  0
LINE
  5
32C
330
1F
100
AcDbEntity
  8
0
  6
SLD-Solid
 62
     7
370
    25
100
AcDbLine
 10
44.8418073569
 20
19.715107029
 30
0.0
 11
44.4811828985
 21
19.5069229605
 31
0.0
  0
LINE
  5
32D
330
1F
100
AcDbEntity
  8
0
  6
SLD-Solid
 62
     7
370
    25
100
AcDbLine
 10
44.4811828985
 20
18.4957072782
 30
0.0
 11
44.8418073569
 21
18.7038913467
 31
0.0
  0
ARC
  5
32E
330
1F
100
AcDbEntity
  8
0
  6
SLD-Solid
 62
     7
370
    25
100
AcDbCircle
 10
44.4397780364
 20
18.546468712
 30
0.0
 40
0.0655063796142708
100
AcDbArc
 50
170.7859630095
 51
309.2032852357
  0
LINE
  5
32F
330
1F
100
AcDbEntity
  8
0
  6
SLD-Solid
 62
     7
370
    25
100
AcDbLine
 10
44.3751168813
 20
19.3232112303
 30
0.0
 11
44.3751168813
 21
18.5569577916
 31
0.0
  0
ARC
  5
330
330
1F
100
AcDbEntity
  8
0
  6
SLD-Solid
 62
     7
370
    25
100
AcDbCircle
 10
44.5559018218
 20
19.3413063864
 30
0.0
 40
0.2305207211358113
100
AcDbArc
 50
122.60547834
 51
177.3945215143
  0
LINE
  5
331
330
1F
100
AcDbEntity
  8
0
  6
SLD-Solid
 62
     7
370
    25
100
AcDbLine
 10
44.3256194066
 20
19.3517855142
 30
0.0
 11
44.3256194066
 21
18.5855320755
 31
0.0
  0
LINE
  5
332
330
1F
100
AcDbEntity
  8
0
  6
SLD-Solid
 62
     7
370
    25
100
AcDbLine
 10
44.7923098822
 20
19.7436813129
 30
0.0
 11
44.4316854238
 21
19.5354972444
 31
0.0
  0
ARC
  5
333
330
1F
100
AcDbEntity
  8
0
  6
SLD-Solid
 62
     7
370
    25
100
AcDbCircle
 10
44.8201175731
 20
19.7722555968
 30
0.0
 40
0.0611261443567963
100
AcDbArc
 50
290.7834207995
 51
69.2165792005
  0
ARC
  5
334
330
1F
100
AcDbEntity
  8
0
  6
SLD-Solid
 62
     7
370
    25
100
AcDbCircle
 10
44.7814649903
 20
19.7722555968
 30
0.0
 40
0.0305630721784002
100
AcDbArc
 50
290.7834207995
 51
69.2165792005
  0
ARC
  5
335
330
1F
100
AcDbEntity
  8
0
  6
SLD-Solid
 62
     7
370
    25
100
AcDbCircle
 10
44.8127484188
 20
18.7680268073
 30
0.0
 40
0.0704114989891801
100
AcDbArc
 50
294.3746582936
 51
354.3052007488
  0
LINE
  5
336
330
1F
100
AcDbEntity
  8
0
  6
SLD-Solid
 62
     7
370
    25
100
AcDbLine
 10
44.8418073569
 20
19.8294041646
 30
0.0
 11
43.1228119806
 21
20.8217590725
 31
0.0
  0
LINE
  5
337
330
1F
100
AcDbEntity
  8
0
  6
SLD-Solid
 62
     7
370
    25
100
AcDbLine
 10
44.7923098822
 20
19.8008298807
 30
0.0
 11
43.0733145059
 21
20.7931847886
 31
0.0
  0
ARC
  5
338
330
1F
100
AcDbEntity
  8
0
  6
SLD-Solid
 62
     7
370
    25
100
AcDbCircle
 10
44.399119692
 20
18.5774190649
 30
0.0
 40
0.0739466895137712
100
AcDbArc
 50
173.7011524878
 51
234.9866671189
  0
ARC
  5
339
330
1F
100
AcDbEntity
  8
0
  6
SLD-Solid
 62
     7
370
    25
100
AcDbCircle
 10
42.6672008181
 20
20.3499894565
 30
0.0
 40
0.2305207211358523
100
AcDbArc
 50
122.60547834
 51
177.3945215143
  0
LINE
  5
33A
330
1F
100
AcDbEntity
  8
0
  6
SLD-Solid
 62
     7
370
    25
100
AcDbLine
 10
42.54298442
 20
20.5441803145
 30
0.0
 11
42.9743195566
 21
20.7931847886
 31
0.0
  0
LINE
  5
33B
330
1F
100
AcDbEntity
  8
0
  6
SLD-Solid
 62
     7
370
    25
100
AcDbLine
 10
42.9099169914
 20
19.7447902968
 30
0.0
 11
42.54298442
 21
19.5329646322
 31
0.0
  0
ARC
  5
33C
330
1F
100
AcDbEntity
  8
0
  6
SLD-Solid
 62
     7
370
    25
100
AcDbCircle
 10
42.501579558
 20
19.583726066
 30
0.0
 40
0.0655063796142767
100
AcDbArc
 50
170.7859630095
 51
309.2032852357
  0
LINE
  5
33D
330
1F
100
AcDbEntity
  8
0
  6
SLD-Solid
 62
     7
370
    25
100
AcDbLine
 10
42.4369184029
 20
20.3604685843
 30
0.0
 11
42.4369184029
 21
19.5942151456
 31
0.0
  0
ARC
  5
33E
330
1F
100
AcDbEntity
  8
0
  6
SLD-Solid
 62
     7
370
    25
100
AcDbCircle
 10
42.6177033434
 20
20.3785637404
 30
0.0
 40
0.2305207211358092
100
AcDbArc
 50
122.60547834
 51
177.3945215143
  0
LINE
  5
33F
330
1F
100
AcDbEntity
  8
0
  6
SLD-Solid
 62
     7
370
    25
100
AcDbLine
 10
42.3874209282
 20
20.3890428682
 30
0.0
 11
42.3874209282
 21
19.6227894295
 31
0.0
  0
LINE
  5
340
330
1F
100
AcDbEntity
  8
0
  6
SLD-Solid
 62
     7
370
    25
100
AcDbLine
 10
42.4934869454
 20
20.5727545984
 30
0.0
 11
42.9248220819
 21
20.8217590725
 31
0.0
  0
ARC
  5
341
330
1F
100
AcDbEntity
  8
0
  6
SLD-Solid
 62
     7
370
    25
100
AcDbCircle
 10
43.0238170312
 20
20.6976550126
 30
0.0
 40
0.1075915335538336
100
AcDbArc
 50
62.6096722366
 51
117.3903277634
  0
ARC
  5
342
330
1F
100
AcDbEntity
  8
0
  6
SLD-Solid
 62
     7
370
    25
100
AcDbCircle
 10
43.0238170312
 20
20.6306995206
 30
0.0
 40
0.2151830671076603
100
AcDbArc
 50
62.6096722366
 51
117.3903277634
  0
ARC
  5
343
330
1F
100
AcDbEntity
  8
0
  6
SLD-Solid
 62
     7
370
    25
100
AcDbCircle
 10
42.4609212135
 20
19.6146764189
 30
0.0
 40
0.0739466894998262
100
AcDbArc
 50
173.7011524813
 51
234.9866671253
  0
ARC
  5
344
330
1F
100
AcDbEntity
  8
0
  6
SLD-Solid
 62
     7
370
    25
100
AcDbCircle
 10
23.637561914
 20
31.4172069724
 30
0.0
 40
0.2305207211358024
100
AcDbArc
 50
122.60547834
 51
177.3945215143
  0
ARC
  5
345
330
1F
100
AcDbEntity
  8
0
  6
SLD-Solid
 62
     7
370
    25
100
AcDbCircle
 10
23.6870593887
 20
31.3886326885
 30
0.0
 40
0.2305207211357702
100
AcDbArc
 50
122.60547834
 51
177.3945215144
  0
LINE
  5
346
330
1F
100
AcDbEntity
  8
0
  6
SLD-Solid
 62
     7
370
    25
100
AcDbLine
 10
23.9234674491
 20
31.791007615
 30
0.0
 11
23.5628429907
 21
31.5828235465
 31
0.0
  0
LINE
  5
347
330
1F
100
AcDbEntity
  8
0
  6
SLD-Solid
 62
     7
370
    25
100
AcDbLine
 10
23.5628429907
 20
30.5716078642
 30
0.0
 11
23.9234674491
 21
30.7797919327
 31
0.0
  0
ARC
  5
348
330
1F
100
AcDbEntity
  8
0
  6
SLD-Solid
 62
     7
370
    25
100
AcDbCircle
 10
23.5214381286
 20
30.622369298
 30
0.0
 40
0.0655063796142725
100
AcDbArc
 50
170.7859630095
 51
309.2032852357
  0
LINE
  5
349
330
1F
100
AcDbEntity
  8
0
  6
SLD-Solid
 62
     7
370
    25
100
AcDbLine
 10
23.4567769735
 20
31.3991118163
 30
0.0
 11
23.4567769735
 21
30.6328583776
 31
0.0
  0
LINE
  5
34A
330
1F
100
AcDbEntity
  8
0
  6
SLD-Solid
 62
     7
370
    25
100
AcDbLine
 10
23.4072794988
 20
31.4276861002
 30
0.0
 11
23.4072794988
 21
30.6614326615
 31
0.0
  0
LINE
  5
34B
330
1F
100
AcDbEntity
  8
0
  6
SLD-Solid
 62
     7
370
    25
100
AcDbLine
 10
23.8739699744
 20
31.8195818989
 30
0.0
 11
23.513345516
 21
31.6113978304
 31
0.0
  0
ARC
  5
34C
330
1F
100
AcDbEntity
  8
0
  6
SLD-Solid
 62
     7
370
    25
100
AcDbCircle
 10
23.8944085109
 20
30.8439273933
 30
0.0
 40
0.0704114989890951
100
AcDbArc
 50
294.3746582936
 51
354.3052007488
  0
ARC
  5
34D
330
1F
100
AcDbEntity
  8
0
  6
SLD-Solid
 62
     7
370
    25
100
AcDbCircle
 10
23.9017776653
 20
31.8481561828
 30
0.0
 40
0.0611261443567997
100
AcDbArc
 50
290.7834207995
 51
69.2165792005
  0
ARC
  5
34E
330
1F
100
AcDbEntity
  8
0
  6
SLD-Solid
 62
     7
370
    25
100
AcDbCircle
 10
23.8631250825
 20
31.8481561828
 30
0.0
 40
0.0305630721784007
100
AcDbArc
 50
290.7834207995
 51
69.2165792005
  0
LINE
  5
34F
330
1F
100
AcDbEntity
  8
0
  6
SLD-Solid
 62
     7
370
    25
100
AcDbLine
 10
23.9234674491
 20
31.9053047507
 30
0.0
 11
22.2044720728
 21
32.8976596585
 31
0.0
  0
LINE
  5
350
330
1F
100
AcDbEntity
  8
0
  6
SLD-Solid
 62
     7
370
    25
100
AcDbLine
 10
23.8739699744
 20
31.8767304667
 30
0.0
 11
22.1549745981
 21
32.8690853746
 31
0.0
  0
ARC
  5
351
330
1F
100
AcDbEntity
  8
0
  6
SLD-Solid
 62
     7
370
    25
100
AcDbCircle
 10
23.4807797842
 20
30.6533196509
 30
0.0
 40
0.073946689505714
100
AcDbArc
 50
173.7011524841
 51
234.9866671226
  0
ARC
  5
352
330
1F
100
AcDbEntity
  8
0
  6
SLD-Solid
 62
     7
370
    25
100
AcDbCircle
 10
21.7488609102
 20
32.4258900425
 30
0.0
 40
0.2305207211358064
100
AcDbArc
 50
122.60547834
 51
177.3945215143
  0
ARC
  5
353
330
1F
100
AcDbEntity
  8
0
  6
SLD-Solid
 62
     7
370
    25
100
AcDbCircle
 10
21.6993634355
 20
32.4544643264
 30
0.0
 40
0.230520721135828
100
AcDbArc
 50
122.60547834
 51
177.3945215143
  0
LINE
  5
354
330
1F
100
AcDbEntity
  8
0
  6
SLD-Solid
 62
     7
370
    25
100
AcDbLine
 10
21.6246445122
 20
32.6200809005
 30
0.0
 11
22.0559796487
 21
32.8690853746
 31
0.0
  0
LINE
  5
355
330
1F
100
AcDbEntity
  8
0
  6
SLD-Solid
 62
     7
370
    25
100
AcDbLine
 10
21.9915770836
 20
31.8206908828
 30
0.0
 11
21.6246445122
 21
31.6088652182
 31
0.0
  0
ARC
  5
356
330
1F
100
AcDbEntity
  8
0
  6
SLD-Solid
 62
     7
370
    25
100
AcDbCircle
 10
21.5832396501
 20
31.6596266521
 30
0.0
 40
0.0655063796142773
100
AcDbArc
 50
170.7859630095
 51
309.2032852357
  0
LINE
  5
357
330
1F
100
AcDbEntity
  8
0
  6
SLD-Solid
 62
     7
370
    25
100
AcDbLine
 10
21.518578495
 20
32.4363691703
 30
0.0
 11
21.518578495
 21
31.6701157316
 31
0.0
  0
LINE
  5
358
330
1F
100
AcDbEntity
  8
0
  6
SLD-Solid
 62
     7
370
    25
100
AcDbLine
 10
21.4690810203
 20
32.4649434542
 30
0.0
 11
21.4690810203
 21
31.6986900155
 31
0.0
  0
LINE
  5
359
330
1F
100
AcDbEntity
  8
0
  6
SLD-Solid
 62
     7
370
    25
100
AcDbLine
 10
21.5751470375
 20
32.6486551844
 30
0.0
 11
22.006482174
 21
32.8976596585
 31
0.0
  0
ARC
  5
35A
330
1F
100
AcDbEntity
  8
0
  6
SLD-Solid
 62
     7
370
    25
100
AcDbCircle
 10
22.1054771234
 20
32.7735555987
 30
0.0
 40
0.1075915335538444
100
AcDbArc
 50
62.6096722366
 51
117.3903277634
  0
ARC
  5
35B
330
1F
100
AcDbEntity
  8
0
  6
SLD-Solid
 62
     7
370
    25
100
AcDbCircle
 10
22.1054771234
 20
32.7066001066
 30
0.0
 40
0.2151830671076194
100
AcDbArc
 50
62.6096722366
 51
117.3903277634
  0
ARC
  5
35C
330
1F
100
AcDbEntity
  8
0
  6
SLD-Solid
 62
     7
370
    25
100
AcDbCircle
 10
21.5425813057
 20
31.6905770049
 30
0.0
 40
0.0739466894918211
100
AcDbArc
 50
173.7011524777
 51
234.986667129
  0
ARC
  5
35D
330
1F
100
AcDbEntity
  8
0
  6
SLD-Solid
 62
     7
370
    25
100
AcDbCircle
 10
37.5831218526
 20
23.3666065817
 30
0.0
 40
0.2305207211358375
100
AcDbArc
 50
122.60547834
 51
177.3945215143
  0
ARC
  5
35E
330
1F
100
AcDbEntity
  8
0
  6
SLD-Solid
 62
     7
370
    25
100
AcDbCircle
 10
37.6326193272
 20
23.3380322978
 30
0.0
 40
0.2305207211358301
100
AcDbArc
 50
122.60547834
 51
177.3945215143
  0
LINE
  5
35F
330
1F
100
AcDbEntity
  8
0
  6
SLD-Solid
 62
     7
370
    25
100
AcDbLine
 10
37.8690273876
 20
23.7404072243
 30
0.0
 11
37.5084029292
 21
23.5322231558
 31
0.0
  0
LINE
  5
360
330
1F
100
AcDbEntity
  8
0
  6
SLD-Solid
 62
     7
370
    25
100
AcDbLine
 10
37.5084029292
 20
22.5210074735
 30
0.0
 11
37.8690273876
 21
22.729191542
 31
0.0
  0
ARC
  5
361
330
1F
100
AcDbEntity
  8
0
  6
SLD-Solid
 62
     7
370
    25
100
AcDbCircle
 10
37.4669980672
 20
22.5717689074
 30
0.0
 40
0.065506379614278
100
AcDbArc
 50
170.7859630095
 51
309.2032852357
  0
LINE
  5
362
330
1F
100
AcDbEntity
  8
0
  6
SLD-Solid
 62
     7
370
    25
100
AcDbLine
 10
37.402336912
 20
23.3485114256
 30
0.0
 11
37.402336912
 21
22.5822579869
 31
0.0
  0
LINE
  5
363
330
1F
100
AcDbEntity
  8
0
  6
SLD-Solid
 62
     7
370
    25
100
AcDbLine
 10
37.3528394374
 20
23.3770857096
 30
0.0
 11
37.3528394374
 21
22.6108322708
 31
0.0
  0
LINE
  5
364
330
1F
100
AcDbEntity
  8
0
  6
SLD-Solid
 62
     7
370
    25
100
AcDbLine
 10
37.8195299129
 20
23.7689815082
 30
0.0
 11
37.4589054545
 21
23.5607974397
 31
0.0
  0
ARC
  5
365
330
1F
100
AcDbEntity
  8
0
  6
SLD-Solid
 62
     7
370
    25
100
AcDbCircle
 10
37.8473376039
 20
23.7975557922
 30
0.0
 40
0.0611261443567997
100
AcDbArc
 50
290.7834207995
 51
69.2165792005
  0
ARC
  5
366
330
1F
100
AcDbEntity
  8
0
  6
SLD-Solid
 62
     7
370
    25
100
AcDbCircle
 10
37.8086850211
 20
23.7975557922
 30
0.0
 40
0.0305630721783944
100
AcDbArc
 50
290.7834207994
 51
69.2165792006
  0
ARC
  5
367
330
1F
100
AcDbEntity
  8
0
  6
SLD-Solid
 62
     7
370
    25
100
AcDbCircle
 10
37.8399684495
 20
22.7933270026
 30
0.0
 40
0.0704114989891154
100
AcDbArc
 50
294.3746582936
 51
354.3052007488
  0
LINE
  5
368
330
1F
100
AcDbEntity
  8
0
  6
SLD-Solid
 62
     7
370
    25
100
AcDbLine
 10
37.8195299129
 20
23.8261300761
 30
0.0
 11
36.1005345366
 21
24.8184849839
 31
0.0
  0
LINE
  5
369
330
1F
100
AcDbEntity
  8
0
  6
SLD-Solid
 62
     7
370
    25
100
AcDbLine
 10
37.8690273876
 20
23.85470436
 30
0.0
 11
36.1500320113
 21
24.8470592678
 31
0.0
  0
ARC
  5
36A
330
1F
100
AcDbEntity
  8
0
  6
SLD-Solid
 62
     7
370
    25
100
AcDbCircle
 10
37.4263397227
 20
22.6027192602
 30
0.0
 40
0.0739466895137567
100
AcDbArc
 50
173.7011524877
 51
234.9866671189
  0
ARC
  5
36B
330
1F
100
AcDbEntity
  8
0
  6
SLD-Solid
 62
     7
370
    25
100
AcDbCircle
 10
35.6944208488
 20
24.3752896518
 30
0.0
 40
0.2305207211358182
100
AcDbArc
 50
122.60547834
 51
177.3945215143
  0
LINE
  5
36C
330
1F
100
AcDbEntity
  8
0
  6
SLD-Solid
 62
     7
370
    25
100
AcDbLine
 10
35.5702044508
 20
24.5694805098
 30
0.0
 11
36.0015395873
 21
24.8184849839
 31
0.0
  0
LINE
  5
36D
330
1F
100
AcDbEntity
  8
0
  6
SLD-Solid
 62
     7
370
    25
100
AcDbLine
 10
35.9371370221
 20
23.7700904921
 30
0.0
 11
35.5702044508
 21
23.5582648275
 31
0.0
  0
ARC
  5
36E
330
1F
100
AcDbEntity
  8
0
  6
SLD-Solid
 62
     7
370
    25
100
AcDbCircle
 10
35.5287995887
 20
23.6090262614
 30
0.0
 40
0.0655063796142767
100
AcDbArc
 50
170.7859630095
 51
309.2032852357
  0
LINE
  5
36F
330
1F
100
AcDbEntity
  8
0
  6
SLD-Solid
 62
     7
370
    25
100
AcDbLine
 10
35.4641384336
 20
24.3857687797
 30
0.0
 11
35.4641384336
 21
23.6195153409
 31
0.0
  0
ARC
  5
370
330
1F
100
AcDbEntity
  8
0
  6
SLD-Solid
 62
     7
370
    25
100
AcDbCircle
 10
35.6449233741
 20
24.4038639357
 30
0.0
 40
0.2305207211358228
100
AcDbArc
 50
122.60547834
 51
177.3945215143
  0
LINE
  5
371
330
1F
100
AcDbEntity
  8
0
  6
SLD-Solid
 62
     7
370
    25
100
AcDbLine
 10
35.4146409589
 20
24.4143430636
 30
0.0
 11
35.4146409589
 21
23.6480896248
 31
0.0
  0
LINE
  5
372
330
1F
100
AcDbEntity
  8
0
  6
SLD-Solid
 62
     7
370
    25
100
AcDbLine
 10
35.5207069761
 20
24.5980547937
 30
0.0
 11
35.9520421126
 21
24.8470592678
 31
0.0
  0
ARC
  5
373
330
1F
100
AcDbEntity
  8
0
  6
SLD-Solid
 62
     7
370
    25
100
AcDbCircle
 10
36.051037062
 20
24.722955208
 30
0.0
 40
0.107591533553846
100
AcDbArc
 50
62.6096722366
 51
117.3903277634
  0
ARC
  5
374
330
1F
100
AcDbEntity
  8
0
  6
SLD-Solid
 62
     7
370
    25
100
AcDbCircle
 10
36.051037062
 20
24.6559997159
 30
0.0
 40
0.215183067107651
100
AcDbArc
 50
62.6096722366
 51
117.3903277634
  0
ARC
  5
375
330
1F
100
AcDbEntity
  8
0
  6
SLD-Solid
 62
     7
370
    25
100
AcDbCircle
 10
35.4881412443
 20
23.6399766142
 30
0.0
 40
0.0739466895137712
100
AcDbArc
 50
173.7011524877
 51
234.9866671189
  0
LWPOLYLINE
  5
376
330
1F
100
AcDbEntity
  8
0
  6
SLD-Solid
 62
     7
370
    25
100
AcDbPolyline
 90
       11
 70
   128
 43
0.0
 10
30.5731436375
 20
27.7352538494
 10
30.5679703607
 20
27.768778846
 10
30.5530705419
 20
27.8033081327
 10
30.5307125433
 20
27.8335849387
 10
30.5043001677
 20
27.8549998948
 10
30.4778544598
 20
27.8642927679
 10
30.4554015388
 20
27.8600488024
 10
30.4403596585
 20
27.8429141036
 10
30.4350188087
 20
27.8154972741
 10
30.4401920855
 20
27.7819722775
 10
30.4420783106
 20
27.7760425651
  0
LWPOLYLINE
  5
377
330
1F
100
AcDbEntity
  8
0
  6
SLD-Solid
 62
     7
370
    25
100
AcDbPolyline
 90
        4
 70
   128
 43
0.0
 10
30.5310670266
 20
27.686386097
 10
30.5527609075
 20
27.690702321
 10
30.5678027878
 20
27.7078370198
 10
30.5731436375
 20
27.7352538494
  0
LINE
  5
378
330
1F
100
AcDbEntity
  8
0
  6
SLD-Solid
 62
     7
370
    25
100
AcDbLine
 10
30.6596440399
 20
27.7095714649
 30
0.0
 11
30.6577466534
 21
27.6851724265
 31
0.0
  0
LWPOLYLINE
  5
379
330
1F
100
AcDbEntity
  8
0
  6
SLD-Solid
 62
     7
370
    25
100
AcDbPolyline
 90
       15
 70
   128
 43
0.0
 10
30.3942323029
 20
27.8291684217
 10
30.3921381566
 20
27.8438532557
 10
30.392254149
 20
27.8860366203
 10
30.4022371302
 20
27.9209209993
 10
30.4213467081
 20
27.9459191778
 10
30.4481656128
 20
27.9591771554
 10
30.4807048087
 20
27.9597116484
 10
30.5165510126
 20
27.9474830159
 10
30.5530456755
 20
27.9233981997
 10
30.5874821553
 20
27.8892434605
 10
30.6173064557
 20
27.8475518989
 10
30.6403066448
 20
27.8014155875
 10
30.6547769038
 20
27.7542562452
 10
30.6596440399
 20
27.7095714649
 10
30.6596440399
 20
27.7095714649
  0
LWPOLYLINE
  5
37A
330
1F
100
AcDbEntity
  8
0
  6
SLD-Solid
 62
     7
370
    25
100
AcDbPolyline
 90
       11
 70
   128
 43
0.0
 10
30.6789598568
 20
27.6974185482
 10
30.6808572433
 20
27.7218175866
 10
30.6759901073
 20
27.7665023669
 10
30.6615198482
 20
27.8136617091
 10
30.6385196591
 20
27.8597980206
 10
30.6086953587
 20
27.9014895822
 10
30.574258879
 20
27.9356443214
 10
30.5377642161
 20
27.9597291376
 10
30.5019180122
 20
27.97195777
 10
30.4693788162
 20
27.971423277
 10
30.4515153504
 20
27.9644170889
  0
LWPOLYLINE
  5
37B
330
1F
100
AcDbEntity
  8
0
  6
SLD-Solid
 62
     7
370
    25
100
AcDbPolyline
 90
       17
 70
   128
 43
0.0
 10
30.5465074168
 20
27.7507281243
 10
30.5433293865
 20
27.7713230892
 10
30.5341761792
 20
27.7925350062
 10
30.5204412876
 20
27.8111345534
 10
30.5042157244
 20
27.8242901183
 10
30.4879696847
 20
27.8299988853
 10
30.4741764807
 20
27.8273917465
 10
30.4649360026
 20
27.8168656151
 10
30.4616550295
 20
27.8000229992
 10
30.4648330597
 20
27.7794280343
 10
30.4739862671
 20
27.7582161172
 10
30.4877211587
 20
27.73961657
 10
30.5039467218
 20
27.7264610052
 10
30.5201927615
 20
27.7207522381
 10
30.5339859656
 20
27.7233593769
 10
30.5432264437
 20
27.7338855084
 10
30.5465074168
 20
27.7507281243
  0
LWPOLYLINE
  5
37C
330
1F
100
AcDbEntity
  8
0
  6
SLD-Solid
 62
     7
370
    25
100
AcDbPolyline
 90
       17
 70
   128
 43
0.0
 10
22.8932568871
 20
32.1687581007
 10
22.8880836102
 20
32.2022830972
 10
22.8731837914
 20
32.236812384
 10
22.8508257929
 20
32.26708919
 10
22.8244134173
 20
32.288504146
 10
22.7979677093
 20
32.2977970192
 10
22.7755147883
 20
32.2935530537
 10
22.760472908
 20
32.2764183549
 10
22.7551320583
 20
32.2490015253
 10
22.7603053351
 20
32.2154765287
 10
22.7752051539
 20
32.180947242
 10
22.7975631525
 20
32.150670436
 10
22.8239755281
 20
32.1292554799
 10
22.850421236
 20
32.1199626068
 10
22.872874157
 20
32.1242065723
 10
22.8879160373
 20
32.1413412711
 10
22.8932568871
 20
32.1687581007
  0
LWPOLYLINE
  5
37D
330
1F
100
AcDbEntity
  8
0
  6
SLD-Solid
 62
     7
370
    25
100
AcDbPolyline
 90
        3
 70
   128
 43
0.0
 10
22.9797572894
 20
32.1430757161
 10
22.9746603292
 20
32.1041795635
 10
22.9642611885
 20
32.0801782296
  0
LWPOLYLINE
  5
37E
330
1F
100
AcDbEntity
  8
0
  6
SLD-Solid
 62
     7
370
    25
100
AcDbPolyline
 90
       18
 70
   128
 43
0.0
 10
22.7821776938
 20
32.1207410518
 10
22.7675829333
 20
32.139590513
 10
22.7409223707
 20
32.1839173117
 10
22.7220110051
 20
32.2310037038
 10
22.7122514061
 20
32.2773575069
 10
22.7123673986
 20
32.3195408716
 10
22.7223503798
 20
32.3544252506
 10
22.7414599577
 20
32.3794234291
 10
22.7682788623
 20
32.3926814066
 10
22.8008180583
 20
32.3932158996
 10
22.8366642622
 20
32.3809872672
 10
22.8731589251
 20
32.356902451
 10
22.9075954048
 20
32.3227477118
 10
22.9374197052
 20
32.2810561502
 10
22.9604198943
 20
32.2349198387
 10
22.9748901533
 20
32.1877604965
 10
22.9797572894
 20
32.1430757161
 10
22.9797572894
 20
32.1430757161
  0
LWPOLYLINE
  5
37F
330
1F
100
AcDbEntity
  8
0
  6
SLD-Solid
 62
     7
370
    25
100
AcDbPolyline
 90
       10
 70
   128
 43
0.0
 10
23.0009704928
 20
32.1553218378
 10
22.9961033568
 20
32.2000066181
 10
22.9816330978
 20
32.2471659604
 10
22.9586329086
 20
32.2933022719
 10
22.9288086083
 20
32.3349938334
 10
22.8943721285
 20
32.3691485727
 10
22.8578774656
 20
32.3932333888
 10
22.8220312617
 20
32.4054620213
 10
22.7894920658
 20
32.4049275283
 10
22.7716285999
 20
32.3979213402
  0
ARC
  5
380
330
1F
100
AcDbEntity
  8
0
  6
SLD-Solid
 62
     7
370
    25
100
AcDbCircle
 10
22.8962420871
 20
32.1479895219
 30
0.0
 40
0.1049847694728245
100
AcDbArc
 50
322.8561282312
 51
4.0048956696
  0
LWPOLYLINE
  5
381
330
1F
100
AcDbEntity
  8
0
  6
SLD-Solid
 62
     7
370
    25
100
AcDbPolyline
 90
       17
 70
   128
 43
0.0
 10
22.8666206663
 20
32.1842323756
 10
22.8634426361
 20
32.2048273404
 10
22.8542894287
 20
32.2260392575
 10
22.8405545371
 20
32.2446388047
 10
22.824328974
 20
32.2577943695
 10
22.8080829343
 20
32.2635031366
 10
22.7942897302
 20
32.2608959978
 10
22.7850492521
 20
32.2503698664
 10
22.781768279
 20
32.2335272504
 10
22.7849463093
 20
32.2129322856
 10
22.7940995166
 20
32.1917203685
 10
22.8078344082
 20
32.1731208213
 10
22.8240599713
 20
32.1599652564
 10
22.8403060111
 20
32.1542564894
 10
22.8540992151
 20
32.1568636282
 10
22.8633396932
 20
32.1673897596
 10
22.8666206663
 20
32.1842323756
  0
LWPOLYLINE
  5
382
330
1F
100
AcDbEntity
  8
0
  6
SLD-Solid
 62
     7
370
    25
100
AcDbPolyline
 90
       17
 70
   128
 43
0.0
 10
29.8660368563
 20
28.1434579053
 10
29.8608635795
 20
28.1769829019
 10
29.8459637607
 20
28.2115121886
 10
29.8236057622
 20
28.2417889947
 10
29.7971933865
 20
28.2632039507
 10
29.7707476786
 20
28.2724968238
 10
29.7482947576
 20
28.2682528583
 10
29.7332528773
 20
28.2511181595
 10
29.7279120276
 20
28.22370133
 10
29.7330853044
 20
28.1901763334
 10
29.7479851232
 20
28.1556470467
 10
29.7703431217
 20
28.1253702406
 10
29.7967554974
 20
28.1039552846
 10
29.8232012053
 20
28.0946624115
 10
29.8456541263
 20
28.0989063769
 10
29.8606960066
 20
28.1160410757
 10
29.8660368563
 20
28.1434579053
  0
LWPOLYLINE
  5
383
330
1F
100
AcDbEntity
  8
0
  6
SLD-Solid
 62
     7
370
    25
100
AcDbPolyline
 90
        3
 70
   128
 43
0.0
 10
29.9525372587
 20
28.1177755208
 10
29.9474402985
 20
28.0788793681
 10
29.9370411578
 20
28.0548780343
  0
LWPOLYLINE
  5
384
330
1F
100
AcDbEntity
  8
0
  6
SLD-Solid
 62
     7
370
    25
100
AcDbPolyline
 90
       18
 70
   128
 43
0.0
 10
29.7549576631
 20
28.0954408564
 10
29.7403629026
 20
28.1142903177
 10
29.7137023399
 20
28.1586171164
 10
29.6947909744
 20
28.2057035085
 10
29.6850313754
 20
28.2520573116
 10
29.6851473678
 20
28.2942406762
 10
29.695130349
 20
28.3291250552
 10
29.7142399269
 20
28.3541232337
 10
29.7410588316
 20
28.3673812113
 10
29.7735980275
 20
28.3679157043
 10
29.8094442314
 20
28.3556870718
 10
29.8459388944
 20
28.3316022557
 10
29.8803753741
 20
28.2974475164
 10
29.9101996745
 20
28.2557559549
 10
29.9331998636
 20
28.2096196434
 10
29.9476701226
 20
28.1624603011
 10
29.9525372587
 20
28.1177755208
 10
29.9525372587
 20
28.1177755208
  0
LWPOLYLINE
  5
385
330
1F
100
AcDbEntity
  8
0
  6
SLD-Solid
 62
     7
370
    25
100
AcDbPolyline
 90
       10
 70
   128
 43
0.0
 10
29.9737504621
 20
28.1300216425
 10
29.9688833261
 20
28.1747064228
 10
29.954413067
 20
28.221865765
 10
29.9314128779
 20
28.2680020765
 10
29.9015885775
 20
28.3096936381
 10
29.8671520978
 20
28.3438483773
 10
29.8306574349
 20
28.3679331935
 10
29.794811231
 20
28.3801618259
 10
29.762272035
 20
28.379627333
 10
29.7444085692
 20
28.3726211449
  0
ARC
  5
386
330
1F
100
AcDbEntity
  8
0
  6
SLD-Solid
 62
     7
370
    25
100
AcDbCircle
 10
29.8690220564
 20
28.1226893266
 30
0.0
 40
0.1049847694729557
100
AcDbArc
 50
322.8561282312
 51
4.0048956696
  0
LWPOLYLINE
  5
387
330
1F
100
AcDbEntity
  8
0
  6
SLD-Solid
 62
     7
370
    25
100
AcDbPolyline
 90
       17
 70
   128
 43
0.0
 10
29.8394006356
 20
28.1589321802
 10
29.8362226053
 20
28.1795271451
 10
29.827069398
 20
28.2007390621
 10
29.8133345064
 20
28.2193386093
 10
29.7971089433
 20
28.2324941742
 10
29.7808629035
 20
28.2382029412
 10
29.7670696995
 20
28.2355958024
 10
29.7578292214
 20
28.225069671
 10
29.7545482483
 20
28.2082270551
 10
29.7577262785
 20
28.1876320902
 10
29.7668794859
 20
28.1664201731
 10
29.7806143775
 20
28.147820626
 10
29.7968399406
 20
28.1346650611
 10
29.8130859803
 20
28.128956294
 10
29.8268791844
 20
28.1315634329
 10
29.8361196625
 20
28.1420895643
 10
29.8394006356
 20
28.1589321802
  0
LWPOLYLINE
  5
388
330
1F
100
AcDbEntity
  8
0
  6
SLD-Solid
 62
     7
370
    25
100
AcDbPolyline
 90
       17
 70
   128
 43
0.0
 10
36.8388168256
 20
24.11815771
 10
36.8336435488
 20
24.1516827065
 10
36.81874373
 20
24.1862119933
 10
36.7963857314
 20
24.2164887993
 10
36.7699733558
 20
24.2379037554
 10
36.7435276479
 20
24.2471966285
 10
36.7210747269
 20
24.242952663
 10
36.7060328466
 20
24.2258179642
 10
36.7006919968
 20
24.1984011346
 10
36.7058652736
 20
24.1648761381
 10
36.7207650925
 20
24.1303468513
 10
36.743123091
 20
24.1000700453
 10
36.7695354666
 20
24.0786550893
 10
36.7959811746
 20
24.0693622161
 10
36.8184340956
 20
24.0736061816
 10
36.8334759759
 20
24.0907408804
 10
36.8388168256
 20
24.11815771
  0
LWPOLYLINE
  5
389
330
1F
100
AcDbEntity
  8
0
  6
SLD-Solid
 62
     7
370
    25
100
AcDbPolyline
 90
        3
 70
   128
 43
0.0
 10
36.925317228
 20
24.0924753255
 10
36.9202202678
 20
24.0535791728
 10
36.909821127
 20
24.0295778389
  0
LWPOLYLINE
  5
38A
330
1F
100
AcDbEntity
  8
0
  6
SLD-Solid
 62
     7
370
    25
100
AcDbPolyline
 90
       18
 70
   128
 43
0.0
 10
36.7277376324
 20
24.0701406611
 10
36.7131428719
 20
24.0889901223
 10
36.6864823092
 20
24.1333169211
 10
36.6675709437
 20
24.1804033131
 10
36.6578113447
 20
24.2267571162
 10
36.6579273371
 20
24.2689404809
 10
36.6679103183
 20
24.3038248599
 10
36.6870198962
 20
24.3288230384
 10
36.7138388009
 20
24.3420810159
 10
36.7463779968
 20
24.3426155089
 10
36.7822242007
 20
24.3303868765
 10
36.8187188636
 20
24.3063020603
 10
36.8531553434
 20
24.2721473211
 10
36.8829796438
 20
24.2304557595
 10
36.9059798329
 20
24.184319448
 10
36.9204500919
 20
24.1371601058
 10
36.925317228
 20
24.0924753255
 10
36.925317228
 20
24.0924753255
  0
LWPOLYLINE
  5
38B
330
1F
100
AcDbEntity
  8
0
  6
SLD-Solid
 62
     7
370
    25
100
AcDbPolyline
 90
       10
 70
   128
 43
0.0
 10
36.9465304314
 20
24.1047214471
 10
36.9416632953
 20
24.1494062275
 10
36.9271930363
 20
24.1965655697
 10
36.9041928472
 20
24.2427018812
 10
36.8743685468
 20
24.2843934428
 10
36.8399320671
 20
24.318548182
 10
36.8034374042
 20
24.3426329982
 10
36.7675912003
 20
24.3548616306
 10
36.7350520043
 20
24.3543271376
 10
36.7171885385
 20
24.3473209495
  0
ARC
  5
38C
330
1F
100
AcDbEntity
  8
0
  6
SLD-Solid
 62
     7
370
    25
100
AcDbCircle
 10
36.8418020257
 20
24.0973891312
 30
0.0
 40
0.1049847694728593
100
AcDbArc
 50
322.8561282312
 51
4.0048956696
  0
LWPOLYLINE
  5
38D
330
1F
100
AcDbEntity
  8
0
  6
SLD-Solid
 62
     7
370
    25
100
AcDbPolyline
 90
       17
 70
   128
 43
0.0
 10
36.8121806049
 20
24.1336319849
 10
36.8090025746
 20
24.1542269497
 10
36.7998493673
 20
24.1754388668
 10
36.7861144757
 20
24.194038414
 10
36.7698889125
 20
24.2071939789
 10
36.7536428728
 20
24.2129027459
 10
36.7398496688
 20
24.2102956071
 10
36.7306091907
 20
24.1997694757
 10
36.7273282176
 20
24.1829268597
 10
36.7305062478
 20
24.1623318949
 10
36.7396594552
 20
24.1411199778
 10
36.7533943468
 20
24.1225204306
 10
36.7696199099
 20
24.1093648657
 10
36.7858659496
 20
24.1036560987
 10
36.7996591537
 20
24.1062632375
 10
36.8088996318
 20
24.1167893689
 10
36.8121806049
 20
24.1336319849
  0
LWPOLYLINE
  5
38E
330
1F
100
AcDbEntity
  8
0
  6
SLD-Solid
 62
     7
370
    25
100
AcDbPolyline
 90
       17
 70
   128
 43
0.0
 10
43.8115967949
 20
20.0928575146
 10
43.8064235181
 20
20.1263825112
 10
43.7915236992
 20
20.160911798
 10
43.7691657007
 20
20.191188604
 10
43.7427533251
 20
20.21260356
 10
43.7163076171
 20
20.2218964331
 10
43.6938546962
 20
20.2176524677
 10
43.6788128159
 20
20.2005177689
 10
43.6734719661
 20
20.1731009393
 10
43.6786452429
 20
20.1395759427
 10
43.6935450618
 20
20.105046656
 10
43.7159030603
 20
20.07476985
 10
43.7423154359
 20
20.0533548939
 10
43.7687611439
 20
20.0440620208
 10
43.7912140648
 20
20.0483059863
 10
43.8062559452
 20
20.0654406851
 10
43.8115967949
 20
20.0928575146
  0
LWPOLYLINE
  5
38F
330
1F
100
AcDbEntity
  8
0
  6
SLD-Solid
 62
     7
370
    25
100
AcDbPolyline
 90
        3
 70
   128
 43
0.0
 10
43.8980971972
 20
20.0671751301
 10
43.8930002371
 20
20.0282789774
 10
43.8826010963
 20
20.0042776436
  0
LWPOLYLINE
  5
390
330
1F
100
AcDbEntity
  8
0
  6
SLD-Solid
 62
     7
370
    25
100
AcDbPolyline
 90
       18
 70
   128
 43
0.0
 10
43.7005176016
 20
20.0448404658
 10
43.6859228412
 20
20.063689927
 10
43.6592622785
 20
20.1080167257
 10
43.640350913
 20
20.1551031178
 10
43.630591314
 20
20.2014569209
 10
43.6307073064
 20
20.2436402855
 10
43.6406902876
 20
20.2785246645
 10
43.6597998655
 20
20.3035228431
 10
43.6866187702
 20
20.3167808206
 10
43.7191579661
 20
20.3173153136
 10
43.75500417
 20
20.3050866811
 10
43.7914988329
 20
20.281001865
 10
43.8259353127
 20
20.2468471257
 10
43.855759613
 20
20.2051555642
 10
43.8787598022
 20
20.1590192527
 10
43.8932300612
 20
20.1118599104
 10
43.8980971972
 20
20.0671751301
 10
43.8980971972
 20
20.0671751301
  0
LWPOLYLINE
  5
391
330
1F
100
AcDbEntity
  8
0
  6
SLD-Solid
 62
     7
370
    25
100
AcDbPolyline
 90
       10
 70
   128
 43
0.0
 10
43.9193104007
 20
20.0794212518
 10
43.9144432646
 20
20.1241060321
 10
43.8999730056
 20
20.1712653744
 10
43.8769728165
 20
20.2174016858
 10
43.8471485161
 20
20.2590932474
 10
43.8127120364
 20
20.2932479867
 10
43.7762173734
 20
20.3173328028
 10
43.7403711695
 20
20.3295614353
 10
43.7078319736
 20
20.3290269423
 10
43.6899685078
 20
20.3220207542
  0
ARC
  5
392
330
1F
100
AcDbEntity
  8
0
  6
SLD-Solid
 62
     7
370
    25
100
AcDbCircle
 10
43.8145819949
 20
20.0720889359
 30
0.0
 40
0.1049847694728584
100
AcDbArc
 50
322.8561282312
 51
4.0048956696
  0
LWPOLYLINE
  5
393
330
1F
100
AcDbEntity
  8
0
  6
SLD-Solid
 62
     7
370
    25
100
AcDbPolyline
 90
       17
 70
   128
 43
0.0
 10
43.7849605742
 20
20.1083317895
 10
43.7817825439
 20
20.1289267544
 10
43.7726293365
 20
20.1501386715
 10
43.7588944449
 20
20.1687382187
 10
43.7426688818
 20
20.1818937835
 10
43.7264228421
 20
20.1876025506
 10
43.7126296381
 20
20.1849954117
 10
43.70338916
 20
20.1744692803
 10
43.7001081868
 20
20.1576266644
 10
43.7032862171
 20
20.1370316995
 10
43.7124394245
 20
20.1158197825
 10
43.7261743161
 20
20.0972202353
 10
43.7423998792
 20
20.0840646704
 10
43.7586459189
 20
20.0783559034
 10
43.772439123
 20
20.0809630422
 10
43.7816796011
 20
20.0914891736
 10
43.7849605742
 20
20.1083317895
  0
LWPOLYLINE
  5
394
330
1F
100
AcDbEntity
  8
0
  6
SLD-Solid
 62
     7
370
    25
100
AcDbPolyline
 90
       11
 70
   128
 43
0.0
 10
44.5187035761
 20
19.6846534587
 10
44.5135302993
 20
19.7181784553
 10
44.4986304804
 20
19.752707742
 10
44.4762724819
 20
19.7829845481
 10
44.4498601063
 20
19.8043995041
 10
44.4234143983
 20
19.8136923772
 10
44.4009614774
 20
19.8094484118
 10
44.385919597
 20
19.7923137129
 10
44.3805787473
 20
19.7648968834
 10
44.3857520241
 20
19.7313718868
 10
44.3876382491
 20
19.7254421744
  0
LWPOLYLINE
  5
395
330
1F
100
AcDbEntity
  8
0
  6
SLD-Solid
 62
     7
370
    25
100
AcDbPolyline
 90
        4
 70
   128
 43
0.0
 10
44.4766269651
 20
19.6357857063
 10
44.498320846
 20
19.6401019303
 10
44.5133627263
 20
19.6572366292
 10
44.5187035761
 20
19.6846534587
  0
LINE
  5
396
330
1F
100
AcDbEntity
  8
0
  6
SLD-Solid
 62
     7
370
    25
100
AcDbLine
 10
44.6052039784
 20
19.6589710742
 30
0.0
 11
44.6033065919
 21
19.6345720359
 31
0.0
  0
LWPOLYLINE
  5
397
330
1F
100
AcDbEntity
  8
0
  6
SLD-Solid
 62
     7
370
    25
100
AcDbPolyline
 90
       15
 70
   128
 43
0.0
 10
44.3397922415
 20
19.778568031
 10
44.3376980952
 20
19.793252865
 10
44.3378140876
 20
19.8354362296
 10
44.3477970688
 20
19.8703206086
 10
44.3669066467
 20
19.8953187871
 10
44.3937255514
 20
19.9085767647
 10
44.4262647473
 20
19.9091112577
 10
44.4621109512
 20
19.8968826252
 10
44.4986056141
 20
19.8727978091
 10
44.5330420938
 20
19.8386430698
 10
44.5628663942
 20
19.7969515083
 10
44.5858665833
 20
19.7508151968
 10
44.6003368424
 20
19.7036558545
 10
44.6052039784
 20
19.6589710742
 10
44.6052039784
 20
19.6589710742
  0
LWPOLYLINE
  5
398
330
1F
100
AcDbEntity
  8
0
  6
SLD-Solid
 62
     7
370
    25
100
AcDbPolyline
 90
       11
 70
   128
 43
0.0
 10
44.6245197954
 20
19.6468181575
 10
44.6264171819
 20
19.6712171959
 10
44.6215500458
 20
19.7159019762
 10
44.6070797868
 20
19.7630613185
 10
44.5840795977
 20
19.8091976299
 10
44.5542552973
 20
19.8508891915
 10
44.5198188175
 20
19.8850439307
 10
44.4833241546
 20
19.9091287469
 10
44.4474779507
 20
19.9213573794
 10
44.4149387548
 20
19.9208228864
 10
44.397075289
 20
19.9138166983
  0
LWPOLYLINE
  5
399
330
1F
100
AcDbEntity
  8
0
  6
SLD-Solid
 62
     7
370
    25
100
AcDbPolyline
 90
       17
 70
   128
 43
0.0
 10
44.4920673554
 20
19.7001277336
 10
44.4888893251
 20
19.7207226985
 10
44.4797361177
 20
19.7419346155
 10
44.4660012261
 20
19.7605341627
 10
44.449775663
 20
19.7736897276
 10
44.4335296233
 20
19.7793984947
 10
44.4197364192
 20
19.7767913558
 10
44.4104959411
 20
19.7662652244
 10
44.407214968
 20
19.7494226085
 10
44.4103929983
 20
19.7288276436
 10
44.4195462057
 20
19.7076157266
 10
44.4332810973
 20
19.6890161794
 10
44.4495066604
 20
19.6758606145
 10
44.4657527001
 20
19.6701518474
 10
44.4795459041
 20
19.6727589863
 10
44.4887863822
 20
19.6832851177
 10
44.4920673554
 20
19.7001277336
  0
LWPOLYLINE
  5
39A
330
1F
100
AcDbEntity
  8
0
  6
SLD-Solid
 62
     7
370
    25
100
AcDbPolyline
 90
       11
 70
   128
 43
0.0
 10
37.5459236068
 20
23.7099536541
 10
37.54075033
 20
23.7434786506
 10
37.5258505112
 20
23.7780079374
 10
37.5034925126
 20
23.8082847434
 10
37.477080137
 20
23.8296996994
 10
37.450634429
 20
23.8389925726
 10
37.4281815081
 20
23.8347486071
 10
37.4131396278
 20
23.8176139083
 10
37.407798778
 20
23.7901970787
 10
37.4129720548
 20
23.7566720821
 10
37.4148582798
 20
23.7507423697
  0
LWPOLYLINE
  5
39B
330
1F
100
AcDbEntity
  8
0
  6
SLD-Solid
 62
     7
370
    25
100
AcDbPolyline
 90
        4
 70
   128
 43
0.0
 10
37.5038469958
 20
23.6610859016
 10
37.5255408767
 20
23.6654021257
 10
37.5405827571
 20
23.6825368245
 10
37.5459236068
 20
23.7099536541
  0
LINE
  5
39C
330
1F
100
AcDbEntity
  8
0
  6
SLD-Solid
 62
     7
370
    25
100
AcDbLine
 10
37.6324240091
 20
23.6842712695
 30
0.0
 11
37.6305266226
 21
23.6598722312
 31
0.0
  0
LWPOLYLINE
  5
39D
330
1F
100
AcDbEntity
  8
0
  6
SLD-Solid
 62
     7
370
    25
100
AcDbPolyline
 90
       15
 70
   128
 43
0.0
 10
37.3670122722
 20
23.8038682263
 10
37.3649181259
 20
23.8185530603
 10
37.3650341183
 20
23.860736425
 10
37.3750170995
 20
23.895620804
 10
37.3941266774
 20
23.9206189825
 10
37.4209455821
 20
23.93387696
 10
37.453484778
 20
23.934411453
 10
37.4893309819
 20
23.9221828206
 10
37.5258256448
 20
23.8980980044
 10
37.5602621246
 20
23.8639432652
 10
37.5900864249
 20
23.8222517036
 10
37.6130866141
 20
23.7761153921
 10
37.6275568731
 20
23.7289560499
 10
37.6324240091
 20
23.6842712695
 10
37.6324240091
 20
23.6842712695
  0
LWPOLYLINE
  5
39E
330
1F
100
AcDbEntity
  8
0
  6
SLD-Solid
 62
     7
370
    25
100
AcDbPolyline
 90
       11
 70
   128
 43
0.0
 10
37.6517398261
 20
23.6721183529
 10
37.6536372126
 20
23.6965173912
 10
37.6487700765
 20
23.7412021715
 10
37.6342998175
 20
23.7883615138
 10
37.6112996284
 20
23.8344978253
 10
37.581475328
 20
23.8761893868
 10
37.5470388483
 20
23.9103441261
 10
37.5105441853
 20
23.9344289422
 10
37.4746979814
 20
23.9466575747
 10
37.4421587855
 20
23.9461230817
 10
37.4242953197
 20
23.9391168936
  0
LWPOLYLINE
  5
39F
330
1F
100
AcDbEntity
  8
0
  6
SLD-Solid
 62
     7
370
    25
100
AcDbPolyline
 90
       17
 70
   128
 43
0.0
 10
37.5192873861
 20
23.725427929
 10
37.5161093558
 20
23.7460228938
 10
37.5069561484
 20
23.7672348109
 10
37.4932212568
 20
23.7858343581
 10
37.4769956937
 20
23.798989923
 10
37.460749654
 20
23.80469869
 10
37.44695645
 20
23.8020915512
 10
37.4377159719
 20
23.7915654198
 10
37.4344349987
 20
23.7747228038
 10
37.437613029
 20
23.754127839
 10
37.4467662364
 20
23.7329159219
 10
37.460501128
 20
23.7143163747
 10
37.4767266911
 20
23.7011608098
 10
37.4929727308
 20
23.6954520428
 10
37.5067659349
 20
23.6980591816
 10
37.516006413
 20
23.708585313
 10
37.5192873861
 20
23.725427929
  0
LWPOLYLINE
  5
3A0
330
1F
100
AcDbEntity
  8
0
  6
SLD-Solid
 62
     7
370
    25
100
AcDbPolyline
 90
       11
 70
   128
 43
0.0
 10
23.6003636682
 20
31.7605540448
 10
23.5951903914
 20
31.7940790413
 10
23.5802905726
 20
31.8286083281
 10
23.5579325741
 20
31.8588851341
 10
23.5315201984
 20
31.8803000901
 10
23.5050744905
 20
31.8895929633
 10
23.4826215695
 20
31.8853489978
 10
23.4675796892
 20
31.868214299
 10
23.4622388395
 20
31.8407974694
 10
23.4674121163
 20
31.8072724728
 10
23.4692983413
 20
31.8013427604
  0
LWPOLYLINE
  5
3A1
330
1F
100
AcDbEntity
  8
0
  6
SLD-Solid
 62
     7
370
    25
100
AcDbPolyline
 90
        4
 70
   128
 43
0.0
 10
23.5582870573
 20
31.7116862923
 10
23.5799809382
 20
31.7160025164
 10
23.5950228185
 20
31.7331372152
 10
23.6003636682
 20
31.7605540448
  0
LINE
  5
3A2
330
1F
100
AcDbEntity
  8
0
  6
SLD-Solid
 62
     7
370
    25
100
AcDbLine
 10
23.6868640706
 20
31.7348716602
 30
0.0
 11
23.6849666841
 21
31.7104726219
 31
0.0
  0
LWPOLYLINE
  5
3A3
330
1F
100
AcDbEntity
  8
0
  6
SLD-Solid
 62
     7
370
    25
100
AcDbPolyline
 90
       15
 70
   128
 43
0.0
 10
23.4214523336
 20
31.854468617
 10
23.4193581873
 20
31.869153451
 10
23.4194741798
 20
31.9113368157
 10
23.4294571609
 20
31.9462211946
 10
23.4485667389
 20
31.9712193732
 10
23.4753856435
 20
31.9844773507
 10
23.5079248394
 20
31.9850118437
 10
23.5437710433
 20
31.9727832113
 10
23.5802657063
 20
31.9486983951
 10
23.614702186
 20
31.9145436558
 10
23.6445264864
 20
31.8728520943
 10
23.6675266755
 20
31.8267157828
 10
23.6819969345
 20
31.7795564406
 10
23.6868640706
 20
31.7348716602
 10
23.6868640706
 20
31.7348716602
  0
LWPOLYLINE
  5
3A4
330
1F
100
AcDbEntity
  8
0
  6
SLD-Solid
 62
     7
370
    25
100
AcDbPolyline
 90
       11
 70
   128
 43
0.0
 10
23.7061798875
 20
31.7227187436
 10
23.708077274
 20
31.7471177819
 10
23.703210138
 20
31.7918025622
 10
23.6887398789
 20
31.8389619045
 10
23.6657396898
 20
31.885098216
 10
23.6359153894
 20
31.9267897775
 10
23.6014789097
 20
31.9609445168
 10
23.5649842468
 20
31.9850293329
 10
23.5291380429
 20
31.9972579654
 10
23.4965988469
 20
31.9967234724
 10
23.4787353811
 20
31.9897172843
  0
LWPOLYLINE
  5
3A5
330
1F
100
AcDbEntity
  8
0
  6
SLD-Solid
 62
     7
370
    25
100
AcDbPolyline
 90
       17
 70
   128
 43
0.0
 10
23.5737274475
 20
31.7760283196
 10
23.5705494172
 20
31.7966232845
 10
23.5613962099
 20
31.8178352016
 10
23.5476613183
 20
31.8364347488
 10
23.5314357552
 20
31.8495903136
 10
23.5151897154
 20
31.8552990807
 10
23.5013965114
 20
31.8526919419
 10
23.4921560333
 20
31.8421658104
 10
23.4888750602
 20
31.8253231945
 10
23.4920530905
 20
31.8047282296
 10
23.5012062978
 20
31.7835163126
 10
23.5149411894
 20
31.7649167654
 10
23.5311667525
 20
31.7517612005
 10
23.5474127923
 20
31.7460524335
 10
23.5612059963
 20
31.7486595723
 10
23.5704464744
 20
31.7591857037
 10
23.5737274475
 20
31.7760283196
  0
LWPOLYLINE
  5
3A6
330
1F
100
AcDbEntity
  8
0
  6
SLD-Solid
 62
     7
370
    25
100
AcDbPolyline
 90
       22
 70
   128
 43
0.0
 10
29.7754890385
 20
27.1630618018
 10
29.8026574719
 20
27.1688627784
 10
29.8341029644
 20
27.1619927593
 10
29.8670314458
 20
27.1430621757
 10
29.8985170761
 20
27.1137530932
 10
29.9257622189
 20
27.0766697523
 10
29.9463460237
 20
27.0351071706
 10
29.9584395291
 20
26.992758366
 10
29.9609681741
 20
26.9533862154
 10
29.9537072774
 20
26.9204891073
 10
29.9373020016
 20
26.8969900941
 10
29.9132100274
 20
26.8849771663
 10
29.8835720326
 20
26.8855177252
 10
29.8510214829
 20
26.8985637398
 10
29.8184506376
 20
26.9229560143
 10
29.7887535592
 20
26.9565271883
 10
29.7645689634
 20
26.9962943155
 10
29.7480457578
 20
27.0387239123
 10
29.7406521016
 20
27.0800459226
 10
29.7430449536
 20
27.1165887046
 10
29.7550116985
 20
27.1451052717
 10
29.7754890385
 20
27.1630618018
  0
LWPOLYLINE
  5
3A7
330
1F
100
AcDbEntity
  8
0
  6
SLD-Solid
 62
     7
370
    25
100
AcDbPolyline
 90
       13
 70
   128
 43
0.0
 10
29.7857483327
 20
27.1690964318
 10
29.7885500329
 20
27.1706017534
 10
29.8157184664
 20
27.17640273
 10
29.8471639588
 20
27.1695327109
 10
29.8800924403
 20
27.1506021273
 10
29.9115780706
 20
27.1212930448
 10
29.9388232134
 20
27.0842097039
 10
29.9594070182
 20
27.0426471223
 10
29.9715005236
 20
27.0002983176
 10
29.9740291685
 20
26.960926167
 10
29.9667682718
 20
26.9280290589
 10
29.950362996
 20
26.9045300458
 10
29.941959793
 20
26.8985009261
  0
LWPOLYLINE
  5
3A8
330
1F
100
AcDbEntity
  8
0
  6
SLD-Solid
 62
     7
370
    25
100
AcDbPolyline
 90
       22
 70
   128
 43
0.0
 10
36.7482690077
 20
23.1377616065
 10
36.7754374412
 20
23.1435625831
 10
36.8068829337
 20
23.1366925639
 10
36.8398114151
 20
23.1177619804
 10
36.8712970454
 20
23.0884528979
 10
36.8985421882
 20
23.051369557
 10
36.919125993
 20
23.0098069753
 10
36.9312194984
 20
22.9674581706
 10
36.9337481433
 20
22.9280860201
 10
36.9264872467
 20
22.895188912
 10
36.9100819709
 20
22.8716898988
 10
36.8859899967
 20
22.859676971
 10
36.8563520019
 20
22.8602175299
 10
36.8238014522
 20
22.8732635444
 10
36.7912306069
 20
22.897655819
 10
36.7615335285
 20
22.931226993
 10
36.7373489327
 20
22.9709941202
 10
36.7208257271
 20
23.0134237169
 10
36.7134320709
 20
23.0547457273
 10
36.7158249229
 20
23.0912885093
 10
36.7277916678
 20
23.1198050764
 10
36.7482690077
 20
23.1377616065
  0
LWPOLYLINE
  5
3A9
330
1F
100
AcDbEntity
  8
0
  6
SLD-Solid
 62
     7
370
    25
100
AcDbPolyline
 90
       13
 70
   128
 43
0.0
 10
36.7585283019
 20
23.1437962365
 10
36.7613300022
 20
23.1453015581
 10
36.7884984357
 20
23.1511025347
 10
36.8199439281
 20
23.1442325155
 10
36.8528724095
 20
23.125301932
 10
36.8843580399
 20
23.0959928495
 10
36.9116031827
 20
23.0589095086
 10
36.9321869875
 20
23.0173469269
 10
36.9442804929
 20
22.9749981222
 10
36.9468091378
 20
22.9356259717
 10
36.9395482411
 20
22.9027288636
 10
36.9231429653
 20
22.8792298504
 10
36.9147397623
 20
22.8732007308
  0
LWPOLYLINE
  5
3AA
330
1F
100
AcDbEntity
  8
0
  6
SLD-Solid
 62
     7
370
    25
100
AcDbPolyline
 90
       22
 70
   128
 43
0.0
 10
43.721048977
 20
19.1124614111
 10
43.7482174105
 20
19.1182623877
 10
43.7796629029
 20
19.1113923686
 10
43.8125913844
 20
19.092461785
 10
43.8440770147
 20
19.0631527025
 10
43.8713221575
 20
19.0260693616
 10
43.8919059623
 20
18.98450678
 10
43.9039994677
 20
18.9421579753
 10
43.9065281126
 20
18.9027858247
 10
43.8992672159
 20
18.8698887166
 10
43.8828619401
 20
18.8463897035
 10
43.858769966
 20
18.8343767756
 10
43.8291319711
 20
18.8349173345
 10
43.7965814215
 20
18.8479633491
 10
43.7640105761
 20
18.8723556237
 10
43.7343134977
 20
18.9059267976
 10
43.710128902
 20
18.9456939249
 10
43.6936056963
 20
18.9881235216
 10
43.6862120402
 20
19.0294455319
 10
43.6886048922
 20
19.0659883139
 10
43.7005716371
 20
19.094504881
 10
43.721048977
 20
19.1124614111
  0
LWPOLYLINE
  5
3AB
330
1F
100
AcDbEntity
  8
0
  6
SLD-Solid
 62
     7
370
    25
100
AcDbPolyline
 90
       13
 70
   128
 43
0.0
 10
43.7313082712
 20
19.1184960411
 10
43.7341099715
 20
19.1200013628
 10
43.7612784049
 20
19.1258023393
 10
43.7927238974
 20
19.1189323202
 10
43.8256523788
 20
19.1000017366
 10
43.8571380092
 20
19.0706926541
 10
43.884383152
 20
19.0336093132
 10
43.9049669568
 20
18.9920467316
 10
43.9170604621
 20
18.9496979269
 10
43.9195891071
 20
18.9103257763
 10
43.9123282104
 20
18.8774286682
 10
43.8959229346
 20
18.8539296551
 10
43.8875197316
 20
18.8479005355
  0
LWPOLYLINE
  5
3AC
330
1F
100
AcDbEntity
  8
0
  6
SLD-Solid
 62
     7
370
    25
100
AcDbPolyline
 90
       22
 70
   128
 43
0.0
 10
22.8027090692
 20
31.1883619972
 10
22.8298775026
 20
31.1941629738
 10
22.8613229951
 20
31.1872929546
 10
22.8942514765
 20
31.1683623711
 10
22.9257371069
 20
31.1390532885
 10
22.9529822497
 20
31.1019699477
 10
22.9735660545
 20
31.060407366
 10
22.9856595598
 20
31.0180585613
 10
22.9881882048
 20
30.9786864107
 10
22.9809273081
 20
30.9457893027
 10
22.9645220323
 20
30.9222902895
 10
22.9404300582
 20
30.9102773617
 10
22.9107920633
 20
30.9108179205
 10
22.8782415136
 20
30.9238639351
 10
22.8456706683
 20
30.9482562097
 10
22.8159735899
 20
30.9818273837
 10
22.7917889941
 20
31.0215945109
 10
22.7752657885
 20
31.0640241076
 10
22.7678721323
 20
31.1053461179
 10
22.7702649844
 20
31.1418889
 10
22.7822317293
 20
31.1704054671
 10
22.8027090692
 20
31.1883619972
  0
LWPOLYLINE
  5
3AD
330
1F
100
AcDbEntity
  8
0
  6
SLD-Solid
 62
     7
370
    25
100
AcDbPolyline
 90
       13
 70
   128
 43
0.0
 10
22.8129683634
 20
31.1943966272
 10
22.8157700636
 20
31.1959019488
 10
22.8429384971
 20
31.2017029254
 10
22.8743839895
 20
31.1948329062
 10
22.907312471
 20
31.1759023227
 10
22.9387981013
 20
31.1465932401
 10
22.9660432441
 20
31.1095098993
 10
22.9866270489
 20
31.0679473176
 10
22.9987205543
 20
31.0255985129
 10
23.0012491992
 20
30.9862263623
 10
22.9939883026
 20
30.9533292543
 10
22.9775830268
 20
30.9298302411
 10
22.9691798238
 20
30.9238011215
  0
ARC
  5
3AE
330
1F
100
AcDbEntity
  8
0
  6
SLD-Solid
 62
     7
370
    25
100
AcDbCircle
 10
46.1812360229
 20
19.9968691715
 30
0.0
 40
0.0614721923029208
100
AcDbArc
 50
122.60547834
 51
177.3945215143
  0
ARC
  5
3AF
330
1F
100
AcDbEntity
  8
0
  6
SLD-Solid
 62
     7
370
    25
100
AcDbCircle
 10
46.2060793025
 20
19.9825272243
 30
0.0
 40
0.1075763365300563
100
AcDbArc
 50
122.60547834
 51
177.3945215143
  0
ARC
  5
3B0
330
1F
100
AcDbEntity
  8
0
  6
SLD-Solid
 62
     7
370
    25
100
AcDbCircle
 10
20.7502351798
 20
34.6778732371
 30
0.0
 40
0.107576336530031
100
AcDbArc
 50
122.60547834
 51
177.3945215143
  0
LINE
  5
3B1
330
1F
100
AcDbEntity
  8
0
  6
SLD-Solid
 62
     7
370
    25
100
AcDbLine
 10
46.0986141754
 20
17.7705352505
 30
0.0
 11
46.0986141754
 21
19.9874174839
 31
0.0
  0
LINE
  5
3B2
330
1F
100
AcDbEntity
  8
0
  6
SLD-Solid
 62
     7
370
    25
100
AcDbLine
 10
46.1198273789
 20
17.7827813721
 30
0.0
 11
46.1198273789
 21
19.9996636056
 31
0.0
  0
LWPOLYLINE
  5
3B3
330
1F
100
AcDbEntity
  8
0
  6
SLD-Solid
 62
     7
370
    25
100
AcDbPolyline
 90
       17
 70
   128
 43
0.0
 10
45.8157714629
 20
19.0422579896
 10
45.8103889331
 20
19.076612922
 10
45.7950607848
 20
19.1119521641
 10
45.7721205898
 20
19.1428956366
 10
45.7450607848
 20
19.1647324763
 10
45.7180009798
 20
19.1741382224
 10
45.6950607848
 20
19.1696809353
 10
45.6797326366
 20
19.1520391964
 10
45.6743501067
 20
19.1238988007
 10
45.6797326366
 20
19.0895438683
 10
45.6950607848
 20
19.0542046262
 10
45.7180009798
 20
19.0232611537
 10
45.7450607848
 20
19.001424314
 10
45.7721205898
 20
18.9920185679
 10
45.7950607848
 20
18.996475855
 10
45.8103889331
 20
19.0141175939
 10
45.8157714629
 20
19.0422579896
  0
LWPOLYLINE
  5
3B4
330
1F
100
AcDbEntity
  8
0
  6
SLD-Solid
 62
     7
370
    25
100
AcDbPolyline
 90
       17
 70
   128
 43
0.0
 10
33.4414027922
 20
26.185828968
 10
33.4360202623
 20
26.2201839004
 10
33.4206921141
 20
26.2555231425
 10
33.3977519191
 20
26.286466615
 10
33.3706921141
 20
26.3083034548
 10
33.3436323091
 20
26.3177092009
 10
33.3206921141
 20
26.3132519137
 10
33.3053639658
 20
26.2956101749
 10
33.2999814359
 20
26.2674697792
 10
33.3053639658
 20
26.2331148468
 10
33.3206921141
 20
26.1977756047
 10
33.3436323091
 20
26.1668321322
 10
33.3706921141
 20
26.1449952924
 10
33.3977519191
 20
26.1355895463
 10
33.4206921141
 20
26.1400468335
 10
33.4360202623
 20
26.1576885723
 10
33.4414027922
 20
26.185828968
  0
LWPOLYLINE
  5
3B5
330
1F
100
AcDbEntity
  8
0
  6
SLD-Solid
 62
     7
370
    25
100
AcDbPolyline
 90
       17
 70
   128
 43
0.0
 10
21.0670341214
 20
33.3293999465
 10
21.0616515915
 20
33.3637548789
 10
21.0463234433
 20
33.399094121
 10
21.0233832483
 20
33.4300375935
 10
20.9963234433
 20
33.4518744332
 10
20.9692636383
 20
33.4612801793
 10
20.9463234433
 20
33.4568228922
 10
20.9309952951
 20
33.4391811533
 10
20.9256127652
 20
33.4110407576
 10
20.9309952951
 20
33.3766858252
 10
20.9463234433
 20
33.3413465831
 10
20.9692636383
 20
33.3104031106
 10
20.9963234433
 20
33.2885662709
 10
21.0233832483
 20
33.2791605248
 10
21.0463234433
 20
33.2836178119
 10
21.0616515915
 20
33.3012595508
 10
21.0670341214
 20
33.3293999465
  0
LINE
  5
3B6
330
1F
100
AcDbEntity
  8
0
  6
SLD-Solid
 62
     7
370
    25
100
AcDbLine
 10
20.6427700527
 20
34.6827634967
 30
0.0
 11
20.6427700527
 21
32.4658812633
 31
0.0
  0
LINE
  5
3B7
330
1F
100
AcDbEntity
  8
0
  6
SLD-Solid
 62
     7
370
    25
100
AcDbLine
 10
20.9825864885
 20
34.9360932063
 30
0.0
 11
20.6922675274
 21
34.7684956375
 31
0.0
  0
LINE
  5
3B8
330
1F
100
AcDbEntity
  8
0
  6
SLD-Solid
 62
     7
370
    25
100
AcDbLine
 10
46.4384306112
 20
20.2407471935
 30
0.0
 11
20.9825864885
 21
34.9360932063
 31
0.0
  0
LINE
  5
3B9
330
1F
100
AcDbEntity
  8
0
  6
SLD-Solid
 62
     7
370
    25
100
AcDbLine
 10
46.1481116501
 20
20.0731496247
 30
0.0
 11
46.4384306112
 21
20.2407471935
 31
0.0
  0
LINE
  5
3BA
330
1F
100
AcDbEntity
  8
0
  6
SLD-Solid
 62
     7
370
    25
100
AcDbLine
 10
46.4384306112
 20
20.2162509691
 30
0.0
 11
46.4384306112
 21
20.2407471935
 31
0.0
  0
LINE
  5
3BB
330
1F
100
AcDbEntity
  8
0
  6
SLD-Solid
 62
     7
370
    25
100
AcDbLine
 10
46.1481116501
 20
20.0486534003
 30
0.0
 11
46.4384306112
 21
20.2162509691
 31
0.0
  0
LWPOLYLINE
  5
3BC
330
1F
100
AcDbEntity
  8
0
  6
SLD-Solid
 62
     7
370
    25
100
AcDbPolyline
 90
        9
 70
   128
 43
0.0
 10
45.7068091197
 20
19.1738356269
 10
45.70094584
 20
19.1642853181
 10
45.6955633101
 20
19.1361449224
 10
45.70094584
 20
19.10178999
 10
45.7162739883
 20
19.0664507479
 10
45.7392141833
 20
19.0355072754
 10
45.7662739883
 20
19.0136704356
 10
45.7933337933
 20
19.0042646896
 10
45.8045256534
 20
19.0045672851
  0
ARC
  5
3BD
330
1F
100
AcDbEntity
  8
0
  6
SLD-Solid
 62
     7
370
    25
100
AcDbCircle
 10
46.1287893811
 20
17.7656403467
 30
0.0
 40
0.0305696438199952
100
AcDbArc
 50
170.7859630095
 51
309.2032852357
  0
ARC
  5
3BE
330
1F
100
AcDbEntity
  8
0
  6
SLD-Solid
 62
     7
370
    25
100
AcDbCircle
 10
20.6770701859
 20
32.4620951917
 30
0.0
 40
0.0345084551149241
100
AcDbArc
 50
173.7011524961
 51
234.9866671105
  0
ARC
  5
3BF
330
1F
100
AcDbEntity
  8
0
  6
SLD-Solid
 62
     7
370
    25
100
AcDbCircle
 10
46.1370703536
 20
17.7799842843
 30
0.0
 40
0.0174683678971372
100
AcDbArc
 50
170.7859630095
 51
309.2032852357
  0
LINE
  5
3C0
330
1F
100
AcDbEntity
  8
0
  6
SLD-Solid
 62
     7
370
    25
100
AcDbLine
 10
46.1198273789
 20
18.1179712018
 30
0.0
 11
46.4384306112
 21
17.9340454707
 31
0.0
  0
LINE
  5
3C1
330
1F
100
AcDbEntity
  8
0
  6
SLD-Solid
 62
     7
370
    25
100
AcDbLine
 10
46.4384306112
 20
17.9340454707
 30
0.0
 11
46.1481116501
 21
17.7664479019
 31
0.0
  0
LINE
  5
3C2
330
1F
100
AcDbEntity
  8
0
  6
SLD-Solid
 62
     7
370
    25
100
AcDbLine
 10
46.4384306112
 20
17.9340454707
 30
0.0
 11
46.4384306112
 21
17.9095492464
 31
0.0
  0
LINE
  5
3C3
330
1F
100
AcDbEntity
  8
0
  6
SLD-Solid
 62
     7
370
    25
100
AcDbLine
 10
46.4384306112
 20
17.9095492464
 30
0.0
 11
46.1481116501
 21
17.7419516776
 31
0.0
  0
LWPOLYLINE
  5
3C4
330
1F
100
AcDbEntity
  8
0
  6
SLD-Solid
 62
     7
370
    25
100
AcDbPolyline
 90
        9
 70
   128
 43
0.0
 10
33.3324404489
 20
26.3174066053
 10
33.3265771693
 20
26.3078562966
 10
33.3211946394
 20
26.2797159009
 10
33.3265771693
 20
26.2453609685
 10
33.3419053175
 20
26.2100217264
 10
33.3648455125
 20
26.1790782538
 10
33.3919053175
 20
26.1572414141
 10
33.4189651225
 20
26.147835668
 10
33.4301569827
 20
26.1481382635
  0
LWPOLYLINE
  5
3C5
330
1F
100
AcDbEntity
  8
0
  6
SLD-Solid
 62
     7
370
    25
100
AcDbPolyline
 90
        9
 70
   128
 43
0.0
 10
20.9580717781
 20
33.4609775838
 10
20.9522084985
 20
33.451427275
 10
20.9468259686
 20
33.4232868793
 10
20.9522084985
 20
33.3889319469
 10
20.9675366467
 20
33.3535927048
 10
20.9904768417
 20
33.3226492323
 10
21.0175366467
 20
33.3008123925
 10
21.0445964517
 20
33.2914066465
 10
21.0557883119
 20
33.291709242
  0
LINE
  5
3C6
330
1F
100
AcDbEntity
  8
OBJECT
100
AcDbLine
 10
20.6922675274
 20
34.7684956375
 30
0.0
 11
46.1481116501
 21
20.0731496247
 31
0.0
  0
INSERT
  5
3CC
330
1F
100
AcDbEntity
  8
NOTES
100
AcDbBlockReference
  2
SW_NOTE_0_2
 10
41.4915672312
 20
17.5217311999
 30
0.0
  0
LINE
  5
3CD
330
1F
100
AcDbEntity
  8
0
  6
SLD-Solid
 62
     7
370
    25
100
AcDbLine
 10
15.6449180124
 20
16.3839320638
 30
0.0
 11
15.6449180124
 21
16.3539320638
 31
0.0
  0
LINE
  5
3CE
330
1F
100
AcDbEntity
  8
0
  6
SLD-Solid
 62
     7
370
    25
100
AcDbLine
 10
16.0249180124
 20
16.3539320638
 30
0.0
 11
16.0249180124
 21
16.3839320638
 31
0.0
  0
LINE
  5
3CF
330
1F
100
AcDbEntity
  8
0
  6
SLD-Solid
 62
     7
370
    25
100
AcDbLine
 10
15.6449180124
 20
16.3539320638
 30
0.0
 11
15.7372485186
 21
16.3239320638
 31
0.0
  0
LINE
  5
3D0
330
1F
100
AcDbEntity
  8
0
  6
SLD-Solid
 62
     7
370
    25
100
AcDbLine
 10
15.9325875063
 20
16.3239320638
 30
0.0
 11
16.0249180124
 21
16.3539320638
 31
0.0
  0
LINE
  5
3D1
330
1F
100
AcDbEntity
  8
0
  6
SLD-Solid
 62
     7
370
    25
100
AcDbLine
 10
4.7839180124
 20
16.3839320638
 30
0.0
 11
4.7839180124
 21
16.3539320638
 31
0.0
  0
LINE
  5
3D2
330
1F
100
AcDbEntity
  8
0
  6
SLD-Solid
 62
     7
370
    25
100
AcDbLine
 10
5.1639180124
 20
16.3539320638
 30
0.0
 11
5.1639180124
 21
16.3839320638
 31
0.0
  0
LINE
  5
3D3
330
1F
100
AcDbEntity
  8
0
  6
SLD-Solid
 62
     7
370
    25
100
AcDbLine
 10
4.7839180124
 20
16.3539320638
 30
0.0
 11
4.8762485186
 21
16.3239320638
 31
0.0
  0
LINE
  5
3D4
330
1F
100
AcDbEntity
  8
0
  6
SLD-Solid
 62
     7
370
    25
100
AcDbLine
 10
5.0715875063
 20
16.3239320638
 30
0.0
 11
5.1639180124
 21
16.3539320638
 31
0.0
  0
LINE
  5
3D5
330
1F
100
AcDbEntity
  8
0
  6
SLD-Solid
 62
     7
370
    25
100
AcDbLine
 10
14.6449180124
 20
16.3839320638
 30
0.0
 11
14.6449180124
 21
16.3539320638
 31
0.0
  0
LINE
  5
3D6
330
1F
100
AcDbEntity
  8
0
  6
SLD-Solid
 62
     7
370
    25
100
AcDbLine
 10
15.0249180124
 20
16.3539320638
 30
0.0
 11
15.0249180124
 21
16.3839320638
 31
0.0
  0
LINE
  5
3D7
330
1F
100
AcDbEntity
  8
0
  6
SLD-Solid
 62
     7
370
    25
100
AcDbLine
 10
14.6449180124
 20
16.3539320638
 30
0.0
 11
14.7372485186
 21
16.3239320638
 31
0.0
  0
LINE
  5
3D8
330
1F
100
AcDbEntity
  8
0
  6
SLD-Solid
 62
     7
370
    25
100
AcDbLine
 10
14.9325875063
 20
16.3239320638
 30
0.0
 11
15.0249180124
 21
16.3539320638
 31
0.0
  0
LINE
  5
3D9
330
1F
100
AcDbEntity
  8
0
  6
SLD-Solid
 62
     7
370
    25
100
AcDbLine
 10
24.5059180124
 20
16.3839320638
 30
0.0
 11
24.5059180124
 21
16.3539320638
 31
0.0
  0
LINE
  5
3DA
330
1F
100
AcDbEntity
  8
0
  6
SLD-Solid
 62
     7
370
    25
100
AcDbLine
 10
24.8859180124
 20
16.3539320638
 30
0.0
 11
24.8859180124
 21
16.3839320638
 31
0.0
  0
LINE
  5
3DB
330
1F
100
AcDbEntity
  8
0
  6
SLD-Solid
 62
     7
370
    25
100
AcDbLine
 10
24.5059180124
 20
16.3539320638
 30
0.0
 11
24.5982485186
 21
16.3239320638
 31
0.0
  0
LINE
  5
3DC
330
1F
100
AcDbEntity
  8
0
  6
SLD-Solid
 62
     7
370
    25
100
AcDbLine
 10
24.7935875063
 20
16.3239320638
 30
0.0
 11
24.8859180124
 21
16.3539320638
 31
0.0
  0
LINE
  5
3DD
330
1F
100
AcDbEntity
  8
0
  6
SLD-Solid
 62
     7
370
    25
100
AcDbLine
 10
34.3669180124
 20
16.3839320638
 30
0.0
 11
34.3669180124
 21
16.3539320638
 31
0.0
  0
LINE
  5
3DE
330
1F
100
AcDbEntity
  8
0
  6
SLD-Solid
 62
     7
370
    25
100
AcDbLine
 10
34.7469180124
 20
16.3539320638
 30
0.0
 11
34.7469180124
 21
16.3839320638
 31
0.0
  0
LINE
  5
3DF
330
1F
100
AcDbEntity
  8
0
  6
SLD-Solid
 62
     7
370
    25
100
AcDbLine
 10
34.3669180124
 20
16.3539320638
 30
0.0
 11
34.4592485186
 21
16.3239320638
 31
0.0
  0
LINE
  5
3E0
330
1F
100
AcDbEntity
  8
0
  6
SLD-Solid
 62
     7
370
    25
100
AcDbLine
 10
34.6545875063
 20
16.3239320638
 30
0.0
 11
34.7469180124
 21
16.3539320638
 31
0.0
  0
LINE
  5
3E1
330
1F
100
AcDbEntity
  8
0
  6
SLD-Solid
 62
     7
370
    25
100
AcDbLine
 10
35.3669180124
 20
16.3839320638
 30
0.0
 11
35.3669180124
 21
16.3539320638
 31
0.0
  0
LINE
  5
3E2
330
1F
100
AcDbEntity
  8
0
  6
SLD-Solid
 62
     7
370
    25
100
AcDbLine
 10
35.7469180124
 20
16.3539320638
 30
0.0
 11
35.7469180124
 21
16.3839320638
 31
0.0
  0
LINE
  5
3E3
330
1F
100
AcDbEntity
  8
0
  6
SLD-Solid
 62
     7
370
    25
100
AcDbLine
 10
35.3669180124
 20
16.3539320638
 30
0.0
 11
35.4592485186
 21
16.3239320638
 31
0.0
  0
LINE
  5
3E4
330
1F
100
AcDbEntity
  8
0
  6
SLD-Solid
 62
     7
370
    25
100
AcDbLine
 10
35.6545875063
 20
16.3239320638
 30
0.0
 11
35.7469180124
 21
16.3539320638
 31
0.0
  0
LINE
  5
3E5
330
1F
100
AcDbEntity
  8
0
  6
SLD-Solid
 62
     7
370
    25
100
AcDbLine
 10
25.5059180124
 20
16.3839320638
 30
0.0
 11
25.5059180124
 21
16.3539320638
 31
0.0
  0
LINE
  5
3E6
330
1F
100
AcDbEntity
  8
0
  6
SLD-Solid
 62
     7
370
    25
100
AcDbLine
 10
25.8859180124
 20
16.3539320638
 30
0.0
 11
25.8859180124
 21
16.3839320638
 31
0.0
  0
LINE
  5
3E7
330
1F
100
AcDbEntity
  8
0
  6
SLD-Solid
 62
     7
370
    25
100
AcDbLine
 10
25.5059180124
 20
16.3539320638
 30
0.0
 11
25.5982485186
 21
16.3239320638
 31
0.0
  0
LINE
  5
3E8
330
1F
100
AcDbEntity
  8
0
  6
SLD-Solid
 62
     7
370
    25
100
AcDbLine
 10
25.7935875063
 20
16.3239320638
 30
0.0
 11
25.8859180124
 21
16.3539320638
 31
0.0
  0
LINE
  5
3E9
330
1F
100
AcDbEntity
  8
0
  6
SLD-Solid
 62
     7
370
    25
100
AcDbLine
 10
5.7839180124
 20
16.3839320638
 30
0.0
 11
5.7839180124
 21
16.3539320638
 31
0.0
  0
LINE
  5
3EA
330
1F
100
AcDbEntity
  8
0
  6
SLD-Solid
 62
     7
370
    25
100
AcDbLine
 10
6.1639180124
 20
16.3539320638
 30
0.0
 11
6.1639180124
 21
16.3839320638
 31
0.0
  0
LINE
  5
3EB
330
1F
100
AcDbEntity
  8
0
  6
SLD-Solid
 62
     7
370
    25
100
AcDbLine
 10
5.7839180124
 20
16.3539320638
 30
0.0
 11
5.8762485186
 21
16.3239320638
 31
0.0
  0
LINE
  5
3EC
330
1F
100
AcDbEntity
  8
0
  6
SLD-Solid
 62
     7
370
    25
100
AcDbLine
 10
6.0715875063
 20
16.3239320638
 30
0.0
 11
6.1639180124
 21
16.3539320638
 31
0.0
  0
LINE
  5
3ED
330
1F
100
AcDbEntity
  8
0
  6
SLD-Solid
 62
     7
370
    25
100
AcDbLine
 10
15.5632759231
 20
15.5339320638
 30
0.0
 11
15.5632759231
 21
15.5154610283
 31
0.0
  0
LINE
  5
3EE
330
1F
100
AcDbEntity
  8
0
  6
SLD-Solid
 62
     7
370
    25
100
AcDbLine
 10
15.8757242357
 20
15.5154610283
 30
0.0
 11
15.8757242357
 21
15.5339320638
 31
0.0
  0
ARC
  5
3EF
330
1F
100
AcDbEntity
  8
0
  6
SLD-Solid
 62
     7
370
    25
100
AcDbCircle
 10
15.7195000794
 20
15.7885394977
 30
0.0
 40
0.3146074338901318
100
AcDbArc
 50
240.2267646167
 51
299.7732353833
  0
LINE
  5
3F0
330
1F
100
AcDbEntity
  8
0
  6
SLD-Solid
 62
     7
370
    25
100
AcDbLine
 10
25.4242759231
 20
15.5339320638
 30
0.0
 11
25.4242759231
 21
15.5154610283
 31
0.0
  0
LINE
  5
3F1
330
1F
100
AcDbEntity
  8
0
  6
SLD-Solid
 62
     7
370
    25
100
AcDbLine
 10
25.7367242357
 20
15.5154610283
 30
0.0
 11
25.7367242357
 21
15.5339320638
 31
0.0
  0
ARC
  5
3F2
330
1F
100
AcDbEntity
  8
0
  6
SLD-Solid
 62
     7
370
    25
100
AcDbCircle
 10
25.5805000794
 20
15.7885394977
 30
0.0
 40
0.3146074338901318
100
AcDbArc
 50
240.2267646167
 51
299.7732353833
  0
LINE
  5
3F3
330
1F
100
AcDbEntity
  8
0
  6
SLD-Solid
 62
     7
370
    25
100
AcDbLine
 10
35.2852759231
 20
15.5339320638
 30
0.0
 11
35.2852759231
 21
15.5154610283
 31
0.0
  0
LINE
  5
3F4
330
1F
100
AcDbEntity
  8
0
  6
SLD-Solid
 62
     7
370
    25
100
AcDbLine
 10
35.5977242357
 20
15.5154610283
 30
0.0
 11
35.5977242357
 21
15.5339320638
 31
0.0
  0
ARC
  5
3F5
330
1F
100
AcDbEntity
  8
0
  6
SLD-Solid
 62
     7
370
    25
100
AcDbCircle
 10
35.4415000794
 20
15.7885394977
 30
0.0
 40
0.3146074338901336
100
AcDbArc
 50
240.2267646167
 51
299.7732353833
  0
LINE
  5
3F6
330
1F
100
AcDbEntity
  8
0
  6
SLD-Solid
 62
     7
370
    25
100
AcDbLine
 10
5.7022759231
 20
15.5339320638
 30
0.0
 11
5.7022759231
 21
15.5154610283
 31
0.0
  0
LINE
  5
3F7
330
1F
100
AcDbEntity
  8
0
  6
SLD-Solid
 62
     7
370
    25
100
AcDbLine
 10
6.0147242357
 20
15.5154610283
 30
0.0
 11
6.0147242357
 21
15.5339320638
 31
0.0
  0
ARC
  5
3F8
330
1F
100
AcDbEntity
  8
0
  6
SLD-Solid
 62
     7
370
    25
100
AcDbCircle
 10
5.8585000794
 20
15.7885394977
 30
0.0
 40
0.3146074338901314
100
AcDbArc
 50
240.2267646167
 51
299.7732353833
  0
LINE
  5
3F9
330
1F
100
AcDbEntity
  8
0
  6
SLD-Solid
 62
     7
370
    25
100
AcDbLine
 10
4.7400290383
 20
15.5339320638
 30
0.0
 11
4.7400290383
 21
16.3339320638
 31
0.0
  0
LINE
  5
3FA
330
1F
100
AcDbEntity
  8
0
  6
SLD-Solid
 62
     7
370
    25
100
AcDbLine
 10
4.5244439712
 20
15.5339320638
 30
0.0
 11
4.5244439712
 21
16.3339320638
 31
0.0
  0
LINE
  5
3FB
330
1F
100
AcDbEntity
  8
0
  6
SLD-Solid
 62
     7
370
    25
100
AcDbLine
 10
4.7400290383
 20
15.5339320638
 30
0.0
 11
4.5244439712
 21
15.5339320638
 31
0.0
  0
LINE
  5
3FC
330
1F
100
AcDbEntity
  8
0
  6
SLD-Solid
 62
     7
370
    25
100
AcDbLine
 10
4.7400290383
 20
16.3339320638
 30
0.0
 11
4.5244439712
 21
16.3339320638
 31
0.0
  0
LINE
  5
3FD
330
1F
100
AcDbEntity
  8
0
  6
SLD-Solid
 62
     7
370
    25
100
AcDbLine
 10
5.4305952873
 20
15.5339320638
 30
0.0
 11
5.4305952873
 21
16.3339320638
 31
0.0
  0
LINE
  5
3FE
330
1F
100
AcDbEntity
  8
0
  6
SLD-Solid
 62
     7
370
    25
100
AcDbLine
 10
5.2541254352
 20
15.5339320638
 30
0.0
 11
5.2541254352
 21
16.3339320638
 31
0.0
  0
SPLINE
  5
3FF
330
1F
100
AcDbEntity
  8
0
  6
SLD-Solid
 62
     7
370
    25
100
AcDbSpline
210
0.0
220
0.0
230
1.0
 70
    24
 71
     3
 72
    10
 73
     6
 74
     0
 42
0.00000001
 43
0.00000001
 40
0.0
 40
0.0
 40
0.0
 40
0.0
 40
0.3127001080851344
 40
0.585202906562633
 40
1.0
 40
1.0
 40
1.0
 40
1.0
 10
5.430595287293855
 20
15.53393206384638
 30
0.0
 10
5.41032620913187
 20
15.53393206384638
 30
0.0
 10
5.372393624054195
 20
15.53393206384638
 30
0.0
 10
5.31152457397615
 20
15.53393206384638
 30
0.0
 10
5.275728793413417
 20
15.53393206384638
 30
0.0
 10
5.254125435244143
 20
15.53393206384638
 30
0.0
  0
SPLINE
  5
400
330
1F
100
AcDbEntity
  8
0
  6
SLD-Solid
 62
     7
370
    25
100
AcDbSpline
210
0.0
220
0.0
230
1.0
 70
    24
 71
     3
 72
    10
 73
     6
 74
     0
 42
0.00000001
 43
0.00000001
 40
0.0
 40
0.0
 40
0.0
 40
0.0
 40
0.3127001080851344
 40
0.585202906562633
 40
1.0
 40
1.0
 40
1.0
 40
1.0
 10
5.430595287293855
 20
16.33393206384638
 30
0.0
 10
5.41032620913187
 20
16.33393206384638
 30
0.0
 10
5.372393624054195
 20
16.33393206384638
 30
0.0
 10
5.31152457397615
 20
16.33393206384638
 30
0.0
 10
5.275728793413417
 20
16.33393206384638
 30
0.0
 10
5.254125435244143
 20
16.33393206384638
 30
0.0
  0
LINE
  5
401
330
1F
100
AcDbEntity
  8
0
  6
SLD-Solid
 62
     7
370
    25
100
AcDbLine
 10
4.7504464327
 20
15.5339320638
 30
0.0
 11
4.7504464327
 21
16.3339320638
 31
0.0
  0
SPLINE
  5
402
330
1F
100
AcDbEntity
  8
0
  6
SLD-Solid
 62
     7
370
    25
100
AcDbSpline
210
0.0
220
0.0
230
1.0
 70
    24
 71
     3
 72
    14
 73
    10
 74
     0
 42
0.00000001
 43
0.00000001
 40
0.0
 40
0.0
 40
0.0
 40
0.0
 40
0.1669732910766208
 40
0.3292393671751918
 40
0.4780643428590361
 40
0.5831555886245606
 40
0.6936208322497824
 40
0.8266861690052619
 40
1.0
 40
1.0
 40
1.0
 40
1.0
 10
5.254125435244143
 20
15.53393206384638
 30
0.0
 10
5.22903244180142
 20
15.53393206384638
 30
0.0
 10
5.17955386215348
 20
15.53393206384638
 30
0.0
 10
5.101996111365833
 20
15.53393206384638
 30
0.0
 10
5.024551742687404
 20
15.53393206384638
 30
0.0
 10
4.948861906699594
 20
15.53393206384638
 30
0.0
 10
4.878362845722521
 20
15.53393206384638
 30
0.0
 10
4.808602710634279
 20
15.53393206384638
 30
0.0
 10
4.77145838691436
 20
15.53393206384638
 30
0.0
 10
4.75044643270455
 20
15.53393206384638
 30
0.0
  0
SPLINE
  5
403
330
1F
100
AcDbEntity
  8
0
  6
SLD-Solid
 62
     7
370
    25
100
AcDbSpline
210
0.0
220
0.0
230
1.0
 70
    24
 71
     3
 72
     9
 73
     5
 74
     0
 42
0.00000001
 43
0.00000001
 40
0.0
 40
0.0
 40
0.0
 40
0.0
 40
0.5218250467819571
 40
1.0
 40
1.0
 40
1.0
 40
1.0
 10
5.254125435244143
 20
16.33393206384638
 30
0.0
 10
5.229222858572642
 20
16.33393206384638
 30
0.0
 10
5.181500778490302
 20
16.33393206384638
 30
0.0
 10
5.127964195003281
 20
16.33393206384638
 30
0.0
 10
5.102364341698927
 20
16.33393206384638
 30
0.0
  0
SPLINE
  5
404
330
1F
100
AcDbEntity
  8
0
  6
SLD-Solid
 62
     7
370
    25
100
AcDbSpline
210
0.0
220
0.0
230
1.0
 70
    24
 71
     3
 72
     9
 73
     5
 74
     0
 42
0.00000001
 43
0.00000001
 40
0.0
 40
0.0
 40
0.0
 40
0.0
 40
0.2402892916448351
 40
1.0
 40
1.0
 40
1.0
 40
1.0
 10
4.845471683186013
 20
16.33393206384638
 30
0.0
 10
4.836071344005857
 20
16.33393206384638
 30
0.0
 10
4.796950419740708
 20
16.33393206384638
 30
0.0
 10
4.770523356010655
 20
16.33393206384638
 30
0.0
 10
4.75044643270455
 20
16.33393206384638
 30
0.0
  0
LINE
  5
405
330
1F
100
AcDbEntity
  8
0
  6
SLD-Solid
 62
     7
370
    25
100
AcDbLine
 10
5.8688886394
 20
15.5339320638
 30
0.0
 11
5.8688886394
 21
16.3263234336
 31
0.0
  0
LINE
  5
406
330
1F
100
AcDbEntity
  8
0
  6
SLD-Solid
 62
     7
370
    25
100
AcDbLine
 10
5.8688886394
 20
15.5339320638
 30
0.0
 11
5.4305952873
 21
15.5339320638
 31
0.0
  0
LINE
  5
407
330
1F
100
AcDbEntity
  8
0
  6
SLD-Solid
 62
     7
370
    25
100
AcDbLine
 10
5.8454716832
 20
16.3339320638
 30
0.0
 11
5.4305952873
 21
16.3339320638
 31
0.0
  0
LINE
  5
408
330
1F
100
AcDbEntity
  8
0
  6
SLD-Solid
 62
     7
370
    25
100
AcDbLine
 10
4.7504464327
 20
15.5339320638
 30
0.0
 11
4.7400290383
 21
15.5339320638
 31
0.0
  0
LINE
  5
409
330
1F
100
AcDbEntity
  8
0
  6
SLD-Solid
 62
     7
370
    25
100
AcDbLine
 10
4.7504464327
 20
16.3339320638
 30
0.0
 11
4.7400290383
 21
16.3339320638
 31
0.0
  0
LINE
  5
40A
330
1F
100
AcDbEntity
  8
0
  6
SLD-Solid
 62
     7
370
    25
100
AcDbLine
 10
5.9740102242
 20
15.5339320638
 30
0.0
 11
5.9740102242
 21
16.3239320638
 31
0.0
  0
LINE
  5
40B
330
1F
100
AcDbEntity
  8
0
  6
SLD-Solid
 62
     7
370
    25
100
AcDbLine
 10
5.9740102242
 20
15.5339320638
 30
0.0
 11
5.8688886394
 21
15.5339320638
 31
0.0
  0
LINE
  5
40C
330
1F
100
AcDbEntity
  8
0
  6
SLD-Solid
 62
     7
370
    25
100
AcDbLine
 10
6.4600237515
 20
15.5339320638
 30
0.0
 11
6.4600237515
 21
16.3339320638
 31
0.0
  0
SPLINE
  5
40D
330
1F
100
AcDbEntity
  8
0
  6
SLD-Solid
 62
     7
370
    25
100
AcDbSpline
210
0.0
220
0.0
230
1.0
 70
    24
 71
     3
 72
    13
 73
     9
 74
     0
 42
0.00000001
 43
0.00000001
 40
0.0
 40
0.0
 40
0.0
 40
0.0
 40
0.1709847685286761
 40
0.3326578081366876
 40
0.4968967494144843
 40
0.6391258064239841
 40
0.8035705820916744
 40
0.9999999999999999
 40
0.9999999999999999
 40
0.9999999999999999
 40
0.9999999999999999
 10
6.460023751514596
 20
15.53393206384638
 30
0.0
 10
6.454170970042426
 20
15.53393206384638
 30
0.0
 10
6.44278414610022
 20
15.53393206384638
 30
0.0
 10
6.404855521774889
 20
15.53393206384638
 30
0.0
 10
6.33894139526914
 20
15.53393206384638
 30
0.0
 10
6.244740891714102
 20
15.53393206384638
 30
0.0
 10
6.124468731713964
 20
15.53393206384638
 30
0.0
 10
6.02704142020404
 20
15.53393206384638
 30
0.0
 10
5.974010224211251
 20
15.53393206384638
 30
0.0
  0
SPLINE
  5
40E
330
1F
100
AcDbEntity
  8
0
  6
SLD-Solid
 62
     7
370
    25
100
AcDbSpline
210
0.0
220
0.0
230
1.0
 70
    24
 71
     3
 72
    13
 73
     9
 74
     0
 42
0.00000001
 43
0.00000001
 40
0.0
 40
0.0
 40
0.0
 40
0.0
 40
0.2039997963554126
 40
0.3968898849872755
 40
0.5928413189226319
 40
0.7625330342457675
 40
0.9587300466264005
 40
1.0
 40
1.0
 40
1.0
 40
1.0
 10
6.460023751514594
 20
16.33393206384638
 30
0.0
 10
6.454174536528503
 20
16.33393206384638
 30
0.0
 10
6.442794651329741
 20
16.33393206384638
 30
0.0
 10
6.404815897733112
 20
16.33393206384638
 30
0.0
 10
6.339084323954528
 20
16.33393206384638
 30
0.0
 10
6.244256831000143
 20
16.33393206384638
 30
0.0
 10
6.164570814955704
 20
16.33393206384638
 30
0.0
 10
6.111574668981288
 20
16.33393206384638
 30
0.0
 10
6.102364341698934
 20
16.33393206384638
 30
0.0
  0
LINE
  5
40F
330
1F
100
AcDbEntity
  8
0
  6
SLD-Solid
 62
     7
370
    25
100
AcDbLine
 10
14.6010290383
 20
15.5339320638
 30
0.0
 11
14.6010290383
 21
16.3339320638
 31
0.0
  0
LINE
  5
410
330
1F
100
AcDbEntity
  8
0
  6
SLD-Solid
 62
     7
370
    25
100
AcDbLine
 10
14.3854439712
 20
15.5339320638
 30
0.0
 11
14.3854439712
 21
16.3339320638
 31
0.0
  0
LINE
  5
411
330
1F
100
AcDbEntity
  8
0
  6
SLD-Solid
 62
     7
370
    25
100
AcDbLine
 10
14.6010290383
 20
15.5339320638
 30
0.0
 11
14.3854439712
 21
15.5339320638
 31
0.0
  0
LINE
  5
412
330
1F
100
AcDbEntity
  8
0
  6
SLD-Solid
 62
     7
370
    25
100
AcDbLine
 10
14.6010290383
 20
16.3339320638
 30
0.0
 11
14.3854439712
 21
16.3339320638
 31
0.0
  0
LINE
  5
413
330
1F
100
AcDbEntity
  8
0
  6
SLD-Solid
 62
     7
370
    25
100
AcDbLine
 10
15.2915952873
 20
15.5339320638
 30
0.0
 11
15.2915952873
 21
16.3339320638
 31
0.0
  0
LINE
  5
414
330
1F
100
AcDbEntity
  8
0
  6
SLD-Solid
 62
     7
370
    25
100
AcDbLine
 10
15.1151254352
 20
15.5339320638
 30
0.0
 11
15.1151254352
 21
16.3339320638
 31
0.0
  0
SPLINE
  5
415
330
1F
100
AcDbEntity
  8
0
  6
SLD-Solid
 62
     7
370
    25
100
AcDbSpline
210
0.0
220
0.0
230
1.0
 70
    24
 71
     3
 72
    10
 73
     6
 74
     0
 42
0.00000001
 43
0.00000001
 40
0.0
 40
0.0
 40
0.0
 40
0.0
 40
0.3127001080851344
 40
0.585202906562633
 40
1.0
 40
1.0
 40
1.0
 40
1.0
 10
15.29159528729385
 20
15.53393206384638
 30
0.0
 10
15.27132620913187
 20
15.53393206384638
 30
0.0
 10
15.2333936240542
 20
15.53393206384638
 30
0.0
 10
15.17252457397615
 20
15.53393206384638
 30
0.0
 10
15.13672879341342
 20
15.53393206384638
 30
0.0
 10
15.11512543524414
 20
15.53393206384638
 30
0.0
  0
SPLINE
  5
416
330
1F
100
AcDbEntity
  8
0
  6
SLD-Solid
 62
     7
370
    25
100
AcDbSpline
210
0.0
220
0.0
230
1.0
 70
    24
 71
     3
 72
    10
 73
     6
 74
     0
 42
0.00000001
 43
0.00000001
 40
0.0
 40
0.0
 40
0.0
 40
0.0
 40
0.3127001080851344
 40
0.585202906562633
 40
1.0
 40
1.0
 40
1.0
 40
1.0
 10
15.29159528729385
 20
16.33393206384638
 30
0.0
 10
15.27132620913187
 20
16.33393206384638
 30
0.0
 10
15.2333936240542
 20
16.33393206384638
 30
0.0
 10
15.17252457397615
 20
16.33393206384638
 30
0.0
 10
15.13672879341342
 20
16.33393206384638
 30
0.0
 10
15.11512543524414
 20
16.33393206384638
 30
0.0
  0
LINE
  5
417
330
1F
100
AcDbEntity
  8
0
  6
SLD-Solid
 62
     7
370
    25
100
AcDbLine
 10
14.6114464327
 20
15.5339320638
 30
0.0
 11
14.6114464327
 21
16.3339320638
 31
0.0
  0
SPLINE
  5
418
330
1F
100
AcDbEntity
  8
0
  6
SLD-Solid
 62
     7
370
    25
100
AcDbSpline
210
0.0
220
0.0
230
1.0
 70
    24
 71
     3
 72
    14
 73
    10
 74
     0
 42
0.00000001
 43
0.00000001
 40
0.0
 40
0.0
 40
0.0
 40
0.0
 40
0.1669732910766208
 40
0.3292393671751918
 40
0.4780643428590361
 40
0.5831555886245606
 40
0.6936208322497824
 40
0.8266861690052619
 40
1.0
 40
1.0
 40
1.0
 40
1.0
 10
15.11512543524414
 20
15.53393206384638
 30
0.0
 10
15.09003244180142
 20
15.53393206384638
 30
0.0
 10
15.04055386215347
 20
15.53393206384638
 30
0.0
 10
14.96299611136583
 20
15.53393206384638
 30
0.0
 10
14.8855517426874
 20
15.53393206384638
 30
0.0
 10
14.80986190669959
 20
15.53393206384638
 30
0.0
 10
14.73936284572252
 20
15.53393206384638
 30
0.0
 10
14.66960271063427
 20
15.53393206384638
 30
0.0
 10
14.63245838691436
 20
15.53393206384638
 30
0.0
 10
14.61144643270455
 20
15.53393206384638
 30
0.0
  0
SPLINE
  5
419
330
1F
100
AcDbEntity
  8
0
  6
SLD-Solid
 62
     7
370
    25
100
AcDbSpline
210
0.0
220
0.0
230
1.0
 70
    24
 71
     3
 72
     9
 73
     5
 74
     0
 42
0.00000001
 43
0.00000001
 40
0.0
 40
0.0
 40
0.0
 40
0.0
 40
0.52182504678196
 40
1.0
 40
1.0
 40
1.0
 40
1.0
 10
15.11512543524414
 20
16.33393206384638
 30
0.0
 10
15.09022285857264
 20
16.33393206384638
 30
0.0
 10
15.0425007784903
 20
16.33393206384638
 30
0.0
 10
14.98896419500328
 20
16.33393206384638
 30
0.0
 10
14.96336434169893
 20
16.33393206384638
 30
0.0
  0
SPLINE
  5
41A
330
1F
100
AcDbEntity
  8
0
  6
SLD-Solid
 62
     7
370
    25
100
AcDbSpline
210
0.0
220
0.0
230
1.0
 70
    24
 71
     3
 72
     9
 73
     5
 74
     0
 42
0.00000001
 43
0.00000001
 40
0.0
 40
0.0
 40
0.0
 40
0.0
 40
0.2402892916448341
 40
1.0
 40
1.0
 40
1.0
 40
1.0
 10
14.70647168318601
 20
16.33393206384638
 30
0.0
 10
14.69707134400585
 20
16.33393206384638
 30
0.0
 10
14.65795041974071
 20
16.33393206384638
 30
0.0
 10
14.63152335601066
 20
16.33393206384638
 30
0.0
 10
14.61144643270455
 20
16.33393206384638
 30
0.0
  0
LINE
  5
41B
330
1F
100
AcDbEntity
  8
0
  6
SLD-Solid
 62
     7
370
    25
100
AcDbLine
 10
15.7298886394
 20
15.5339320638
 30
0.0
 11
15.7298886394
 21
16.3263234336
 31
0.0
  0
LINE
  5
41C
330
1F
100
AcDbEntity
  8
0
  6
SLD-Solid
 62
     7
370
    25
100
AcDbLine
 10
15.7298886394
 20
15.5339320638
 30
0.0
 11
15.2915952873
 21
15.5339320638
 31
0.0
  0
LINE
  5
41D
330
1F
100
AcDbEntity
  8
0
  6
SLD-Solid
 62
     7
370
    25
100
AcDbLine
 10
15.7064716832
 20
16.3339320638
 30
0.0
 11
15.2915952873
 21
16.3339320638
 31
0.0
  0
LINE
  5
41E
330
1F
100
AcDbEntity
  8
0
  6
SLD-Solid
 62
     7
370
    25
100
AcDbLine
 10
14.6114464327
 20
15.5339320638
 30
0.0
 11
14.6010290383
 21
15.5339320638
 31
0.0
  0
LINE
  5
41F
330
1F
100
AcDbEntity
  8
0
  6
SLD-Solid
 62
     7
370
    25
100
AcDbLine
 10
14.6114464327
 20
16.3339320638
 30
0.0
 11
14.6010290383
 21
16.3339320638
 31
0.0
  0
LINE
  5
420
330
1F
100
AcDbEntity
  8
0
  6
SLD-Solid
 62
     7
370
    25
100
AcDbLine
 10
15.8350102242
 20
15.5339320638
 30
0.0
 11
15.8350102242
 21
16.3239320638
 31
0.0
  0
LINE
  5
421
330
1F
100
AcDbEntity
  8
0
  6
SLD-Solid
 62
     7
370
    25
100
AcDbLine
 10
15.8350102242
 20
15.5339320638
 30
0.0
 11
15.7298886394
 21
15.5339320638
 31
0.0
  0
LINE
  5
422
330
1F
100
AcDbEntity
  8
0
  6
SLD-Solid
 62
     7
370
    25
100
AcDbLine
 10
16.3210237515
 20
15.5339320638
 30
0.0
 11
16.3210237515
 21
16.3339320638
 31
0.0
  0
SPLINE
  5
423
330
1F
100
AcDbEntity
  8
0
  6
SLD-Solid
 62
     7
370
    25
100
AcDbSpline
210
0.0
220
0.0
230
1.0
 70
    24
 71
     3
 72
    13
 73
     9
 74
     0
 42
0.00000001
 43
0.00000001
 40
0.0
 40
0.0
 40
0.0
 40
0.0
 40
0.1709847685286762
 40
0.3326578081366875
 40
0.4968967494144849
 40
0.6391258064239842
 40
0.8035705820916746
 40
1.0
 40
1.0
 40
1.0
 40
1.0
 10
16.32102375151459
 20
15.53393206384638
 30
0.0
 10
16.31517097004242
 20
15.53393206384638
 30
0.0
 10
16.30378414610022
 20
15.53393206384638
 30
0.0
 10
16.26585552177489
 20
15.53393206384638
 30
0.0
 10
16.19994139526913
 20
15.53393206384638
 30
0.0
 10
16.1057408917141
 20
15.53393206384638
 30
0.0
 10
15.98546873171396
 20
15.53393206384638
 30
0.0
 10
15.88804142020403
 20
15.53393206384638
 30
0.0
 10
15.83501022421125
 20
15.53393206384638
 30
0.0
  0
SPLINE
  5
424
330
1F
100
AcDbEntity
  8
0
  6
SLD-Solid
 62
     7
370
    25
100
AcDbSpline
210
0.0
220
0.0
230
1.0
 70
    24
 71
     3
 72
    13
 73
     9
 74
     0
 42
0.00000001
 43
0.00000001
 40
0.0
 40
0.0
 40
0.0
 40
0.0
 40
0.203999796355413
 40
0.3968898849872759
 40
0.5928413189226335
 40
0.7625330342457686
 40
0.9587300466264019
 40
1.0
 40
1.0
 40
1.0
 40
1.0
 10
16.32102375151459
 20
16.33393206384638
 30
0.0
 10
16.31517453652851
 20
16.33393206384638
 30
0.0
 10
16.30379465132975
 20
16.33393206384638
 30
0.0
 10
16.26581589773311
 20
16.33393206384638
 30
0.0
 10
16.20008432395453
 20
16.33393206384638
 30
0.0
 10
16.10525683100014
 20
16.33393206384638
 30
0.0
 10
16.0255708149557
 20
16.33393206384638
 30
0.0
 10
15.97257466898129
 20
16.33393206384638
 30
0.0
 10
15.96336434169893
 20
16.33393206384638
 30
0.0
  0
LINE
  5
425
330
1F
100
AcDbEntity
  8
0
  6
SLD-Solid
 62
     7
370
    25
100
AcDbLine
 10
34.3230290383
 20
15.5339320638
 30
0.0
 11
34.3230290383
 21
16.3339320638
 31
0.0
  0
LINE
  5
426
330
1F
100
AcDbEntity
  8
0
  6
SLD-Solid
 62
     7
370
    25
100
AcDbLine
 10
34.1074439712
 20
15.5339320638
 30
0.0
 11
34.1074439712
 21
16.3339320638
 31
0.0
  0
LINE
  5
427
330
1F
100
AcDbEntity
  8
0
  6
SLD-Solid
 62
     7
370
    25
100
AcDbLine
 10
34.3230290383
 20
15.5339320638
 30
0.0
 11
34.1074439712
 21
15.5339320638
 31
0.0
  0
LINE
  5
428
330
1F
100
AcDbEntity
  8
0
  6
SLD-Solid
 62
     7
370
    25
100
AcDbLine
 10
34.3230290383
 20
16.3339320638
 30
0.0
 11
34.1074439712
 21
16.3339320638
 31
0.0
  0
LINE
  5
429
330
1F
100
AcDbEntity
  8
0
  6
SLD-Solid
 62
     7
370
    25
100
AcDbLine
 10
35.0135952873
 20
15.5339320638
 30
0.0
 11
35.0135952873
 21
16.3339320638
 31
0.0
  0
LINE
  5
42A
330
1F
100
AcDbEntity
  8
0
  6
SLD-Solid
 62
     7
370
    25
100
AcDbLine
 10
34.8371254352
 20
15.5339320638
 30
0.0
 11
34.8371254352
 21
16.3339320638
 31
0.0
  0
SPLINE
  5
42B
330
1F
100
AcDbEntity
  8
0
  6
SLD-Solid
 62
     7
370
    25
100
AcDbSpline
210
0.0
220
0.0
230
1.0
 70
    24
 71
     3
 72
    10
 73
     6
 74
     0
 42
0.00000001
 43
0.00000001
 40
0.0
 40
0.0
 40
0.0
 40
0.0
 40
0.3127001080851344
 40
0.585202906562633
 40
1.0
 40
1.0
 40
1.0
 40
1.0
 10
35.01359528729385
 20
15.53393206384638
 30
0.0
 10
34.99332620913187
 20
15.53393206384638
 30
0.0
 10
34.9553936240542
 20
15.53393206384638
 30
0.0
 10
34.89452457397614
 20
15.53393206384638
 30
0.0
 10
34.85872879341341
 20
15.53393206384638
 30
0.0
 10
34.83712543524414
 20
15.53393206384638
 30
0.0
  0
SPLINE
  5
42C
330
1F
100
AcDbEntity
  8
0
  6
SLD-Solid
 62
     7
370
    25
100
AcDbSpline
210
0.0
220
0.0
230
1.0
 70
    24
 71
     3
 72
    10
 73
     6
 74
     0
 42
0.00000001
 43
0.00000001
 40
0.0
 40
0.0
 40
0.0
 40
0.0
 40
0.3127001080851344
 40
0.585202906562633
 40
1.0
 40
1.0
 40
1.0
 40
1.0
 10
35.01359528729385
 20
16.33393206384638
 30
0.0
 10
34.99332620913187
 20
16.33393206384638
 30
0.0
 10
34.9553936240542
 20
16.33393206384638
 30
0.0
 10
34.89452457397614
 20
16.33393206384638
 30
0.0
 10
34.85872879341341
 20
16.33393206384638
 30
0.0
 10
34.83712543524414
 20
16.33393206384638
 30
0.0
  0
LINE
  5
42D
330
1F
100
AcDbEntity
  8
0
  6
SLD-Solid
 62
     7
370
    25
100
AcDbLine
 10
34.3334464327
 20
15.5339320638
 30
0.0
 11
34.3334464327
 21
16.3339320638
 31
0.0
  0
SPLINE
  5
42E
330
1F
100
AcDbEntity
  8
0
  6
SLD-Solid
 62
     7
370
    25
100
AcDbSpline
210
0.0
220
0.0
230
1.0
 70
    24
 71
     3
 72
    14
 73
    10
 74
     0
 42
0.00000001
 43
0.00000001
 40
0.0
 40
0.0
 40
0.0
 40
0.0
 40
0.1669732910766208
 40
0.3292393671751918
 40
0.4780643428590361
 40
0.5831555886245606
 40
0.6936208322497824
 40
0.8266861690052619
 40
1.0
 40
1.0
 40
1.0
 40
1.0
 10
34.83712543524414
 20
15.53393206384638
 30
0.0
 10
34.81203244180141
 20
15.53393206384638
 30
0.0
 10
34.76255386215347
 20
15.53393206384638
 30
0.0
 10
34.68499611136583
 20
15.53393206384638
 30
0.0
 10
34.6075517426874
 20
15.53393206384638
 30
0.0
 10
34.53186190669959
 20
15.53393206384638
 30
0.0
 10
34.46136284572252
 20
15.53393206384638
 30
0.0
 10
34.39160271063427
 20
15.53393206384638
 30
0.0
 10
34.35445838691435
 20
15.53393206384638
 30
0.0
 10
34.33344643270455
 20
15.53393206384638
 30
0.0
  0
SPLINE
  5
42F
330
1F
100
AcDbEntity
  8
0
  6
SLD-Solid
 62
     7
370
    25
100
AcDbSpline
210
0.0
220
0.0
230
1.0
 70
    24
 71
     3
 72
     9
 73
     5
 74
     0
 42
0.00000001
 43
0.00000001
 40
0.0
 40
0.0
 40
0.0
 40
0.0
 40
0.5218250467819571
 40
1.0
 40
1.0
 40
1.0
 40
1.0
 10
34.83712543524414
 20
16.33393206384638
 30
0.0
 10
34.81222285857264
 20
16.33393206384638
 30
0.0
 10
34.76450077849029
 20
16.33393206384638
 30
0.0
 10
34.71096419500328
 20
16.33393206384638
 30
0.0
 10
34.68536434169892
 20
16.33393206384638
 30
0.0
  0
SPLINE
  5
430
330
1F
100
AcDbEntity
  8
0
  6
SLD-Solid
 62
     7
370
    25
100
AcDbSpline
210
0.0
220
0.0
230
1.0
 70
    24
 71
     3
 72
     9
 73
     5
 74
     0
 42
0.00000001
 43
0.00000001
 40
0.0
 40
0.0
 40
0.0
 40
0.0
 40
0.2402892916448351
 40
1.0
 40
1.0
 40
1.0
 40
1.0
 10
34.428471683186
 20
16.33393206384638
 30
0.0
 10
34.41907134400584
 20
16.33393206384638
 30
0.0
 10
34.37995041974071
 20
16.33393206384638
 30
0.0
 10
34.35352335601065
 20
16.33393206384638
 30
0.0
 10
34.33344643270455
 20
16.33393206384638
 30
0.0
  0
LINE
  5
431
330
1F
100
AcDbEntity
  8
0
  6
SLD-Solid
 62
     7
370
    25
100
AcDbLine
 10
35.4518886394
 20
15.5339320638
 30
0.0
 11
35.4518886394
 21
16.3263234336
 31
0.0
  0
LINE
  5
432
330
1F
100
AcDbEntity
  8
0
  6
SLD-Solid
 62
     7
370
    25
100
AcDbLine
 10
35.4518886394
 20
15.5339320638
 30
0.0
 11
35.0135952873
 21
15.5339320638
 31
0.0
  0
LINE
  5
433
330
1F
100
AcDbEntity
  8
0
  6
SLD-Solid
 62
     7
370
    25
100
AcDbLine
 10
35.4284716832
 20
16.3339320638
 30
0.0
 11
35.0135952873
 21
16.3339320638
 31
0.0
  0
LINE
  5
434
330
1F
100
AcDbEntity
  8
0
  6
SLD-Solid
 62
     7
370
    25
100
AcDbLine
 10
34.3334464327
 20
15.5339320638
 30
0.0
 11
34.3230290383
 21
15.5339320638
 31
0.0
  0
LINE
  5
435
330
1F
100
AcDbEntity
  8
0
  6
SLD-Solid
 62
     7
370
    25
100
AcDbLine
 10
34.3334464327
 20
16.3339320638
 30
0.0
 11
34.3230290383
 21
16.3339320638
 31
0.0
  0
LINE
  5
436
330
1F
100
AcDbEntity
  8
0
  6
SLD-Solid
 62
     7
370
    25
100
AcDbLine
 10
35.5570102242
 20
15.5339320638
 30
0.0
 11
35.5570102242
 21
16.3239320638
 31
0.0
  0
LINE
  5
437
330
1F
100
AcDbEntity
  8
0
  6
SLD-Solid
 62
     7
370
    25
100
AcDbLine
 10
35.5570102242
 20
15.5339320638
 30
0.0
 11
35.4518886394
 21
15.5339320638
 31
0.0
  0
LINE
  5
438
330
1F
100
AcDbEntity
  8
0
  6
SLD-Solid
 62
     7
370
    25
100
AcDbLine
 10
36.0430237515
 20
15.5339320638
 30
0.0
 11
36.0430237515
 21
16.3339320638
 31
0.0
  0
SPLINE
  5
439
330
1F
100
AcDbEntity
  8
0
  6
SLD-Solid
 62
     7
370
    25
100
AcDbSpline
210
0.0
220
0.0
230
1.0
 70
    24
 71
     3
 72
    13
 73
     9
 74
     0
 42
0.00000001
 43
0.00000001
 40
0.0
 40
0.0
 40
0.0
 40
0.0
 40
0.1709847685286761
 40
0.3326578081366876
 40
0.4968967494144843
 40
0.6391258064239841
 40
0.8035705820916744
 40
0.9999999999999999
 40
0.9999999999999999
 40
0.9999999999999999
 40
0.9999999999999999
 10
36.04302375151459
 20
15.53393206384638
 30
0.0
 10
36.03717097004242
 20
15.53393206384638
 30
0.0
 10
36.02578414610021
 20
15.53393206384638
 30
0.0
 10
35.98785552177489
 20
15.53393206384638
 30
0.0
 10
35.92194139526913
 20
15.53393206384638
 30
0.0
 10
35.8277408917141
 20
15.53393206384638
 30
0.0
 10
35.70746873171394
 20
15.53393206384638
 30
0.0
 10
35.61004142020403
 20
15.53393206384638
 30
0.0
 10
35.55701022421125
 20
15.53393206384638
 30
0.0
  0
SPLINE
  5
43A
330
1F
100
AcDbEntity
  8
0
  6
SLD-Solid
 62
     7
370
    25
100
AcDbSpline
210
0.0
220
0.0
230
1.0
 70
    24
 71
     3
 72
    13
 73
     9
 74
     0
 42
0.00000001
 43
0.00000001
 40
0.0
 40
0.0
 40
0.0
 40
0.0
 40
0.2039997963554126
 40
0.3968898849872755
 40
0.5928413189226319
 40
0.7625330342457675
 40
0.9587300466264005
 40
1.0
 40
1.0
 40
1.0
 40
1.0
 10
36.04302375151459
 20
16.33393206384638
 30
0.0
 10
36.03717453652851
 20
16.33393206384638
 30
0.0
 10
36.02579465132975
 20
16.33393206384638
 30
0.0
 10
35.98781589773311
 20
16.33393206384638
 30
0.0
 10
35.92208432395453
 20
16.33393206384638
 30
0.0
 10
35.82725683100014
 20
16.33393206384638
 30
0.0
 10
35.74757081495569
 20
16.33393206384638
 30
0.0
 10
35.69457466898128
 20
16.33393206384638
 30
0.0
 10
35.68536434169893
 20
16.33393206384638
 30
0.0
  0
LINE
  5
43B
330
1F
100
AcDbEntity
  8
0
  6
SLD-Solid
 62
     7
370
    25
100
AcDbLine
 10
24.4620290383
 20
15.5339320638
 30
0.0
 11
24.4620290383
 21
16.3339320638
 31
0.0
  0
LINE
  5
43C
330
1F
100
AcDbEntity
  8
0
  6
SLD-Solid
 62
     7
370
    25
100
AcDbLine
 10
24.2464439712
 20
15.5339320638
 30
0.0
 11
24.2464439712
 21
16.3339320638
 31
0.0
  0
LINE
  5
43D
330
1F
100
AcDbEntity
  8
0
  6
SLD-Solid
 62
     7
370
    25
100
AcDbLine
 10
24.4620290383
 20
15.5339320638
 30
0.0
 11
24.2464439712
 21
15.5339320638
 31
0.0
  0
LINE
  5
43E
330
1F
100
AcDbEntity
  8
0
  6
SLD-Solid
 62
     7
370
    25
100
AcDbLine
 10
24.4620290383
 20
16.3339320638
 30
0.0
 11
24.2464439712
 21
16.3339320638
 31
0.0
  0
LINE
  5
43F
330
1F
100
AcDbEntity
  8
0
  6
SLD-Solid
 62
     7
370
    25
100
AcDbLine
 10
25.1525952873
 20
15.5339320638
 30
0.0
 11
25.1525952873
 21
16.3339320638
 31
0.0
  0
LINE
  5
440
330
1F
100
AcDbEntity
  8
0
  6
SLD-Solid
 62
     7
370
    25
100
AcDbLine
 10
24.9761254352
 20
15.5339320638
 30
0.0
 11
24.9761254352
 21
16.3339320638
 31
0.0
  0
SPLINE
  5
441
330
1F
100
AcDbEntity
  8
0
  6
SLD-Solid
 62
     7
370
    25
100
AcDbSpline
210
0.0
220
0.0
230
1.0
 70
    24
 71
     3
 72
    10
 73
     6
 74
     0
 42
0.00000001
 43
0.00000001
 40
0.0
 40
0.0
 40
0.0
 40
0.0
 40
0.3127001080851385
 40
0.5852029065626303
 40
1.0
 40
1.0
 40
1.0
 40
1.0
 10
25.15259528729385
 20
15.53393206384638
 30
0.0
 10
25.13232620913187
 20
15.53393206384638
 30
0.0
 10
25.0943936240542
 20
15.53393206384638
 30
0.0
 10
25.03352457397614
 20
15.53393206384638
 30
0.0
 10
24.99772879341342
 20
15.53393206384638
 30
0.0
 10
24.97612543524414
 20
15.53393206384638
 30
0.0
  0
SPLINE
  5
442
330
1F
100
AcDbEntity
  8
0
  6
SLD-Solid
 62
     7
370
    25
100
AcDbSpline
210
0.0
220
0.0
230
1.0
 70
    24
 71
     3
 72
    10
 73
     6
 74
     0
 42
0.00000001
 43
0.00000001
 40
0.0
 40
0.0
 40
0.0
 40
0.0
 40
0.3127001080851385
 40
0.5852029065626303
 40
1.0
 40
1.0
 40
1.0
 40
1.0
 10
25.15259528729385
 20
16.33393206384638
 30
0.0
 10
25.13232620913187
 20
16.33393206384638
 30
0.0
 10
25.0943936240542
 20
16.33393206384638
 30
0.0
 10
25.03352457397614
 20
16.33393206384638
 30
0.0
 10
24.99772879341342
 20
16.33393206384638
 30
0.0
 10
24.97612543524414
 20
16.33393206384638
 30
0.0
  0
LINE
  5
443
330
1F
100
AcDbEntity
  8
0
  6
SLD-Solid
 62
     7
370
    25
100
AcDbLine
 10
24.4724464327
 20
15.5339320638
 30
0.0
 11
24.4724464327
 21
16.3339320638
 31
0.0
  0
SPLINE
  5
444
330
1F
100
AcDbEntity
  8
0
  6
SLD-Solid
 62
     7
370
    25
100
AcDbSpline
210
0.0
220
0.0
230
1.0
 70
    24
 71
     3
 72
    14
 73
    10
 74
     0
 42
0.00000001
 43
0.00000001
 40
0.0
 40
0.0
 40
0.0
 40
0.0
 40
0.1669732910766201
 40
0.3292393671751912
 40
0.4780643428590354
 40
0.5831555886245608
 40
0.6936208322497819
 40
0.8266861690052614
 40
1.0
 40
1.0
 40
1.0
 40
1.0
 10
24.97612543524414
 20
15.53393206384638
 30
0.0
 10
24.95103244180141
 20
15.53393206384638
 30
0.0
 10
24.90155386215347
 20
15.53393206384638
 30
0.0
 10
24.82399611136584
 20
15.53393206384638
 30
0.0
 10
24.7465517426874
 20
15.53393206384638
 30
0.0
 10
24.67086190669959
 20
15.53393206384638
 30
0.0
 10
24.60036284572252
 20
15.53393206384638
 30
0.0
 10
24.53060271063427
 20
15.53393206384638
 30
0.0
 10
24.49345838691436
 20
15.53393206384638
 30
0.0
 10
24.47244643270455
 20
15.53393206384638
 30
0.0
  0
SPLINE
  5
445
330
1F
100
AcDbEntity
  8
0
  6
SLD-Solid
 62
     7
370
    25
100
AcDbSpline
210
0.0
220
0.0
230
1.0
 70
    24
 71
     3
 72
     9
 73
     5
 74
     0
 42
0.00000001
 43
0.00000001
 40
0.0
 40
0.0
 40
0.0
 40
0.0
 40
0.521825046781959
 40
1.0
 40
1.0
 40
1.0
 40
1.0
 10
24.97612543524414
 20
16.33393206384638
 30
0.0
 10
24.95122285857264
 20
16.33393206384638
 30
0.0
 10
24.90350077849029
 20
16.33393206384638
 30
0.0
 10
24.84996419500328
 20
16.33393206384638
 30
0.0
 10
24.82436434169892
 20
16.33393206384638
 30
0.0
  0
SPLINE
  5
446
330
1F
100
AcDbEntity
  8
0
  6
SLD-Solid
 62
     7
370
    25
100
AcDbSpline
210
0.0
220
0.0
230
1.0
 70
    24
 71
     3
 72
     9
 73
     5
 74
     0
 42
0.00000001
 43
0.00000001
 40
0.0
 40
0.0
 40
0.0
 40
0.0
 40
0.2402892916448335
 40
1.0
 40
1.0
 40
1.0
 40
1.0
 10
24.56747168318601
 20
16.33393206384638
 30
0.0
 10
24.55807134400585
 20
16.33393206384638
 30
0.0
 10
24.51895041974071
 20
16.33393206384638
 30
0.0
 10
24.49252335601065
 20
16.33393206384638
 30
0.0
 10
24.47244643270455
 20
16.33393206384638
 30
0.0
  0
LINE
  5
447
330
1F
100
AcDbEntity
  8
0
  6
SLD-Solid
 62
     7
370
    25
100
AcDbLine
 10
25.5908886394
 20
15.5339320638
 30
0.0
 11
25.5908886394
 21
16.3263234336
 31
0.0
  0
LINE
  5
448
330
1F
100
AcDbEntity
  8
0
  6
SLD-Solid
 62
     7
370
    25
100
AcDbLine
 10
25.5908886394
 20
15.5339320638
 30
0.0
 11
25.1525952873
 21
15.5339320638
 31
0.0
  0
LINE
  5
449
330
1F
100
AcDbEntity
  8
0
  6
SLD-Solid
 62
     7
370
    25
100
AcDbLine
 10
25.5674716832
 20
16.3339320638
 30
0.0
 11
25.1525952873
 21
16.3339320638
 31
0.0
  0
LINE
  5
44A
330
1F
100
AcDbEntity
  8
0
  6
SLD-Solid
 62
     7
370
    25
100
AcDbLine
 10
24.4724464327
 20
15.5339320638
 30
0.0
 11
24.4620290383
 21
15.5339320638
 31
0.0
  0
LINE
  5
44B
330
1F
100
AcDbEntity
  8
0
  6
SLD-Solid
 62
     7
370
    25
100
AcDbLine
 10
24.4724464327
 20
16.3339320638
 30
0.0
 11
24.4620290383
 21
16.3339320638
 31
0.0
  0
LINE
  5
44C
330
1F
100
AcDbEntity
  8
0
  6
SLD-Solid
 62
     7
370
    25
100
AcDbLine
 10
25.6960102242
 20
15.5339320638
 30
0.0
 11
25.6960102242
 21
16.3239320638
 31
0.0
  0
LINE
  5
44D
330
1F
100
AcDbEntity
  8
0
  6
SLD-Solid
 62
     7
370
    25
100
AcDbLine
 10
25.6960102242
 20
15.5339320638
 30
0.0
 11
25.5908886394
 21
15.5339320638
 31
0.0
  0
LINE
  5
44E
330
1F
100
AcDbEntity
  8
0
  6
SLD-Solid
 62
     7
370
    25
100
AcDbLine
 10
26.1820237515
 20
15.5339320638
 30
0.0
 11
26.1820237515
 21
16.3339320638
 31
0.0
  0
SPLINE
  5
44F
330
1F
100
AcDbEntity
  8
0
  6
SLD-Solid
 62
     7
370
    25
100
AcDbSpline
210
0.0
220
0.0
230
1.0
 70
    24
 71
     3
 72
    13
 73
     9
 74
     0
 42
0.00000001
 43
0.00000001
 40
0.0
 40
0.0
 40
0.0
 40
0.0
 40
0.1709847685286761
 40
0.3326578081366873
 40
0.4968967494144849
 40
0.6391258064239841
 40
0.803570582091675
 40
0.9999999999999999
 40
0.9999999999999999
 40
0.9999999999999999
 40
0.9999999999999999
 10
26.18202375151459
 20
15.53393206384638
 30
0.0
 10
26.17617097004242
 20
15.53393206384638
 30
0.0
 10
26.16478414610022
 20
15.53393206384638
 30
0.0
 10
26.12685552177489
 20
15.53393206384638
 30
0.0
 10
26.06094139526913
 20
15.53393206384638
 30
0.0
 10
25.9667408917141
 20
15.53393206384638
 30
0.0
 10
25.84646873171395
 20
15.53393206384638
 30
0.0
 10
25.74904142020403
 20
15.53393206384638
 30
0.0
 10
25.69601022421125
 20
15.53393206384638
 30
0.0
  0
SPLINE
  5
450
330
1F
100
AcDbEntity
  8
0
  6
SLD-Solid
 62
     7
370
    25
100
AcDbSpline
210
0.0
220
0.0
230
1.0
 70
    24
 71
     3
 72
    13
 73
     9
 74
     0
 42
0.00000001
 43
0.00000001
 40
0.0
 40
0.0
 40
0.0
 40
0.0
 40
0.2039997963554128
 40
0.3968898849872754
 40
0.5928413189226331
 40
0.762533034245768
 40
0.9587300466264018
 40
1.0
 40
1.0
 40
1.0
 40
1.0
 10
26.18202375151459
 20
16.33393206384638
 30
0.0
 10
26.17617453652851
 20
16.33393206384638
 30
0.0
 10
26.16479465132974
 20
16.33393206384638
 30
0.0
 10
26.12681589773311
 20
16.33393206384638
 30
0.0
 10
26.06108432395453
 20
16.33393206384638
 30
0.0
 10
25.96625683100014
 20
16.33393206384638
 30
0.0
 10
25.88657081495569
 20
16.33393206384638
 30
0.0
 10
25.83357466898129
 20
16.33393206384638
 30
0.0
 10
25.82436434169893
 20
16.33393206384638
 30
0.0
  0
LINE
  5
451
330
1F
100
AcDbEntity
  8
0
  6
SLD-Solid
 62
     7
370
    25
100
AcDbLine
 10
16.2595247644
 20
16.3839320638
 30
0.0
 11
13.8284981896
 21
16.3839320638
 31
0.0
  0
ARC
  5
452
330
1F
100
AcDbEntity
  8
0
  6
SLD-Solid
 62
     7
370
    25
100
AcDbCircle
 10
16.2595247644
 20
16.3139320638
 30
0.0
 40
0.0700000000000003
100
AcDbArc
 50
0.0
 51
90.0
  0
ARC
  5
453
330
1F
100
AcDbEntity
  8
0
  6
SLD-Solid
 62
     7
370
    25
100
AcDbCircle
 10
16.2595247644
 20
16.3139320638
 30
0.0
 40
0.139999999999997
100
AcDbArc
 50
0.0
 51
90.0
  0
ARC
  5
454
330
1F
100
AcDbEntity
  8
0
  6
SLD-Solid
 62
     7
370
    25
100
AcDbCircle
 10
13.8284981896
 20
16.3139320638
 30
0.0
 40
0.0700000000000003
100
AcDbArc
 50
90.0
 51
180.0
  0
ARC
  5
455
330
1F
100
AcDbEntity
  8
0
  6
SLD-Solid
 62
     7
370
    25
100
AcDbCircle
 10
13.8284981896
 20
16.3139320638
 30
0.0
 40
0.1400000000000006
100
AcDbArc
 50
90.0
 51
180.0
  0
LINE
  5
456
330
1F
100
AcDbEntity
  8
0
  6
SLD-Solid
 62
     7
370
    25
100
AcDbLine
 10
13.6884981896
 20
15.7039320638
 30
0.0
 11
13.6884981896
 21
16.3139320638
 31
0.0
  0
LINE
  5
457
330
1F
100
AcDbEntity
  8
0
  6
SLD-Solid
 62
     7
370
    25
100
AcDbLine
 10
13.7584981896
 20
15.7039320638
 30
0.0
 11
13.7584981896
 21
16.3139320638
 31
0.0
  0
LINE
  5
458
330
1F
100
AcDbEntity
  8
0
  6
SLD-Solid
 62
     7
370
    25
100
AcDbLine
 10
16.3295247644
 20
16.3139320638
 30
0.0
 11
16.3295247644
 21
15.8039320638
 31
0.0
  0
LINE
  5
459
330
1F
100
AcDbEntity
  8
0
  6
SLD-Solid
 62
     7
370
    25
100
AcDbLine
 10
16.3995247644
 20
16.3139320638
 30
0.0
 11
16.3995247644
 21
15.8039320638
 31
0.0
  0
LINE
  5
45A
330
1F
100
AcDbEntity
  8
0
  6
SLD-Solid
 62
     7
370
    25
100
AcDbLine
 10
16.3995247644
 20
15.6539320638
 30
0.0
 11
16.3295247644
 21
15.6539320638
 31
0.0
  0
LINE
  5
45B
330
1F
100
AcDbEntity
  8
0
  6
SLD-Solid
 62
     7
370
    25
100
AcDbLine
 10
16.3295247644
 20
15.6539320638
 30
0.0
 11
16.3295247644
 21
15.8039320638
 31
0.0
  0
LINE
  5
45C
330
1F
100
AcDbEntity
  8
0
  6
SLD-Solid
 62
     7
370
    25
100
AcDbLine
 10
16.3995247644
 20
15.8039320638
 30
0.0
 11
16.3995247644
 21
15.6539320638
 31
0.0
  0
LINE
  5
45D
330
1F
100
AcDbEntity
  8
0
  6
SLD-Solid
 62
     7
370
    25
100
AcDbLine
 10
13.7584981896
 20
15.5539320638
 30
0.0
 11
13.6884981896
 21
15.5539320638
 31
0.0
  0
LINE
  5
45E
330
1F
100
AcDbEntity
  8
0
  6
SLD-Solid
 62
     7
370
    25
100
AcDbLine
 10
13.6884981896
 20
15.5539320638
 30
0.0
 11
13.6884981896
 21
15.7039320638
 31
0.0
  0
LINE
  5
45F
330
1F
100
AcDbEntity
  8
0
  6
SLD-Solid
 62
     7
370
    25
100
AcDbLine
 10
13.7584981896
 20
15.7039320638
 30
0.0
 11
13.7584981896
 21
15.5539320638
 31
0.0
  0
ARC
  5
460
330
1F
100
AcDbEntity
  8
0
  6
SLD-Solid
 62
     7
370
    25
100
AcDbCircle
 10
33.5504981896
 20
16.3139320638
 30
0.0
 40
0.1400000000000006
100
AcDbArc
 50
90.0
 51
180.0
  0
ARC
  5
461
330
1F
100
AcDbEntity
  8
0
  6
SLD-Solid
 62
     7
370
    25
100
AcDbCircle
 10
33.5504981896
 20
16.3139320638
 30
0.0
 40
0.0700000000000003
100
AcDbArc
 50
90.0
 51
180.0
  0
LINE
  5
462
330
1F
100
AcDbEntity
  8
0
  6
SLD-Solid
 62
     7
370
    25
100
AcDbLine
 10
35.9815247644
 20
16.3839320638
 30
0.0
 11
33.5504981896
 21
16.3839320638
 31
0.0
  0
ARC
  5
463
330
1F
100
AcDbEntity
  8
0
  6
SLD-Solid
 62
     7
370
    25
100
AcDbCircle
 10
35.9815247644
 20
16.3139320638
 30
0.0
 40
0.0700000000000003
100
AcDbArc
 50
0.0
 51
90.0
  0
ARC
  5
464
330
1F
100
AcDbEntity
  8
0
  6
SLD-Solid
 62
     7
370
    25
100
AcDbCircle
 10
35.9815247644
 20
16.3139320638
 30
0.0
 40
0.1400000000000006
100
AcDbArc
 50
0.0
 51
90.0
  0
LINE
  5
465
330
1F
100
AcDbEntity
  8
0
  6
SLD-Solid
 62
     7
370
    25
100
AcDbLine
 10
33.4804981896
 20
15.7039320638
 30
0.0
 11
33.4804981896
 21
16.3139320638
 31
0.0
  0
LINE
  5
466
330
1F
100
AcDbEntity
  8
0
  6
SLD-Solid
 62
     7
370
    25
100
AcDbLine
 10
33.4104981896
 20
15.7039320638
 30
0.0
 11
33.4104981896
 21
16.3139320638
 31
0.0
  0
LINE
  5
467
330
1F
100
AcDbEntity
  8
0
  6
SLD-Solid
 62
     7
370
    25
100
AcDbLine
 10
36.1215247644
 20
16.3139320638
 30
0.0
 11
36.1215247644
 21
15.8039320638
 31
0.0
  0
LINE
  5
468
330
1F
100
AcDbEntity
  8
0
  6
SLD-Solid
 62
     7
370
    25
100
AcDbLine
 10
36.0515247644
 20
16.3139320638
 30
0.0
 11
36.0515247644
 21
15.8039320638
 31
0.0
  0
LINE
  5
469
330
1F
100
AcDbEntity
  8
0
  6
SLD-Solid
 62
     7
370
    25
100
AcDbLine
 10
36.1215247644
 20
15.6539320638
 30
0.0
 11
36.0515247644
 21
15.6539320638
 31
0.0
  0
LINE
  5
46A
330
1F
100
AcDbEntity
  8
0
  6
SLD-Solid
 62
     7
370
    25
100
AcDbLine
 10
36.1215247644
 20
15.8039320638
 30
0.0
 11
36.1215247644
 21
15.6539320638
 31
0.0
  0
LINE
  5
46B
330
1F
100
AcDbEntity
  8
0
  6
SLD-Solid
 62
     7
370
    25
100
AcDbLine
 10
36.0515247644
 20
15.6539320638
 30
0.0
 11
36.0515247644
 21
15.8039320638
 31
0.0
  0
LINE
  5
46C
330
1F
100
AcDbEntity
  8
0
  6
SLD-Solid
 62
     7
370
    25
100
AcDbLine
 10
33.4804981896
 20
15.5539320638
 30
0.0
 11
33.4104981896
 21
15.5539320638
 31
0.0
  0
LINE
  5
46D
330
1F
100
AcDbEntity
  8
0
  6
SLD-Solid
 62
     7
370
    25
100
AcDbLine
 10
33.4104981896
 20
15.5539320638
 30
0.0
 11
33.4104981896
 21
15.7039320638
 31
0.0
  0
LINE
  5
46E
330
1F
100
AcDbEntity
  8
0
  6
SLD-Solid
 62
     7
370
    25
100
AcDbLine
 10
33.4804981896
 20
15.7039320638
 30
0.0
 11
33.4804981896
 21
15.5539320638
 31
0.0
  0
ARC
  5
46F
330
1F
100
AcDbEntity
  8
0
  6
SLD-Solid
 62
     7
370
    25
100
AcDbCircle
 10
3.9674981896
 20
16.3139320638
 30
0.0
 40
0.1400000000000001
100
AcDbArc
 50
90.0
 51
180.0
  0
ARC
  5
470
330
1F
100
AcDbEntity
  8
0
  6
SLD-Solid
 62
     7
370
    25
100
AcDbCircle
 10
3.9674981896
 20
16.3139320638
 30
0.0
 40
0.0700000000000003
100
AcDbArc
 50
90.0
 51
180.0
  0
LINE
  5
471
330
1F
100
AcDbEntity
  8
0
  6
SLD-Solid
 62
     7
370
    25
100
AcDbLine
 10
6.3985247644
 20
16.3839320638
 30
0.0
 11
3.9674981896
 21
16.3839320638
 31
0.0
  0
ARC
  5
472
330
1F
100
AcDbEntity
  8
0
  6
SLD-Solid
 62
     7
370
    25
100
AcDbCircle
 10
6.3985247644
 20
16.3139320638
 30
0.0
 40
0.1399999999999997
100
AcDbArc
 50
0.0
 51
90.0
  0
ARC
  5
473
330
1F
100
AcDbEntity
  8
0
  6
SLD-Solid
 62
     7
370
    25
100
AcDbCircle
 10
6.3985247644
 20
16.3139320638
 30
0.0
 40
0.0700000000000003
100
AcDbArc
 50
0.0
 51
90.0
  0
LINE
  5
474
330
1F
100
AcDbEntity
  8
0
  6
SLD-Solid
 62
     7
370
    25
100
AcDbLine
 10
3.8974981896
 20
15.7039320638
 30
0.0
 11
3.8974981896
 21
16.3139320638
 31
0.0
  0
LINE
  5
475
330
1F
100
AcDbEntity
  8
0
  6
SLD-Solid
 62
     7
370
    25
100
AcDbLine
 10
3.8274981896
 20
15.7039320638
 30
0.0
 11
3.8274981896
 21
16.3139320638
 31
0.0
  0
LINE
  5
476
330
1F
100
AcDbEntity
  8
0
  6
SLD-Solid
 62
     7
370
    25
100
AcDbLine
 10
6.4685247644
 20
16.3139320638
 30
0.0
 11
6.4685247644
 21
15.8039320638
 31
0.0
  0
LINE
  5
477
330
1F
100
AcDbEntity
  8
0
  6
SLD-Solid
 62
     7
370
    25
100
AcDbLine
 10
6.5385247644
 20
16.3139320638
 30
0.0
 11
6.5385247644
 21
15.8039320638
 31
0.0
  0
LINE
  5
478
330
1F
100
AcDbEntity
  8
0
  6
SLD-Solid
 62
     7
370
    25
100
AcDbLine
 10
6.5385247644
 20
15.6539320638
 30
0.0
 11
6.4685247644
 21
15.6539320638
 31
0.0
  0
LINE
  5
479
330
1F
100
AcDbEntity
  8
0
  6
SLD-Solid
 62
     7
370
    25
100
AcDbLine
 10
6.4685247644
 20
15.6539320638
 30
0.0
 11
6.4685247644
 21
15.8039320638
 31
0.0
  0
LINE
  5
47A
330
1F
100
AcDbEntity
  8
0
  6
SLD-Solid
 62
     7
370
    25
100
AcDbLine
 10
6.5385247644
 20
15.8039320638
 30
0.0
 11
6.5385247644
 21
15.6539320638
 31
0.0
  0
LINE
  5
47B
330
1F
100
AcDbEntity
  8
0
  6
SLD-Solid
 62
     7
370
    25
100
AcDbLine
 10
3.8974981896
 20
15.5539320638
 30
0.0
 11
3.8274981896
 21
15.5539320638
 31
0.0
  0
LINE
  5
47C
330
1F
100
AcDbEntity
  8
0
  6
SLD-Solid
 62
     7
370
    25
100
AcDbLine
 10
3.8974981896
 20
15.7039320638
 30
0.0
 11
3.8974981896
 21
15.5539320638
 31
0.0
  0
LINE
  5
47D
330
1F
100
AcDbEntity
  8
0
  6
SLD-Solid
 62
     7
370
    25
100
AcDbLine
 10
3.8274981896
 20
15.5539320638
 30
0.0
 11
3.8274981896
 21
15.7039320638
 31
0.0
  0
ARC
  5
47E
330
1F
100
AcDbEntity
  8
0
  6
SLD-Solid
 62
     7
370
    25
100
AcDbCircle
 10
26.1205247644
 20
16.3139320638
 30
0.0
 40
0.0700000000000003
100
AcDbArc
 50
0.0
 51
90.0
  0
ARC
  5
47F
330
1F
100
AcDbEntity
  8
0
  6
SLD-Solid
 62
     7
370
    25
100
AcDbCircle
 10
26.1205247644
 20
16.3139320638
 30
0.0
 40
0.1400000000000006
100
AcDbArc
 50
0.0
 51
90.0
  0
LINE
  5
480
330
1F
100
AcDbEntity
  8
0
  6
SLD-Solid
 62
     7
370
    25
100
AcDbLine
 10
26.1205247644
 20
16.3839320638
 30
0.0
 11
23.6894981896
 21
16.3839320638
 31
0.0
  0
ARC
  5
481
330
1F
100
AcDbEntity
  8
0
  6
SLD-Solid
 62
     7
370
    25
100
AcDbCircle
 10
23.6894981896
 20
16.3139320638
 30
0.0
 40
0.0700000000000003
100
AcDbArc
 50
90.0
 51
180.0
  0
ARC
  5
482
330
1F
100
AcDbEntity
  8
0
  6
SLD-Solid
 62
     7
370
    25
100
AcDbCircle
 10
23.6894981896
 20
16.3139320638
 30
0.0
 40
0.1400000000000006
100
AcDbArc
 50
90.0
 51
180.0
  0
LINE
  5
483
330
1F
100
AcDbEntity
  8
0
  6
SLD-Solid
 62
     7
370
    25
100
AcDbLine
 10
23.5494981896
 20
15.7039320638
 30
0.0
 11
23.5494981896
 21
16.3139320638
 31
0.0
  0
LINE
  5
484
330
1F
100
AcDbEntity
  8
0
  6
SLD-Solid
 62
     7
370
    25
100
AcDbLine
 10
23.6194981896
 20
15.7039320638
 30
0.0
 11
23.6194981896
 21
16.3139320638
 31
0.0
  0
LINE
  5
485
330
1F
100
AcDbEntity
  8
0
  6
SLD-Solid
 62
     7
370
    25
100
AcDbLine
 10
26.1905247644
 20
16.3139320638
 30
0.0
 11
26.1905247644
 21
15.8039320638
 31
0.0
  0
LINE
  5
486
330
1F
100
AcDbEntity
  8
0
  6
SLD-Solid
 62
     7
370
    25
100
AcDbLine
 10
26.2605247644
 20
16.3139320638
 30
0.0
 11
26.2605247644
 21
15.8039320638
 31
0.0
  0
LINE
  5
487
330
1F
100
AcDbEntity
  8
0
  6
SLD-Solid
 62
     7
370
    25
100
AcDbLine
 10
26.2605247644
 20
15.6539320638
 30
0.0
 11
26.1905247644
 21
15.6539320638
 31
0.0
  0
LINE
  5
488
330
1F
100
AcDbEntity
  8
0
  6
SLD-Solid
 62
     7
370
    25
100
AcDbLine
 10
26.1905247644
 20
15.6539320638
 30
0.0
 11
26.1905247644
 21
15.8039320638
 31
0.0
  0
LINE
  5
489
330
1F
100
AcDbEntity
  8
0
  6
SLD-Solid
 62
     7
370
    25
100
AcDbLine
 10
26.2605247644
 20
15.8039320638
 30
0.0
 11
26.2605247644
 21
15.6539320638
 31
0.0
  0
LINE
  5
48A
330
1F
100
AcDbEntity
  8
0
  6
SLD-Solid
 62
     7
370
    25
100
AcDbLine
 10
23.6194981896
 20
15.5539320638
 30
0.0
 11
23.5494981896
 21
15.5539320638
 31
0.0
  0
LINE
  5
48B
330
1F
100
AcDbEntity
  8
0
  6
SLD-Solid
 62
     7
370
    25
100
AcDbLine
 10
23.5494981896
 20
15.5539320638
 30
0.0
 11
23.5494981896
 21
15.7039320638
 31
0.0
  0
LINE
  5
48C
330
1F
100
AcDbEntity
  8
0
  6
SLD-Solid
 62
     7
370
    25
100
AcDbLine
 10
23.6194981896
 20
15.7039320638
 30
0.0
 11
23.6194981896
 21
15.5539320638
 31
0.0
  0
LINE
  5
48D
330
1F
100
AcDbEntity
  8
0
  6
SLD-Solid
 62
     7
370
    25
100
AcDbLine
 10
15.6449180124
 20
16.3539320638
 30
0.0
 11
16.0249170577
 21
16.3539320638
 31
0.0
  0
LINE
  5
48E
330
1F
100
AcDbEntity
  8
0
  6
SLD-Solid
 62
     7
370
    25
100
AcDbLine
 10
15.9325870155
 20
16.3239320638
 30
0.0
 11
15.7372485186
 21
16.3239320638
 31
0.0
  0
LINE
  5
48F
330
1F
100
AcDbEntity
  8
0
  6
SLD-Solid
 62
     7
370
    25
100
AcDbLine
 10
4.7839180124
 20
16.3539320638
 30
0.0
 11
5.1639170577
 21
16.3539320638
 31
0.0
  0
LINE
  5
490
330
1F
100
AcDbEntity
  8
0
  6
SLD-Solid
 62
     7
370
    25
100
AcDbLine
 10
5.0715870155
 20
16.3239320638
 30
0.0
 11
4.8762485186
 21
16.3239320638
 31
0.0
  0
LINE
  5
491
330
1F
100
AcDbEntity
  8
0
  6
SLD-Solid
 62
     7
370
    25
100
AcDbLine
 10
14.6449180124
 20
16.3539320638
 30
0.0
 11
15.0249170577
 21
16.3539320638
 31
0.0
  0
LINE
  5
492
330
1F
100
AcDbEntity
  8
0
  6
SLD-Solid
 62
     7
370
    25
100
AcDbLine
 10
14.9325870155
 20
16.3239320638
 30
0.0
 11
14.7372485186
 21
16.3239320638
 31
0.0
  0
LINE
  5
493
330
1F
100
AcDbEntity
  8
0
  6
SLD-Solid
 62
     7
370
    25
100
AcDbLine
 10
24.5059180124
 20
16.3539320638
 30
0.0
 11
24.8859170577
 21
16.3539320638
 31
0.0
  0
LINE
  5
494
330
1F
100
AcDbEntity
  8
0
  6
SLD-Solid
 62
     7
370
    25
100
AcDbLine
 10
24.7935870155
 20
16.3239320638
 30
0.0
 11
24.5982485186
 21
16.3239320638
 31
0.0
  0
LINE
  5
495
330
1F
100
AcDbEntity
  8
0
  6
SLD-Solid
 62
     7
370
    25
100
AcDbLine
 10
34.3669180124
 20
16.3539320638
 30
0.0
 11
34.7469170577
 21
16.3539320638
 31
0.0
  0
LINE
  5
496
330
1F
100
AcDbEntity
  8
0
  6
SLD-Solid
 62
     7
370
    25
100
AcDbLine
 10
34.6545870155
 20
16.3239320638
 30
0.0
 11
34.4592485186
 21
16.3239320638
 31
0.0
  0
LINE
  5
497
330
1F
100
AcDbEntity
  8
0
  6
SLD-Solid
 62
     7
370
    25
100
AcDbLine
 10
35.3669180124
 20
16.3539320638
 30
0.0
 11
35.7469170577
 21
16.3539320638
 31
0.0
  0
LINE
  5
498
330
1F
100
AcDbEntity
  8
0
  6
SLD-Solid
 62
     7
370
    25
100
AcDbLine
 10
35.6545870155
 20
16.3239320638
 30
0.0
 11
35.4592485186
 21
16.3239320638
 31
0.0
  0
LINE
  5
499
330
1F
100
AcDbEntity
  8
0
  6
SLD-Solid
 62
     7
370
    25
100
AcDbLine
 10
25.5059180124
 20
16.3539320638
 30
0.0
 11
25.8859170577
 21
16.3539320638
 31
0.0
  0
LINE
  5
49A
330
1F
100
AcDbEntity
  8
0
  6
SLD-Solid
 62
     7
370
    25
100
AcDbLine
 10
25.7935870155
 20
16.3239320638
 30
0.0
 11
25.5982485186
 21
16.3239320638
 31
0.0
  0
LINE
  5
49B
330
1F
100
AcDbEntity
  8
0
  6
SLD-Solid
 62
     7
370
    25
100
AcDbLine
 10
5.7839180124
 20
16.3539320638
 30
0.0
 11
6.1639170577
 21
16.3539320638
 31
0.0
  0
LINE
  5
49C
330
1F
100
AcDbEntity
  8
0
  6
SLD-Solid
 62
     7
370
    25
100
AcDbLine
 10
6.0715870155
 20
16.3239320638
 30
0.0
 11
5.8762485186
 21
16.3239320638
 31
0.0
  0
LINE
  5
49D
330
1F
100
AcDbEntity
  8
0
  6
SLD-Solid
 62
     7
370
    25
100
AcDbLine
 10
15.613004099
 20
15.5154610283
 30
0.0
 11
15.8757242357
 21
15.5154610283
 31
0.0
  0
LINE
  5
49E
330
1F
100
AcDbEntity
  8
0
  6
SLD-Solid
 62
     7
370
    25
100
AcDbLine
 10
15.5632759231
 20
15.5154610283
 30
0.0
 11
15.613004099
 21
15.5154610283
 31
0.0
  0
LINE
  5
49F
330
1F
100
AcDbEntity
  8
0
  6
SLD-Solid
 62
     7
370
    25
100
AcDbLine
 10
15.8350102242
 20
15.5339320638
 30
0.0
 11
15.8757242357
 21
15.5339320638
 31
0.0
  0
LINE
  5
4A0
330
1F
100
AcDbEntity
  8
0
  6
SLD-Solid
 62
     7
370
    25
100
AcDbLine
 10
25.474004099
 20
15.5154610283
 30
0.0
 11
25.7367242357
 21
15.5154610283
 31
0.0
  0
LINE
  5
4A1
330
1F
100
AcDbEntity
  8
0
  6
SLD-Solid
 62
     7
370
    25
100
AcDbLine
 10
25.4242759231
 20
15.5154610283
 30
0.0
 11
25.474004099
 21
15.5154610283
 31
0.0
  0
LINE
  5
4A2
330
1F
100
AcDbEntity
  8
0
  6
SLD-Solid
 62
     7
370
    25
100
AcDbLine
 10
25.6960102242
 20
15.5339320638
 30
0.0
 11
25.7367242357
 21
15.5339320638
 31
0.0
  0
LINE
  5
4A3
330
1F
100
AcDbEntity
  8
0
  6
SLD-Solid
 62
     7
370
    25
100
AcDbLine
 10
35.335004099
 20
15.5154610283
 30
0.0
 11
35.5977242357
 21
15.5154610283
 31
0.0
  0
LINE
  5
4A4
330
1F
100
AcDbEntity
  8
0
  6
SLD-Solid
 62
     7
370
    25
100
AcDbLine
 10
35.2852759231
 20
15.5154610283
 30
0.0
 11
35.335004099
 21
15.5154610283
 31
0.0
  0
LINE
  5
4A5
330
1F
100
AcDbEntity
  8
0
  6
SLD-Solid
 62
     7
370
    25
100
AcDbLine
 10
35.5570102242
 20
15.5339320638
 30
0.0
 11
35.5977242357
 21
15.5339320638
 31
0.0
  0
LINE
  5
4A6
330
1F
100
AcDbEntity
  8
0
  6
SLD-Solid
 62
     7
370
    25
100
AcDbLine
 10
5.752004099
 20
15.5154610283
 30
0.0
 11
6.0147242357
 21
15.5154610283
 31
0.0
  0
LINE
  5
4A7
330
1F
100
AcDbEntity
  8
0
  6
SLD-Solid
 62
     7
370
    25
100
AcDbLine
 10
5.7022759231
 20
15.5154610283
 30
0.0
 11
5.752004099
 21
15.5154610283
 31
0.0
  0
LINE
  5
4A8
330
1F
100
AcDbEntity
  8
0
  6
SLD-Solid
 62
     7
370
    25
100
AcDbLine
 10
5.9740102242
 20
15.5339320638
 30
0.0
 11
6.0147242357
 21
15.5339320638
 31
0.0
  0
LINE
  5
4A9
330
1F
100
AcDbEntity
  8
0
  6
SLD-Solid
 62
     7
370
    25
100
AcDbLine
 10
1.7589180124
 20
16.934505076
 30
0.0
 11
1.7589180124
 21
16.5239320638
 31
0.0
  0
LINE
  5
4AA
330
1F
100
AcDbEntity
  8
0
  6
SLD-Solid
 62
     7
370
    25
100
AcDbLine
 10
37.7589180124
 20
16.934505076
 30
0.0
 11
1.7589180124
 21
16.934505076
 31
0.0
  0
LINE
  5
4AB
330
1F
100
AcDbEntity
  8
0
  6
SLD-Solid
 62
     7
370
    25
100
AcDbLine
 10
37.7589180124
 20
16.5239320638
 30
0.0
 11
37.7589180124
 21
16.934505076
 31
0.0
  0
LINE
  5
4AC
330
1F
100
AcDbEntity
  8
0
  6
SLD-Solid
 62
     7
370
    25
100
AcDbLine
 10
37.7589180124
 20
16.4539320638
 30
0.0
 11
1.7589180124
 21
16.4539320638
 31
0.0
  0
LINE
  5
4AD
330
1F
100
AcDbEntity
  8
0
  6
SLD-Solid
 62
     7
370
    25
100
AcDbLine
 10
1.7589180124
 20
16.4539320638
 30
0.0
 11
1.7589180124
 21
16.5239320638
 31
0.0
  0
LINE
  5
4AE
330
1F
100
AcDbEntity
  8
0
  6
SLD-Solid
 62
     7
370
    25
100
AcDbLine
 10
37.7589180124
 20
16.5239320638
 30
0.0
 11
37.7589180124
 21
16.4539320638
 31
0.0
  0
DIMENSION
  5
4AF
330
1F
100
AcDbEntity
  8
DIMS
100
AcDbDimension
  2
_D_6
 10
1.7589180124
 20
17.5644263359
 30
0.0
 11
20.2262135291
 21
17.5644263359
 31
0.0
 70
   160
  1
<>
 71
     2
 42
-1.0
  3
SLDDIMSTYLE1
100
AcDbAlignedDimension
 13
37.7589180124
 23
16.934505076
 33
0.0
 14
1.7589180124
 24
16.934505076
 34
0.0
100
AcDbRotatedDimension
  0
DIMENSION
  5
4BA
330
1F
100
AcDbEntity
  8
DIMS
100
AcDbDimension
  2
_D_7
 10
38.8612802172
 20
15.5339320638
 30
0.0
 11
38.8612802172
 21
14.3715698591
 31
0.0
 70
   160
  1
<>
 71
     2
 42
-1.0
  3
SLDDIMSTYLE0
100
AcDbAlignedDimension
 13
37.7589180124
 23
16.934505076
 33
0.0
 14
36.0430237515
 24
15.5339320638
 34
0.0
 50
90.0
100
AcDbRotatedDimension
  0
MTEXT
  5
4CA
330
1F
100
AcDbEntity
  8
NOTES
100
AcDbMText
 10
19.5270180305
 20
15.7675174511
 30
0.0
 40
0.5
 41
0.0
 71
     1
 72
     1
  1
Top view
  7
SLDTEXTSTYLE1
 73
     1
 44
1.0
  0
ENDSEC
  0
SECTION
  2
OBJECTS
  0
DICTIONARY
  5
C
330
0
100
AcDbDictionary
281
     1
  3
ACAD_GROUP
350
D
  3
ACAD_LAYOUT
350
1A
  3
ACAD_MLINESTYLE
350
17
  3
ACAD_PLOTSETTINGS
350
19
  3
ACAD_PLOTSTYLENAME
350
E
  3
ACAD_SCALELIST
350
47
  3
DWGPROPS
350
4CB
  0
DICTIONARY
  5
D
102
{ACAD_REACTORS
330
C
102
}
330
C
100
AcDbDictionary
281
     1
  0
DICTIONARY
  5
1A
102
{ACAD_REACTORS
330
C
102
}
330
C
100
AcDbDictionary
281
     1
  3
Layout1
350
1E
  3
Layout2
350
26
  3
Model
350
22
  0
DICTIONARY
  5
17
102
{ACAD_REACTORS
330
C
102
}
330
C
100
AcDbDictionary
281
     1
  3
Standard
350
18
  0
DICTIONARY
  5
19
102
{ACAD_REACTORS
330
C
102
}
330
C
100
AcDbDictionary
281
     1
  0
ACDBDICTIONARYWDFLT
  5
E
102
{ACAD_REACTORS
330
C
102
}
330
C
100
AcDbDictionary
281
     1
  3
Normal
350
F
100
AcDbDictionaryWithDefault
340
F
  0
DICTIONARY
  5
47
102
{ACAD_REACTORS
330
C
102
}
330
C
100
AcDbDictionary
281
     1
  3
A0
350
48
  3
A1
350
49
  3
A2
350
4A
  3
A3
350
4B
  3
A4
350
4C
  3
A5
350
4D
  3
A6
350
4E
  3
A7
350
4F
  3
A8
350
50
  3
A9
350
51
  3
B0
350
52
  3
B1
350
53
  3
B2
350
54
  3
B3
350
55
  3
B4
350
56
  3
B5
350
57
  3
B6
350
58
  3
B7
350
59
  3
B8
350
5A
  3
B9
350
5B
  3
C0
350
5C
  3
C1
350
5D
  3
C2
350
5E
  3
C3
350
5F
  3
C4
350
60
  3
C5
350
61
  3
C6
350
62
  3
C7
350
63
  3
C8
350
64
  3
C9
350
65
  3
D0
350
66
  3
D1
350
67
  3
D2
350
68
  0
XRECORD
  5
4CB
102
{ACAD_REACTORS
330
C
102
}
330
C
100
AcDbXrecord
280
     1
  1
DWGPROPS COOKIE
  2

  3

  4

  6

  7

  8
carl
  9

300
=
301
=
302
=
303
=
304
=
305
=
306
=
307
=
308
=
309
=
 40
0.0
 41
2459466.589047431
 42
2459466.589052002
  1

 90
        0
  0
LAYOUT
  5
1E
102
{ACAD_REACTORS
330
1A
102
}
330
1A
100
AcDbPlotSettings
  1

  2
none_device
  4

  6

 40
0.0
 41
0.0
 42
0.0
 43
0.0
 44
0.0
 45
0.0
 46
0.0
 47
0.0
 48
0.0
 49
0.0
140
0.0
141
0.0
142
1.0
143
1.0
 70
   688
 72
     0
 73
     0
 74
     5
  7

 75
    16
147
1.0
148
0.0
149
0.0
100
AcDbLayout
  1
Layout1
 70
     1
 71
     1
 10
0.0
 20
0.0
 11
12.0
 21
9.0
 12
0.0
 22
0.0
 32
0.0
 14
1.0000000000E+20
 24
1.0000000000E+20
 34
1.0000000000E+20
 15
-1.0000000000E+20
 25
-1.0000000000E+20
 35
-1.0000000000E+20
146
0.0
 13
0.0
 23
0.0
 33
0.0
 16
1.0
 26
0.0
 36
0.0
 17
0.0
 27
1.0
 37
0.0
 76
     0
330
1B
  0
LAYOUT
  5
26
102
{ACAD_REACTORS
330
1A
102
}
330
1A
100
AcDbPlotSettings
  1

  2
none_device
  4

  6

 40
0.0
 41
0.0
 42
0.0
 43
0.0
 44
0.0
 45
0.0
 46
0.0
 47
0.0
 48
0.0
 49
0.0
140
0.0
141
0.0
142
1.0
143
1.0
 70
   688
 72
     0
 73
     0
 74
     5
  7

 75
    16
147
1.0
148
0.0
149
0.0
100
AcDbLayout
  1
Layout2
 70
     1
 71
     2
 10
0.0
 20
0.0
 11
0.0
 21
0.0
 12
0.0
 22
0.0
 32
0.0
 14
0.0
 24
0.0
 34
0.0
 15
0.0
 25
0.0
 35
0.0
146
0.0
 13
0.0
 23
0.0
 33
0.0
 16
1.0
 26
0.0
 36
0.0
 17
0.0
 27
1.0
 37
0.0
 76
     0
330
23
  0
LAYOUT
  5
22
102
{ACAD_REACTORS
330
1A
102
}
330
1A
100
AcDbPlotSettings
  1

  2
none_device
  4
Letter_(8.50_x_11.00_Inches)
  6

 40
6.35
 41
6.35
 42
6.35000508
 43
6.35000508
 44
215.9
 45
279.4
 46
0.0
 47
0.0
 48
0.0
 49
0.0
140
0.0
141
0.0
142
1.0
143
1.0
 70
  1712
 72
     0
 73
     0
 74
     0
  7

 75
     0
147
1.0
148
0.0
149
0.0
100
AcDbLayout
  1
Model
 70
     1
 71
     0
 10
0.0
 20
0.0
 11
48.0
 21
36.0
 12
0.0
 22
0.0
 32
0.0
 14
0.0
 24
0.0
 34
0.0
 15
48.0
 25
36.0
 35
0.0
146
0.0
 13
0.0
 23
0.0
 33
0.0
 16
1.0
 26
0.0
 36
0.0
 17
0.0
 27
1.0
 37
0.0
 76
     0
330
1F
331
29
  0
MLINESTYLE
  5
18
102
{ACAD_REACTORS
330
17
102
}
330
17
100
AcDbMlineStyle
  2
Standard
 70
     0
  3

 62
   256
 51
90.0
 52
90.0
 71
     2
 49
0.5
 62
   256
  6
BYLAYER
 49
-0.5
 62
   256
  6
BYLAYER
  0
ACDBPLACEHOLDER
  5
F
102
{ACAD_REACTORS
330
E
102
}
330
E
  0
SCALE
  5
48
102
{ACAD_REACTORS
330
47
102
}
330
47
100
AcDbScale
 70
     0
300
1:1
140
1.0
141
1.0
290
     1
  0
SCALE
  5
49
102
{ACAD_REACTORS
330
47
102
}
330
47
100
AcDbScale
 70
     0
300
1:2
140
1.0
141
2.0
290
     0
  0
SCALE
  5
4A
102
{ACAD_REACTORS
330
47
102
}
330
47
100
AcDbScale
 70
     0
300
1:4
140
1.0
141
4.0
290
     0
  0
SCALE
  5
4B
102
{ACAD_REACTORS
330
47
102
}
330
47
100
AcDbScale
 70
     0
300
1:5
140
1.0
141
5.0
290
     0
  0
SCALE
  5
4C
102
{ACAD_REACTORS
330
47
102
}
330
47
100
AcDbScale
 70
     0
300
1:8
140
1.0
141
8.0
290
     0
  0
SCALE
  5
4D
102
{ACAD_REACTORS
330
47
102
}
330
47
100
AcDbScale
 70
     0
300
1:10
140
1.0
141
10.0
290
     0
  0
SCALE
  5
4E
102
{ACAD_REACTORS
330
47
102
}
330
47
100
AcDbScale
 70
     0
300
1:16
140
1.0
141
16.0
290
     0
  0
SCALE
  5
4F
102
{ACAD_REACTORS
330
47
102
}
330
47
100
AcDbScale
 70
     0
300
1:20
140
1.0
141
20.0
290
     0
  0
SCALE
  5
50
102
{ACAD_REACTORS
330
47
102
}
330
47
100
AcDbScale
 70
     0
300
1:30
140
1.0
141
30.0
290
     0
  0
SCALE
  5
51
102
{ACAD_REACTORS
330
47
102
}
330
47
100
AcDbScale
 70
     0
300
1:40
140
1.0
141
40.0
290
     0
  0
SCALE
  5
52
102
{ACAD_REACTORS
330
47
102
}
330
47
100
AcDbScale
 70
     0
300
1:50
140
1.0
141
50.0
290
     0
  0
SCALE
  5
53
102
{ACAD_REACTORS
330
47
102
}
330
47
100
AcDbScale
 70
     0
300
1:100
140
1.0
141
100.0
290
     0
  0
SCALE
  5
54
102
{ACAD_REACTORS
330
47
102
}
330
47
100
AcDbScale
 70
     0
300
2:1
140
2.0
141
1.0
290
     0
  0
SCALE
  5
55
102
{ACAD_REACTORS
330
47
102
}
330
47
100
AcDbScale
 70
     0
300
4:1
140
4.0
141
1.0
290
     0
  0
SCALE
  5
56
102
{ACAD_REACTORS
330
47
102
}
330
47
100
AcDbScale
 70
     0
300
8:1
140
8.0
141
1.0
290
     0
  0
SCALE
  5
57
102
{ACAD_REACTORS
330
47
102
}
330
47
100
AcDbScale
 70
     0
300
10:1
140
10.0
141
1.0
290
     0
  0
SCALE
  5
58
102
{ACAD_REACTORS
330
47
102
}
330
47
100
AcDbScale
 70
     0
300
100:1
140
100.0
141
1.0
290
     0
  0
SCALE
  5
59
102
{ACAD_REACTORS
330
47
102
}
330
47
100
AcDbScale
 70
     0
300
1/128" = 1'-0"
140
0.0078125
141
12.0
290
     0
  0
SCALE
  5
5A
102
{ACAD_REACTORS
330
47
102
}
330
47
100
AcDbScale
 70
     0
300
1/64" = 1'-0"
140
0.015625
141
12.0
290
     0
  0
SCALE
  5
5B
102
{ACAD_REACTORS
330
47
102
}
330
47
100
AcDbScale
 70
     0
300
1/32" = 1'-0"
140
0.03125
141
12.0
290
     0
  0
SCALE
  5
5C
102
{ACAD_REACTORS
330
47
102
}
330
47
100
AcDbScale
 70
     0
300
1/16" = 1'-0"
140
0.0625
141
12.0
290
     0
  0
SCALE
  5
5D
102
{ACAD_REACTORS
330
47
102
}
330
47
100
AcDbScale
 70
     0
300
3/32" = 1'-0"
140
0.09375
141
12.0
290
     0
  0
SCALE
  5
5E
102
{ACAD_REACTORS
330
47
102
}
330
47
100
AcDbScale
 70
     0
300
1/8" = 1'-0"
140
0.125
141
12.0
290
     0
  0
SCALE
  5
5F
102
{ACAD_REACTORS
330
47
102
}
330
47
100
AcDbScale
 70
     0
300
3/16" = 1'-0"
140
0.1875
141
12.0
290
     0
  0
SCALE
  5
60
102
{ACAD_REACTORS
330
47
102
}
330
47
100
AcDbScale
 70
     0
300
1/4" = 1'-0"
140
0.25
141
12.0
290
     0
  0
SCALE
  5
61
102
{ACAD_REACTORS
330
47
102
}
330
47
100
AcDbScale
 70
     0
300
3/8" = 1'-0"
140
0.375
141
12.0
290
     0
  0
SCALE
  5
62
102
{ACAD_REACTORS
330
47
102
}
330
47
100
AcDbScale
 70
     0
300
1/2" = 1'-0"
140
0.5
141
12.0
290
     0
  0
SCALE
  5
63
102
{ACAD_REACTORS
330
47
102
}
330
47
100
AcDbScale
 70
     0
300
3/4" = 1'-0"
140
0.75
141
12.0
290
     0
  0
SCALE
  5
64
102
{ACAD_REACTORS
330
47
102
}
330
47
100
AcDbScale
 70
     0
300
1" = 1'-0"
140
1.0
141
12.0
290
     0
  0
SCALE
  5
65
102
{ACAD_REACTORS
330
47
102
}
330
47
100
AcDbScale
 70
     0
300
1-1/2" = 1'-0"
140
1.5
141
12.0
290
     0
  0
SCALE
  5
66
102
{ACAD_REACTORS
330
47
102
}
330
47
100
AcDbScale
 70
     0
300
3" = 1'-0"
140
3.0
141
12.0
290
     0
  0
SCALE
  5
67
102
{ACAD_REACTORS
330
47
102
}
330
47
100
AcDbScale
 70
     0
300
6" = 1'-0"
140
6.0
141
12.0
290
     0
  0
SCALE
  5
68
102
{ACAD_REACTORS
330
47
102
}
330
47
100
AcDbScale
 70
     0
300
1'-0" = 1'-0"
140
12.0
141
12.0
290
     0
  0
ENDSEC
  0
EOF
