  0
SECTION
  2
HEADER
  9
$ACADVER
  1
AC1015
  9
$ACADMAINTVER
 70
     6
  9
$DWGCODEPAGE
  3
ANSI_1252
  9
$INSBASE
 10
0.0
 20
0.0
 30
0.0
  9
$EXTMIN
 10
0.0
 20
0.0
 30
0.0
  9
$EXTMAX
 10
48.0
 20
36.0
 30
0.0
  9
$LIMMIN
 10
0.0
 20
0.0
  9
$LIMMAX
 10
48.0
 20
36.0
  9
$ORTHOMODE
 70
     0
  9
$REGENMODE
 70
     1
  9
$FILLMODE
 70
     1
  9
$QTEXTMODE
 70
     0
  9
$MIRRTEXT
 70
     1
  9
$LTSCALE
 40
1.0
  9
$ATTMODE
 70
     1
  9
$TEXTSIZE
 40
0.5
  9
$TRACEWID
 40
0.05
  9
$TEXTSTYLE
  7
STANDARD
  9
$CLAYER
  8
0
  9
$CELTYPE
  6
ByLayer
  9
$CECOLOR
 62
   256
  9
$CELTSCALE
 40
1.0
  9
$DISPSILH
 70
     0
  9
$DIMSCALE
 40
1.0
  9
$DIMASZ
 40
0.3
  9
$DIMEXO
 40
0.1666666667
  9
$DIMDLI
 40
0.38
  9
$DIMRND
 40
0.0
  9
$DIMDLE
 40
0.0
  9
$DIMEXE
 40
0.375
  9
$DIMTP
 40
0.0
  9
$DIMTM
 40
0.0
  9
$DIMTXT
 40
0.5
  9
$DIMCEN
 40
0.09
  9
$DIMTSZ
 40
0.0
  9
$DIMTOL
 70
     0
  9
$DIMLIM
 70
     0
  9
$DIMTIH
 70
     1
  9
$DIMTOH
 70
     1
  9
$DIMSE1
 70
     0
  9
$DIMSE2
 70
     0
  9
$DIMTAD
 70
     0
  9
$DIMZIN
 70
     1
  9
$DIMBLK
  1

  9
$DIMASO
 70
     1
  9
$DIMSHO
 70
     1
  9
$DIMPOST
  1

  9
$DIMAPOST
  1

  9
$DIMALT
 70
     0
  9
$DIMALTD
 70
     2
  9
$DIMALTF
 40
25.4
  9
$DIMLFAC
 40
1.0
  9
$DIMTOFL
 70
     0
  9
$DIMTVP
 40
0.0
  9
$DIMTIX
 70
     0
  9
$DIMSOXD
 70
     0
  9
$DIMSAH
 70
     0
  9
$DIMBLK1
  1

  9
$DIMBLK2
  1

  9
$DIMSTYLE
  2
Standard
  9
$DIMCLRD
 70
     0
  9
$DIMCLRE
 70
     0
  9
$DIMCLRT
 70
     0
  9
$DIMTFAC
 40
1.0
  9
$DIMGAP
 40
0.125
  9
$DIMJUST
 70
     0
  9
$DIMSD1
 70
     0
  9
$DIMSD2
 70
     0
  9
$DIMTOLJ
 70
     1
  9
$DIMTZIN
 70
     1
  9
$DIMALTZ
 70
     0
  9
$DIMALTTZ
 70
     0
  9
$DIMUPT
 70
     0
  9
$DIMDEC
 70
     2
  9
$DIMTDEC
 70
     2
  9
$DIMALTU
 70
     2
  9
$DIMALTTD
 70
     2
  9
$DIMTXSTY
  7
STANDARD
  9
$DIMAUNIT
 70
     0
  9
$DIMADEC
 70
     2
  9
$DIMALTRND
 40
0.0
  9
$DIMAZIN
 70
     0
  9
$DIMDSEP
 70
    46
  9
$DIMATFIT
 70
     3
  9
$DIMFRAC
 70
     0
  9
$DIMLDRBLK
  1

  9
$DIMLUNIT
 70
     2
  9
$DIMLWD
 70
    -2
  9
$DIMLWE
 70
    -2
  9
$DIMTMOVE
 70
     0
  9
$LUNITS
 70
     2
  9
$LUPREC
 70
     4
  9
$SKETCHINC
 40
0.1
  9
$FILLETRAD
 40
0.5
  9
$AUNITS
 70
     0
  9
$AUPREC
 70
     2
  9
$MENU
  1
.
  9
$ELEVATION
 40
0.0
  9
$PELEVATION
 40
0.0
  9
$THICKNESS
 40
0.0
  9
$LIMCHECK
 70
     0
  9
$CHAMFERA
 40
0.0
  9
$CHAMFERB
 40
0.0
  9
$CHAMFERC
 40
0.0
  9
$CHAMFERD
 40
0.0
  9
$SKPOLY
 70
     0
  9
$TDCREATE
 40
2459466.412788542
  9
$TDUCREATE
 40
2459466.579455208
  9
$TDUPDATE
 40
2459466.412791794
  9
$TDUUPDATE
 40
2459466.579458461
  9
$TDINDWG
 40
0.0000000116
  9
$TDUSRTIMER
 40
0.0000000116
  9
$USRTIMER
 70
     1
  9
$ANGBASE
 50
0.0
  9
$ANGDIR
 70
     0
  9
$PDMODE
 70
     0
  9
$PDSIZE
 40
-1.0
  9
$PLINEWID
 40
0.0
  9
$SPLFRAME
 70
     0
  9
$SPLINETYPE
 70
     6
  9
$SPLINESEGS
 70
     8
  9
$HANDSEED
  5
410
  9
$SURFTAB1
 70
     6
  9
$SURFTAB2
 70
     6
  9
$SURFTYPE
 70
     6
  9
$SURFU
 70
     6
  9
$SURFV
 70
     6
  9
$UCSBASE
  2

  9
$UCSNAME
  2

  9
$UCSORG
 10
0.0
 20
0.0
 30
0.0
  9
$UCSXDIR
 10
1.0
 20
0.0
 30
0.0
  9
$UCSYDIR
 10
0.0
 20
1.0
 30
0.0
  9
$UCSORTHOREF
  2

  9
$UCSORTHOVIEW
 70
     0
  9
$UCSORGTOP
 10
0.0
 20
0.0
 30
0.0
  9
$UCSORGBOTTOM
 10
0.0
 20
0.0
 30
0.0
  9
$UCSORGLEFT
 10
0.0
 20
0.0
 30
0.0
  9
$UCSORGRIGHT
 10
0.0
 20
0.0
 30
0.0
  9
$UCSORGFRONT
 10
0.0
 20
0.0
 30
0.0
  9
$UCSORGBACK
 10
0.0
 20
0.0
 30
0.0
  9
$PUCSBASE
  2

  9
$PUCSNAME
  2

  9
$PUCSORG
 10
0.0
 20
0.0
 30
0.0
  9
$PUCSXDIR
 10
1.0
 20
0.0
 30
0.0
  9
$PUCSYDIR
 10
0.0
 20
1.0
 30
0.0
  9
$PUCSORTHOREF
  2

  9
$PUCSORTHOVIEW
 70
     0
  9
$PUCSORGTOP
 10
0.0
 20
0.0
 30
0.0
  9
$PUCSORGBOTTOM
 10
0.0
 20
0.0
 30
0.0
  9
$PUCSORGLEFT
 10
0.0
 20
0.0
 30
0.0
  9
$PUCSORGRIGHT
 10
0.0
 20
0.0
 30
0.0
  9
$PUCSORGFRONT
 10
0.0
 20
0.0
 30
0.0
  9
$PUCSORGBACK
 10
0.0
 20
0.0
 30
0.0
  9
$USERI1
 70
     0
  9
$USERI2
 70
     0
  9
$USERI3
 70
     0
  9
$USERI4
 70
     0
  9
$USERI5
 70
     0
  9
$USERR1
 40
0.0
  9
$USERR2
 40
0.0
  9
$USERR3
 40
0.0
  9
$USERR4
 40
0.0
  9
$USERR5
 40
0.0
  9
$WORLDVIEW
 70
     1
  9
$SHADEDGE
 70
     3
  9
$SHADEDIF
 70
    70
  9
$TILEMODE
 70
     1
  9
$MAXACTVP
 70
    64
  9
$PINSBASE
 10
0.0
 20
0.0
 30
0.0
  9
$PLIMCHECK
 70
     0
  9
$PEXTMIN
 10
1.0000000000E+20
 20
1.0000000000E+20
 30
1.0000000000E+20
  9
$PEXTMAX
 10
-1.0000000000E+20
 20
-1.0000000000E+20
 30
-1.0000000000E+20
  9
$PLIMMIN
 10
0.0
 20
0.0
  9
$PLIMMAX
 10
12.0
 20
9.0
  9
$UNITMODE
 70
     0
  9
$VISRETAIN
 70
     1
  9
$PLINEGEN
 70
     0
  9
$PSLTSCALE
 70
     1
  9
$TREEDEPTH
 70
  3020
  9
$CMLSTYLE
  2
Standard
  9
$CMLJUST
 70
     0
  9
$CMLSCALE
 40
1.0
  9
$PROXYGRAPHICS
 70
     1
  9
$MEASUREMENT
 70
     0
  9
$CELWEIGHT
370
    -1
  9
$ENDCAPS
280
     0
  9
$JOINSTYLE
280
     0
  9
$LWDISPLAY
290
     1
  9
$INSUNITS
 70
     1
  9
$HYPERLINKBASE
  1

  9
$STYLESHEET
  1

  9
$XEDIT
290
     1
  9
$CEPSNTYPE
380
     0
  9
$PSTYLEMODE
290
     1
  9
$FINGERPRINTGUID
  2
{eef60277-afab-4812-9d58-a5c216d1c499}
  9
$VERSIONGUID
  2
{FAEB1C32-E019-11D5-929B-00C0DF256EC4}
  9
$EXTNAMES
290
     1
  9
$PSVPSCALE
 40
0.0
  9
$OLESTARTUP
290
     0
  0
ENDSEC
  0
SECTION
  2
CLASSES
  0
CLASS
  1
ACDBDICTIONARYWDFLT
  2
AcDbDictionaryWithDefault
  3
ObjectDBX Classes
 90
        0
280
     0
281
     0
  0
CLASS
  1
VISUALSTYLE
  2
AcDbVisualStyle
  3
ObjectDBX Classes
 90
     4095
280
     0
281
     0
  0
CLASS
  1
MATERIAL
  2
AcDbMaterial
  3
ObjectDBX Classes
 90
     1153
280
     0
281
     0
  0
CLASS
  1
SCALE
  2
AcDbScale
  3
ObjectDBX Classes
 90
     1153
280
     0
281
     0
  0
CLASS
  1
TABLESTYLE
  2
AcDbTableStyle
  3
ObjectDBX Classes
 90
     4095
280
     0
281
     0
  0
CLASS
  1
MLEADERSTYLE
  2
AcDbMLeaderStyle
  3
ACDB_MLEADERSTYLE_CLASS
 90
     4095
280
     0
281
     0
  0
CLASS
  1
SUN
  2
AcDbSun
  3
SCENEOE
 90
     1153
280
     0
281
     0
  0
CLASS
  1
ACDBPLACEHOLDER
  2
AcDbPlaceHolder
  3
ObjectDBX Classes
 90
        0
280
     0
281
     0
  0
CLASS
  1
LAYOUT
  2
AcDbLayout
  3
ObjectDBX Classes
 90
        0
280
     0
281
     0
  0
ENDSEC
  0
SECTION
  2
TABLES
  0
TABLE
  2
VPORT
  5
8
330
0
100
AcDbSymbolTable
 70
     1
  0
VPORT
  5
29
330
8
100
AcDbSymbolTableRecord
100
AcDbViewportTableRecord
  2
*Active
 70
     0
 10
0.0
 20
0.0
 11
1.0
 21
1.0
 12
24.0
 22
18.0
 13
0.0
 23
0.0
 14
0.5
 24
0.5
 15
0.5
 25
0.5
 16
0.0
 26
0.0
 36
1.0
 17
0.0
 27
0.0
 37
0.0
 40
36.0
 41
1.3333333333
 42
50.0
 43
0.0
 44
0.0
 50
0.0
 51
0.0
 71
     0
 72
  2000
 73
     1
 74
     3
 75
     0
 76
     0
 77
     0
 78
     0
281
     0
 65
     1
110
0.0
120
0.0
130
0.0
111
1.0
121
0.0
131
0.0
112
0.0
122
1.0
132
0.0
 79
     0
146
0.0
  0
ENDTAB
  0
TABLE
  2
LTYPE
  5
5
330
0
100
AcDbSymbolTable
 70
     8
  0
LTYPE
  5
14
330
5
100
AcDbSymbolTableRecord
100
AcDbLinetypeTableRecord
  2
ByBlock
 70
     0
  3

 72
    65
 73
     0
 40
0.0
  0
LTYPE
  5
15
330
5
100
AcDbSymbolTableRecord
100
AcDbLinetypeTableRecord
  2
ByLayer
 70
     0
  3

 72
    65
 73
     0
 40
0.0
  0
LTYPE
  5
16
330
5
100
AcDbSymbolTableRecord
100
AcDbLinetypeTableRecord
  2
Continuous
 70
     0
  3
Solid line
 72
    65
 73
     0
 40
0.0
  0
LTYPE
  5
6E
330
5
100
AcDbSymbolTableRecord
100
AcDbLinetypeTableRecord
  2
SLD-Solid
 70
     0
  3
SolidWorks Line Style
 72
    65
 73
     0
 40
0.0
  0
LTYPE
  5
6F
330
5
100
AcDbSymbolTableRecord
100
AcDbLinetypeTableRecord
  2
SLD-Dashed
 70
     0
  3
SolidWorks Line Style
 72
    65
 73
     2
 40
0.075
 49
0.05
 74
     0
 49
-0.025
 74
     0
  0
LTYPE
  5
70
330
5
100
AcDbSymbolTableRecord
100
AcDbLinetypeTableRecord
  2
SLD-Phantom
 70
     0
  3
SolidWorks Line Style
 72
    65
 73
     6
 40
0.5
 49
0.25
 74
     0
 49
-0.05
 74
     0
 49
0.05
 74
     0
 49
-0.05
 74
     0
 49
0.05
 74
     0
 49
-0.05
 74
     0
  0
LTYPE
  5
71
330
5
100
AcDbSymbolTableRecord
100
AcDbLinetypeTableRecord
  2
SLD-Chain
 70
     0
  3
SolidWorks Line Style
 72
    65
 73
     4
 40
0.4
 49
0.25
 74
     0
 49
-0.05
 74
     0
 49
0.05
 74
     0
 49
-0.05
 74
     0
  0
LTYPE
  5
72
330
5
100
AcDbSymbolTableRecord
100
AcDbLinetypeTableRecord
  2
SLD-Center
 70
     0
  3
SolidWorks Line Style
 72
    65
 73
     4
 40
0.75
 49
0.6
 74
     0
 49
-0.05
 74
     0
 49
0.05
 74
     0
 49
-0.05
 74
     0
  0
LTYPE
  5
73
330
5
100
AcDbSymbolTableRecord
100
AcDbLinetypeTableRecord
  2
SLD-Stitch
 70
     0
  3
SolidWorks Line Style
 72
    65
 73
     2
 40
0.025
 49
0.0
 74
     0
 49
-0.025
 74
     0
  0
LTYPE
  5
74
330
5
100
AcDbSymbolTableRecord
100
AcDbLinetypeTableRecord
  2
SLD-Thin-Thick-Chain
 70
     0
  3
SolidWorks Line Style
 72
    65
 73
     4
 40
0.4
 49
0.25
 74
     0
 49
-0.05
 74
     0
 49
0.05
 74
     0
 49
-0.05
 74
     0
  0
ENDTAB
  0
TABLE
  2
LAYER
  5
2
330
0
100
AcDbSymbolTable
 70
     6
  0
LAYER
  5
10
330
2
100
AcDbSymbolTableRecord
100
AcDbLayerTableRecord
  2
0
 70
     0
 62
     7
  6
Continuous
370
    -3
390
F
  0
LAYER
  5
75
330
2
100
AcDbSymbolTableRecord
100
AcDbLayerTableRecord
  2
FORMAT
 70
     0
 62
     7
  6
SLD-Solid
370
    -3
390
F
  0
LAYER
  5
76
330
2
100
AcDbSymbolTableRecord
100
AcDbLayerTableRecord
  2
NOTES
 70
     0
 62
     1
  6
SLD-Solid
370
    -3
390
F
  0
LAYER
  5
77
330
2
100
AcDbSymbolTableRecord
100
AcDbLayerTableRecord
  2
OBJECT
 70
     0
 62
     7
  6
SLD-Solid
370
    25
390
F
  0
LAYER
  5
78
330
2
100
AcDbSymbolTableRecord
100
AcDbLayerTableRecord
  2
DIMS
 70
     0
 62
     5
  6
SLD-Solid
370
    -3
390
F
  0
LAYER
  5
79
330
2
100
AcDbSymbolTableRecord
100
AcDbLayerTableRecord
  2
TITLE
 70
     0
 62
     8
  6
SLD-Solid
370
    -3
390
F
  0
ENDTAB
  0
TABLE
  2
STYLE
  5
3
330
0
100
AcDbSymbolTable
 70
     5
  0
STYLE
  5
11
330
3
100
AcDbSymbolTableRecord
100
AcDbTextStyleTableRecord
  2
STANDARD
 70
     0
 40
0.0
 41
1.0
 50
0.0
 71
     0
 42
0.5
  3
GOTHIC.TTF
  4

1001
ACAD
1000
CENTURY GOTHIC
1071
       34
  0
STYLE
  5
DD
330
3
100
AcDbSymbolTableRecord
100
AcDbTextStyleTableRecord
  2
SLDTEXTSTYLE0
 70
     0
 40
0.0
 41
0.948
 50
0.0
 71
     0
 42
0.5
  3
ARIAL.TTF
  4

1001
ACAD
1000
Arial
1071
      290
  0
STYLE
  5
E1
330
3
100
AcDbSymbolTableRecord
100
AcDbTextStyleTableRecord
  2
SLDTEXTSTYLE1
 70
     0
 40
0.0
 41
0.913
 50
0.0
 71
     0
 42
0.5
  3
GOTHIC.TTF
  4

1001
ACAD
1000
Century Gothic
1071
      290
  0
STYLE
  5
F0
330
3
100
AcDbSymbolTableRecord
100
AcDbTextStyleTableRecord
  2
SLDTEXTSTYLE2
 70
     0
 40
0.0
 41
0.87
 50
0.0
 71
     0
 42
0.5
  3
ARIALNB.TTF
  4

1001
ACAD
1000
Arial Narrow
1071
 33554722
  0
STYLE
  5
F2
330
3
100
AcDbSymbolTableRecord
100
AcDbTextStyleTableRecord
  2
SLDTEXTSTYLE3
 70
     0
 40
0.0
 41
0.87
 50
0.0
 71
     0
 42
0.5
  3
ARIALN.TTF
  4

1001
ACAD
1000
Arial Narrow
1071
      290
  0
ENDTAB
  0
TABLE
  2
VIEW
  5
6
330
0
100
AcDbSymbolTable
 70
     0
  0
ENDTAB
  0
TABLE
  2
UCS
  5
7
330
0
100
AcDbSymbolTable
 70
     0
  0
ENDTAB
  0
TABLE
  2
APPID
  5
9
330
0
100
AcDbSymbolTable
 70
     1
  0
APPID
  5
12
330
9
100
AcDbSymbolTableRecord
100
AcDbRegAppTableRecord
  2
ACAD
 70
     0
  0
ENDTAB
  0
TABLE
  2
DIMSTYLE
  5
A
330
0
100
AcDbSymbolTable
 70
     5
100
AcDbDimStyleTable
  0
DIMSTYLE
105
27
330
A
100
AcDbSymbolTableRecord
100
AcDbDimStyleTableRecord
  2
Standard
 70
     0
178
     0
340
11
  0
DIMSTYLE
105
1CF
102
{ACAD_REACTORS
330
1CE
330
1E4
330
1F4
330
243
102
}
330
A
100
AcDbSymbolTableRecord
100
AcDbDimStyleTableRecord
  2
SLDDIMSTYLE0
 70
     0
 41
0.3
 44
0.0
 45
0.000000001
 78
    12
 79
     3
140
0.5
147
0.125
173
     1
178
     0
271
     6
272
     2
276
     2
277
     5
284
    12
340
E1
341
1D0
343
1D0
344
1D0
  0
DIMSTYLE
105
205
102
{ACAD_REACTORS
330
204
102
}
330
A
100
AcDbSymbolTableRecord
100
AcDbDimStyleTableRecord
  2
SLDDIMSTYLE1
 70
     0
 41
0.3
 44
0.0
 45
0.000000001
 78
    12
 79
     3
140
0.5
141
0.0
147
0.125
173
     1
178
     0
271
     2
272
     2
276
     2
277
     5
284
    12
340
E1
341
1D0
343
1D0
344
1D0
  0
DIMSTYLE
105
3F3
102
{ACAD_REACTORS
330
3F2
102
}
330
A
100
AcDbSymbolTableRecord
100
AcDbDimStyleTableRecord
  2
SLDDIMSTYLE2
 70
     0
 41
0.3
 44
0.0
 45
0.000000001
 78
    12
 79
     3
140
0.5
147
0.125
172
     1
173
     1
178
     0
271
     6
272
     2
276
     2
277
     5
284
    12
289
     0
340
E1
341
1D0
343
1D0
344
1D0
  0
DIMSTYLE
105
403
102
{ACAD_REACTORS
330
402
102
}
330
A
100
AcDbSymbolTableRecord
100
AcDbDimStyleTableRecord
  2
SLDDIMSTYLE3
 70
     0
 41
0.3
 44
0.0
 45
0.000000001
 78
    12
 79
     3
140
0.5
147
0.125
173
     1
178
     0
271
     2
272
     2
276
     2
277
     5
284
    12
340
E1
341
1D0
343
1D0
344
1D0
  0
ENDTAB
  0
TABLE
  2
BLOCK_RECORD
  5
1
330
0
100
AcDbSymbolTable
 70
    12
  0
BLOCK_RECORD
  5
1F
330
1
100
AcDbSymbolTableRecord
100
AcDbBlockTableRecord
  2
*Model_Space
340
22
  0
BLOCK_RECORD
  5
1B
330
1
100
AcDbSymbolTableRecord
100
AcDbBlockTableRecord
  2
*Paper_Space
340
1E
  0
BLOCK_RECORD
  5
23
330
1
100
AcDbSymbolTableRecord
100
AcDbBlockTableRecord
  2
*Paper_Space0
340
26
  0
BLOCK_RECORD
  5
E7
330
1
100
AcDbSymbolTableRecord
100
AcDbBlockTableRecord
  2
SW_NOTE_0
340
0
102
{BLKREFS
331
EC
102
}
  0
BLOCK_RECORD
  5
ED
330
1
100
AcDbSymbolTableRecord
100
AcDbBlockTableRecord
  2
SW_NOTE_0_1
340
0
102
{BLKREFS
331
F6
102
}
  0
BLOCK_RECORD
  5
1D0
330
1
100
AcDbSymbolTableRecord
100
AcDbBlockTableRecord
  2
_Open90
340
0
102
{BLKREFS
331
1D9
331
1DA
331
1E8
331
1E9
331
1F8
331
1F9
331
209
331
247
331
248
331
3F7
331
3F8
331
407
331
408
102
}
  0
BLOCK_RECORD
  5
1D6
330
1
100
AcDbSymbolTableRecord
100
AcDbBlockTableRecord
  2
_D
340
0
  0
BLOCK_RECORD
  5
1E5
330
1
100
AcDbSymbolTableRecord
100
AcDbBlockTableRecord
  2
_D_1
340
0
  0
BLOCK_RECORD
  5
1F5
330
1
100
AcDbSymbolTableRecord
100
AcDbBlockTableRecord
  2
_D_2
340
0
  0
BLOCK_RECORD
  5
206
330
1
100
AcDbSymbolTableRecord
100
AcDbBlockTableRecord
  2
_D_3
340
0
  0
BLOCK_RECORD
  5
244
330
1
100
AcDbSymbolTableRecord
100
AcDbBlockTableRecord
  2
_D_4
340
0
  0
BLOCK_RECORD
  5
344
330
1
100
AcDbSymbolTableRecord
100
AcDbBlockTableRecord
  2
SW_NOTE_0_2
340
0
102
{BLKREFS
331
349
102
}
  0
BLOCK_RECORD
  5
3F4
330
1
100
AcDbSymbolTableRecord
100
AcDbBlockTableRecord
  2
_D_5
340
0
  0
BLOCK_RECORD
  5
404
330
1
100
AcDbSymbolTableRecord
100
AcDbBlockTableRecord
  2
_D_6
340
0
  0
ENDTAB
  0
ENDSEC
  0
SECTION
  2
BLOCKS
  0
BLOCK
  5
20
330
1F
100
AcDbEntity
  8
0
100
AcDbBlockBegin
  2
*Model_Space
 70
     0
 10
0.0
 20
0.0
 30
0.0
  3
*Model_Space
  1

  0
ENDBLK
  5
21
330
1F
100
AcDbEntity
  8
0
100
AcDbBlockEnd
  0
BLOCK
  5
1C
330
1B
100
AcDbEntity
 67
     1
  8
0
100
AcDbBlockBegin
  2
*Paper_Space
 70
     0
 10
0.0
 20
0.0
 30
0.0
  3
*Paper_Space
  1

  0
ENDBLK
  5
1D
330
1B
100
AcDbEntity
 67
     1
  8
0
100
AcDbBlockEnd
  0
BLOCK
  5
24
330
23
100
AcDbEntity
  8
0
100
AcDbBlockBegin
  2
*Paper_Space0
 70
     0
 10
0.0
 20
0.0
 30
0.0
  3
*Paper_Space0
  1

  0
ENDBLK
  5
25
330
23
100
AcDbEntity
  8
0
100
AcDbBlockEnd
  0
BLOCK
  5
E8
330
E7
100
AcDbEntity
  8
0
100
AcDbBlockBegin
  2
SW_NOTE_0
 70
     0
 10
0.0
 20
0.0
 30
0.0
  3
SW_NOTE_0
  1

  0
MTEXT
  5
EA
330
E7
100
AcDbEntity
  8
NOTES
 62
     0
100
AcDbMText
 10
0.0
 20
0.3759780908
 30
0.0
 40
0.2916666667
 41
0.0
 71
     1
 72
     1
  1
FROST PRODUCTS LTD.
  7
SLDTEXTSTYLE0
 73
     1
 44
1.0
  0
MTEXT
  5
EB
330
E7
100
AcDbEntity
  8
NOTES
 62
     0
100
AcDbMText
 10
0.0
 20
-0.0495142709
 30
0.0
 40
0.2291666667
 41
0.0
 71
     1
 72
     1
  1
5280 JOHN LUCAS DRIVE, BURLINGTON, ON, L7L 5Z9
  7
SLDTEXTSTYLE0
 73
     1
 44
1.0
  0
ENDBLK
  5
E9
330
E7
100
AcDbEntity
  8
0
100
AcDbBlockEnd
  0
BLOCK
  5
EE
330
ED
100
AcDbEntity
  8
0
100
AcDbBlockBegin
  2
SW_NOTE_0_1
 70
     0
 10
0.0
 20
0.0
 30
0.0
  3
SW_NOTE_0_1
  1

  0
MTEXT
  5
F1
330
ED
100
AcDbEntity
  8
NOTES
 62
     0
100
AcDbMText
 10
0.0
 20
0.2381282771
 30
0.0
 40
0.184729064
 41
0.0
 71
     1
 72
     1
  1
PROPRIETARY AND CONFIDENTIAL
  7
SLDTEXTSTYLE2
 73
     1
 44
1.0
  0
MTEXT
  5
F3
330
ED
100
AcDbEntity
  8
NOTES
 62
     0
100
AcDbMText
 10
0.0
 20
-0.0504364796
 30
0.0
 40
0.25
 41
0.0
 71
     1
 72
     1
  1
THE INFORMATION CONTAINED IN THIS DRAWING IS THE SOLE PROPERTY OF 
  7
SLDTEXTSTYLE3
 73
     1
 44
1.0
  0
MTEXT
  5
F4
330
ED
100
AcDbEntity
  8
NOTES
 62
     0
100
AcDbMText
 10
0.0
 20
-0.4231398941
 30
0.0
 40
0.25
 41
0.0
 71
     1
 72
     1
  1
FROST PRODUCTS LTD.  ANY REPRODUCTION IN PART OR AS A WHOLE WITHOUT 
  7
SLDTEXTSTYLE3
 73
     1
 44
1.0
  0
MTEXT
  5
F5
330
ED
100
AcDbEntity
  8
NOTES
 62
     0
100
AcDbMText
 10
0.0
 20
-0.7958433086
 30
0.0
 40
0.25
 41
0.0
 71
     1
 72
     1
  1
THE WRITTEN PERMISSION OF FROST PRODUCTS LTD. IS PROHIBITED.
  7
SLDTEXTSTYLE3
 73
     1
 44
1.0
  0
ENDBLK
  5
EF
330
ED
100
AcDbEntity
  8
0
100
AcDbBlockEnd
  0
BLOCK
  5
1D1
330
1D0
100
AcDbEntity
  8
0
100
AcDbBlockBegin
  2
_Open90
 70
     0
 10
0.0
 20
0.0
 30
0.0
  3
_Open90
  1

  0
LINE
  5
1D3
330
1D0
100
AcDbEntity
  8
0
  6
ByBlock
 62
     0
370
    -2
100
AcDbLine
 10
-0.5
 20
0.5
 30
0.0
 11
0.0
 21
0.0
 31
0.0
  0
LINE
  5
1D4
330
1D0
100
AcDbEntity
  8
0
  6
ByBlock
 62
     0
370
    -2
100
AcDbLine
 10
0.0
 20
0.0
 30
0.0
 11
-0.5
 21
-0.5
 31
0.0
  0
LINE
  5
1D5
330
1D0
100
AcDbEntity
  8
0
  6
ByBlock
 62
     0
370
    -2
100
AcDbLine
 10
0.0
 20
0.0
 30
0.0
 11
-1.0
 21
0.0
 31
0.0
  0
ENDBLK
  5
1D2
330
1D0
100
AcDbEntity
  8
0
100
AcDbBlockEnd
  0
BLOCK
  5
1D7
330
1D6
100
AcDbEntity
  8
0
100
AcDbBlockBegin
  2
_D
 70
     0
 10
0.0
 20
0.0
 30
0.0
  3
_D
  1

  0
INSERT
  5
1D9
330
1D6
100
AcDbEntity
  8
DIMS
100
AcDbBlockReference
  2
_Open90
 10
31.3229580245
 20
13.0824170887
 30
-0.3322475372
 41
0.3
 42
0.3
 50
0.0
  0
INSERT
  5
1DA
330
1D6
100
AcDbEntity
  8
DIMS
100
AcDbBlockReference
  2
_Open90
 10
6.5729580245
 20
13.0824170887
 30
-0.3322475372
 41
0.3
 42
0.3
 50
180.0
  0
LINE
  5
1DB
330
1D6
100
AcDbEntity
  8
DIMS
100
AcDbLine
 10
18.9562913632
 20
13.1337017871
 30
0.0
 11
19.4722636127
 21
13.1337017871
 31
0.0
  0
LINE
  5
1DC
330
1D6
100
AcDbEntity
  8
DIMS
100
AcDbLine
 10
31.3229580245
 20
10.9988165858
 30
0.0
 11
31.3229580245
 21
13.4574170887
 31
0.0
  0
LINE
  5
1DD
330
1D6
100
AcDbEntity
  8
DIMS
100
AcDbLine
 10
6.5729580245
 20
10.9988165858
 30
0.0
 11
6.5729580245
 21
13.4574170887
 31
0.0
  0
LINE
  5
1DE
330
1D6
100
AcDbEntity
  8
DIMS
100
AcDbLine
 10
31.3229580245
 20
13.0824170887
 30
0.0
 11
19.7517774787
 21
13.0824170887
 31
0.0
  0
LINE
  5
1DF
330
1D6
100
AcDbEntity
  8
DIMS
100
AcDbLine
 10
6.5729580245
 20
13.0824170887
 30
0.0
 11
18.1441385703
 21
13.0824170887
 31
0.0
  0
MTEXT
  5
1E0
330
1D6
100
AcDbEntity
  8
DIMS
100
AcDbMText
 10
18.1441385703
 20
13.3631028475
 30
0.0
 40
0.5
 41
0.0
 71
     1
 72
     1
  1
24
  7
SLDTEXTSTYLE1
 73
     1
 44
1.0
  0
MTEXT
  5
1E1
330
1D6
100
AcDbEntity
  8
DIMS
100
AcDbMText
 10
19.0295552652
 20
13.7284153466
 30
0.0
 40
0.5
 41
0.0
 71
     1
 72
     1
  1
3
  7
SLDTEXTSTYLE1
 73
     1
 44
1.0
  0
MTEXT
  5
1E2
330
1D6
100
AcDbEntity
  8
DIMS
100
AcDbMText
 10
19.0295552652
 20
13.067234768
 30
0.0
 40
0.5
 41
0.0
 71
     1
 72
     1
  1
4
  7
SLDTEXTSTYLE1
 73
     1
 44
1.0
  0
MTEXT
  5
1E3
330
1D6
100
AcDbEntity
  8
DIMS
100
AcDbMText
 10
19.5455275146
 20
13.3631028475
 30
0.0
 40
0.5
 41
0.0
 71
     1
 72
     1
  1
"
  7
SLDTEXTSTYLE1
 73
     1
 44
1.0
  0
ENDBLK
  5
1D8
330
1D6
100
AcDbEntity
  8
0
100
AcDbBlockEnd
  0
BLOCK
  5
1E6
330
1E5
100
AcDbEntity
  8
0
100
AcDbBlockBegin
  2
_D_1
 70
     0
 10
0.0
 20
0.0
 30
0.0
  3
_D_1
  1

  0
INSERT
  5
1E8
330
1E5
100
AcDbEntity
  8
DIMS
100
AcDbBlockReference
  2
_Open90
 10
32.5778792843
 20
10.8321499191
 30
-0.3322475372
 41
0.3
 42
0.3
 50
90.0
  0
INSERT
  5
1E9
330
1E5
100
AcDbEntity
  8
DIMS
100
AcDbBlockReference
  2
_Open90
 10
32.5778792843
 20
9.4480244818
 30
-0.3322475372
 41
0.3
 42
0.3
 50
270.0
  0
LINE
  5
1EA
330
1E5
100
AcDbEntity
  8
DIMS
100
AcDbLine
 10
33.3205876318
 20
8.9995061524
 30
0.0
 11
33.8365598812
 21
8.9995061524
 31
0.0
  0
LINE
  5
1EB
330
1E5
100
AcDbEntity
  8
DIMS
100
AcDbLine
 10
31.4896246912
 20
10.8321499191
 30
0.0
 11
32.9528792843
 21
10.8321499191
 31
0.0
  0
LINE
  5
1EC
330
1E5
100
AcDbEntity
  8
DIMS
100
AcDbLine
 10
32.1146246912
 20
9.4480244818
 30
0.0
 11
32.9528792843
 21
9.4480244818
 31
0.0
  0
LINE
  5
1ED
330
1E5
100
AcDbEntity
  8
DIMS
100
AcDbLine
 10
32.8778792843
 20
8.948221454
 30
0.0
 11
32.5778792843
 21
8.948221454
 31
0.0
  0
LINE
  5
1EE
330
1E5
100
AcDbEntity
  8
DIMS
100
AcDbLine
 10
32.5778792843
 20
8.948221454
 30
0.0
 11
32.5778792843
 21
9.4480244818
 31
0.0
  0
LINE
  5
1EF
330
1E5
100
AcDbEntity
  8
DIMS
100
AcDbLine
 10
32.5778792843
 20
10.8321499191
 30
0.0
 11
32.5778792843
 21
9.4480244818
 31
0.0
  0
MTEXT
  5
1F0
330
1E5
100
AcDbEntity
  8
DIMS
100
AcDbMText
 10
32.8778792843
 20
9.2289072128
 30
0.0
 40
0.5
 41
0.0
 71
     1
 72
     1
  1
1
  7
SLDTEXTSTYLE1
 73
     1
 44
1.0
  0
MTEXT
  5
1F1
330
1E5
100
AcDbEntity
  8
DIMS
100
AcDbMText
 10
33.3938515338
 20
9.5942197119
 30
0.0
 40
0.5
 41
0.0
 71
     1
 72
     1
  1
3
  7
SLDTEXTSTYLE1
 73
     1
 44
1.0
  0
MTEXT
  5
1F2
330
1E5
100
AcDbEntity
  8
DIMS
100
AcDbMText
 10
33.3938515338
 20
8.9330391333
 30
0.0
 40
0.5
 41
0.0
 71
     1
 72
     1
  1
8
  7
SLDTEXTSTYLE1
 73
     1
 44
1.0
  0
MTEXT
  5
1F3
330
1E5
100
AcDbEntity
  8
DIMS
100
AcDbMText
 10
33.9098237832
 20
9.2289072128
 30
0.0
 40
0.5
 41
0.0
 71
     1
 72
     1
  1
"
  7
SLDTEXTSTYLE1
 73
     1
 44
1.0
  0
ENDBLK
  5
1E7
330
1E5
100
AcDbEntity
  8
0
100
AcDbBlockEnd
  0
BLOCK
  5
1F6
330
1F5
100
AcDbEntity
  8
0
100
AcDbBlockBegin
  2
_D_2
 70
     0
 10
0.0
 20
0.0
 30
0.0
  3
_D_2
  1

  0
INSERT
  5
1F8
330
1F5
100
AcDbEntity
  8
DIMS
100
AcDbBlockReference
  2
_Open90
 10
32.5778792843
 20
10.8321499191
 30
-0.3322475372
 41
0.3
 42
0.3
 50
270.0
  0
INSERT
  5
1F9
330
1F5
100
AcDbEntity
  8
DIMS
100
AcDbBlockReference
  2
_Open90
 10
32.5778792843
 20
12.2162753564
 30
-0.3322475372
 41
0.3
 42
0.3
 50
90.0
  0
LINE
  5
1FA
330
1F5
100
AcDbEntity
  8
DIMS
100
AcDbLine
 10
33.3205876318
 20
12.6612608422
 30
0.0
 11
33.8365598812
 21
12.6612608422
 31
0.0
  0
LINE
  5
1FB
330
1F5
100
AcDbEntity
  8
DIMS
100
AcDbLine
 10
31.4896246912
 20
10.8321499191
 30
0.0
 11
32.9528792843
 21
10.8321499191
 31
0.0
  0
LINE
  5
1FC
330
1F5
100
AcDbEntity
  8
DIMS
100
AcDbLine
 10
32.1146246912
 20
12.2162753564
 30
0.0
 11
32.9528792843
 21
12.2162753564
 31
0.0
  0
LINE
  5
1FD
330
1F5
100
AcDbEntity
  8
DIMS
100
AcDbLine
 10
32.8778792843
 20
12.6099761438
 30
0.0
 11
32.5778792843
 21
12.6099761438
 31
0.0
  0
LINE
  5
1FE
330
1F5
100
AcDbEntity
  8
DIMS
100
AcDbLine
 10
32.5778792843
 20
12.6099761438
 30
0.0
 11
32.5778792843
 21
12.2162753564
 31
0.0
  0
LINE
  5
1FF
330
1F5
100
AcDbEntity
  8
DIMS
100
AcDbLine
 10
32.5778792843
 20
10.8321499191
 30
0.0
 11
32.5778792843
 21
12.2162753564
 31
0.0
  0
MTEXT
  5
200
330
1F5
100
AcDbEntity
  8
DIMS
100
AcDbMText
 10
32.8778792843
 20
12.8906619027
 30
0.0
 40
0.5
 41
0.0
 71
     1
 72
     1
  1
1
  7
SLDTEXTSTYLE1
 73
     1
 44
1.0
  0
MTEXT
  5
201
330
1F5
100
AcDbEntity
  8
DIMS
100
AcDbMText
 10
33.3938515338
 20
13.2559744017
 30
0.0
 40
0.5
 41
0.0
 71
     1
 72
     1
  1
3
  7
SLDTEXTSTYLE1
 73
     1
 44
1.0
  0
MTEXT
  5
202
330
1F5
100
AcDbEntity
  8
DIMS
100
AcDbMText
 10
33.3938515338
 20
12.5947938232
 30
0.0
 40
0.5
 41
0.0
 71
     1
 72
     1
  1
8
  7
SLDTEXTSTYLE1
 73
     1
 44
1.0
  0
MTEXT
  5
203
330
1F5
100
AcDbEntity
  8
DIMS
100
AcDbMText
 10
33.9098237832
 20
12.8906619027
 30
0.0
 40
0.5
 41
0.0
 71
     1
 72
     1
  1
"
  7
SLDTEXTSTYLE1
 73
     1
 44
1.0
  0
ENDBLK
  5
1F7
330
1F5
100
AcDbEntity
  8
0
100
AcDbBlockEnd
  0
BLOCK
  5
207
330
206
100
AcDbEntity
  8
0
100
AcDbBlockBegin
  2
_D_3
 70
     0
 10
0.0
 20
0.0
 30
0.0
  3
_D_3
  1

  0
INSERT
  5
209
330
206
100
AcDbEntity
  8
DIMS
100
AcDbBlockReference
  2
_Open90
 10
6.5578488035
 20
10.7332979518
 30
-0.3322475372
 41
0.3
 42
0.3
 50
81.30977296
  0
LINE
  5
20A
330
206
100
AcDbEntity
  8
DIMS
100
AcDbLine
 10
8.3036582723
 20
8.6316127032
 30
0.0
 11
9.1890749672
 21
8.6316127032
 31
0.0
  0
LINE
  5
20B
330
206
100
AcDbEntity
  8
DIMS
100
AcDbLine
 10
6.5578488035
 20
10.7332979518
 30
0.0
 11
6.2287739282
 21
8.5803280048
 31
0.0
  0
LINE
  5
20C
330
206
100
AcDbEntity
  8
DIMS
100
AcDbLine
 10
6.2287739282
 20
8.5803280048
 30
0.0
 11
7.4763318879
 21
8.5803280048
 31
0.0
  0
MTEXT
  5
20D
330
206
100
AcDbEntity
  8
DIMS
100
AcDbMText
 10
7.4763318879
 20
8.8533748743
 30
0.0
 40
0.5
 41
0.0
 71
     1
 72
     1
  1
%%c
  7
SLDTEXTSTYLE1
 73
     1
 44
1.0
  0
MTEXT
  5
20E
330
206
100
AcDbEntity
  8
DIMS
100
AcDbMText
 10
8.561644397
 20
9.2263262626
 30
0.0
 40
0.5
 41
0.0
 71
     1
 72
     1
  1
3
  7
SLDTEXTSTYLE1
 73
     1
 44
1.0
  0
MTEXT
  5
20F
330
206
100
AcDbEntity
  8
DIMS
100
AcDbMText
 10
8.3769221742
 20
8.5651456841
 30
0.0
 40
0.5
 41
0.0
 71
     1
 72
     1
  1
16
  7
SLDTEXTSTYLE1
 73
     1
 44
1.0
  0
MTEXT
  5
210
330
206
100
AcDbEntity
  8
DIMS
100
AcDbMText
 10
9.2623388692
 20
8.8610137636
 30
0.0
 40
0.5
 41
0.0
 71
     1
 72
     1
  1
"
  7
SLDTEXTSTYLE1
 73
     1
 44
1.0
  0
MTEXT
  5
211
330
206
100
AcDbEntity
  8
DIMS
100
AcDbMText
 10
9.4685888332
 20
8.8610137636
 30
0.0
 40
0.5
 41
0.0
 71
     1
 72
     1
  1
 mounting hole (2)
  7
SLDTEXTSTYLE1
 73
     1
 44
1.0
  0
ENDBLK
  5
208
330
206
100
AcDbEntity
  8
0
100
AcDbBlockEnd
  0
BLOCK
  5
245
330
244
100
AcDbEntity
  8
0
100
AcDbBlockBegin
  2
_D_4
 70
     0
 10
0.0
 20
0.0
 30
0.0
  3
_D_4
  1

  0
INSERT
  5
247
330
244
100
AcDbEntity
  8
DIMS
100
AcDbBlockReference
  2
_Open90
 10
37.3918931122
 20
12.2162753564
 30
-0.2046585157
 41
0.3
 42
0.3
 50
90.0
  0
INSERT
  5
248
330
244
100
AcDbEntity
  8
DIMS
100
AcDbBlockReference
  2
_Open90
 10
37.3918931122
 20
9.4480244818
 30
-0.2046585157
 41
0.3
 42
0.3
 50
270.0
  0
LINE
  5
249
330
244
100
AcDbEntity
  8
DIMS
100
AcDbLine
 10
37.2155041916
 20
10.6918781723
 30
0.0
 11
37.731476441
 21
10.6918781723
 31
0.0
  0
LINE
  5
24A
330
244
100
AcDbEntity
  8
DIMS
100
AcDbLine
 10
39.1013681779
 20
12.2162753564
 30
0.0
 11
37.0168931122
 21
12.2162753564
 31
0.0
  0
LINE
  5
24B
330
244
100
AcDbEntity
  8
DIMS
100
AcDbLine
 10
39.1013681779
 20
9.4480244818
 30
0.0
 11
37.0168931122
 21
9.4480244818
 31
0.0
  0
LINE
  5
24C
330
244
100
AcDbEntity
  8
DIMS
100
AcDbLine
 10
37.3918931122
 20
12.2162753564
 30
0.0
 11
37.3918931122
 21
11.2944476272
 31
0.0
  0
LINE
  5
24D
330
244
100
AcDbEntity
  8
DIMS
100
AcDbLine
 10
37.3918931122
 20
9.4480244818
 30
0.0
 11
37.3918931122
 21
9.9867393206
 31
0.0
  0
MTEXT
  5
24E
330
244
100
AcDbEntity
  8
DIMS
100
AcDbMText
 10
36.7727958441
 20
10.9212792327
 30
0.0
 40
0.5
 41
0.0
 71
     1
 72
     1
  1
2
  7
SLDTEXTSTYLE1
 73
     1
 44
1.0
  0
MTEXT
  5
24F
330
244
100
AcDbEntity
  8
DIMS
100
AcDbMText
 10
37.2887680935
 20
11.2865917318
 30
0.0
 40
0.5
 41
0.0
 71
     1
 72
     1
  1
3
  7
SLDTEXTSTYLE1
 73
     1
 44
1.0
  0
MTEXT
  5
250
330
244
100
AcDbEntity
  8
DIMS
100
AcDbMText
 10
37.2887680935
 20
10.6254111532
 30
0.0
 40
0.5
 41
0.0
 71
     1
 72
     1
  1
4
  7
SLDTEXTSTYLE1
 73
     1
 44
1.0
  0
MTEXT
  5
251
330
244
100
AcDbEntity
  8
DIMS
100
AcDbMText
 10
37.804740343
 20
10.9212792327
 30
0.0
 40
0.5
 41
0.0
 71
     1
 72
     1
  1
"
  7
SLDTEXTSTYLE1
 73
     1
 44
1.0
  0
ENDBLK
  5
246
330
244
100
AcDbEntity
  8
0
100
AcDbBlockEnd
  0
BLOCK
  5
345
330
344
100
AcDbEntity
  8
0
100
AcDbBlockBegin
  2
SW_NOTE_0_2
 70
     0
 10
0.0
 20
0.0
 30
0.0
  3
SW_NOTE_0_2
  1

  0
MTEXT
  5
347
330
344
100
AcDbEntity
  8
NOTES
 62
     0
100
AcDbMText
 10
0.0
 20
0.638671875
 30
0.0
 40
0.5
 41
0.0
 71
     1
 72
     1
  1
3D view
  7
SLDTEXTSTYLE1
 73
     1
 44
1.0
  0
MTEXT
  5
348
330
344
100
AcDbEntity
  8
NOTES
 62
     0
100
AcDbMText
 10
0.0
 20
-0.3613281862
 30
0.0
 40
0.5
 41
0.0
 71
     1
 72
     1
  1
code 1113
  7
SLDTEXTSTYLE1
 73
     1
 44
1.0
  0
ENDBLK
  5
346
330
344
100
AcDbEntity
  8
0
100
AcDbBlockEnd
  0
BLOCK
  5
3F5
330
3F4
100
AcDbEntity
  8
0
100
AcDbBlockBegin
  2
_D_5
 70
     0
 10
0.0
 20
0.0
 30
0.0
  3
_D_5
  1

  0
INSERT
  5
3F7
330
3F4
100
AcDbEntity
  8
DIMS
100
AcDbBlockReference
  2
_Open90
 10
32.5778792843
 20
18.9035219459
 30
-0.0427577585
 41
0.3
 42
0.3
 50
90.0
  0
INSERT
  5
3F8
330
3F4
100
AcDbEntity
  8
DIMS
100
AcDbBlockReference
  2
_Open90
 10
32.5778792843
 20
20.2955108846
 30
-0.0427577585
 41
0.3
 42
0.3
 50
270.0
  0
LINE
  5
3F9
330
3F4
100
AcDbEntity
  8
DIMS
100
AcDbLine
 10
32.4014903637
 20
19.6508011136
 30
0.0
 11
32.9174626131
 21
19.6508011136
 31
0.0
  0
LINE
  5
3FA
330
3F4
100
AcDbEntity
  8
DIMS
100
AcDbLine
 10
30.4380626738
 20
18.9035219459
 30
0.0
 11
32.9528792843
 21
18.9035219459
 31
0.0
  0
LINE
  5
3FB
330
3F4
100
AcDbEntity
  8
DIMS
100
AcDbLine
 10
32.1146246912
 20
20.2955108846
 30
0.0
 11
32.9528792843
 21
20.2955108846
 31
0.0
  0
LINE
  5
3FC
330
3F4
100
AcDbEntity
  8
DIMS
100
AcDbLine
 10
32.5778792843
 20
18.9035219459
 30
0.0
 11
32.5778792843
 21
18.6035219459
 31
0.0
  0
LINE
  5
3FD
330
3F4
100
AcDbEntity
  8
DIMS
100
AcDbLine
 10
32.5778792843
 20
20.2955108846
 30
0.0
 11
32.5778792843
 21
20.5955108846
 31
0.0
  0
MTEXT
  5
3FE
330
3F4
100
AcDbEntity
  8
DIMS
100
AcDbMText
 10
31.9587820162
 20
19.8802021741
 30
0.0
 40
0.5
 41
0.0
 71
     1
 72
     1
  1
1
  7
SLDTEXTSTYLE1
 73
     1
 44
1.0
  0
MTEXT
  5
3FF
330
3F4
100
AcDbEntity
  8
DIMS
100
AcDbMText
 10
32.4747542656
 20
20.2455146731
 30
0.0
 40
0.5
 41
0.0
 71
     1
 72
     1
  1
3
  7
SLDTEXTSTYLE1
 73
     1
 44
1.0
  0
MTEXT
  5
400
330
3F4
100
AcDbEntity
  8
DIMS
100
AcDbMText
 10
32.4747542656
 20
19.5843340946
 30
0.0
 40
0.5
 41
0.0
 71
     1
 72
     1
  1
8
  7
SLDTEXTSTYLE1
 73
     1
 44
1.0
  0
MTEXT
  5
401
330
3F4
100
AcDbEntity
  8
DIMS
100
AcDbMText
 10
32.9907265151
 20
19.8802021741
 30
0.0
 40
0.5
 41
0.0
 71
     1
 72
     1
  1
"
  7
SLDTEXTSTYLE1
 73
     1
 44
1.0
  0
ENDBLK
  5
3F6
330
3F4
100
AcDbEntity
  8
0
100
AcDbBlockEnd
  0
BLOCK
  5
405
330
404
100
AcDbEntity
  8
0
100
AcDbBlockBegin
  2
_D_6
 70
     0
 10
0.0
 20
0.0
 30
0.0
  3
_D_6
  1

  0
INSERT
  5
407
330
404
100
AcDbEntity
  8
DIMS
100
AcDbBlockReference
  2
_Open90
 10
31.9479580245
 20
20.9254321444
 30
-0.0427577585
 41
0.3
 42
0.3
 50
0.0
  0
INSERT
  5
408
330
404
100
AcDbEntity
  8
DIMS
100
AcDbBlockReference
  2
_Open90
 10
5.9479580245
 20
20.9254321444
 30
-0.0427577585
 41
0.3
 42
0.3
 50
180.0
  0
LINE
  5
409
330
404
100
AcDbEntity
  8
DIMS
100
AcDbLine
 10
31.9479580245
 20
20.4621775513
 30
0.0
 11
31.9479580245
 21
21.3004321444
 31
0.0
  0
LINE
  5
40A
330
404
100
AcDbEntity
  8
DIMS
100
AcDbLine
 10
5.9479580245
 20
20.4621775513
 30
0.0
 11
5.9479580245
 21
21.3004321444
 31
0.0
  0
LINE
  5
40B
330
404
100
AcDbEntity
  8
DIMS
100
AcDbLine
 10
31.9479580245
 20
20.9254321444
 30
0.0
 11
19.420527452
 21
20.9254321444
 31
0.0
  0
LINE
  5
40C
330
404
100
AcDbEntity
  8
DIMS
100
AcDbLine
 10
5.9479580245
 20
20.9254321444
 30
0.0
 11
18.475388597
 21
20.9254321444
 31
0.0
  0
MTEXT
  5
40D
330
404
100
AcDbEntity
  8
DIMS
100
AcDbMText
 10
18.475388597
 20
21.1672290625
 30
0.0
 40
0.5
 41
0.0
 71
     1
 72
     1
  1
26"
  7
SLDTEXTSTYLE1
 73
     1
 44
1.0
  0
ENDBLK
  5
406
330
404
100
AcDbEntity
  8
0
100
AcDbBlockEnd
  0
ENDSEC
  0
SECTION
  2
ENTITIES
  0
LINE
  5
7A
330
1F
100
AcDbEntity
  8
TITLE
370
    35
100
AcDbLine
 10
30.5182229757
 20
1.4876117645
 30
0.0
 11
47.4999864512
 21
1.4876117645
 31
0.0
  0
LINE
  5
7B
330
1F
100
AcDbEntity
  8
TITLE
370
    35
100
AcDbLine
 10
47.4999317442
 20
5.4753603936
 30
0.0
 11
37.3105350723
 21
5.4753603936
 31
0.0
  0
LINE
  5
7C
330
1F
100
AcDbEntity
  8
TITLE
  6
SLD-Solid
370
    18
100
AcDbLine
 10
0.5
 20
0.5
 30
0.0
 11
0.5
 21
35.5
 31
0.0
  0
LINE
  5
7D
330
1F
100
AcDbEntity
  8
TITLE
  6
SLD-Solid
370
    18
100
AcDbLine
 10
0.5
 20
35.5
 30
0.0
 11
47.5
 21
35.5
 31
0.0
  0
LINE
  5
7E
330
1F
100
AcDbEntity
  8
TITLE
370
    35
100
AcDbLine
 10
30.5182229757
 20
2.5427877231
 30
0.0
 11
23.5059791203
 21
2.5427877231
 31
0.0
  0
LINE
  5
7F
330
1F
100
AcDbEntity
  8
TITLE
370
    35
100
AcDbLine
 10
30.5182229757
 20
1.4876117645
 30
0.0
 11
23.5059791203
 21
1.4876117645
 31
0.0
  0
LINE
  5
80
330
1F
100
AcDbEntity
  8
TITLE
  6
SLD-Solid
370
    18
100
AcDbLine
 10
47.5
 20
35.5
 30
0.0
 11
47.5
 21
0.5
 31
0.0
  0
LINE
  5
81
330
1F
100
AcDbEntity
  8
TITLE
  6
SLD-Solid
370
    18
100
AcDbLine
 10
47.5
 20
0.5
 30
0.0
 11
0.5
 21
0.5
 31
0.0
  0
LINE
  5
82
330
1F
100
AcDbEntity
  8
TITLE
370
    35
100
AcDbLine
 10
30.5182229757
 20
1.4876117645
 30
0.0
 11
30.5182229757
 21
3.5979636817
 31
0.0
  0
LINE
  5
83
330
1F
100
AcDbEntity
  8
TITLE
370
    35
100
AcDbLine
 10
23.5059791203
 20
3.5979636817
 30
0.0
 11
23.5059791203
 21
0.5
 31
0.0
  0
LINE
  5
84
330
1F
100
AcDbEntity
  8
TITLE
370
    35
100
AcDbLine
 10
23.5059791203
 20
0.5
 30
0.0
 11
47.5
 21
0.5
 31
0.0
  0
LINE
  5
85
330
1F
100
AcDbEntity
  8
TITLE
370
    35
100
AcDbLine
 10
47.4999317442
 20
5.4753603936
 30
0.0
 11
47.5
 21
0.5
 31
0.0
  0
LINE
  5
86
330
1F
100
AcDbEntity
  8
TITLE
  6
SLD-Solid
370
    18
100
AcDbLine
 10
0.4999606299
 20
18.0
 30
0.0
 11
0.5000393701
 21
18.0
 31
0.0
  0
LINE
  5
87
330
1F
100
AcDbEntity
  8
TITLE
370
    35
100
AcDbLine
 10
30.5182229757
 20
3.5979636817
 30
0.0
 11
23.5059791203
 21
3.5979636817
 31
0.0
  0
LINE
  5
88
330
1F
100
AcDbEntity
  8
TITLE
370
    35
100
AcDbLine
 10
30.5182229757
 20
3.5979636817
 30
0.0
 11
47.4997615643
 21
3.5979648343
 31
0.0
  0
LINE
  5
89
330
1F
100
AcDbEntity
  8
TITLE
370
    35
100
AcDbLine
 10
37.3105350723
 20
5.4753603936
 30
0.0
 11
37.3105350723
 21
0.4636772425
 31
0.0
  0
LINE
  5
8A
330
1F
100
AcDbEntity
  8
TITLE
  6
SLD-Solid
370
    18
100
AcDbLine
 10
24.0
 20
35.5000393701
 30
0.0
 11
24.0
 21
35.4999606299
 31
0.0
  0
LINE
  5
8B
330
1F
100
AcDbEntity
  8
TITLE
  6
SLD-Solid
370
    18
100
AcDbLine
 10
47.5000393701
 20
18.0
 30
0.0
 11
47.4999606299
 21
18.0
 31
0.0
  0
LINE
  5
8C
330
1F
100
AcDbEntity
  8
TITLE
  6
SLD-Solid
370
    18
100
AcDbLine
 10
24.0
 20
0.4999606299
 30
0.0
 11
24.0
 21
0.5000393701
 31
0.0
  0
LINE
  5
8D
330
1F
100
AcDbEntity
  8
TITLE
  6
SLD-Solid
370
    18
100
AcDbLine
 10
0.5
 20
2.2519685039
 30
0.0
 11
0.1653543307
 21
2.2519685039
 31
0.0
  0
LINE
  5
8E
330
1F
100
AcDbEntity
  8
TITLE
  6
SLD-Solid
370
    18
100
AcDbLine
 10
47.5
 20
2.2519685039
 30
0.0
 11
47.8346456693
 21
2.2519685039
 31
0.0
  0
LINE
  5
8F
330
1F
100
AcDbEntity
  8
TITLE
  6
SLD-Solid
370
    18
100
AcDbLine
 10
0.5
 20
4.2204724409
 30
0.0
 11
0.1653543307
 21
4.2204724409
 31
0.0
  0
LINE
  5
90
330
1F
100
AcDbEntity
  8
TITLE
  6
SLD-Solid
370
    18
100
AcDbLine
 10
47.5
 20
4.2204724409
 30
0.0
 11
47.8346456693
 21
4.2204724409
 31
0.0
  0
LINE
  5
91
330
1F
100
AcDbEntity
  8
TITLE
  6
SLD-Solid
370
    18
100
AcDbLine
 10
0.5
 20
6.188976378
 30
0.0
 11
0.1653543307
 21
6.188976378
 31
0.0
  0
LINE
  5
92
330
1F
100
AcDbEntity
  8
TITLE
  6
SLD-Solid
370
    18
100
AcDbLine
 10
47.5
 20
6.188976378
 30
0.0
 11
47.8346456693
 21
6.188976378
 31
0.0
  0
LINE
  5
93
330
1F
100
AcDbEntity
  8
TITLE
  6
SLD-Solid
370
    18
100
AcDbLine
 10
0.5
 20
8.157480315
 30
0.0
 11
0.1653543307
 21
8.157480315
 31
0.0
  0
LINE
  5
94
330
1F
100
AcDbEntity
  8
TITLE
  6
SLD-Solid
370
    18
100
AcDbLine
 10
47.5
 20
8.157480315
 30
0.0
 11
47.8346456693
 21
8.157480315
 31
0.0
  0
LINE
  5
95
330
1F
100
AcDbEntity
  8
TITLE
  6
SLD-Solid
370
    18
100
AcDbLine
 10
0.5
 20
10.125984252
 30
0.0
 11
0.1653543307
 21
10.125984252
 31
0.0
  0
LINE
  5
96
330
1F
100
AcDbEntity
  8
TITLE
  6
SLD-Solid
370
    18
100
AcDbLine
 10
47.5
 20
10.125984252
 30
0.0
 11
47.8346456693
 21
10.125984252
 31
0.0
  0
LINE
  5
97
330
1F
100
AcDbEntity
  8
TITLE
  6
SLD-Solid
370
    18
100
AcDbLine
 10
0.5
 20
12.094488189
 30
0.0
 11
0.1653543307
 21
12.094488189
 31
0.0
  0
LINE
  5
98
330
1F
100
AcDbEntity
  8
TITLE
  6
SLD-Solid
370
    18
100
AcDbLine
 10
47.5
 20
12.094488189
 30
0.0
 11
47.8346456693
 21
12.094488189
 31
0.0
  0
LINE
  5
99
330
1F
100
AcDbEntity
  8
TITLE
  6
SLD-Solid
370
    18
100
AcDbLine
 10
0.5
 20
14.062992126
 30
0.0
 11
0.1653543307
 21
14.062992126
 31
0.0
  0
LINE
  5
9A
330
1F
100
AcDbEntity
  8
TITLE
  6
SLD-Solid
370
    18
100
AcDbLine
 10
47.5
 20
14.062992126
 30
0.0
 11
47.8346456693
 21
14.062992126
 31
0.0
  0
LINE
  5
9B
330
1F
100
AcDbEntity
  8
TITLE
  6
SLD-Solid
370
    18
100
AcDbLine
 10
0.5
 20
16.031496063
 30
0.0
 11
0.1653543307
 21
16.031496063
 31
0.0
  0
LINE
  5
9C
330
1F
100
AcDbEntity
  8
TITLE
  6
SLD-Solid
370
    18
100
AcDbLine
 10
47.5
 20
16.031496063
 30
0.0
 11
47.8346456693
 21
16.031496063
 31
0.0
  0
LINE
  5
9D
330
1F
100
AcDbEntity
  8
TITLE
  6
SLD-Solid
370
    18
100
AcDbLine
 10
0.5
 20
18.0
 30
0.0
 11
0.1653543307
 21
18.0
 31
0.0
  0
LINE
  5
9E
330
1F
100
AcDbEntity
  8
TITLE
  6
SLD-Solid
370
    18
100
AcDbLine
 10
47.5
 20
18.0
 30
0.0
 11
47.8346456693
 21
18.0
 31
0.0
  0
LINE
  5
9F
330
1F
100
AcDbEntity
  8
TITLE
  6
SLD-Solid
370
    18
100
AcDbLine
 10
0.5
 20
19.968503937
 30
0.0
 11
0.1653543307
 21
19.968503937
 31
0.0
  0
LINE
  5
A0
330
1F
100
AcDbEntity
  8
TITLE
  6
SLD-Solid
370
    18
100
AcDbLine
 10
47.5
 20
19.968503937
 30
0.0
 11
47.8346456693
 21
19.968503937
 31
0.0
  0
LINE
  5
A1
330
1F
100
AcDbEntity
  8
TITLE
  6
SLD-Solid
370
    18
100
AcDbLine
 10
0.5
 20
21.937007874
 30
0.0
 11
0.1653543307
 21
21.937007874
 31
0.0
  0
LINE
  5
A2
330
1F
100
AcDbEntity
  8
TITLE
  6
SLD-Solid
370
    18
100
AcDbLine
 10
47.5
 20
21.937007874
 30
0.0
 11
47.8346456693
 21
21.937007874
 31
0.0
  0
LINE
  5
A3
330
1F
100
AcDbEntity
  8
TITLE
  6
SLD-Solid
370
    18
100
AcDbLine
 10
0.5
 20
23.905511811
 30
0.0
 11
0.1653543307
 21
23.905511811
 31
0.0
  0
LINE
  5
A4
330
1F
100
AcDbEntity
  8
TITLE
  6
SLD-Solid
370
    18
100
AcDbLine
 10
47.5
 20
23.905511811
 30
0.0
 11
47.8346456693
 21
23.905511811
 31
0.0
  0
LINE
  5
A5
330
1F
100
AcDbEntity
  8
TITLE
  6
SLD-Solid
370
    18
100
AcDbLine
 10
0.5
 20
25.874015748
 30
0.0
 11
0.1653543307
 21
25.874015748
 31
0.0
  0
LINE
  5
A6
330
1F
100
AcDbEntity
  8
TITLE
  6
SLD-Solid
370
    18
100
AcDbLine
 10
47.5
 20
25.874015748
 30
0.0
 11
47.8346456693
 21
25.874015748
 31
0.0
  0
LINE
  5
A7
330
1F
100
AcDbEntity
  8
TITLE
  6
SLD-Solid
370
    18
100
AcDbLine
 10
0.5
 20
27.842519685
 30
0.0
 11
0.1653543307
 21
27.842519685
 31
0.0
  0
LINE
  5
A8
330
1F
100
AcDbEntity
  8
TITLE
  6
SLD-Solid
370
    18
100
AcDbLine
 10
47.5
 20
27.842519685
 30
0.0
 11
47.8346456693
 21
27.842519685
 31
0.0
  0
LINE
  5
A9
330
1F
100
AcDbEntity
  8
TITLE
  6
SLD-Solid
370
    18
100
AcDbLine
 10
0.5
 20
29.811023622
 30
0.0
 11
0.1653543307
 21
29.811023622
 31
0.0
  0
LINE
  5
AA
330
1F
100
AcDbEntity
  8
TITLE
  6
SLD-Solid
370
    18
100
AcDbLine
 10
47.5
 20
29.811023622
 30
0.0
 11
47.8346456693
 21
29.811023622
 31
0.0
  0
LINE
  5
AB
330
1F
100
AcDbEntity
  8
TITLE
  6
SLD-Solid
370
    18
100
AcDbLine
 10
0.5
 20
31.7795275591
 30
0.0
 11
0.1653543307
 21
31.7795275591
 31
0.0
  0
LINE
  5
AC
330
1F
100
AcDbEntity
  8
TITLE
  6
SLD-Solid
370
    18
100
AcDbLine
 10
47.5
 20
31.7795275591
 30
0.0
 11
47.8346456693
 21
31.7795275591
 31
0.0
  0
LINE
  5
AD
330
1F
100
AcDbEntity
  8
TITLE
  6
SLD-Solid
370
    18
100
AcDbLine
 10
0.5
 20
33.7480314961
 30
0.0
 11
0.1653543307
 21
33.7480314961
 31
0.0
  0
LINE
  5
AE
330
1F
100
AcDbEntity
  8
TITLE
  6
SLD-Solid
370
    18
100
AcDbLine
 10
47.5
 20
33.7480314961
 30
0.0
 11
47.8346456693
 21
33.7480314961
 31
0.0
  0
LINE
  5
AF
330
1F
100
AcDbEntity
  8
TITLE
  6
SLD-Solid
370
    18
100
AcDbLine
 10
2.3464566929
 20
35.5
 30
0.0
 11
2.3464566929
 21
35.8346456693
 31
0.0
  0
LINE
  5
B0
330
1F
100
AcDbEntity
  8
TITLE
  6
SLD-Solid
370
    18
100
AcDbLine
 10
2.3464566929
 20
0.5
 30
0.0
 11
2.3464566929
 21
0.1653543307
 31
0.0
  0
LINE
  5
B1
330
1F
100
AcDbEntity
  8
TITLE
  6
SLD-Solid
370
    18
100
AcDbLine
 10
4.3149606299
 20
35.5
 30
0.0
 11
4.3149606299
 21
35.8346456693
 31
0.0
  0
LINE
  5
B2
330
1F
100
AcDbEntity
  8
TITLE
  6
SLD-Solid
370
    18
100
AcDbLine
 10
4.3149606299
 20
0.5
 30
0.0
 11
4.3149606299
 21
0.1653543307
 31
0.0
  0
LINE
  5
B3
330
1F
100
AcDbEntity
  8
TITLE
  6
SLD-Solid
370
    18
100
AcDbLine
 10
6.2834645669
 20
35.5
 30
0.0
 11
6.2834645669
 21
35.8346456693
 31
0.0
  0
LINE
  5
B4
330
1F
100
AcDbEntity
  8
TITLE
  6
SLD-Solid
370
    18
100
AcDbLine
 10
6.2834645669
 20
0.5
 30
0.0
 11
6.2834645669
 21
0.1653543307
 31
0.0
  0
LINE
  5
B5
330
1F
100
AcDbEntity
  8
TITLE
  6
SLD-Solid
370
    18
100
AcDbLine
 10
8.2519685039
 20
35.5
 30
0.0
 11
8.2519685039
 21
35.8346456693
 31
0.0
  0
LINE
  5
B6
330
1F
100
AcDbEntity
  8
TITLE
  6
SLD-Solid
370
    18
100
AcDbLine
 10
8.2519685039
 20
0.5
 30
0.0
 11
8.2519685039
 21
0.1653543307
 31
0.0
  0
LINE
  5
B7
330
1F
100
AcDbEntity
  8
TITLE
  6
SLD-Solid
370
    18
100
AcDbLine
 10
10.2204724409
 20
35.5
 30
0.0
 11
10.2204724409
 21
35.8346456693
 31
0.0
  0
LINE
  5
B8
330
1F
100
AcDbEntity
  8
TITLE
  6
SLD-Solid
370
    18
100
AcDbLine
 10
10.2204724409
 20
0.5
 30
0.0
 11
10.2204724409
 21
0.1653543307
 31
0.0
  0
LINE
  5
B9
330
1F
100
AcDbEntity
  8
TITLE
  6
SLD-Solid
370
    18
100
AcDbLine
 10
12.188976378
 20
35.5
 30
0.0
 11
12.188976378
 21
35.8346456693
 31
0.0
  0
LINE
  5
BA
330
1F
100
AcDbEntity
  8
TITLE
  6
SLD-Solid
370
    18
100
AcDbLine
 10
12.188976378
 20
0.5
 30
0.0
 11
12.188976378
 21
0.1653543307
 31
0.0
  0
LINE
  5
BB
330
1F
100
AcDbEntity
  8
TITLE
  6
SLD-Solid
370
    18
100
AcDbLine
 10
14.157480315
 20
35.5
 30
0.0
 11
14.157480315
 21
35.8346456693
 31
0.0
  0
LINE
  5
BC
330
1F
100
AcDbEntity
  8
TITLE
  6
SLD-Solid
370
    18
100
AcDbLine
 10
14.157480315
 20
0.5
 30
0.0
 11
14.157480315
 21
0.1653543307
 31
0.0
  0
LINE
  5
BD
330
1F
100
AcDbEntity
  8
TITLE
  6
SLD-Solid
370
    18
100
AcDbLine
 10
16.125984252
 20
35.5
 30
0.0
 11
16.125984252
 21
35.8346456693
 31
0.0
  0
LINE
  5
BE
330
1F
100
AcDbEntity
  8
TITLE
  6
SLD-Solid
370
    18
100
AcDbLine
 10
16.125984252
 20
0.5
 30
0.0
 11
16.125984252
 21
0.1653543307
 31
0.0
  0
LINE
  5
BF
330
1F
100
AcDbEntity
  8
TITLE
  6
SLD-Solid
370
    18
100
AcDbLine
 10
18.094488189
 20
35.5
 30
0.0
 11
18.094488189
 21
35.8346456693
 31
0.0
  0
LINE
  5
C0
330
1F
100
AcDbEntity
  8
TITLE
  6
SLD-Solid
370
    18
100
AcDbLine
 10
18.094488189
 20
0.5
 30
0.0
 11
18.094488189
 21
0.1653543307
 31
0.0
  0
LINE
  5
C1
330
1F
100
AcDbEntity
  8
TITLE
  6
SLD-Solid
370
    18
100
AcDbLine
 10
20.062992126
 20
35.5
 30
0.0
 11
20.062992126
 21
35.8346456693
 31
0.0
  0
LINE
  5
C2
330
1F
100
AcDbEntity
  8
TITLE
  6
SLD-Solid
370
    18
100
AcDbLine
 10
20.062992126
 20
0.5
 30
0.0
 11
20.062992126
 21
0.1653543307
 31
0.0
  0
LINE
  5
C3
330
1F
100
AcDbEntity
  8
TITLE
  6
SLD-Solid
370
    18
100
AcDbLine
 10
22.031496063
 20
35.5
 30
0.0
 11
22.031496063
 21
35.8346456693
 31
0.0
  0
LINE
  5
C4
330
1F
100
AcDbEntity
  8
TITLE
  6
SLD-Solid
370
    18
100
AcDbLine
 10
22.031496063
 20
0.5
 30
0.0
 11
22.031496063
 21
0.1653543307
 31
0.0
  0
LINE
  5
C5
330
1F
100
AcDbEntity
  8
TITLE
  6
SLD-Solid
370
    18
100
AcDbLine
 10
24.0
 20
35.5
 30
0.0
 11
24.0
 21
35.8346456693
 31
0.0
  0
LINE
  5
C6
330
1F
100
AcDbEntity
  8
TITLE
  6
SLD-Solid
370
    18
100
AcDbLine
 10
24.0
 20
0.5
 30
0.0
 11
24.0
 21
0.1653543307
 31
0.0
  0
LINE
  5
C7
330
1F
100
AcDbEntity
  8
TITLE
  6
SLD-Solid
370
    18
100
AcDbLine
 10
25.968503937
 20
35.5
 30
0.0
 11
25.968503937
 21
35.8346456693
 31
0.0
  0
LINE
  5
C8
330
1F
100
AcDbEntity
  8
TITLE
  6
SLD-Solid
370
    18
100
AcDbLine
 10
25.968503937
 20
0.5
 30
0.0
 11
25.968503937
 21
0.1653543307
 31
0.0
  0
LINE
  5
C9
330
1F
100
AcDbEntity
  8
TITLE
  6
SLD-Solid
370
    18
100
AcDbLine
 10
27.937007874
 20
35.5
 30
0.0
 11
27.937007874
 21
35.8346456693
 31
0.0
  0
LINE
  5
CA
330
1F
100
AcDbEntity
  8
TITLE
  6
SLD-Solid
370
    18
100
AcDbLine
 10
27.937007874
 20
0.5
 30
0.0
 11
27.937007874
 21
0.1653543307
 31
0.0
  0
LINE
  5
CB
330
1F
100
AcDbEntity
  8
TITLE
  6
SLD-Solid
370
    18
100
AcDbLine
 10
29.905511811
 20
35.5
 30
0.0
 11
29.905511811
 21
35.8346456693
 31
0.0
  0
LINE
  5
CC
330
1F
100
AcDbEntity
  8
TITLE
  6
SLD-Solid
370
    18
100
AcDbLine
 10
29.905511811
 20
0.5
 30
0.0
 11
29.905511811
 21
0.1653543307
 31
0.0
  0
LINE
  5
CD
330
1F
100
AcDbEntity
  8
TITLE
  6
SLD-Solid
370
    18
100
AcDbLine
 10
31.874015748
 20
35.5
 30
0.0
 11
31.874015748
 21
35.8346456693
 31
0.0
  0
LINE
  5
CE
330
1F
100
AcDbEntity
  8
TITLE
  6
SLD-Solid
370
    18
100
AcDbLine
 10
31.874015748
 20
0.5
 30
0.0
 11
31.874015748
 21
0.1653543307
 31
0.0
  0
LINE
  5
CF
330
1F
100
AcDbEntity
  8
TITLE
  6
SLD-Solid
370
    18
100
AcDbLine
 10
33.842519685
 20
35.5
 30
0.0
 11
33.842519685
 21
35.8346456693
 31
0.0
  0
LINE
  5
D0
330
1F
100
AcDbEntity
  8
TITLE
  6
SLD-Solid
370
    18
100
AcDbLine
 10
33.842519685
 20
0.5
 30
0.0
 11
33.842519685
 21
0.1653543307
 31
0.0
  0
LINE
  5
D1
330
1F
100
AcDbEntity
  8
TITLE
  6
SLD-Solid
370
    18
100
AcDbLine
 10
35.811023622
 20
35.5
 30
0.0
 11
35.811023622
 21
35.8346456693
 31
0.0
  0
LINE
  5
D2
330
1F
100
AcDbEntity
  8
TITLE
  6
SLD-Solid
370
    18
100
AcDbLine
 10
35.811023622
 20
0.5
 30
0.0
 11
35.811023622
 21
0.1653543307
 31
0.0
  0
LINE
  5
D3
330
1F
100
AcDbEntity
  8
TITLE
  6
SLD-Solid
370
    18
100
AcDbLine
 10
37.7795275591
 20
35.5
 30
0.0
 11
37.7795275591
 21
35.8346456693
 31
0.0
  0
LINE
  5
D4
330
1F
100
AcDbEntity
  8
TITLE
  6
SLD-Solid
370
    18
100
AcDbLine
 10
37.7795275591
 20
0.5
 30
0.0
 11
37.7795275591
 21
0.1653543307
 31
0.0
  0
LINE
  5
D5
330
1F
100
AcDbEntity
  8
TITLE
  6
SLD-Solid
370
    18
100
AcDbLine
 10
39.7480314961
 20
35.5
 30
0.0
 11
39.7480314961
 21
35.8346456693
 31
0.0
  0
LINE
  5
D6
330
1F
100
AcDbEntity
  8
TITLE
  6
SLD-Solid
370
    18
100
AcDbLine
 10
39.7480314961
 20
0.5
 30
0.0
 11
39.7480314961
 21
0.1653543307
 31
0.0
  0
LINE
  5
D7
330
1F
100
AcDbEntity
  8
TITLE
  6
SLD-Solid
370
    18
100
AcDbLine
 10
41.7165354331
 20
35.5
 30
0.0
 11
41.7165354331
 21
35.8346456693
 31
0.0
  0
LINE
  5
D8
330
1F
100
AcDbEntity
  8
TITLE
  6
SLD-Solid
370
    18
100
AcDbLine
 10
41.7165354331
 20
0.5
 30
0.0
 11
41.7165354331
 21
0.1653543307
 31
0.0
  0
LINE
  5
D9
330
1F
100
AcDbEntity
  8
TITLE
  6
SLD-Solid
370
    18
100
AcDbLine
 10
43.6850393701
 20
35.5
 30
0.0
 11
43.6850393701
 21
35.8346456693
 31
0.0
  0
LINE
  5
DA
330
1F
100
AcDbEntity
  8
TITLE
  6
SLD-Solid
370
    18
100
AcDbLine
 10
43.6850393701
 20
0.5
 30
0.0
 11
43.6850393701
 21
0.1653543307
 31
0.0
  0
LINE
  5
DB
330
1F
100
AcDbEntity
  8
TITLE
  6
SLD-Solid
370
    18
100
AcDbLine
 10
45.6535433071
 20
35.5
 30
0.0
 11
45.6535433071
 21
35.8346456693
 31
0.0
  0
LINE
  5
DC
330
1F
100
AcDbEntity
  8
TITLE
  6
SLD-Solid
370
    18
100
AcDbLine
 10
45.6535433071
 20
0.5
 30
0.0
 11
45.6535433071
 21
0.1653543307
 31
0.0
  0
MTEXT
  5
DE
330
1F
100
AcDbEntity
  8
NOTES
100
AcDbMText
 10
24.408297803
 20
1.0702903347
 30
0.0
 40
0.25
 41
0.0
 71
     1
 72
     1
  1
UNLESS OTHERWISE SPECIFIED DIMENSIONS ARE IN INCHES.
  7
SLDTEXTSTYLE0
 73
     1
 44
1.0
  0
MTEXT
  5
DF
330
1F
100
AcDbEntity
  8
NOTES
100
AcDbMText
 10
24.4368251132
 20
3.2193045501
 30
0.0
 40
0.25
 41
0.0
 71
     1
 72
     1
  1
DATE:
  7
SLDTEXTSTYLE0
 73
     1
 44
1.0
  0
MTEXT
  5
E0
330
1F
100
AcDbEntity
  8
NOTES
100
AcDbMText
 10
26.7130669976
 20
2.1722148141
 30
0.0
 40
0.25
 41
0.0
 71
     2
 72
     1
  1
DO NOT SCALE DRAWING
  7
SLDTEXTSTYLE0
 73
     1
 44
1.0
  0
MTEXT
  5
E2
330
1F
100
AcDbEntity
  8
NOTES
100
AcDbMText
 10
30.8307373075
 20
3.2682755553
 30
0.0
 40
0.25
 41
0.0
 71
     1
 72
     1
  1
TITLE:
  7
SLDTEXTSTYLE1
 73
     1
 44
1.0
  0
MTEXT
  5
E3
330
1F
100
AcDbEntity
  8
NOTES
100
AcDbMText
 10
38.1561831052
 20
3.2682755553
 30
0.0
 40
0.25
 41
0.0
 71
     1
 72
     1
  1
DWG NO.
  7
SLDTEXTSTYLE1
 73
     1
 44
1.0
  0
MTEXT
  5
E4
330
1F
100
AcDbEntity
  8
NOTES
100
AcDbMText
 10
38.1831753203
 20
1.0645815577
 30
0.0
 40
0.25
 41
0.0
 71
     1
 72
     1
  1
SCALE:     1:1
  7
SLDTEXTSTYLE1
 73
     1
 44
1.0
  0
MTEXT
  5
E5
330
1F
100
AcDbEntity
  8
NOTES
100
AcDbMText
 10
42.2054526861
 20
2.6510344295
 30
0.0
 40
0.25
 41
0.0
 71
     2
 72
     1
  1
1113 Drawing
  7
SLDTEXTSTYLE1
 73
     1
 44
1.0
  0
MTEXT
  5
E6
330
1F
100
AcDbEntity
  8
NOTES
100
AcDbMText
 10
33.9704625793
 20
2.6388861441
 30
0.0
 40
0.25
 41
0.0
 71
     2
 72
     1
  1
1113 Broom / Mop Rack
  7
SLDTEXTSTYLE1
 73
     1
 44
1.0
  0
INSERT
  5
EC
330
1F
100
AcDbEntity
  8
NOTES
100
AcDbBlockReference
  2
SW_NOTE_0
 10
38.266131557
 20
4.6105227838
 30
0.0
  0
INSERT
  5
F6
330
1F
100
AcDbEntity
  8
NOTES
100
AcDbBlockReference
  2
SW_NOTE_0_1
 10
24.6159726246
 20
5.1481526848
 30
0.0
  0
MTEXT
  5
F7
330
1F
100
AcDbEntity
  8
NOTES
100
AcDbMText
 10
27.5199469256
 20
3.2135957731
 30
0.0
 40
0.25
 41
0.0
 71
     2
 72
     1
  1
September 8, 2021
  7
SLDTEXTSTYLE1
 73
     1
 44
1.0
  0
MTEXT
  5
F8
330
1F
100
AcDbEntity
  8
TITLE
100
AcDbMText
 10
0.3276279776
 20
1.4558621965
 30
0.0
 40
0.125
 41
0.0
 71
     2
 72
     1
  1
A
  7
SLDTEXTSTYLE1
 73
     1
 44
1.0
  0
MTEXT
  5
F9
330
1F
100
AcDbEntity
  8
TITLE
100
AcDbMText
 10
47.6622736469
 20
1.4558621965
 30
0.0
 40
0.125
 41
0.0
 71
     2
 72
     1
  1
A
  7
SLDTEXTSTYLE1
 73
     1
 44
1.0
  0
MTEXT
  5
FA
330
1F
100
AcDbEntity
  8
TITLE
100
AcDbMText
 10
0.3317512413
 20
3.316098417
 30
0.0
 40
0.125
 41
0.0
 71
     2
 72
     1
  1
B
  7
SLDTEXTSTYLE1
 73
     1
 44
1.0
  0
MTEXT
  5
FB
330
1F
100
AcDbEntity
  8
TITLE
100
AcDbMText
 10
47.6663969106
 20
3.316098417
 30
0.0
 40
0.125
 41
0.0
 71
     2
 72
     1
  1
B
  7
SLDTEXTSTYLE1
 73
     1
 44
1.0
  0
MTEXT
  5
FC
330
1F
100
AcDbEntity
  8
TITLE
100
AcDbMText
 10
0.3313750817
 20
5.284602354
 30
0.0
 40
0.125
 41
0.0
 71
     2
 72
     1
  1
C
  7
SLDTEXTSTYLE1
 73
     1
 44
1.0
  0
MTEXT
  5
FD
330
1F
100
AcDbEntity
  8
TITLE
100
AcDbMText
 10
47.666020751
 20
5.284602354
 30
0.0
 40
0.125
 41
0.0
 71
     2
 72
     1
  1
C
  7
SLDTEXTSTYLE1
 73
     1
 44
1.0
  0
MTEXT
  5
FE
330
1F
100
AcDbEntity
  8
TITLE
100
AcDbMText
 10
0.3311870028
 20
7.253106291
 30
0.0
 40
0.125
 41
0.0
 71
     2
 72
     1
  1
D
  7
SLDTEXTSTYLE1
 73
     1
 44
1.0
  0
MTEXT
  5
FF
330
1F
100
AcDbEntity
  8
TITLE
100
AcDbMText
 10
47.6658326721
 20
7.253106291
 30
0.0
 40
0.125
 41
0.0
 71
     2
 72
     1
  1
D
  7
SLDTEXTSTYLE1
 73
     1
 44
1.0
  0
MTEXT
  5
100
330
1F
100
AcDbEntity
  8
TITLE
100
AcDbMText
 10
0.332923116
 20
9.221610228
 30
0.0
 40
0.125
 41
0.0
 71
     2
 72
     1
  1
E
  7
SLDTEXTSTYLE1
 73
     1
 44
1.0
  0
MTEXT
  5
101
330
1F
100
AcDbEntity
  8
TITLE
100
AcDbMText
 10
47.6675687853
 20
9.221610228
 30
0.0
 40
0.125
 41
0.0
 71
     2
 72
     1
  1
E
  7
SLDTEXTSTYLE1
 73
     1
 44
1.0
  0
MTEXT
  5
102
330
1F
100
AcDbEntity
  8
TITLE
100
AcDbMText
 10
0.3313461474
 20
11.190114165
 30
0.0
 40
0.125
 41
0.0
 71
     2
 72
     1
  1
F
  7
SLDTEXTSTYLE1
 73
     1
 44
1.0
  0
MTEXT
  5
103
330
1F
100
AcDbEntity
  8
TITLE
100
AcDbMText
 10
47.6659918167
 20
11.190114165
 30
0.0
 40
0.125
 41
0.0
 71
     2
 72
     1
  1
F
  7
SLDTEXTSTYLE1
 73
     1
 44
1.0
  0
MTEXT
  5
104
330
1F
100
AcDbEntity
  8
TITLE
100
AcDbMText
 10
0.3322576054
 20
13.158618102
 30
0.0
 40
0.125
 41
0.0
 71
     2
 72
     1
  1
G
  7
SLDTEXTSTYLE1
 73
     1
 44
1.0
  0
MTEXT
  5
105
330
1F
100
AcDbEntity
  8
TITLE
100
AcDbMText
 10
47.6669032747
 20
13.158618102
 30
0.0
 40
0.125
 41
0.0
 71
     2
 72
     1
  1
G
  7
SLDTEXTSTYLE1
 73
     1
 44
1.0
  0
MTEXT
  5
106
330
1F
100
AcDbEntity
  8
TITLE
100
AcDbMText
 10
0.3323733457
 20
15.127122039
 30
0.0
 40
0.125
 41
0.0
 71
     2
 72
     1
  1
H
  7
SLDTEXTSTYLE1
 73
     1
 44
1.0
  0
MTEXT
  5
107
330
1F
100
AcDbEntity
  8
TITLE
100
AcDbMText
 10
47.667019015
 20
15.127122039
 30
0.0
 40
0.125
 41
0.0
 71
     2
 72
     1
  1
H
  7
SLDTEXTSTYLE1
 73
     1
 44
1.0
  0
MTEXT
  5
108
330
1F
100
AcDbEntity
  8
TITLE
100
AcDbMText
 10
0.3315776306
 20
17.095625976
 30
0.0
 40
0.125
 41
0.0
 71
     2
 72
     1
  1
J
  7
SLDTEXTSTYLE1
 73
     1
 44
1.0
  0
MTEXT
  5
109
330
1F
100
AcDbEntity
  8
TITLE
100
AcDbMText
 10
47.6662232999
 20
17.095625976
 30
0.0
 40
0.125
 41
0.0
 71
     2
 72
     1
  1
J
  7
SLDTEXTSTYLE1
 73
     1
 44
1.0
  0
MTEXT
  5
10A
330
1F
100
AcDbEntity
  8
TITLE
100
AcDbMText
 10
0.3323154765
 20
19.064129913
 30
0.0
 40
0.125
 41
0.0
 71
     2
 72
     1
  1
K
  7
SLDTEXTSTYLE1
 73
     1
 44
1.0
  0
MTEXT
  5
10B
330
1F
100
AcDbEntity
  8
TITLE
100
AcDbMText
 10
47.6669611458
 20
19.064129913
 30
0.0
 40
0.125
 41
0.0
 71
     2
 72
     1
  1
K
  7
SLDTEXTSTYLE1
 73
     1
 44
1.0
  0
MTEXT
  5
10C
330
1F
100
AcDbEntity
  8
TITLE
100
AcDbMText
 10
0.3312448739
 20
21.03263385
 30
0.0
 40
0.125
 41
0.0
 71
     2
 72
     1
  1
L
  7
SLDTEXTSTYLE1
 73
     1
 44
1.0
  0
MTEXT
  5
10D
330
1F
100
AcDbEntity
  8
TITLE
100
AcDbMText
 10
47.6658905432
 20
21.03263385
 30
0.0
 40
0.125
 41
0.0
 71
     2
 72
     1
  1
L
  7
SLDTEXTSTYLE1
 73
     1
 44
1.0
  0
MTEXT
  5
10E
330
1F
100
AcDbEntity
  8
TITLE
100
AcDbMText
 10
0.3283224192
 20
23.001137787
 30
0.0
 40
0.125
 41
0.0
 71
     2
 72
     1
  1
M
  7
SLDTEXTSTYLE1
 73
     1
 44
1.0
  0
MTEXT
  5
10F
330
1F
100
AcDbEntity
  8
TITLE
100
AcDbMText
 10
47.6629680885
 20
23.001137787
 30
0.0
 40
0.125
 41
0.0
 71
     2
 72
     1
  1
M
  7
SLDTEXTSTYLE1
 73
     1
 44
1.0
  0
MTEXT
  5
110
330
1F
100
AcDbEntity
  8
TITLE
100
AcDbMText
 10
0.3315342276
 20
24.969641724
 30
0.0
 40
0.125
 41
0.0
 71
     2
 72
     1
  1
N
  7
SLDTEXTSTYLE1
 73
     1
 44
1.0
  0
MTEXT
  5
111
330
1F
100
AcDbEntity
  8
TITLE
100
AcDbMText
 10
47.6661798969
 20
24.969641724
 30
0.0
 40
0.125
 41
0.0
 71
     2
 72
     1
  1
N
  7
SLDTEXTSTYLE1
 73
     1
 44
1.0
  0
MTEXT
  5
112
330
1F
100
AcDbEntity
  8
TITLE
100
AcDbMText
 10
0.3321997349
 20
26.9381456611
 30
0.0
 40
0.125
 41
0.0
 71
     2
 72
     1
  1
P
  7
SLDTEXTSTYLE1
 73
     1
 44
1.0
  0
MTEXT
  5
113
330
1F
100
AcDbEntity
  8
TITLE
100
AcDbMText
 10
47.6668454042
 20
26.9381456611
 30
0.0
 40
0.125
 41
0.0
 71
     2
 72
     1
  1
P
  7
SLDTEXTSTYLE1
 73
     1
 44
1.0
  0
MTEXT
  5
114
330
1F
100
AcDbEntity
  8
TITLE
100
AcDbMText
 10
0.3309265867
 20
28.9066495981
 30
0.0
 40
0.125
 41
0.0
 71
     2
 72
     1
  1
R
  7
SLDTEXTSTYLE1
 73
     1
 44
1.0
  0
MTEXT
  5
115
330
1F
100
AcDbEntity
  8
TITLE
100
AcDbMText
 10
47.665572256
 20
28.9066495981
 30
0.0
 40
0.125
 41
0.0
 71
     2
 72
     1
  1
R
  7
SLDTEXTSTYLE1
 73
     1
 44
1.0
  0
MTEXT
  5
116
330
1F
100
AcDbEntity
  8
TITLE
100
AcDbMText
 10
0.3323010071
 20
30.8751535351
 30
0.0
 40
0.125
 41
0.0
 71
     2
 72
     1
  1
T
  7
SLDTEXTSTYLE1
 73
     1
 44
1.0
  0
MTEXT
  5
117
330
1F
100
AcDbEntity
  8
TITLE
100
AcDbMText
 10
47.6669466764
 20
30.8751535351
 30
0.0
 40
0.125
 41
0.0
 71
     2
 72
     1
  1
T
  7
SLDTEXTSTYLE1
 73
     1
 44
1.0
  0
MTEXT
  5
118
330
1F
100
AcDbEntity
  8
TITLE
100
AcDbMText
 10
0.3328507755
 20
32.8436574721
 30
0.0
 40
0.125
 41
0.0
 71
     2
 72
     1
  1
U
  7
SLDTEXTSTYLE1
 73
     1
 44
1.0
  0
MTEXT
  5
119
330
1F
100
AcDbEntity
  8
TITLE
100
AcDbMText
 10
47.6674964448
 20
32.8436574721
 30
0.0
 40
0.125
 41
0.0
 71
     2
 72
     1
  1
U
  7
SLDTEXTSTYLE1
 73
     1
 44
1.0
  0
MTEXT
  5
11A
330
1F
100
AcDbEntity
  8
TITLE
100
AcDbMText
 10
0.3307529773
 20
34.7038936925
 30
0.0
 40
0.125
 41
0.0
 71
     2
 72
     1
  1
V
  7
SLDTEXTSTYLE1
 73
     1
 44
1.0
  0
MTEXT
  5
11B
330
1F
100
AcDbEntity
  8
TITLE
100
AcDbMText
 10
47.6653986466
 20
34.7038936925
 30
0.0
 40
0.125
 41
0.0
 71
     2
 72
     1
  1
V
  7
SLDTEXTSTYLE1
 73
     1
 44
1.0
  0
MTEXT
  5
11C
330
1F
100
AcDbEntity
  8
TITLE
100
AcDbMText
 10
1.4207109851
 20
0.4125551099
 30
0.0
 40
0.125
 41
0.0
 71
     2
 72
     1
  1
24
  7
SLDTEXTSTYLE1
 73
     1
 44
1.0
  0
MTEXT
  5
11D
330
1F
100
AcDbEntity
  8
TITLE
100
AcDbMText
 10
1.4207109851
 20
35.7472007792
 30
0.0
 40
0.125
 41
0.0
 71
     2
 72
     1
  1
24
  7
SLDTEXTSTYLE1
 73
     1
 44
1.0
  0
MTEXT
  5
11E
330
1F
100
AcDbEntity
  8
TITLE
100
AcDbMText
 10
3.3281913
 20
0.4125551099
 30
0.0
 40
0.125
 41
0.0
 71
     2
 72
     1
  1
23
  7
SLDTEXTSTYLE1
 73
     1
 44
1.0
  0
MTEXT
  5
11F
330
1F
100
AcDbEntity
  8
TITLE
100
AcDbMText
 10
3.3281913
 20
35.7472007792
 30
0.0
 40
0.125
 41
0.0
 71
     2
 72
     1
  1
23
  7
SLDTEXTSTYLE1
 73
     1
 44
1.0
  0
MTEXT
  5
120
330
1F
100
AcDbEntity
  8
TITLE
100
AcDbMText
 10
5.2966952371
 20
0.4125551099
 30
0.0
 40
0.125
 41
0.0
 71
     2
 72
     1
  1
22
  7
SLDTEXTSTYLE1
 73
     1
 44
1.0
  0
MTEXT
  5
121
330
1F
100
AcDbEntity
  8
TITLE
100
AcDbMText
 10
5.2966952371
 20
35.7472007792
 30
0.0
 40
0.125
 41
0.0
 71
     2
 72
     1
  1
22
  7
SLDTEXTSTYLE1
 73
     1
 44
1.0
  0
MTEXT
  5
122
330
1F
100
AcDbEntity
  8
TITLE
100
AcDbMText
 10
7.2651991741
 20
0.4125551099
 30
0.0
 40
0.125
 41
0.0
 71
     2
 72
     1
  1
21
  7
SLDTEXTSTYLE1
 73
     1
 44
1.0
  0
MTEXT
  5
123
330
1F
100
AcDbEntity
  8
TITLE
100
AcDbMText
 10
7.2651991741
 20
35.7472007792
 30
0.0
 40
0.125
 41
0.0
 71
     2
 72
     1
  1
21
  7
SLDTEXTSTYLE1
 73
     1
 44
1.0
  0
MTEXT
  5
124
330
1F
100
AcDbEntity
  8
TITLE
100
AcDbMText
 10
9.2337031111
 20
0.4125551099
 30
0.0
 40
0.125
 41
0.0
 71
     2
 72
     1
  1
20
  7
SLDTEXTSTYLE1
 73
     1
 44
1.0
  0
MTEXT
  5
125
330
1F
100
AcDbEntity
  8
TITLE
100
AcDbMText
 10
9.2337031111
 20
35.7472007792
 30
0.0
 40
0.125
 41
0.0
 71
     2
 72
     1
  1
20
  7
SLDTEXTSTYLE1
 73
     1
 44
1.0
  0
MTEXT
  5
126
330
1F
100
AcDbEntity
  8
TITLE
100
AcDbMText
 10
11.2022070481
 20
0.4125551099
 30
0.0
 40
0.125
 41
0.0
 71
     2
 72
     1
  1
19
  7
SLDTEXTSTYLE1
 73
     1
 44
1.0
  0
MTEXT
  5
127
330
1F
100
AcDbEntity
  8
TITLE
100
AcDbMText
 10
11.2022070481
 20
35.7472007792
 30
0.0
 40
0.125
 41
0.0
 71
     2
 72
     1
  1
19
  7
SLDTEXTSTYLE1
 73
     1
 44
1.0
  0
MTEXT
  5
128
330
1F
100
AcDbEntity
  8
TITLE
100
AcDbMText
 10
13.1707109851
 20
0.4125551099
 30
0.0
 40
0.125
 41
0.0
 71
     2
 72
     1
  1
18
  7
SLDTEXTSTYLE1
 73
     1
 44
1.0
  0
MTEXT
  5
129
330
1F
100
AcDbEntity
  8
TITLE
100
AcDbMText
 10
13.1707109851
 20
35.7472007792
 30
0.0
 40
0.125
 41
0.0
 71
     2
 72
     1
  1
18
  7
SLDTEXTSTYLE1
 73
     1
 44
1.0
  0
MTEXT
  5
12A
330
1F
100
AcDbEntity
  8
TITLE
100
AcDbMText
 10
15.1392149221
 20
0.4125551099
 30
0.0
 40
0.125
 41
0.0
 71
     2
 72
     1
  1
17
  7
SLDTEXTSTYLE1
 73
     1
 44
1.0
  0
MTEXT
  5
12B
330
1F
100
AcDbEntity
  8
TITLE
100
AcDbMText
 10
15.1392149221
 20
35.7472007792
 30
0.0
 40
0.125
 41
0.0
 71
     2
 72
     1
  1
17
  7
SLDTEXTSTYLE1
 73
     1
 44
1.0
  0
MTEXT
  5
12C
330
1F
100
AcDbEntity
  8
TITLE
100
AcDbMText
 10
17.1077188591
 20
0.4125551099
 30
0.0
 40
0.125
 41
0.0
 71
     2
 72
     1
  1
16
  7
SLDTEXTSTYLE1
 73
     1
 44
1.0
  0
MTEXT
  5
12D
330
1F
100
AcDbEntity
  8
TITLE
100
AcDbMText
 10
17.1077188591
 20
35.7472007792
 30
0.0
 40
0.125
 41
0.0
 71
     2
 72
     1
  1
16
  7
SLDTEXTSTYLE1
 73
     1
 44
1.0
  0
MTEXT
  5
12E
330
1F
100
AcDbEntity
  8
TITLE
100
AcDbMText
 10
19.0762227961
 20
0.4125551099
 30
0.0
 40
0.125
 41
0.0
 71
     2
 72
     1
  1
15
  7
SLDTEXTSTYLE1
 73
     1
 44
1.0
  0
MTEXT
  5
12F
330
1F
100
AcDbEntity
  8
TITLE
100
AcDbMText
 10
19.0762227961
 20
35.7472007792
 30
0.0
 40
0.125
 41
0.0
 71
     2
 72
     1
  1
15
  7
SLDTEXTSTYLE1
 73
     1
 44
1.0
  0
MTEXT
  5
130
330
1F
100
AcDbEntity
  8
TITLE
100
AcDbMText
 10
21.0447267331
 20
0.4125551099
 30
0.0
 40
0.125
 41
0.0
 71
     2
 72
     1
  1
14
  7
SLDTEXTSTYLE1
 73
     1
 44
1.0
  0
MTEXT
  5
131
330
1F
100
AcDbEntity
  8
TITLE
100
AcDbMText
 10
21.0447267331
 20
35.7472007792
 30
0.0
 40
0.125
 41
0.0
 71
     2
 72
     1
  1
14
  7
SLDTEXTSTYLE1
 73
     1
 44
1.0
  0
MTEXT
  5
132
330
1F
100
AcDbEntity
  8
TITLE
100
AcDbMText
 10
23.0132306701
 20
0.4125551099
 30
0.0
 40
0.125
 41
0.0
 71
     2
 72
     1
  1
13
  7
SLDTEXTSTYLE1
 73
     1
 44
1.0
  0
MTEXT
  5
133
330
1F
100
AcDbEntity
  8
TITLE
100
AcDbMText
 10
23.0132306701
 20
35.7472007792
 30
0.0
 40
0.125
 41
0.0
 71
     2
 72
     1
  1
13
  7
SLDTEXTSTYLE1
 73
     1
 44
1.0
  0
MTEXT
  5
134
330
1F
100
AcDbEntity
  8
TITLE
100
AcDbMText
 10
24.9817346071
 20
0.4125551099
 30
0.0
 40
0.125
 41
0.0
 71
     2
 72
     1
  1
12
  7
SLDTEXTSTYLE1
 73
     1
 44
1.0
  0
MTEXT
  5
135
330
1F
100
AcDbEntity
  8
TITLE
100
AcDbMText
 10
24.9817346071
 20
35.7472007792
 30
0.0
 40
0.125
 41
0.0
 71
     2
 72
     1
  1
12
  7
SLDTEXTSTYLE1
 73
     1
 44
1.0
  0
MTEXT
  5
136
330
1F
100
AcDbEntity
  8
TITLE
100
AcDbMText
 10
26.9502385441
 20
0.4125551099
 30
0.0
 40
0.125
 41
0.0
 71
     2
 72
     1
  1
11
  7
SLDTEXTSTYLE1
 73
     1
 44
1.0
  0
MTEXT
  5
137
330
1F
100
AcDbEntity
  8
TITLE
100
AcDbMText
 10
26.9502385441
 20
35.7472007792
 30
0.0
 40
0.125
 41
0.0
 71
     2
 72
     1
  1
11
  7
SLDTEXTSTYLE1
 73
     1
 44
1.0
  0
MTEXT
  5
138
330
1F
100
AcDbEntity
  8
TITLE
100
AcDbMText
 10
28.9187424811
 20
0.4125551099
 30
0.0
 40
0.125
 41
0.0
 71
     2
 72
     1
  1
10
  7
SLDTEXTSTYLE1
 73
     1
 44
1.0
  0
MTEXT
  5
139
330
1F
100
AcDbEntity
  8
TITLE
100
AcDbMText
 10
28.9187424811
 20
35.7472007792
 30
0.0
 40
0.125
 41
0.0
 71
     2
 72
     1
  1
10
  7
SLDTEXTSTYLE1
 73
     1
 44
1.0
  0
MTEXT
  5
13A
330
1F
100
AcDbEntity
  8
TITLE
100
AcDbMText
 10
30.8885050988
 20
0.4125551099
 30
0.0
 40
0.125
 41
0.0
 71
     2
 72
     1
  1
9
  7
SLDTEXTSTYLE1
 73
     1
 44
1.0
  0
MTEXT
  5
13B
330
1F
100
AcDbEntity
  8
TITLE
100
AcDbMText
 10
30.8885050988
 20
35.7472007792
 30
0.0
 40
0.125
 41
0.0
 71
     2
 72
     1
  1
9
  7
SLDTEXTSTYLE1
 73
     1
 44
1.0
  0
MTEXT
  5
13C
330
1F
100
AcDbEntity
  8
TITLE
100
AcDbMText
 10
32.8570090359
 20
0.4125551099
 30
0.0
 40
0.125
 41
0.0
 71
     2
 72
     1
  1
8
  7
SLDTEXTSTYLE1
 73
     1
 44
1.0
  0
MTEXT
  5
13D
330
1F
100
AcDbEntity
  8
TITLE
100
AcDbMText
 10
32.8570090359
 20
35.7472007792
 30
0.0
 40
0.125
 41
0.0
 71
     2
 72
     1
  1
8
  7
SLDTEXTSTYLE1
 73
     1
 44
1.0
  0
MTEXT
  5
13E
330
1F
100
AcDbEntity
  8
TITLE
100
AcDbMText
 10
34.8255129729
 20
0.4125551099
 30
0.0
 40
0.125
 41
0.0
 71
     2
 72
     1
  1
7
  7
SLDTEXTSTYLE1
 73
     1
 44
1.0
  0
MTEXT
  5
13F
330
1F
100
AcDbEntity
  8
TITLE
100
AcDbMText
 10
34.8255129729
 20
35.7472007792
 30
0.0
 40
0.125
 41
0.0
 71
     2
 72
     1
  1
7
  7
SLDTEXTSTYLE1
 73
     1
 44
1.0
  0
MTEXT
  5
140
330
1F
100
AcDbEntity
  8
TITLE
100
AcDbMText
 10
36.7940169099
 20
0.4125551099
 30
0.0
 40
0.125
 41
0.0
 71
     2
 72
     1
  1
6
  7
SLDTEXTSTYLE1
 73
     1
 44
1.0
  0
MTEXT
  5
141
330
1F
100
AcDbEntity
  8
TITLE
100
AcDbMText
 10
36.7940169099
 20
35.7472007792
 30
0.0
 40
0.125
 41
0.0
 71
     2
 72
     1
  1
6
  7
SLDTEXTSTYLE1
 73
     1
 44
1.0
  0
MTEXT
  5
142
330
1F
100
AcDbEntity
  8
TITLE
100
AcDbMText
 10
38.7625208469
 20
0.4125551099
 30
0.0
 40
0.125
 41
0.0
 71
     2
 72
     1
  1
5
  7
SLDTEXTSTYLE1
 73
     1
 44
1.0
  0
MTEXT
  5
143
330
1F
100
AcDbEntity
  8
TITLE
100
AcDbMText
 10
38.7625208469
 20
35.7472007792
 30
0.0
 40
0.125
 41
0.0
 71
     2
 72
     1
  1
5
  7
SLDTEXTSTYLE1
 73
     1
 44
1.0
  0
MTEXT
  5
144
330
1F
100
AcDbEntity
  8
TITLE
100
AcDbMText
 10
40.7310247839
 20
0.4125551099
 30
0.0
 40
0.125
 41
0.0
 71
     2
 72
     1
  1
4
  7
SLDTEXTSTYLE1
 73
     1
 44
1.0
  0
MTEXT
  5
145
330
1F
100
AcDbEntity
  8
TITLE
100
AcDbMText
 10
40.7310247839
 20
35.7472007792
 30
0.0
 40
0.125
 41
0.0
 71
     2
 72
     1
  1
4
  7
SLDTEXTSTYLE1
 73
     1
 44
1.0
  0
MTEXT
  5
146
330
1F
100
AcDbEntity
  8
TITLE
100
AcDbMText
 10
42.6995287209
 20
0.4125551099
 30
0.0
 40
0.125
 41
0.0
 71
     2
 72
     1
  1
3
  7
SLDTEXTSTYLE1
 73
     1
 44
1.0
  0
MTEXT
  5
147
330
1F
100
AcDbEntity
  8
TITLE
100
AcDbMText
 10
42.6995287209
 20
35.7472007792
 30
0.0
 40
0.125
 41
0.0
 71
     2
 72
     1
  1
3
  7
SLDTEXTSTYLE1
 73
     1
 44
1.0
  0
MTEXT
  5
148
330
1F
100
AcDbEntity
  8
TITLE
100
AcDbMText
 10
44.6680326579
 20
0.4125551099
 30
0.0
 40
0.125
 41
0.0
 71
     2
 72
     1
  1
2
  7
SLDTEXTSTYLE1
 73
     1
 44
1.0
  0
MTEXT
  5
149
330
1F
100
AcDbEntity
  8
TITLE
100
AcDbMText
 10
44.6680326579
 20
35.7472007792
 30
0.0
 40
0.125
 41
0.0
 71
     2
 72
     1
  1
2
  7
SLDTEXTSTYLE1
 73
     1
 44
1.0
  0
MTEXT
  5
14A
330
1F
100
AcDbEntity
  8
TITLE
100
AcDbMText
 10
46.5755129729
 20
0.4125551099
 30
0.0
 40
0.125
 41
0.0
 71
     2
 72
     1
  1
1
  7
SLDTEXTSTYLE1
 73
     1
 44
1.0
  0
MTEXT
  5
14B
330
1F
100
AcDbEntity
  8
TITLE
100
AcDbMText
 10
46.5755129729
 20
35.7472007792
 30
0.0
 40
0.125
 41
0.0
 71
     2
 72
     1
  1
1
  7
SLDTEXTSTYLE1
 73
     1
 44
1.0
  0
LINE
  5
14C
330
1F
100
AcDbEntity
  8
0
  6
SLD-Solid
 62
     7
370
    25
100
AcDbLine
 10
8.9828426733
 20
10.7936051428
 30
0.0
 11
8.5423049265
 21
10.9078113202
 31
0.0
  0
LINE
  5
14D
330
1F
100
AcDbEntity
  8
0
  6
SLD-Solid
 62
     7
370
    25
100
AcDbLine
 10
7.8519187264
 20
10.8917694366
 30
0.0
 11
7.6367996115
 21
10.8651529882
 31
0.0
  0
SPLINE
  5
14E
330
1F
100
AcDbEntity
  8
0
  6
SLD-Solid
 62
     7
370
    25
100
AcDbSpline
210
0.0
220
0.0
230
1.0
 70
     8
 71
     3
 72
    10
 73
     6
 74
     0
 42
0.00000001
 43
0.00000001
 40
0.0
 40
0.0
 40
0.0
 40
0.0
 40
0.312700108085141
 40
0.585202906562606
 40
1.0
 40
1.0
 40
1.0
 40
1.0
 10
8.542304926513461
 20
10.90781132021973
 30
0.0
 10
8.522057525487329
 20
10.90647598975442
 30
0.0
 10
8.484165508105596
 20
10.90397698431976
 30
0.0
 10
8.423766032440957
 20
10.87863626242723
 30
0.0
 10
8.388475729248649
 20
10.85163984881003
 30
0.0
 10
8.367177435210055
 20
10.83534705721588
 30
0.0
  0
SPLINE
  5
14F
330
1F
100
AcDbEntity
  8
0
  6
SLD-Solid
 62
     7
370
    25
100
AcDbSpline
210
0.0
220
0.0
230
1.0
 70
     8
 71
     3
 72
    11
 73
     7
 74
     0
 42
0.00000001
 43
0.00000001
 40
0.0
 40
0.0
 40
0.0
 40
0.0
 40
0.2779255621982113
 40
0.5865010749870838
 40
0.8150864002480631
 40
0.9999999999999999
 40
0.9999999999999999
 40
0.9999999999999999
 40
0.9999999999999999
 10
9.534209313064867
 20
9.885966492677937
 30
0.0
 10
9.542796703214787
 20
9.89283041690925
 30
0.0
 10
9.560918510775153
 20
9.907315226829057
 30
0.0
 10
9.576418904250977
 20
9.935860526473995
 30
0.0
 10
9.587275436794881
 20
9.962211985534005
 30
0.0
 10
9.588746181323636
 20
9.978436573884512
 30
0.0
 10
9.58940388718132
 20
9.985692087393506
 30
0.0
  0
LINE
  5
150
330
1F
100
AcDbEntity
  8
0
  6
SLD-Solid
 62
     7
370
    25
100
AcDbLine
 10
9.0884478188
 20
10.7691004761
 30
0.0
 11
8.9828426733
 21
10.7936051428
 31
0.0
  0
LINE
  5
151
330
1F
100
AcDbEntity
  8
0
  6
SLD-Solid
 62
     7
370
    25
100
AcDbLine
 10
7.8640717298
 20
10.8003384148
 30
0.0
 11
7.8519187264
 21
10.8917694366
 31
0.0
  0
SPLINE
  5
152
330
1F
100
AcDbEntity
  8
0
  6
SLD-Solid
 62
     7
370
    25
100
AcDbSpline
210
0.0
220
0.0
230
1.0
 70
     8
 71
     3
 72
    13
 73
     9
 74
     0
 42
0.00000001
 43
0.00000001
 40
0.0
 40
0.0
 40
0.0
 40
0.0
 40
0.1709847685286761
 40
0.3326578081366878
 40
0.4968967494144848
 40
0.6391258064239832
 40
0.803570582091674
 40
1.0
 40
1.0
 40
1.0
 40
1.0
 10
9.58940388718132
 20
9.985692087393506
 30
0.0
 10
9.582505072355529
 20
10.04080064179658
 30
0.0
 10
9.569083148061123
 20
10.14801657146715
 30
0.0
 10
9.528173203301717
 20
10.30488112488858
 30
0.0
 10
9.45964471082009
 20
10.44212850882529
 30
0.0
 10
9.363159622221648
 20
10.56171626907427
 30
0.0
 10
9.240792188820297
 20
10.67107324738577
 30
0.0
 10
9.142143713266112
 20
10.73454941438065
 30
0.0
 10
9.088447818753304
 20
10.76910047609637
 30
0.0
  0
SPLINE
  5
153
330
1F
100
AcDbEntity
  8
0
  6
SLD-Solid
 62
     7
370
    25
100
AcDbSpline
210
0.0
220
0.0
230
1.0
 70
     8
 71
     3
 72
    17
 73
    13
 74
     0
 42
0.00000001
 43
0.00000001
 40
0.0
 40
0.0
 40
0.0
 40
0.0
 40
0.0678705028656883
 40
0.1510805487614263
 40
0.2455286833004871
 40
0.3480591354729931
 40
0.4570909829180645
 40
0.5477261663855175
 40
0.6442895922105847
 40
0.7494053384969304
 40
0.8666049980989313
 40
1.0
 40
1.0
 40
1.0
 40
1.0
 10
7.636799611518264
 20
10.86515298815358
 30
0.0
 10
7.643756480215362
 20
10.82527128695009
 30
0.0
 10
7.659242552898498
 20
10.73649414446618
 30
0.0
 10
7.686633217134533
 20
10.59257251139279
 30
0.0
 10
7.730140635460046
 20
10.43094958808105
 30
0.0
 10
7.796610144355792
 20
10.26042492033031
 30
0.0
 10
7.886873044723496
 20
10.10333240624858
 30
0.0
 10
7.999549364590174
 20
9.966307839144106
 30
0.0
 10
8.131673002368059
 20
9.851130372299323
 30
0.0
 10
8.29557618097566
 20
9.752955230421723
 30
0.0
 10
8.494185100845897
 20
9.67459673054028
 30
0.0
 10
8.641452428596631
 20
9.647306737136805
 30
0.0
 10
8.719844862607179
 20
9.632779896460702
 30
0.0
  0
SPLINE
  5
154
330
1F
100
AcDbEntity
  8
0
  6
SLD-Solid
 62
     7
370
    25
100
AcDbSpline
210
0.0
220
0.0
230
1.0
 70
     8
 71
     3
 72
    14
 73
    10
 74
     0
 42
0.00000001
 43
0.00000001
 40
0.0
 40
0.0
 40
0.0
 40
0.0
 40
0.1669732910766159
 40
0.3292393671751841
 40
0.4780643428590287
 40
0.5831555886245562
 40
0.6936208322497787
 40
0.8266861690052624
 40
1.0
 40
1.0
 40
1.0
 40
1.0
 10
8.367177435210055
 20
10.83534705721588
 30
0.0
 10
8.342530439713787
 20
10.81158883993714
 30
0.0
 10
8.293931282641188
 20
10.76474218337532
 30
0.0
 10
8.217528602780035
 20
10.70309262531517
 30
0.0
 10
8.14083099149764
 20
10.66297713053322
 30
0.0
 10
8.065331991397766
 20
10.65219557190762
 30
0.0
 10
7.994466889768494
 20
10.67083089088019
 30
0.0
 10
7.923729571875843
 20
10.7217026561308
 30
0.0
 10
7.885626201508417
 20
10.77192719214214
 30
0.0
 10
7.864071729836328
 20
10.80033841477838
 30
0.0
  0
SPLINE
  5
155
330
1F
100
AcDbEntity
  8
0
  6
SLD-Solid
 62
     7
370
    25
100
AcDbSpline
210
0.0
220
0.0
230
1.0
 70
     8
 71
     3
 72
    13
 73
     9
 74
     0
 42
0.00000001
 43
0.00000001
 40
0.0
 40
0.0
 40
0.0
 40
0.0
 40
0.1722258029344728
 40
0.3651408598546051
 40
0.5673817509133572
 40
0.7237788946035327
 40
0.8702274286197439
 40
1.0
 40
1.0
 40
1.0
 40
1.0
 10
8.719844862607179
 20
9.632779896460702
 30
0.0
 10
8.769999586228366
 20
9.628077376144338
 30
0.0
 10
8.876334052938773
 20
9.618107428073
 30
0.0
 10
9.040460036859297
 20
9.648101049212327
 30
0.0
 10
9.19444115524685
 20
9.694363037342718
 30
0.0
 10
9.329576808718683
 20
9.75298329530187
 30
0.0
 10
9.440979043746053
 20
9.812908839634352
 30
0.0
 10
9.504409016971511
 20
9.862614209042036
 30
0.0
 10
9.534209313064867
 20
9.885966492677937
 30
0.0
  0
SPLINE
  5
156
330
1F
100
AcDbEntity
  8
0
  6
SLD-Solid
 62
     7
370
    25
100
AcDbSpline
210
0.0
220
0.0
230
1.0
 70
     8
 71
     3
 72
    14
 73
    10
 74
     0
 42
0.00000001
 43
0.00000001
 40
0.0
 40
0.0
 40
0.0
 40
0.0
 40
0.1669732910766149
 40
0.3292393671751841
 40
0.4780643428590286
 40
0.5831555886245549
 40
0.693620832249779
 40
0.8266861690052605
 40
1.0
 40
1.0
 40
1.0
 40
1.0
 10
18.70817349521005
 20
10.83534705721588
 30
0.0
 10
18.68352649971379
 20
10.81158883993714
 30
0.0
 10
18.63492734264119
 20
10.76474218337532
 30
0.0
 10
18.55852466278003
 20
10.70309262531517
 30
0.0
 10
18.48182705149764
 20
10.66297713053322
 30
0.0
 10
18.40632805139776
 20
10.65219557190762
 30
0.0
 10
18.33546294976849
 20
10.67083089088019
 30
0.0
 10
18.26472563187584
 20
10.7217026561308
 30
0.0
 10
18.22662226150842
 20
10.77192719214214
 30
0.0
 10
18.20506778983633
 20
10.80033841477838
 30
0.0
  0
SPLINE
  5
157
330
1F
100
AcDbEntity
  8
0
  6
SLD-Solid
 62
     7
370
    25
100
AcDbSpline
210
0.0
220
0.0
230
1.0
 70
     8
 71
     3
 72
    10
 73
     6
 74
     0
 42
0.00000001
 43
0.00000001
 40
0.0
 40
0.0
 40
0.0
 40
0.0
 40
0.3127001080851406
 40
0.5852029065626025
 40
1.0
 40
1.0
 40
1.0
 40
1.0
 10
18.88330098651346
 20
10.90781132021973
 30
0.0
 10
18.86305358548733
 20
10.90647598975442
 30
0.0
 10
18.8251615681056
 20
10.90397698431976
 30
0.0
 10
18.76476209244096
 20
10.87863626242723
 30
0.0
 10
18.72947178924865
 20
10.85163984881003
 30
0.0
 10
18.70817349521005
 20
10.83534705721588
 30
0.0
  0
LINE
  5
158
330
1F
100
AcDbEntity
  8
0
  6
SLD-Solid
 62
     7
370
    25
100
AcDbLine
 10
19.3238387333
 20
10.7936051428
 30
0.0
 11
18.8833009865
 21
10.9078113202
 31
0.0
  0
SPLINE
  5
159
330
1F
100
AcDbEntity
  8
0
  6
SLD-Solid
 62
     7
370
    25
100
AcDbSpline
210
0.0
220
0.0
230
1.0
 70
     8
 71
     3
 72
    13
 73
     9
 74
     0
 42
0.00000001
 43
0.00000001
 40
0.0
 40
0.0
 40
0.0
 40
0.0
 40
0.1709847685286762
 40
0.3326578081366878
 40
0.4968967494144847
 40
0.6391258064239833
 40
0.8035705820916741
 40
0.9999999999999999
 40
0.9999999999999999
 40
0.9999999999999999
 40
0.9999999999999999
 10
19.93039994718132
 20
9.985692087393506
 30
0.0
 10
19.92350113235553
 20
10.04080064179658
 30
0.0
 10
19.91007920806112
 20
10.14801657146715
 30
0.0
 10
19.86916926330172
 20
10.30488112488858
 30
0.0
 10
19.80064077082009
 20
10.44212850882529
 30
0.0
 10
19.70415568222165
 20
10.56171626907427
 30
0.0
 10
19.5817882488203
 20
10.67107324738577
 30
0.0
 10
19.48313977326611
 20
10.73454941438065
 30
0.0
 10
19.4294438787533
 20
10.76910047609637
 30
0.0
  0
SPLINE
  5
15A
330
1F
100
AcDbEntity
  8
0
  6
SLD-Solid
 62
     7
370
    25
100
AcDbSpline
210
0.0
220
0.0
230
1.0
 70
     8
 71
     3
 72
    17
 73
    13
 74
     0
 42
0.00000001
 43
0.00000001
 40
0.0
 40
0.0
 40
0.0
 40
0.0
 40
0.0678705028656883
 40
0.1510805487614262
 40
0.2455286833004872
 40
0.3480591354729935
 40
0.4570909829180648
 40
0.547726166385518
 40
0.6442895922105851
 40
0.7494053384969305
 40
0.8666049980989321
 40
1.0
 40
1.0
 40
1.0
 40
1.0
 10
17.97779567151827
 20
10.86515298815358
 30
0.0
 10
17.98475254021536
 20
10.82527128695009
 30
0.0
 10
18.0002386128985
 20
10.73649414446618
 30
0.0
 10
18.02762927713453
 20
10.59257251139279
 30
0.0
 10
18.07113669546004
 20
10.43094958808105
 30
0.0
 10
18.13760620435579
 20
10.26042492033031
 30
0.0
 10
18.2278691047235
 20
10.10333240624858
 30
0.0
 10
18.34054542459018
 20
9.966307839144106
 30
0.0
 10
18.47266906236806
 20
9.851130372299323
 30
0.0
 10
18.63657224097566
 20
9.752955230421723
 30
0.0
 10
18.8351811608459
 20
9.67459673054028
 30
0.0
 10
18.98244848859663
 20
9.647306737136805
 30
0.0
 10
19.06084092260718
 20
9.632779896460702
 30
0.0
  0
LINE
  5
15B
330
1F
100
AcDbEntity
  8
0
  6
SLD-Solid
 62
     7
370
    25
100
AcDbLine
 10
18.1929147864
 20
10.8917694366
 30
0.0
 11
17.9777956715
 21
10.8651529882
 31
0.0
  0
LINE
  5
15C
330
1F
100
AcDbEntity
  8
0
  6
SLD-Solid
 62
     7
370
    25
100
AcDbLine
 10
18.2050677898
 20
10.8003384148
 30
0.0
 11
18.1929147864
 21
10.8917694366
 31
0.0
  0
LINE
  5
15D
330
1F
100
AcDbEntity
  8
0
  6
SLD-Solid
 62
     7
370
    25
100
AcDbLine
 10
19.4294438788
 20
10.7691004761
 30
0.0
 11
19.3238387333
 21
10.7936051428
 31
0.0
  0
SPLINE
  5
15E
330
1F
100
AcDbEntity
  8
0
  6
SLD-Solid
 62
     7
370
    25
100
AcDbSpline
210
0.0
220
0.0
230
1.0
 70
     8
 71
     3
 72
    11
 73
     7
 74
     0
 42
0.00000001
 43
0.00000001
 40
0.0
 40
0.0
 40
0.0
 40
0.0
 40
0.277925562198213
 40
0.5865010749870826
 40
0.8150864002480628
 40
0.9999999999999999
 40
0.9999999999999999
 40
0.9999999999999999
 40
0.9999999999999999
 10
19.87520537306487
 20
9.885966492677937
 30
0.0
 10
19.88379276321479
 20
9.89283041690925
 30
0.0
 10
19.90191457077515
 20
9.907315226829057
 30
0.0
 10
19.91741496425098
 20
9.935860526473993
 30
0.0
 10
19.92827149679488
 20
9.962211985534006
 30
0.0
 10
19.92974224132364
 20
9.978436573884512
 30
0.0
 10
19.93039994718132
 20
9.985692087393506
 30
0.0
  0
SPLINE
  5
15F
330
1F
100
AcDbEntity
  8
0
  6
SLD-Solid
 62
     7
370
    25
100
AcDbSpline
210
0.0
220
0.0
230
1.0
 70
     8
 71
     3
 72
    13
 73
     9
 74
     0
 42
0.00000001
 43
0.00000001
 40
0.0
 40
0.0
 40
0.0
 40
0.0
 40
0.172225802934473
 40
0.3651408598546058
 40
0.5673817509133572
 40
0.7237788946035325
 40
0.8702274286197439
 40
1.0
 40
1.0
 40
1.0
 40
1.0
 10
19.06084092260718
 20
9.632779896460702
 30
0.0
 10
19.11099564622836
 20
9.628077376144338
 30
0.0
 10
19.21733011293878
 20
9.618107428073
 30
0.0
 10
19.3814560968593
 20
9.648101049212327
 30
0.0
 10
19.53543721524685
 20
9.69436303734272
 30
0.0
 10
19.67057286871868
 20
9.75298329530187
 30
0.0
 10
19.78197510374605
 20
9.812908839634352
 30
0.0
 10
19.84540507697151
 20
9.862614209042036
 30
0.0
 10
19.87520537306487
 20
9.885966492677937
 30
0.0
  0
LINE
  5
160
330
1F
100
AcDbEntity
  8
0
  6
SLD-Solid
 62
     7
370
    25
100
AcDbLine
 10
28.5339108464
 20
10.8917694366
 30
0.0
 11
28.3187917315
 21
10.8651529882
 31
0.0
  0
LINE
  5
161
330
1F
100
AcDbEntity
  8
0
  6
SLD-Solid
 62
     7
370
    25
100
AcDbLine
 10
28.5460638498
 20
10.8003384148
 30
0.0
 11
28.5339108464
 21
10.8917694366
 31
0.0
  0
SPLINE
  5
162
330
1F
100
AcDbEntity
  8
0
  6
SLD-Solid
 62
     7
370
    25
100
AcDbSpline
210
0.0
220
0.0
230
1.0
 70
     8
 71
     3
 72
    14
 73
    10
 74
     0
 42
0.00000001
 43
0.00000001
 40
0.0
 40
0.0
 40
0.0
 40
0.0
 40
0.1669732910766157
 40
0.3292393671751837
 40
0.4780643428590281
 40
0.5831555886245555
 40
0.6936208322497779
 40
0.8266861690052615
 40
1.0
 40
1.0
 40
1.0
 40
1.0
 10
29.04916955521006
 20
10.83534705721588
 30
0.0
 10
29.02452255971379
 20
10.81158883993714
 30
0.0
 10
28.9759234026412
 20
10.76474218337532
 30
0.0
 10
28.89952072278003
 20
10.70309262531517
 30
0.0
 10
28.82282311149764
 20
10.66297713053322
 30
0.0
 10
28.74732411139776
 20
10.65219557190762
 30
0.0
 10
28.6764590097685
 20
10.67083089088019
 30
0.0
 10
28.60572169187585
 20
10.7217026561308
 30
0.0
 10
28.56761832150842
 20
10.77192719214214
 30
0.0
 10
28.54606384983633
 20
10.80033841477838
 30
0.0
  0
SPLINE
  5
163
330
1F
100
AcDbEntity
  8
0
  6
SLD-Solid
 62
     7
370
    25
100
AcDbSpline
210
0.0
220
0.0
230
1.0
 70
     8
 71
     3
 72
    10
 73
     6
 74
     0
 42
0.00000001
 43
0.00000001
 40
0.0
 40
0.0
 40
0.0
 40
0.0
 40
0.312700108085141
 40
0.585202906562606
 40
1.0
 40
1.0
 40
1.0
 40
1.0
 10
29.22429704651346
 20
10.90781132021973
 30
0.0
 10
29.20404964548733
 20
10.90647598975442
 30
0.0
 10
29.1661576281056
 20
10.90397698431976
 30
0.0
 10
29.10575815244096
 20
10.87863626242723
 30
0.0
 10
29.07046784924865
 20
10.85163984881003
 30
0.0
 10
29.04916955521006
 20
10.83534705721588
 30
0.0
  0
LINE
  5
164
330
1F
100
AcDbEntity
  8
0
  6
SLD-Solid
 62
     7
370
    25
100
AcDbLine
 10
29.6648347933
 20
10.7936051428
 30
0.0
 11
29.2242970465
 21
10.9078113202
 31
0.0
  0
LINE
  5
165
330
1F
100
AcDbEntity
  8
0
  6
SLD-Solid
 62
     7
370
    25
100
AcDbLine
 10
29.7704399388
 20
10.7691004761
 30
0.0
 11
29.6648347933
 21
10.7936051428
 31
0.0
  0
SPLINE
  5
166
330
1F
100
AcDbEntity
  8
0
  6
SLD-Solid
 62
     7
370
    25
100
AcDbSpline
210
0.0
220
0.0
230
1.0
 70
     8
 71
     3
 72
    13
 73
     9
 74
     0
 42
0.00000001
 43
0.00000001
 40
0.0
 40
0.0
 40
0.0
 40
0.0
 40
0.1709847685286765
 40
0.3326578081366879
 40
0.4968967494144843
 40
0.6391258064239833
 40
0.803570582091675
 40
0.9999999999999999
 40
0.9999999999999999
 40
0.9999999999999999
 40
0.9999999999999999
 10
30.27139600718133
 20
9.985692087393506
 30
0.0
 10
30.26449719235553
 20
10.04080064179658
 30
0.0
 10
30.25107526806113
 20
10.14801657146715
 30
0.0
 10
30.21016532330172
 20
10.30488112488858
 30
0.0
 10
30.14163683082009
 20
10.44212850882529
 30
0.0
 10
30.04515174222165
 20
10.56171626907427
 30
0.0
 10
29.9227843088203
 20
10.67107324738576
 30
0.0
 10
29.82413583326612
 20
10.73454941438065
 30
0.0
 10
29.77043993875331
 20
10.76910047609637
 30
0.0
  0
SPLINE
  5
167
330
1F
100
AcDbEntity
  8
0
  6
SLD-Solid
 62
     7
370
    25
100
AcDbSpline
210
0.0
220
0.0
230
1.0
 70
     8
 71
     3
 72
    11
 73
     7
 74
     0
 42
0.00000001
 43
0.00000001
 40
0.0
 40
0.0
 40
0.0
 40
0.0
 40
0.2779255621982065
 40
0.5865010749870764
 40
0.8150864002480606
 40
0.9999999999999999
 40
0.9999999999999999
 40
0.9999999999999999
 40
0.9999999999999999
 10
30.21620143306487
 20
9.885966492677937
 30
0.0
 10
30.22478882321479
 20
9.89283041690925
 30
0.0
 10
30.24291063077515
 20
9.907315226829057
 30
0.0
 10
30.25841102425098
 20
9.935860526473993
 30
0.0
 10
30.26926755679488
 20
9.962211985534006
 30
0.0
 10
30.27073830132364
 20
9.978436573884512
 30
0.0
 10
30.27139600718132
 20
9.985692087393506
 30
0.0
  0
SPLINE
  5
168
330
1F
100
AcDbEntity
  8
0
  6
SLD-Solid
 62
     7
370
    25
100
AcDbSpline
210
0.0
220
0.0
230
1.0
 70
     8
 71
     3
 72
    17
 73
    13
 74
     0
 42
0.00000001
 43
0.00000001
 40
0.0
 40
0.0
 40
0.0
 40
0.0
 40
0.0678705028656883
 40
0.1510805487614261
 40
0.2455286833004871
 40
0.3480591354729933
 40
0.4570909829180645
 40
0.5477261663855175
 40
0.6442895922105847
 40
0.7494053384969304
 40
0.8666049980989313
 40
1.0
 40
1.0
 40
1.0
 40
1.0
 10
28.31879173151827
 20
10.86515298815358
 30
0.0
 10
28.32574860021536
 20
10.82527128695009
 30
0.0
 10
28.3412346728985
 20
10.73649414446618
 30
0.0
 10
28.36862533713453
 20
10.59257251139279
 30
0.0
 10
28.41213275546005
 20
10.43094958808105
 30
0.0
 10
28.47860226435579
 20
10.26042492033031
 30
0.0
 10
28.56886516472349
 20
10.10333240624858
 30
0.0
 10
28.68154148459018
 20
9.966307839144106
 30
0.0
 10
28.81366512236806
 20
9.851130372299323
 30
0.0
 10
28.97756830097566
 20
9.752955230421723
 30
0.0
 10
29.1761772208459
 20
9.67459673054028
 30
0.0
 10
29.32344454859664
 20
9.647306737136805
 30
0.0
 10
29.40183698260718
 20
9.632779896460702
 30
0.0
  0
SPLINE
  5
169
330
1F
100
AcDbEntity
  8
0
  6
SLD-Solid
 62
     7
370
    25
100
AcDbSpline
210
0.0
220
0.0
230
1.0
 70
     8
 71
     3
 72
    13
 73
     9
 74
     0
 42
0.00000001
 43
0.00000001
 40
0.0
 40
0.0
 40
0.0
 40
0.0
 40
0.1722258029344726
 40
0.3651408598546048
 40
0.5673817509133554
 40
0.7237788946035308
 40
0.870227428619744
 40
1.0
 40
1.0
 40
1.0
 40
1.0
 10
29.40183698260718
 20
9.632779896460702
 30
0.0
 10
29.45199170622836
 20
9.628077376144338
 30
0.0
 10
29.55832617293877
 20
9.618107428073
 30
0.0
 10
29.7224521568593
 20
9.648101049212327
 30
0.0
 10
29.87643327524685
 20
9.69436303734272
 30
0.0
 10
30.01156892871868
 20
9.752983295301872
 30
0.0
 10
30.12297116374606
 20
9.812908839634352
 30
0.0
 10
30.18640113697152
 20
9.862614209042036
 30
0.0
 10
30.21620143306487
 20
9.885966492677937
 30
0.0
  0
LINE
  5
16A
330
1F
100
AcDbEntity
  8
0
  6
SLD-Solid
 62
     7
370
    25
100
AcDbLine
 10
27.6335382017
 20
11.107566238
 30
0.0
 11
27.7035382017
 21
11.107566238
 31
0.0
  0
LINE
  5
16B
330
1F
100
AcDbEntity
  8
0
  6
SLD-Solid
 62
     7
370
    25
100
AcDbLine
 10
27.6335382017
 20
10.957566238
 30
0.0
 11
27.6335382017
 21
11.107566238
 31
0.0
  0
LINE
  5
16C
330
1F
100
AcDbEntity
  8
0
  6
SLD-Solid
 62
     7
370
    25
100
AcDbLine
 10
27.7035382017
 20
11.107566238
 30
0.0
 11
27.7035382017
 21
10.957566238
 31
0.0
  0
LINE
  5
16D
330
1F
100
AcDbEntity
  8
0
  6
SLD-Solid
 62
     7
370
    25
100
AcDbLine
 10
27.7035382017
 20
9.8691521042
 30
0.0
 11
27.6335382017
 21
9.8691521042
 31
0.0
  0
LINE
  5
16E
330
1F
100
AcDbEntity
  8
0
  6
SLD-Solid
 62
     7
370
    25
100
AcDbLine
 10
27.6335382017
 20
9.8691521042
 30
0.0
 11
27.6335382017
 21
10.0191521042
 31
0.0
  0
LINE
  5
16F
330
1F
100
AcDbEntity
  8
0
  6
SLD-Solid
 62
     7
370
    25
100
AcDbLine
 10
27.7035382017
 20
10.0191521042
 30
0.0
 11
27.7035382017
 21
9.8691521042
 31
0.0
  0
LINE
  5
170
330
1F
100
AcDbEntity
  8
0
  6
SLD-Solid
 62
     7
370
    25
100
AcDbLine
 10
27.6335382017
 20
10.957566238
 30
0.0
 11
27.6335382017
 21
10.0191521042
 31
0.0
  0
LINE
  5
171
330
1F
100
AcDbEntity
  8
0
  6
SLD-Solid
 62
     7
370
    25
100
AcDbLine
 10
27.7035382017
 20
10.957566238
 30
0.0
 11
27.7035382017
 21
10.0191521042
 31
0.0
  0
LINE
  5
172
330
1F
100
AcDbEntity
  8
0
  6
SLD-Solid
 62
     7
370
    25
100
AcDbLine
 10
30.3445647765
 20
10.957566238
 30
0.0
 11
30.3445647765
 21
10.0191521042
 31
0.0
  0
LINE
  5
173
330
1F
100
AcDbEntity
  8
0
  6
SLD-Solid
 62
     7
370
    25
100
AcDbLine
 10
30.2745647765
 20
10.957566238
 30
0.0
 11
30.2745647765
 21
10.0191521042
 31
0.0
  0
LINE
  5
174
330
1F
100
AcDbEntity
  8
0
  6
SLD-Solid
 62
     7
370
    25
100
AcDbLine
 10
30.3445647765
 20
9.8691521042
 30
0.0
 11
30.2745647765
 21
9.8691521042
 31
0.0
  0
LINE
  5
175
330
1F
100
AcDbEntity
  8
0
  6
SLD-Solid
 62
     7
370
    25
100
AcDbLine
 10
30.2745647765
 20
9.8691521042
 30
0.0
 11
30.2745647765
 21
10.0191521042
 31
0.0
  0
LINE
  5
176
330
1F
100
AcDbEntity
  8
0
  6
SLD-Solid
 62
     7
370
    25
100
AcDbLine
 10
30.3445647765
 20
10.0191521042
 30
0.0
 11
30.3445647765
 21
9.8691521042
 31
0.0
  0
LINE
  5
177
330
1F
100
AcDbEntity
  8
0
  6
SLD-Solid
 62
     7
370
    25
100
AcDbLine
 10
30.2745647765
 20
11.107566238
 30
0.0
 11
30.3445647765
 21
11.107566238
 31
0.0
  0
LINE
  5
178
330
1F
100
AcDbEntity
  8
0
  6
SLD-Solid
 62
     7
370
    25
100
AcDbLine
 10
30.3445647765
 20
11.107566238
 30
0.0
 11
30.3445647765
 21
10.957566238
 31
0.0
  0
LINE
  5
179
330
1F
100
AcDbEntity
  8
0
  6
SLD-Solid
 62
     7
370
    25
100
AcDbLine
 10
30.2745647765
 20
10.957566238
 30
0.0
 11
30.2745647765
 21
11.107566238
 31
0.0
  0
LINE
  5
17A
330
1F
100
AcDbEntity
  8
0
  6
SLD-Solid
 62
     7
370
    25
100
AcDbLine
 10
30.2745647765
 20
11.107566238
 30
0.0
 11
30.2045647765
 21
11.107566238
 31
0.0
  0
LINE
  5
17B
330
1F
100
AcDbEntity
  8
0
  6
SLD-Solid
 62
     7
370
    25
100
AcDbLine
 10
30.2045647765
 20
9.8691521042
 30
0.0
 11
30.2745647765
 21
9.8691521042
 31
0.0
  0
LINE
  5
17C
330
1F
100
AcDbEntity
  8
0
  6
SLD-Solid
 62
     7
370
    25
100
AcDbLine
 10
27.7035382017
 20
9.8691521042
 30
0.0
 11
27.7735382017
 21
9.8691521042
 31
0.0
  0
LINE
  5
17D
330
1F
100
AcDbEntity
  8
0
  6
SLD-Solid
 62
     7
370
    25
100
AcDbLine
 10
27.7735382017
 20
11.107566238
 30
0.0
 11
27.7035382017
 21
11.107566238
 31
0.0
  0
LINE
  5
17E
330
1F
100
AcDbEntity
  8
0
  6
SLD-Solid
 62
     7
370
    25
100
AcDbLine
 10
27.7735382017
 20
9.8691521042
 30
0.0
 11
28.8004319857
 21
9.8691521042
 31
0.0
  0
LINE
  5
17F
330
1F
100
AcDbEntity
  8
0
  6
SLD-Solid
 62
     7
370
    25
100
AcDbLine
 10
30.1935185755
 20
9.8691521042
 30
0.0
 11
30.2045647765
 21
9.8691521042
 31
0.0
  0
LINE
  5
180
330
1F
100
AcDbEntity
  8
0
  6
SLD-Solid
 62
     7
370
    25
100
AcDbLine
 10
30.2045647765
 20
11.107566238
 30
0.0
 11
27.7735382017
 21
11.107566238
 31
0.0
  0
LINE
  5
181
330
1F
100
AcDbEntity
  8
0
  6
SLD-Solid
 62
     7
370
    25
100
AcDbLine
 10
6.9515460817
 20
11.107566238
 30
0.0
 11
7.0215460817
 21
11.107566238
 31
0.0
  0
LINE
  5
182
330
1F
100
AcDbEntity
  8
0
  6
SLD-Solid
 62
     7
370
    25
100
AcDbLine
 10
7.0215460817
 20
11.107566238
 30
0.0
 11
7.0215460817
 21
10.957566238
 31
0.0
  0
LINE
  5
183
330
1F
100
AcDbEntity
  8
0
  6
SLD-Solid
 62
     7
370
    25
100
AcDbLine
 10
6.9515460817
 20
10.957566238
 30
0.0
 11
6.9515460817
 21
11.107566238
 31
0.0
  0
LINE
  5
184
330
1F
100
AcDbEntity
  8
0
  6
SLD-Solid
 62
     7
370
    25
100
AcDbLine
 10
6.9515460817
 20
10.957566238
 30
0.0
 11
6.9515460817
 21
10.0191521042
 31
0.0
  0
LINE
  5
185
330
1F
100
AcDbEntity
  8
0
  6
SLD-Solid
 62
     7
370
    25
100
AcDbLine
 10
7.0215460817
 20
10.957566238
 30
0.0
 11
7.0215460817
 21
10.0191521042
 31
0.0
  0
LINE
  5
186
330
1F
100
AcDbEntity
  8
0
  6
SLD-Solid
 62
     7
370
    25
100
AcDbLine
 10
7.0215460817
 20
9.8691521042
 30
0.0
 11
6.9515460817
 21
9.8691521042
 31
0.0
  0
LINE
  5
187
330
1F
100
AcDbEntity
  8
0
  6
SLD-Solid
 62
     7
370
    25
100
AcDbLine
 10
6.9515460817
 20
9.8691521042
 30
0.0
 11
6.9515460817
 21
10.0191521042
 31
0.0
  0
LINE
  5
188
330
1F
100
AcDbEntity
  8
0
  6
SLD-Solid
 62
     7
370
    25
100
AcDbLine
 10
7.0215460817
 20
10.0191521042
 30
0.0
 11
7.0215460817
 21
9.8691521042
 31
0.0
  0
LINE
  5
189
330
1F
100
AcDbEntity
  8
0
  6
SLD-Solid
 62
     7
370
    25
100
AcDbLine
 10
9.6625726565
 20
10.957566238
 30
0.0
 11
9.6625726565
 21
10.0191521042
 31
0.0
  0
LINE
  5
18A
330
1F
100
AcDbEntity
  8
0
  6
SLD-Solid
 62
     7
370
    25
100
AcDbLine
 10
9.5925726565
 20
10.957566238
 30
0.0
 11
9.5925726565
 21
10.0191521042
 31
0.0
  0
LINE
  5
18B
330
1F
100
AcDbEntity
  8
0
  6
SLD-Solid
 62
     7
370
    25
100
AcDbLine
 10
9.6625726565
 20
9.8691521042
 30
0.0
 11
9.5925726565
 21
9.8691521042
 31
0.0
  0
LINE
  5
18C
330
1F
100
AcDbEntity
  8
0
  6
SLD-Solid
 62
     7
370
    25
100
AcDbLine
 10
9.5925726565
 20
9.8691521042
 30
0.0
 11
9.5925726565
 21
10.0191521042
 31
0.0
  0
LINE
  5
18D
330
1F
100
AcDbEntity
  8
0
  6
SLD-Solid
 62
     7
370
    25
100
AcDbLine
 10
9.6625726565
 20
10.0191521042
 30
0.0
 11
9.6625726565
 21
9.8691521042
 31
0.0
  0
LINE
  5
18E
330
1F
100
AcDbEntity
  8
0
  6
SLD-Solid
 62
     7
370
    25
100
AcDbLine
 10
9.5925726565
 20
10.957566238
 30
0.0
 11
9.5925726565
 21
11.107566238
 31
0.0
  0
LINE
  5
18F
330
1F
100
AcDbEntity
  8
0
  6
SLD-Solid
 62
     7
370
    25
100
AcDbLine
 10
9.5925726565
 20
11.107566238
 30
0.0
 11
9.6625726565
 21
11.107566238
 31
0.0
  0
LINE
  5
190
330
1F
100
AcDbEntity
  8
0
  6
SLD-Solid
 62
     7
370
    25
100
AcDbLine
 10
9.6625726565
 20
11.107566238
 30
0.0
 11
9.6625726565
 21
10.957566238
 31
0.0
  0
LINE
  5
191
330
1F
100
AcDbEntity
  8
0
  6
SLD-Solid
 62
     7
370
    25
100
AcDbLine
 10
9.5925726565
 20
11.107566238
 30
0.0
 11
9.5225726565
 21
11.107566238
 31
0.0
  0
LINE
  5
192
330
1F
100
AcDbEntity
  8
0
  6
SLD-Solid
 62
     7
370
    25
100
AcDbLine
 10
9.5225726565
 20
9.8691521042
 30
0.0
 11
9.5925726565
 21
9.8691521042
 31
0.0
  0
LINE
  5
193
330
1F
100
AcDbEntity
  8
0
  6
SLD-Solid
 62
     7
370
    25
100
AcDbLine
 10
7.0215460817
 20
9.8691521042
 30
0.0
 11
7.0915460817
 21
9.8691521042
 31
0.0
  0
LINE
  5
194
330
1F
100
AcDbEntity
  8
0
  6
SLD-Solid
 62
     7
370
    25
100
AcDbLine
 10
7.0915460817
 20
11.107566238
 30
0.0
 11
7.0215460817
 21
11.107566238
 31
0.0
  0
LINE
  5
195
330
1F
100
AcDbEntity
  8
0
  6
SLD-Solid
 62
     7
370
    25
100
AcDbLine
 10
7.0915460817
 20
9.8691521042
 30
0.0
 11
8.1184398657
 21
9.8691521042
 31
0.0
  0
LINE
  5
196
330
1F
100
AcDbEntity
  8
0
  6
SLD-Solid
 62
     7
370
    25
100
AcDbLine
 10
9.5115264555
 20
9.8691521042
 30
0.0
 11
9.5225726565
 21
9.8691521042
 31
0.0
  0
LINE
  5
197
330
1F
100
AcDbEntity
  8
0
  6
SLD-Solid
 62
     7
370
    25
100
AcDbLine
 10
9.5225726565
 20
11.107566238
 30
0.0
 11
7.0915460817
 21
11.107566238
 31
0.0
  0
LINE
  5
198
330
1F
100
AcDbEntity
  8
0
  6
SLD-Solid
 62
     7
370
    25
100
AcDbLine
 10
17.2925421417
 20
11.107566238
 30
0.0
 11
17.3625421417
 21
11.107566238
 31
0.0
  0
LINE
  5
199
330
1F
100
AcDbEntity
  8
0
  6
SLD-Solid
 62
     7
370
    25
100
AcDbLine
 10
17.3625421417
 20
11.107566238
 30
0.0
 11
17.3625421417
 21
10.957566238
 31
0.0
  0
LINE
  5
19A
330
1F
100
AcDbEntity
  8
0
  6
SLD-Solid
 62
     7
370
    25
100
AcDbLine
 10
17.2925421417
 20
10.957566238
 30
0.0
 11
17.2925421417
 21
11.107566238
 31
0.0
  0
LINE
  5
19B
330
1F
100
AcDbEntity
  8
0
  6
SLD-Solid
 62
     7
370
    25
100
AcDbLine
 10
17.3625421417
 20
10.957566238
 30
0.0
 11
17.3625421417
 21
10.0191521042
 31
0.0
  0
LINE
  5
19C
330
1F
100
AcDbEntity
  8
0
  6
SLD-Solid
 62
     7
370
    25
100
AcDbLine
 10
17.2925421417
 20
10.957566238
 30
0.0
 11
17.2925421417
 21
10.0191521042
 31
0.0
  0
LINE
  5
19D
330
1F
100
AcDbEntity
  8
0
  6
SLD-Solid
 62
     7
370
    25
100
AcDbLine
 10
17.3625421417
 20
10.0191521042
 30
0.0
 11
17.3625421417
 21
9.8691521042
 31
0.0
  0
LINE
  5
19E
330
1F
100
AcDbEntity
  8
0
  6
SLD-Solid
 62
     7
370
    25
100
AcDbLine
 10
17.3625421417
 20
9.8691521042
 30
0.0
 11
17.2925421417
 21
9.8691521042
 31
0.0
  0
LINE
  5
19F
330
1F
100
AcDbEntity
  8
0
  6
SLD-Solid
 62
     7
370
    25
100
AcDbLine
 10
17.2925421417
 20
9.8691521042
 30
0.0
 11
17.2925421417
 21
10.0191521042
 31
0.0
  0
LINE
  5
1A0
330
1F
100
AcDbEntity
  8
0
  6
SLD-Solid
 62
     7
370
    25
100
AcDbLine
 10
20.0035687165
 20
10.957566238
 30
0.0
 11
20.0035687165
 21
10.0191521042
 31
0.0
  0
LINE
  5
1A1
330
1F
100
AcDbEntity
  8
0
  6
SLD-Solid
 62
     7
370
    25
100
AcDbLine
 10
19.9335687165
 20
10.957566238
 30
0.0
 11
19.9335687165
 21
10.0191521042
 31
0.0
  0
LINE
  5
1A2
330
1F
100
AcDbEntity
  8
0
  6
SLD-Solid
 62
     7
370
    25
100
AcDbLine
 10
19.9335687165
 20
10.957566238
 30
0.0
 11
19.9335687165
 21
11.107566238
 31
0.0
  0
LINE
  5
1A3
330
1F
100
AcDbEntity
  8
0
  6
SLD-Solid
 62
     7
370
    25
100
AcDbLine
 10
19.9335687165
 20
11.107566238
 30
0.0
 11
20.0035687165
 21
11.107566238
 31
0.0
  0
LINE
  5
1A4
330
1F
100
AcDbEntity
  8
0
  6
SLD-Solid
 62
     7
370
    25
100
AcDbLine
 10
20.0035687165
 20
11.107566238
 30
0.0
 11
20.0035687165
 21
10.957566238
 31
0.0
  0
LINE
  5
1A5
330
1F
100
AcDbEntity
  8
0
  6
SLD-Solid
 62
     7
370
    25
100
AcDbLine
 10
20.0035687165
 20
9.8691521042
 30
0.0
 11
19.9335687165
 21
9.8691521042
 31
0.0
  0
LINE
  5
1A6
330
1F
100
AcDbEntity
  8
0
  6
SLD-Solid
 62
     7
370
    25
100
AcDbLine
 10
20.0035687165
 20
10.0191521042
 30
0.0
 11
20.0035687165
 21
9.8691521042
 31
0.0
  0
LINE
  5
1A7
330
1F
100
AcDbEntity
  8
0
  6
SLD-Solid
 62
     7
370
    25
100
AcDbLine
 10
19.9335687165
 20
9.8691521042
 30
0.0
 11
19.9335687165
 21
10.0191521042
 31
0.0
  0
LINE
  5
1A8
330
1F
100
AcDbEntity
  8
0
  6
SLD-Solid
 62
     7
370
    25
100
AcDbLine
 10
19.8635687165
 20
9.8691521042
 30
0.0
 11
19.9335687165
 21
9.8691521042
 31
0.0
  0
LINE
  5
1A9
330
1F
100
AcDbEntity
  8
0
  6
SLD-Solid
 62
     7
370
    25
100
AcDbLine
 10
19.9335687165
 20
11.107566238
 30
0.0
 11
19.8635687165
 21
11.107566238
 31
0.0
  0
LINE
  5
1AA
330
1F
100
AcDbEntity
  8
0
  6
SLD-Solid
 62
     7
370
    25
100
AcDbLine
 10
17.3625421417
 20
9.8691521042
 30
0.0
 11
17.4325421417
 21
9.8691521042
 31
0.0
  0
LINE
  5
1AB
330
1F
100
AcDbEntity
  8
0
  6
SLD-Solid
 62
     7
370
    25
100
AcDbLine
 10
17.4325421417
 20
11.107566238
 30
0.0
 11
17.3625421417
 21
11.107566238
 31
0.0
  0
LINE
  5
1AC
330
1F
100
AcDbEntity
  8
0
  6
SLD-Solid
 62
     7
370
    25
100
AcDbLine
 10
17.4325421417
 20
9.8691521042
 30
0.0
 11
18.4594359257
 21
9.8691521042
 31
0.0
  0
LINE
  5
1AD
330
1F
100
AcDbEntity
  8
0
  6
SLD-Solid
 62
     7
370
    25
100
AcDbLine
 10
19.8525225155
 20
9.8691521042
 30
0.0
 11
19.8635687165
 21
9.8691521042
 31
0.0
  0
LINE
  5
1AE
330
1F
100
AcDbEntity
  8
0
  6
SLD-Solid
 62
     7
370
    25
100
AcDbLine
 10
19.8635687165
 20
11.107566238
 30
0.0
 11
17.4325421417
 21
11.107566238
 31
0.0
  0
ARC
  5
1AF
330
1F
100
AcDbEntity
  8
0
  6
SLD-Solid
 62
     7
370
    25
100
AcDbCircle
 10
9.0979659045
 20
10.8321499191
 30
0.0
 40
0.1899999999999996
100
AcDbArc
 50
307.6594611462
 51
5.8907652422
  0
ARC
  5
1B0
330
1F
100
AcDbEntity
  8
0
  6
SLD-Solid
 62
     7
370
    25
100
AcDbCircle
 10
9.0979659045
 20
10.8321499191
 30
0.0
 40
0.1900000000000003
100
AcDbArc
 50
5.8907652422
 51
185.8575972138
  0
CIRCLE
  5
1B1
330
1F
100
AcDbEntity
  8
0
  6
SLD-Solid
 62
     7
370
    25
100
AcDbCircle
 10
9.0979659045
 20
10.8321499191
 30
0.0
 40
0.059999999999999
  0
LWPOLYLINE
  5
1B2
330
1F
100
AcDbEntity
  8
0
  6
SLD-Solid
 62
     7
370
    25
100
AcDbPolyline
 90
        3
 70
   128
 43
0.0
 10
28.9696557908
 20
10.8214374288
 10
28.9597310877
 20
10.7706548321
 10
28.948339541
 20
10.7441290983
  0
ARC
  5
1B3
330
1F
100
AcDbEntity
  8
0
  6
SLD-Solid
 62
     7
370
    25
100
AcDbCircle
 10
28.7799580245
 20
10.8321499191
 30
0.0
 40
0.1900000000000027
100
AcDbArc
 50
356.7678624156
 51
233.0718018331
  0
CIRCLE
  5
1B4
330
1F
100
AcDbEntity
  8
0
  6
SLD-Solid
 62
     7
370
    25
100
AcDbCircle
 10
28.7799580245
 20
10.8321499191
 30
0.0
 40
0.0600000000000008
  0
LWPOLYLINE
  5
1B5
330
1F
100
AcDbEntity
  8
0
  6
SLD-Solid
 62
     7
370
    25
100
AcDbPolyline
 90
        3
 70
   128
 43
0.0
 10
8.2876636708
 20
10.8214374288
 10
8.2777389677
 20
10.7706548321
 10
8.266347421
 20
10.7441290983
  0
ARC
  5
1B6
330
1F
100
AcDbEntity
  8
0
  6
SLD-Solid
 62
     7
370
    25
100
AcDbCircle
 10
8.0979659045
 20
10.8321499191
 30
0.0
 40
0.1900000000000005
100
AcDbArc
 50
356.7678624156
 51
233.0718018331
  0
CIRCLE
  5
1B7
330
1F
100
AcDbEntity
  8
0
  6
SLD-Solid
 62
     7
370
    25
100
AcDbCircle
 10
8.0979659045
 20
10.8321499191
 30
0.0
 40
0.0600000000000008
  0
ARC
  5
1B8
330
1F
100
AcDbEntity
  8
0
  6
SLD-Solid
 62
     7
370
    25
100
AcDbCircle
 10
19.4389619645
 20
10.8321499191
 30
0.0
 40
0.1900000000000007
100
AcDbArc
 50
307.6594611462
 51
5.8907652422
  0
ARC
  5
1B9
330
1F
100
AcDbEntity
  8
0
  6
SLD-Solid
 62
     7
370
    25
100
AcDbCircle
 10
19.4389619645
 20
10.8321499191
 30
0.0
 40
0.1900000000000021
100
AcDbArc
 50
5.8907652422
 51
185.8575972138
  0
CIRCLE
  5
1BA
330
1F
100
AcDbEntity
  8
0
  6
SLD-Solid
 62
     7
370
    25
100
AcDbCircle
 10
19.4389619645
 20
10.8321499191
 30
0.0
 40
0.059999999999999
  0
LWPOLYLINE
  5
1BB
330
1F
100
AcDbEntity
  8
0
  6
SLD-Solid
 62
     7
370
    25
100
AcDbPolyline
 90
        3
 70
   128
 43
0.0
 10
18.6286597308
 20
10.8214374288
 10
18.6187350277
 20
10.7706548321
 10
18.607343481
 20
10.7441290983
  0
ARC
  5
1BC
330
1F
100
AcDbEntity
  8
0
  6
SLD-Solid
 62
     7
370
    25
100
AcDbCircle
 10
18.4389619645
 20
10.8321499191
 30
0.0
 40
0.1899999999999995
100
AcDbArc
 50
356.7678624156
 51
233.0718018331
  0
CIRCLE
  5
1BD
330
1F
100
AcDbEntity
  8
0
  6
SLD-Solid
 62
     7
370
    25
100
AcDbCircle
 10
18.4389619645
 20
10.8321499191
 30
0.0
 40
0.0599999999999973
  0
CIRCLE
  5
1BE
330
1F
100
AcDbEntity
  8
0
  6
SLD-Solid
 62
     7
370
    25
100
AcDbCircle
 10
29.7799580245
 20
10.8321499191
 30
0.0
 40
0.0600000000000025
  0
ARC
  5
1BF
330
1F
100
AcDbEntity
  8
0
  6
SLD-Solid
 62
     7
370
    25
100
AcDbCircle
 10
29.7799580245
 20
10.8321499191
 30
0.0
 40
0.1900000000000041
100
AcDbArc
 50
307.6594611462
 51
5.8907652422
  0
ARC
  5
1C0
330
1F
100
AcDbEntity
  8
0
  6
SLD-Solid
 62
     7
370
    25
100
AcDbCircle
 10
29.7799580245
 20
10.8321499191
 30
0.0
 40
0.1900000000000041
100
AcDbArc
 50
5.8907652422
 51
185.8575972138
  0
CIRCLE
  5
1C1
330
1F
100
AcDbEntity
  8
0
  6
SLD-Solid
 62
     7
370
    25
100
AcDbCircle
 10
29.6645400914
 20
10.2611928522
 30
0.0
 40
0.1562241563062851
  0
CIRCLE
  5
1C2
330
1F
100
AcDbEntity
  8
0
  6
SLD-Solid
 62
     7
370
    25
100
AcDbCircle
 10
19.3235440314
 20
10.2611928522
 30
0.0
 40
0.1562241563062816
  0
CIRCLE
  5
1C3
330
1F
100
AcDbEntity
  8
0
  6
SLD-Solid
 62
     7
370
    25
100
AcDbCircle
 10
8.9825479714
 20
10.2611928522
 30
0.0
 40
0.1562241563062833
  0
LINE
  5
1C4
330
1F
100
AcDbEntity
  8
0
  6
SLD-Solid
 62
     7
370
    25
100
AcDbLine
 10
31.9479580245
 20
9.4480244818
 30
0.0
 11
31.9479580245
 21
9.4780244818
 31
0.0
  0
LINE
  5
1C5
330
1F
100
AcDbEntity
  8
0
  6
SLD-Solid
 62
     7
370
    25
100
AcDbLine
 10
5.9479580245
 20
9.4480244818
 30
0.0
 11
31.9479580245
 21
9.4480244818
 31
0.0
  0
LINE
  5
1C6
330
1F
100
AcDbEntity
  8
0
  6
SLD-Solid
 62
     7
370
    25
100
AcDbLine
 10
5.9479580245
 20
9.4480244818
 30
0.0
 11
5.9479580245
 21
9.4780244818
 31
0.0
  0
LINE
  5
1C7
330
1F
100
AcDbEntity
  8
0
  6
SLD-Solid
 62
     7
370
    25
100
AcDbLine
 10
5.9479580245
 20
12.2162753564
 30
0.0
 11
5.9479580245
 21
12.1862753564
 31
0.0
  0
LINE
  5
1C8
330
1F
100
AcDbEntity
  8
0
  6
SLD-Solid
 62
     7
370
    25
100
AcDbLine
 10
5.9479580245
 20
12.2162753564
 30
0.0
 11
31.9479580245
 21
12.2162753564
 31
0.0
  0
LINE
  5
1C9
330
1F
100
AcDbEntity
  8
0
  6
SLD-Solid
 62
     7
370
    25
100
AcDbLine
 10
31.9479580245
 20
12.2162753564
 30
0.0
 11
31.9479580245
 21
12.1862753564
 31
0.0
  0
LINE
  5
1CA
330
1F
100
AcDbEntity
  8
0
  6
SLD-Solid
 62
     7
370
    25
100
AcDbLine
 10
5.9479580245
 20
12.1862753564
 30
0.0
 11
5.9479580245
 21
9.4780244818
 31
0.0
  0
CIRCLE
  5
1CB
330
1F
100
AcDbEntity
  8
0
  6
SLD-Solid
 62
     7
370
    25
100
AcDbCircle
 10
31.3229580245
 20
10.8321499191
 30
0.0
 40
0.0999999999999908
  0
CIRCLE
  5
1CC
330
1F
100
AcDbEntity
  8
0
  6
SLD-Solid
 62
     7
370
    25
100
AcDbCircle
 10
6.5729580245
 20
10.8321499191
 30
0.0
 40
0.0999999999999988
  0
LINE
  5
1CD
330
1F
100
AcDbEntity
  8
0
  6
SLD-Solid
 62
     7
370
    25
100
AcDbLine
 10
31.9479580245
 20
9.4780244818
 30
0.0
 11
31.9479580245
 21
12.1862753564
 31
0.0
  0
DIMENSION
  5
1CE
330
1F
100
AcDbEntity
  8
DIMS
100
AcDbDimension
  2
_D
 10
6.5729580245
 20
13.0824170887
 30
0.0
 11
18.9479580245
 21
13.0824170887
 31
0.0
 70
   160
  1
<>
 71
     2
 42
-1.0
  3
SLDDIMSTYLE0
100
AcDbAlignedDimension
 13
31.3229580245
 23
10.8321499191
 33
0.0
 14
6.5729580245
 24
10.8321499191
 34
0.0
 50
0.0
100
AcDbRotatedDimension
  0
DIMENSION
  5
1E4
330
1F
100
AcDbEntity
  8
DIMS
100
AcDbDimension
  2
_D_1
 10
32.5778792843
 20
9.4480244818
 30
0.0
 11
32.5778792843
 21
8.948221454
 31
0.0
 70
   160
  1
<>
 71
     2
 42
-1.0
  3
SLDDIMSTYLE0
100
AcDbAlignedDimension
 13
31.3229580245
 23
10.8321499191
 33
0.0
 14
31.9479580245
 24
9.4480244818
 34
0.0
 50
90.0
100
AcDbRotatedDimension
  0
DIMENSION
  5
1F4
330
1F
100
AcDbEntity
  8
DIMS
100
AcDbDimension
  2
_D_2
 10
32.5778792843
 20
12.2162753564
 30
0.0
 11
32.5778792843
 21
12.6099761438
 31
0.0
 70
   160
  1
<>
 71
     2
 42
-1.0
  3
SLDDIMSTYLE0
100
AcDbAlignedDimension
 13
31.3229580245
 23
10.8321499191
 33
0.0
 14
31.9479580245
 24
12.2162753564
 34
0.0
 50
90.0
100
AcDbRotatedDimension
  0
DIMENSION
  5
204
330
1F
100
AcDbEntity
  8
DIMS
100
AcDbDimension
  2
_D_3
 10
6.5880672455
 20
10.9310018864
 30
0.0
 11
11.4287103097
 21
8.5803280048
 31
0.0
 70
   163
  1
<> mounting hole (2)
 71
     1
 42
-1.0
  3
SLDDIMSTYLE1
100
AcDbDiametricDimension
 15
6.5578488035
 25
10.7332979518
 35
0.0
 40
0.0
  0
MTEXT
  5
212
330
1F
100
AcDbEntity
  8
NOTES
100
AcDbMText
 10
17.0776091543
 20
8.7472689827
 30
0.0
 40
0.5
 41
0.0
 71
     1
 72
     1
  1
Front view
  7
SLDTEXTSTYLE1
 73
     1
 44
1.0
  0
LINE
  5
213
330
1F
100
AcDbEntity
  8
0
  6
SLD-Solid
 62
     7
370
    25
100
AcDbLine
 10
38.3180348445
 20
9.6236887007
 30
0.0
 11
39.1180348445
 21
9.6236887007
 31
0.0
  0
LINE
  5
214
330
1F
100
AcDbEntity
  8
0
  6
SLD-Solid
 62
     7
370
    25
100
AcDbLine
 10
39.3080348445
 20
10.6971499191
 30
0.0
 11
39.4880348445
 21
10.6971499191
 31
0.0
  0
LINE
  5
215
330
1F
100
AcDbEntity
  8
0
  6
SLD-Solid
 62
     7
370
    25
100
AcDbLine
 10
39.4880348445
 20
10.9671499191
 30
0.0
 11
39.3080348445
 21
10.9671499191
 31
0.0
  0
LINE
  5
216
330
1F
100
AcDbEntity
  8
0
  6
SLD-Solid
 62
     7
370
    25
100
AcDbLine
 10
39.4880348445
 20
10.6971499191
 30
0.0
 11
39.5080348445
 21
10.7171499191
 31
0.0
  0
LINE
  5
217
330
1F
100
AcDbEntity
  8
0
  6
SLD-Solid
 62
     7
370
    25
100
AcDbLine
 10
39.5080348445
 20
10.9471499191
 30
0.0
 11
39.4880348445
 21
10.9671499191
 31
0.0
  0
LINE
  5
218
330
1F
100
AcDbEntity
  8
0
  6
SLD-Solid
 62
     7
370
    25
100
AcDbLine
 10
39.3080348445
 20
10.9671499191
 30
0.0
 11
39.2880348445
 21
10.9471499191
 31
0.0
  0
LINE
  5
219
330
1F
100
AcDbEntity
  8
0
  6
SLD-Solid
 62
     7
370
    25
100
AcDbLine
 10
39.2880348445
 20
10.7171499191
 30
0.0
 11
39.3080348445
 21
10.6971499191
 31
0.0
  0
LINE
  5
21A
330
1F
100
AcDbEntity
  8
0
  6
SLD-Solid
 62
     7
370
    25
100
AcDbLine
 10
39.2680348445
 20
10.7383999191
 30
0.0
 11
39.2880348445
 21
10.7383999191
 31
0.0
  0
LINE
  5
21B
330
1F
100
AcDbEntity
  8
0
  6
SLD-Solid
 62
     7
370
    25
100
AcDbLine
 10
39.2880348445
 20
10.9258999191
 30
0.0
 11
39.2680348445
 21
10.9258999191
 31
0.0
  0
LINE
  5
21C
330
1F
100
AcDbEntity
  8
0
  6
SLD-Solid
 62
     7
370
    25
100
AcDbLine
 10
38.3180348445
 20
10.4174170085
 30
0.0
 11
38.299563809
 21
10.4174170085
 31
0.0
  0
LINE
  5
21D
330
1F
100
AcDbEntity
  8
0
  6
SLD-Solid
 62
     7
370
    25
100
AcDbLine
 10
38.299563809
 20
10.1049686959
 30
0.0
 11
38.3180348445
 21
10.1049686959
 31
0.0
  0
ARC
  5
21E
330
1F
100
AcDbEntity
  8
0
  6
SLD-Solid
 62
     7
370
    25
100
AcDbCircle
 10
38.5726422784
 20
10.2611928522
 30
0.0
 40
0.3146074338901272
100
AcDbArc
 50
150.2267646167
 51
209.7732353833
  0
LINE
  5
21F
330
1F
100
AcDbEntity
  8
0
  6
SLD-Solid
 62
     7
370
    25
100
AcDbLine
 10
38.3180348445
 20
9.9856920874
 30
0.0
 11
38.4418143696
 21
9.9856920874
 31
0.0
  0
LINE
  5
220
330
1F
100
AcDbEntity
  8
0
  6
SLD-Solid
 62
     7
370
    25
100
AcDbLine
 10
38.3180348445
 20
10.7691004761
 30
0.0
 11
38.4380348445
 21
10.7691004761
 31
0.0
  0
SPLINE
  5
221
330
1F
100
AcDbEntity
  8
0
  6
SLD-Solid
 62
     7
370
    25
100
AcDbSpline
210
0.0
220
0.0
230
1.0
 70
    24
 71
     3
 72
    13
 73
     9
 74
     0
 42
0.00000001
 43
0.00000001
 40
0.0
 40
0.0
 40
0.0
 40
0.0
 40
0.1709847685286765
 40
0.3326578081366879
 40
0.4968967494144843
 40
0.6391258064239833
 40
0.803570582091675
 40
0.9999999999999999
 40
0.9999999999999999
 40
0.9999999999999999
 40
0.9999999999999999
 10
38.31803484452392
 20
9.985692087393506
 30
0.0
 10
38.31803484452392
 20
10.04080064179658
 30
0.0
 10
38.31803484452392
 20
10.14801657146715
 30
0.0
 10
38.31803484452392
 20
10.30488112488858
 30
0.0
 10
38.31803484452392
 20
10.44212850882529
 30
0.0
 10
38.31803484452392
 20
10.56171626907427
 30
0.0
 10
38.31803484452392
 20
10.67107324738576
 30
0.0
 10
38.31803484452392
 20
10.73454941438065
 30
0.0
 10
38.31803484452392
 20
10.76910047609637
 30
0.0
  0
LINE
  5
222
330
1F
100
AcDbEntity
  8
0
  6
SLD-Solid
 62
     7
370
    25
100
AcDbLine
 10
38.3180348445
 20
9.8859664927
 30
0.0
 11
38.5190305484
 21
9.8859664927
 31
0.0
  0
SPLINE
  5
223
330
1F
100
AcDbEntity
  8
0
  6
SLD-Solid
 62
     7
370
    25
100
AcDbSpline
210
0.0
220
0.0
230
1.0
 70
    24
 71
     3
 72
    11
 73
     7
 74
     0
 42
0.00000001
 43
0.00000001
 40
0.0
 40
0.0
 40
0.0
 40
0.0
 40
0.2779255621982065
 40
0.5865010749870764
 40
0.8150864002480606
 40
0.9999999999999999
 40
0.9999999999999999
 40
0.9999999999999999
 40
0.9999999999999999
 10
38.31803484452392
 20
9.885966492677937
 30
0.0
 10
38.31803484452392
 20
9.89283041690925
 30
0.0
 10
38.31803484452392
 20
9.907315226829057
 30
0.0
 10
38.31803484452392
 20
9.935860526473993
 30
0.0
 10
38.31803484452392
 20
9.962211985534006
 30
0.0
 10
38.31803484452392
 20
9.978436573884512
 30
0.0
 10
38.31803484452392
 20
9.985692087393506
 30
0.0
  0
SPLINE
  5
224
330
1F
100
AcDbEntity
  8
0
  6
SLD-Solid
 62
     7
370
    25
100
AcDbSpline
210
0.0
220
0.0
230
1.0
 70
    24
 71
     3
 72
    13
 73
     9
 74
     0
 42
0.00000001
 43
0.00000001
 40
0.0
 40
0.0
 40
0.0
 40
0.0
 40
0.0605003291516855
 40
0.2794533155103562
 40
0.50899085274616
 40
0.6864970682568917
 40
0.8527119007464804
 40
1.0
 40
1.0
 40
1.0
 40
1.0
 10
38.31803484452392
 20
9.627535450216529
 30
0.0
 10
38.31803484452392
 20
9.626431853411932
 30
0.0
 10
38.31803484452392
 20
9.621334297905117
 30
0.0
 10
38.31803484452392
 20
9.649354731290092
 30
0.0
 10
38.31803484452392
 20
9.694104916015972
 30
0.0
 10
38.31803484452392
 20
9.753040407065816
 30
0.0
 10
38.31803484452392
 20
9.812896787380549
 30
0.0
 10
38.31803484452392
 20
9.86261035663729
 30
0.0
 10
38.31803484452392
 20
9.885966492677937
 30
0.0
  0
SPLINE
  5
225
330
1F
100
AcDbEntity
  8
0
  6
SLD-Solid
 62
     7
370
    25
100
AcDbSpline
210
0.0
220
0.0
230
1.0
 70
    24
 71
     3
 72
    13
 73
     9
 74
     0
 42
0.00000001
 43
0.00000001
 40
0.0
 40
0.0
 40
0.0
 40
0.0
 40
0.0628035200428629
 40
0.2900918416112481
 40
0.528367657999539
 40
0.7126313689557362
 40
0.8851738445100225
 40
1.0
 40
1.0
 40
1.0
 40
1.0
 10
39.11803484452393
 20
9.627535450216529
 30
0.0
 10
39.11803484452393
 20
9.62643171480686
 30
0.0
 10
39.11803484452393
 20
9.621333519077954
 30
0.0
 10
39.11803484452393
 20
9.64936894499038
 30
0.0
 10
39.11803484452393
 20
9.694056154784276
 30
0.0
 10
39.11803484452393
 20
9.75317311082852
 30
0.0
 10
39.11803484452393
 20
9.80802726799936
 30
0.0
 10
39.11803484452393
 20
9.85170103276463
 30
0.0
 10
39.11803484452393
 20
9.86915210418306
 30
0.0
  0
LINE
  5
226
330
1F
100
AcDbEntity
  8
0
  6
SLD-Solid
 62
     7
370
    25
100
AcDbLine
 10
38.3180348445
 20
10.7936051428
 30
0.0
 11
38.4380348445
 21
10.7936051428
 31
0.0
  0
LINE
  5
227
330
1F
100
AcDbEntity
  8
0
  6
SLD-Solid
 62
     7
370
    25
100
AcDbLine
 10
38.3180348445
 20
10.7691004761
 30
0.0
 11
38.3180348445
 21
10.7936051428
 31
0.0
  0
LINE
  5
228
330
1F
100
AcDbEntity
  8
0
  6
SLD-Solid
 62
     7
370
    25
100
AcDbLine
 10
38.3180348445
 20
10.9078113202
 30
0.0
 11
38.4380348445
 21
10.9078113202
 31
0.0
  0
LINE
  5
229
330
1F
100
AcDbEntity
  8
0
  6
SLD-Solid
 62
     7
370
    25
100
AcDbLine
 10
38.3180348445
 20
10.7936051428
 30
0.0
 11
38.3180348445
 21
10.9078113202
 31
0.0
  0
ARC
  5
22A
330
1F
100
AcDbEntity
  8
0
  6
SLD-Solid
 62
     7
370
    25
100
AcDbCircle
 10
38.5880348445
 20
10.957566238
 30
0.0
 40
0.1499999999999986
100
AcDbArc
 50
90.0
 51
180.0
  0
ARC
  5
22B
330
1F
100
AcDbEntity
  8
0
  6
SLD-Solid
 62
     7
370
    25
100
AcDbCircle
 10
38.5880348445
 20
10.0191521042
 30
0.0
 40
0.1499999999999986
100
AcDbArc
 50
180.0
 51
270.0
  0
LINE
  5
22C
330
1F
100
AcDbEntity
  8
0
  6
SLD-Solid
 62
     7
370
    25
100
AcDbLine
 10
38.4380348445
 20
10.957566238
 30
0.0
 11
38.4380348445
 21
10.0191521042
 31
0.0
  0
LINE
  5
22D
330
1F
100
AcDbEntity
  8
0
  6
SLD-Solid
 62
     7
370
    25
100
AcDbLine
 10
39.0980348445
 20
11.107566238
 30
0.0
 11
38.5880348445
 21
11.107566238
 31
0.0
  0
LINE
  5
22E
330
1F
100
AcDbEntity
  8
0
  6
SLD-Solid
 62
     7
370
    25
100
AcDbLine
 10
38.5880348445
 20
9.8691521042
 30
0.0
 11
39.0980348445
 21
9.8691521042
 31
0.0
  0
LINE
  5
22F
330
1F
100
AcDbEntity
  8
0
  6
SLD-Solid
 62
     7
370
    25
100
AcDbLine
 10
39.2380348445
 20
9.8691521042
 30
0.0
 11
39.0980348445
 21
9.8691521042
 31
0.0
  0
LINE
  5
230
330
1F
100
AcDbEntity
  8
0
  6
SLD-Solid
 62
     7
370
    25
100
AcDbLine
 10
39.0980348445
 20
11.107566238
 30
0.0
 11
39.2380348445
 21
11.107566238
 31
0.0
  0
ARC
  5
231
330
1F
100
AcDbEntity
  8
0
  6
SLD-Solid
 62
     7
370
    25
100
AcDbCircle
 10
38.4880348445
 20
10.957566238
 30
0.0
 40
0.1499999999999986
100
AcDbArc
 50
90.0
 51
180.0
  0
LINE
  5
232
330
1F
100
AcDbEntity
  8
0
  6
SLD-Solid
 62
     7
370
    25
100
AcDbLine
 10
38.4880348445
 20
11.107566238
 30
0.0
 11
38.5880348445
 21
11.107566238
 31
0.0
  0
LINE
  5
233
330
1F
100
AcDbEntity
  8
0
  6
SLD-Solid
 62
     7
370
    25
100
AcDbLine
 10
38.3380348445
 20
10.957566238
 30
0.0
 11
38.3380348445
 21
10.9078113202
 31
0.0
  0
LINE
  5
234
330
1F
100
AcDbEntity
  8
0
  6
SLD-Solid
 62
     7
370
    25
100
AcDbLine
 10
39.3080348445
 20
10.9671499191
 30
0.0
 11
39.3080348445
 21
10.6971499191
 31
0.0
  0
LINE
  5
235
330
1F
100
AcDbEntity
  8
0
  6
SLD-Solid
 62
     7
370
    25
100
AcDbLine
 10
39.4880348445
 20
10.6971499191
 30
0.0
 11
39.4880348445
 21
10.9671499191
 31
0.0
  0
LINE
  5
236
330
1F
100
AcDbEntity
  8
0
  6
SLD-Solid
 62
     7
370
    25
100
AcDbLine
 10
39.5080348445
 20
10.9471499191
 30
0.0
 11
39.5080348445
 21
10.7171499191
 31
0.0
  0
LINE
  5
237
330
1F
100
AcDbEntity
  8
0
  6
SLD-Solid
 62
     7
370
    25
100
AcDbLine
 10
39.2880348445
 20
10.7171499191
 30
0.0
 11
39.2880348445
 21
10.9471499191
 31
0.0
  0
LINE
  5
238
330
1F
100
AcDbEntity
  8
0
  6
SLD-Solid
 62
     7
370
    25
100
AcDbLine
 10
38.299563809
 20
10.4174170085
 30
0.0
 11
38.299563809
 21
10.1049686959
 31
0.0
  0
LINE
  5
239
330
1F
100
AcDbEntity
  8
0
  6
SLD-Solid
 62
     7
370
    25
100
AcDbLine
 10
39.2680348445
 20
12.1862753564
 30
0.0
 11
39.7100237833
 21
12.1862753564
 31
0.0
  0
LINE
  5
23A
330
1F
100
AcDbEntity
  8
0
  6
SLD-Solid
 62
     7
370
    25
100
AcDbLine
 10
39.2680348445
 20
12.2162753564
 30
0.0
 11
39.7100237833
 21
12.2162753564
 31
0.0
  0
LINE
  5
23B
330
1F
100
AcDbEntity
  8
0
  6
SLD-Solid
 62
     7
370
    25
100
AcDbLine
 10
39.7100237833
 20
12.1862753564
 30
0.0
 11
39.7100237833
 21
12.2162753564
 31
0.0
  0
LINE
  5
23C
330
1F
100
AcDbEntity
  8
0
  6
SLD-Solid
 62
     7
370
    25
100
AcDbLine
 10
39.7100237833
 20
9.4780244818
 30
0.0
 11
39.7100237833
 21
9.4480244818
 31
0.0
  0
LINE
  5
23D
330
1F
100
AcDbEntity
  8
0
  6
SLD-Solid
 62
     7
370
    25
100
AcDbLine
 10
39.7100237833
 20
9.4480244818
 30
0.0
 11
39.2680348445
 21
9.4480244818
 31
0.0
  0
LINE
  5
23E
330
1F
100
AcDbEntity
  8
0
  6
SLD-Solid
 62
     7
370
    25
100
AcDbLine
 10
39.7100237833
 20
9.4780244818
 30
0.0
 11
39.2680348445
 21
9.4780244818
 31
0.0
  0
ARC
  5
23F
330
1F
100
AcDbEntity
  8
0
  6
SLD-Solid
 62
     7
370
    25
100
AcDbCircle
 10
39.2680348445
 20
12.1862753564
 30
0.0
 40
0.0300000000000029
100
AcDbArc
 50
90.0
 51
180.0
  0
ARC
  5
240
330
1F
100
AcDbEntity
  8
0
  6
SLD-Solid
 62
     7
370
    25
100
AcDbCircle
 10
39.2680348445
 20
9.4780244818
 30
0.0
 40
0.0300000000000011
100
AcDbArc
 50
180.0
 51
270.0
  0
LINE
  5
241
330
1F
100
AcDbEntity
  8
0
  6
SLD-Solid
 62
     7
370
    25
100
AcDbLine
 10
39.2680348445
 20
9.4780244818
 30
0.0
 11
39.2680348445
 21
12.1862753564
 31
0.0
  0
LINE
  5
242
330
1F
100
AcDbEntity
  8
0
  6
SLD-Solid
 62
     7
370
    25
100
AcDbLine
 10
39.2380348445
 20
9.4780244818
 30
0.0
 11
39.2380348445
 21
12.1862753564
 31
0.0
  0
DIMENSION
  5
243
330
1F
100
AcDbEntity
  8
DIMS
100
AcDbDimension
  2
_D_4
 10
37.3918931122
 20
9.4480244818
 30
0.0
 11
37.3918931122
 21
10.6405934739
 31
0.0
 70
   160
  1
<>
 71
     2
 42
-1.0
  3
SLDDIMSTYLE0
100
AcDbAlignedDimension
 13
39.2680348445
 23
12.2162753564
 33
0.0
 14
39.2680348445
 24
9.4480244818
 34
0.0
 50
90.0
100
AcDbRotatedDimension
  0
MTEXT
  5
252
330
1F
100
AcDbEntity
  8
NOTES
100
AcDbMText
 10
37.6977345199
 20
8.3800689827
 30
0.0
 40
0.5
 41
0.0
 71
     1
 72
     1
  1
Side view
  7
SLDTEXTSTYLE1
 73
     1
 44
1.0
  0
LINE
  5
253
330
1F
100
AcDbEntity
  8
0
  6
SLD-Solid
 62
     7
370
    25
100
AcDbLine
 10
29.1641312895
 20
30.0207541932
 30
0.0
 11
29.2948953516
 21
30.0962426794
 31
0.0
  0
LINE
  5
254
330
1F
100
AcDbEntity
  8
0
  6
SLD-Solid
 62
     7
370
    25
100
AcDbLine
 10
36.4763197278
 20
25.7995176593
 30
0.0
 11
36.6070837899
 21
25.8750061456
 31
0.0
  0
LINE
  5
255
330
1F
100
AcDbEntity
  8
0
  6
SLD-Solid
 62
     7
370
    25
100
AcDbLine
 10
43.788508166
 20
21.5782811255
 30
0.0
 11
43.9192722281
 21
21.6537696117
 31
0.0
  0
LINE
  5
256
330
1F
100
AcDbEntity
  8
0
  6
SLD-Solid
 62
     7
370
    25
100
AcDbLine
 10
44.4608984741
 20
21.8841680767
 30
0.0
 11
44.4608984741
 21
22.895383759
 31
0.0
  0
LINE
  5
257
330
1F
100
AcDbEntity
  8
0
  6
SLD-Solid
 62
     7
370
    25
100
AcDbLine
 10
43.9347775854
 20
21.6399835167
 30
0.0
 11
43.9842750601
 21
21.6114092327
 31
0.0
  0
LINE
  5
258
330
1F
100
AcDbEntity
  8
0
  6
SLD-Solid
 62
     7
370
    25
100
AcDbLine
 10
41.9965791069
 20
22.6772408707
 30
0.0
 11
42.0460765816
 21
22.6486665868
 31
0.0
  0
LINE
  5
259
330
1F
100
AcDbEntity
  8
0
  6
SLD-Solid
 62
     7
370
    25
100
AcDbLine
 10
29.8365215976
 20
30.3266411444
 30
0.0
 11
29.8365215976
 21
31.3378568267
 31
0.0
  0
LINE
  5
25A
330
1F
100
AcDbEntity
  8
0
  6
SLD-Solid
 62
     7
370
    25
100
AcDbLine
 10
29.3104007089
 20
30.0824565844
 30
0.0
 11
29.3598981836
 21
30.0538823005
 31
0.0
  0
LINE
  5
25B
330
1F
100
AcDbEntity
  8
0
  6
SLD-Solid
 62
     7
370
    25
100
AcDbLine
 10
27.3722022304
 20
31.1197139384
 30
0.0
 11
27.4216997051
 21
31.0911396545
 31
0.0
  0
LINE
  5
25C
330
1F
100
AcDbEntity
  8
0
  6
SLD-Solid
 62
     7
370
    25
100
AcDbLine
 10
37.1487100358
 20
26.1054046105
 30
0.0
 11
37.1487100358
 21
27.1166202928
 31
0.0
  0
LINE
  5
25D
330
1F
100
AcDbEntity
  8
0
  6
SLD-Solid
 62
     7
370
    25
100
AcDbLine
 10
36.6225891472
 20
25.8612200505
 30
0.0
 11
36.6720866218
 21
25.8326457666
 31
0.0
  0
LINE
  5
25E
330
1F
100
AcDbEntity
  8
0
  6
SLD-Solid
 62
     7
370
    25
100
AcDbLine
 10
34.6843906687
 20
26.8984774045
 30
0.0
 11
34.7338881434
 21
26.8699031206
 31
0.0
  0
LINE
  5
25F
330
1F
100
AcDbEntity
  8
0
  6
SLD-Solid
 62
     7
370
    25
100
AcDbLine
 10
29.350784479
 20
31.4794179281
 30
0.0
 11
29.3295712756
 21
31.4671718065
 31
0.0
  0
LINE
  5
260
330
1F
100
AcDbEntity
  8
0
  6
SLD-Solid
 62
     7
370
    25
100
AcDbLine
 10
43.2680545743
 20
23.4451489163
 30
0.0
 11
43.2468413709
 21
23.4329027947
 31
0.0
  0
LINE
  5
261
330
1F
100
AcDbEntity
  8
0
  6
SLD-Solid
 62
     7
370
    25
100
AcDbLine
 10
28.6436776978
 20
31.887621984
 30
0.0
 11
28.6224644944
 21
31.8753758624
 31
0.0
  0
LINE
  5
262
330
1F
100
AcDbEntity
  8
0
  6
SLD-Solid
 62
     7
370
    25
100
AcDbLine
 10
36.6629729173
 20
27.2581813943
 30
0.0
 11
36.6417597138
 21
27.2459352726
 31
0.0
  0
LINE
  5
263
330
1F
100
AcDbEntity
  8
0
  6
SLD-Solid
 62
     7
370
    25
100
AcDbLine
 10
35.9558661361
 20
27.6663854502
 30
0.0
 11
35.9346529326
 21
27.6541393285
 31
0.0
  0
LINE
  5
264
330
1F
100
AcDbEntity
  8
0
  6
SLD-Solid
 62
     7
370
    25
100
AcDbLine
 10
43.9751613555
 20
23.0369448604
 30
0.0
 11
43.9539481521
 21
23.0246987387
 31
0.0
  0
LINE
  5
265
330
1F
100
AcDbEntity
  8
0
  6
SLD-Solid
 62
     7
370
    25
100
AcDbLine
 10
43.3093943378
 20
22.2416242033
 30
0.0
 11
43.2963333433
 21
22.2340842517
 31
0.0
  0
LINE
  5
266
330
1F
100
AcDbEntity
  8
0
  6
SLD-Solid
 62
     7
370
    25
100
AcDbLine
 10
43.4525448037
 20
21.963488746
 30
0.0
 11
43.4656057981
 21
21.9710286976
 31
0.0
  0
LINE
  5
267
330
1F
100
AcDbEntity
  8
0
  6
SLD-Solid
 62
     7
370
    25
100
AcDbLine
 10
35.9972058995
 20
26.4628607372
 30
0.0
 11
35.9841449051
 21
26.4553207856
 31
0.0
  0
LINE
  5
268
330
1F
100
AcDbEntity
  8
0
  6
SLD-Solid
 62
     7
370
    25
100
AcDbLine
 10
36.1403563654
 20
26.1847252799
 30
0.0
 11
36.1534173599
 21
26.1922652315
 31
0.0
  0
LINE
  5
269
330
1F
100
AcDbEntity
  8
0
  6
SLD-Solid
 62
     7
370
    25
100
AcDbLine
 10
28.6850174613
 20
30.684097271
 30
0.0
 11
28.6719564668
 21
30.6765573194
 31
0.0
  0
LINE
  5
26A
330
1F
100
AcDbEntity
  8
0
  6
SLD-Solid
 62
     7
370
    25
100
AcDbLine
 10
28.8281679272
 20
30.4059618137
 30
0.0
 11
28.8412289216
 21
30.4135017653
 31
0.0
  0
LINE
  5
26B
330
1F
100
AcDbEntity
  8
0
  6
SLD-Solid
 62
     7
370
    25
100
AcDbLine
 10
27.274096723
 20
31.5098548928
 30
0.0
 11
27.3411301182
 21
31.4711573374
 31
0.0
  0
LINE
  5
26C
330
1F
100
AcDbEntity
  8
0
  6
SLD-Solid
 62
     7
370
    25
100
AcDbLine
 10
27.7416205132
 20
31.2399591536
 30
0.0
 11
27.8929288594
 21
31.1526107046
 31
0.0
  0
LINE
  5
26D
330
1F
100
AcDbEntity
  8
0
  6
SLD-Solid
 62
     7
370
    25
100
AcDbLine
 10
29.6091083136
 20
30.161881394
 30
0.0
 11
34.6533185565
 21
27.2499208036
 31
0.0
  0
LINE
  5
26E
330
1F
100
AcDbEntity
  8
0
  6
SLD-Solid
 62
     7
370
    25
100
AcDbLine
 10
35.0538089515
 20
27.0187226197
 30
0.0
 11
35.2051172976
 21
26.9313741708
 31
0.0
  0
LINE
  5
26F
330
1F
100
AcDbEntity
  8
0
  6
SLD-Solid
 62
     7
370
    25
100
AcDbLine
 10
36.9212967518
 20
25.9406448601
 30
0.0
 11
41.9655069947
 21
23.0286842697
 31
0.0
  0
LINE
  5
270
330
1F
100
AcDbEntity
  8
0
  6
SLD-Solid
 62
     7
370
    25
100
AcDbLine
 10
42.3659973897
 20
22.7974860859
 30
0.0
 11
42.5173057359
 21
22.7101376369
 31
0.0
  0
LINE
  5
271
330
1F
100
AcDbEntity
  8
0
  6
SLD-Solid
 62
     7
370
    25
100
AcDbLine
 10
44.2334851901
 20
21.7194083263
 30
0.0
 11
45.6588730338
 21
20.8965494391
 31
0.0
  0
LINE
  5
272
330
1F
100
AcDbEntity
  8
0
  6
SLD-Solid
 62
     7
370
    25
100
AcDbLine
 10
27.9636475853
 20
31.5252184779
 30
0.0
 11
27.8115354004
 21
31.5912975567
 31
0.0
  0
LINE
  5
273
330
1F
100
AcDbEntity
  8
0
  6
SLD-Solid
 62
     7
370
    25
100
AcDbLine
 10
27.9722410564
 20
31.4456004118
 30
0.0
 11
27.9636475853
 21
31.5252184779
 31
0.0
  0
SPLINE
  5
274
330
1F
100
AcDbEntity
  8
0
  6
SLD-Solid
 62
     7
370
    25
100
AcDbSpline
210
0.0
220
0.0
230
1.0
 70
     8
 71
     3
 72
    14
 73
    10
 74
     0
 42
0.00000001
 43
0.00000001
 40
0.0
 40
0.0
 40
0.0
 40
0.0
 40
0.1669732910766159
 40
0.3292393671751841
 40
0.4780643428590287
 40
0.5831555886245562
 40
0.6936208322497787
 40
0.8266861690052624
 40
1.0
 40
1.0
 40
1.0
 40
1.0
 10
28.32799051235651
 20
31.26881660764645
 30
0.0
 10
28.31056245470523
 20
31.25947805714831
 30
0.0
 10
28.27619766117924
 20
31.24106422319609
 30
0.0
 10
28.22217280814859
 20
31.22191272680709
 30
0.0
 10
28.16793940711
 20
31.22046506413281
 30
0.0
 10
28.11455355216658
 20
31.2424804795573
 30
0.0
 10
28.06444435825505
 20
31.28662439994855
 30
0.0
 10
28.0144255210902
 20
31.35703853251642
 30
0.0
 10
27.98748236951733
 20
31.41360286625557
 30
0.0
 10
27.97224105643311
 20
31.44560041181321
 30
0.0
  0
SPLINE
  5
275
330
1F
100
AcDbEntity
  8
0
  6
SLD-Solid
 62
     7
370
    25
100
AcDbSpline
210
0.0
220
0.0
230
1.0
 70
     8
 71
     3
 72
    10
 73
     6
 74
     0
 42
0.00000001
 43
0.00000001
 40
0.0
 40
0.0
 40
0.0
 40
0.0
 40
0.312700108085141
 40
0.585202906562606
 40
1.0
 40
1.0
 40
1.0
 40
1.0
 10
28.45182434902934
 20
31.25649888354068
 30
0.0
 10
28.43750727446236
 20
31.26367360293893
 30
0.0
 10
28.41071357201889
 20
31.2771007381943
 30
0.0
 10
28.36800469319632
 20
31.28106431550762
 30
0.0
 10
28.34305068049891
 20
31.27342628691207
 30
0.0
 10
28.32799051235651
 20
31.26881660764645
 30
0.0
  0
LINE
  5
276
330
1F
100
AcDbEntity
  8
0
  6
SLD-Solid
 62
     7
370
    25
100
AcDbLine
 10
28.7633315772
 20
30.9834155837
 30
0.0
 11
28.451824349
 21
31.2564988835
 31
0.0
  0
LINE
  5
277
330
1F
100
AcDbEntity
  8
0
  6
SLD-Solid
 62
     7
370
    25
100
AcDbLine
 10
28.8380056916
 20
30.9202980745
 30
0.0
 11
28.7633315772
 21
30.9834155837
 31
0.0
  0
SPLINE
  5
278
330
1F
100
AcDbEntity
  8
0
  6
SLD-Solid
 62
     7
370
    25
100
AcDbSpline
210
0.0
220
0.0
230
1.0
 70
     8
 71
     3
 72
    13
 73
     9
 74
     0
 42
0.00000001
 43
0.00000001
 40
0.0
 40
0.0
 40
0.0
 40
0.0
 40
0.1709847685286761
 40
0.3326578081366878
 40
0.4968967494144848
 40
0.6391258064239832
 40
0.803570582091674
 40
1.0
 40
1.0
 40
1.0
 40
1.0
 10
29.19223512469096
 20
30.0761208538281
 30
0.0
 10
29.18735692594549
 20
30.12393536177511
 30
0.0
 10
29.17786619226035
 20
30.21696042797052
 30
0.0
 10
29.14893849290301
 20
30.36174634315524
 30
0.0
 10
29.10048153116476
 20
30.50178804204061
 30
0.0
 10
29.03225627073342
 20
30.63882193338676
 30
0.0
 10
28.94572942877893
 20
30.7780672518685
 30
0.0
 10
28.87597442276084
 20
30.87016684063259
 30
0.0
 10
28.83800569162896
 20
30.92029807454337
 30
0.0
  0
SPLINE
  5
279
330
1F
100
AcDbEntity
  8
0
  6
SLD-Solid
 62
     7
370
    25
100
AcDbSpline
210
0.0
220
0.0
230
1.0
 70
     8
 71
     3
 72
    11
 73
     7
 74
     0
 42
0.00000001
 43
0.00000001
 40
0.0
 40
0.0
 40
0.0
 40
0.0
 40
0.2779255621982113
 40
0.5865010749870838
 40
0.8150864002480631
 40
0.9999999999999999
 40
0.9999999999999999
 40
0.9999999999999999
 40
0.9999999999999999
 10
29.15320666704852
 20
30.0172214847719
 30
0.0
 10
29.15927886885622
 20
30.01932075154757
 30
0.0
 10
29.17209292186951
 20
30.02375079465292
 30
0.0
 10
29.18305335520733
 20
30.04073187331546
 30
0.0
 10
29.19073008298929
 20
30.05781723447314
 30
0.0
 10
29.19177005641897
 20
30.07046490913553
 30
0.0
 10
29.19223512469096
 20
30.0761208538281
 30
0.0
  0
SPLINE
  5
27A
330
1F
100
AcDbEntity
  8
0
  6
SLD-Solid
 62
     7
370
    25
100
AcDbSpline
210
0.0
220
0.0
230
1.0
 70
     8
 71
     3
 72
    13
 73
     9
 74
     0
 42
0.00000001
 43
0.00000001
 40
0.0
 40
0.0
 40
0.0
 40
0.0
 40
0.1722258029344728
 40
0.3651408598546051
 40
0.5673817509133572
 40
0.7237788946035327
 40
0.8702274286197439
 40
1.0
 40
1.0
 40
1.0
 40
1.0
 10
28.57736404177263
 20
30.14291116760494
 30
0.0
 10
28.61282878695371
 20
30.11859800624263
 30
0.0
 10
28.68801860943849
 20
30.06705097615564
 30
0.0
 10
28.80407320563761
 20
30.02454509959534
 30
0.0
 10
28.91295429862414
 20
29.99946418388321
 30
0.0
 10
29.00850963557415
 20
29.99216709506469
 30
0.0
 10
29.08728291140133
 20
29.99562390351087
 30
0.0
 10
29.13213467559954
 20
30.01031799386513
 30
0.0
 10
29.15320666704852
 20
30.0172214847719
 30
0.0
  0
SPLINE
  5
27B
330
1F
100
AcDbEntity
  8
0
  6
SLD-Solid
 62
     7
370
    25
100
AcDbSpline
210
0.0
220
0.0
230
1.0
 70
     8
 71
     3
 72
    17
 73
    13
 74
     0
 42
0.00000001
 43
0.00000001
 40
0.0
 40
0.0
 40
0.0
 40
0.0
 40
0.0678705028656883
 40
0.1510805487614263
 40
0.2455286833004871
 40
0.3480591354729931
 40
0.4570909829180645
 40
0.5477261663855175
 40
0.6442895922105847
 40
0.7494053384969304
 40
0.8666049980989313
 40
1.0
 40
1.0
 40
1.0
 40
1.0
 10
27.81153540039577
 20
31.59129755667202
 30
0.0
 10
27.81645464942732
 20
31.55589269797334
 30
0.0
 10
27.82740495643551
 20
31.47708106029324
 30
0.0
 10
27.84677308085801
 20
31.34838219294032
 30
0.0
 10
27.87753747138791
 20
31.19865057529729
 30
0.0
 10
27.92453851187022
 20
31.03227710151987
 30
0.0
 10
27.98836402080979
 20
30.86715897050199
 30
0.0
 10
28.06803821066666
 20
30.70927788845546
 30
0.0
 10
28.16146373089445
 20
30.56129738134439
 30
0.0
 10
28.27736077994591
 20
30.41422742900426
 30
0.0
 10
28.41779849399029
 20
30.26917154926172
 30
0.0
 10
28.52193222009005
 20
30.18677303540061
 30
0.0
 10
28.57736404177263
 20
30.14291116760494
 30
0.0
  0
LINE
  5
27C
330
1F
100
AcDbEntity
  8
0
  6
SLD-Solid
 62
     7
370
    25
100
AcDbLine
 10
29.1922351247
 20
30.0761208538
 30
0.0
 11
29.2815138911
 21
30.1276603886
 31
0.0
  0
LINE
  5
27D
330
1F
100
AcDbEntity
  8
0
  6
SLD-Solid
 62
     7
370
    25
100
AcDbLine
 10
28.8380056916
 20
30.9202980745
 30
0.0
 11
29.3966200488
 21
31.2427792787
 31
0.0
  0
LINE
  5
27E
330
1F
100
AcDbEntity
  8
0
  6
SLD-Solid
 62
     7
370
    25
100
AcDbLine
 10
29.4731952423
 20
31.1517846982
 30
0.0
 11
29.4527406538
 21
31.1797650971
 31
0.0
  0
LINE
  5
27F
330
1F
100
AcDbEntity
  8
0
  6
SLD-Solid
 62
     7
370
    25
100
AcDbLine
 10
28.7633315772
 20
30.9834155837
 30
0.0
 11
29.3273991265
 21
31.3090448487
 31
0.0
  0
LINE
  5
280
330
1F
100
AcDbEntity
  8
0
  6
SLD-Solid
 62
     7
370
    25
100
AcDbLine
 10
28.451824349
 20
31.2564988835
 30
0.0
 11
29.017509774
 21
31.5830621283
 31
0.0
  0
LINE
  5
281
330
1F
100
AcDbEntity
  8
0
  6
SLD-Solid
 62
     7
370
    25
100
AcDbLine
 10
29.3233321358
 20
31.3149624754
 30
0.0
 11
29.017509774
 21
31.5830621283
 31
0.0
  0
LINE
  5
282
330
1F
100
AcDbEntity
  8
0
  6
SLD-Solid
 62
     7
370
    25
100
AcDbLine
 10
28.3279905124
 20
31.2688166076
 30
0.0
 11
28.8936759373
 21
31.5953798524
 31
0.0
  0
SPLINE
  5
283
330
1F
100
AcDbEntity
  8
0
  6
SLD-Solid
 62
     7
370
    25
100
AcDbSpline
210
0.0
220
0.0
230
1.0
 70
     8
 71
     3
 72
    10
 73
     6
 74
     0
 42
0.00000001
 43
0.00000001
 40
0.0
 40
0.0
 40
0.0
 40
0.0
 40
0.312700108085141
 40
0.585202906562606
 40
1.0
 40
1.0
 40
1.0
 40
1.0
 10
29.01750977397858
 20
31.58306212826976
 30
0.0
 10
29.0031926994116
 20
31.59023684766801
 30
0.0
 10
28.97639899696813
 20
31.60366398292338
 30
0.0
 10
28.93369011814556
 20
31.6076275602367
 30
0.0
 10
28.90873610544815
 20
31.59998953164115
 30
0.0
 10
28.89367593730575
 20
31.59537985237553
 30
0.0
  0
LINE
  5
284
330
1F
100
AcDbEntity
  8
0
  6
SLD-Solid
 62
     7
370
    25
100
AcDbLine
 10
27.9722410564
 20
31.4456004118
 30
0.0
 11
28.5379264814
 21
31.7721636565
 31
0.0
  0
SPLINE
  5
285
330
1F
100
AcDbEntity
  8
0
  6
SLD-Solid
 62
     7
370
    25
100
AcDbSpline
210
0.0
220
0.0
230
1.0
 70
     8
 71
     3
 72
    14
 73
    10
 74
     0
 42
0.00000001
 43
0.00000001
 40
0.0
 40
0.0
 40
0.0
 40
0.0
 40
0.1669732910766159
 40
0.3292393671751841
 40
0.4780643428590287
 40
0.5831555886245562
 40
0.6936208322497787
 40
0.8266861690052624
 40
1.0
 40
1.0
 40
1.0
 40
1.0
 10
28.89367593730575
 20
31.59537985237553
 30
0.0
 10
28.87624787965446
 20
31.5860413018774
 30
0.0
 10
28.84188308612848
 20
31.56762746792518
 30
0.0
 10
28.78785823309783
 20
31.54847597153617
 30
0.0
 10
28.73362483205924
 20
31.5470283088619
 30
0.0
 10
28.68023897711582
 20
31.56904372428638
 30
0.0
 10
28.63012978320429
 20
31.61318764467763
 30
0.0
 10
28.58011094603944
 20
31.6836017772455
 30
0.0
 10
28.55316779446657
 20
31.74016611098465
 30
0.0
 10
28.53792648138235
 20
31.77216365654229
 30
0.0
  0
LINE
  5
286
330
1F
100
AcDbEntity
  8
0
  6
SLD-Solid
 62
     7
370
    25
100
AcDbLine
 10
27.9636475853
 20
31.5252184779
 30
0.0
 11
28.5293330102
 21
31.8517817227
 31
0.0
  0
LINE
  5
287
330
1F
100
AcDbEntity
  8
0
  6
SLD-Solid
 62
     7
370
    25
100
AcDbLine
 10
28.5379264814
 20
31.7721636565
 30
0.0
 11
28.5293330102
 21
31.8517817227
 31
0.0
  0
LINE
  5
288
330
1F
100
AcDbEntity
  8
0
  6
SLD-Solid
 62
     7
370
    25
100
AcDbLine
 10
27.8115354004
 20
31.5912975567
 30
0.0
 11
28.3772208253
 21
31.9178608014
 31
0.0
  0
LINE
  5
289
330
1F
100
AcDbEntity
  8
0
  6
SLD-Solid
 62
     7
370
    25
100
AcDbLine
 10
28.5293330102
 20
31.8517817227
 30
0.0
 11
28.3772208253
 21
31.9178608014
 31
0.0
  0
LINE
  5
28A
330
1F
100
AcDbEntity
  8
0
  6
SLD-Solid
 62
     7
370
    25
100
AcDbLine
 10
35.2758360235
 20
27.3039819441
 30
0.0
 11
35.1237238386
 21
27.3700610228
 31
0.0
  0
LINE
  5
28B
330
1F
100
AcDbEntity
  8
0
  6
SLD-Solid
 62
     7
370
    25
100
AcDbLine
 10
35.2844294947
 20
27.224363878
 30
0.0
 11
35.2758360235
 21
27.3039819441
 31
0.0
  0
SPLINE
  5
28C
330
1F
100
AcDbEntity
  8
0
  6
SLD-Solid
 62
     7
370
    25
100
AcDbSpline
210
0.0
220
0.0
230
1.0
 70
     8
 71
     3
 72
    14
 73
    10
 74
     0
 42
0.00000001
 43
0.00000001
 40
0.0
 40
0.0
 40
0.0
 40
0.0
 40
0.1669732910766149
 40
0.3292393671751841
 40
0.4780643428590286
 40
0.5831555886245549
 40
0.693620832249779
 40
0.8266861690052605
 40
1.0
 40
1.0
 40
1.0
 40
1.0
 10
35.64017895060586
 20
27.04758007379111
 30
0.0
 10
35.62275089295458
 20
27.03824152329297
 30
0.0
 10
35.5883860994286
 20
27.01982768934075
 30
0.0
 10
35.53436124639795
 20
27.00067619295174
 30
0.0
 10
35.48012784535936
 20
26.99922853027747
 30
0.0
 10
35.42674199041593
 20
27.02124394570195
 30
0.0
 10
35.3766327965044
 20
27.0653878660932
 30
0.0
 10
35.32661395933956
 20
27.13580199866107
 30
0.0
 10
35.2996708077667
 20
27.19236633240023
 30
0.0
 10
35.28442949468246
 20
27.22436387795786
 30
0.0
  0
SPLINE
  5
28D
330
1F
100
AcDbEntity
  8
0
  6
SLD-Solid
 62
     7
370
    25
100
AcDbSpline
210
0.0
220
0.0
230
1.0
 70
     8
 71
     3
 72
    10
 73
     6
 74
     0
 42
0.00000001
 43
0.00000001
 40
0.0
 40
0.0
 40
0.0
 40
0.0
 40
0.3127001080851406
 40
0.5852029065626025
 40
1.0
 40
1.0
 40
1.0
 40
1.0
 10
35.76401278727869
 20
27.03526234968533
 30
0.0
 10
35.74969571271171
 20
27.04243706908359
 30
0.0
 10
35.72290201026825
 20
27.05586420433895
 30
0.0
 10
35.68019313144568
 20
27.05982778165227
 30
0.0
 10
35.65523911874826
 20
27.05218975305673
 30
0.0
 10
35.64017895060586
 20
27.04758007379111
 30
0.0
  0
LINE
  5
28E
330
1F
100
AcDbEntity
  8
0
  6
SLD-Solid
 62
     7
370
    25
100
AcDbLine
 10
36.0755200154
 20
26.7621790498
 30
0.0
 11
35.7640127873
 21
27.0352623497
 31
0.0
  0
LINE
  5
28F
330
1F
100
AcDbEntity
  8
0
  6
SLD-Solid
 62
     7
370
    25
100
AcDbLine
 10
36.1501941299
 20
26.6990615407
 30
0.0
 11
36.0755200154
 21
26.7621790498
 31
0.0
  0
SPLINE
  5
290
330
1F
100
AcDbEntity
  8
0
  6
SLD-Solid
 62
     7
370
    25
100
AcDbSpline
210
0.0
220
0.0
230
1.0
 70
     8
 71
     3
 72
    13
 73
     9
 74
     0
 42
0.00000001
 43
0.00000001
 40
0.0
 40
0.0
 40
0.0
 40
0.0
 40
0.1709847685286762
 40
0.3326578081366878
 40
0.4968967494144847
 40
0.6391258064239833
 40
0.8035705820916741
 40
0.9999999999999999
 40
0.9999999999999999
 40
0.9999999999999999
 40
0.9999999999999999
 10
36.50442356294032
 20
25.85488431997276
 30
0.0
 10
36.49954536419485
 20
25.90269882791977
 30
0.0
 10
36.49005463050971
 20
25.99572389411517
 30
0.0
 10
36.46112693115237
 20
26.1405098092999
 30
0.0
 10
36.41266996941412
 20
26.28055150818527
 30
0.0
 10
36.34444470898278
 20
26.41758539953141
 30
0.0
 10
36.25791786702829
 20
26.55683071801315
 30
0.0
 10
36.18816286101021
 20
26.64893030677724
 30
0.0
 10
36.15019412987832
 20
26.69906154068803
 30
0.0
  0
SPLINE
  5
291
330
1F
100
AcDbEntity
  8
0
  6
SLD-Solid
 62
     7
370
    25
100
AcDbSpline
210
0.0
220
0.0
230
1.0
 70
     8
 71
     3
 72
    11
 73
     7
 74
     0
 42
0.00000001
 43
0.00000001
 40
0.0
 40
0.0
 40
0.0
 40
0.0
 40
0.277925562198213
 40
0.5865010749870826
 40
0.8150864002480628
 40
0.9999999999999999
 40
0.9999999999999999
 40
0.9999999999999999
 40
0.9999999999999999
 10
36.46539510529788
 20
25.79598495091656
 30
0.0
 10
36.47146730710558
 20
25.79808421769222
 30
0.0
 10
36.48428136011887
 20
25.80251426079757
 30
0.0
 10
36.49524179345669
 20
25.81949533946011
 30
0.0
 10
36.50291852123866
 20
25.83658070061779
 30
0.0
 10
36.50395849466833
 20
25.84922837528019
 30
0.0
 10
36.50442356294032
 20
25.85488431997276
 30
0.0
  0
SPLINE
  5
292
330
1F
100
AcDbEntity
  8
0
  6
SLD-Solid
 62
     7
370
    25
100
AcDbSpline
210
0.0
220
0.0
230
1.0
 70
     8
 71
     3
 72
    13
 73
     9
 74
     0
 42
0.00000001
 43
0.00000001
 40
0.0
 40
0.0
 40
0.0
 40
0.0
 40
0.172225802934473
 40
0.3651408598546058
 40
0.5673817509133572
 40
0.7237788946035325
 40
0.8702274286197439
 40
1.0
 40
1.0
 40
1.0
 40
1.0
 10
35.88955248002199
 20
25.9216746337496
 30
0.0
 10
35.92501722520306
 20
25.89736147238728
 30
0.0
 10
36.00020704768785
 20
25.84581444230029
 30
0.0
 10
36.11626164388697
 20
25.80330856573999
 30
0.0
 10
36.22514273687349
 20
25.77822765002787
 30
0.0
 10
36.3206980738235
 20
25.77093056120935
 30
0.0
 10
36.3994713496507
 20
25.77438736965553
 30
0.0
 10
36.4443231138489
 20
25.78908146000978
 30
0.0
 10
36.46539510529788
 20
25.79598495091656
 30
0.0
  0
SPLINE
  5
293
330
1F
100
AcDbEntity
  8
0
  6
SLD-Solid
 62
     7
370
    25
100
AcDbSpline
210
0.0
220
0.0
230
1.0
 70
     8
 71
     3
 72
    17
 73
    13
 74
     0
 42
0.00000001
 43
0.00000001
 40
0.0
 40
0.0
 40
0.0
 40
0.0
 40
0.0678705028656883
 40
0.1510805487614262
 40
0.2455286833004872
 40
0.3480591354729935
 40
0.4570909829180648
 40
0.547726166385518
 40
0.6442895922105851
 40
0.7494053384969305
 40
0.8666049980989321
 40
1.0
 40
1.0
 40
1.0
 40
1.0
 10
35.12372383864513
 20
27.37006102281668
 30
0.0
 10
35.12864308767667
 20
27.334656164118
 30
0.0
 10
35.13959339468487
 20
27.2558445264379
 30
0.0
 10
35.15896151910737
 20
27.12714565908497
 30
0.0
 10
35.18972590963726
 20
26.97741404144194
 30
0.0
 10
35.23672695011958
 20
26.81104056766453
 30
0.0
 10
35.30055245905915
 20
26.64592243664664
 30
0.0
 10
35.38022664891603
 20
26.48804135460012
 30
0.0
 10
35.4736521691438
 20
26.34006084748904
 30
0.0
 10
35.58954921819527
 20
26.19299089514892
 30
0.0
 10
35.72998693223965
 20
26.04793501540637
 30
0.0
 10
35.83412065833942
 20
25.96553650154527
 30
0.0
 10
35.88955248002199
 20
25.9216746337496
 30
0.0
  0
LINE
  5
294
330
1F
100
AcDbEntity
  8
0
  6
SLD-Solid
 62
     7
370
    25
100
AcDbLine
 10
36.5044235629
 20
25.85488432
 30
0.0
 11
36.5937023293
 21
25.9064238548
 31
0.0
  0
LINE
  5
295
330
1F
100
AcDbEntity
  8
0
  6
SLD-Solid
 62
     7
370
    25
100
AcDbLine
 10
36.1501941299
 20
26.6990615407
 30
0.0
 11
36.708808487
 21
27.0215427449
 31
0.0
  0
LINE
  5
296
330
1F
100
AcDbEntity
  8
0
  6
SLD-Solid
 62
     7
370
    25
100
AcDbLine
 10
36.7853836806
 20
26.9305481643
 30
0.0
 11
36.764929092
 21
26.9585285633
 31
0.0
  0
LINE
  5
297
330
1F
100
AcDbEntity
  8
0
  6
SLD-Solid
 62
     7
370
    25
100
AcDbLine
 10
36.0755200154
 20
26.7621790498
 30
0.0
 11
36.6395875648
 21
27.0878083148
 31
0.0
  0
LINE
  5
298
330
1F
100
AcDbEntity
  8
0
  6
SLD-Solid
 62
     7
370
    25
100
AcDbLine
 10
35.7640127873
 20
27.0352623497
 30
0.0
 11
36.3296982122
 21
27.3618255944
 31
0.0
  0
LINE
  5
299
330
1F
100
AcDbEntity
  8
0
  6
SLD-Solid
 62
     7
370
    25
100
AcDbLine
 10
36.635520574
 20
27.0937259415
 30
0.0
 11
36.3296982122
 21
27.3618255944
 31
0.0
  0
LINE
  5
29A
330
1F
100
AcDbEntity
  8
0
  6
SLD-Solid
 62
     7
370
    25
100
AcDbLine
 10
35.6401789506
 20
27.0475800738
 30
0.0
 11
36.2058643756
 21
27.3741433185
 31
0.0
  0
SPLINE
  5
29B
330
1F
100
AcDbEntity
  8
0
  6
SLD-Solid
 62
     7
370
    25
100
AcDbSpline
210
0.0
220
0.0
230
1.0
 70
     8
 71
     3
 72
    10
 73
     6
 74
     0
 42
0.00000001
 43
0.00000001
 40
0.0
 40
0.0
 40
0.0
 40
0.0
 40
0.3127001080851406
 40
0.5852029065626025
 40
1.0
 40
1.0
 40
1.0
 40
1.0
 10
36.32969821222794
 20
27.36182559441442
 30
0.0
 10
36.31538113766095
 20
27.36900031381267
 30
0.0
 10
36.28858743521749
 20
27.38242744906804
 30
0.0
 10
36.24587855639491
 20
27.38639102638136
 30
0.0
 10
36.2209245436975
 20
27.37875299778581
 30
0.0
 10
36.20586437555511
 20
27.37414331852019
 30
0.0
  0
LINE
  5
29C
330
1F
100
AcDbEntity
  8
0
  6
SLD-Solid
 62
     7
370
    25
100
AcDbLine
 10
35.2844294947
 20
27.224363878
 30
0.0
 11
35.8501149196
 21
27.5509271227
 31
0.0
  0
SPLINE
  5
29D
330
1F
100
AcDbEntity
  8
0
  6
SLD-Solid
 62
     7
370
    25
100
AcDbSpline
210
0.0
220
0.0
230
1.0
 70
     8
 71
     3
 72
    14
 73
    10
 74
     0
 42
0.00000001
 43
0.00000001
 40
0.0
 40
0.0
 40
0.0
 40
0.0
 40
0.1669732910766149
 40
0.3292393671751841
 40
0.4780643428590286
 40
0.5831555886245549
 40
0.693620832249779
 40
0.8266861690052605
 40
1.0
 40
1.0
 40
1.0
 40
1.0
 10
36.20586437555511
 20
27.37414331852019
 30
0.0
 10
36.18843631790382
 20
27.36480476802205
 30
0.0
 10
36.15407152437784
 20
27.34639093406983
 30
0.0
 10
36.10004667134719
 20
27.32723943768082
 30
0.0
 10
36.0458132703086
 20
27.32579177500656
 30
0.0
 10
35.99242741536518
 20
27.34780719043104
 30
0.0
 10
35.94231822145365
 20
27.39195111082228
 30
0.0
 10
35.8922993842888
 20
27.46236524339015
 30
0.0
 10
35.86535623271593
 20
27.51892957712931
 30
0.0
 10
35.8501149196317
 20
27.55092712268695
 30
0.0
  0
LINE
  5
29E
330
1F
100
AcDbEntity
  8
0
  6
SLD-Solid
 62
     7
370
    25
100
AcDbLine
 10
35.2758360235
 20
27.3039819441
 30
0.0
 11
35.8415214485
 21
27.6305451888
 31
0.0
  0
LINE
  5
29F
330
1F
100
AcDbEntity
  8
0
  6
SLD-Solid
 62
     7
370
    25
100
AcDbLine
 10
35.8501149196
 20
27.5509271227
 30
0.0
 11
35.8415214485
 21
27.6305451888
 31
0.0
  0
LINE
  5
2A0
330
1F
100
AcDbEntity
  8
0
  6
SLD-Solid
 62
     7
370
    25
100
AcDbLine
 10
35.1237238386
 20
27.3700610228
 30
0.0
 11
35.6894092636
 21
27.6966242675
 31
0.0
  0
LINE
  5
2A1
330
1F
100
AcDbEntity
  8
0
  6
SLD-Solid
 62
     7
370
    25
100
AcDbLine
 10
35.8415214485
 20
27.6305451888
 30
0.0
 11
35.6894092636
 21
27.6966242675
 31
0.0
  0
LINE
  5
2A2
330
1F
100
AcDbEntity
  8
0
  6
SLD-Solid
 62
     7
370
    25
100
AcDbLine
 10
42.5880244618
 20
23.0827454102
 30
0.0
 11
42.4359122769
 21
23.148824489
 31
0.0
  0
LINE
  5
2A3
330
1F
100
AcDbEntity
  8
0
  6
SLD-Solid
 62
     7
370
    25
100
AcDbLine
 10
42.5966179329
 20
23.0031273441
 30
0.0
 11
42.5880244618
 21
23.0827454102
 31
0.0
  0
SPLINE
  5
2A4
330
1F
100
AcDbEntity
  8
0
  6
SLD-Solid
 62
     7
370
    25
100
AcDbSpline
210
0.0
220
0.0
230
1.0
 70
     8
 71
     3
 72
    14
 73
    10
 74
     0
 42
0.00000001
 43
0.00000001
 40
0.0
 40
0.0
 40
0.0
 40
0.0
 40
0.1669732910766157
 40
0.3292393671751837
 40
0.4780643428590281
 40
0.5831555886245555
 40
0.6936208322497779
 40
0.8266861690052615
 40
1.0
 40
1.0
 40
1.0
 40
1.0
 10
42.95236738885523
 20
22.82634353993576
 30
0.0
 10
42.93493933120394
 20
22.81700498943762
 30
0.0
 10
42.90057453767796
 20
22.79859115548541
 30
0.0
 10
42.84654968464731
 20
22.7794396590964
 30
0.0
 10
42.79231628360872
 20
22.77799199642213
 30
0.0
 10
42.73893042866529
 20
22.80000741184661
 30
0.0
 10
42.68882123475376
 20
22.84415133223786
 30
0.0
 10
42.63880239758892
 20
22.91456546480573
 30
0.0
 10
42.61185924601605
 20
22.97112979854488
 30
0.0
 10
42.59661793293183
 20
23.00312734410252
 30
0.0
  0
SPLINE
  5
2A5
330
1F
100
AcDbEntity
  8
0
  6
SLD-Solid
 62
     7
370
    25
100
AcDbSpline
210
0.0
220
0.0
230
1.0
 70
     8
 71
     3
 72
    10
 73
     6
 74
     0
 42
0.00000001
 43
0.00000001
 40
0.0
 40
0.0
 40
0.0
 40
0.0
 40
0.312700108085141
 40
0.585202906562606
 40
1.0
 40
1.0
 40
1.0
 40
1.0
 10
43.07620122552805
 20
22.81402581582999
 30
0.0
 10
43.06188415096108
 20
22.82120053522824
 30
0.0
 10
43.03509044851761
 20
22.83462767048361
 30
0.0
 10
42.99238156969503
 20
22.83859124779693
 30
0.0
 10
42.96742755699762
 20
22.83095321920138
 30
0.0
 10
42.95236738885523
 20
22.82634353993576
 30
0.0
  0
LINE
  5
2A6
330
1F
100
AcDbEntity
  8
0
  6
SLD-Solid
 62
     7
370
    25
100
AcDbLine
 10
43.3877084537
 20
22.540942516
 30
0.0
 11
43.0762012255
 21
22.8140258158
 31
0.0
  0
LINE
  5
2A7
330
1F
100
AcDbEntity
  8
0
  6
SLD-Solid
 62
     7
370
    25
100
AcDbLine
 10
43.4623825681
 20
22.4778250068
 30
0.0
 11
43.3877084537
 21
22.540942516
 31
0.0
  0
SPLINE
  5
2A8
330
1F
100
AcDbEntity
  8
0
  6
SLD-Solid
 62
     7
370
    25
100
AcDbSpline
210
0.0
220
0.0
230
1.0
 70
     8
 71
     3
 72
    13
 73
     9
 74
     0
 42
0.00000001
 43
0.00000001
 40
0.0
 40
0.0
 40
0.0
 40
0.0
 40
0.1709847685286765
 40
0.3326578081366879
 40
0.4968967494144843
 40
0.6391258064239833
 40
0.803570582091675
 40
0.9999999999999999
 40
0.9999999999999999
 40
0.9999999999999999
 40
0.9999999999999999
 10
43.81661200118968
 20
21.63364778611742
 30
0.0
 10
43.81173380244421
 20
21.68146229406442
 30
0.0
 10
43.80224306875907
 20
21.77448736025983
 30
0.0
 10
43.77331536940173
 20
21.91927327544456
 30
0.0
 10
43.72485840766348
 20
22.05931497432992
 30
0.0
 10
43.65663314723214
 20
22.19634886567607
 30
0.0
 10
43.57010630527765
 20
22.33559418415781
 30
0.0
 10
43.50035129925956
 20
22.4276937729219
 30
0.0
 10
43.46238256812768
 20
22.47782500683268
 30
0.0
  0
SPLINE
  5
2A9
330
1F
100
AcDbEntity
  8
0
  6
SLD-Solid
 62
     7
370
    25
100
AcDbSpline
210
0.0
220
0.0
230
1.0
 70
     8
 71
     3
 72
    11
 73
     7
 74
     0
 42
0.00000001
 43
0.00000001
 40
0.0
 40
0.0
 40
0.0
 40
0.0
 40
0.2779255621982065
 40
0.5865010749870764
 40
0.8150864002480606
 40
0.9999999999999999
 40
0.9999999999999999
 40
0.9999999999999999
 40
0.9999999999999999
 10
43.77758354354724
 20
21.57474841706121
 30
0.0
 10
43.78365574535494
 20
21.57684768383688
 30
0.0
 10
43.79646979836823
 20
21.58127772694223
 30
0.0
 10
43.80743023170604
 20
21.59825880560477
 30
0.0
 10
43.81510695948801
 20
21.61534416676245
 30
0.0
 10
43.81614693291768
 20
21.62799184142484
 30
0.0
 10
43.81661200118968
 20
21.63364778611742
 30
0.0
  0
SPLINE
  5
2AA
330
1F
100
AcDbEntity
  8
0
  6
SLD-Solid
 62
     7
370
    25
100
AcDbSpline
210
0.0
220
0.0
230
1.0
 70
     8
 71
     3
 72
    13
 73
     9
 74
     0
 42
0.00000001
 43
0.00000001
 40
0.0
 40
0.0
 40
0.0
 40
0.0
 40
0.1722258029344726
 40
0.3651408598546048
 40
0.5673817509133554
 40
0.7237788946035308
 40
0.870227428619744
 40
1.0
 40
1.0
 40
1.0
 40
1.0
 10
43.20174091827135
 20
21.70043809989425
 30
0.0
 10
43.23720566345242
 20
21.67612493853194
 30
0.0
 10
43.31239548593721
 20
21.62457790844495
 30
0.0
 10
43.42845008213633
 20
21.58207203188465
 30
0.0
 10
43.53733117512285
 20
21.55699111617252
 30
0.0
 10
43.63288651207286
 20
21.54969402735401
 30
0.0
 10
43.71165978790005
 20
21.55315083580019
 30
0.0
 10
43.75651155209826
 20
21.56784492615443
 30
0.0
 10
43.77758354354724
 20
21.57474841706121
 30
0.0
  0
SPLINE
  5
2AB
330
1F
100
AcDbEntity
  8
0
  6
SLD-Solid
 62
     7
370
    25
100
AcDbSpline
210
0.0
220
0.0
230
1.0
 70
     8
 71
     3
 72
    17
 73
    13
 74
     0
 42
0.00000001
 43
0.00000001
 40
0.0
 40
0.0
 40
0.0
 40
0.0
 40
0.0678705028656883
 40
0.1510805487614261
 40
0.2455286833004871
 40
0.3480591354729933
 40
0.4570909829180645
 40
0.5477261663855175
 40
0.6442895922105847
 40
0.7494053384969304
 40
0.8666049980989313
 40
1.0
 40
1.0
 40
1.0
 40
1.0
 10
42.43591227689448
 20
23.14882448896133
 30
0.0
 10
42.44083152592604
 20
23.11341963026265
 30
0.0
 10
42.45178183293422
 20
23.03460799258255
 30
0.0
 10
42.47114995735672
 20
22.90590912522963
 30
0.0
 10
42.50191434788662
 20
22.7561775075866
 30
0.0
 10
42.54891538836894
 20
22.58980403380918
 30
0.0
 10
42.61274089730851
 20
22.4246859027913
 30
0.0
 10
42.69241508716539
 20
22.26680482074477
 30
0.0
 10
42.78584060739317
 20
22.1188243136337
 30
0.0
 10
42.90173765644462
 20
21.97175436129358
 30
0.0
 10
43.04217537048901
 20
21.82669848155103
 30
0.0
 10
43.14630909658877
 20
21.74429996768992
 30
0.0
 10
43.20174091827135
 20
21.70043809989425
 30
0.0
  0
LINE
  5
2AC
330
1F
100
AcDbEntity
  8
0
  6
SLD-Solid
 62
     7
370
    25
100
AcDbLine
 10
43.8166120012
 20
21.6336477861
 30
0.0
 11
43.9058907676
 21
21.6851873209
 31
0.0
  0
LINE
  5
2AD
330
1F
100
AcDbEntity
  8
0
  6
SLD-Solid
 62
     7
370
    25
100
AcDbLine
 10
43.4623825681
 20
22.4778250068
 30
0.0
 11
44.0209969253
 21
22.800306211
 31
0.0
  0
LINE
  5
2AE
330
1F
100
AcDbEntity
  8
0
  6
SLD-Solid
 62
     7
370
    25
100
AcDbLine
 10
44.0975721188
 20
22.7093116305
 30
0.0
 11
44.0771175303
 21
22.7372920294
 31
0.0
  0
LINE
  5
2AF
330
1F
100
AcDbEntity
  8
0
  6
SLD-Solid
 62
     7
370
    25
100
AcDbLine
 10
43.3877084537
 20
22.540942516
 30
0.0
 11
43.951776003
 21
22.866571781
 31
0.0
  0
LINE
  5
2B0
330
1F
100
AcDbEntity
  8
0
  6
SLD-Solid
 62
     7
370
    25
100
AcDbLine
 10
43.0762012255
 20
22.8140258158
 30
0.0
 11
43.6418866505
 21
23.1405890606
 31
0.0
  0
LINE
  5
2B1
330
1F
100
AcDbEntity
  8
0
  6
SLD-Solid
 62
     7
370
    25
100
AcDbLine
 10
43.9477090123
 20
22.8724894077
 30
0.0
 11
43.6418866505
 21
23.1405890606
 31
0.0
  0
LINE
  5
2B2
330
1F
100
AcDbEntity
  8
0
  6
SLD-Solid
 62
     7
370
    25
100
AcDbLine
 10
42.9523673889
 20
22.8263435399
 30
0.0
 11
43.5180528138
 21
23.1529067847
 31
0.0
  0
SPLINE
  5
2B3
330
1F
100
AcDbEntity
  8
0
  6
SLD-Solid
 62
     7
370
    25
100
AcDbSpline
210
0.0
220
0.0
230
1.0
 70
     8
 71
     3
 72
    10
 73
     6
 74
     0
 42
0.00000001
 43
0.00000001
 40
0.0
 40
0.0
 40
0.0
 40
0.0
 40
0.312700108085141
 40
0.585202906562606
 40
1.0
 40
1.0
 40
1.0
 40
1.0
 10
43.6418866504773
 20
23.14058906055907
 30
0.0
 10
43.62756957591031
 20
23.14776377995732
 30
0.0
 10
43.60077587346685
 20
23.16119091521269
 30
0.0
 10
43.55806699464428
 20
23.16515449252602
 30
0.0
 10
43.53311298194686
 20
23.15751646393047
 30
0.0
 10
43.51805281380447
 20
23.15290678466484
 30
0.0
  0
LINE
  5
2B4
330
1F
100
AcDbEntity
  8
0
  6
SLD-Solid
 62
     7
370
    25
100
AcDbLine
 10
42.5966179329
 20
23.0031273441
 30
0.0
 11
43.1623033579
 21
23.3296905888
 31
0.0
  0
SPLINE
  5
2B5
330
1F
100
AcDbEntity
  8
0
  6
SLD-Solid
 62
     7
370
    25
100
AcDbSpline
210
0.0
220
0.0
230
1.0
 70
     8
 71
     3
 72
    14
 73
    10
 74
     0
 42
0.00000001
 43
0.00000001
 40
0.0
 40
0.0
 40
0.0
 40
0.0
 40
0.1669732910766157
 40
0.3292393671751837
 40
0.4780643428590281
 40
0.5831555886245555
 40
0.6936208322497779
 40
0.8266861690052615
 40
1.0
 40
1.0
 40
1.0
 40
1.0
 10
43.51805281380447
 20
23.15290678466484
 30
0.0
 10
43.50062475615318
 20
23.14356823416671
 30
0.0
 10
43.4662599626272
 20
23.12515440021449
 30
0.0
 10
43.41223510959654
 20
23.10600290382548
 30
0.0
 10
43.35800170855796
 20
23.10455524115121
 30
0.0
 10
43.30461585361453
 20
23.1265706565757
 30
0.0
 10
43.254506659703
 20
23.17071457696694
 30
0.0
 10
43.20448782253816
 20
23.24112870953481
 30
0.0
 10
43.17754467096529
 20
23.29769304327397
 30
0.0
 10
43.16230335788106
 20
23.3296905888316
 30
0.0
  0
LINE
  5
2B6
330
1F
100
AcDbEntity
  8
0
  6
SLD-Solid
 62
     7
370
    25
100
AcDbLine
 10
42.5880244618
 20
23.0827454102
 30
0.0
 11
43.1537098867
 21
23.409308655
 31
0.0
  0
LINE
  5
2B7
330
1F
100
AcDbEntity
  8
0
  6
SLD-Solid
 62
     7
370
    25
100
AcDbLine
 10
43.1623033579
 20
23.3296905888
 30
0.0
 11
43.1537098867
 21
23.409308655
 31
0.0
  0
LINE
  5
2B8
330
1F
100
AcDbEntity
  8
0
  6
SLD-Solid
 62
     7
370
    25
100
AcDbLine
 10
42.4359122769
 20
23.148824489
 30
0.0
 11
43.0015977018
 21
23.4753877337
 31
0.0
  0
LINE
  5
2B9
330
1F
100
AcDbEntity
  8
0
  6
SLD-Solid
 62
     7
370
    25
100
AcDbLine
 10
43.1537098867
 20
23.409308655
 30
0.0
 11
43.0015977018
 21
23.4753877337
 31
0.0
  0
ARC
  5
2BA
330
1F
100
AcDbEntity
  8
0
  6
SLD-Solid
 62
     7
370
    25
100
AcDbCircle
 10
44.1834853631
 20
22.4358602646
 30
0.0
 40
0.2305207211358015
100
AcDbArc
 50
122.60547834
 51
177.3945215143
  0
LINE
  5
2BB
330
1F
100
AcDbEntity
  8
0
  6
SLD-Solid
 62
     7
370
    25
100
AcDbLine
 10
44.4198934234
 20
22.8382351911
 30
0.0
 11
44.059268965
 21
22.6300511226
 31
0.0
  0
LINE
  5
2BC
330
1F
100
AcDbEntity
  8
0
  6
SLD-Solid
 62
     7
370
    25
100
AcDbLine
 10
44.059268965
 20
21.6188354403
 30
0.0
 11
44.4198934234
 21
21.8270195088
 31
0.0
  0
ARC
  5
2BD
330
1F
100
AcDbEntity
  8
0
  6
SLD-Solid
 62
     7
370
    25
100
AcDbCircle
 10
44.017864103
 20
21.6695968742
 30
0.0
 40
0.0655063796142767
100
AcDbArc
 50
170.7859630095
 51
309.2032852357
  0
LINE
  5
2BE
330
1F
100
AcDbEntity
  8
0
  6
SLD-Solid
 62
     7
370
    25
100
AcDbLine
 10
43.9532029479
 20
22.4463393925
 30
0.0
 11
43.9532029479
 21
21.6800859537
 31
0.0
  0
ARC
  5
2BF
330
1F
100
AcDbEntity
  8
0
  6
SLD-Solid
 62
     7
370
    25
100
AcDbCircle
 10
44.1339878884
 20
22.4644345485
 30
0.0
 40
0.2305207211358302
100
AcDbArc
 50
122.60547834
 51
177.3945215143
  0
LINE
  5
2C0
330
1F
100
AcDbEntity
  8
0
  6
SLD-Solid
 62
     7
370
    25
100
AcDbLine
 10
43.9037054732
 20
22.4749136764
 30
0.0
 11
43.9037054732
 21
21.7086602376
 31
0.0
  0
LINE
  5
2C1
330
1F
100
AcDbEntity
  8
0
  6
SLD-Solid
 62
     7
370
    25
100
AcDbLine
 10
44.3703959488
 20
22.8668094751
 30
0.0
 11
44.0097714904
 21
22.6586254065
 31
0.0
  0
ARC
  5
2C2
330
1F
100
AcDbEntity
  8
0
  6
SLD-Solid
 62
     7
370
    25
100
AcDbCircle
 10
44.3982036397
 20
22.895383759
 30
0.0
 40
0.0611261443567938
100
AcDbArc
 50
290.7834207995
 51
69.2165792005
  0
ARC
  5
2C3
330
1F
100
AcDbEntity
  8
0
  6
SLD-Solid
 62
     7
370
    25
100
AcDbCircle
 10
44.3595510569
 20
22.895383759
 30
0.0
 40
0.0305630721784078
100
AcDbArc
 50
290.7834207995
 51
69.2165792005
  0
ARC
  5
2C4
330
1F
100
AcDbEntity
  8
0
  6
SLD-Solid
 62
     7
370
    25
100
AcDbCircle
 10
44.3908344853
 20
21.8911549694
 30
0.0
 40
0.0704114989891122
100
AcDbArc
 50
294.3746582936
 51
354.3052007488
  0
LINE
  5
2C5
330
1F
100
AcDbEntity
  8
0
  6
SLD-Solid
 62
     7
370
    25
100
AcDbLine
 10
44.3703959488
 20
22.9239580429
 30
0.0
 11
42.6514005725
 21
23.9163129508
 31
0.0
  0
LINE
  5
2C6
330
1F
100
AcDbEntity
  8
0
  6
SLD-Solid
 62
     7
370
    25
100
AcDbLine
 10
44.4198934234
 20
22.9525323268
 30
0.0
 11
42.7008980472
 21
23.9448872347
 31
0.0
  0
ARC
  5
2C7
330
1F
100
AcDbEntity
  8
0
  6
SLD-Solid
 62
     7
370
    25
100
AcDbCircle
 10
43.9772057585
 20
21.700547227
 30
0.0
 40
0.0739466895137432
100
AcDbArc
 50
173.7011524877
 51
234.9866671189
  0
ARC
  5
2C8
330
1F
100
AcDbEntity
  8
0
  6
SLD-Solid
 62
     7
370
    25
100
AcDbCircle
 10
42.2452868846
 20
23.4731176186
 30
0.0
 40
0.2305207211358154
100
AcDbArc
 50
122.60547834
 51
177.3945215143
  0
LINE
  5
2C9
330
1F
100
AcDbEntity
  8
0
  6
SLD-Solid
 62
     7
370
    25
100
AcDbLine
 10
42.1210704866
 20
23.6673084766
 30
0.0
 11
42.5524056231
 21
23.9163129508
 31
0.0
  0
LINE
  5
2CA
330
1F
100
AcDbEntity
  8
0
  6
SLD-Solid
 62
     7
370
    25
100
AcDbLine
 10
42.4813342323
 20
22.8640686278
 30
0.0
 11
42.1210704866
 21
22.6560927943
 31
0.0
  0
ARC
  5
2CB
330
1F
100
AcDbEntity
  8
0
  6
SLD-Solid
 62
     7
370
    25
100
AcDbCircle
 10
42.0796656245
 20
22.7068542282
 30
0.0
 40
0.065506379614277
100
AcDbArc
 50
170.7859630095
 51
309.2032852357
  0
LINE
  5
2CC
330
1F
100
AcDbEntity
  8
0
  6
SLD-Solid
 62
     7
370
    25
100
AcDbLine
 10
42.0150044694
 20
23.4835967465
 30
0.0
 11
42.0150044694
 21
22.7173433077
 31
0.0
  0
ARC
  5
2CD
330
1F
100
AcDbEntity
  8
0
  6
SLD-Solid
 62
     7
370
    25
100
AcDbCircle
 10
42.1957894099
 20
23.5016919026
 30
0.0
 40
0.2305207211357614
100
AcDbArc
 50
122.60547834
 51
177.3945215144
  0
LINE
  5
2CE
330
1F
100
AcDbEntity
  8
0
  6
SLD-Solid
 62
     7
370
    25
100
AcDbLine
 10
41.9655069947
 20
23.5121710304
 30
0.0
 11
41.9655069947
 21
22.7459175916
 31
0.0
  0
LINE
  5
2CF
330
1F
100
AcDbEntity
  8
0
  6
SLD-Solid
 62
     7
370
    25
100
AcDbLine
 10
42.0715730119
 20
23.6958827606
 30
0.0
 11
42.5029081484
 21
23.9448872347
 31
0.0
  0
ARC
  5
2D0
330
1F
100
AcDbEntity
  8
0
  6
SLD-Solid
 62
     7
370
    25
100
AcDbCircle
 10
42.6019030978
 20
23.7538276828
 30
0.0
 40
0.2151830671076225
100
AcDbArc
 50
62.6096722366
 51
117.3903277634
  0
ARC
  5
2D1
330
1F
100
AcDbEntity
  8
0
  6
SLD-Solid
 62
     7
370
    25
100
AcDbCircle
 10
42.6019030978
 20
23.8207831748
 30
0.0
 40
0.1075915335538396
100
AcDbArc
 50
62.6096722366
 51
117.3903277634
  0
ARC
  5
2D2
330
1F
100
AcDbEntity
  8
0
  6
SLD-Solid
 62
     7
370
    25
100
AcDbCircle
 10
42.0390072801
 20
22.737804581
 30
0.0
 40
0.0739466894976807
100
AcDbArc
 50
173.7011524804
 51
234.9866671263
  0
ARC
  5
2D3
330
1F
100
AcDbEntity
  8
0
  6
SLD-Solid
 62
     7
370
    25
100
AcDbCircle
 10
29.5096110119
 20
30.9069076162
 30
0.0
 40
0.2305207211358047
100
AcDbArc
 50
122.60547834
 51
177.3945215143
  0
ARC
  5
2D4
330
1F
100
AcDbEntity
  8
0
  6
SLD-Solid
 62
     7
370
    25
100
AcDbCircle
 10
29.5591084866
 20
30.8783333323
 30
0.0
 40
0.2305207211358013
100
AcDbArc
 50
122.60547834
 51
177.3945215143
  0
LINE
  5
2D5
330
1F
100
AcDbEntity
  8
0
  6
SLD-Solid
 62
     7
370
    25
100
AcDbLine
 10
29.7955165469
 20
31.2807082589
 30
0.0
 11
29.4348920885
 21
31.0725241903
 31
0.0
  0
LINE
  5
2D6
330
1F
100
AcDbEntity
  8
0
  6
SLD-Solid
 62
     7
370
    25
100
AcDbLine
 10
29.4348920885
 20
30.061308508
 30
0.0
 11
29.7955165469
 21
30.2694925765
 31
0.0
  0
ARC
  5
2D7
330
1F
100
AcDbEntity
  8
0
  6
SLD-Solid
 62
     7
370
    25
100
AcDbCircle
 10
29.3934872265
 20
30.1120699419
 30
0.0
 40
0.065506379614272
100
AcDbArc
 50
170.7859630095
 51
309.2032852357
  0
LINE
  5
2D8
330
1F
100
AcDbEntity
  8
0
  6
SLD-Solid
 62
     7
370
    25
100
AcDbLine
 10
29.3288260714
 20
30.8888124602
 30
0.0
 11
29.3288260714
 21
30.1225590214
 31
0.0
  0
LINE
  5
2D9
330
1F
100
AcDbEntity
  8
0
  6
SLD-Solid
 62
     7
370
    25
100
AcDbLine
 10
29.2793285967
 20
30.9173867441
 30
0.0
 11
29.2793285967
 21
30.1511333053
 31
0.0
  0
LINE
  5
2DA
330
1F
100
AcDbEntity
  8
0
  6
SLD-Solid
 62
     7
370
    25
100
AcDbLine
 10
29.7460190723
 20
31.3092825428
 30
0.0
 11
29.3853946139
 21
31.1010984743
 31
0.0
  0
ARC
  5
2DB
330
1F
100
AcDbEntity
  8
0
  6
SLD-Solid
 62
     7
370
    25
100
AcDbCircle
 10
29.7664576088
 20
30.3336280371
 30
0.0
 40
0.0704114989891352
100
AcDbArc
 50
294.3746582936
 51
354.3052007488
  0
ARC
  5
2DC
330
1F
100
AcDbEntity
  8
0
  6
SLD-Solid
 62
     7
370
    25
100
AcDbCircle
 10
29.7738267632
 20
31.3378568267
 30
0.0
 40
0.0611261443567951
100
AcDbArc
 50
290.7834207995
 51
69.2165792005
  0
ARC
  5
2DD
330
1F
100
AcDbEntity
  8
0
  6
SLD-Solid
 62
     7
370
    25
100
AcDbCircle
 10
29.7351741804
 20
31.3378568267
 30
0.0
 40
0.030563072178404
100
AcDbArc
 50
290.7834207995
 51
69.2165792005
  0
LINE
  5
2DE
330
1F
100
AcDbEntity
  8
0
  6
SLD-Solid
 62
     7
370
    25
100
AcDbLine
 10
29.7460190723
 20
31.3664311106
 30
0.0
 11
28.027023696
 21
32.3587860185
 31
0.0
  0
LINE
  5
2DF
330
1F
100
AcDbEntity
  8
0
  6
SLD-Solid
 62
     7
370
    25
100
AcDbLine
 10
29.7955165469
 20
31.3950053945
 30
0.0
 11
28.0765211707
 21
32.3873603024
 31
0.0
  0
ARC
  5
2E0
330
1F
100
AcDbEntity
  8
0
  6
SLD-Solid
 62
     7
370
    25
100
AcDbCircle
 10
29.352828882
 20
30.1430202947
 30
0.0
 40
0.0739466895057149
100
AcDbArc
 50
173.7011524841
 51
234.9866671226
  0
ARC
  5
2E1
330
1F
100
AcDbEntity
  8
0
  6
SLD-Solid
 62
     7
370
    25
100
AcDbCircle
 10
27.6209100081
 20
31.9155906863
 30
0.0
 40
0.230520721135812
100
AcDbArc
 50
122.60547834
 51
177.3945215143
  0
LINE
  5
2E2
330
1F
100
AcDbEntity
  8
0
  6
SLD-Solid
 62
     7
370
    25
100
AcDbLine
 10
27.4966936101
 20
32.1097815444
 30
0.0
 11
27.9280287466
 21
32.3587860185
 31
0.0
  0
LINE
  5
2E3
330
1F
100
AcDbEntity
  8
0
  6
SLD-Solid
 62
     7
370
    25
100
AcDbLine
 10
27.8569573558
 20
31.3065416955
 30
0.0
 11
27.4966936101
 21
31.098565862
 31
0.0
  0
ARC
  5
2E4
330
1F
100
AcDbEntity
  8
0
  6
SLD-Solid
 62
     7
370
    25
100
AcDbCircle
 10
27.455288748
 20
31.1493272959
 30
0.0
 40
0.0655063796142748
100
AcDbArc
 50
170.7859630095
 51
309.2032852357
  0
LINE
  5
2E5
330
1F
100
AcDbEntity
  8
0
  6
SLD-Solid
 62
     7
370
    25
100
AcDbLine
 10
27.3906275929
 20
31.9260698142
 30
0.0
 11
27.3906275929
 21
31.1598163754
 31
0.0
  0
ARC
  5
2E6
330
1F
100
AcDbEntity
  8
0
  6
SLD-Solid
 62
     7
370
    25
100
AcDbCircle
 10
27.5714125334
 20
31.9441649703
 30
0.0
 40
0.2305207211357868
100
AcDbArc
 50
122.60547834
 51
177.3945215143
  0
LINE
  5
2E7
330
1F
100
AcDbEntity
  8
0
  6
SLD-Solid
 62
     7
370
    25
100
AcDbLine
 10
27.3411301182
 20
31.9546440981
 30
0.0
 11
27.3411301182
 21
31.1883906594
 31
0.0
  0
LINE
  5
2E8
330
1F
100
AcDbEntity
  8
0
  6
SLD-Solid
 62
     7
370
    25
100
AcDbLine
 10
27.4471961354
 20
32.1383558283
 30
0.0
 11
27.8785312719
 21
32.3873603024
 31
0.0
  0
ARC
  5
2E9
330
1F
100
AcDbEntity
  8
0
  6
SLD-Solid
 62
     7
370
    25
100
AcDbCircle
 10
27.9775262213
 20
32.2632562425
 30
0.0
 40
0.1075915335538365
100
AcDbArc
 50
62.6096722366
 51
117.3903277634
  0
ARC
  5
2EA
330
1F
100
AcDbEntity
  8
0
  6
SLD-Solid
 62
     7
370
    25
100
AcDbCircle
 10
27.9775262213
 20
32.1963007505
 30
0.0
 40
0.2151830671076872
100
AcDbArc
 50
62.6096722366
 51
117.3903277634
  0
ARC
  5
2EB
330
1F
100
AcDbEntity
  8
0
  6
SLD-Solid
 62
     7
370
    25
100
AcDbCircle
 10
27.4146304036
 20
31.1802776488
 30
0.0
 40
0.0739466894977133
100
AcDbArc
 50
173.7011524804
 51
234.9866671262
  0
ARC
  5
2EC
330
1F
100
AcDbEntity
  8
0
  6
SLD-Solid
 62
     7
370
    25
100
AcDbCircle
 10
36.8712969248
 20
26.6570967985
 30
0.0
 40
0.2305207211358446
100
AcDbArc
 50
122.60547834
 51
177.3945215143
  0
LINE
  5
2ED
330
1F
100
AcDbEntity
  8
0
  6
SLD-Solid
 62
     7
370
    25
100
AcDbLine
 10
37.1077049852
 20
27.059471725
 30
0.0
 11
36.7470805268
 21
26.8512876565
 31
0.0
  0
LINE
  5
2EE
330
1F
100
AcDbEntity
  8
0
  6
SLD-Solid
 62
     7
370
    25
100
AcDbLine
 10
36.7470805268
 20
25.8400719742
 30
0.0
 11
37.1077049852
 21
26.0482560427
 31
0.0
  0
ARC
  5
2EF
330
1F
100
AcDbEntity
  8
0
  6
SLD-Solid
 62
     7
370
    25
100
AcDbCircle
 10
36.7056756647
 20
25.890833408
 30
0.0
 40
0.0655063796142767
100
AcDbArc
 50
170.7859630095
 51
309.2032852357
  0
LINE
  5
2F0
330
1F
100
AcDbEntity
  8
0
  6
SLD-Solid
 62
     7
370
    25
100
AcDbLine
 10
36.6410145096
 20
26.6675759263
 30
0.0
 11
36.6410145096
 21
25.9013224876
 31
0.0
  0
ARC
  5
2F1
330
1F
100
AcDbEntity
  8
0
  6
SLD-Solid
 62
     7
370
    25
100
AcDbCircle
 10
36.8217994501
 20
26.6856710824
 30
0.0
 40
0.2305207211358084
100
AcDbArc
 50
122.60547834
 51
177.3945215143
  0
LINE
  5
2F2
330
1F
100
AcDbEntity
  8
0
  6
SLD-Solid
 62
     7
370
    25
100
AcDbLine
 10
36.5915170349
 20
26.6961502102
 30
0.0
 11
36.5915170349
 21
25.9298967715
 31
0.0
  0
LINE
  5
2F3
330
1F
100
AcDbEntity
  8
0
  6
SLD-Solid
 62
     7
370
    25
100
AcDbLine
 10
37.0582075105
 20
27.0880460089
 30
0.0
 11
36.6975830521
 21
26.8798619404
 31
0.0
  0
ARC
  5
2F4
330
1F
100
AcDbEntity
  8
0
  6
SLD-Solid
 62
     7
370
    25
100
AcDbCircle
 10
37.0860152014
 20
27.1166202928
 30
0.0
 40
0.0611261443567963
100
AcDbArc
 50
290.7834207995
 51
69.2165792005
  0
ARC
  5
2F5
330
1F
100
AcDbEntity
  8
0
  6
SLD-Solid
 62
     7
370
    25
100
AcDbCircle
 10
37.0473626186
 20
27.1166202928
 30
0.0
 40
0.0305630721783944
100
AcDbArc
 50
290.7834207994
 51
69.2165792006
  0
ARC
  5
2F6
330
1F
100
AcDbEntity
  8
0
  6
SLD-Solid
 62
     7
370
    25
100
AcDbCircle
 10
37.0786460471
 20
26.1123915033
 30
0.0
 40
0.070411498989106
100
AcDbArc
 50
294.3746582936
 51
354.3052007488
  0
LINE
  5
2F7
330
1F
100
AcDbEntity
  8
0
  6
SLD-Solid
 62
     7
370
    25
100
AcDbLine
 10
37.1077049852
 20
27.1737688607
 30
0.0
 11
35.3887096089
 21
28.1661237685
 31
0.0
  0
LINE
  5
2F8
330
1F
100
AcDbEntity
  8
0
  6
SLD-Solid
 62
     7
370
    25
100
AcDbLine
 10
37.0582075105
 20
27.1451945767
 30
0.0
 11
35.3392121342
 21
28.1375494846
 31
0.0
  0
ARC
  5
2F9
330
1F
100
AcDbEntity
  8
0
  6
SLD-Solid
 62
     7
370
    25
100
AcDbCircle
 10
36.6650173203
 20
25.9217837609
 30
0.0
 40
0.0739466894976947
100
AcDbArc
 50
173.7011524804
 51
234.9866671263
  0
ARC
  5
2FA
330
1F
100
AcDbEntity
  8
0
  6
SLD-Solid
 62
     7
370
    25
100
AcDbCircle
 10
34.9330984464
 20
27.6943541525
 30
0.0
 40
0.2305207211357781
100
AcDbArc
 50
122.60547834
 51
177.3945215143
  0
LINE
  5
2FB
330
1F
100
AcDbEntity
  8
0
  6
SLD-Solid
 62
     7
370
    25
100
AcDbLine
 10
34.8088820483
 20
27.8885450105
 30
0.0
 11
35.2402171849
 21
28.1375494846
 31
0.0
  0
LINE
  5
2FC
330
1F
100
AcDbEntity
  8
0
  6
SLD-Solid
 62
     7
370
    25
100
AcDbLine
 10
35.169145794
 20
27.0853051617
 30
0.0
 11
34.8088820483
 21
26.8773293282
 31
0.0
  0
ARC
  5
2FD
330
1F
100
AcDbEntity
  8
0
  6
SLD-Solid
 62
     7
370
    25
100
AcDbCircle
 10
34.7674771863
 20
26.9280907621
 30
0.0
 40
0.0655063796142708
100
AcDbArc
 50
170.7859630095
 51
309.2032852357
  0
LINE
  5
2FE
330
1F
100
AcDbEntity
  8
0
  6
SLD-Solid
 62
     7
370
    25
100
AcDbLine
 10
34.7028160312
 20
27.7048332803
 30
0.0
 11
34.7028160312
 21
26.9385798416
 31
0.0
  0
ARC
  5
2FF
330
1F
100
AcDbEntity
  8
0
  6
SLD-Solid
 62
     7
370
    25
100
AcDbCircle
 10
34.8836009717
 20
27.7229284364
 30
0.0
 40
0.2305207211358086
100
AcDbArc
 50
122.60547834
 51
177.3945215143
  0
LINE
  5
300
330
1F
100
AcDbEntity
  8
0
  6
SLD-Solid
 62
     7
370
    25
100
AcDbLine
 10
34.6533185565
 20
27.7334075642
 30
0.0
 11
34.6533185565
 21
26.9671541255
 31
0.0
  0
LINE
  5
301
330
1F
100
AcDbEntity
  8
0
  6
SLD-Solid
 62
     7
370
    25
100
AcDbLine
 10
34.7593845736
 20
27.9171192944
 30
0.0
 11
35.1907197102
 21
28.1661237685
 31
0.0
  0
ARC
  5
302
330
1F
100
AcDbEntity
  8
0
  6
SLD-Solid
 62
     7
370
    25
100
AcDbCircle
 10
35.2897146595
 20
28.0420197087
 30
0.0
 40
0.1075915335538555
100
AcDbArc
 50
62.6096722366
 51
117.3903277634
  0
ARC
  5
303
330
1F
100
AcDbEntity
  8
0
  6
SLD-Solid
 62
     7
370
    25
100
AcDbCircle
 10
35.2897146595
 20
27.9750642166
 30
0.0
 40
0.215183067107673
100
AcDbArc
 50
62.6096722366
 51
117.3903277634
  0
ARC
  5
304
330
1F
100
AcDbEntity
  8
0
  6
SLD-Solid
 62
     7
370
    25
100
AcDbCircle
 10
34.7268188418
 20
26.9590411149
 30
0.0
 40
0.0739466895137763
100
AcDbArc
 50
173.7011524877
 51
234.9866671189
  0
LWPOLYLINE
  5
305
330
1F
100
AcDbEntity
  8
0
  6
SLD-Solid
 62
     7
370
    25
100
AcDbPolyline
 90
       10
 70
   128
 43
0.0
 10
29.4720484184
 20
31.2589028859
 10
29.4641066048
 20
31.2932228222
 10
29.4469152024
 20
31.3271094166
 10
29.4230914464
 20
31.3554037424
 10
29.3962622877
 20
31.373798245
 10
29.3705122225
 20
31.379492528
 10
29.3497614648
 20
31.3716196885
 10
29.3371691293
 20
31.3513782949
 10
29.334652285
 20
31.321849916
 10
29.3421146975
 20
31.288849353
  0
LWPOLYLINE
  5
306
330
1F
100
AcDbEntity
  8
0
  6
SLD-Solid
 62
     7
370
    25
100
AcDbPolyline
 90
        5
 70
   128
 43
0.0
 10
29.4282754448
 20
31.2016113418
 10
29.4361884809
 20
31.2012602739
 10
29.4569392387
 20
31.2091331134
 10
29.4695315741
 20
31.2293745069
 10
29.4720484184
 20
31.2589028859
  0
LINE
  5
307
330
1F
100
AcDbEntity
  8
0
  6
SLD-Solid
 62
     7
370
    25
100
AcDbLine
 10
29.5582043897
 20
31.2413959551
 30
0.0
 11
29.557015782
 21
31.2001732657
 31
0.0
  0
LWPOLYLINE
  5
308
330
1F
100
AcDbEntity
  8
0
  6
SLD-Solid
 62
     7
370
    25
100
AcDbPolyline
 90
       15
 70
   128
 43
0.0
 10
29.2941689005
 20
31.3405284713
 10
29.2940450152
 20
31.3411812179
 10
29.290289902
 20
31.3853764272
 10
29.2964932513
 20
31.423434158
 10
29.3121949892
 20
31.4525318425
 10
29.3362305896
 20
31.4705114385
 10
29.3668174419
 20
31.4760394816
 10
29.4016870593
 20
31.4687059823
 10
29.4382533218
 20
31.4490548325
 10
29.4738042768
 20
31.4185434681
 10
29.5057032729
 20
31.3794347776
 10
29.5315845072
 20
31.3346292735
 10
29.5495284871
 20
31.2874499751
 10
29.5582043897
 20
31.2413959551
 10
29.5582043897
 20
31.2413959551
  0
LWPOLYLINE
  5
309
330
1F
100
AcDbEntity
  8
0
  6
SLD-Solid
 62
     7
370
    25
100
AcDbPolyline
 90
       11
 70
   128
 43
0.0
 10
29.5782289854
 20
31.2124193874
 10
29.5794175931
 20
31.2536420768
 10
29.5707416905
 20
31.2996960967
 10
29.5527977106
 20
31.3468753951
 10
29.5269164763
 20
31.3916808993
 10
29.4950174803
 20
31.4307895898
 10
29.4594665252
 20
31.4613009541
 10
29.4229002628
 20
31.4809521039
 10
29.3880306454
 20
31.4882856033
 10
29.357443793
 20
31.4827575602
 10
29.350784479
 20
31.4794179281
  0
LWPOLYLINE
  5
30A
330
1F
100
AcDbEntity
  8
0
  6
SLD-Solid
 62
     7
370
    25
100
AcDbPolyline
 90
       17
 70
   128
 43
0.0
 10
29.4455527205
 20
31.2710416954
 10
29.4406739319
 20
31.292125005
 10
29.4301129665
 20
31.3129421055
 10
29.4154776356
 20
31.330323782
 10
29.3989960357
 20
31.3416238319
 10
29.383177341
 20
31.3451219249
 10
29.3704298042
 20
31.3402855083
 10
29.3626941224
 20
31.3278508824
 10
29.3611479829
 20
31.3097111065
 10
29.3660267716
 20
31.2886277969
 10
29.3765877369
 20
31.2678106964
 10
29.3912230678
 20
31.2504290199
 10
29.4077046677
 20
31.23912897
 10
29.4235233625
 20
31.2356308769
 10
29.4362708993
 20
31.2404672936
 10
29.4440065811
 20
31.2529019195
 10
29.4455527205
 20
31.2710416954
  0
LWPOLYLINE
  5
30B
330
1F
100
AcDbEntity
  8
0
  6
SLD-Solid
 62
     7
370
    25
100
AcDbPolyline
 90
       17
 70
   128
 43
0.0
 10
43.3895733501
 20
23.211805235
 10
43.3858147401
 20
23.2447881973
 10
43.37213089
 20
23.2794944039
 10
43.3506050419
 20
23.3106401495
 10
43.3245143111
 20
23.3334837767
 10
43.2978307747
 20
23.3445475503
 10
43.2746167594
 20
23.3421471111
 10
43.2584063885
 20
23.3266479041
 10
43.251667544
 20
23.3004095432
 10
43.2554261539
 20
23.267426581
 10
43.269110004
 20
23.2327203744
 10
43.2906358521
 20
23.2015746287
 10
43.316726583
 20
23.1787310016
 10
43.3434101194
 20
23.167667228
 10
43.3666241347
 20
23.1700676672
 10
43.3828345056
 20
23.1855668741
 10
43.3895733501
 20
23.211805235
  0
LWPOLYLINE
  5
30C
330
1F
100
AcDbEntity
  8
0
  6
SLD-Solid
 62
     7
370
    25
100
AcDbPolyline
 90
        3
 70
   128
 43
0.0
 10
43.4759702274
 20
23.1821709276
 10
43.4689524026
 20
23.144756169
 10
43.4559054497
 20
23.120540537
  0
LWPOLYLINE
  5
30D
330
1F
100
AcDbEntity
  8
0
  6
SLD-Solid
 62
     7
370
    25
100
AcDbPolyline
 90
       20
 70
   128
 43
0.0
 10
43.3543049621
 20
23.1066810864
 10
43.3251226309
 20
23.1240626362
 10
43.2897765373
 20
23.1553822789
 10
43.2582912816
 20
23.1950804811
 10
43.2330019812
 20
23.2402130087
 10
43.2157842279
 20
23.2874325886
 10
43.2079149836
 20
23.3332371605
 10
43.2099778741
 20
23.374229609
 10
43.2218199044
 20
23.4073697117
 10
43.2425628053
 20
23.4301996186
 10
43.2706681706
 20
23.4410261402
 10
43.3040515539
 20
23.4390463228
 10
43.3402370626
 20
23.4244070003
 10
43.3765409828
 20
23.3981939045
 10
43.410270819
 20
23.3623511406
 10
43.4389249835
 20
23.3195370025
 10
43.4603783279
 20
23.272926819
 10
43.473039756
 20
23.2259774542
 10
43.4759702274
 20
23.1821709276
 10
43.4759702274
 20
23.1821709276
  0
LWPOLYLINE
  5
30E
330
1F
100
AcDbEntity
  8
0
  6
SLD-Solid
 62
     7
370
    25
100
AcDbPolyline
 90
       10
 70
   128
 43
0.0
 10
43.4971834309
 20
23.1944170493
 10
43.4942529594
 20
23.2382235759
 10
43.4815915314
 20
23.2851729407
 10
43.4601381869
 20
23.3317831242
 10
43.4314840224
 20
23.3745972623
 10
43.3977541862
 20
23.4104400262
 10
43.361450266
 20
23.436653122
 10
43.3252647574
 20
23.4512924444
 10
43.291881374
 20
23.4532722619
 10
43.2680545743
 20
23.4451489163
  0
ARC
  5
30F
330
1F
100
AcDbEntity
  8
0
  6
SLD-Solid
 62
     7
370
    25
100
AcDbCircle
 10
43.4012245449
 20
23.1918147361
 30
0.0
 40
0.0959941655551604
100
AcDbArc
 50
317.0691666112
 51
1.5534259955
  0
LWPOLYLINE
  5
310
330
1F
100
AcDbEntity
  8
0
  6
SLD-Solid
 62
     7
370
    25
100
AcDbPolyline
 90
       17
 70
   128
 43
0.0
 10
43.3629793661
 20
23.2288918365
 10
43.3606703893
 20
23.2491538207
 10
43.3522641718
 20
23.2704744226
 10
43.3390404841
 20
23.2896077739
 10
43.3230125127
 20
23.3036409953
 10
43.306620371
 20
23.310437656
 10
43.292359614
 20
23.3089630262
 10
43.2824013126
 20
23.2994416047
 10
43.278261528
 20
23.2833229417
 10
43.2805705048
 20
23.2630609576
 10
43.2889767223
 20
23.2417403557
 10
43.30220041
 20
23.2226070044
 10
43.3182283814
 20
23.208573783
 10
43.3346205231
 20
23.2017771222
 10
43.3488812801
 20
23.2032517521
 10
43.3588395815
 20
23.2127731736
 10
43.3629793661
 20
23.2288918365
  0
LWPOLYLINE
  5
311
330
1F
100
AcDbEntity
  8
0
  6
SLD-Solid
 62
     7
370
    25
100
AcDbPolyline
 90
       17
 70
   128
 43
0.0
 10
28.7651964736
 20
31.6542783027
 10
28.7614378636
 20
31.687261265
 10
28.7477540135
 20
31.7219674716
 10
28.7262281654
 20
31.7531132172
 10
28.7001374346
 20
31.7759568444
 10
28.6734538982
 20
31.787020618
 10
28.6502398829
 20
31.7846201788
 10
28.634029512
 20
31.7691209719
 10
28.6272906675
 20
31.742882611
 10
28.6310492774
 20
31.7098996487
 10
28.6447331275
 20
31.6751934421
 10
28.6662589756
 20
31.6440476965
 10
28.6923497065
 20
31.6212040693
 10
28.7190332429
 20
31.6101402957
 10
28.7422472582
 20
31.6125407349
 10
28.7584576291
 20
31.6280399418
 10
28.7651964736
 20
31.6542783027
  0
LWPOLYLINE
  5
312
330
1F
100
AcDbEntity
  8
0
  6
SLD-Solid
 62
     7
370
    25
100
AcDbPolyline
 90
        3
 70
   128
 43
0.0
 10
28.8515933509
 20
31.6246439953
 10
28.8445755261
 20
31.5872292367
 10
28.8315285732
 20
31.5630136047
  0
LWPOLYLINE
  5
313
330
1F
100
AcDbEntity
  8
0
  6
SLD-Solid
 62
     7
370
    25
100
AcDbPolyline
 90
       20
 70
   128
 43
0.0
 10
28.7299280856
 20
31.5491541541
 10
28.7007457544
 20
31.5665357039
 10
28.6653996608
 20
31.5978553466
 10
28.6339144051
 20
31.6375535488
 10
28.6086251047
 20
31.6826860764
 10
28.5914073514
 20
31.7299056563
 10
28.5835381071
 20
31.7757102282
 10
28.5856009976
 20
31.8167026767
 10
28.5974430279
 20
31.8498427794
 10
28.6181859288
 20
31.8726726864
 10
28.6462912941
 20
31.8834992079
 10
28.6796746774
 20
31.8815193905
 10
28.7158601861
 20
31.866880068
 10
28.7521641063
 20
31.8406669722
 10
28.7858939425
 20
31.8048242083
 10
28.814548107
 20
31.7620100703
 10
28.8360014514
 20
31.7153998868
 10
28.8486628795
 20
31.6684505219
 10
28.8515933509
 20
31.6246439953
 10
28.8515933509
 20
31.6246439953
  0
LWPOLYLINE
  5
314
330
1F
100
AcDbEntity
  8
0
  6
SLD-Solid
 62
     7
370
    25
100
AcDbPolyline
 90
       10
 70
   128
 43
0.0
 10
28.8728065544
 20
31.636890117
 10
28.8698760829
 20
31.6806966436
 10
28.8572146549
 20
31.7276460084
 10
28.8357613104
 20
31.7742561919
 10
28.8071071459
 20
31.81707033
 10
28.7733773097
 20
31.8529130939
 10
28.7370733895
 20
31.8791261897
 10
28.7008878809
 20
31.8937655122
 10
28.6675044975
 20
31.8957453296
 10
28.6436776978
 20
31.887621984
  0
ARC
  5
315
330
1F
100
AcDbEntity
  8
0
  6
SLD-Solid
 62
     7
370
    25
100
AcDbCircle
 10
28.7768476684
 20
31.6342878038
 30
0.0
 40
0.0959941655550461
100
AcDbArc
 50
317.0691666112
 51
1.5534259956
  0
LWPOLYLINE
  5
316
330
1F
100
AcDbEntity
  8
0
  6
SLD-Solid
 62
     7
370
    25
100
AcDbPolyline
 90
       17
 70
   128
 43
0.0
 10
28.7386024896
 20
31.6713649043
 10
28.7362935128
 20
31.6916268884
 10
28.7278872953
 20
31.7129474903
 10
28.7146636076
 20
31.7320808416
 10
28.6986356362
 20
31.746114063
 10
28.6822434945
 20
31.7529107237
 10
28.6679827375
 20
31.7514360939
 10
28.6580244361
 20
31.7419146724
 10
28.6538846515
 20
31.7257960094
 10
28.6561936283
 20
31.7055340253
 10
28.6645998458
 20
31.6842134234
 10
28.6778235335
 20
31.6650800721
 10
28.6938515049
 20
31.6510468507
 10
28.7102436466
 20
31.6442501899
 10
28.7245044036
 20
31.6457248198
 10
28.734462705
 20
31.6552462413
 10
28.7386024896
 20
31.6713649043
  0
LWPOLYLINE
  5
317
330
1F
100
AcDbEntity
  8
0
  6
SLD-Solid
 62
     7
370
    25
100
AcDbPolyline
 90
       10
 70
   128
 43
0.0
 10
36.7842368567
 20
27.037666352
 10
36.7762950431
 20
27.0719862883
 10
36.7591036407
 20
27.1058728828
 10
36.7352798847
 20
27.1341672086
 10
36.708450726
 20
27.1525617111
 10
36.6827006608
 20
27.1582559941
 10
36.6619499031
 20
27.1503831546
 10
36.6493575676
 20
27.1301417611
 10
36.6468407233
 20
27.1006133821
 10
36.6543031358
 20
27.0676128192
  0
LWPOLYLINE
  5
318
330
1F
100
AcDbEntity
  8
0
  6
SLD-Solid
 62
     7
370
    25
100
AcDbPolyline
 90
        5
 70
   128
 43
0.0
 10
36.740463883
 20
26.9803748079
 10
36.7483769192
 20
26.98002374
 10
36.7691276769
 20
26.9878965795
 10
36.7817200124
 20
27.0081379731
 10
36.7842368567
 20
27.037666352
  0
LINE
  5
319
330
1F
100
AcDbEntity
  8
0
  6
SLD-Solid
 62
     7
370
    25
100
AcDbLine
 10
36.8703928279
 20
27.0201594212
 30
0.0
 11
36.8692042202
 21
26.9789367319
 31
0.0
  0
LWPOLYLINE
  5
31A
330
1F
100
AcDbEntity
  8
0
  6
SLD-Solid
 62
     7
370
    25
100
AcDbPolyline
 90
       15
 70
   128
 43
0.0
 10
36.6063573387
 20
27.1192919375
 10
36.6062334535
 20
27.119944684
 10
36.6024783402
 20
27.1641398934
 10
36.6086816896
 20
27.2021976242
 10
36.6243834275
 20
27.2312953086
 10
36.6484190278
 20
27.2492749046
 10
36.6790058802
 20
27.2548029478
 10
36.7138754976
 20
27.2474694484
 10
36.75044176
 20
27.2278182986
 10
36.7859927151
 20
27.1973069343
 10
36.8178917111
 20
27.1581982437
 10
36.8437729454
 20
27.1133927396
 10
36.8617169254
 20
27.0662134412
 10
36.8703928279
 20
27.0201594212
 10
36.8703928279
 20
27.0201594212
  0
LWPOLYLINE
  5
31B
330
1F
100
AcDbEntity
  8
0
  6
SLD-Solid
 62
     7
370
    25
100
AcDbPolyline
 90
       11
 70
   128
 43
0.0
 10
36.8904174236
 20
26.9911828536
 10
36.8916060314
 20
27.0324055429
 10
36.8829301288
 20
27.0784595629
 10
36.8649861489
 20
27.1256388613
 10
36.8391049145
 20
27.1704443654
 10
36.8072059185
 20
27.209553056
 10
36.7716549635
 20
27.2400644203
 10
36.735088701
 20
27.2597155701
 10
36.7002190836
 20
27.2670490695
 10
36.6696322313
 20
27.2615210263
 10
36.6629729173
 20
27.2581813943
  0
LWPOLYLINE
  5
31C
330
1F
100
AcDbEntity
  8
0
  6
SLD-Solid
 62
     7
370
    25
100
AcDbPolyline
 90
       17
 70
   128
 43
0.0
 10
36.7577411588
 20
27.0498051615
 10
36.7528623701
 20
27.0708884711
 10
36.7423014048
 20
27.0917055716
 10
36.7276660739
 20
27.1090872481
 10
36.711184474
 20
27.120387298
 10
36.6953657792
 20
27.1238853911
 10
36.6826182425
 20
27.1190489744
 10
36.6748825606
 20
27.1066143485
 10
36.6733364212
 20
27.0884745726
 10
36.6782152098
 20
27.067391263
 10
36.6887761752
 20
27.0465741625
 10
36.7034115061
 20
27.029192486
 10
36.719893106
 20
27.0178924361
 10
36.7357118008
 20
27.0143943431
 10
36.7484593375
 20
27.0192307597
 10
36.7561950193
 20
27.0316653856
 10
36.7577411588
 20
27.0498051615
  0
LWPOLYLINE
  5
31D
330
1F
100
AcDbEntity
  8
0
  6
SLD-Solid
 62
     7
370
    25
100
AcDbPolyline
 90
       17
 70
   128
 43
0.0
 10
36.0773849119
 20
27.4330417689
 10
36.0736263019
 20
27.4660247311
 10
36.0599424518
 20
27.5007309377
 10
36.0384166037
 20
27.5318766834
 10
36.0123258728
 20
27.5547203106
 10
35.9856423365
 20
27.5657840842
 10
35.9624283211
 20
27.5633836449
 10
35.9462179502
 20
27.547884438
 10
35.9394791057
 20
27.5216460771
 10
35.9432377157
 20
27.4886631148
 10
35.9569215658
 20
27.4539569082
 10
35.9784474139
 20
27.4228111626
 10
36.0045381448
 20
27.3999675354
 10
36.0312216811
 20
27.3889037618
 10
36.0544356965
 20
27.391304201
 10
36.0706460674
 20
27.406803408
 10
36.0773849119
 20
27.4330417689
  0
LWPOLYLINE
  5
31E
330
1F
100
AcDbEntity
  8
0
  6
SLD-Solid
 62
     7
370
    25
100
AcDbPolyline
 90
        3
 70
   128
 43
0.0
 10
36.1637817892
 20
27.4034074615
 10
36.1567639643
 20
27.3659927028
 10
36.1437170114
 20
27.3417770708
  0
LWPOLYLINE
  5
31F
330
1F
100
AcDbEntity
  8
0
  6
SLD-Solid
 62
     7
370
    25
100
AcDbPolyline
 90
       20
 70
   128
 43
0.0
 10
36.0421165239
 20
27.3279176202
 10
36.0129341927
 20
27.3452991701
 10
35.9775880991
 20
27.3766188128
 10
35.9461028434
 20
27.4163170149
 10
35.920813543
 20
27.4614495425
 10
35.9035957896
 20
27.5086691224
 10
35.8957265453
 20
27.5544736944
 10
35.8977894359
 20
27.5954661429
 10
35.9096314662
 20
27.6286062455
 10
35.930374367
 20
27.6514361525
 10
35.9584797323
 20
27.6622626741
 10
35.9918631157
 20
27.6602828566
 10
36.0280486243
 20
27.6456435342
 10
36.0643525446
 20
27.6194304383
 10
36.0980823807
 20
27.5835876745
 10
36.1267365452
 20
27.5407735364
 10
36.1481898897
 20
27.4941633529
 10
36.1608513177
 20
27.4472139881
 10
36.1637817892
 20
27.4034074615
 10
36.1637817892
 20
27.4034074615
  0
LWPOLYLINE
  5
320
330
1F
100
AcDbEntity
  8
0
  6
SLD-Solid
 62
     7
370
    25
100
AcDbPolyline
 90
       10
 70
   128
 43
0.0
 10
36.1849949926
 20
27.4156535831
 10
36.1820645212
 20
27.4594601097
 10
36.1694030931
 20
27.5064094746
 10
36.1479497487
 20
27.5530196581
 10
36.1192955842
 20
27.5958337961
 10
36.085565748
 20
27.63167656
 10
36.0492618277
 20
27.6578896559
 10
36.0130763191
 20
27.6725289783
 10
35.9796929357
 20
27.6745087957
 10
35.9558661361
 20
27.6663854502
  0
ARC
  5
321
330
1F
100
AcDbEntity
  8
0
  6
SLD-Solid
 62
     7
370
    25
100
AcDbCircle
 10
36.0890361067
 20
27.4130512699
 30
0.0
 40
0.0959941655550245
100
AcDbArc
 50
317.0691666112
 51
1.5534259956
  0
LWPOLYLINE
  5
322
330
1F
100
AcDbEntity
  8
0
  6
SLD-Solid
 62
     7
370
    25
100
AcDbPolyline
 90
       17
 70
   128
 43
0.0
 10
36.0507909278
 20
27.4501283704
 10
36.048481951
 20
27.4703903545
 10
36.0400757335
 20
27.4917109564
 10
36.0268520458
 20
27.5108443077
 10
36.0108240745
 20
27.5248775291
 10
35.9944319328
 20
27.5316741899
 10
35.9801711757
 20
27.53019956
 10
35.9702128744
 20
27.5206781385
 10
35.9660730898
 20
27.5045594756
 10
35.9683820666
 20
27.4842974914
 10
35.9767882841
 20
27.4629768895
 10
35.9900119718
 20
27.4438435382
 10
36.0060399431
 20
27.4298103168
 10
36.0224320848
 20
27.4230136561
 10
36.0366928418
 20
27.424488286
 10
36.0466511432
 20
27.4340097074
 10
36.0507909278
 20
27.4501283704
  0
LWPOLYLINE
  5
323
330
1F
100
AcDbEntity
  8
0
  6
SLD-Solid
 62
     7
370
    25
100
AcDbPolyline
 90
       10
 70
   128
 43
0.0
 10
44.0964252949
 20
22.8164298182
 10
44.0884834813
 20
22.8507497544
 10
44.0712920789
 20
22.8846363489
 10
44.0474683229
 20
22.9129306747
 10
44.0206391642
 20
22.9313251773
 10
43.994889099
 20
22.9370194603
 10
43.9741383413
 20
22.9291466208
 10
43.9615460058
 20
22.9089052272
 10
43.9590291615
 20
22.8793768483
 10
43.966491574
 20
22.8463762853
  0
LWPOLYLINE
  5
324
330
1F
100
AcDbEntity
  8
0
  6
SLD-Solid
 62
     7
370
    25
100
AcDbPolyline
 90
        5
 70
   128
 43
0.0
 10
44.0526523213
 20
22.759138274
 10
44.0605653574
 20
22.7587872062
 10
44.0813161152
 20
22.7666600457
 10
44.0939084506
 20
22.7869014392
 10
44.0964252949
 20
22.8164298182
  0
LINE
  5
325
330
1F
100
AcDbEntity
  8
0
  6
SLD-Solid
 62
     7
370
    25
100
AcDbLine
 10
44.1825812662
 20
22.7989228874
 30
0.0
 11
44.1813926585
 21
22.757700198
 31
0.0
  0
LWPOLYLINE
  5
326
330
1F
100
AcDbEntity
  8
0
  6
SLD-Solid
 62
     7
370
    25
100
AcDbPolyline
 90
       15
 70
   128
 43
0.0
 10
43.918545777
 20
22.8980554036
 10
43.9184218917
 20
22.8987081502
 10
43.9146667785
 20
22.9429033595
 10
43.9208701278
 20
22.9809610903
 10
43.9365718657
 20
23.0100587748
 10
43.9606074661
 20
23.0280383708
 10
43.9911943184
 20
23.0335664139
 10
44.0260639358
 20
23.0262329146
 10
44.0626301983
 20
23.0065817648
 10
44.0981811533
 20
22.9760704004
 10
44.1300801494
 20
22.9369617099
 10
44.1559613837
 20
22.8921562058
 10
44.1739053636
 20
22.8449769073
 10
44.1825812662
 20
22.7989228874
 10
44.1825812662
 20
22.7989228874
  0
LWPOLYLINE
  5
327
330
1F
100
AcDbEntity
  8
0
  6
SLD-Solid
 62
     7
370
    25
100
AcDbPolyline
 90
       11
 70
   128
 43
0.0
 10
44.2026058619
 20
22.7699463197
 10
44.2037944696
 20
22.8111690091
 10
44.195118567
 20
22.857223029
 10
44.1771745871
 20
22.9044023274
 10
44.1512933528
 20
22.9492078315
 10
44.1193943568
 20
22.9883165221
 10
44.0838434017
 20
23.0188278864
 10
44.0472771393
 20
23.0384790362
 10
44.0124075219
 20
23.0458125356
 10
43.9818206695
 20
23.0402844924
 10
43.9751613555
 20
23.0369448604
  0
LWPOLYLINE
  5
328
330
1F
100
AcDbEntity
  8
0
  6
SLD-Solid
 62
     7
370
    25
100
AcDbPolyline
 90
       17
 70
   128
 43
0.0
 10
44.069929597
 20
22.8285686277
 10
44.0650508084
 20
22.8496519373
 10
44.054489843
 20
22.8704690378
 10
44.0398545121
 20
22.8878507143
 10
44.0233729122
 20
22.8991507642
 10
44.0075542175
 20
22.9026488572
 10
43.9948066807
 20
22.8978124405
 10
43.9870709989
 20
22.8853778147
 10
43.9855248594
 20
22.8672380387
 10
43.9904036481
 20
22.8461547292
 10
44.0009646134
 20
22.8253376287
 10
44.0155999443
 20
22.8079559522
 10
44.0320815442
 20
22.7966559023
 10
44.047900239
 20
22.7931578092
 10
44.0606477758
 20
22.7979942259
 10
44.0683834576
 20
22.8104288517
 10
44.069929597
 20
22.8285686277
  0
LWPOLYLINE
  5
329
330
1F
100
AcDbEntity
  8
0
  6
SLD-Solid
 62
     7
370
    25
100
AcDbPolyline
 90
       22
 70
   128
 43
0.0
 10
43.2639765648
 20
22.1613845177
 10
43.2685852988
 20
22.1963743488
 10
43.2825996053
 20
22.2226930711
 10
43.3047742516
 20
22.2380021507
 10
43.333138923
 20
22.2409413087
 10
43.365173294
 20
22.231249388
 10
43.3980309702
 20
22.2097875584
 10
43.4287924029
 20
22.1784627974
 10
43.4547243037
 20
22.1400584477
 10
43.4735225094
 20
22.0979869042
 10
43.4835167171
 20
22.0559864082
 10
43.4838188975
 20
22.0177888881
 10
43.4744022004
 20
21.9867883611
 10
43.4561033409
 20
21.9657393602
 10
43.4305482529
 20
21.9565121814
 10
43.400007618
 20
21.9599267001
 10
43.3671951057
 20
21.9756795213
 10
43.3350262518
 20
22.0023709377
 10
43.3063594
 20
22.0376292998
 10
43.283741726
 20
22.0783217474
 10
43.2691829093
 20
22.120832578
 10
43.2639765648
 20
22.1613845177
  0
LWPOLYLINE
  5
32A
330
1F
100
AcDbEntity
  8
0
  6
SLD-Solid
 62
     7
370
    25
100
AcDbPolyline
 90
       13
 70
   128
 43
0.0
 10
43.3093943378
 20
22.2416242033
 10
43.317835246
 20
22.2455421023
 10
43.3461999175
 20
22.2484812603
 10
43.3782342885
 20
22.2387893396
 10
43.4110919647
 20
22.21732751
 10
43.4418533973
 20
22.186002749
 10
43.4677852981
 20
22.1475983993
 10
43.4865835039
 20
22.1055268558
 10
43.4965777116
 20
22.0635263598
 10
43.4968798919
 20
22.0253288397
 10
43.4874631949
 20
21.9943283127
 10
43.4691643354
 20
21.9732793118
 10
43.4656057981
 20
21.9710286976
  0
LWPOLYLINE
  5
32B
330
1F
100
AcDbEntity
  8
0
  6
SLD-Solid
 62
     7
370
    25
100
AcDbPolyline
 90
       22
 70
   128
 43
0.0
 10
35.9517881265
 20
26.3826210516
 10
35.9563968606
 20
26.4176108826
 10
35.9704111671
 20
26.4439296049
 10
35.9925858133
 20
26.4592386846
 10
36.0209504847
 20
26.4621778426
 10
36.0529848558
 20
26.4524859219
 10
36.085842532
 20
26.4310240922
 10
36.1166039646
 20
26.3996993313
 10
36.1425358654
 20
26.3612949816
 10
36.1613340712
 20
26.3192234381
 10
36.1713282788
 20
26.2772229421
 10
36.1716304592
 20
26.2390254219
 10
36.1622137622
 20
26.208024895
 10
36.1439149027
 20
26.1869758941
 10
36.1183598146
 20
26.1777487153
 10
36.0878191797
 20
26.181163234
 10
36.0550066675
 20
26.1969160552
 10
36.0228378135
 20
26.2236074715
 10
35.9941709618
 20
26.2588658336
 10
35.9715532878
 20
26.2995582813
 10
35.9569944711
 20
26.3420691119
 10
35.9517881265
 20
26.3826210516
  0
LWPOLYLINE
  5
32C
330
1F
100
AcDbEntity
  8
0
  6
SLD-Solid
 62
     7
370
    25
100
AcDbPolyline
 90
       13
 70
   128
 43
0.0
 10
35.9972058995
 20
26.4628607372
 10
36.0056468078
 20
26.4667786362
 10
36.0340114792
 20
26.4697177942
 10
36.0660458502
 20
26.4600258735
 10
36.0989035264
 20
26.4385640438
 10
36.1296649591
 20
26.4072392829
 10
36.1555968599
 20
26.3688349332
 10
36.1743950656
 20
26.3267633897
 10
36.1843892733
 20
26.2847628937
 10
36.1846914537
 20
26.2465653736
 10
36.1752747567
 20
26.2155648466
 10
36.1569758971
 20
26.1945158457
 10
36.1534173599
 20
26.1922652315
  0
LWPOLYLINE
  5
32D
330
1F
100
AcDbEntity
  8
0
  6
SLD-Solid
 62
     7
370
    25
100
AcDbPolyline
 90
       22
 70
   128
 43
0.0
 10
28.6395996883
 20
30.6038575854
 10
28.6442084223
 20
30.6388474165
 10
28.6582227288
 20
30.6651661388
 10
28.6803973751
 20
30.6804752184
 10
28.7087620465
 20
30.6834143764
 10
28.7407964175
 20
30.6737224558
 10
28.7736540937
 20
30.6522606261
 10
28.8044155264
 20
30.6209358651
 10
28.8303474272
 20
30.5825315154
 10
28.8491456329
 20
30.5404599719
 10
28.8591398406
 20
30.4984594759
 10
28.859442021
 20
30.4602619558
 10
28.8500253239
 20
30.4292614289
 10
28.8317264644
 20
30.4082124279
 10
28.8061713764
 20
30.3989852491
 10
28.7756307415
 20
30.4023997678
 10
28.7428182292
 20
30.418152589
 10
28.7106493753
 20
30.4448440054
 10
28.6819825235
 20
30.4801023675
 10
28.6593648495
 20
30.5207948151
 10
28.6448060328
 20
30.5633056457
 10
28.6395996883
 20
30.6038575854
  0
LWPOLYLINE
  5
32E
330
1F
100
AcDbEntity
  8
0
  6
SLD-Solid
 62
     7
370
    25
100
AcDbPolyline
 90
       13
 70
   128
 43
0.0
 10
28.6850174613
 20
30.684097271
 10
28.6934583695
 20
30.68801517
 10
28.721823041
 20
30.690954328
 10
28.753857412
 20
30.6812624074
 10
28.7867150882
 20
30.6598005777
 10
28.8174765208
 20
30.6284758167
 10
28.8434084216
 20
30.590071467
 10
28.8622066274
 20
30.5479999235
 10
28.8722008351
 20
30.5059994275
 10
28.8725030154
 20
30.4678019074
 10
28.8630863184
 20
30.4368013805
 10
28.8447874589
 20
30.4157523795
 10
28.8412289216
 20
30.4135017653
  0
ARC
  5
32F
330
1F
100
AcDbEntity
  8
0
  6
SLD-Solid
 62
     7
370
    25
100
AcDbCircle
 10
27.3139387836
 20
33.7328917794
 30
0.0
 40
0.0461041442271428
100
AcDbArc
 50
122.60547834
 51
177.3945215144
  0
ARC
  5
330
330
1F
100
AcDbEntity
  8
0
  6
SLD-Solid
 62
     7
370
    25
100
AcDbCircle
 10
45.6987150944
 20
23.1195863257
 30
0.0
 40
0.0461041442271689
100
AcDbArc
 50
122.60547834
 51
177.3945215143
  0
LINE
  5
331
330
1F
100
AcDbEntity
  8
0
  6
SLD-Solid
 62
     7
370
    25
100
AcDbLine
 10
45.6526586114
 20
20.9102847833
 30
0.0
 11
45.6526586114
 21
23.1216821512
 31
0.0
  0
LINE
  5
332
330
1F
100
AcDbEntity
  8
0
  6
SLD-Solid
 62
     7
370
    25
100
AcDbLine
 10
45.6738718148
 20
20.922530905
 30
0.0
 11
45.6738718148
 21
23.1339282729
 31
0.0
  0
LINE
  5
333
330
1F
100
AcDbEntity
  8
0
  6
SLD-Solid
 62
     7
370
    25
100
AcDbLine
 10
27.2678823005
 20
33.7349876049
 30
0.0
 11
27.2678823005
 21
31.523590237
 31
0.0
  0
LWPOLYLINE
  5
334
330
1F
100
AcDbEntity
  8
0
  6
SLD-Solid
 62
     7
370
    25
100
AcDbPolyline
 90
       17
 70
   128
 43
0.0
 10
45.2814275513
 20
22.2302905966
 10
45.2760450214
 20
22.264645529
 10
45.2607168732
 20
22.2999847711
 10
45.2377766782
 20
22.3309282436
 10
45.2107168732
 20
22.3527650834
 10
45.1836570681
 20
22.3621708295
 10
45.1607168732
 20
22.3577135423
 10
45.1453887249
 20
22.3400718035
 10
45.140006195
 20
22.3119314078
 10
45.1453887249
 20
22.2775764754
 10
45.1607168732
 20
22.2422372333
 10
45.1836570681
 20
22.2112937608
 10
45.2107168732
 20
22.189456921
 10
45.2377766782
 20
22.1800511749
 10
45.2607168732
 20
22.1845084621
 10
45.2760450214
 20
22.2021502009
 10
45.2814275513
 20
22.2302905966
  0
LWPOLYLINE
  5
335
330
1F
100
AcDbEntity
  8
0
  6
SLD-Solid
 62
     7
370
    25
100
AcDbPolyline
 90
       15
 70
   128
 43
0.0
 10
27.7804990241
 20
32.3307674903
 10
27.7805347169
 20
32.3333409804
 10
27.775152187
 20
32.3676959128
 10
27.7598240388
 20
32.4030351549
 10
27.7368838438
 20
32.4339786275
 10
27.7098240388
 20
32.4558154672
 10
27.6827642338
 20
32.4652212133
 10
27.6598240388
 20
32.4607639261
 10
27.6444958905
 20
32.4431221873
 10
27.6391133607
 20
32.4149817916
 10
27.6444958905
 20
32.3806268592
 10
27.6598240388
 20
32.3452876171
 10
27.6827642338
 20
32.3143441446
 10
27.7098240388
 20
32.2925073048
 10
27.7120589827
 20
32.2912578954
  0
LINE
  5
336
330
1F
100
AcDbEntity
  8
0
  6
SLD-Solid
 62
     7
370
    25
100
AcDbLine
 10
45.9864051906
 20
23.3388461747
 30
0.0
 11
27.6016288798
 21
33.9521516284
 31
0.0
  0
LINE
  5
337
330
1F
100
AcDbEntity
  8
0
  6
SLD-Solid
 62
     7
370
    25
100
AcDbLine
 10
45.6738718148
 20
23.1584244973
 30
0.0
 11
45.9864051906
 21
23.3388461747
 31
0.0
  0
LINE
  5
338
330
1F
100
AcDbEntity
  8
0
  6
SLD-Solid
 62
     7
370
    25
100
AcDbLine
 10
27.6016288798
 20
33.9521516284
 30
0.0
 11
27.289095504
 21
33.771729951
 31
0.0
  0
LINE
  5
339
330
1F
100
AcDbEntity
  8
0
  6
SLD-Solid
 62
     7
370
    25
100
AcDbLine
 10
45.9864051906
 20
23.3143499504
 30
0.0
 11
45.9864051906
 21
23.3388461747
 31
0.0
  0
LINE
  5
33A
330
1F
100
AcDbEntity
  8
0
  6
SLD-Solid
 62
     7
370
    25
100
AcDbLine
 10
45.6738718148
 20
23.1339282729
 30
0.0
 11
45.9864051906
 21
23.3143499504
 31
0.0
  0
LWPOLYLINE
  5
33B
330
1F
100
AcDbEntity
  8
0
  6
SLD-Solid
 62
     7
370
    25
100
AcDbPolyline
 90
        9
 70
   128
 43
0.0
 10
45.172465208
 20
22.3618682339
 10
45.1666019283
 20
22.3523179252
 10
45.1612193985
 20
22.3241775295
 10
45.1666019283
 20
22.2898225971
 10
45.1819300766
 20
22.254483355
 10
45.2048702716
 20
22.2235398825
 10
45.2319300766
 20
22.2017030427
 10
45.2589898816
 20
22.1922972966
 10
45.2701817418
 20
22.1925998922
  0
ARC
  5
33C
330
1F
100
AcDbEntity
  8
0
  6
SLD-Solid
 62
     7
370
    25
100
AcDbCircle
 10
45.6655908424
 20
20.9081869674
 30
0.0
 40
0.0131012759228589
100
AcDbArc
 50
170.7859630096
 51
309.2032852357
  0
ARC
  5
33D
330
1F
100
AcDbEntity
  8
0
  6
SLD-Solid
 62
     7
370
    25
100
AcDbCircle
 10
27.2825823576
 20
31.5219676349
 30
0.0
 40
0.0147893379115332
100
AcDbArc
 50
173.7011525079
 51
234.9866670987
  0
LINE
  5
33E
330
1F
100
AcDbEntity
  8
0
  6
SLD-Solid
 62
     7
370
    25
100
AcDbLine
 10
45.6738718148
 20
21.2833742599
 30
0.0
 11
45.9864051906
 21
21.1029525824
 31
0.0
  0
LINE
  5
33F
330
1F
100
AcDbEntity
  8
0
  6
SLD-Solid
 62
     7
370
    25
100
AcDbLine
 10
45.9864051906
 20
21.1029525824
 30
0.0
 11
45.6738718148
 21
20.922530905
 31
0.0
  0
LINE
  5
340
330
1F
100
AcDbEntity
  8
0
  6
SLD-Solid
 62
     7
370
    25
100
AcDbLine
 10
45.9864051906
 20
21.1029525824
 30
0.0
 11
45.9864051906
 21
21.0784563581
 31
0.0
  0
LINE
  5
341
330
1F
100
AcDbEntity
  8
0
  6
SLD-Solid
 62
     7
370
    25
100
AcDbLine
 10
45.9864051906
 20
21.0784563581
 30
0.0
 11
45.6738718148
 21
20.8980346806
 31
0.0
  0
ARC
  5
342
330
1F
100
AcDbEntity
  8
0
  6
SLD-Solid
 62
     7
370
    25
100
AcDbCircle
 10
27.7921994601
 20
32.4185281336
 30
0.0
 40
0.1292399744658765
100
AcDbArc
 50
158.9643712902
 51
242.8737712078
  0
LINE
  5
343
330
1F
100
AcDbEntity
  8
OBJECT
100
AcDbLine
 10
27.289095504
 20
33.7472337266
 30
0.0
 11
45.6738718148
 21
23.1339282729
 31
0.0
  0
INSERT
  5
349
330
1F
100
AcDbEntity
  8
NOTES
100
AcDbBlockReference
  2
SW_NOTE_0_2
 10
42.2786901306
 20
19.6163000029
 30
0.0
  0
LINE
  5
34A
330
1F
100
AcDbEntity
  8
0
  6
SLD-Solid
 62
     7
370
    25
100
AcDbLine
 10
8.9079659045
 20
19.7535219459
 30
0.0
 11
8.9079659045
 21
19.7235219459
 31
0.0
  0
LINE
  5
34B
330
1F
100
AcDbEntity
  8
0
  6
SLD-Solid
 62
     7
370
    25
100
AcDbLine
 10
9.2879659045
 20
19.7235219459
 30
0.0
 11
9.2879659045
 21
19.7535219459
 31
0.0
  0
LINE
  5
34C
330
1F
100
AcDbEntity
  8
0
  6
SLD-Solid
 62
     7
370
    25
100
AcDbLine
 10
8.9079659045
 20
19.7235219459
 30
0.0
 11
9.0002964106
 21
19.6935219459
 31
0.0
  0
LINE
  5
34D
330
1F
100
AcDbEntity
  8
0
  6
SLD-Solid
 62
     7
370
    25
100
AcDbLine
 10
9.1956353984
 20
19.6935219459
 30
0.0
 11
9.2879659045
 21
19.7235219459
 31
0.0
  0
LINE
  5
34E
330
1F
100
AcDbEntity
  8
0
  6
SLD-Solid
 62
     7
370
    25
100
AcDbLine
 10
28.5899580245
 20
19.7535219459
 30
0.0
 11
28.5899580245
 21
19.7235219459
 31
0.0
  0
LINE
  5
34F
330
1F
100
AcDbEntity
  8
0
  6
SLD-Solid
 62
     7
370
    25
100
AcDbLine
 10
28.9699580245
 20
19.7235219459
 30
0.0
 11
28.9699580245
 21
19.7535219459
 31
0.0
  0
LINE
  5
350
330
1F
100
AcDbEntity
  8
0
  6
SLD-Solid
 62
     7
370
    25
100
AcDbLine
 10
28.5899580245
 20
19.7235219459
 30
0.0
 11
28.6822885306
 21
19.6935219459
 31
0.0
  0
LINE
  5
351
330
1F
100
AcDbEntity
  8
0
  6
SLD-Solid
 62
     7
370
    25
100
AcDbLine
 10
28.8776275184
 20
19.6935219459
 30
0.0
 11
28.9699580245
 21
19.7235219459
 31
0.0
  0
LINE
  5
352
330
1F
100
AcDbEntity
  8
0
  6
SLD-Solid
 62
     7
370
    25
100
AcDbLine
 10
7.9079659045
 20
19.7535219459
 30
0.0
 11
7.9079659045
 21
19.7235219459
 31
0.0
  0
LINE
  5
353
330
1F
100
AcDbEntity
  8
0
  6
SLD-Solid
 62
     7
370
    25
100
AcDbLine
 10
8.2879659045
 20
19.7235219459
 30
0.0
 11
8.2879659045
 21
19.7535219459
 31
0.0
  0
LINE
  5
354
330
1F
100
AcDbEntity
  8
0
  6
SLD-Solid
 62
     7
370
    25
100
AcDbLine
 10
7.9079659045
 20
19.7235219459
 30
0.0
 11
8.0002964106
 21
19.6935219459
 31
0.0
  0
LINE
  5
355
330
1F
100
AcDbEntity
  8
0
  6
SLD-Solid
 62
     7
370
    25
100
AcDbLine
 10
8.1956353984
 20
19.6935219459
 30
0.0
 11
8.2879659045
 21
19.7235219459
 31
0.0
  0
LINE
  5
356
330
1F
100
AcDbEntity
  8
0
  6
SLD-Solid
 62
     7
370
    25
100
AcDbLine
 10
19.2489619645
 20
19.7535219459
 30
0.0
 11
19.2489619645
 21
19.7235219459
 31
0.0
  0
LINE
  5
357
330
1F
100
AcDbEntity
  8
0
  6
SLD-Solid
 62
     7
370
    25
100
AcDbLine
 10
19.6289619645
 20
19.7235219459
 30
0.0
 11
19.6289619645
 21
19.7535219459
 31
0.0
  0
LINE
  5
358
330
1F
100
AcDbEntity
  8
0
  6
SLD-Solid
 62
     7
370
    25
100
AcDbLine
 10
19.2489619645
 20
19.7235219459
 30
0.0
 11
19.3412924706
 21
19.6935219459
 31
0.0
  0
LINE
  5
359
330
1F
100
AcDbEntity
  8
0
  6
SLD-Solid
 62
     7
370
    25
100
AcDbLine
 10
19.5366314584
 20
19.6935219459
 30
0.0
 11
19.6289619645
 21
19.7235219459
 31
0.0
  0
LINE
  5
35A
330
1F
100
AcDbEntity
  8
0
  6
SLD-Solid
 62
     7
370
    25
100
AcDbLine
 10
18.2489619645
 20
19.7535219459
 30
0.0
 11
18.2489619645
 21
19.7235219459
 31
0.0
  0
LINE
  5
35B
330
1F
100
AcDbEntity
  8
0
  6
SLD-Solid
 62
     7
370
    25
100
AcDbLine
 10
18.6289619645
 20
19.7235219459
 30
0.0
 11
18.6289619645
 21
19.7535219459
 31
0.0
  0
LINE
  5
35C
330
1F
100
AcDbEntity
  8
0
  6
SLD-Solid
 62
     7
370
    25
100
AcDbLine
 10
18.2489619645
 20
19.7235219459
 30
0.0
 11
18.3412924706
 21
19.6935219459
 31
0.0
  0
LINE
  5
35D
330
1F
100
AcDbEntity
  8
0
  6
SLD-Solid
 62
     7
370
    25
100
AcDbLine
 10
18.5366314584
 20
19.6935219459
 30
0.0
 11
18.6289619645
 21
19.7235219459
 31
0.0
  0
LINE
  5
35E
330
1F
100
AcDbEntity
  8
0
  6
SLD-Solid
 62
     7
370
    25
100
AcDbLine
 10
29.5899580245
 20
19.7535219459
 30
0.0
 11
29.5899580245
 21
19.7235219459
 31
0.0
  0
LINE
  5
35F
330
1F
100
AcDbEntity
  8
0
  6
SLD-Solid
 62
     7
370
    25
100
AcDbLine
 10
29.9699580245
 20
19.7235219459
 30
0.0
 11
29.9699580245
 21
19.7535219459
 31
0.0
  0
LINE
  5
360
330
1F
100
AcDbEntity
  8
0
  6
SLD-Solid
 62
     7
370
    25
100
AcDbLine
 10
29.5899580245
 20
19.7235219459
 30
0.0
 11
29.6822885306
 21
19.6935219459
 31
0.0
  0
LINE
  5
361
330
1F
100
AcDbEntity
  8
0
  6
SLD-Solid
 62
     7
370
    25
100
AcDbLine
 10
29.8776275184
 20
19.6935219459
 30
0.0
 11
29.9699580245
 21
19.7235219459
 31
0.0
  0
LINE
  5
362
330
1F
100
AcDbEntity
  8
0
  6
SLD-Solid
 62
     7
370
    25
100
AcDbLine
 10
29.5083159351
 20
18.9035219459
 30
0.0
 11
29.5083159351
 21
18.8850509104
 31
0.0
  0
LINE
  5
363
330
1F
100
AcDbEntity
  8
0
  6
SLD-Solid
 62
     7
370
    25
100
AcDbLine
 10
29.8207642477
 20
18.8850509104
 30
0.0
 11
29.8207642477
 21
18.9035219459
 31
0.0
  0
ARC
  5
364
330
1F
100
AcDbEntity
  8
0
  6
SLD-Solid
 62
     7
370
    25
100
AcDbCircle
 10
29.6645400914
 20
19.1581293798
 30
0.0
 40
0.3146074338901304
100
AcDbArc
 50
240.2267646167
 51
299.7732353833
  0
LINE
  5
365
330
1F
100
AcDbEntity
  8
0
  6
SLD-Solid
 62
     7
370
    25
100
AcDbLine
 10
19.1673198751
 20
18.9035219459
 30
0.0
 11
19.1673198751
 21
18.8850509104
 31
0.0
  0
LINE
  5
366
330
1F
100
AcDbEntity
  8
0
  6
SLD-Solid
 62
     7
370
    25
100
AcDbLine
 10
19.4797681877
 20
18.8850509104
 30
0.0
 11
19.4797681877
 21
18.9035219459
 31
0.0
  0
ARC
  5
367
330
1F
100
AcDbEntity
  8
0
  6
SLD-Solid
 62
     7
370
    25
100
AcDbCircle
 10
19.3235440314
 20
19.1581293798
 30
0.0
 40
0.3146074338901304
100
AcDbArc
 50
240.2267646167
 51
299.7732353833
  0
LINE
  5
368
330
1F
100
AcDbEntity
  8
0
  6
SLD-Solid
 62
     7
370
    25
100
AcDbLine
 10
8.8263238151
 20
18.9035219459
 30
0.0
 11
8.8263238151
 21
18.8850509104
 31
0.0
  0
LINE
  5
369
330
1F
100
AcDbEntity
  8
0
  6
SLD-Solid
 62
     7
370
    25
100
AcDbLine
 10
9.1387721277
 20
18.8850509104
 30
0.0
 11
9.1387721277
 21
18.9035219459
 31
0.0
  0
ARC
  5
36A
330
1F
100
AcDbEntity
  8
0
  6
SLD-Solid
 62
     7
370
    25
100
AcDbCircle
 10
8.9825479714
 20
19.1581293798
 30
0.0
 40
0.3146074338901304
100
AcDbArc
 50
240.2267646167
 51
299.7732353833
  0
LINE
  5
36B
330
1F
100
AcDbEntity
  8
0
  6
SLD-Solid
 62
     7
370
    25
100
AcDbLine
 10
8.5423049265
 20
18.9035219459
 30
0.0
 11
8.5423049265
 21
19.7035219459
 31
0.0
  0
LINE
  5
36C
330
1F
100
AcDbEntity
  8
0
  6
SLD-Solid
 62
     7
370
    25
100
AcDbLine
 10
8.3671774352
 20
18.9035219459
 30
0.0
 11
8.3671774352
 21
19.7035219459
 31
0.0
  0
SPLINE
  5
36D
330
1F
100
AcDbEntity
  8
0
  6
SLD-Solid
 62
     7
370
    25
100
AcDbSpline
210
0.0
220
0.0
230
1.0
 70
    24
 71
     3
 72
    10
 73
     6
 74
     0
 42
0.00000001
 43
0.00000001
 40
0.0
 40
0.0
 40
0.0
 40
0.0
 40
0.312700108085141
 40
0.585202906562606
 40
1.0
 40
1.0
 40
1.0
 40
1.0
 10
8.542304926513461
 20
18.90352194586638
 30
0.0
 10
8.522057525487329
 20
18.90352194586638
 30
0.0
 10
8.484165508105596
 20
18.90352194586638
 30
0.0
 10
8.423766032440957
 20
18.90352194586638
 30
0.0
 10
8.388475729248649
 20
18.90352194586638
 30
0.0
 10
8.367177435210055
 20
18.90352194586638
 30
0.0
  0
SPLINE
  5
36E
330
1F
100
AcDbEntity
  8
0
  6
SLD-Solid
 62
     7
370
    25
100
AcDbSpline
210
0.0
220
0.0
230
1.0
 70
    24
 71
     3
 72
    10
 73
     6
 74
     0
 42
0.00000001
 43
0.00000001
 40
0.0
 40
0.0
 40
0.0
 40
0.0
 40
0.312700108085141
 40
0.585202906562606
 40
1.0
 40
1.0
 40
1.0
 40
1.0
 10
8.542304926513461
 20
19.70352194586638
 30
0.0
 10
8.522057525487329
 20
19.70352194586638
 30
0.0
 10
8.484165508105596
 20
19.70352194586638
 30
0.0
 10
8.423766032440957
 20
19.70352194586638
 30
0.0
 10
8.388475729248649
 20
19.70352194586638
 30
0.0
 10
8.367177435210055
 20
19.70352194586638
 30
0.0
  0
LINE
  5
36F
330
1F
100
AcDbEntity
  8
0
  6
SLD-Solid
 62
     7
370
    25
100
AcDbLine
 10
7.8519187264
 20
18.9035219459
 30
0.0
 11
7.8519187264
 21
19.7035219459
 31
0.0
  0
LINE
  5
370
330
1F
100
AcDbEntity
  8
0
  6
SLD-Solid
 62
     7
370
    25
100
AcDbLine
 10
7.6367996115
 20
18.9035219459
 30
0.0
 11
7.6367996115
 21
19.7035219459
 31
0.0
  0
LINE
  5
371
330
1F
100
AcDbEntity
  8
0
  6
SLD-Solid
 62
     7
370
    25
100
AcDbLine
 10
7.8519187264
 20
18.9035219459
 30
0.0
 11
7.6367996115
 21
18.9035219459
 31
0.0
  0
LINE
  5
372
330
1F
100
AcDbEntity
  8
0
  6
SLD-Solid
 62
     7
370
    25
100
AcDbLine
 10
7.8519187264
 20
19.7035219459
 30
0.0
 11
7.6367996115
 21
19.7035219459
 31
0.0
  0
LINE
  5
373
330
1F
100
AcDbEntity
  8
0
  6
SLD-Solid
 62
     7
370
    25
100
AcDbLine
 10
7.8640717298
 20
18.9035219459
 30
0.0
 11
7.8640717298
 21
19.7035219459
 31
0.0
  0
SPLINE
  5
374
330
1F
100
AcDbEntity
  8
0
  6
SLD-Solid
 62
     7
370
    25
100
AcDbSpline
210
0.0
220
0.0
230
1.0
 70
    24
 71
     3
 72
    14
 73
    10
 74
     0
 42
0.00000001
 43
0.00000001
 40
0.0
 40
0.0
 40
0.0
 40
0.0
 40
0.1669732910766159
 40
0.3292393671751841
 40
0.4780643428590287
 40
0.5831555886245562
 40
0.6936208322497787
 40
0.8266861690052624
 40
1.0
 40
1.0
 40
1.0
 40
1.0
 10
8.367177435210055
 20
18.90352194586638
 30
0.0
 10
8.342530439713787
 20
18.90352194586638
 30
0.0
 10
8.293931282641188
 20
18.90352194586638
 30
0.0
 10
8.217528602780035
 20
18.90352194586638
 30
0.0
 10
8.14083099149764
 20
18.90352194586638
 30
0.0
 10
8.065331991397766
 20
18.90352194586638
 30
0.0
 10
7.994466889768494
 20
18.90352194586638
 30
0.0
 10
7.923729571875843
 20
18.90352194586638
 30
0.0
 10
7.885626201508417
 20
18.90352194586638
 30
0.0
 10
7.864071729836328
 20
18.90352194586638
 30
0.0
  0
SPLINE
  5
375
330
1F
100
AcDbEntity
  8
0
  6
SLD-Solid
 62
     7
370
    25
100
AcDbSpline
210
0.0
220
0.0
230
1.0
 70
    24
 71
     3
 72
     9
 73
     5
 74
     0
 42
0.00000001
 43
0.00000001
 40
0.0
 40
0.0
 40
0.0
 40
0.0
 40
0.5523622056474766
 40
1.0
 40
1.0
 40
1.0
 40
1.0
 10
8.367177435210055
 20
19.70352194586638
 30
0.0
 10
8.342757368651505
 20
19.70352194586638
 30
0.0
 10
8.298547127058445
 20
19.70352194586638
 30
0.0
 10
8.248717747363717
 20
19.70352194586638
 30
0.0
 10
8.226412233743217
 20
19.70352194586638
 30
0.0
  0
SPLINE
  5
376
330
1F
100
AcDbEntity
  8
0
  6
SLD-Solid
 62
     7
370
    25
100
AcDbSpline
210
0.0
220
0.0
230
1.0
 70
    24
 71
     3
 72
     9
 73
     5
 74
     0
 42
0.00000001
 43
0.00000001
 40
0.0
 40
0.0
 40
0.0
 40
0.0
 40
0.292264352952466
 40
0.9999999999999999
 40
0.9999999999999999
 40
0.9999999999999999
 40
0.9999999999999999
 10
7.969519575230224
 20
19.70352194586638
 30
0.0
 10
7.957026151019364
 20
19.70352194586638
 30
0.0
 10
7.914279151309517
 20
19.70352194586638
 30
0.0
 10
7.884879155145006
 20
19.70352194586638
 30
0.0
 10
7.864071729836326
 20
19.70352194586638
 30
0.0
  0
LINE
  5
377
330
1F
100
AcDbEntity
  8
0
  6
SLD-Solid
 62
     7
370
    25
100
AcDbLine
 10
8.9828426733
 20
18.9035219459
 30
0.0
 11
8.9828426733
 21
19.6991930089
 31
0.0
  0
LINE
  5
378
330
1F
100
AcDbEntity
  8
0
  6
SLD-Solid
 62
     7
370
    25
100
AcDbLine
 10
8.9828426733
 20
18.9035219459
 30
0.0
 11
8.5423049265
 21
18.9035219459
 31
0.0
  0
LINE
  5
379
330
1F
100
AcDbEntity
  8
0
  6
SLD-Solid
 62
     7
370
    25
100
AcDbLine
 10
8.9695195752
 20
19.7035219459
 30
0.0
 11
8.5423049265
 21
19.7035219459
 31
0.0
  0
LINE
  5
37A
330
1F
100
AcDbEntity
  8
0
  6
SLD-Solid
 62
     7
370
    25
100
AcDbLine
 10
7.8640717298
 20
18.9035219459
 30
0.0
 11
7.8519187264
 21
18.9035219459
 31
0.0
  0
LINE
  5
37B
330
1F
100
AcDbEntity
  8
0
  6
SLD-Solid
 62
     7
370
    25
100
AcDbLine
 10
7.8640717298
 20
19.7035219459
 30
0.0
 11
7.8519187264
 21
19.7035219459
 31
0.0
  0
LINE
  5
37C
330
1F
100
AcDbEntity
  8
0
  6
SLD-Solid
 62
     7
370
    25
100
AcDbLine
 10
9.0884478188
 20
18.9035219459
 30
0.0
 11
9.0884478188
 21
19.6935219459
 31
0.0
  0
LINE
  5
37D
330
1F
100
AcDbEntity
  8
0
  6
SLD-Solid
 62
     7
370
    25
100
AcDbLine
 10
9.0884478188
 20
18.9035219459
 30
0.0
 11
8.9828426733
 21
18.9035219459
 31
0.0
  0
LINE
  5
37E
330
1F
100
AcDbEntity
  8
0
  6
SLD-Solid
 62
     7
370
    25
100
AcDbLine
 10
9.5894038872
 20
18.9035219459
 30
0.0
 11
9.5894038872
 21
19.7035219459
 31
0.0
  0
SPLINE
  5
37F
330
1F
100
AcDbEntity
  8
0
  6
SLD-Solid
 62
     7
370
    25
100
AcDbSpline
210
0.0
220
0.0
230
1.0
 70
    24
 71
     3
 72
    13
 73
     9
 74
     0
 42
0.00000001
 43
0.00000001
 40
0.0
 40
0.0
 40
0.0
 40
0.0
 40
0.1709847685286761
 40
0.3326578081366878
 40
0.4968967494144848
 40
0.6391258064239832
 40
0.803570582091674
 40
1.0
 40
1.0
 40
1.0
 40
1.0
 10
9.58940388718132
 20
18.90352194586638
 30
0.0
 10
9.582505072355529
 20
18.90352194586638
 30
0.0
 10
9.569083148061123
 20
18.90352194586638
 30
0.0
 10
9.528173203301717
 20
18.90352194586638
 30
0.0
 10
9.45964471082009
 20
18.90352194586638
 30
0.0
 10
9.363159622221648
 20
18.90352194586638
 30
0.0
 10
9.240792188820297
 20
18.90352194586638
 30
0.0
 10
9.142143713266112
 20
18.90352194586638
 30
0.0
 10
9.088447818753304
 20
18.90352194586638
 30
0.0
  0
SPLINE
  5
380
330
1F
100
AcDbEntity
  8
0
  6
SLD-Solid
 62
     7
370
    25
100
AcDbSpline
210
0.0
220
0.0
230
1.0
 70
    24
 71
     3
 72
    13
 73
     9
 74
     0
 42
0.00000001
 43
0.00000001
 40
0.0
 40
0.0
 40
0.0
 40
0.0
 40
0.2064202242130519
 40
0.4015989256392811
 40
0.5998752947849416
 40
0.771580377583517
 40
0.9701052389269228
 40
1.0
 40
1.0
 40
1.0
 40
1.0
 10
9.58940388718132
 20
19.70352194586638
 30
0.0
 10
9.582508978456111
 20
19.70352194586638
 30
0.0
 10
9.569094653638953
 20
19.70352194586638
 30
0.0
 10
9.528129806106488
 20
19.70352194586638
 30
0.0
 10
9.459801249723883
 20
19.70352194586638
 30
0.0
 10
9.36262946738727
 20
19.70352194586638
 30
0.0
 10
9.284033419531722
 20
19.70352194586638
 30
0.0
 10
9.233080741933216
 20
19.70352194586638
 30
0.0
 10
9.226412233743218
 20
19.70352194586638
 30
0.0
  0
LINE
  5
381
330
1F
100
AcDbEntity
  8
0
  6
SLD-Solid
 62
     7
370
    25
100
AcDbLine
 10
18.8833009865
 20
18.9035219459
 30
0.0
 11
18.8833009865
 21
19.7035219459
 31
0.0
  0
LINE
  5
382
330
1F
100
AcDbEntity
  8
0
  6
SLD-Solid
 62
     7
370
    25
100
AcDbLine
 10
18.7081734952
 20
18.9035219459
 30
0.0
 11
18.7081734952
 21
19.7035219459
 31
0.0
  0
SPLINE
  5
383
330
1F
100
AcDbEntity
  8
0
  6
SLD-Solid
 62
     7
370
    25
100
AcDbSpline
210
0.0
220
0.0
230
1.0
 70
    24
 71
     3
 72
    10
 73
     6
 74
     0
 42
0.00000001
 43
0.00000001
 40
0.0
 40
0.0
 40
0.0
 40
0.0
 40
0.3127001080851406
 40
0.5852029065626025
 40
1.0
 40
1.0
 40
1.0
 40
1.0
 10
18.88330098651346
 20
18.90352194586638
 30
0.0
 10
18.86305358548733
 20
18.90352194586638
 30
0.0
 10
18.8251615681056
 20
18.90352194586638
 30
0.0
 10
18.76476209244096
 20
18.90352194586638
 30
0.0
 10
18.72947178924865
 20
18.90352194586638
 30
0.0
 10
18.70817349521005
 20
18.90352194586638
 30
0.0
  0
SPLINE
  5
384
330
1F
100
AcDbEntity
  8
0
  6
SLD-Solid
 62
     7
370
    25
100
AcDbSpline
210
0.0
220
0.0
230
1.0
 70
    24
 71
     3
 72
    10
 73
     6
 74
     0
 42
0.00000001
 43
0.00000001
 40
0.0
 40
0.0
 40
0.0
 40
0.0
 40
0.3127001080851406
 40
0.5852029065626025
 40
1.0
 40
1.0
 40
1.0
 40
1.0
 10
18.88330098651346
 20
19.70352194586638
 30
0.0
 10
18.86305358548733
 20
19.70352194586638
 30
0.0
 10
18.8251615681056
 20
19.70352194586638
 30
0.0
 10
18.76476209244096
 20
19.70352194586638
 30
0.0
 10
18.72947178924865
 20
19.70352194586638
 30
0.0
 10
18.70817349521005
 20
19.70352194586638
 30
0.0
  0
LINE
  5
385
330
1F
100
AcDbEntity
  8
0
  6
SLD-Solid
 62
     7
370
    25
100
AcDbLine
 10
18.1929147864
 20
18.9035219459
 30
0.0
 11
18.1929147864
 21
19.7035219459
 31
0.0
  0
LINE
  5
386
330
1F
100
AcDbEntity
  8
0
  6
SLD-Solid
 62
     7
370
    25
100
AcDbLine
 10
17.9777956715
 20
18.9035219459
 30
0.0
 11
17.9777956715
 21
19.7035219459
 31
0.0
  0
LINE
  5
387
330
1F
100
AcDbEntity
  8
0
  6
SLD-Solid
 62
     7
370
    25
100
AcDbLine
 10
18.1929147864
 20
18.9035219459
 30
0.0
 11
17.9777956715
 21
18.9035219459
 31
0.0
  0
LINE
  5
388
330
1F
100
AcDbEntity
  8
0
  6
SLD-Solid
 62
     7
370
    25
100
AcDbLine
 10
18.1929147864
 20
19.7035219459
 30
0.0
 11
17.9777956715
 21
19.7035219459
 31
0.0
  0
LINE
  5
389
330
1F
100
AcDbEntity
  8
0
  6
SLD-Solid
 62
     7
370
    25
100
AcDbLine
 10
18.2050677898
 20
18.9035219459
 30
0.0
 11
18.2050677898
 21
19.7035219459
 31
0.0
  0
SPLINE
  5
38A
330
1F
100
AcDbEntity
  8
0
  6
SLD-Solid
 62
     7
370
    25
100
AcDbSpline
210
0.0
220
0.0
230
1.0
 70
    24
 71
     3
 72
    14
 73
    10
 74
     0
 42
0.00000001
 43
0.00000001
 40
0.0
 40
0.0
 40
0.0
 40
0.0
 40
0.1669732910766149
 40
0.3292393671751841
 40
0.4780643428590286
 40
0.5831555886245549
 40
0.693620832249779
 40
0.8266861690052605
 40
1.0
 40
1.0
 40
1.0
 40
1.0
 10
18.70817349521005
 20
18.90352194586638
 30
0.0
 10
18.68352649971379
 20
18.90352194586638
 30
0.0
 10
18.63492734264119
 20
18.90352194586638
 30
0.0
 10
18.55852466278003
 20
18.90352194586638
 30
0.0
 10
18.48182705149764
 20
18.90352194586638
 30
0.0
 10
18.40632805139776
 20
18.90352194586638
 30
0.0
 10
18.33546294976849
 20
18.90352194586638
 30
0.0
 10
18.26472563187584
 20
18.90352194586638
 30
0.0
 10
18.22662226150842
 20
18.90352194586638
 30
0.0
 10
18.20506778983633
 20
18.90352194586638
 30
0.0
  0
SPLINE
  5
38B
330
1F
100
AcDbEntity
  8
0
  6
SLD-Solid
 62
     7
370
    25
100
AcDbSpline
210
0.0
220
0.0
230
1.0
 70
    24
 71
     3
 72
     9
 73
     5
 74
     0
 42
0.00000001
 43
0.00000001
 40
0.0
 40
0.0
 40
0.0
 40
0.0
 40
0.5523622056474766
 40
1.0
 40
1.0
 40
1.0
 40
1.0
 10
18.70817349521005
 20
19.70352194586638
 30
0.0
 10
18.6837534286515
 20
19.70352194586638
 30
0.0
 10
18.63954318705844
 20
19.70352194586638
 30
0.0
 10
18.58971380736372
 20
19.70352194586638
 30
0.0
 10
18.56740829374322
 20
19.70352194586638
 30
0.0
  0
SPLINE
  5
38C
330
1F
100
AcDbEntity
  8
0
  6
SLD-Solid
 62
     7
370
    25
100
AcDbSpline
210
0.0
220
0.0
230
1.0
 70
    24
 71
     3
 72
     9
 73
     5
 74
     0
 42
0.00000001
 43
0.00000001
 40
0.0
 40
0.0
 40
0.0
 40
0.0
 40
0.2922643529524562
 40
0.9999999999999999
 40
0.9999999999999999
 40
0.9999999999999999
 40
0.9999999999999999
 10
18.31051563523022
 20
19.70352194586638
 30
0.0
 10
18.29802221101937
 20
19.70352194586638
 30
0.0
 10
18.25527521130951
 20
19.70352194586638
 30
0.0
 10
18.22587521514501
 20
19.70352194586638
 30
0.0
 10
18.20506778983633
 20
19.70352194586638
 30
0.0
  0
LINE
  5
38D
330
1F
100
AcDbEntity
  8
0
  6
SLD-Solid
 62
     7
370
    25
100
AcDbLine
 10
19.3238387333
 20
18.9035219459
 30
0.0
 11
19.3238387333
 21
19.6991930089
 31
0.0
  0
LINE
  5
38E
330
1F
100
AcDbEntity
  8
0
  6
SLD-Solid
 62
     7
370
    25
100
AcDbLine
 10
19.3238387333
 20
18.9035219459
 30
0.0
 11
18.8833009865
 21
18.9035219459
 31
0.0
  0
LINE
  5
38F
330
1F
100
AcDbEntity
  8
0
  6
SLD-Solid
 62
     7
370
    25
100
AcDbLine
 10
19.3105156352
 20
19.7035219459
 30
0.0
 11
18.8833009865
 21
19.7035219459
 31
0.0
  0
LINE
  5
390
330
1F
100
AcDbEntity
  8
0
  6
SLD-Solid
 62
     7
370
    25
100
AcDbLine
 10
18.2050677898
 20
18.9035219459
 30
0.0
 11
18.1929147864
 21
18.9035219459
 31
0.0
  0
LINE
  5
391
330
1F
100
AcDbEntity
  8
0
  6
SLD-Solid
 62
     7
370
    25
100
AcDbLine
 10
18.2050677898
 20
19.7035219459
 30
0.0
 11
18.1929147864
 21
19.7035219459
 31
0.0
  0
LINE
  5
392
330
1F
100
AcDbEntity
  8
0
  6
SLD-Solid
 62
     7
370
    25
100
AcDbLine
 10
19.4294438788
 20
18.9035219459
 30
0.0
 11
19.4294438788
 21
19.6935219459
 31
0.0
  0
LINE
  5
393
330
1F
100
AcDbEntity
  8
0
  6
SLD-Solid
 62
     7
370
    25
100
AcDbLine
 10
19.4294438788
 20
18.9035219459
 30
0.0
 11
19.3238387333
 21
18.9035219459
 31
0.0
  0
LINE
  5
394
330
1F
100
AcDbEntity
  8
0
  6
SLD-Solid
 62
     7
370
    25
100
AcDbLine
 10
19.9303999472
 20
18.9035219459
 30
0.0
 11
19.9303999472
 21
19.7035219459
 31
0.0
  0
SPLINE
  5
395
330
1F
100
AcDbEntity
  8
0
  6
SLD-Solid
 62
     7
370
    25
100
AcDbSpline
210
0.0
220
0.0
230
1.0
 70
    24
 71
     3
 72
    13
 73
     9
 74
     0
 42
0.00000001
 43
0.00000001
 40
0.0
 40
0.0
 40
0.0
 40
0.0
 40
0.1709847685286762
 40
0.3326578081366878
 40
0.4968967494144847
 40
0.6391258064239833
 40
0.8035705820916741
 40
0.9999999999999999
 40
0.9999999999999999
 40
0.9999999999999999
 40
0.9999999999999999
 10
19.93039994718132
 20
18.90352194586638
 30
0.0
 10
19.92350113235553
 20
18.90352194586638
 30
0.0
 10
19.91007920806112
 20
18.90352194586638
 30
0.0
 10
19.86916926330172
 20
18.90352194586638
 30
0.0
 10
19.80064077082009
 20
18.90352194586638
 30
0.0
 10
19.70415568222165
 20
18.90352194586638
 30
0.0
 10
19.5817882488203
 20
18.90352194586638
 30
0.0
 10
19.48313977326611
 20
18.90352194586638
 30
0.0
 10
19.4294438787533
 20
18.90352194586638
 30
0.0
  0
SPLINE
  5
396
330
1F
100
AcDbEntity
  8
0
  6
SLD-Solid
 62
     7
370
    25
100
AcDbSpline
210
0.0
220
0.0
230
1.0
 70
    24
 71
     3
 72
    13
 73
     9
 74
     0
 42
0.00000001
 43
0.00000001
 40
0.0
 40
0.0
 40
0.0
 40
0.0
 40
0.2064202242130523
 40
0.4015989256392817
 40
0.5998752947849425
 40
0.7715803775835185
 40
0.9701052389269245
 40
1.0
 40
1.0
 40
1.0
 40
1.0
 10
19.93039994718132
 20
19.70352194586638
 30
0.0
 10
19.92350503845611
 20
19.70352194586638
 30
0.0
 10
19.91009071363895
 20
19.70352194586638
 30
0.0
 10
19.86912586610649
 20
19.70352194586638
 30
0.0
 10
19.80079730972389
 20
19.70352194586638
 30
0.0
 10
19.70362552738727
 20
19.70352194586638
 30
0.0
 10
19.62502947953173
 20
19.70352194586638
 30
0.0
 10
19.57407680193322
 20
19.70352194586638
 30
0.0
 10
19.56740829374322
 20
19.70352194586638
 30
0.0
  0
LINE
  5
397
330
1F
100
AcDbEntity
  8
0
  6
SLD-Solid
 62
     7
370
    25
100
AcDbLine
 10
29.2242970465
 20
18.9035219459
 30
0.0
 11
29.2242970465
 21
19.7035219459
 31
0.0
  0
LINE
  5
398
330
1F
100
AcDbEntity
  8
0
  6
SLD-Solid
 62
     7
370
    25
100
AcDbLine
 10
29.0491695552
 20
18.9035219459
 30
0.0
 11
29.0491695552
 21
19.7035219459
 31
0.0
  0
SPLINE
  5
399
330
1F
100
AcDbEntity
  8
0
  6
SLD-Solid
 62
     7
370
    25
100
AcDbSpline
210
0.0
220
0.0
230
1.0
 70
    24
 71
     3
 72
    10
 73
     6
 74
     0
 42
0.00000001
 43
0.00000001
 40
0.0
 40
0.0
 40
0.0
 40
0.0
 40
0.312700108085141
 40
0.585202906562606
 40
1.0
 40
1.0
 40
1.0
 40
1.0
 10
29.22429704651346
 20
18.90352194586638
 30
0.0
 10
29.20404964548733
 20
18.90352194586638
 30
0.0
 10
29.1661576281056
 20
18.90352194586638
 30
0.0
 10
29.10575815244096
 20
18.90352194586638
 30
0.0
 10
29.07046784924865
 20
18.90352194586638
 30
0.0
 10
29.04916955521006
 20
18.90352194586638
 30
0.0
  0
SPLINE
  5
39A
330
1F
100
AcDbEntity
  8
0
  6
SLD-Solid
 62
     7
370
    25
100
AcDbSpline
210
0.0
220
0.0
230
1.0
 70
    24
 71
     3
 72
    10
 73
     6
 74
     0
 42
0.00000001
 43
0.00000001
 40
0.0
 40
0.0
 40
0.0
 40
0.0
 40
0.312700108085141
 40
0.585202906562606
 40
1.0
 40
1.0
 40
1.0
 40
1.0
 10
29.22429704651346
 20
19.70352194586638
 30
0.0
 10
29.20404964548733
 20
19.70352194586638
 30
0.0
 10
29.1661576281056
 20
19.70352194586638
 30
0.0
 10
29.10575815244096
 20
19.70352194586638
 30
0.0
 10
29.07046784924865
 20
19.70352194586638
 30
0.0
 10
29.04916955521006
 20
19.70352194586638
 30
0.0
  0
LINE
  5
39B
330
1F
100
AcDbEntity
  8
0
  6
SLD-Solid
 62
     7
370
    25
100
AcDbLine
 10
28.5339108464
 20
18.9035219459
 30
0.0
 11
28.5339108464
 21
19.7035219459
 31
0.0
  0
LINE
  5
39C
330
1F
100
AcDbEntity
  8
0
  6
SLD-Solid
 62
     7
370
    25
100
AcDbLine
 10
28.3187917315
 20
18.9035219459
 30
0.0
 11
28.3187917315
 21
19.7035219459
 31
0.0
  0
LINE
  5
39D
330
1F
100
AcDbEntity
  8
0
  6
SLD-Solid
 62
     7
370
    25
100
AcDbLine
 10
28.5339108464
 20
18.9035219459
 30
0.0
 11
28.3187917315
 21
18.9035219459
 31
0.0
  0
LINE
  5
39E
330
1F
100
AcDbEntity
  8
0
  6
SLD-Solid
 62
     7
370
    25
100
AcDbLine
 10
28.5339108464
 20
19.7035219459
 30
0.0
 11
28.3187917315
 21
19.7035219459
 31
0.0
  0
LINE
  5
39F
330
1F
100
AcDbEntity
  8
0
  6
SLD-Solid
 62
     7
370
    25
100
AcDbLine
 10
28.5460638498
 20
18.9035219459
 30
0.0
 11
28.5460638498
 21
19.7035219459
 31
0.0
  0
SPLINE
  5
3A0
330
1F
100
AcDbEntity
  8
0
  6
SLD-Solid
 62
     7
370
    25
100
AcDbSpline
210
0.0
220
0.0
230
1.0
 70
    24
 71
     3
 72
    14
 73
    10
 74
     0
 42
0.00000001
 43
0.00000001
 40
0.0
 40
0.0
 40
0.0
 40
0.0
 40
0.1669732910766157
 40
0.3292393671751837
 40
0.4780643428590281
 40
0.5831555886245555
 40
0.6936208322497779
 40
0.8266861690052615
 40
1.0
 40
1.0
 40
1.0
 40
1.0
 10
29.04916955521006
 20
18.90352194586638
 30
0.0
 10
29.02452255971379
 20
18.90352194586638
 30
0.0
 10
28.9759234026412
 20
18.90352194586638
 30
0.0
 10
28.89952072278003
 20
18.90352194586638
 30
0.0
 10
28.82282311149764
 20
18.90352194586638
 30
0.0
 10
28.74732411139776
 20
18.90352194586638
 30
0.0
 10
28.6764590097685
 20
18.90352194586638
 30
0.0
 10
28.60572169187585
 20
18.90352194586638
 30
0.0
 10
28.56761832150842
 20
18.90352194586638
 30
0.0
 10
28.54606384983633
 20
18.90352194586638
 30
0.0
  0
SPLINE
  5
3A1
330
1F
100
AcDbEntity
  8
0
  6
SLD-Solid
 62
     7
370
    25
100
AcDbSpline
210
0.0
220
0.0
230
1.0
 70
    24
 71
     3
 72
     9
 73
     5
 74
     0
 42
0.00000001
 43
0.00000001
 40
0.0
 40
0.0
 40
0.0
 40
0.0
 40
0.5523622056474766
 40
1.0
 40
1.0
 40
1.0
 40
1.0
 10
29.04916955521006
 20
19.70352194586638
 30
0.0
 10
29.0247494886515
 20
19.70352194586638
 30
0.0
 10
28.98053924705845
 20
19.70352194586638
 30
0.0
 10
28.93070986736372
 20
19.70352194586638
 30
0.0
 10
28.90840435374322
 20
19.70352194586638
 30
0.0
  0
SPLINE
  5
3A2
330
1F
100
AcDbEntity
  8
0
  6
SLD-Solid
 62
     7
370
    25
100
AcDbSpline
210
0.0
220
0.0
230
1.0
 70
    24
 71
     3
 72
     9
 73
     5
 74
     0
 42
0.00000001
 43
0.00000001
 40
0.0
 40
0.0
 40
0.0
 40
0.0
 40
0.2922643529524647
 40
1.0
 40
1.0
 40
1.0
 40
1.0
 10
28.65151169523022
 20
19.70352194586638
 30
0.0
 10
28.63901827101937
 20
19.70352194586638
 30
0.0
 10
28.59627127130951
 20
19.70352194586638
 30
0.0
 10
28.56687127514501
 20
19.70352194586638
 30
0.0
 10
28.54606384983633
 20
19.70352194586638
 30
0.0
  0
LINE
  5
3A3
330
1F
100
AcDbEntity
  8
0
  6
SLD-Solid
 62
     7
370
    25
100
AcDbLine
 10
29.6648347933
 20
18.9035219459
 30
0.0
 11
29.6648347933
 21
19.6991930089
 31
0.0
  0
LINE
  5
3A4
330
1F
100
AcDbEntity
  8
0
  6
SLD-Solid
 62
     7
370
    25
100
AcDbLine
 10
29.6648347933
 20
18.9035219459
 30
0.0
 11
29.2242970465
 21
18.9035219459
 31
0.0
  0
LINE
  5
3A5
330
1F
100
AcDbEntity
  8
0
  6
SLD-Solid
 62
     7
370
    25
100
AcDbLine
 10
29.6515116952
 20
19.7035219459
 30
0.0
 11
29.2242970465
 21
19.7035219459
 31
0.0
  0
LINE
  5
3A6
330
1F
100
AcDbEntity
  8
0
  6
SLD-Solid
 62
     7
370
    25
100
AcDbLine
 10
28.5460638498
 20
18.9035219459
 30
0.0
 11
28.5339108464
 21
18.9035219459
 31
0.0
  0
LINE
  5
3A7
330
1F
100
AcDbEntity
  8
0
  6
SLD-Solid
 62
     7
370
    25
100
AcDbLine
 10
28.5460638498
 20
19.7035219459
 30
0.0
 11
28.5339108464
 21
19.7035219459
 31
0.0
  0
LINE
  5
3A8
330
1F
100
AcDbEntity
  8
0
  6
SLD-Solid
 62
     7
370
    25
100
AcDbLine
 10
29.7704399388
 20
18.9035219459
 30
0.0
 11
29.7704399388
 21
19.6935219459
 31
0.0
  0
LINE
  5
3A9
330
1F
100
AcDbEntity
  8
0
  6
SLD-Solid
 62
     7
370
    25
100
AcDbLine
 10
29.7704399388
 20
18.9035219459
 30
0.0
 11
29.6648347933
 21
18.9035219459
 31
0.0
  0
LINE
  5
3AA
330
1F
100
AcDbEntity
  8
0
  6
SLD-Solid
 62
     7
370
    25
100
AcDbLine
 10
30.2713960072
 20
18.9035219459
 30
0.0
 11
30.2713960072
 21
19.7035219459
 31
0.0
  0
SPLINE
  5
3AB
330
1F
100
AcDbEntity
  8
0
  6
SLD-Solid
 62
     7
370
    25
100
AcDbSpline
210
0.0
220
0.0
230
1.0
 70
    24
 71
     3
 72
    13
 73
     9
 74
     0
 42
0.00000001
 43
0.00000001
 40
0.0
 40
0.0
 40
0.0
 40
0.0
 40
0.1709847685286765
 40
0.3326578081366879
 40
0.4968967494144843
 40
0.6391258064239833
 40
0.803570582091675
 40
0.9999999999999999
 40
0.9999999999999999
 40
0.9999999999999999
 40
0.9999999999999999
 10
30.27139600718133
 20
18.90352194586638
 30
0.0
 10
30.26449719235553
 20
18.90352194586638
 30
0.0
 10
30.25107526806113
 20
18.90352194586638
 30
0.0
 10
30.21016532330172
 20
18.90352194586638
 30
0.0
 10
30.14163683082009
 20
18.90352194586638
 30
0.0
 10
30.04515174222165
 20
18.90352194586638
 30
0.0
 10
29.9227843088203
 20
18.90352194586638
 30
0.0
 10
29.82413583326612
 20
18.90352194586638
 30
0.0
 10
29.77043993875331
 20
18.90352194586638
 30
0.0
  0
SPLINE
  5
3AC
330
1F
100
AcDbEntity
  8
0
  6
SLD-Solid
 62
     7
370
    25
100
AcDbSpline
210
0.0
220
0.0
230
1.0
 70
    24
 71
     3
 72
    13
 73
     9
 74
     0
 42
0.00000001
 43
0.00000001
 40
0.0
 40
0.0
 40
0.0
 40
0.0
 40
0.2064202242130528
 40
0.4015989256392823
 40
0.5998752947849426
 40
0.7715803775835194
 40
0.9701052389269267
 40
1.0
 40
1.0
 40
1.0
 40
1.0
 10
30.27139600718132
 20
19.70352194586638
 30
0.0
 10
30.26450109845611
 20
19.70352194586638
 30
0.0
 10
30.25108677363895
 20
19.70352194586638
 30
0.0
 10
30.21012192610649
 20
19.70352194586638
 30
0.0
 10
30.14179336972389
 20
19.70352194586638
 30
0.0
 10
30.04462158738727
 20
19.70352194586638
 30
0.0
 10
29.96602553953173
 20
19.70352194586638
 30
0.0
 10
29.91507286193321
 20
19.70352194586638
 30
0.0
 10
29.90840435374322
 20
19.70352194586638
 30
0.0
  0
ARC
  5
3AD
330
1F
100
AcDbEntity
  8
0
  6
SLD-Solid
 62
     7
370
    25
100
AcDbCircle
 10
30.2045647765
 20
19.6835219459
 30
0.0
 40
0.0700000000000003
100
AcDbArc
 50
0.0
 51
90.0
  0
ARC
  5
3AE
330
1F
100
AcDbEntity
  8
0
  6
SLD-Solid
 62
     7
370
    25
100
AcDbCircle
 10
30.2045647765
 20
19.6835219459
 30
0.0
 40
0.1400000000000041
100
AcDbArc
 50
0.0
 51
90.0
  0
ARC
  5
3AF
330
1F
100
AcDbEntity
  8
0
  6
SLD-Solid
 62
     7
370
    25
100
AcDbCircle
 10
27.7735382017
 20
19.6835219459
 30
0.0
 40
0.0700000000000003
100
AcDbArc
 50
90.0
 51
180.0
  0
ARC
  5
3B0
330
1F
100
AcDbEntity
  8
0
  6
SLD-Solid
 62
     7
370
    25
100
AcDbCircle
 10
27.7735382017
 20
19.6835219459
 30
0.0
 40
0.1400000000000006
100
AcDbArc
 50
90.0
 51
180.0
  0
LINE
  5
3B1
330
1F
100
AcDbEntity
  8
0
  6
SLD-Solid
 62
     7
370
    25
100
AcDbLine
 10
30.2045647765
 20
19.7535219459
 30
0.0
 11
27.7735382017
 21
19.7535219459
 31
0.0
  0
LINE
  5
3B2
330
1F
100
AcDbEntity
  8
0
  6
SLD-Solid
 62
     7
370
    25
100
AcDbLine
 10
30.3445647765
 20
19.6835219459
 30
0.0
 11
30.3445647765
 21
19.1735219459
 31
0.0
  0
LINE
  5
3B3
330
1F
100
AcDbEntity
  8
0
  6
SLD-Solid
 62
     7
370
    25
100
AcDbLine
 10
30.2745647765
 20
19.6835219459
 30
0.0
 11
30.2745647765
 21
19.1735219459
 31
0.0
  0
LINE
  5
3B4
330
1F
100
AcDbEntity
  8
0
  6
SLD-Solid
 62
     7
370
    25
100
AcDbLine
 10
27.7035382017
 20
19.0735219459
 30
0.0
 11
27.7035382017
 21
19.6835219459
 31
0.0
  0
LINE
  5
3B5
330
1F
100
AcDbEntity
  8
0
  6
SLD-Solid
 62
     7
370
    25
100
AcDbLine
 10
27.6335382017
 20
19.0735219459
 30
0.0
 11
27.6335382017
 21
19.6835219459
 31
0.0
  0
LINE
  5
3B6
330
1F
100
AcDbEntity
  8
0
  6
SLD-Solid
 62
     7
370
    25
100
AcDbLine
 10
30.3445647765
 20
19.0235219459
 30
0.0
 11
30.2745647765
 21
19.0235219459
 31
0.0
  0
LINE
  5
3B7
330
1F
100
AcDbEntity
  8
0
  6
SLD-Solid
 62
     7
370
    25
100
AcDbLine
 10
30.3445647765
 20
19.1735219459
 30
0.0
 11
30.3445647765
 21
19.0235219459
 31
0.0
  0
LINE
  5
3B8
330
1F
100
AcDbEntity
  8
0
  6
SLD-Solid
 62
     7
370
    25
100
AcDbLine
 10
30.2745647765
 20
19.0235219459
 30
0.0
 11
30.2745647765
 21
19.1735219459
 31
0.0
  0
LINE
  5
3B9
330
1F
100
AcDbEntity
  8
0
  6
SLD-Solid
 62
     7
370
    25
100
AcDbLine
 10
27.7035382017
 20
18.9235219459
 30
0.0
 11
27.6335382017
 21
18.9235219459
 31
0.0
  0
LINE
  5
3BA
330
1F
100
AcDbEntity
  8
0
  6
SLD-Solid
 62
     7
370
    25
100
AcDbLine
 10
27.6335382017
 20
18.9235219459
 30
0.0
 11
27.6335382017
 21
19.0735219459
 31
0.0
  0
LINE
  5
3BB
330
1F
100
AcDbEntity
  8
0
  6
SLD-Solid
 62
     7
370
    25
100
AcDbLine
 10
27.7035382017
 20
19.0735219459
 30
0.0
 11
27.7035382017
 21
18.9235219459
 31
0.0
  0
LINE
  5
3BC
330
1F
100
AcDbEntity
  8
0
  6
SLD-Solid
 62
     7
370
    25
100
AcDbLine
 10
9.5225726565
 20
19.7535219459
 30
0.0
 11
7.0915460817
 21
19.7535219459
 31
0.0
  0
ARC
  5
3BD
330
1F
100
AcDbEntity
  8
0
  6
SLD-Solid
 62
     7
370
    25
100
AcDbCircle
 10
7.0915460817
 20
19.6835219459
 30
0.0
 40
0.1400000000000006
100
AcDbArc
 50
90.0
 51
180.0
  0
ARC
  5
3BE
330
1F
100
AcDbEntity
  8
0
  6
SLD-Solid
 62
     7
370
    25
100
AcDbCircle
 10
7.0915460817
 20
19.6835219459
 30
0.0
 40
0.0700000000000003
100
AcDbArc
 50
90.0
 51
180.0
  0
ARC
  5
3BF
330
1F
100
AcDbEntity
  8
0
  6
SLD-Solid
 62
     7
370
    25
100
AcDbCircle
 10
9.5225726565
 20
19.6835219459
 30
0.0
 40
0.1400000000000006
100
AcDbArc
 50
0.0
 51
90.0
  0
ARC
  5
3C0
330
1F
100
AcDbEntity
  8
0
  6
SLD-Solid
 62
     7
370
    25
100
AcDbCircle
 10
9.5225726565
 20
19.6835219459
 30
0.0
 40
0.0700000000000003
100
AcDbArc
 50
0.0
 51
90.0
  0
LINE
  5
3C1
330
1F
100
AcDbEntity
  8
0
  6
SLD-Solid
 62
     7
370
    25
100
AcDbLine
 10
6.9515460817
 20
19.0735219459
 30
0.0
 11
6.9515460817
 21
19.6835219459
 31
0.0
  0
LINE
  5
3C2
330
1F
100
AcDbEntity
  8
0
  6
SLD-Solid
 62
     7
370
    25
100
AcDbLine
 10
7.0215460817
 20
19.0735219459
 30
0.0
 11
7.0215460817
 21
19.6835219459
 31
0.0
  0
LINE
  5
3C3
330
1F
100
AcDbEntity
  8
0
  6
SLD-Solid
 62
     7
370
    25
100
AcDbLine
 10
9.6625726565
 20
19.6835219459
 30
0.0
 11
9.6625726565
 21
19.1735219459
 31
0.0
  0
LINE
  5
3C4
330
1F
100
AcDbEntity
  8
0
  6
SLD-Solid
 62
     7
370
    25
100
AcDbLine
 10
9.5925726565
 20
19.6835219459
 30
0.0
 11
9.5925726565
 21
19.1735219459
 31
0.0
  0
LINE
  5
3C5
330
1F
100
AcDbEntity
  8
0
  6
SLD-Solid
 62
     7
370
    25
100
AcDbLine
 10
9.6625726565
 20
19.0235219459
 30
0.0
 11
9.5925726565
 21
19.0235219459
 31
0.0
  0
LINE
  5
3C6
330
1F
100
AcDbEntity
  8
0
  6
SLD-Solid
 62
     7
370
    25
100
AcDbLine
 10
9.5925726565
 20
19.0235219459
 30
0.0
 11
9.5925726565
 21
19.1735219459
 31
0.0
  0
LINE
  5
3C7
330
1F
100
AcDbEntity
  8
0
  6
SLD-Solid
 62
     7
370
    25
100
AcDbLine
 10
9.6625726565
 20
19.1735219459
 30
0.0
 11
9.6625726565
 21
19.0235219459
 31
0.0
  0
LINE
  5
3C8
330
1F
100
AcDbEntity
  8
0
  6
SLD-Solid
 62
     7
370
    25
100
AcDbLine
 10
7.0215460817
 20
18.9235219459
 30
0.0
 11
6.9515460817
 21
18.9235219459
 31
0.0
  0
LINE
  5
3C9
330
1F
100
AcDbEntity
  8
0
  6
SLD-Solid
 62
     7
370
    25
100
AcDbLine
 10
6.9515460817
 20
18.9235219459
 30
0.0
 11
6.9515460817
 21
19.0735219459
 31
0.0
  0
LINE
  5
3CA
330
1F
100
AcDbEntity
  8
0
  6
SLD-Solid
 62
     7
370
    25
100
AcDbLine
 10
7.0215460817
 20
19.0735219459
 30
0.0
 11
7.0215460817
 21
18.9235219459
 31
0.0
  0
LINE
  5
3CB
330
1F
100
AcDbEntity
  8
0
  6
SLD-Solid
 62
     7
370
    25
100
AcDbLine
 10
19.8635687165
 20
19.7535219459
 30
0.0
 11
17.4325421417
 21
19.7535219459
 31
0.0
  0
ARC
  5
3CC
330
1F
100
AcDbEntity
  8
0
  6
SLD-Solid
 62
     7
370
    25
100
AcDbCircle
 10
19.8635687165
 20
19.6835219459
 30
0.0
 40
0.1400000000000006
100
AcDbArc
 50
0.0
 51
90.0
  0
ARC
  5
3CD
330
1F
100
AcDbEntity
  8
0
  6
SLD-Solid
 62
     7
370
    25
100
AcDbCircle
 10
19.8635687165
 20
19.6835219459
 30
0.0
 40
0.0700000000000003
100
AcDbArc
 50
0.0
 51
90.0
  0
ARC
  5
3CE
330
1F
100
AcDbEntity
  8
0
  6
SLD-Solid
 62
     7
370
    25
100
AcDbCircle
 10
17.4325421417
 20
19.6835219459
 30
0.0
 40
0.1400000000000006
100
AcDbArc
 50
90.0
 51
180.0
  0
ARC
  5
3CF
330
1F
100
AcDbEntity
  8
0
  6
SLD-Solid
 62
     7
370
    25
100
AcDbCircle
 10
17.4325421417
 20
19.6835219459
 30
0.0
 40
0.0700000000000003
100
AcDbArc
 50
90.0
 51
180.0
  0
LINE
  5
3D0
330
1F
100
AcDbEntity
  8
0
  6
SLD-Solid
 62
     7
370
    25
100
AcDbLine
 10
17.2925421417
 20
19.0735219459
 30
0.0
 11
17.2925421417
 21
19.6835219459
 31
0.0
  0
LINE
  5
3D1
330
1F
100
AcDbEntity
  8
0
  6
SLD-Solid
 62
     7
370
    25
100
AcDbLine
 10
17.3625421417
 20
19.0735219459
 30
0.0
 11
17.3625421417
 21
19.6835219459
 31
0.0
  0
LINE
  5
3D2
330
1F
100
AcDbEntity
  8
0
  6
SLD-Solid
 62
     7
370
    25
100
AcDbLine
 10
20.0035687165
 20
19.6835219459
 30
0.0
 11
20.0035687165
 21
19.1735219459
 31
0.0
  0
LINE
  5
3D3
330
1F
100
AcDbEntity
  8
0
  6
SLD-Solid
 62
     7
370
    25
100
AcDbLine
 10
19.9335687165
 20
19.6835219459
 30
0.0
 11
19.9335687165
 21
19.1735219459
 31
0.0
  0
LINE
  5
3D4
330
1F
100
AcDbEntity
  8
0
  6
SLD-Solid
 62
     7
370
    25
100
AcDbLine
 10
20.0035687165
 20
19.0235219459
 30
0.0
 11
19.9335687165
 21
19.0235219459
 31
0.0
  0
LINE
  5
3D5
330
1F
100
AcDbEntity
  8
0
  6
SLD-Solid
 62
     7
370
    25
100
AcDbLine
 10
20.0035687165
 20
19.1735219459
 30
0.0
 11
20.0035687165
 21
19.0235219459
 31
0.0
  0
LINE
  5
3D6
330
1F
100
AcDbEntity
  8
0
  6
SLD-Solid
 62
     7
370
    25
100
AcDbLine
 10
19.9335687165
 20
19.0235219459
 30
0.0
 11
19.9335687165
 21
19.1735219459
 31
0.0
  0
LINE
  5
3D7
330
1F
100
AcDbEntity
  8
0
  6
SLD-Solid
 62
     7
370
    25
100
AcDbLine
 10
17.3625421417
 20
18.9235219459
 30
0.0
 11
17.2925421417
 21
18.9235219459
 31
0.0
  0
LINE
  5
3D8
330
1F
100
AcDbEntity
  8
0
  6
SLD-Solid
 62
     7
370
    25
100
AcDbLine
 10
17.2925421417
 20
18.9235219459
 30
0.0
 11
17.2925421417
 21
19.0735219459
 31
0.0
  0
LINE
  5
3D9
330
1F
100
AcDbEntity
  8
0
  6
SLD-Solid
 62
     7
370
    25
100
AcDbLine
 10
17.3625421417
 20
19.0735219459
 30
0.0
 11
17.3625421417
 21
18.9235219459
 31
0.0
  0
LINE
  5
3DA
330
1F
100
AcDbEntity
  8
0
  6
SLD-Solid
 62
     7
370
    25
100
AcDbLine
 10
9.2869625852
 20
19.7235219459
 30
0.0
 11
9.2879659045
 21
19.7235219459
 31
0.0
  0
LINE
  5
3DB
330
1F
100
AcDbEntity
  8
0
  6
SLD-Solid
 62
     7
370
    25
100
AcDbLine
 10
8.9079659045
 20
19.7235219459
 30
0.0
 11
9.2869625852
 21
19.7235219459
 31
0.0
  0
LINE
  5
3DC
330
1F
100
AcDbEntity
  8
0
  6
SLD-Solid
 62
     7
370
    25
100
AcDbLine
 10
9.1956353984
 20
19.6935219459
 30
0.0
 11
9.0002964106
 21
19.6935219459
 31
0.0
  0
LINE
  5
3DD
330
1F
100
AcDbEntity
  8
0
  6
SLD-Solid
 62
     7
370
    25
100
AcDbLine
 10
28.5899580245
 20
19.7235219459
 30
0.0
 11
28.9699580245
 21
19.7235219459
 31
0.0
  0
LINE
  5
3DE
330
1F
100
AcDbEntity
  8
0
  6
SLD-Solid
 62
     7
370
    25
100
AcDbLine
 10
28.8776275184
 20
19.6935219459
 30
0.0
 11
28.6822885306
 21
19.6935219459
 31
0.0
  0
LINE
  5
3DF
330
1F
100
AcDbEntity
  8
0
  6
SLD-Solid
 62
     7
370
    25
100
AcDbLine
 10
7.9079659045
 20
19.7235219459
 30
0.0
 11
8.2879659045
 21
19.7235219459
 31
0.0
  0
LINE
  5
3E0
330
1F
100
AcDbEntity
  8
0
  6
SLD-Solid
 62
     7
370
    25
100
AcDbLine
 10
8.1956353984
 20
19.6935219459
 30
0.0
 11
8.0002964106
 21
19.6935219459
 31
0.0
  0
LINE
  5
3E1
330
1F
100
AcDbEntity
  8
0
  6
SLD-Solid
 62
     7
370
    25
100
AcDbLine
 10
19.6279586452
 20
19.7235219459
 30
0.0
 11
19.6289619645
 21
19.7235219459
 31
0.0
  0
LINE
  5
3E2
330
1F
100
AcDbEntity
  8
0
  6
SLD-Solid
 62
     7
370
    25
100
AcDbLine
 10
19.2489619645
 20
19.7235219459
 30
0.0
 11
19.6279586452
 21
19.7235219459
 31
0.0
  0
LINE
  5
3E3
330
1F
100
AcDbEntity
  8
0
  6
SLD-Solid
 62
     7
370
    25
100
AcDbLine
 10
19.5366314584
 20
19.6935219459
 30
0.0
 11
19.3412924706
 21
19.6935219459
 31
0.0
  0
LINE
  5
3E4
330
1F
100
AcDbEntity
  8
0
  6
SLD-Solid
 62
     7
370
    25
100
AcDbLine
 10
18.2489619645
 20
19.7235219459
 30
0.0
 11
18.6289619645
 21
19.7235219459
 31
0.0
  0
LINE
  5
3E5
330
1F
100
AcDbEntity
  8
0
  6
SLD-Solid
 62
     7
370
    25
100
AcDbLine
 10
18.5366314584
 20
19.6935219459
 30
0.0
 11
18.3412924706
 21
19.6935219459
 31
0.0
  0
LINE
  5
3E6
330
1F
100
AcDbEntity
  8
0
  6
SLD-Solid
 62
     7
370
    25
100
AcDbLine
 10
29.9689547052
 20
19.7235219459
 30
0.0
 11
29.9699580245
 21
19.7235219459
 31
0.0
  0
LINE
  5
3E7
330
1F
100
AcDbEntity
  8
0
  6
SLD-Solid
 62
     7
370
    25
100
AcDbLine
 10
29.5899580245
 20
19.7235219459
 30
0.0
 11
29.9689547052
 21
19.7235219459
 31
0.0
  0
LINE
  5
3E8
330
1F
100
AcDbEntity
  8
0
  6
SLD-Solid
 62
     7
370
    25
100
AcDbLine
 10
29.8776275184
 20
19.6935219459
 30
0.0
 11
29.6822885306
 21
19.6935219459
 31
0.0
  0
LINE
  5
3E9
330
1F
100
AcDbEntity
  8
0
  6
SLD-Solid
 62
     7
370
    25
100
AcDbLine
 10
29.5083225134
 20
18.8850509104
 30
0.0
 11
29.8207642477
 21
18.8850509104
 31
0.0
  0
LINE
  5
3EA
330
1F
100
AcDbEntity
  8
0
  6
SLD-Solid
 62
     7
370
    25
100
AcDbLine
 10
19.1673264534
 20
18.8850509104
 30
0.0
 11
19.4797681877
 21
18.8850509104
 31
0.0
  0
LINE
  5
3EB
330
1F
100
AcDbEntity
  8
0
  6
SLD-Solid
 62
     7
370
    25
100
AcDbLine
 10
8.8263303934
 20
18.8850509104
 30
0.0
 11
9.1387721277
 21
18.8850509104
 31
0.0
  0
LINE
  5
3EC
330
1F
100
AcDbEntity
  8
0
  6
SLD-Solid
 62
     7
370
    25
100
AcDbLine
 10
31.9479580245
 20
20.2955108846
 30
0.0
 11
5.9479580245
 21
20.2955108846
 31
0.0
  0
LINE
  5
3ED
330
1F
100
AcDbEntity
  8
0
  6
SLD-Solid
 62
     7
370
    25
100
AcDbLine
 10
31.9479580245
 20
19.8535219459
 30
0.0
 11
31.9479580245
 21
20.2955108846
 31
0.0
  0
LINE
  5
3EE
330
1F
100
AcDbEntity
  8
0
  6
SLD-Solid
 62
     7
370
    25
100
AcDbLine
 10
5.9479580245
 20
20.2955108846
 30
0.0
 11
5.9479580245
 21
19.8535219459
 31
0.0
  0
LINE
  5
3EF
330
1F
100
AcDbEntity
  8
0
  6
SLD-Solid
 62
     7
370
    25
100
AcDbLine
 10
5.9479580245
 20
19.8235219459
 30
0.0
 11
31.9479580245
 21
19.8235219459
 31
0.0
  0
LINE
  5
3F0
330
1F
100
AcDbEntity
  8
0
  6
SLD-Solid
 62
     7
370
    25
100
AcDbLine
 10
5.9479580245
 20
19.8535219459
 30
0.0
 11
5.9479580245
 21
19.8235219459
 31
0.0
  0
LINE
  5
3F1
330
1F
100
AcDbEntity
  8
0
  6
SLD-Solid
 62
     7
370
    25
100
AcDbLine
 10
31.9479580245
 20
19.8535219459
 30
0.0
 11
31.9479580245
 21
19.8235219459
 31
0.0
  0
DIMENSION
  5
3F2
330
1F
100
AcDbEntity
  8
DIMS
100
AcDbDimension
  2
_D_5
 10
32.5778792843
 20
20.2955108846
 30
0.0
 11
32.5778792843
 21
19.5995164152
 31
0.0
 70
   160
  1
<>
 71
     2
 42
-1.0
  3
SLDDIMSTYLE2
100
AcDbAlignedDimension
 13
30.2713960072
 23
18.9035219459
 33
0.0
 14
31.9479580245
 24
20.2955108846
 34
0.0
 50
90.0
100
AcDbRotatedDimension
  0
DIMENSION
  5
402
330
1F
100
AcDbEntity
  8
DIMS
100
AcDbDimension
  2
_D_6
 10
5.9479580245
 20
20.9254321444
 30
0.0
 11
18.9479580245
 21
20.9254321444
 31
0.0
 70
   160
  1
<>
 71
     2
 42
-1.0
  3
SLDDIMSTYLE3
100
AcDbAlignedDimension
 13
31.9479580245
 23
20.2955108846
 33
0.0
 14
5.9479580245
 24
20.2955108846
 34
0.0
100
AcDbRotatedDimension
  0
MTEXT
  5
40E
330
1F
100
AcDbEntity
  8
NOTES
100
AcDbMText
 10
17.3071091543
 20
18.0839441046
 30
0.0
 40
0.5
 41
0.0
 71
     1
 72
     1
  1
Top view
  7
SLDTEXTSTYLE1
 73
     1
 44
1.0
  0
ENDSEC
  0
SECTION
  2
OBJECTS
  0
DICTIONARY
  5
C
330
0
100
AcDbDictionary
281
     1
  3
ACAD_GROUP
350
D
  3
ACAD_LAYOUT
350
1A
  3
ACAD_MLINESTYLE
350
17
  3
ACAD_PLOTSETTINGS
350
19
  3
ACAD_PLOTSTYLENAME
350
E
  3
ACAD_SCALELIST
350
47
  3
DWGPROPS
350
40F
  0
DICTIONARY
  5
D
102
{ACAD_REACTORS
330
C
102
}
330
C
100
AcDbDictionary
281
     1
  0
DICTIONARY
  5
1A
102
{ACAD_REACTORS
330
C
102
}
330
C
100
AcDbDictionary
281
     1
  3
Layout1
350
1E
  3
Layout2
350
26
  3
Model
350
22
  0
DICTIONARY
  5
17
102
{ACAD_REACTORS
330
C
102
}
330
C
100
AcDbDictionary
281
     1
  3
Standard
350
18
  0
DICTIONARY
  5
19
102
{ACAD_REACTORS
330
C
102
}
330
C
100
AcDbDictionary
281
     1
  0
ACDBDICTIONARYWDFLT
  5
E
102
{ACAD_REACTORS
330
C
102
}
330
C
100
AcDbDictionary
281
     1
  3
Normal
350
F
100
AcDbDictionaryWithDefault
340
F
  0
DICTIONARY
  5
47
102
{ACAD_REACTORS
330
C
102
}
330
C
100
AcDbDictionary
281
     1
  3
A0
350
48
  3
A1
350
49
  3
A2
350
4A
  3
A3
350
4B
  3
A4
350
4C
  3
A5
350
4D
  3
A6
350
4E
  3
A7
350
4F
  3
A8
350
50
  3
A9
350
51
  3
B0
350
52
  3
B1
350
53
  3
B2
350
54
  3
B3
350
55
  3
B4
350
56
  3
B5
350
57
  3
B6
350
58
  3
B7
350
59
  3
B8
350
5A
  3
B9
350
5B
  3
C0
350
5C
  3
C1
350
5D
  3
C2
350
5E
  3
C3
350
5F
  3
C4
350
60
  3
C5
350
61
  3
C6
350
62
  3
C7
350
63
  3
C8
350
64
  3
C9
350
65
  3
D0
350
66
  3
D1
350
67
  3
D2
350
68
  0
XRECORD
  5
40F
102
{ACAD_REACTORS
330
C
102
}
330
C
100
AcDbXrecord
280
     1
  1
DWGPROPS COOKIE
  2

  3

  4

  6

  7

  8
carl
  9

300
=
301
=
302
=
303
=
304
=
305
=
306
=
307
=
308
=
309
=
 40
0.0
 41
2459466.579455208
 42
2459466.579458461
  1

 90
        0
  0
LAYOUT
  5
1E
102
{ACAD_REACTORS
330
1A
102
}
330
1A
100
AcDbPlotSettings
  1

  2
none_device
  4

  6

 40
0.0
 41
0.0
 42
0.0
 43
0.0
 44
0.0
 45
0.0
 46
0.0
 47
0.0
 48
0.0
 49
0.0
140
0.0
141
0.0
142
1.0
143
1.0
 70
   688
 72
     0
 73
     0
 74
     5
  7

 75
    16
147
1.0
148
0.0
149
0.0
100
AcDbLayout
  1
Layout1
 70
     1
 71
     1
 10
0.0
 20
0.0
 11
12.0
 21
9.0
 12
0.0
 22
0.0
 32
0.0
 14
1.0000000000E+20
 24
1.0000000000E+20
 34
1.0000000000E+20
 15
-1.0000000000E+20
 25
-1.0000000000E+20
 35
-1.0000000000E+20
146
0.0
 13
0.0
 23
0.0
 33
0.0
 16
1.0
 26
0.0
 36
0.0
 17
0.0
 27
1.0
 37
0.0
 76
     0
330
1B
  0
LAYOUT
  5
26
102
{ACAD_REACTORS
330
1A
102
}
330
1A
100
AcDbPlotSettings
  1

  2
none_device
  4

  6

 40
0.0
 41
0.0
 42
0.0
 43
0.0
 44
0.0
 45
0.0
 46
0.0
 47
0.0
 48
0.0
 49
0.0
140
0.0
141
0.0
142
1.0
143
1.0
 70
   688
 72
     0
 73
     0
 74
     5
  7

 75
    16
147
1.0
148
0.0
149
0.0
100
AcDbLayout
  1
Layout2
 70
     1
 71
     2
 10
0.0
 20
0.0
 11
0.0
 21
0.0
 12
0.0
 22
0.0
 32
0.0
 14
0.0
 24
0.0
 34
0.0
 15
0.0
 25
0.0
 35
0.0
146
0.0
 13
0.0
 23
0.0
 33
0.0
 16
1.0
 26
0.0
 36
0.0
 17
0.0
 27
1.0
 37
0.0
 76
     0
330
23
  0
LAYOUT
  5
22
102
{ACAD_REACTORS
330
1A
102
}
330
1A
100
AcDbPlotSettings
  1

  2
none_device
  4
Letter_(8.50_x_11.00_Inches)
  6

 40
6.35
 41
6.35
 42
6.35000508
 43
6.35000508
 44
215.9
 45
279.4
 46
0.0
 47
0.0
 48
0.0
 49
0.0
140
0.0
141
0.0
142
1.0
143
1.0
 70
  1712
 72
     0
 73
     0
 74
     0
  7

 75
     0
147
1.0
148
0.0
149
0.0
100
AcDbLayout
  1
Model
 70
     1
 71
     0
 10
0.0
 20
0.0
 11
48.0
 21
36.0
 12
0.0
 22
0.0
 32
0.0
 14
0.0
 24
0.0
 34
0.0
 15
48.0
 25
36.0
 35
0.0
146
0.0
 13
0.0
 23
0.0
 33
0.0
 16
1.0
 26
0.0
 36
0.0
 17
0.0
 27
1.0
 37
0.0
 76
     0
330
1F
331
29
  0
MLINESTYLE
  5
18
102
{ACAD_REACTORS
330
17
102
}
330
17
100
AcDbMlineStyle
  2
Standard
 70
     0
  3

 62
   256
 51
90.0
 52
90.0
 71
     2
 49
0.5
 62
   256
  6
BYLAYER
 49
-0.5
 62
   256
  6
BYLAYER
  0
ACDBPLACEHOLDER
  5
F
102
{ACAD_REACTORS
330
E
102
}
330
E
  0
SCALE
  5
48
102
{ACAD_REACTORS
330
47
102
}
330
47
100
AcDbScale
 70
     0
300
1:1
140
1.0
141
1.0
290
     1
  0
SCALE
  5
49
102
{ACAD_REACTORS
330
47
102
}
330
47
100
AcDbScale
 70
     0
300
1:2
140
1.0
141
2.0
290
     0
  0
SCALE
  5
4A
102
{ACAD_REACTORS
330
47
102
}
330
47
100
AcDbScale
 70
     0
300
1:4
140
1.0
141
4.0
290
     0
  0
SCALE
  5
4B
102
{ACAD_REACTORS
330
47
102
}
330
47
100
AcDbScale
 70
     0
300
1:5
140
1.0
141
5.0
290
     0
  0
SCALE
  5
4C
102
{ACAD_REACTORS
330
47
102
}
330
47
100
AcDbScale
 70
     0
300
1:8
140
1.0
141
8.0
290
     0
  0
SCALE
  5
4D
102
{ACAD_REACTORS
330
47
102
}
330
47
100
AcDbScale
 70
     0
300
1:10
140
1.0
141
10.0
290
     0
  0
SCALE
  5
4E
102
{ACAD_REACTORS
330
47
102
}
330
47
100
AcDbScale
 70
     0
300
1:16
140
1.0
141
16.0
290
     0
  0
SCALE
  5
4F
102
{ACAD_REACTORS
330
47
102
}
330
47
100
AcDbScale
 70
     0
300
1:20
140
1.0
141
20.0
290
     0
  0
SCALE
  5
50
102
{ACAD_REACTORS
330
47
102
}
330
47
100
AcDbScale
 70
     0
300
1:30
140
1.0
141
30.0
290
     0
  0
SCALE
  5
51
102
{ACAD_REACTORS
330
47
102
}
330
47
100
AcDbScale
 70
     0
300
1:40
140
1.0
141
40.0
290
     0
  0
SCALE
  5
52
102
{ACAD_REACTORS
330
47
102
}
330
47
100
AcDbScale
 70
     0
300
1:50
140
1.0
141
50.0
290
     0
  0
SCALE
  5
53
102
{ACAD_REACTORS
330
47
102
}
330
47
100
AcDbScale
 70
     0
300
1:100
140
1.0
141
100.0
290
     0
  0
SCALE
  5
54
102
{ACAD_REACTORS
330
47
102
}
330
47
100
AcDbScale
 70
     0
300
2:1
140
2.0
141
1.0
290
     0
  0
SCALE
  5
55
102
{ACAD_REACTORS
330
47
102
}
330
47
100
AcDbScale
 70
     0
300
4:1
140
4.0
141
1.0
290
     0
  0
SCALE
  5
56
102
{ACAD_REACTORS
330
47
102
}
330
47
100
AcDbScale
 70
     0
300
8:1
140
8.0
141
1.0
290
     0
  0
SCALE
  5
57
102
{ACAD_REACTORS
330
47
102
}
330
47
100
AcDbScale
 70
     0
300
10:1
140
10.0
141
1.0
290
     0
  0
SCALE
  5
58
102
{ACAD_REACTORS
330
47
102
}
330
47
100
AcDbScale
 70
     0
300
100:1
140
100.0
141
1.0
290
     0
  0
SCALE
  5
59
102
{ACAD_REACTORS
330
47
102
}
330
47
100
AcDbScale
 70
     0
300
1/128" = 1'-0"
140
0.0078125
141
12.0
290
     0
  0
SCALE
  5
5A
102
{ACAD_REACTORS
330
47
102
}
330
47
100
AcDbScale
 70
     0
300
1/64" = 1'-0"
140
0.015625
141
12.0
290
     0
  0
SCALE
  5
5B
102
{ACAD_REACTORS
330
47
102
}
330
47
100
AcDbScale
 70
     0
300
1/32" = 1'-0"
140
0.03125
141
12.0
290
     0
  0
SCALE
  5
5C
102
{ACAD_REACTORS
330
47
102
}
330
47
100
AcDbScale
 70
     0
300
1/16" = 1'-0"
140
0.0625
141
12.0
290
     0
  0
SCALE
  5
5D
102
{ACAD_REACTORS
330
47
102
}
330
47
100
AcDbScale
 70
     0
300
3/32" = 1'-0"
140
0.09375
141
12.0
290
     0
  0
SCALE
  5
5E
102
{ACAD_REACTORS
330
47
102
}
330
47
100
AcDbScale
 70
     0
300
1/8" = 1'-0"
140
0.125
141
12.0
290
     0
  0
SCALE
  5
5F
102
{ACAD_REACTORS
330
47
102
}
330
47
100
AcDbScale
 70
     0
300
3/16" = 1'-0"
140
0.1875
141
12.0
290
     0
  0
SCALE
  5
60
102
{ACAD_REACTORS
330
47
102
}
330
47
100
AcDbScale
 70
     0
300
1/4" = 1'-0"
140
0.25
141
12.0
290
     0
  0
SCALE
  5
61
102
{ACAD_REACTORS
330
47
102
}
330
47
100
AcDbScale
 70
     0
300
3/8" = 1'-0"
140
0.375
141
12.0
290
     0
  0
SCALE
  5
62
102
{ACAD_REACTORS
330
47
102
}
330
47
100
AcDbScale
 70
     0
300
1/2" = 1'-0"
140
0.5
141
12.0
290
     0
  0
SCALE
  5
63
102
{ACAD_REACTORS
330
47
102
}
330
47
100
AcDbScale
 70
     0
300
3/4" = 1'-0"
140
0.75
141
12.0
290
     0
  0
SCALE
  5
64
102
{ACAD_REACTORS
330
47
102
}
330
47
100
AcDbScale
 70
     0
300
1" = 1'-0"
140
1.0
141
12.0
290
     0
  0
SCALE
  5
65
102
{ACAD_REACTORS
330
47
102
}
330
47
100
AcDbScale
 70
     0
300
1-1/2" = 1'-0"
140
1.5
141
12.0
290
     0
  0
SCALE
  5
66
102
{ACAD_REACTORS
330
47
102
}
330
47
100
AcDbScale
 70
     0
300
3" = 1'-0"
140
3.0
141
12.0
290
     0
  0
SCALE
  5
67
102
{ACAD_REACTORS
330
47
102
}
330
47
100
AcDbScale
 70
     0
300
6" = 1'-0"
140
6.0
141
12.0
290
     0
  0
SCALE
  5
68
102
{ACAD_REACTORS
330
47
102
}
330
47
100
AcDbScale
 70
     0
300
1'-0" = 1'-0"
140
12.0
141
12.0
290
     0
  0
ENDSEC
  0
EOF
