  0
SECTION
  2
HEADER
  9
$ACADVER
  1
AC1015
  9
$ACADMAINTVER
 70
     6
  9
$DWGCODEPAGE
  3
ANSI_1252
  9
$INSBASE
 10
0.0
 20
0.0
 30
0.0
  9
$EXTMIN
 10
0.0
 20
0.0
 30
0.0
  9
$EXTMAX
 10
60.0
 20
60.0
 30
0.0
  9
$LIMMIN
 10
0.0
 20
0.0
  9
$LIMMAX
 10
60.0
 20
60.0
  9
$ORTHOMODE
 70
     0
  9
$REGENMODE
 70
     1
  9
$FILLMODE
 70
     1
  9
$QTEXTMODE
 70
     0
  9
$MIRRTEXT
 70
     1
  9
$LTSCALE
 40
1.0
  9
$ATTMODE
 70
     1
  9
$TEXTSIZE
 40
0.5
  9
$TRACEWID
 40
0.05
  9
$TEXTSTYLE
  7
Standard
  9
$CLAYER
  8
0
  9
$CELTYPE
  6
ByLayer
  9
$CECOLOR
 62
   256
  9
$CELTSCALE
 40
1.0
  9
$DISPSILH
 70
     0
  9
$DIMSCALE
 40
1.0
  9
$DIMASZ
 40
0.5
  9
$DIMEXO
 40
0.1666666667
  9
$DIMDLI
 40
0.38
  9
$DIMRND
 40
0.0
  9
$DIMDLE
 40
0.0
  9
$DIMEXE
 40
0.375
  9
$DIMTP
 40
0.0
  9
$DIMTM
 40
0.0
  9
$DIMTXT
 40
0.5
  9
$DIMCEN
 40
0.09
  9
$DIMTSZ
 40
0.0
  9
$DIMTOL
 70
     0
  9
$DIMLIM
 70
     0
  9
$DIMTIH
 70
     1
  9
$DIMTOH
 70
     1
  9
$DIMSE1
 70
     0
  9
$DIMSE2
 70
     0
  9
$DIMTAD
 70
     0
  9
$DIMZIN
 70
     1
  9
$DIMBLK
  1

  9
$DIMASO
 70
     1
  9
$DIMSHO
 70
     1
  9
$DIMPOST
  1

  9
$DIMAPOST
  1

  9
$DIMALT
 70
     0
  9
$DIMALTD
 70
     2
  9
$DIMALTF
 40
25.4
  9
$DIMLFAC
 40
1.0
  9
$DIMTOFL
 70
     0
  9
$DIMTVP
 40
0.0
  9
$DIMTIX
 70
     0
  9
$DIMSOXD
 70
     0
  9
$DIMSAH
 70
     0
  9
$DIMBLK1
  1

  9
$DIMBLK2
  1

  9
$DIMSTYLE
  2
Standard
  9
$DIMCLRD
 70
     0
  9
$DIMCLRE
 70
     0
  9
$DIMCLRT
 70
     0
  9
$DIMTFAC
 40
1.0
  9
$DIMGAP
 40
0.125
  9
$DIMJUST
 70
     0
  9
$DIMSD1
 70
     0
  9
$DIMSD2
 70
     0
  9
$DIMTOLJ
 70
     1
  9
$DIMTZIN
 70
     1
  9
$DIMALTZ
 70
     0
  9
$DIMALTTZ
 70
     0
  9
$DIMUPT
 70
     0
  9
$DIMDEC
 70
     2
  9
$DIMTDEC
 70
     2
  9
$DIMALTU
 70
     2
  9
$DIMALTTD
 70
     2
  9
$DIMTXSTY
  7
Standard
  9
$DIMAUNIT
 70
     0
  9
$DIMADEC
 70
     2
  9
$DIMALTRND
 40
0.0
  9
$DIMAZIN
 70
     0
  9
$DIMDSEP
 70
    46
  9
$DIMATFIT
 70
     3
  9
$DIMFRAC
 70
     0
  9
$DIMLDRBLK
  1

  9
$DIMLUNIT
 70
     2
  9
$DIMLWD
 70
    -2
  9
$DIMLWE
 70
    -2
  9
$DIMTMOVE
 70
     0
  9
$LUNITS
 70
     2
  9
$LUPREC
 70
     2
  9
$SKETCHINC
 40
0.1
  9
$FILLETRAD
 40
0.5
  9
$AUNITS
 70
     0
  9
$AUPREC
 70
     2
  9
$MENU
  1
.
  9
$ELEVATION
 40
0.0
  9
$PELEVATION
 40
0.0
  9
$THICKNESS
 40
0.0
  9
$LIMCHECK
 70
     0
  9
$CHAMFERA
 40
0.0
  9
$CHAMFERB
 40
0.0
  9
$CHAMFERC
 40
0.0
  9
$CHAMFERD
 40
0.0
  9
$SKPOLY
 70
     0
  9
$TDCREATE
 40
2461102.384576354
  9
$TDUCREATE
 40
2461102.592909688
  9
$TDUPDATE
 40
2461102.384580857
  9
$TDUUPDATE
 40
2461102.59291419
  9
$TDINDWG
 40
0.0000000116
  9
$TDUSRTIMER
 40
0.0000000116
  9
$USRTIMER
 70
     1
  9
$ANGBASE
 50
0.0
  9
$ANGDIR
 70
     0
  9
$PDMODE
 70
     0
  9
$PDSIZE
 40
-1.0
  9
$PLINEWID
 40
0.0
  9
$SPLFRAME
 70
     0
  9
$SPLINETYPE
 70
     6
  9
$SPLINESEGS
 70
     8
  9
$HANDSEED
  5
586
  9
$SURFTAB1
 70
     6
  9
$SURFTAB2
 70
     6
  9
$SURFTYPE
 70
     6
  9
$SURFU
 70
     6
  9
$SURFV
 70
     6
  9
$UCSBASE
  2

  9
$UCSNAME
  2

  9
$UCSORG
 10
0.0
 20
0.0
 30
0.0
  9
$UCSXDIR
 10
1.0
 20
0.0
 30
0.0
  9
$UCSYDIR
 10
0.0
 20
1.0
 30
0.0
  9
$UCSORTHOREF
  2

  9
$UCSORTHOVIEW
 70
     0
  9
$UCSORGTOP
 10
0.0
 20
0.0
 30
0.0
  9
$UCSORGBOTTOM
 10
0.0
 20
0.0
 30
0.0
  9
$UCSORGLEFT
 10
0.0
 20
0.0
 30
0.0
  9
$UCSORGRIGHT
 10
0.0
 20
0.0
 30
0.0
  9
$UCSORGFRONT
 10
0.0
 20
0.0
 30
0.0
  9
$UCSORGBACK
 10
0.0
 20
0.0
 30
0.0
  9
$PUCSBASE
  2

  9
$PUCSNAME
  2

  9
$PUCSORG
 10
0.0
 20
0.0
 30
0.0
  9
$PUCSXDIR
 10
1.0
 20
0.0
 30
0.0
  9
$PUCSYDIR
 10
0.0
 20
1.0
 30
0.0
  9
$PUCSORTHOREF
  2

  9
$PUCSORTHOVIEW
 70
     0
  9
$PUCSORGTOP
 10
0.0
 20
0.0
 30
0.0
  9
$PUCSORGBOTTOM
 10
0.0
 20
0.0
 30
0.0
  9
$PUCSORGLEFT
 10
0.0
 20
0.0
 30
0.0
  9
$PUCSORGRIGHT
 10
0.0
 20
0.0
 30
0.0
  9
$PUCSORGFRONT
 10
0.0
 20
0.0
 30
0.0
  9
$PUCSORGBACK
 10
0.0
 20
0.0
 30
0.0
  9
$USERI1
 70
     0
  9
$USERI2
 70
     0
  9
$USERI3
 70
     0
  9
$USERI4
 70
     0
  9
$USERI5
 70
     0
  9
$USERR1
 40
0.0
  9
$USERR2
 40
0.0
  9
$USERR3
 40
0.0
  9
$USERR4
 40
0.0
  9
$USERR5
 40
0.0
  9
$WORLDVIEW
 70
     1
  9
$SHADEDGE
 70
     3
  9
$SHADEDIF
 70
    70
  9
$TILEMODE
 70
     1
  9
$MAXACTVP
 70
    64
  9
$PINSBASE
 10
0.0
 20
0.0
 30
0.0
  9
$PLIMCHECK
 70
     0
  9
$PEXTMIN
 10
1.0000000000E+20
 20
1.0000000000E+20
 30
1.0000000000E+20
  9
$PEXTMAX
 10
-1.0000000000E+20
 20
-1.0000000000E+20
 30
-1.0000000000E+20
  9
$PLIMMIN
 10
0.0
 20
0.0
  9
$PLIMMAX
 10
12.0
 20
9.0
  9
$UNITMODE
 70
     0
  9
$VISRETAIN
 70
     1
  9
$PLINEGEN
 70
     0
  9
$PSLTSCALE
 70
     1
  9
$TREEDEPTH
 70
  3020
  9
$CMLSTYLE
  2
Standard
  9
$CMLJUST
 70
     0
  9
$CMLSCALE
 40
1.0
  9
$PROXYGRAPHICS
 70
     1
  9
$MEASUREMENT
 70
     0
  9
$CELWEIGHT
370
    -1
  9
$ENDCAPS
280
     0
  9
$JOINSTYLE
280
     0
  9
$LWDISPLAY
290
     1
  9
$INSUNITS
 70
     1
  9
$HYPERLINKBASE
  1

  9
$STYLESHEET
  1

  9
$XEDIT
290
     1
  9
$CEPSNTYPE
380
     0
  9
$PSTYLEMODE
290
     1
  9
$FINGERPRINTGUID
  2
{72eff07b-257f-43b4-89cd-020619a6ab70}
  9
$VERSIONGUID
  2
{FAEB1C32-E019-11D5-929B-00C0DF256EC4}
  9
$EXTNAMES
290
     1
  9
$PSVPSCALE
 40
0.0
  9
$OLESTARTUP
290
     0
  0
ENDSEC
  0
SECTION
  2
CLASSES
  0
CLASS
  1
ACDBDICTIONARYWDFLT
  2
AcDbDictionaryWithDefault
  3
ObjectDBX Classes
 90
        0
280
     0
281
     0
  0
CLASS
  1
VISUALSTYLE
  2
AcDbVisualStyle
  3
ObjectDBX Classes
 90
     4095
280
     0
281
     0
  0
CLASS
  1
MATERIAL
  2
AcDbMaterial
  3
ObjectDBX Classes
 90
     1153
280
     0
281
     0
  0
CLASS
  1
SCALE
  2
AcDbScale
  3
ObjectDBX Classes
 90
     1153
280
     0
281
     0
  0
CLASS
  1
TABLESTYLE
  2
AcDbTableStyle
  3
ObjectDBX Classes
 90
     4095
280
     0
281
     0
  0
CLASS
  1
MLEADERSTYLE
  2
AcDbMLeaderStyle
  3
ACDB_MLEADERSTYLE_CLASS
 90
     4095
280
     0
281
     0
  0
CLASS
  1
SUN
  2
AcDbSun
  3
SCENEOE
 90
     1153
280
     0
281
     0
  0
CLASS
  1
ACDBPLACEHOLDER
  2
AcDbPlaceHolder
  3
ObjectDBX Classes
 90
        0
280
     0
281
     0
  0
CLASS
  1
LAYOUT
  2
AcDbLayout
  3
ObjectDBX Classes
 90
        0
280
     0
281
     0
  0
ENDSEC
  0
SECTION
  2
TABLES
  0
TABLE
  2
VPORT
  5
8
330
0
100
AcDbSymbolTable
 70
     1
  0
VPORT
  5
29
330
8
100
AcDbSymbolTableRecord
100
AcDbViewportTableRecord
  2
*Active
 70
     0
 10
0.0
 20
0.0
 11
1.0
 21
1.0
 12
30.0
 22
30.0
 13
0.0
 23
0.0
 14
0.5
 24
0.5
 15
0.5
 25
0.5
 16
0.0
 26
0.0
 36
1.0
 17
0.0
 27
0.0
 37
0.0
 40
60.0
 41
1.0
 42
50.0
 43
0.0
 44
0.0
 50
0.0
 51
0.0
 71
     0
 72
  2000
 73
     1
 74
     3
 75
     0
 76
     0
 77
     0
 78
     0
281
     0
 65
     1
110
0.0
120
0.0
130
0.0
111
1.0
121
0.0
131
0.0
112
0.0
122
1.0
132
0.0
 79
     0
146
0.0
  0
ENDTAB
  0
TABLE
  2
LTYPE
  5
5
330
0
100
AcDbSymbolTable
 70
     6
  0
LTYPE
  5
14
330
5
100
AcDbSymbolTableRecord
100
AcDbLinetypeTableRecord
  2
ByBlock
 70
     0
  3

 72
    65
 73
     0
 40
0.0
  0
LTYPE
  5
15
330
5
100
AcDbSymbolTableRecord
100
AcDbLinetypeTableRecord
  2
ByLayer
 70
     0
  3

 72
    65
 73
     0
 40
0.0
  0
LTYPE
  5
16
330
5
100
AcDbSymbolTableRecord
100
AcDbLinetypeTableRecord
  2
Continuous
 70
     0
  3
Solid line
 72
    65
 73
     0
 40
0.0
  0
LTYPE
  5
6E
330
5
100
AcDbSymbolTableRecord
100
AcDbLinetypeTableRecord
  2
HIDDEN
 70
     0
  3
Hidden __ __ __ __ __ __ __ __ __ __ __ __ __ __
 72
    65
 73
     2
 40
0.075
 49
0.05
 74
     0
 49
-0.025
 74
     0
  0
LTYPE
  5
6F
330
5
100
AcDbSymbolTableRecord
100
AcDbLinetypeTableRecord
  2
PHANTOM
 70
     0
  3
Phantom ______  __  __  ______  __  __  ______
 72
    65
 73
     6
 40
0.5
 49
0.25
 74
     0
 49
-0.05
 74
     0
 49
0.05
 74
     0
 49
-0.05
 74
     0
 49
0.05
 74
     0
 49
-0.05
 74
     0
  0
LTYPE
  5
70
330
5
100
AcDbSymbolTableRecord
100
AcDbLinetypeTableRecord
  2
CENTER
 70
     0
  3
Center ____ _ ____ _ ____ _ ____ _ ____ _ ____
 72
    65
 73
     4
 40
0.4
 49
0.25
 74
     0
 49
-0.05
 74
     0
 49
0.05
 74
     0
 49
-0.05
 74
     0
  0
LTYPE
  5
71
330
5
100
AcDbSymbolTableRecord
100
AcDbLinetypeTableRecord
  2
CENTERX2
 70
     0
  3
Center (2x) ________  __  ________  __  _____
 72
    65
 73
     4
 40
0.8
 49
0.5
 74
     0
 49
-0.1
 74
     0
 49
0.1
 74
     0
 49
-0.1
 74
     0
  0
LTYPE
  5
72
330
5
100
AcDbSymbolTableRecord
100
AcDbLinetypeTableRecord
  2
DOT2
 70
     0
  3
Dot (.5x) ........................................
 72
    65
 73
     2
 40
0.025
 49
0.0
 74
     0
 49
-0.025
 74
     0
  0
ENDTAB
  0
TABLE
  2
LAYER
  5
2
330
0
100
AcDbSymbolTable
 70
     6
  0
LAYER
  5
10
330
2
100
AcDbSymbolTableRecord
100
AcDbLayerTableRecord
  2
0
 70
     0
 62
     7
  6
Continuous
370
    -3
390
F
  0
LAYER
  5
73
330
2
100
AcDbSymbolTableRecord
100
AcDbLayerTableRecord
  2
FORMAT
 70
     0
 62
     7
  6
Continuous
370
    -3
390
F
  0
LAYER
  5
74
330
2
100
AcDbSymbolTableRecord
100
AcDbLayerTableRecord
  2
NOTES
 70
     0
 62
     1
  6
Continuous
370
    -3
390
F
  0
LAYER
  5
75
330
2
100
AcDbSymbolTableRecord
100
AcDbLayerTableRecord
  2
OBJECT
 70
     0
 62
     7
  6
Continuous
370
    -3
390
F
  0
LAYER
  5
76
330
2
100
AcDbSymbolTableRecord
100
AcDbLayerTableRecord
  2
DIMS
 70
     0
 62
     5
  6
Continuous
370
    -3
390
F
  0
LAYER
  5
77
330
2
100
AcDbSymbolTableRecord
100
AcDbLayerTableRecord
  2
TITLE
 70
     0
 62
     8
  6
Continuous
370
    -3
390
F
  0
ENDTAB
  0
TABLE
  2
STYLE
  5
3
330
0
100
AcDbSymbolTable
 70
     4
  0
STYLE
  5
11
330
3
100
AcDbSymbolTableRecord
100
AcDbTextStyleTableRecord
  2
Standard
 70
     0
 40
0.0
 41
1.0
 50
0.0
 71
     0
 42
0.5
  3
txt
  4

  0
STYLE
  5
83
330
3
100
AcDbSymbolTableRecord
100
AcDbTextStyleTableRecord
  2
SLDTEXTSTYLE0
 70
     0
 40
0.0
 41
0.605
 50
0.0
 71
     0
 42
0.5
  3
TXT
  4

  0
STYLE
  5
87
330
3
100
AcDbSymbolTableRecord
100
AcDbTextStyleTableRecord
  2
SLDTEXTSTYLE1
 70
     0
 40
0.0
 41
0.75
 50
0.0
 71
     0
 42
0.5
  3
TXT
  4

  0
STYLE
  5
8A
330
3
100
AcDbSymbolTableRecord
100
AcDbTextStyleTableRecord
  2
SLDTEXTSTYLE2
 70
     0
 40
0.0
 41
0.6607142857
 50
0.0
 71
     0
 42
0.5
  3
TXT
  4

  0
ENDTAB
  0
TABLE
  2
VIEW
  5
6
330
0
100
AcDbSymbolTable
 70
     0
  0
ENDTAB
  0
TABLE
  2
UCS
  5
7
330
0
100
AcDbSymbolTable
 70
     0
  0
ENDTAB
  0
TABLE
  2
APPID
  5
9
330
0
100
AcDbSymbolTable
 70
     1
  0
APPID
  5
12
330
9
100
AcDbSymbolTableRecord
100
AcDbRegAppTableRecord
  2
ACAD
 70
     0
  0
ENDTAB
  0
TABLE
  2
DIMSTYLE
  5
A
330
0
100
AcDbSymbolTable
 70
     5
100
AcDbDimStyleTable
  0
DIMSTYLE
105
27
330
A
100
AcDbSymbolTableRecord
100
AcDbDimStyleTableRecord
  2
Standard
 70
     0
178
     0
340
11
  0
DIMSTYLE
105
151
102
{ACAD_REACTORS
330
150
330
162
330
277
102
}
330
A
100
AcDbSymbolTableRecord
100
AcDbDimStyleTableRecord
  2
SLDDIMSTYLE0
 70
     0
 41
0.5
 44
0.0
 45
0.000000001
 78
    12
 79
     3
140
0.5
147
0.125
173
     1
178
     0
271
     2
272
     2
276
     2
277
     5
284
    12
340
87
341
152
343
152
344
152
  0
DIMSTYLE
105
172
330
A
100
AcDbSymbolTableRecord
100
AcDbDimStyleTableRecord
  2
SLDDIMSTYLE1
 70
     0
 41
0.5
 44
0.0
 45
0.000000001
146
0.5
147
0.0
173
     1
178
     0
271
     0
272
     0
276
     2
277
     5
340
11
341
152
343
152
344
152
  0
DIMSTYLE
105
268
102
{ACAD_REACTORS
330
267
330
282
330
359
330
368
102
}
330
A
100
AcDbSymbolTableRecord
100
AcDbDimStyleTableRecord
  2
SLDDIMSTYLE2
 70
     0
 41
0.5
 44
0.0
 45
0.000000001
 78
    12
 79
     3
140
0.5
147
0.125
173
     1
178
     0
271
     6
272
     2
276
     2
277
     5
284
    12
340
87
341
152
343
152
344
152
  0
DIMSTYLE
105
292
102
{ACAD_REACTORS
330
291
102
}
330
A
100
AcDbSymbolTableRecord
100
AcDbDimStyleTableRecord
  2
SLDDIMSTYLE3
 70
     0
 41
0.5
 44
0.0
 45
0.000000001
 78
    12
 79
     3
140
0.5
141
0.0
147
0.125
173
     1
178
     0
271
     2
272
     2
276
     2
277
     5
284
    12
340
87
341
152
343
152
344
152
  0
ENDTAB
  0
TABLE
  2
BLOCK_RECORD
  5
1
330
0
100
AcDbSymbolTable
 70
    14
  0
BLOCK_RECORD
  5
1F
330
1
100
AcDbSymbolTableRecord
100
AcDbBlockTableRecord
  2
*Model_Space
340
22
  0
BLOCK_RECORD
  5
1B
330
1
100
AcDbSymbolTableRecord
100
AcDbBlockTableRecord
  2
*Paper_Space
340
1E
  0
BLOCK_RECORD
  5
23
330
1
100
AcDbSymbolTableRecord
100
AcDbBlockTableRecord
  2
*Paper_Space0
340
26
  0
BLOCK_RECORD
  5
8D
330
1
100
AcDbSymbolTableRecord
100
AcDbBlockTableRecord
  2
SW_NOTE_0
340
0
102
{BLKREFS
331
92
102
}
  0
BLOCK_RECORD
  5
93
330
1
100
AcDbSymbolTableRecord
100
AcDbBlockTableRecord
  2
SW_NOTE_0_1
340
0
102
{BLKREFS
331
9A
102
}
  0
BLOCK_RECORD
  5
152
330
1
100
AcDbSymbolTableRecord
100
AcDbBlockTableRecord
  2
_Open90
340
0
102
{BLKREFS
331
15B
331
15C
331
166
331
167
331
26C
331
26D
331
27B
331
27C
331
286
331
287
331
296
331
35D
331
35E
331
36C
331
36D
102
}
  0
BLOCK_RECORD
  5
158
330
1
100
AcDbSymbolTableRecord
100
AcDbBlockTableRecord
  2
_D
340
0
  0
BLOCK_RECORD
  5
163
330
1
100
AcDbSymbolTableRecord
100
AcDbBlockTableRecord
  2
_D_1
340
0
  0
BLOCK_RECORD
  5
16D
330
1
100
AcDbSymbolTableRecord
100
AcDbBlockTableRecord
  2
SW_NOTE_0_2
340
0
102
{BLKREFS
331
171
102
}
  0
BLOCK_RECORD
  5
269
330
1
100
AcDbSymbolTableRecord
100
AcDbBlockTableRecord
  2
_D_2
340
0
  0
BLOCK_RECORD
  5
278
330
1
100
AcDbSymbolTableRecord
100
AcDbBlockTableRecord
  2
_D_3
340
0
  0
BLOCK_RECORD
  5
283
330
1
100
AcDbSymbolTableRecord
100
AcDbBlockTableRecord
  2
_D_4
340
0
  0
BLOCK_RECORD
  5
293
330
1
100
AcDbSymbolTableRecord
100
AcDbBlockTableRecord
  2
_D_5
340
0
  0
BLOCK_RECORD
  5
29F
330
1
100
AcDbSymbolTableRecord
100
AcDbBlockTableRecord
  2
SW_NOTE_0_3
340
0
102
{BLKREFS
331
2A4
102
}
  0
BLOCK_RECORD
  5
35A
330
1
100
AcDbSymbolTableRecord
100
AcDbBlockTableRecord
  2
_D_6
340
0
  0
BLOCK_RECORD
  5
369
330
1
100
AcDbSymbolTableRecord
100
AcDbBlockTableRecord
  2
_D_7
340
0
  0
ENDTAB
  0
ENDSEC
  0
SECTION
  2
BLOCKS
  0
BLOCK
  5
20
330
1F
100
AcDbEntity
  8
0
100
AcDbBlockBegin
  2
*Model_Space
 70
     0
 10
0.0
 20
0.0
 30
0.0
  3
*Model_Space
  1

  0
ENDBLK
  5
21
330
1F
100
AcDbEntity
  8
0
100
AcDbBlockEnd
  0
BLOCK
  5
1C
330
1B
100
AcDbEntity
 67
     1
  8
0
100
AcDbBlockBegin
  2
*Paper_Space
 70
     0
 10
0.0
 20
0.0
 30
0.0
  3
*Paper_Space
  1

  0
ENDBLK
  5
1D
330
1B
100
AcDbEntity
 67
     1
  8
0
100
AcDbBlockEnd
  0
BLOCK
  5
24
330
23
100
AcDbEntity
  8
0
100
AcDbBlockBegin
  2
*Paper_Space0
 70
     0
 10
0.0
 20
0.0
 30
0.0
  3
*Paper_Space0
  1

  0
ENDBLK
  5
25
330
23
100
AcDbEntity
  8
0
100
AcDbBlockEnd
  0
BLOCK
  5
8E
330
8D
100
AcDbEntity
  8
0
100
AcDbBlockBegin
  2
SW_NOTE_0
 70
     0
 10
0.0
 20
0.0
 30
0.0
  3
SW_NOTE_0
  1

  0
MTEXT
  5
90
330
8D
100
AcDbEntity
  8
NOTES
 62
     0
100
AcDbMText
 10
0.0
 20
0.3759780908
 30
0.0
 40
0.2916666667
 41
0.0
 71
     1
 72
     1
  1
FROST PRODUCTS LTD.
  7
SLDTEXTSTYLE0
 73
     1
 44
1.0
  0
MTEXT
  5
91
330
8D
100
AcDbEntity
  8
NOTES
 62
     0
100
AcDbMText
 10
0.0
 20
-0.0495142709
 30
0.0
 40
0.2291666667
 41
0.0
 71
     1
 72
     1
  1
5280 JOHN LUCAS DRIVE, BURLINGTON, ON, L7L 5Z9
  7
SLDTEXTSTYLE0
 73
     1
 44
1.0
  0
ENDBLK
  5
8F
330
8D
100
AcDbEntity
  8
0
100
AcDbBlockEnd
  0
BLOCK
  5
94
330
93
100
AcDbEntity
  8
0
100
AcDbBlockBegin
  2
SW_NOTE_0_1
 70
     0
 10
0.0
 20
0.0
 30
0.0
  3
SW_NOTE_0_1
  1

  0
MTEXT
  5
96
330
93
100
AcDbEntity
  8
NOTES
 62
     0
100
AcDbMText
 10
0.0
 20
0.2381282771
 30
0.0
 40
0.184729064
 41
0.0
 71
     1
 72
     1
  1
PROPRIETARY AND CONFIDENTIAL
  7
SLDTEXTSTYLE0
 73
     1
 44
1.0
  0
MTEXT
  5
97
330
93
100
AcDbEntity
  8
NOTES
 62
     0
100
AcDbMText
 10
0.0
 20
-0.0504364796
 30
0.0
 40
0.25
 41
0.0
 71
     1
 72
     1
  1
THE INFORMATION CONTAINED IN THIS DRAWING IS THE SOLE PROPERTY OF
  7
SLDTEXTSTYLE0
 73
     1
 44
1.0
  0
MTEXT
  5
98
330
93
100
AcDbEntity
  8
NOTES
 62
     0
100
AcDbMText
 10
0.0
 20
-0.4231398941
 30
0.0
 40
0.25
 41
0.0
 71
     1
 72
     1
  1
FROST PRODUCTS LTD.  ANY REPRODUCTION IN PART OR AS A WHOLE WITHOUT
  7
SLDTEXTSTYLE0
 73
     1
 44
1.0
  0
MTEXT
  5
99
330
93
100
AcDbEntity
  8
NOTES
 62
     0
100
AcDbMText
 10
0.0
 20
-0.7958433086
 30
0.0
 40
0.25
 41
0.0
 71
     1
 72
     1
  1
THE WRITTEN PERMISSION OF FROST PRODUCTS LTD. IS PROHIBITED.
  7
SLDTEXTSTYLE0
 73
     1
 44
1.0
  0
ENDBLK
  5
95
330
93
100
AcDbEntity
  8
0
100
AcDbBlockEnd
  0
BLOCK
  5
153
330
152
100
AcDbEntity
  8
0
100
AcDbBlockBegin
  2
_Open90
 70
     0
 10
0.0
 20
0.0
 30
0.0
  3
_Open90
  1

  0
LINE
  5
155
330
152
100
AcDbEntity
  8
0
  6
ByBlock
 62
     0
370
    -2
100
AcDbLine
 10
-0.5
 20
0.5
 30
0.0
 11
0.0
 21
0.0
 31
0.0
  0
LINE
  5
156
330
152
100
AcDbEntity
  8
0
  6
ByBlock
 62
     0
370
    -2
100
AcDbLine
 10
0.0
 20
0.0
 30
0.0
 11
-0.5
 21
-0.5
 31
0.0
  0
LINE
  5
157
330
152
100
AcDbEntity
  8
0
  6
ByBlock
 62
     0
370
    -2
100
AcDbLine
 10
0.0
 20
0.0
 30
0.0
 11
-1.0
 21
0.0
 31
0.0
  0
ENDBLK
  5
154
330
152
100
AcDbEntity
  8
0
100
AcDbBlockEnd
  0
BLOCK
  5
159
330
158
100
AcDbEntity
  8
0
100
AcDbBlockBegin
  2
_D
 70
     0
 10
0.0
 20
0.0
 30
0.0
  3
_D
  1

  0
INSERT
  5
15B
330
158
100
AcDbEntity
  8
DIMS
100
AcDbBlockReference
  2
_Open90
 10
20.3927013355
 20
9.5129538223
 30
-3.5670360985
 41
0.5
 42
0.5
 50
180.0
  0
INSERT
  5
15C
330
158
100
AcDbEntity
  8
DIMS
100
AcDbBlockReference
  2
_Open90
 10
50.3926585133
 20
9.5129538223
 30
-3.5670360985
 41
0.5
 42
0.5
 50
0.0
  0
LINE
  5
15D
330
158
100
AcDbEntity
  8
DIMS
100
AcDbLine
 10
20.3927013355
 20
10.4118866386
 30
0.0
 11
20.3927013355
 21
9.1379538223
 31
0.0
  0
LINE
  5
15E
330
158
100
AcDbEntity
  8
DIMS
100
AcDbLine
 10
50.3926585133
 20
16.849703878
 30
0.0
 11
50.3926585133
 21
9.1379538223
 31
0.0
  0
LINE
  5
15F
330
158
100
AcDbEntity
  8
DIMS
100
AcDbLine
 10
20.3927013355
 20
9.5129538223
 30
0.0
 11
37.2817175297
 21
9.5129538223
 31
0.0
  0
LINE
  5
160
330
158
100
AcDbEntity
  8
DIMS
100
AcDbLine
 10
50.3926585133
 20
9.5129538223
 30
0.0
 11
38.2268563847
 21
9.5129538223
 31
0.0
  0
MTEXT
  5
161
330
158
100
AcDbEntity
  8
DIMS
100
AcDbMText
 10
37.2817175297
 20
9.7606127352
 30
0.0
 40
0.5
 41
0.0
 71
     1
 72
     1
  1
30"
  7
SLDTEXTSTYLE1
 73
     1
 44
1.0
  0
ENDBLK
  5
15A
330
158
100
AcDbEntity
  8
0
100
AcDbBlockEnd
  0
BLOCK
  5
164
330
163
100
AcDbEntity
  8
0
100
AcDbBlockBegin
  2
_D_1
 70
     0
 10
0.0
 20
0.0
 30
0.0
  3
_D_1
  1

  0
INSERT
  5
166
330
163
100
AcDbEntity
  8
DIMS
100
AcDbBlockReference
  2
_Open90
 10
19.7627800756
 20
21.5785533053
 30
-3.5670360985
 41
0.5
 42
0.5
 50
90.0
  0
INSERT
  5
167
330
163
100
AcDbEntity
  8
DIMS
100
AcDbBlockReference
  2
_Open90
 10
19.7627800756
 20
10.5785533053
 30
-3.5670360985
 41
0.5
 42
0.5
 50
270.0
  0
LINE
  5
168
330
163
100
AcDbEntity
  8
DIMS
100
AcDbLine
 10
20.2260346688
 20
21.5785533053
 30
0.0
 11
19.3877800756
 21
21.5785533053
 31
0.0
  0
LINE
  5
169
330
163
100
AcDbEntity
  8
DIMS
100
AcDbLine
 10
20.2260346688
 20
10.5785533053
 30
0.0
 11
19.3877800756
 21
10.5785533053
 31
0.0
  0
LINE
  5
16A
330
163
100
AcDbEntity
  8
DIMS
100
AcDbLine
 10
19.7627800756
 20
21.5785533053
 30
0.0
 11
19.7627800756
 21
16.4401338536
 31
0.0
  0
LINE
  5
16B
330
163
100
AcDbEntity
  8
DIMS
100
AcDbLine
 10
19.7627800756
 20
10.5785533053
 30
0.0
 11
19.7627800756
 21
15.6463838297
 31
0.0
  0
MTEXT
  5
16C
330
163
100
AcDbEntity
  8
DIMS
100
AcDbMText
 10
19.2902106481
 20
16.2909177546
 30
0.0
 40
0.5
 41
0.0
 71
     1
 72
     1
  1
11"
  7
SLDTEXTSTYLE1
 73
     1
 44
1.0
  0
ENDBLK
  5
165
330
163
100
AcDbEntity
  8
0
100
AcDbBlockEnd
  0
BLOCK
  5
16E
330
16D
100
AcDbEntity
  8
0
100
AcDbBlockBegin
  2
SW_NOTE_0_2
 70
     0
 10
0.0
 20
0.0
 30
0.0
  3
SW_NOTE_0_2
  1

  0
MTEXT
  5
170
330
16D
100
AcDbEntity
  8
NOTES
 62
     0
100
AcDbMText
 10
0.0207544545
 20
0.2527618157
 30
0.0
 40
0.5
 41
0.0
 71
     1
 72
     1
  1
FTS module
  7
SLDTEXTSTYLE1
 73
     1
 44
1.0
  0
ENDBLK
  5
16F
330
16D
100
AcDbEntity
  8
0
100
AcDbBlockEnd
  0
BLOCK
  5
26A
330
269
100
AcDbEntity
  8
0
100
AcDbBlockBegin
  2
_D_2
 70
     0
 10
0.0
 20
0.0
 30
0.0
  3
_D_2
  1

  0
INSERT
  5
26C
330
269
100
AcDbEntity
  8
DIMS
100
AcDbBlockReference
  2
_Open90
 10
56.0348678639
 20
9.7491742947
 30
15.2547270075
 41
0.5
 42
0.5
 50
0.0
  0
INSERT
  5
26D
330
269
100
AcDbEntity
  8
DIMS
100
AcDbBlockReference
  2
_Open90
 10
51.6598678639
 20
9.7491742947
 30
15.2547270075
 41
0.5
 42
0.5
 50
180.0
  0
LINE
  5
26E
330
269
100
AcDbEntity
  8
DIMS
100
AcDbLine
 10
53.7613183295
 20
9.8004589931
 30
0.0
 11
54.2772905789
 21
9.8004589931
 31
0.0
  0
LINE
  5
26F
330
269
100
AcDbEntity
  8
DIMS
100
AcDbLine
 10
56.0348678639
 20
10.7868866386
 30
0.0
 11
56.0348678639
 21
9.3741742947
 31
0.0
  0
LINE
  5
270
330
269
100
AcDbEntity
  8
DIMS
100
AcDbLine
 10
51.6598678639
 20
10.7868866386
 30
0.0
 11
51.6598678639
 21
9.3741742947
 31
0.0
  0
LINE
  5
271
330
269
100
AcDbEntity
  8
DIMS
100
AcDbLine
 10
56.0348678639
 20
9.7491742947
 30
0.0
 11
54.5568045183
 21
9.7491742947
 31
0.0
  0
LINE
  5
272
330
269
100
AcDbEntity
  8
DIMS
100
AcDbLine
 10
51.6598678639
 20
9.7491742947
 30
0.0
 11
53.318609982
 21
9.7491742947
 31
0.0
  0
MTEXT
  5
273
330
269
100
AcDbEntity
  8
DIMS
100
AcDbMText
 10
53.318609982
 20
10.0357220484
 30
0.0
 40
0.5
 41
0.0
 71
     1
 72
     1
  1
4
  7
SLDTEXTSTYLE1
 73
     1
 44
1.0
  0
MTEXT
  5
274
330
269
100
AcDbEntity
  8
DIMS
100
AcDbMText
 10
53.8345822315
 20
10.4010345475
 30
0.0
 40
0.5
 41
0.0
 71
     1
 72
     1
  1
3
  7
SLDTEXTSTYLE1
 73
     1
 44
1.0
  0
MTEXT
  5
275
330
269
100
AcDbEntity
  8
DIMS
100
AcDbMText
 10
53.8345822315
 20
9.7398539689
 30
0.0
 40
0.5
 41
0.0
 71
     1
 72
     1
  1
8
  7
SLDTEXTSTYLE1
 73
     1
 44
1.0
  0
MTEXT
  5
276
330
269
100
AcDbEntity
  8
DIMS
100
AcDbMText
 10
54.3505544809
 20
10.0357220484
 30
0.0
 40
0.5
 41
0.0
 71
     1
 72
     1
  1
"
  7
SLDTEXTSTYLE1
 73
     1
 44
1.0
  0
ENDBLK
  5
26B
330
269
100
AcDbEntity
  8
0
100
AcDbBlockEnd
  0
BLOCK
  5
279
330
278
100
AcDbEntity
  8
0
100
AcDbBlockBegin
  2
_D_3
 70
     0
 10
0.0
 20
0.0
 30
0.0
  3
_D_3
  1

  0
INSERT
  5
27B
330
278
100
AcDbEntity
  8
DIMS
100
AcDbBlockReference
  2
_Open90
 10
52.3473678639
 20
22.7576317382
 30
15.2547270075
 41
0.5
 42
0.5
 50
180.0
  0
INSERT
  5
27C
330
278
100
AcDbEntity
  8
DIMS
100
AcDbBlockReference
  2
_Open90
 10
55.3473678639
 20
22.7576317382
 30
15.2547270075
 41
0.5
 42
0.5
 50
0.0
  0
LINE
  5
27D
330
278
100
AcDbEntity
  8
DIMS
100
AcDbLine
 10
52.3473678639
 20
21.4082199719
 30
0.0
 11
52.3473678639
 21
23.1326317382
 31
0.0
  0
LINE
  5
27E
330
278
100
AcDbEntity
  8
DIMS
100
AcDbLine
 10
55.3473678639
 20
21.4082199719
 30
0.0
 11
55.3473678639
 21
23.1326317382
 31
0.0
  0
LINE
  5
27F
330
278
100
AcDbEntity
  8
DIMS
100
AcDbLine
 10
52.3473678639
 20
22.7576317382
 30
0.0
 11
53.7039294946
 21
22.7576317382
 31
0.0
  0
LINE
  5
280
330
278
100
AcDbEntity
  8
DIMS
100
AcDbLine
 10
55.3473678639
 20
22.7576317382
 30
0.0
 11
54.2796239408
 21
22.7576317382
 31
0.0
  0
MTEXT
  5
281
330
278
100
AcDbEntity
  8
DIMS
100
AcDbMText
 10
53.7039294946
 20
23.0052906512
 30
0.0
 40
0.5
 41
0.0
 71
     1
 72
     1
  1
3"
  7
SLDTEXTSTYLE1
 73
     1
 44
1.0
  0
ENDBLK
  5
27A
330
278
100
AcDbEntity
  8
0
100
AcDbBlockEnd
  0
BLOCK
  5
284
330
283
100
AcDbEntity
  8
0
100
AcDbBlockBegin
  2
_D_4
 70
     0
 10
0.0
 20
0.0
 30
0.0
  3
_D_4
  1

  0
INSERT
  5
286
330
283
100
AcDbEntity
  8
DIMS
100
AcDbBlockReference
  2
_Open90
 10
58.2446595962
 20
21.2415533053
 30
15.2547270075
 41
0.5
 42
0.5
 50
90.0
  0
INSERT
  5
287
330
283
100
AcDbEntity
  8
DIMS
100
AcDbBlockReference
  2
_Open90
 10
58.2446595962
 20
11.0785533053
 30
15.2547270075
 41
0.5
 42
0.5
 50
270.0
  0
LINE
  5
288
330
283
100
AcDbEntity
  8
DIMS
100
AcDbLine
 10
58.0682706755
 20
16.6875896196
 30
0.0
 11
58.9536873704
 21
16.6875896196
 31
0.0
  0
LINE
  5
289
330
283
100
AcDbEntity
  8
DIMS
100
AcDbLine
 10
55.5140345306
 20
21.2415533053
 30
0.0
 11
58.6196595962
 21
21.2415533053
 31
0.0
  0
LINE
  5
28A
330
283
100
AcDbEntity
  8
DIMS
100
AcDbLine
 10
55.5140345306
 20
11.0785533053
 30
0.0
 11
58.6196595962
 21
11.0785533053
 31
0.0
  0
LINE
  5
28B
330
283
100
AcDbEntity
  8
DIMS
100
AcDbLine
 10
58.2446595962
 20
21.2415533053
 30
0.0
 11
58.2446595962
 21
17.2901590745
 31
0.0
  0
LINE
  5
28C
330
283
100
AcDbEntity
  8
DIMS
100
AcDbLine
 10
58.2446595962
 20
11.0785533053
 30
0.0
 11
58.2446595962
 21
15.9824507679
 31
0.0
  0
MTEXT
  5
28D
330
283
100
AcDbEntity
  8
DIMS
100
AcDbMText
 10
57.2561178826
 20
16.9228526749
 30
0.0
 40
0.5
 41
0.0
 71
     1
 72
     1
  1
10
  7
SLDTEXTSTYLE1
 73
     1
 44
1.0
  0
MTEXT
  5
28E
330
283
100
AcDbEntity
  8
DIMS
100
AcDbMText
 10
58.3262568002
 20
17.288165174
 30
0.0
 40
0.5
 41
0.0
 71
     1
 72
     1
  1
3
  7
SLDTEXTSTYLE1
 73
     1
 44
1.0
  0
MTEXT
  5
28F
330
283
100
AcDbEntity
  8
DIMS
100
AcDbMText
 10
58.1415345775
 20
16.6269845954
 30
0.0
 40
0.5
 41
0.0
 71
     1
 72
     1
  1
16
  7
SLDTEXTSTYLE1
 73
     1
 44
1.0
  0
MTEXT
  5
290
330
283
100
AcDbEntity
  8
DIMS
100
AcDbMText
 10
59.0269513458
 20
16.9228526749
 30
0.0
 40
0.5
 41
0.0
 71
     1
 72
     1
  1
"
  7
SLDTEXTSTYLE1
 73
     1
 44
1.0
  0
ENDBLK
  5
285
330
283
100
AcDbEntity
  8
0
100
AcDbBlockEnd
  0
BLOCK
  5
294
330
293
100
AcDbEntity
  8
0
100
AcDbBlockBegin
  2
_D_5
 70
     0
 10
0.0
 20
0.0
 30
0.0
  3
_D_5
  1

  0
INSERT
  5
296
330
293
100
AcDbEntity
  8
DIMS
100
AcDbBlockReference
  2
_Open90
 10
52.2385158466
 20
21.3588189794
 30
15.2547270075
 41
0.5
 42
0.5
 50
312.8690533513
  0
LINE
  5
297
330
293
100
AcDbEntity
  8
DIMS
100
AcDbLine
 10
48.6735315947
 20
23.7263440349
 30
0.0
 11
49.5589482897
 21
23.7263440349
 31
0.0
  0
LINE
  5
298
330
293
100
AcDbEntity
  8
DIMS
100
AcDbLine
 10
52.2385158466
 20
21.3588189794
 30
0.0
 11
50.088462669
 21
23.6750593365
 31
0.0
  0
LINE
  5
299
330
293
100
AcDbEntity
  8
DIMS
100
AcDbLine
 10
50.088462669
 20
23.6750593365
 30
0.0
 11
49.838462669
 21
23.6750593365
 31
0.0
  0
MTEXT
  5
29A
330
293
100
AcDbEntity
  8
DIMS
100
AcDbMText
 10
41.946205201
 20
23.9616070902
 30
0.0
 40
0.5
 41
0.0
 71
     1
 72
     1
  1
Mounting hole (4)
  7
SLDTEXTSTYLE1
 73
     1
 44
1.0
  0
MTEXT
  5
29B
330
293
100
AcDbEntity
  8
DIMS
100
AcDbMText
 10
47.8462049904
 20
23.9539682009
 30
0.0
 40
0.5
 41
0.0
 71
     1
 72
     1
  1
%%c
  7
SLDTEXTSTYLE1
 73
     1
 44
1.0
  0
MTEXT
  5
29C
330
293
100
AcDbEntity
  8
DIMS
100
AcDbMText
 10
48.9315177194
 20
24.3269195892
 30
0.0
 40
0.5
 41
0.0
 71
     1
 72
     1
  1
5
  7
SLDTEXTSTYLE1
 73
     1
 44
1.0
  0
MTEXT
  5
29D
330
293
100
AcDbEntity
  8
DIMS
100
AcDbMText
 10
48.7467954967
 20
23.6657390107
 30
0.0
 40
0.5
 41
0.0
 71
     1
 72
     1
  1
16
  7
SLDTEXTSTYLE1
 73
     1
 44
1.0
  0
MTEXT
  5
29E
330
293
100
AcDbEntity
  8
DIMS
100
AcDbMText
 10
49.632211825
 20
23.9616070902
 30
0.0
 40
0.5
 41
0.0
 71
     1
 72
     1
  1
"
  7
SLDTEXTSTYLE1
 73
     1
 44
1.0
  0
ENDBLK
  5
295
330
293
100
AcDbEntity
  8
0
100
AcDbBlockEnd
  0
BLOCK
  5
2A0
330
29F
100
AcDbEntity
  8
0
100
AcDbBlockBegin
  2
SW_NOTE_0_3
 70
     0
 10
0.0
 20
0.0
 30
0.0
  3
SW_NOTE_0_3
  1

  0
MTEXT
  5
2A2
330
29F
100
AcDbEntity
  8
NOTES
 62
     0
100
AcDbMText
 10
0.0
 20
0.6445338699
 30
0.0
 40
0.5
 41
0.0
 71
     1
 72
     1
  1
Side View
  7
SLDTEXTSTYLE1
 73
     1
 44
1.0
  0
MTEXT
  5
2A3
330
29F
100
AcDbEntity
  8
NOTES
 62
     0
100
AcDbMText
 10
0.0
 20
-0.001993928
 30
0.0
 40
0.5
 41
0.0
 71
     1
 72
     1
  1
(grab bar in down position)
  7
SLDTEXTSTYLE1
 73
     1
 44
1.0
  0
ENDBLK
  5
2A1
330
29F
100
AcDbEntity
  8
0
100
AcDbBlockEnd
  0
BLOCK
  5
35B
330
35A
100
AcDbEntity
  8
0
100
AcDbBlockBegin
  2
_D_6
 70
     0
 10
0.0
 20
0.0
 30
0.0
  3
_D_6
  1

  0
INSERT
  5
35D
330
35A
100
AcDbEntity
  8
DIMS
100
AcDbBlockReference
  2
_Open90
 10
5.0904408656
 20
10.5785533053
 30
-3.0750931603
 41
0.5
 42
0.5
 50
270.0
  0
INSERT
  5
35E
330
35A
100
AcDbEntity
  8
DIMS
100
AcDbBlockReference
  2
_Open90
 10
5.0904408656
 20
41.1882660447
 30
-3.0750931603
 41
0.5
 42
0.5
 50
90.0
  0
LINE
  5
35F
330
35A
100
AcDbEntity
  8
DIMS
100
AcDbLine
 10
5.0987742043
 20
25.8324424908
 30
0.0
 11
5.6147464538
 21
25.8324424908
 31
0.0
  0
LINE
  5
360
330
35A
100
AcDbEntity
  8
DIMS
100
AcDbLine
 10
5.5536954588
 20
10.5785533053
 30
0.0
 11
4.7154408656
 21
10.5785533053
 31
0.0
  0
LINE
  5
361
330
35A
100
AcDbEntity
  8
DIMS
100
AcDbLine
 10
9.6313542216
 20
41.1882660447
 30
0.0
 11
4.7154408656
 21
41.1882660447
 31
0.0
  0
LINE
  5
362
330
35A
100
AcDbEntity
  8
DIMS
100
AcDbLine
 10
5.0904408656
 20
10.5785533053
 30
0.0
 11
5.0904408656
 21
25.1273036391
 31
0.0
  0
LINE
  5
363
330
35A
100
AcDbEntity
  8
DIMS
100
AcDbLine
 10
5.0904408656
 20
41.1882660447
 30
0.0
 11
5.0904408656
 21
26.4350119457
 31
0.0
  0
MTEXT
  5
364
330
35A
100
AcDbEntity
  8
DIMS
100
AcDbMText
 10
4.2866214114
 20
26.0677055461
 30
0.0
 40
0.5
 41
0.0
 71
     1
 72
     1
  1
30
  7
SLDTEXTSTYLE1
 73
     1
 44
1.0
  0
MTEXT
  5
365
330
35A
100
AcDbEntity
  8
DIMS
100
AcDbMText
 10
5.1720381063
 20
26.4330180451
 30
0.0
 40
0.5
 41
0.0
 71
     1
 72
     1
  1
5
  7
SLDTEXTSTYLE1
 73
     1
 44
1.0
  0
MTEXT
  5
366
330
35A
100
AcDbEntity
  8
DIMS
100
AcDbMText
 10
5.1720381063
 20
25.7718374666
 30
0.0
 40
0.5
 41
0.0
 71
     1
 72
     1
  1
8
  7
SLDTEXTSTYLE1
 73
     1
 44
1.0
  0
MTEXT
  5
367
330
35A
100
AcDbEntity
  8
DIMS
100
AcDbMText
 10
5.6880103558
 20
26.0677055461
 30
0.0
 40
0.5
 41
0.0
 71
     1
 72
     1
  1
"
  7
SLDTEXTSTYLE1
 73
     1
 44
1.0
  0
ENDBLK
  5
35C
330
35A
100
AcDbEntity
  8
0
100
AcDbBlockEnd
  0
BLOCK
  5
36A
330
369
100
AcDbEntity
  8
0
100
AcDbBlockBegin
  2
_D_7
 70
     0
 10
0.0
 20
0.0
 30
0.0
  3
_D_7
  1

  0
INSERT
  5
36C
330
369
100
AcDbEntity
  8
DIMS
100
AcDbBlockReference
  2
_Open90
 10
5.7203621254
 20
9.9853947672
 30
-3.0750931603
 41
0.5
 42
0.5
 50
180.0
  0
INSERT
  5
36D
330
369
100
AcDbEntity
  8
DIMS
100
AcDbBlockReference
  2
_Open90
 10
12.532319376
 20
9.9853947672
 30
-3.0750931603
 41
0.5
 42
0.5
 50
0.0
  0
LINE
  5
36E
330
369
100
AcDbEntity
  8
DIMS
100
AcDbLine
 10
8.9981884
 20
10.0366794655
 30
0.0
 11
9.8836050949
 21
10.0366794655
 31
0.0
  0
LINE
  5
36F
330
369
100
AcDbEntity
  8
DIMS
100
AcDbLine
 10
5.7203621254
 20
10.4118866386
 30
0.0
 11
5.7203621254
 21
9.6103947672
 31
0.0
  0
LINE
  5
370
330
369
100
AcDbEntity
  8
DIMS
100
AcDbLine
 10
12.532319376
 20
12.1743011126
 30
0.0
 11
12.532319376
 21
9.6103947672
 31
0.0
  0
LINE
  5
371
330
369
100
AcDbEntity
  8
DIMS
100
AcDbLine
 10
5.7203621254
 20
9.9853947672
 30
0.0
 11
8.5554800525
 21
9.9853947672
 31
0.0
  0
LINE
  5
372
330
369
100
AcDbEntity
  8
DIMS
100
AcDbLine
 10
12.532319376
 20
9.9853947672
 30
0.0
 11
10.1631189609
 21
9.9853947672
 31
0.0
  0
MTEXT
  5
373
330
369
100
AcDbEntity
  8
DIMS
100
AcDbMText
 10
8.5554800525
 20
10.2719425209
 30
0.0
 40
0.5
 41
0.0
 71
     1
 72
     1
  1
6
  7
SLDTEXTSTYLE1
 73
     1
 44
1.0
  0
MTEXT
  5
374
330
369
100
AcDbEntity
  8
DIMS
100
AcDbMText
 10
9.071452302
 20
10.6372550199
 30
0.0
 40
0.5
 41
0.0
 71
     1
 72
     1
  1
13
  7
SLDTEXTSTYLE1
 73
     1
 44
1.0
  0
MTEXT
  5
375
330
369
100
AcDbEntity
  8
DIMS
100
AcDbMText
 10
9.071452302
 20
9.9760744414
 30
0.0
 40
0.5
 41
0.0
 71
     1
 72
     1
  1
16
  7
SLDTEXTSTYLE1
 73
     1
 44
1.0
  0
MTEXT
  5
376
330
369
100
AcDbEntity
  8
DIMS
100
AcDbMText
 10
9.9568689969
 20
10.2719425209
 30
0.0
 40
0.5
 41
0.0
 71
     1
 72
     1
  1
"
  7
SLDTEXTSTYLE1
 73
     1
 44
1.0
  0
ENDBLK
  5
36B
330
369
100
AcDbEntity
  8
0
100
AcDbBlockEnd
  0
ENDSEC
  0
SECTION
  2
ENTITIES
  0
LINE
  5
78
330
1F
100
AcDbEntity
  8
TITLE
370
    50
100
AcDbLine
 10
42.518223024
 20
1.4876117645
 30
0.0
 11
59.4999864512
 21
1.4876117645
 31
0.0
  0
LINE
  5
79
330
1F
100
AcDbEntity
  8
TITLE
370
    50
100
AcDbLine
 10
59.4999317442
 20
5.4753603936
 30
0.0
 11
49.3105350723
 21
5.4753603936
 31
0.0
  0
LINE
  5
7A
330
1F
100
AcDbEntity
  8
TITLE
370
    50
100
AcDbLine
 10
42.518223024
 20
2.5427877231
 30
0.0
 11
35.5059791203
 21
2.5427877231
 31
0.0
  0
LINE
  5
7B
330
1F
100
AcDbEntity
  8
TITLE
370
    50
100
AcDbLine
 10
42.518223024
 20
1.4876117645
 30
0.0
 11
35.5059791203
 21
1.4876117645
 31
0.0
  0
LINE
  5
7C
330
1F
100
AcDbEntity
  8
TITLE
370
    50
100
AcDbLine
 10
42.518223024
 20
1.4876117645
 30
0.0
 11
42.518223024
 21
3.5979636817
 31
0.0
  0
LINE
  5
7D
330
1F
100
AcDbEntity
  8
TITLE
370
    50
100
AcDbLine
 10
35.5059791203
 20
3.5979636817
 30
0.0
 11
35.5059791203
 21
0.5
 31
0.0
  0
LINE
  5
7E
330
1F
100
AcDbEntity
  8
TITLE
370
    50
100
AcDbLine
 10
35.5059791203
 20
0.5
 30
0.0
 11
59.5
 21
0.5
 31
0.0
  0
LINE
  5
7F
330
1F
100
AcDbEntity
  8
TITLE
370
    50
100
AcDbLine
 10
59.4999317442
 20
5.4753603936
 30
0.0
 11
59.5
 21
0.5
 31
0.0
  0
LINE
  5
80
330
1F
100
AcDbEntity
  8
TITLE
370
    50
100
AcDbLine
 10
42.518223024
 20
3.5979636817
 30
0.0
 11
35.5059791203
 21
3.5979636817
 31
0.0
  0
LINE
  5
81
330
1F
100
AcDbEntity
  8
TITLE
370
    50
100
AcDbLine
 10
42.518223024
 20
3.5979636817
 30
0.0
 11
59.4997615643
 21
3.5979648343
 31
0.0
  0
LINE
  5
82
330
1F
100
AcDbEntity
  8
TITLE
370
    50
100
AcDbLine
 10
49.3105350723
 20
5.4753603936
 30
0.0
 11
49.3105350723
 21
0.4636772425
 31
0.0
  0
MTEXT
  5
84
330
1F
100
AcDbEntity
  8
NOTES
100
AcDbMText
 10
36.408297803
 20
1.0702903347
 30
0.0
 40
0.25
 41
0.0
 71
     1
 72
     1
  1
UNLESS OTHERWISE SPECIFIED DIMENSIONS ARE IN INCHES.
  7
SLDTEXTSTYLE0
 73
     1
 44
1.0
  0
MTEXT
  5
85
330
1F
100
AcDbEntity
  8
NOTES
100
AcDbMText
 10
36.4300699279
 20
3.0830627776
 30
0.0
 40
0.25
 41
0.0
 71
     1
 72
     1
  1
DATE:
  7
SLDTEXTSTYLE0
 73
     1
 44
1.0
  0
MTEXT
  5
86
330
1F
100
AcDbEntity
  8
NOTES
100
AcDbMText
 10
38.538701188
 20
2.1930329637
 30
0.0
 40
0.25
 41
0.0
 71
     2
 72
     1
  1
DO NOT SCALE DRAWING
  7
SLDTEXTSTYLE0
 73
     1
 44
1.0
  0
MTEXT
  5
88
330
1F
100
AcDbEntity
  8
NOTES
100
AcDbMText
 10
42.8307373075
 20
3.2712065527
 30
0.0
 40
0.25
 41
0.0
 71
     1
 72
     1
  1
TITLE:
  7
SLDTEXTSTYLE1
 73
     1
 44
1.0
  0
MTEXT
  5
89
330
1F
100
AcDbEntity
  8
NOTES
100
AcDbMText
 10
50.1561831052
 20
3.2712065527
 30
0.0
 40
0.25
 41
0.0
 71
     1
 72
     1
  1
DWG NO.
  7
SLDTEXTSTYLE1
 73
     1
 44
1.0
  0
MTEXT
  5
8B
330
1F
100
AcDbEntity
  8
NOTES
100
AcDbMText
 10
50.1831753203
 20
1.0675125551
 30
0.0
 40
0.25
 41
0.0
 71
     1
 72
     1
  1
SCALE:     1:1
  7
SLDTEXTSTYLE2
 73
     1
 44
1.0
  0
MTEXT
  5
8C
330
1F
100
AcDbEntity
  8
NOTES
100
AcDbMText
 10
54.2273149542
 20
2.8225904513
 30
0.0
 40
0.2916666667
 41
0.0
 71
     2
 72
     1
  1
1055-S(1055-W)_Flip Up Grab bar
  7
SLDTEXTSTYLE1
 73
     1
 44
1.0
  0
INSERT
  5
92
330
1F
100
AcDbEntity
  8
NOTES
100
AcDbBlockReference
  2
SW_NOTE_0
 10
50.266131557
 20
4.6105227838
 30
0.0
  0
INSERT
  5
9A
330
1F
100
AcDbEntity
  8
NOTES
100
AcDbBlockReference
  2
SW_NOTE_0_1
 10
36.6159726246
 20
5.1481526848
 30
0.0
  0
LINE
  5
9B
330
1F
100
AcDbEntity
  8
0
  6
Continuous
 62
     7
370
    25
100
AcDbLine
 10
42.7631425777
 20
16.6943474032
 30
0.0
 11
42.7851425777
 21
16.7163474032
 31
0.0
  0
LINE
  5
9C
330
1F
100
AcDbEntity
  8
0
  6
Continuous
 62
     7
370
    25
100
AcDbLine
 10
42.7851425777
 20
17.3163474032
 30
0.0
 11
42.7631425777
 21
17.3383474032
 31
0.0
  0
LINE
  5
9D
330
1F
100
AcDbEntity
  8
0
  6
Continuous
 62
     7
370
    25
100
AcDbLine
 10
38.1671425777
 20
17.2883474032
 30
0.0
 11
38.1451425777
 21
17.2663474032
 31
0.0
  0
LINE
  5
9E
330
1F
100
AcDbEntity
  8
0
  6
Continuous
 62
     7
370
    25
100
AcDbLine
 10
38.1451425777
 20
16.7663474032
 30
0.0
 11
38.1671425777
 21
16.7443474032
 31
0.0
  0
LINE
  5
9F
330
1F
100
AcDbEntity
  8
0
  6
Continuous
 62
     7
370
    25
100
AcDbLine
 10
42.7851425777
 20
16.7163474032
 30
0.0
 11
42.8826425777
 21
16.7163474032
 31
0.0
  0
LINE
  5
A0
330
1F
100
AcDbEntity
  8
0
  6
Continuous
 62
     7
370
    25
100
AcDbLine
 10
42.8826425777
 20
17.3163474032
 30
0.0
 11
42.7851425777
 21
17.3163474032
 31
0.0
  0
ARC
  5
A1
330
1F
100
AcDbEntity
  8
0
  6
Continuous
 62
     7
370
    25
100
AcDbCircle
 10
42.8826425777
 20
17.2963474032
 30
0.0
 40
0.0200000000000102
100
AcDbArc
 50
0.0
 51
90.0
  0
ARC
  5
A2
330
1F
100
AcDbEntity
  8
0
  6
Continuous
 62
     7
370
    25
100
AcDbCircle
 10
42.8826425777
 20
16.7363474032
 30
0.0
 40
0.0199999999999996
100
AcDbArc
 50
270.0
 51
0.0
  0
ARC
  5
A3
330
1F
100
AcDbEntity
  8
0
  6
Continuous
 62
     7
370
    25
100
AcDbCircle
 10
38.0476425777
 20
16.7863474032
 30
0.0
 40
0.0200000000000031
100
AcDbArc
 50
180.0
 51
270.0
  0
ARC
  5
A4
330
1F
100
AcDbEntity
  8
0
  6
Continuous
 62
     7
370
    25
100
AcDbCircle
 10
38.0476425777
 20
17.2463474032
 30
0.0
 40
0.0200000000000031
100
AcDbArc
 50
90.0
 51
180.0
  0
LINE
  5
A5
330
1F
100
AcDbEntity
  8
0
  6
Continuous
 62
     7
370
    25
100
AcDbLine
 10
38.1451425777
 20
17.2663474032
 30
0.0
 11
38.0476425777
 21
17.2663474032
 31
0.0
  0
LINE
  5
A6
330
1F
100
AcDbEntity
  8
0
  6
Continuous
 62
     7
370
    25
100
AcDbLine
 10
38.0476425777
 20
16.7663474032
 30
0.0
 11
38.1451425777
 21
16.7663474032
 31
0.0
  0
LINE
  5
A7
330
1F
100
AcDbEntity
  8
0
  6
Continuous
 62
     7
370
    25
100
AcDbLine
 10
38.5372211522
 20
17.0160899022
 30
0.0
 11
38.5372211522
 21
17.0160880003
 31
0.0
  0
LINE
  5
A8
330
1F
100
AcDbEntity
  8
0
  6
Continuous
 62
     7
370
    25
100
AcDbLine
 10
38.8930640033
 20
17.0160899023
 30
0.0
 11
38.8930640033
 21
17.0160899023
 31
0.0
  0
LINE
  5
A9
330
1F
100
AcDbEntity
  8
0
  6
Continuous
 62
     7
370
    25
100
AcDbLine
 10
42.0372211522
 20
17.0160899022
 30
0.0
 11
42.0372211522
 21
17.0160880003
 31
0.0
  0
LINE
  5
AA
330
1F
100
AcDbEntity
  8
0
  6
Continuous
 62
     7
370
    25
100
AcDbLine
 10
42.3930640033
 20
17.0160899023
 30
0.0
 11
42.3930640033
 21
17.0160899023
 31
0.0
  0
LINE
  5
AB
330
1F
100
AcDbEntity
  8
0
  6
Continuous
 62
     7
370
    25
100
AcDbLine
 10
42.7851425777
 20
17.3163474032
 30
0.0
 11
42.7851425777
 21
16.7163474032
 31
0.0
  0
LINE
  5
AC
330
1F
100
AcDbEntity
  8
0
  6
Continuous
 62
     7
370
    25
100
AcDbLine
 10
38.1451425777
 20
16.7663474032
 30
0.0
 11
38.1451425777
 21
17.2663474032
 31
0.0
  0
LINE
  5
AD
330
1F
100
AcDbEntity
  8
0
  6
Continuous
 62
     7
370
    25
100
AcDbLine
 10
42.9026425777
 20
17.2963474032
 30
0.0
 11
42.9026425777
 21
16.7363474032
 31
0.0
  0
LINE
  5
AE
330
1F
100
AcDbEntity
  8
0
  6
Continuous
 62
     7
370
    25
100
AcDbLine
 10
38.0276425777
 20
16.7863474032
 30
0.0
 11
38.0276425777
 21
17.2463474032
 31
0.0
  0
CIRCLE
  5
AF
330
1F
100
AcDbEntity
  8
0
  6
Continuous
 62
     7
370
    25
100
AcDbCircle
 10
38.7151425777
 20
17.0160880003
 30
0.0
 40
0.1779214255771815
  0
CIRCLE
  5
B0
330
1F
100
AcDbEntity
  8
0
  6
Continuous
 62
     7
370
    25
100
AcDbCircle
 10
38.7151425777
 20
17.0160822946
 30
0.0
 40
0.0875000000000002
  0
ARC
  5
B1
330
1F
100
AcDbEntity
  8
0
  6
Continuous
 62
     7
370
    25
100
AcDbCircle
 10
38.7151425777
 20
17.0160899022
 30
0.0
 40
0.1779214255771819
100
AcDbArc
 50
40.3554437796
 51
180.0000000039
  0
ARC
  5
B2
330
1F
100
AcDbEntity
  8
0
  6
Continuous
 62
     7
370
    25
100
AcDbCircle
 10
38.7151425777
 20
17.0160899022
 30
0.0
 40
0.1779214255771677
100
AcDbArc
 50
0.0000000039
 51
40.3554437796
  0
LINE
  5
B3
330
1F
100
AcDbEntity
  8
0
  6
Continuous
 62
     7
370
    25
100
AcDbLine
 10
38.8730900865
 20
17.1503021135
 30
0.0
 11
38.6778851472
 21
17.2199825623
 31
0.0
  0
LINE
  5
B4
330
1F
100
AcDbEntity
  8
0
  6
Continuous
 62
     7
370
    25
100
AcDbLine
 10
38.6778851472
 20
17.2199825623
 30
0.0
 11
38.6762246489
 21
17.2290704611
 31
0.0
  0
LINE
  5
B5
330
1F
100
AcDbEntity
  8
0
  6
Continuous
 62
     7
370
    25
100
AcDbLine
 10
38.6762246489
 20
17.2290704611
 30
0.0
 11
38.8801295298
 21
17.156284477
 31
0.0
  0
LINE
  5
B6
330
1F
100
AcDbEntity
  8
0
  6
Continuous
 62
     7
370
    25
100
AcDbLine
 10
38.8730900865
 20
17.1503021135
 30
0.0
 11
38.8801295298
 21
17.156284477
 31
0.0
  0
LINE
  5
B7
330
1F
100
AcDbEntity
  8
0
  6
Continuous
 62
     7
370
    25
100
AcDbLine
 10
38.9103475171
 20
16.9464094534
 30
0.0
 11
38.8730900865
 21
17.1503021135
 31
0.0
  0
LINE
  5
B8
330
1F
100
AcDbEntity
  8
0
  6
Continuous
 62
     7
370
    25
100
AcDbLine
 10
38.7524000083
 20
16.8121972422
 30
0.0
 11
38.9103475171
 21
16.9464094534
 31
0.0
  0
LINE
  5
B9
330
1F
100
AcDbEntity
  8
0
  6
Continuous
 62
     7
370
    25
100
AcDbLine
 10
38.557195069
 20
16.881877691
 30
0.0
 11
38.7524000083
 21
16.8121972422
 31
0.0
  0
LINE
  5
BA
330
1F
100
AcDbEntity
  8
0
  6
Continuous
 62
     7
370
    25
100
AcDbLine
 10
38.5199376384
 20
17.0857703511
 30
0.0
 11
38.557195069
 21
16.881877691
 31
0.0
  0
LINE
  5
BB
330
1F
100
AcDbEntity
  8
0
  6
Continuous
 62
     7
370
    25
100
AcDbLine
 10
38.6778851472
 20
17.2199825623
 30
0.0
 11
38.5199376384
 21
17.0857703511
 31
0.0
  0
LINE
  5
BC
330
1F
100
AcDbEntity
  8
0
  6
Continuous
 62
     7
370
    25
100
AcDbLine
 10
38.5199376384
 20
17.0857703511
 30
0.0
 11
38.5112376968
 21
17.0888766472
 31
0.0
  0
LINE
  5
BD
330
1F
100
AcDbEntity
  8
0
  6
Continuous
 62
     7
370
    25
100
AcDbLine
 10
38.5112376968
 20
17.0888766472
 30
0.0
 11
38.6762246489
 21
17.2290704611
 31
0.0
  0
LINE
  5
BE
330
1F
100
AcDbEntity
  8
0
  6
Continuous
 62
     7
370
    25
100
AcDbLine
 10
38.8801295298
 20
17.156284477
 30
0.0
 11
38.9190474587
 21
16.9433046789
 31
0.0
  0
LINE
  5
BF
330
1F
100
AcDbEntity
  8
0
  6
Continuous
 62
     7
370
    25
100
AcDbLine
 10
38.9190474587
 20
16.9433046789
 30
0.0
 11
38.9103475171
 21
16.9464094534
 31
0.0
  0
LINE
  5
C0
330
1F
100
AcDbEntity
  8
0
  6
Continuous
 62
     7
370
    25
100
AcDbLine
 10
38.5501556257
 20
16.875896849
 30
0.0
 11
38.5112376968
 21
17.0888766472
 31
0.0
  0
LINE
  5
C1
330
1F
100
AcDbEntity
  8
0
  6
Continuous
 62
     7
370
    25
100
AcDbLine
 10
38.5501556257
 20
16.875896849
 30
0.0
 11
38.557195069
 21
16.881877691
 31
0.0
  0
LINE
  5
C2
330
1F
100
AcDbEntity
  8
0
  6
Continuous
 62
     7
370
    25
100
AcDbLine
 10
38.9190474587
 20
16.9433046789
 30
0.0
 11
38.7540605066
 21
16.8031108649
 31
0.0
  0
LINE
  5
C3
330
1F
100
AcDbEntity
  8
0
  6
Continuous
 62
     7
370
    25
100
AcDbLine
 10
38.7540605066
 20
16.8031108649
 30
0.0
 11
38.7524000083
 21
16.8121972422
 31
0.0
  0
LINE
  5
C4
330
1F
100
AcDbEntity
  8
0
  6
Continuous
 62
     7
370
    25
100
AcDbLine
 10
38.7540605066
 20
16.8031108649
 30
0.0
 11
38.5501556257
 21
16.875896849
 31
0.0
  0
LINE
  5
C5
330
1F
100
AcDbEntity
  8
0
  6
Continuous
 62
     7
370
    25
100
AcDbLine
 10
38.8801295298
 20
17.1562981708
 30
0.0
 11
38.6762246489
 21
17.2290841549
 31
0.0
  0
LINE
  5
C6
330
1F
100
AcDbEntity
  8
0
  6
Continuous
 62
     7
370
    25
100
AcDbLine
 10
38.8801295298
 20
17.1562981708
 30
0.0
 11
38.8801295298
 21
17.156284477
 31
0.0
  0
LINE
  5
C7
330
1F
100
AcDbEntity
  8
0
  6
Continuous
 62
     7
370
    25
100
AcDbLine
 10
38.6762246489
 20
17.2290841549
 30
0.0
 11
38.6762246489
 21
17.2290704611
 31
0.0
  0
LINE
  5
C8
330
1F
100
AcDbEntity
  8
0
  6
Continuous
 62
     7
370
    25
100
AcDbLine
 10
38.6762246489
 20
17.2290841549
 30
0.0
 11
38.5112376968
 21
17.088890341
 31
0.0
  0
LINE
  5
C9
330
1F
100
AcDbEntity
  8
0
  6
Continuous
 62
     7
370
    25
100
AcDbLine
 10
38.5112376968
 20
17.088890341
 30
0.0
 11
38.5112376968
 21
17.0888766472
 31
0.0
  0
LINE
  5
CA
330
1F
100
AcDbEntity
  8
0
  6
Continuous
 62
     7
370
    25
100
AcDbLine
 10
38.9190474587
 20
16.9433183727
 30
0.0
 11
38.8801295298
 21
17.1562981708
 31
0.0
  0
LINE
  5
CB
330
1F
100
AcDbEntity
  8
0
  6
Continuous
 62
     7
370
    25
100
AcDbLine
 10
38.9190474587
 20
16.9433183727
 30
0.0
 11
38.9190474587
 21
16.9433046789
 31
0.0
  0
CIRCLE
  5
CC
330
1F
100
AcDbEntity
  8
0
  6
Continuous
 62
     7
370
    25
100
AcDbCircle
 10
42.2151425777
 20
17.0160880003
 30
0.0
 40
0.177921425577181
  0
CIRCLE
  5
CD
330
1F
100
AcDbEntity
  8
0
  6
Continuous
 62
     7
370
    25
100
AcDbCircle
 10
42.2151425777
 20
17.0160822946
 30
0.0
 40
0.0875000000000033
  0
ARC
  5
CE
330
1F
100
AcDbEntity
  8
0
  6
Continuous
 62
     7
370
    25
100
AcDbCircle
 10
42.2151425777
 20
17.0160899022
 30
0.0
 40
0.1779214255771748
100
AcDbArc
 50
0.0000000043
 51
180.0000000043
  0
LINE
  5
CF
330
1F
100
AcDbEntity
  8
0
  6
Continuous
 62
     7
370
    25
100
AcDbLine
 10
42.2611714196
 20
17.2276476183
 30
0.0
 11
42.4213706971
 21
17.0820069945
 31
0.0
  0
LINE
  5
D0
330
1F
100
AcDbEntity
  8
0
  6
Continuous
 62
     7
370
    25
100
AcDbLine
 10
42.4213706971
 20
17.0820069945
 30
0.0
 11
42.4125716307
 21
17.0791938036
 31
0.0
  0
LINE
  5
D1
330
1F
100
AcDbEntity
  8
0
  6
Continuous
 62
     7
370
    25
100
AcDbLine
 10
42.4125716307
 20
17.0791938036
 30
0.0
 11
42.2592075224
 21
17.2186204274
 31
0.0
  0
LINE
  5
D2
330
1F
100
AcDbEntity
  8
0
  6
Continuous
 62
     7
370
    25
100
AcDbLine
 10
42.2611714196
 20
17.2276476183
 30
0.0
 11
42.2592075224
 21
17.2186204274
 31
0.0
  0
LINE
  5
D3
330
1F
100
AcDbEntity
  8
0
  6
Continuous
 62
     7
370
    25
100
AcDbLine
 10
42.0177135248
 20
16.9529860009
 30
0.0
 11
42.1710776331
 21
16.8135593771
 31
0.0
  0
LINE
  5
D4
330
1F
100
AcDbEntity
  8
0
  6
Continuous
 62
     7
370
    25
100
AcDbLine
 10
42.0617784694
 20
17.1555165261
 30
0.0
 11
42.0177135248
 21
16.9529860009
 31
0.0
  0
LINE
  5
D5
330
1F
100
AcDbEntity
  8
0
  6
Continuous
 62
     7
370
    25
100
AcDbLine
 10
42.2592075224
 20
17.2186204274
 30
0.0
 11
42.0617784694
 21
17.1555165261
 31
0.0
  0
LINE
  5
D6
330
1F
100
AcDbEntity
  8
0
  6
Continuous
 62
     7
370
    25
100
AcDbLine
 10
42.3685066861
 20
16.8766632784
 30
0.0
 11
42.4125716307
 21
17.0791938036
 31
0.0
  0
LINE
  5
D7
330
1F
100
AcDbEntity
  8
0
  6
Continuous
 62
     7
370
    25
100
AcDbLine
 10
42.1710776331
 20
16.8135593771
 30
0.0
 11
42.3685066861
 21
16.8766632784
 31
0.0
  0
LINE
  5
D8
330
1F
100
AcDbEntity
  8
0
  6
Continuous
 62
     7
370
    25
100
AcDbLine
 10
42.0549433003
 20
17.1617312868
 30
0.0
 11
42.2611714196
 21
17.2276476183
 31
0.0
  0
LINE
  5
D9
330
1F
100
AcDbEntity
  8
0
  6
Continuous
 62
     7
370
    25
100
AcDbLine
 10
42.0549433003
 20
17.1617312868
 30
0.0
 11
42.0617784694
 21
17.1555165261
 31
0.0
  0
LINE
  5
DA
330
1F
100
AcDbEntity
  8
0
  6
Continuous
 62
     7
370
    25
100
AcDbLine
 10
42.0089144584
 20
16.9501743316
 30
0.0
 11
42.0549433003
 21
17.1617312868
 31
0.0
  0
LINE
  5
DB
330
1F
100
AcDbEntity
  8
0
  6
Continuous
 62
     7
370
    25
100
AcDbLine
 10
42.0177135248
 20
16.9529860009
 30
0.0
 11
42.0089144584
 21
16.9501743316
 31
0.0
  0
LINE
  5
DC
330
1F
100
AcDbEntity
  8
0
  6
Continuous
 62
     7
370
    25
100
AcDbLine
 10
42.4213706971
 20
17.0820069945
 30
0.0
 11
42.3753418552
 21
16.8704500392
 31
0.0
  0
LINE
  5
DD
330
1F
100
AcDbEntity
  8
0
  6
Continuous
 62
     7
370
    25
100
AcDbLine
 10
42.3685066861
 20
16.8766632784
 30
0.0
 11
42.3753418552
 21
16.8704500392
 31
0.0
  0
LINE
  5
DE
330
1F
100
AcDbEntity
  8
0
  6
Continuous
 62
     7
370
    25
100
AcDbLine
 10
42.1710776331
 20
16.8135593771
 30
0.0
 11
42.1691137359
 21
16.8045337078
 31
0.0
  0
LINE
  5
DF
330
1F
100
AcDbEntity
  8
0
  6
Continuous
 62
     7
370
    25
100
AcDbLine
 10
42.1691137359
 20
16.8045337078
 30
0.0
 11
42.0089144584
 21
16.9501743316
 31
0.0
  0
LINE
  5
E0
330
1F
100
AcDbEntity
  8
0
  6
Continuous
 62
     7
370
    25
100
AcDbLine
 10
42.3753418552
 20
16.8704500392
 30
0.0
 11
42.1691137359
 21
16.8045337078
 31
0.0
  0
LINE
  5
E1
330
1F
100
AcDbEntity
  8
0
  6
Continuous
 62
     7
370
    25
100
AcDbLine
 10
42.4213706971
 20
17.0820206883
 30
0.0
 11
42.2611714196
 21
17.2276613121
 31
0.0
  0
LINE
  5
E2
330
1F
100
AcDbEntity
  8
0
  6
Continuous
 62
     7
370
    25
100
AcDbLine
 10
42.4213706971
 20
17.0820206883
 30
0.0
 11
42.4213706971
 21
17.0820069945
 31
0.0
  0
LINE
  5
E3
330
1F
100
AcDbEntity
  8
0
  6
Continuous
 62
     7
370
    25
100
AcDbLine
 10
42.2611714196
 20
17.2276613121
 30
0.0
 11
42.2611714196
 21
17.2276476183
 31
0.0
  0
LINE
  5
E4
330
1F
100
AcDbEntity
  8
0
  6
Continuous
 62
     7
370
    25
100
AcDbLine
 10
42.2611714196
 20
17.2276613121
 30
0.0
 11
42.0549433003
 21
17.1617449806
 31
0.0
  0
LINE
  5
E5
330
1F
100
AcDbEntity
  8
0
  6
Continuous
 62
     7
370
    25
100
AcDbLine
 10
42.0549433003
 20
17.1617449806
 30
0.0
 11
42.0549433003
 21
17.1617312868
 31
0.0
  0
LINE
  5
E6
330
1F
100
AcDbEntity
  8
0
  6
Continuous
 62
     7
370
    25
100
AcDbLine
 10
42.0549433003
 20
17.1617449806
 30
0.0
 11
42.0089144584
 21
16.9501880254
 31
0.0
  0
LINE
  5
E7
330
1F
100
AcDbEntity
  8
0
  6
Continuous
 62
     7
370
    25
100
AcDbLine
 10
42.0089144584
 20
16.9501880254
 30
0.0
 11
42.0089144584
 21
16.9501743316
 31
0.0
  0
CIRCLE
  5
E8
330
1F
100
AcDbEntity
  8
0
  6
Continuous
 62
     7
370
    25
100
AcDbCircle
 10
42.2151425777
 20
17.0160899783
 30
0.0
 40
0.0675000000000008
  0
LINE
  5
E9
330
1F
100
AcDbEntity
  8
0
  6
Continuous
 62
     7
370
    25
100
AcDbLine
 10
42.1933905205
 20
17.0341291395
 30
0.0
 11
42.1971034164
 21
16.9943379211
 31
0.0
  0
LINE
  5
EA
330
1F
100
AcDbEntity
  8
0
  6
Continuous
 62
     7
370
    25
100
AcDbLine
 10
42.1971034164
 20
16.9943379211
 30
0.0
 11
42.2151425777
 21
17.0160899783
 31
0.0
  0
LINE
  5
EB
330
1F
100
AcDbEntity
  8
0
  6
Continuous
 62
     7
370
    25
100
AcDbLine
 10
42.2151425777
 20
17.0160899783
 30
0.0
 11
42.1933905205
 21
17.0341291395
 31
0.0
  0
LINE
  5
EC
330
1F
100
AcDbEntity
  8
0
  6
Continuous
 62
     7
370
    25
100
AcDbLine
 10
42.1933905205
 20
17.0341291395
 30
0.0
 11
42.1971034164
 21
16.9943474307
 31
0.0
  0
LINE
  5
ED
330
1F
100
AcDbEntity
  8
0
  6
Continuous
 62
     7
370
    25
100
AcDbLine
 10
42.1971034164
 20
16.9943474307
 30
0.0
 11
42.1971034164
 21
16.9943379211
 31
0.0
  0
LINE
  5
EE
330
1F
100
AcDbEntity
  8
0
  6
Continuous
 62
     7
370
    25
100
AcDbLine
 10
42.1971034164
 20
16.9943474307
 30
0.0
 11
42.2151425777
 21
17.0160899783
 31
0.0
  0
CIRCLE
  5
EF
330
1F
100
AcDbEntity
  8
0
  6
Continuous
 62
     7
370
    25
100
AcDbCircle
 10
38.7151425777
 20
17.0160899783
 30
0.0
 40
0.0674999999999983
  0
LINE
  5
F0
330
1F
100
AcDbEntity
  8
0
  6
Continuous
 62
     7
370
    25
100
AcDbLine
 10
38.7143848181
 20
17.0443386797
 30
0.0
 11
38.6868938762
 21
17.0153322187
 31
0.0
  0
LINE
  5
F1
330
1F
100
AcDbEntity
  8
0
  6
Continuous
 62
     7
370
    25
100
AcDbLine
 10
38.6868938762
 20
17.0153322187
 30
0.0
 11
38.7151425777
 21
17.0160899783
 31
0.0
  0
LINE
  5
F2
330
1F
100
AcDbEntity
  8
0
  6
Continuous
 62
     7
370
    25
100
AcDbLine
 10
38.7151425777
 20
17.0160899783
 30
0.0
 11
38.7143848181
 21
17.0443386797
 31
0.0
  0
LINE
  5
F3
330
1F
100
AcDbEntity
  8
0
  6
Continuous
 62
     7
370
    25
100
AcDbLine
 10
38.6868938762
 20
17.0153322187
 30
0.0
 11
38.7151425777
 21
17.0160994879
 31
0.0
  0
LWPOLYLINE
  5
F4
330
1F
100
AcDbEntity
  8
0
  6
Continuous
 62
     7
370
    25
100
AcDbPolyline
 90
        9
 70
   128
 43
0.0
 10
38.5901425777
 20
18.9685649926
 10
38.516983707
 20
18.9630456847
 10
38.4466362906
 20
18.9466998647
 10
38.3818037404
 20
18.9201556933
 10
38.3249775348
 20
18.8844332483
 10
38.2783414731
 20
18.8409053231
 10
38.2436877531
 20
18.7912446715
 10
38.2223480976
 20
18.7373597244
 10
38.2151425777
 20
18.6813212502
  0
LWPOLYLINE
  5
F5
330
1F
100
AcDbEntity
  8
0
  6
Continuous
 62
     7
370
    25
100
AcDbPolyline
 90
        9
 70
   128
 43
0.0
 10
38.5901425777
 20
18.9378362629
 10
38.516983707
 20
18.9323169549
 10
38.4466362906
 20
18.9159711349
 10
38.3818037404
 20
18.8894269636
 10
38.3249775348
 20
18.8537045186
 10
38.2783414731
 20
18.8101765934
 10
38.2436877531
 20
18.7605159417
 10
38.2223480976
 20
18.7066309947
 10
38.2151425777
 20
18.6505925205
  0
LINE
  5
F6
330
1F
100
AcDbEntity
  8
0
  6
Continuous
 62
     7
370
    25
100
AcDbLine
 10
38.2151425777
 20
18.6505925205
 30
0.0
 11
38.2151425777
 21
18.6813212502
 31
0.0
  0
LINE
  5
F7
330
1F
100
AcDbEntity
  8
0
  6
Continuous
 62
     7
370
    25
100
AcDbLine
 10
42.3401425777
 20
18.9685649926
 30
0.0
 11
38.5901425777
 21
18.9685649926
 31
0.0
  0
LINE
  5
F8
330
1F
100
AcDbEntity
  8
0
  6
Continuous
 62
     7
370
    25
100
AcDbLine
 10
42.3401425777
 20
18.9378362629
 30
0.0
 11
38.5901425777
 21
18.9378362629
 31
0.0
  0
LWPOLYLINE
  5
F9
330
1F
100
AcDbEntity
  8
0
  6
Continuous
 62
     7
370
    25
100
AcDbPolyline
 90
        9
 70
   128
 43
0.0
 10
42.7151425777
 20
18.6813212502
 10
42.7079370579
 20
18.7373597244
 10
42.6865974024
 20
18.7912446715
 10
42.6519436824
 20
18.8409053231
 10
42.6053076207
 20
18.8844332483
 10
42.5484814151
 20
18.9201556933
 10
42.4836488649
 20
18.9466998647
 10
42.4133014485
 20
18.9630456847
 10
42.3401425777
 20
18.9685649926
  0
LINE
  5
FA
330
1F
100
AcDbEntity
  8
0
  6
Continuous
 62
     7
370
    25
100
AcDbLine
 10
42.7151425777
 20
18.6505925205
 30
0.0
 11
42.7151425777
 21
18.6813212502
 31
0.0
  0
LWPOLYLINE
  5
FB
330
1F
100
AcDbEntity
  8
0
  6
Continuous
 62
     7
370
    25
100
AcDbPolyline
 90
        9
 70
   128
 43
0.0
 10
42.7151425777
 20
18.6505925205
 10
42.7079370579
 20
18.7066309947
 10
42.6865974024
 20
18.7605159417
 10
42.6519436824
 20
18.8101765934
 10
42.6053076207
 20
18.8537045186
 10
42.5484814151
 20
18.8894269636
 10
42.4836488649
 20
18.9159711349
 10
42.4133014485
 20
18.9323169549
 10
42.3401425777
 20
18.9378362629
  0
LINE
  5
FC
330
1F
100
AcDbEntity
  8
0
  6
Continuous
 62
     7
370
    25
100
AcDbLine
 10
38.2151425777
 20
18.6505925205
 30
0.0
 11
38.2151425777
 21
18.372151732
 31
0.0
  0
LINE
  5
FD
330
1F
100
AcDbEntity
  8
0
  6
Continuous
 62
     7
370
    25
100
AcDbLine
 10
42.7151425777
 20
18.372151732
 30
0.0
 11
42.7151425777
 21
18.6505925205
 31
0.0
  0
LWPOLYLINE
  5
FE
330
1F
100
AcDbEntity
  8
0
  6
Continuous
 62
     7
370
    25
100
AcDbPolyline
 90
        9
 70
   128
 43
0.0
 10
42.3401425777
 20
15.0942801278
 10
42.4133014485
 20
15.0998003166
 10
42.4836488649
 20
15.1161487455
 10
42.5484814151
 20
15.1426971533
 10
42.6053076207
 20
15.1784252997
 10
42.6519436824
 20
15.2219601721
 10
42.6865974024
 20
15.2716287497
 10
42.7079370579
 20
15.325522297
 10
42.7151425777
 20
15.3815697151
  0
LINE
  5
FF
330
1F
100
AcDbEntity
  8
0
  6
Continuous
 62
     7
370
    25
100
AcDbLine
 10
38.5901425777
 20
15.0942801278
 30
0.0
 11
42.3401425777
 21
15.0942801278
 31
0.0
  0
LWPOLYLINE
  5
100
330
1F
100
AcDbEntity
  8
0
  6
Continuous
 62
     7
370
    25
100
AcDbPolyline
 90
        9
 70
   128
 43
0.0
 10
38.2151425777
 20
15.3815697151
 10
38.2223480976
 20
15.325522297
 10
38.2436877531
 20
15.2716287497
 10
38.2783414731
 20
15.2219601721
 10
38.3249775348
 20
15.1784252997
 10
38.3818037404
 20
15.1426971533
 10
38.4466362906
 20
15.1161487455
 10
38.516983707
 20
15.0998003166
 10
38.5901425777
 20
15.0942801278
  0
LINE
  5
101
330
1F
100
AcDbEntity
  8
0
  6
Continuous
 62
     7
370
    25
100
AcDbLine
 10
38.2151425777
 20
15.6600549435
 30
0.0
 11
38.2151425777
 21
15.3815697151
 31
0.0
  0
LINE
  5
102
330
1F
100
AcDbEntity
  8
0
  6
Continuous
 62
     7
370
    25
100
AcDbLine
 10
42.7151425777
 20
15.3815697151
 30
0.0
 11
42.7151425777
 21
15.6600549435
 31
0.0
  0
LWPOLYLINE
  5
103
330
1F
100
AcDbEntity
  8
0
  6
Continuous
 62
     7
370
    25
100
AcDbPolyline
 90
        9
 70
   128
 43
0.0
 10
38.2151425777
 20
15.3508479496
 10
38.2223480976
 20
15.2948005315
 10
38.2436877531
 20
15.2409069843
 10
38.2783414731
 20
15.1912384066
 10
38.3249775348
 20
15.1477035343
 10
38.3818037404
 20
15.1119753878
 10
38.4466362906
 20
15.08542698
 10
38.516983707
 20
15.0690785512
 10
38.5901425777
 20
15.0635583623
  0
LINE
  5
104
330
1F
100
AcDbEntity
  8
0
  6
Continuous
 62
     7
370
    25
100
AcDbLine
 10
38.2151425777
 20
15.3815697151
 30
0.0
 11
38.2151425777
 21
15.3508479496
 31
0.0
  0
LWPOLYLINE
  5
105
330
1F
100
AcDbEntity
  8
0
  6
Continuous
 62
     7
370
    25
100
AcDbPolyline
 90
        9
 70
   128
 43
0.0
 10
42.3401425777
 20
15.0635583623
 10
42.4133014485
 20
15.0690785512
 10
42.4836488649
 20
15.08542698
 10
42.5484814151
 20
15.1119753878
 10
42.6053076207
 20
15.1477035343
 10
42.6519436824
 20
15.1912384066
 10
42.6865974024
 20
15.2409069843
 10
42.7079370579
 20
15.2948005315
 10
42.7151425777
 20
15.3508479496
  0
LINE
  5
106
330
1F
100
AcDbEntity
  8
0
  6
Continuous
 62
     7
370
    25
100
AcDbLine
 10
42.7151425777
 20
15.3815697151
 30
0.0
 11
42.7151425777
 21
15.3508479496
 31
0.0
  0
LINE
  5
107
330
1F
100
AcDbEntity
  8
0
  6
Continuous
 62
     7
370
    25
100
AcDbLine
 10
38.5901425777
 20
15.0635583623
 30
0.0
 11
42.3401425777
 21
15.0635583623
 31
0.0
  0
LINE
  5
108
330
1F
100
AcDbEntity
  8
0
  6
Continuous
 62
     7
370
    25
100
AcDbLine
 10
42.7151425777
 20
18.372151732
 30
0.0
 11
42.7151425777
 21
18.3207305033
 31
0.0
  0
LINE
  5
109
330
1F
100
AcDbEntity
  8
0
  6
Continuous
 62
     7
370
    25
100
AcDbLine
 10
38.2151425777
 20
18.3207305033
 30
0.0
 11
38.2151425777
 21
18.372151732
 31
0.0
  0
LINE
  5
10A
330
1F
100
AcDbEntity
  8
0
  6
Continuous
 62
     7
370
    25
100
AcDbLine
 10
42.7151425777
 20
15.7114797319
 30
0.0
 11
42.7151425777
 21
15.6600549435
 31
0.0
  0
LINE
  5
10B
330
1F
100
AcDbEntity
  8
0
  6
Continuous
 62
     7
370
    25
100
AcDbLine
 10
38.2151425777
 20
15.6600549435
 30
0.0
 11
38.2151425777
 21
15.7114797319
 31
0.0
  0
LINE
  5
10C
330
1F
100
AcDbEntity
  8
0
  6
Continuous
 62
     7
370
    25
100
AcDbLine
 10
38.2151425777
 20
18.3207305033
 30
0.0
 11
38.2151425777
 21
15.7114797319
 31
0.0
  0
LINE
  5
10D
330
1F
100
AcDbEntity
  8
0
  6
Continuous
 62
     7
370
    25
100
AcDbLine
 10
42.7151425777
 20
15.7114797319
 30
0.0
 11
42.7151425777
 21
18.3207305033
 31
0.0
  0
LWPOLYLINE
  5
10E
330
1F
100
AcDbEntity
  8
0
  6
Continuous
 62
     7
370
    25
100
AcDbPolyline
 90
        7
 70
   128
 43
0.0
 10
38.2151425777
 20
18.2961221795
 10
38.2026969591
 20
18.2961228265
 10
38.1905740353
 20
18.2961237726
 10
38.1806250088
 20
18.2961249255
 10
38.1732322151
 20
18.2961262408
 10
38.1686797553
 20
18.2961276679
 10
38.1671425777
 20
18.2961291521
  0
LINE
  5
10F
330
1F
100
AcDbEntity
  8
0
  6
Continuous
 62
     7
370
    25
100
AcDbLine
 10
38.2151425777
 20
18.2961221795
 30
0.0
 11
38.1671425777
 21
18.2961291521
 31
0.0
  0
LINE
  5
110
330
1F
100
AcDbEntity
  8
0
  6
Continuous
 62
     7
370
    25
100
AcDbLine
 10
38.1671425777
 20
15.7361291637
 30
0.0
 11
38.2151425777
 21
15.7361221911
 31
0.0
  0
LINE
  5
111
330
1F
100
AcDbEntity
  8
0
  6
Continuous
 62
     7
370
    25
100
AcDbLine
 10
38.1671425777
 20
18.2961291521
 30
0.0
 11
38.1671425777
 21
15.7361291637
 31
0.0
  0
LINE
  5
112
330
1F
100
AcDbEntity
  8
0
  6
Continuous
 62
     7
370
    25
100
AcDbLine
 10
42.7151425777
 20
18.2961221795
 30
0.0
 11
42.7631425777
 21
18.2961291521
 31
0.0
  0
LINE
  5
113
330
1F
100
AcDbEntity
  8
0
  6
Continuous
 62
     7
370
    25
100
AcDbLine
 10
42.7151425777
 20
18.2961221795
 30
0.0
 11
42.7631425777
 21
18.2961291521
 31
0.0
  0
LINE
  5
114
330
1F
100
AcDbEntity
  8
0
  6
Continuous
 62
     7
370
    25
100
AcDbLine
 10
42.7631425777
 20
15.7361291637
 30
0.0
 11
42.7631425777
 21
18.2961291521
 31
0.0
  0
LWPOLYLINE
  5
115
330
1F
100
AcDbEntity
  8
0
  6
Continuous
 62
     7
370
    25
100
AcDbPolyline
 90
        7
 70
   128
 43
0.0
 10
42.7151425777
 20
15.7361221911
 10
42.7275881964
 20
15.7361228381
 10
42.7397111202
 20
15.7361237842
 10
42.7496601467
 20
15.7361249371
 10
42.7570529404
 20
15.7361262523
 10
42.7616054002
 20
15.7361276795
 10
42.7631425777
 20
15.7361291637
  0
CIRCLE
  5
116
330
1F
100
AcDbEntity
  8
0
  6
Continuous
 62
     7
370
    25
100
AcDbCircle
 10
23.4127013355
 20
16.0785533053
 30
0.0
 40
0.2750000000000039
  0
LINE
  5
117
330
1F
100
AcDbEntity
  8
0
  6
Continuous
 62
     7
370
    25
100
AcDbLine
 10
23.6891822369
 20
15.9145665849
 30
0.0
 11
23.5078839405
 21
15.7715132346
 31
0.0
  0
LINE
  5
118
330
1F
100
AcDbEntity
  8
0
  6
Continuous
 62
     7
370
    25
100
AcDbLine
 10
23.136220434
 20
16.2425400256
 30
0.0
 11
23.3175187304
 21
16.385593376
 31
0.0
  0
LINE
  5
119
330
1F
100
AcDbEntity
  8
0
  6
Continuous
 62
     7
370
    25
100
AcDbLine
 10
23.132444219
 20
15.9211071811
 30
0.0
 11
23.0992055317
 21
16.1496427866
 31
0.0
  0
LINE
  5
11A
330
1F
100
AcDbEntity
  8
0
  6
Continuous
 62
     7
370
    25
100
AcDbLine
 10
23.6929584519
 20
16.2359994295
 30
0.0
 11
23.7261971392
 21
16.0074638239
 31
0.0
  0
LINE
  5
11B
330
1F
100
AcDbEntity
  8
0
  6
Continuous
 62
     7
370
    25
100
AcDbLine
 10
23.4089251205
 20
15.7571204608
 30
0.0
 11
23.1943881368
 21
15.8426027159
 31
0.0
  0
LINE
  5
11C
330
1F
100
AcDbEntity
  8
0
  6
Continuous
 62
     7
370
    25
100
AcDbLine
 10
23.4164775504
 20
16.3999861498
 30
0.0
 11
23.6310145341
 21
16.3145038946
 31
0.0
  0
ARC
  5
11D
330
1F
100
AcDbEntity
  8
0
  6
Continuous
 62
     7
370
    25
100
AcDbCircle
 10
23.3794626481
 20
16.3070889108
 30
0.0
 40
0.1000000000000039
100
AcDbArc
 50
68.2751918075
 51
128.2751918079
  0
ARC
  5
11E
330
1F
100
AcDbEntity
  8
0
  6
Continuous
 62
     7
370
    25
100
AcDbCircle
 10
23.4459400228
 20
15.8500176997
 30
0.0
 40
0.1000000000000023
100
AcDbArc
 50
248.2751918074
 51
308.2751918079
  0
ARC
  5
11F
330
1F
100
AcDbEntity
  8
0
  6
Continuous
 62
     7
370
    25
100
AcDbCircle
 10
23.2314030391
 20
15.9354999549
 30
0.0
 40
0.1000000000000023
100
AcDbArc
 50
188.2751918076
 51
248.2751918079
  0
ARC
  5
120
330
1F
100
AcDbEntity
  8
0
  6
Continuous
 62
     7
370
    25
100
AcDbCircle
 10
23.5939996319
 20
16.2216066557
 30
0.0
 40
0.1000000000000065
100
AcDbArc
 50
8.2751918074
 51
68.2751918075
  0
ARC
  5
121
330
1F
100
AcDbEntity
  8
0
  6
Continuous
 62
     7
370
    25
100
AcDbCircle
 10
23.1981643517
 20
16.1640355604
 30
0.0
 40
0.100000000000158
100
AcDbArc
 50
128.2751918076
 51
188.275191808
  0
ARC
  5
122
330
1F
100
AcDbEntity
  8
0
  6
Continuous
 62
     7
370
    25
100
AcDbCircle
 10
23.6272383192
 20
15.9930710501
 30
0.0
 40
0.1000000000001622
100
AcDbArc
 50
308.2751918076
 51
8.275191808
  0
CIRCLE
  5
123
330
1F
100
AcDbEntity
  8
0
  6
Continuous
 62
     7
370
    25
100
AcDbCircle
 10
25.2877013355
 20
16.0785533053
 30
0.0
 40
0.2750000000000049
  0
LINE
  5
124
330
1F
100
AcDbEntity
  8
0
  6
Continuous
 62
     7
370
    25
100
AcDbLine
 10
24.981979286
 20
15.97921871
 30
0.0
 11
24.9942743055
 21
16.2098312981
 31
0.0
  0
LINE
  5
125
330
1F
100
AcDbEntity
  8
0
  6
Continuous
 62
     7
370
    25
100
AcDbLine
 10
25.5934233849
 20
16.1778879006
 30
0.0
 11
25.5811283654
 21
15.9472753124
 31
0.0
  0
LINE
  5
126
330
1F
100
AcDbEntity
  8
0
  6
Continuous
 62
     7
370
    25
100
AcDbLine
 10
25.3545360771
 20
16.3929836642
 30
0.0
 11
25.5481049272
 21
16.267029571
 31
0.0
  0
LINE
  5
127
330
1F
100
AcDbEntity
  8
0
  6
Continuous
 62
     7
370
    25
100
AcDbLine
 10
25.2208665938
 20
15.7641229463
 30
0.0
 11
25.0272977437
 21
15.8900770396
 31
0.0
  0
LINE
  5
128
330
1F
100
AcDbEntity
  8
0
  6
Continuous
 62
     7
370
    25
100
AcDbLine
 10
25.0488140277
 20
16.2936490689
 30
0.0
 11
25.2546778972
 21
16.3983075638
 31
0.0
  0
LINE
  5
129
330
1F
100
AcDbEntity
  8
0
  6
Continuous
 62
     7
370
    25
100
AcDbLine
 10
25.5265886432
 20
15.8634575416
 30
0.0
 11
25.3207247737
 21
15.7587990467
 31
0.0
  0
ARC
  5
12A
330
1F
100
AcDbEntity
  8
0
  6
Continuous
 62
     7
370
    25
100
AcDbCircle
 10
25.0941324854
 20
16.2045073985
 30
0.0
 40
0.1
100
AcDbArc
 50
116.9481873985
 51
176.948187399
  0
ARC
  5
12B
330
1F
100
AcDbEntity
  8
0
  6
Continuous
 62
     7
370
    25
100
AcDbCircle
 10
25.0818374659
 20
15.9738948104
 30
0.0
 40
0.1000000000001565
100
AcDbArc
 50
176.9481873986
 51
236.9481873991
  0
ARC
  5
12C
330
1F
100
AcDbEntity
  8
0
  6
Continuous
 62
     7
370
    25
100
AcDbCircle
 10
25.275406316
 20
15.8479407171
 30
0.0
 40
0.1000000000000041
100
AcDbArc
 50
236.9481873985
 51
296.9481873986
  0
ARC
  5
12D
330
1F
100
AcDbEntity
  8
0
  6
Continuous
 62
     7
370
    25
100
AcDbCircle
 10
25.2999963549
 20
16.3091658935
 30
0.0
 40
0.1000000000000007
100
AcDbArc
 50
56.9481873987
 51
116.948187399
  0
ARC
  5
12E
330
1F
100
AcDbEntity
  8
0
  6
Continuous
 62
     7
370
    25
100
AcDbCircle
 10
25.4812701855
 20
15.952599212
 30
0.0
 40
0.1000000000000031
100
AcDbArc
 50
296.9481873986
 51
356.948187399
  0
ARC
  5
12F
330
1F
100
AcDbEntity
  8
0
  6
Continuous
 62
     7
370
    25
100
AcDbCircle
 10
25.493565205
 20
16.1832118002
 30
0.0
 40
0.1000000000001588
100
AcDbArc
 50
356.9481873987
 51
56.9481873991
  0
ARC
  5
130
330
1F
100
AcDbEntity
  8
0
  6
Continuous
 62
     7
370
    25
100
AcDbCircle
 10
47.5176585133
 20
17.0163705447
 30
0.0
 40
2.875
100
AcDbArc
 50
270.0
 51
90.0
  0
LINE
  5
131
330
1F
100
AcDbEntity
  8
0
  6
Continuous
 62
     7
370
    25
100
AcDbLine
 10
27.1671425777
 20
15.3913705447
 30
0.0
 11
38.2151425777
 21
15.3913705447
 31
0.0
  0
LINE
  5
132
330
1F
100
AcDbEntity
  8
0
  6
Continuous
 62
     7
370
    25
100
AcDbLine
 10
42.7151425777
 20
15.3913705447
 30
0.0
 11
47.5176585133
 21
15.3913705447
 31
0.0
  0
LINE
  5
133
330
1F
100
AcDbEntity
  8
0
  6
Continuous
 62
     7
370
    25
100
AcDbLine
 10
47.5176585133
 20
14.1413705447
 30
0.0
 11
26.8977013355
 21
14.1413705447
 31
0.0
  0
ARC
  5
134
330
1F
100
AcDbEntity
  8
0
  6
Continuous
 62
     7
370
    25
100
AcDbCircle
 10
47.5176585133
 20
17.0163705447
 30
0.0
 40
1.625
100
AcDbArc
 50
270.0
 51
90.0
  0
LINE
  5
135
330
1F
100
AcDbEntity
  8
0
  6
Continuous
 62
     7
370
    25
100
AcDbLine
 10
24.8019474161
 20
19.8913705447
 30
0.0
 11
37.6751388283
 21
19.8913705447
 31
0.0
  0
LINE
  5
136
330
1F
100
AcDbEntity
  8
0
  6
Continuous
 62
     7
370
    25
100
AcDbLine
 10
37.6751388283
 20
19.8913705447
 30
0.0
 11
37.7146976904
 21
19.8913705447
 31
0.0
  0
LINE
  5
137
330
1F
100
AcDbEntity
  8
0
  6
Continuous
 62
     7
370
    25
100
AcDbLine
 10
37.7146976904
 20
19.8913705447
 30
0.0
 11
47.5176585133
 21
19.8913705447
 31
0.0
  0
LINE
  5
138
330
1F
100
AcDbEntity
  8
0
  6
Continuous
 62
     7
370
    25
100
AcDbLine
 10
47.5176585133
 20
18.6413705447
 30
0.0
 11
42.7151425777
 21
18.6413705447
 31
0.0
  0
LINE
  5
139
330
1F
100
AcDbEntity
  8
0
  6
Continuous
 62
     7
370
    25
100
AcDbLine
 10
38.2151425777
 20
18.6413705447
 30
0.0
 11
27.1671425777
 21
18.6413705447
 31
0.0
  0
ARC
  5
13A
330
1F
100
AcDbEntity
  8
0
  6
Continuous
 62
     7
370
    25
100
AcDbCircle
 10
26.9912992337
 20
15.4461542756
 30
0.0
 40
0.3000000000000014
100
AcDbArc
 50
270.0
 51
278.7898719522
  0
LINE
  5
13B
330
1F
100
AcDbEntity
  8
0
  6
Continuous
 62
     7
370
    25
100
AcDbLine
 10
26.9912992337
 20
15.1461542756
 30
0.0
 11
26.8977013355
 21
15.1461542756
 31
0.0
  0
LINE
  5
13C
330
1F
100
AcDbEntity
  8
0
  6
Continuous
 62
     7
370
    25
100
AcDbLine
 10
26.0435164344
 20
18.8961542756
 30
0.0
 11
26.9912992258
 21
18.8961542756
 31
0.0
  0
ARC
  5
13D
330
1F
100
AcDbEntity
  8
0
  6
Continuous
 62
     7
370
    25
100
AcDbCircle
 10
26.9912992258
 20
18.5961542756
 30
0.0
 40
0.2999999999999972
100
AcDbArc
 50
81.2101265342
 51
90.0
  0
LWPOLYLINE
  5
13E
330
1F
100
AcDbEntity
  8
0
  6
Continuous
 62
     7
370
    25
100
AcDbPolyline
 90
        6
 70
   128
 43
0.0
 10
27.1671425777
 20
18.824075499
 10
27.1553252317
 20
18.8525053089
 10
27.1318751733
 20
18.869924489
 10
27.0941472862
 20
18.8825350644
 10
27.0678405654
 20
18.8878973236
 10
27.0371425777
 20
18.8926308971
  0
LINE
  5
13F
330
1F
100
AcDbEntity
  8
0
  6
Continuous
 62
     7
370
    25
100
AcDbLine
 10
27.1671425777
 20
18.8187619628
 30
0.0
 11
27.1671425777
 21
15.2182330455
 31
0.0
  0
LWPOLYLINE
  5
140
330
1F
100
AcDbEntity
  8
0
  6
Continuous
 62
     7
370
    25
100
AcDbPolyline
 90
        6
 70
   128
 43
0.0
 10
27.0371425777
 20
15.1496776529
 10
27.0704002117
 20
15.1555347806
 10
27.0972787485
 20
15.1613133295
 10
27.1318205239
 20
15.1726346913
 10
27.157616444
 20
15.1917503644
 10
27.1671425777
 20
15.2182330455
  0
LINE
  5
141
330
1F
100
AcDbEntity
  8
0
  6
Continuous
 62
     7
370
    25
100
AcDbLine
 10
20.3927013355
 20
21.2035533053
 30
0.0
 11
20.3927013355
 21
10.9535533053
 31
0.0
  0
LINE
  5
142
330
1F
100
AcDbEntity
  8
0
  6
Continuous
 62
     7
370
    25
100
AcDbLine
 10
20.5127013355
 20
21.2035533053
 30
0.0
 11
20.5127013355
 21
10.9535533053
 31
0.0
  0
LINE
  5
143
330
1F
100
AcDbEntity
  8
0
  6
Continuous
 62
     7
370
    25
100
AcDbLine
 10
20.3927013355
 20
10.5785533053
 30
0.0
 11
20.5127013355
 21
10.5785533053
 31
0.0
  0
LINE
  5
144
330
1F
100
AcDbEntity
  8
0
  6
Continuous
 62
     7
370
    25
100
AcDbLine
 10
20.3927013355
 20
10.9535533053
 30
0.0
 11
20.3927013355
 21
10.5785533053
 31
0.0
  0
LINE
  5
145
330
1F
100
AcDbEntity
  8
0
  6
Continuous
 62
     7
370
    25
100
AcDbLine
 10
20.5127013355
 20
10.9535533053
 30
0.0
 11
20.5127013355
 21
10.5785533053
 31
0.0
  0
LINE
  5
146
330
1F
100
AcDbEntity
  8
0
  6
Continuous
 62
     7
370
    25
100
AcDbLine
 10
20.3927013355
 20
21.5785533053
 30
0.0
 11
20.5127013355
 21
21.5785533053
 31
0.0
  0
LINE
  5
147
330
1F
100
AcDbEntity
  8
0
  6
Continuous
 62
     7
370
    25
100
AcDbLine
 10
20.3927013355
 20
21.5785533053
 30
0.0
 11
20.3927013355
 21
21.2035533053
 31
0.0
  0
LINE
  5
148
330
1F
100
AcDbEntity
  8
0
  6
Continuous
 62
     7
370
    25
100
AcDbLine
 10
20.5127013355
 20
21.5785533053
 30
0.0
 11
20.5127013355
 21
21.2035533053
 31
0.0
  0
LINE
  5
149
330
1F
100
AcDbEntity
  8
0
  6
Continuous
 62
     7
370
    25
100
AcDbLine
 10
20.5127013355
 20
21.5785533053
 30
0.0
 11
20.6797013355
 21
21.5785533053
 31
0.0
  0
LINE
  5
14A
330
1F
100
AcDbEntity
  8
0
  6
Continuous
 62
     7
370
    25
100
AcDbLine
 10
20.6797013355
 20
10.5785533053
 30
0.0
 11
20.5127013355
 21
10.5785533053
 31
0.0
  0
ARC
  5
14B
330
1F
100
AcDbEntity
  8
0
  6
Continuous
 62
     7
370
    25
100
AcDbCircle
 10
26.3977006712
 20
12.3883800923
 30
0.0
 40
0.500000664285712
100
AcDbArc
 50
295.0430839644
 51
359.9999515455
  0
LWPOLYLINE
  5
14C
330
1F
100
AcDbEntity
  8
0
  6
Continuous
 62
     7
370
    25
100
AcDbPolyline
 90
        9
 70
   128
 43
0.0
 10
20.6797013355
 20
10.5785533053
 10
21.8554637913
 20
10.7271086675
 10
23.0269515137
 20
10.9136550154
 10
23.9361369568
 20
11.0931706737
 10
24.8383254934
 20
11.3117851771
 10
25.288663455
 20
11.4406555349
 10
25.7342563495
 20
11.5849721741
 10
26.1764249409
 20
11.7487679477
 10
26.6093507757
 20
11.9353846204
  0
LWPOLYLINE
  5
14D
330
1F
100
AcDbEntity
  8
0
  6
Continuous
 62
     7
370
    25
100
AcDbPolyline
 90
       13
 70
   128
 43
0.0
 10
26.4371985589
 20
18.4662813703
 10
26.0676378987
 20
18.8736636631
 10
25.6652621554
 20
19.2488347902
 10
25.224257081
 20
19.6005125894
 10
24.7596304105
 20
19.9205155981
 10
24.3527549672
 20
20.1672715656
 10
23.9345402954
 20
20.3943550206
 10
23.5034737127
 20
20.604773995
 10
23.0644250851
 20
20.7980467999
 10
22.4816915699
 20
21.0266974615
 10
21.8899772465
 20
21.2311179804
 10
21.2877057081
 20
21.4147746164
 10
20.6797013355
 20
21.5785533053
  0
ARC
  5
14E
330
1F
100
AcDbEntity
  8
0
  6
Continuous
 62
     7
370
    25
100
AcDbCircle
 10
24.8976954876
 20
17.1895849754
 30
0.0
 40
2.00000584790546
100
AcDbArc
 50
0.0000604278
 51
39.668619801
  0
LINE
  5
14F
330
1F
100
AcDbEntity
  8
0
  6
Continuous
 62
     7
370
    25
100
AcDbLine
 10
26.8977013355
 20
12.3883796695
 30
0.0
 11
26.8977013355
 21
17.1895870847
 31
0.0
  0
DIMENSION
  5
150
330
1F
100
AcDbEntity
  8
DIMS
100
AcDbDimension
  2
_D
 10
50.3926585133
 20
9.5129538223
 30
0.0
 11
37.7542869572
 21
9.5129538223
 31
0.0
 70
   160
  1
<>
 71
     2
 42
-1.0
  3
SLDDIMSTYLE0
100
AcDbAlignedDimension
 13
20.3927013355
 23
10.5785533053
 33
0.0
 14
50.3926585133
 24
17.0163705447
 34
0.0
 50
0.0
100
AcDbRotatedDimension
  0
DIMENSION
  5
162
330
1F
100
AcDbEntity
  8
DIMS
100
AcDbDimension
  2
_D_1
 10
19.7627800756
 20
10.5785533053
 30
0.0
 11
19.7627800756
 21
16.0432588416
 31
0.0
 70
   160
  1
<>
 71
     2
 42
-1.0
  3
SLDDIMSTYLE0
100
AcDbAlignedDimension
 13
20.3927013355
 23
21.5785533053
 33
0.0
 14
20.3927013355
 24
10.5785533053
 34
0.0
 50
90.0
100
AcDbRotatedDimension
  0
INSERT
  5
171
330
1F
100
AcDbEntity
  8
NOTES
100
AcDbBlockReference
  2
SW_NOTE_0_2
 10
43.3967629046
 20
21.7664240864
 30
0.0
  0
LEADER
  5
173
330
1F
100
AcDbEntity
  8
NOTES
100
AcDbLeader
  3
SLDDIMSTYLE1
 76
     2
 10
41.3230063028
 20
18.372151732
 30
0.0
 10
43.3967629046
 20
21.7664240864
 30
0.0
  0
MTEXT
  5
174
330
1F
100
AcDbEntity
  8
NOTES
100
AcDbMText
 10
20.5962190262
 20
9.1827425749
 30
0.0
 40
0.5
 41
0.0
 71
     1
 72
     1
  1
Front View (grab bar in down position)
  7
SLDTEXTSTYLE1
 73
     1
 44
1.0
  0
LINE
  5
175
330
1F
100
AcDbEntity
  8
0
  6
Continuous
 62
     7
370
    25
100
AcDbLine
 10
39.6751425777
 20
28.6254531607
 30
0.0
 11
42.6951425777
 21
28.6254531607
 31
0.0
  0
LINE
  5
176
330
1F
100
AcDbEntity
  8
0
  6
Continuous
 62
     7
370
    25
100
AcDbLine
 10
42.6951425777
 20
29.5754531607
 30
0.0
 11
39.6751425777
 21
29.5754531607
 31
0.0
  0
ARC
  5
177
330
1F
100
AcDbEntity
  8
0
  6
Continuous
 62
     7
370
    25
100
AcDbCircle
 10
39.6751425777
 20
29.5554531607
 30
0.0
 40
0.0200000000000031
100
AcDbArc
 50
90.0
 51
180.0
  0
ARC
  5
178
330
1F
100
AcDbEntity
  8
0
  6
Continuous
 62
     7
370
    25
100
AcDbCircle
 10
39.6751425777
 20
28.6454531607
 30
0.0
 40
0.0200000000000102
100
AcDbArc
 50
180.0
 51
270.0
  0
ARC
  5
179
330
1F
100
AcDbEntity
  8
0
  6
Continuous
 62
     7
370
    25
100
AcDbCircle
 10
42.6951425777
 20
29.5554531607
 30
0.0
 40
0.0199999999999996
100
AcDbArc
 50
0.0
 51
90.0
  0
ARC
  5
17A
330
1F
100
AcDbEntity
  8
0
  6
Continuous
 62
     7
370
    25
100
AcDbCircle
 10
42.6951425777
 20
28.6454531607
 30
0.0
 40
0.0200000000000102
100
AcDbArc
 50
270.0
 51
360.0
  0
LINE
  5
17B
330
1F
100
AcDbEntity
  8
0
  6
Continuous
 62
     7
370
    25
100
AcDbLine
 10
39.6551425777
 20
29.5004531607
 30
0.0
 11
38.2351425777
 21
29.5004531607
 31
0.0
  0
LINE
  5
17C
330
1F
100
AcDbEntity
  8
0
  6
Continuous
 62
     7
370
    25
100
AcDbLine
 10
38.2351425777
 20
28.7004531607
 30
0.0
 11
39.6551425777
 21
28.7004531607
 31
0.0
  0
ARC
  5
17D
330
1F
100
AcDbEntity
  8
0
  6
Continuous
 62
     7
370
    25
100
AcDbCircle
 10
38.2351425777
 20
28.7204531607
 30
0.0
 40
0.0200000000000031
100
AcDbArc
 50
180.0
 51
270.0
  0
ARC
  5
17E
330
1F
100
AcDbEntity
  8
0
  6
Continuous
 62
     7
370
    25
100
AcDbCircle
 10
38.2351425777
 20
29.4804531607
 30
0.0
 40
0.0200000000000031
100
AcDbArc
 50
90.0
 51
180.0
  0
LINE
  5
17F
330
1F
100
AcDbEntity
  8
0
  6
Continuous
 62
     7
370
    25
100
AcDbLine
 10
42.7631425777
 20
28.7784531607
 30
0.0
 11
42.7851425777
 21
28.8004531607
 31
0.0
  0
LINE
  5
180
330
1F
100
AcDbEntity
  8
0
  6
Continuous
 62
     7
370
    25
100
AcDbLine
 10
42.7851425777
 20
29.4004531607
 30
0.0
 11
42.7631425777
 21
29.4224531607
 31
0.0
  0
LINE
  5
181
330
1F
100
AcDbEntity
  8
0
  6
Continuous
 62
     7
370
    25
100
AcDbLine
 10
38.1671425777
 20
29.3724531607
 30
0.0
 11
38.1451425777
 21
29.3504531607
 31
0.0
  0
LINE
  5
182
330
1F
100
AcDbEntity
  8
0
  6
Continuous
 62
     7
370
    25
100
AcDbLine
 10
38.1451425777
 20
28.8504531607
 30
0.0
 11
38.1671425777
 21
28.8284531607
 31
0.0
  0
LINE
  5
183
330
1F
100
AcDbEntity
  8
0
  6
Continuous
 62
     7
370
    25
100
AcDbLine
 10
42.7851425777
 20
28.8004531607
 30
0.0
 11
42.8826425777
 21
28.8004531607
 31
0.0
  0
LINE
  5
184
330
1F
100
AcDbEntity
  8
0
  6
Continuous
 62
     7
370
    25
100
AcDbLine
 10
42.8826425777
 20
29.4004531607
 30
0.0
 11
42.7851425777
 21
29.4004531607
 31
0.0
  0
ARC
  5
185
330
1F
100
AcDbEntity
  8
0
  6
Continuous
 62
     7
370
    25
100
AcDbCircle
 10
42.8826425777
 20
29.3804531607
 30
0.0
 40
0.0200000000000031
100
AcDbArc
 50
0.0
 51
90.0
  0
ARC
  5
186
330
1F
100
AcDbEntity
  8
0
  6
Continuous
 62
     7
370
    25
100
AcDbCircle
 10
42.8826425777
 20
28.8204531607
 30
0.0
 40
0.019999999999996
100
AcDbArc
 50
270.0
 51
0.0
  0
ARC
  5
187
330
1F
100
AcDbEntity
  8
0
  6
Continuous
 62
     7
370
    25
100
AcDbCircle
 10
38.0476425777
 20
28.8704531607
 30
0.0
 40
0.0200000000000031
100
AcDbArc
 50
180.0
 51
270.0
  0
ARC
  5
188
330
1F
100
AcDbEntity
  8
0
  6
Continuous
 62
     7
370
    25
100
AcDbCircle
 10
38.0476425777
 20
29.3304531607
 30
0.0
 40
0.0200000000000031
100
AcDbArc
 50
90.0
 51
180.0
  0
LINE
  5
189
330
1F
100
AcDbEntity
  8
0
  6
Continuous
 62
     7
370
    25
100
AcDbLine
 10
38.1451425777
 20
29.3504531607
 30
0.0
 11
38.0476425777
 21
29.3504531607
 31
0.0
  0
LINE
  5
18A
330
1F
100
AcDbEntity
  8
0
  6
Continuous
 62
     7
370
    25
100
AcDbLine
 10
38.0476425777
 20
28.8504531607
 30
0.0
 11
38.1451425777
 21
28.8504531607
 31
0.0
  0
LINE
  5
18B
330
1F
100
AcDbEntity
  8
0
  6
Continuous
 62
     7
370
    25
100
AcDbLine
 10
38.2151425777
 20
29.8084531607
 30
0.0
 11
38.1671425777
 21
29.8084531607
 31
0.0
  0
LINE
  5
18C
330
1F
100
AcDbEntity
  8
0
  6
Continuous
 62
     7
370
    25
100
AcDbLine
 10
42.7631425777
 20
29.8084531607
 30
0.0
 11
42.7151425777
 21
29.8084531607
 31
0.0
  0
ARC
  5
18D
330
1F
100
AcDbEntity
  8
0
  6
Continuous
 62
     7
370
    25
100
AcDbCircle
 10
22.9507873527
 20
25.4375880748
 30
0.0
 40
0.1869139827871537
100
AcDbArc
 50
0.0
 51
25.2339604097
  0
ARC
  5
18E
330
1F
100
AcDbEntity
  8
0
  6
Continuous
 62
     7
370
    25
100
AcDbCircle
 10
23.8746153182
 20
25.4375880748
 30
0.0
 40
0.1869139827871553
100
AcDbArc
 50
154.763203241
 51
180.0
  0
LINE
  5
18F
330
1F
100
AcDbEntity
  8
0
  6
Continuous
 62
     7
370
    25
100
AcDbLine
 10
23.1377013355
 20
25.4375880748
 30
0.0
 11
23.1377013355
 21
25.379739792
 31
0.0
  0
LINE
  5
190
330
1F
100
AcDbEntity
  8
0
  6
Continuous
 62
     7
370
    25
100
AcDbLine
 10
23.6877013355
 20
25.379739792
 30
0.0
 11
23.6877013355
 21
25.4375880748
 31
0.0
  0
ARC
  5
191
330
1F
100
AcDbEntity
  8
0
  6
Continuous
 62
     7
370
    25
100
AcDbCircle
 10
23.1877013355
 20
25.379739792
 30
0.0
 40
0.0499999999999972
100
AcDbArc
 50
180.0
 51
270.0
  0
ARC
  5
192
330
1F
100
AcDbEntity
  8
0
  6
Continuous
 62
     7
370
    25
100
AcDbCircle
 10
23.6377013355
 20
25.379739792
 30
0.0
 40
0.0500000000000007
100
AcDbArc
 50
270.0
 51
360.0
  0
ARC
  5
193
330
1F
100
AcDbEntity
  8
0
  6
Continuous
 62
     7
370
    25
100
AcDbCircle
 10
23.1877013355
 20
25.0396743715
 30
0.0
 40
0.2900654205607438
100
AcDbArc
 50
39.1326325072
 51
90.0
  0
ARC
  5
194
330
1F
100
AcDbEntity
  8
0
  6
Continuous
 62
     7
370
    25
100
AcDbCircle
 10
23.6377013355
 20
25.0396743715
 30
0.0
 40
0.2900654205607474
100
AcDbArc
 50
90.0
 51
140.8673674928
  0
ARC
  5
195
330
1F
100
AcDbEntity
  8
0
  6
Continuous
 62
     7
370
    25
100
AcDbCircle
 10
23.4490860902
 20
25.6264451367
 30
0.0
 40
0.2787226294843926
100
AcDbArc
 50
336.9422036847
 51
351.672560108
  0
LINE
  5
196
330
1F
100
AcDbEntity
  8
0
  6
Continuous
 62
     7
370
    25
100
AcDbLine
 10
23.0981643517
 20
25.872739792
 30
0.0
 11
23.0981643517
 21
25.6077958964
 31
0.0
  0
ARC
  5
197
330
1F
100
AcDbEntity
  8
0
  6
Continuous
 62
     7
370
    25
100
AcDbCircle
 10
23.1981643517
 20
25.6077958964
 30
0.0
 40
0.0999999999999979
100
AcDbArc
 50
180.0000000001
 51
191.976321199
  0
ARC
  5
198
330
1F
100
AcDbEntity
  8
0
  6
Continuous
 62
     7
370
    25
100
AcDbCircle
 10
23.3129562971
 20
25.6093532141
 30
0.0
 40
0.2135368940734429
100
AcDbArc
 50
186.1389113969
 51
205.3905801827
  0
LINE
  5
199
330
1F
100
AcDbEntity
  8
0
  6
Continuous
 62
     7
370
    25
100
AcDbLine
 10
23.7272383192
 20
25.6077958964
 30
0.0
 11
23.7272383192
 21
25.872739792
 31
0.0
  0
ARC
  5
19A
330
1F
100
AcDbEntity
  8
0
  6
Continuous
 62
     7
370
    25
100
AcDbCircle
 10
23.6272383192
 20
25.6077958964
 30
0.0
 40
0.0999999999999941
100
AcDbArc
 50
348.023678801
 51
359.9999999999
  0
ARC
  5
19B
330
1F
100
AcDbEntity
  8
0
  6
Continuous
 62
     7
370
    25
100
AcDbCircle
 10
24.8257873527
 20
25.4375880748
 30
0.0
 40
0.1869139827871543
100
AcDbArc
 50
0.0
 51
24.3884394514
  0
ARC
  5
19C
330
1F
100
AcDbEntity
  8
0
  6
Continuous
 62
     7
370
    25
100
AcDbCircle
 10
25.7496153182
 20
25.4375880748
 30
0.0
 40
0.1869139827871535
100
AcDbArc
 50
155.4781316175
 51
180.0
  0
LINE
  5
19D
330
1F
100
AcDbEntity
  8
0
  6
Continuous
 62
     7
370
    25
100
AcDbLine
 10
25.0127013355
 20
25.4375880748
 30
0.0
 11
25.0127013355
 21
25.379739792
 31
0.0
  0
LINE
  5
19E
330
1F
100
AcDbEntity
  8
0
  6
Continuous
 62
     7
370
    25
100
AcDbLine
 10
25.5627013355
 20
25.379739792
 30
0.0
 11
25.5627013355
 21
25.4375880748
 31
0.0
  0
ARC
  5
19F
330
1F
100
AcDbEntity
  8
0
  6
Continuous
 62
     7
370
    25
100
AcDbCircle
 10
25.0627013355
 20
25.379739792
 30
0.0
 40
0.0500000000000007
100
AcDbArc
 50
180.0
 51
270.0
  0
ARC
  5
1A0
330
1F
100
AcDbEntity
  8
0
  6
Continuous
 62
     7
370
    25
100
AcDbCircle
 10
25.5127013355
 20
25.379739792
 30
0.0
 40
0.0500000000000007
100
AcDbArc
 50
270.0
 51
0.0
  0
ARC
  5
1A1
330
1F
100
AcDbEntity
  8
0
  6
Continuous
 62
     7
370
    25
100
AcDbCircle
 10
25.0627013355
 20
25.0396743715
 30
0.0
 40
0.290065420560744
100
AcDbArc
 50
39.1326325072
 51
90.0
  0
ARC
  5
1A2
330
1F
100
AcDbEntity
  8
0
  6
Continuous
 62
     7
370
    25
100
AcDbCircle
 10
25.5127013355
 20
25.0396743715
 30
0.0
 40
0.2900654205607474
100
AcDbArc
 50
90.0
 51
140.8673674928
  0
LINE
  5
1A3
330
1F
100
AcDbEntity
  8
0
  6
Continuous
 62
     7
370
    25
100
AcDbLine
 10
25.593565205
 20
25.6077958964
 30
0.0
 11
25.593565205
 21
25.872739792
 31
0.0
  0
ARC
  5
1A4
330
1F
100
AcDbEntity
  8
0
  6
Continuous
 62
     7
370
    25
100
AcDbCircle
 10
25.493565205
 20
25.6077958964
 30
0.0
 40
0.1000000000000013
100
AcDbArc
 50
355.5134736603
 51
0.0
  0
ARC
  5
1A5
330
1F
100
AcDbEntity
  8
0
  6
Continuous
 62
     7
370
    25
100
AcDbCircle
 10
25.1855002966
 20
25.5871200907
 30
0.0
 40
0.2028215448111978
100
AcDbArc
 50
179.1696924088
 51
200.8991581981
  0
LINE
  5
1A6
330
1F
100
AcDbEntity
  8
0
  6
Continuous
 62
     7
370
    25
100
AcDbLine
 10
24.9820930918
 20
25.5977743236
 30
0.0
 11
24.9827000484
 21
25.5900591968
 31
0.0
  0
ARC
  5
1A7
330
1F
100
AcDbEntity
  8
0
  6
Continuous
 62
     7
370
    25
100
AcDbCircle
 10
25.3349798761
 20
25.5983424703
 30
0.0
 40
0.2583372732797597
100
AcDbArc
 50
341.2177398078
 51
359.8136419474
  0
LINE
  5
1A8
330
1F
100
AcDbEntity
  8
0
  6
Continuous
 62
     7
370
    25
100
AcDbLine
 10
24.9818374659
 20
25.872739792
 30
0.0
 11
24.9818374659
 21
25.6077958964
 31
0.0
  0
ARC
  5
1A9
330
1F
100
AcDbEntity
  8
0
  6
Continuous
 62
     7
370
    25
100
AcDbCircle
 10
25.0818374659
 20
25.6077958964
 30
0.0
 40
0.0999999999999979
100
AcDbArc
 50
180.0000000002
 51
184.4865263402
  0
ARC
  5
1AA
330
1F
100
AcDbEntity
  8
0
  6
Continuous
 62
     7
370
    25
100
AcDbCircle
 10
21.4850372574
 20
27.224739792
 30
0.0
 40
0.0500000000000043
100
AcDbArc
 50
90.0
 51
173.5653460488
  0
ARC
  5
1AB
330
1F
100
AcDbEntity
  8
0
  6
Continuous
 62
     7
370
    25
100
AcDbCircle
 10
21.4850372574
 20
26.104739792
 30
0.0
 40
0.0500000000000028
100
AcDbArc
 50
186.4346539513
 51
270.0
  0
LINE
  5
1AC
330
1F
100
AcDbEntity
  8
0
  6
Continuous
 62
     7
370
    25
100
AcDbLine
 10
21.5100372574
 20
27.274739792
 30
0.0
 11
21.4850372574
 21
27.274739792
 31
0.0
  0
LINE
  5
1AD
330
1F
100
AcDbEntity
  8
0
  6
Continuous
 62
     7
370
    25
100
AcDbLine
 10
21.4850372574
 20
26.054739792
 30
0.0
 11
21.5100372574
 21
26.054739792
 31
0.0
  0
ARC
  5
1AE
330
1F
100
AcDbEntity
  8
0
  6
Continuous
 62
     7
370
    25
100
AcDbCircle
 10
26.4504368917
 20
26.664739792
 30
0.0
 40
5.046878378378355
100
AcDbArc
 50
173.5653460488
 51
186.4346539512
  0
ARC
  5
1AF
330
1F
100
AcDbEntity
  8
0
  6
Continuous
 62
     7
370
    25
100
AcDbCircle
 10
21.5100372574
 20
27.224739792
 30
0.0
 40
0.0500000000000007
100
AcDbArc
 50
90.0
 51
173.5653460488
  0
ARC
  5
1B0
330
1F
100
AcDbEntity
  8
0
  6
Continuous
 62
     7
370
    25
100
AcDbCircle
 10
21.5100372574
 20
26.104739792
 30
0.0
 40
0.050000000000002
100
AcDbArc
 50
186.4346539513
 51
270.0
  0
LINE
  5
1B1
330
1F
100
AcDbEntity
  8
0
  6
Continuous
 62
     7
370
    25
100
AcDbLine
 10
21.5855585133
 20
27.274739792
 30
0.0
 11
21.5100372574
 21
27.274739792
 31
0.0
  0
LINE
  5
1B2
330
1F
100
AcDbEntity
  8
0
  6
Continuous
 62
     7
370
    25
100
AcDbLine
 10
21.5100372574
 20
26.054739792
 30
0.0
 11
21.5855585133
 21
26.054739792
 31
0.0
  0
ARC
  5
1B3
330
1F
100
AcDbEntity
  8
0
  6
Continuous
 62
     7
370
    25
100
AcDbCircle
 10
26.4754368917
 20
26.664739792
 30
0.0
 40
5.046878378378352
100
AcDbArc
 50
173.5653460488
 51
186.4346539512
  0
LINE
  5
1B4
330
1F
100
AcDbEntity
  8
0
  6
Continuous
 62
     7
370
    25
100
AcDbLine
 10
24.9717013355
 20
27.693739792
 30
0.0
 11
24.9717013355
 21
27.452739792
 31
0.0
  0
LINE
  5
1B5
330
1F
100
AcDbEntity
  8
0
  6
Continuous
 62
     7
370
    25
100
AcDbLine
 10
25.6037013355
 20
27.452739792
 30
0.0
 11
25.6037013355
 21
27.693739792
 31
0.0
  0
ARC
  5
1B6
330
1F
100
AcDbEntity
  8
0
  6
Continuous
 62
     7
370
    25
100
AcDbCircle
 10
25.5737013355
 20
27.693739792
 30
0.0
 40
0.0299999999999976
100
AcDbArc
 50
0.0
 51
90.0
  0
ARC
  5
1B7
330
1F
100
AcDbEntity
  8
0
  6
Continuous
 62
     7
370
    25
100
AcDbCircle
 10
25.0017013355
 20
27.693739792
 30
0.0
 40
0.0299999999999976
100
AcDbArc
 50
90.0
 51
180.0
  0
LINE
  5
1B8
330
1F
100
AcDbEntity
  8
0
  6
Continuous
 62
     7
370
    25
100
AcDbLine
 10
25.0902013355
 20
27.317739792
 30
0.0
 11
25.0902013355
 21
27.287739792
 31
0.0
  0
LINE
  5
1B9
330
1F
100
AcDbEntity
  8
0
  6
Continuous
 62
     7
370
    25
100
AcDbLine
 10
25.0902013355
 20
26.037739792
 30
0.0
 11
25.0902013355
 21
26.007739792
 31
0.0
  0
LINE
  5
1BA
330
1F
100
AcDbEntity
  8
0
  6
Continuous
 62
     7
370
    25
100
AcDbLine
 10
25.4852013355
 20
26.007739792
 30
0.0
 11
25.4852013355
 21
26.037739792
 31
0.0
  0
LINE
  5
1BB
330
1F
100
AcDbEntity
  8
0
  6
Continuous
 62
     7
370
    25
100
AcDbLine
 10
25.4852013355
 20
27.287739792
 30
0.0
 11
25.4852013355
 21
27.317739792
 31
0.0
  0
LINE
  5
1BC
330
1F
100
AcDbEntity
  8
0
  6
Continuous
 62
     7
370
    25
100
AcDbLine
 10
25.1502013355
 20
25.882739792
 30
0.0
 11
25.1502013355
 21
25.872739792
 31
0.0
  0
LINE
  5
1BD
330
1F
100
AcDbEntity
  8
0
  6
Continuous
 62
     7
370
    25
100
AcDbLine
 10
25.4252013355
 20
25.872739792
 30
0.0
 11
25.4252013355
 21
25.882739792
 31
0.0
  0
ARC
  5
1BE
330
1F
100
AcDbEntity
  8
0
  6
Continuous
 62
     7
370
    25
100
AcDbCircle
 10
23.6987013355
 20
27.693739792
 30
0.0
 40
0.0300000000000011
100
AcDbArc
 50
0.0
 51
90.0
  0
ARC
  5
1BF
330
1F
100
AcDbEntity
  8
0
  6
Continuous
 62
     7
370
    25
100
AcDbCircle
 10
23.1267013355
 20
27.693739792
 30
0.0
 40
0.0299999999999976
100
AcDbArc
 50
90.0
 51
180.0
  0
LINE
  5
1C0
330
1F
100
AcDbEntity
  8
0
  6
Continuous
 62
     7
370
    25
100
AcDbLine
 10
23.0967013355
 20
27.693739792
 30
0.0
 11
23.0967013355
 21
27.452739792
 31
0.0
  0
LINE
  5
1C1
330
1F
100
AcDbEntity
  8
0
  6
Continuous
 62
     7
370
    25
100
AcDbLine
 10
23.7287013355
 20
27.452739792
 30
0.0
 11
23.7287013355
 21
27.693739792
 31
0.0
  0
LINE
  5
1C2
330
1F
100
AcDbEntity
  8
0
  6
Continuous
 62
     7
370
    25
100
AcDbLine
 10
23.2152013355
 20
27.317739792
 30
0.0
 11
23.2152013355
 21
27.287739792
 31
0.0
  0
LINE
  5
1C3
330
1F
100
AcDbEntity
  8
0
  6
Continuous
 62
     7
370
    25
100
AcDbLine
 10
23.2152013355
 20
26.037739792
 30
0.0
 11
23.2152013355
 21
26.007739792
 31
0.0
  0
LINE
  5
1C4
330
1F
100
AcDbEntity
  8
0
  6
Continuous
 62
     7
370
    25
100
AcDbLine
 10
23.6102013355
 20
26.007739792
 30
0.0
 11
23.6102013355
 21
26.037739792
 31
0.0
  0
LINE
  5
1C5
330
1F
100
AcDbEntity
  8
0
  6
Continuous
 62
     7
370
    25
100
AcDbLine
 10
23.6102013355
 20
27.287739792
 30
0.0
 11
23.6102013355
 21
27.317739792
 31
0.0
  0
LINE
  5
1C6
330
1F
100
AcDbEntity
  8
0
  6
Continuous
 62
     7
370
    25
100
AcDbLine
 10
23.2752013355
 20
25.882739792
 30
0.0
 11
23.2752013355
 21
25.872739792
 31
0.0
  0
LINE
  5
1C7
330
1F
100
AcDbEntity
  8
0
  6
Continuous
 62
     7
370
    25
100
AcDbLine
 10
23.5502013355
 20
25.872739792
 30
0.0
 11
23.5502013355
 21
25.882739792
 31
0.0
  0
ARC
  5
1C8
330
1F
100
AcDbEntity
  8
0
  6
Continuous
 62
     7
370
    25
100
AcDbCircle
 10
49.7696585133
 20
26.664739792
 30
0.0
 40
0.6230000000000047
100
AcDbArc
 50
0.0
 51
90.0
  0
ARC
  5
1C9
330
1F
100
AcDbEntity
  8
0
  6
Continuous
 62
     7
370
    25
100
AcDbCircle
 10
49.7696585133
 20
26.660739792
 30
0.0
 40
0.6230000000000047
100
AcDbArc
 50
270.0
 51
0.0
  0
LINE
  5
1CA
330
1F
100
AcDbEntity
  8
0
  6
Continuous
 62
     7
370
    25
100
AcDbLine
 10
50.3926585133
 20
26.660739792
 30
0.0
 11
50.3926585133
 21
26.664739792
 31
0.0
  0
LINE
  5
1CB
330
1F
100
AcDbEntity
  8
0
  6
Continuous
 62
     7
370
    25
100
AcDbLine
 10
39.6551425777
 20
29.100409892
 30
0.0
 11
39.6551425777
 21
29.5554531607
 31
0.0
  0
LINE
  5
1CC
330
1F
100
AcDbEntity
  8
0
  6
Continuous
 62
     7
370
    25
100
AcDbLine
 10
39.6551425777
 20
28.6454531607
 30
0.0
 11
39.6551425777
 21
29.100409892
 31
0.0
  0
LINE
  5
1CD
330
1F
100
AcDbEntity
  8
0
  6
Continuous
 62
     7
370
    25
100
AcDbLine
 10
42.7851425777
 20
29.1004246319
 30
0.0
 11
42.7851425777
 21
28.8004531607
 31
0.0
  0
LINE
  5
1CE
330
1F
100
AcDbEntity
  8
0
  6
Continuous
 62
     7
370
    25
100
AcDbLine
 10
42.7851425777
 20
29.4004531607
 30
0.0
 11
42.7851425777
 21
29.1004246319
 31
0.0
  0
LINE
  5
1CF
330
1F
100
AcDbEntity
  8
0
  6
Continuous
 62
     7
370
    25
100
AcDbLine
 10
38.1451425777
 20
28.8504531607
 30
0.0
 11
38.1451425777
 21
29.3504531607
 31
0.0
  0
LINE
  5
1D0
330
1F
100
AcDbEntity
  8
0
  6
Continuous
 62
     7
370
    25
100
AcDbLine
 10
42.9026425777
 20
29.1004265338
 30
0.0
 11
42.9026425777
 21
28.8204531607
 31
0.0
  0
LINE
  5
1D1
330
1F
100
AcDbEntity
  8
0
  6
Continuous
 62
     7
370
    25
100
AcDbLine
 10
42.9026425777
 20
29.3804531607
 30
0.0
 11
42.9026425777
 21
29.1004265338
 31
0.0
  0
LINE
  5
1D2
330
1F
100
AcDbEntity
  8
0
  6
Continuous
 62
     7
370
    25
100
AcDbLine
 10
38.0276425777
 20
28.8704531607
 30
0.0
 11
38.0276425777
 21
29.3304531607
 31
0.0
  0
LINE
  5
1D3
330
1F
100
AcDbEntity
  8
0
  6
Continuous
 62
     7
370
    25
100
AcDbLine
 10
38.2151425777
 20
27.287739792
 30
0.0
 11
38.2151425777
 21
29.26590543
 31
0.0
  0
LINE
  5
1D4
330
1F
100
AcDbEntity
  8
0
  6
Continuous
 62
     7
370
    25
100
AcDbLine
 10
38.1671425777
 20
27.287739792
 30
0.0
 11
38.1671425777
 21
29.26590543
 31
0.0
  0
LINE
  5
1D5
330
1F
100
AcDbEntity
  8
0
  6
Continuous
 62
     7
370
    25
100
AcDbLine
 10
42.7151425777
 20
29.26590543
 30
0.0
 11
42.7151425777
 21
27.287739792
 31
0.0
  0
LINE
  5
1D6
330
1F
100
AcDbEntity
  8
0
  6
Continuous
 62
     7
370
    25
100
AcDbLine
 10
42.7631425777
 20
29.26590543
 30
0.0
 11
42.7631425777
 21
27.287739792
 31
0.0
  0
LINE
  5
1D7
330
1F
100
AcDbEntity
  8
0
  6
Continuous
 62
     7
370
    25
100
AcDbLine
 10
38.2151425777
 20
29.26590543
 30
0.0
 11
38.2151425777
 21
29.8084531607
 31
0.0
  0
LINE
  5
1D8
330
1F
100
AcDbEntity
  8
0
  6
Continuous
 62
     7
370
    25
100
AcDbLine
 10
38.1671425777
 20
29.26590543
 30
0.0
 11
38.1671425777
 21
29.8084531607
 31
0.0
  0
LINE
  5
1D9
330
1F
100
AcDbEntity
  8
0
  6
Continuous
 62
     7
370
    25
100
AcDbLine
 10
42.7151425777
 20
29.8084531607
 30
0.0
 11
42.7151425777
 21
29.26590543
 31
0.0
  0
LINE
  5
1DA
330
1F
100
AcDbEntity
  8
0
  6
Continuous
 62
     7
370
    25
100
AcDbLine
 10
42.7631425777
 20
29.8084531607
 30
0.0
 11
42.7631425777
 21
29.26590543
 31
0.0
  0
LINE
  5
1DB
330
1F
100
AcDbEntity
  8
0
  6
Continuous
 62
     7
370
    25
100
AcDbLine
 10
23.3803175944
 20
25.329739792
 30
0.0
 11
23.6377013355
 21
25.329739792
 31
0.0
  0
LINE
  5
1DC
330
1F
100
AcDbEntity
  8
0
  6
Continuous
 62
     7
370
    25
100
AcDbLine
 10
23.1877013355
 20
25.329739792
 30
0.0
 11
23.3803175944
 21
25.329739792
 31
0.0
  0
LINE
  5
1DD
330
1F
100
AcDbEntity
  8
0
  6
Continuous
 62
     7
370
    25
100
AcDbLine
 10
25.0627013355
 20
25.329739792
 30
0.0
 11
25.5127013355
 21
25.329739792
 31
0.0
  0
LWPOLYLINE
  5
1DE
330
1F
100
AcDbEntity
  8
0
  6
Continuous
 62
     7
370
    25
100
AcDbPolyline
 90
        3
 70
   128
 43
0.0
 10
25.5932587806
 20
25.5999734306
 10
25.5932235004
 20
25.5995413901
 10
25.5933157829
 20
25.5975022138
  0
LWPOLYLINE
  5
1DF
330
1F
100
AcDbEntity
  8
0
  6
Continuous
 62
     7
370
    25
100
AcDbPolyline
 90
        3
 70
   128
 43
0.0
 10
24.9821438903
 20
25.5999734306
 10
24.9821791705
 20
25.5995413901
 10
24.9820930918
 20
25.5977743236
  0
LINE
  5
1E0
330
1F
100
AcDbEntity
  8
0
  6
Continuous
 62
     7
370
    25
100
AcDbLine
 10
25.5593681902
 20
27.723739792
 30
0.0
 11
25.5737013355
 21
27.723739792
 31
0.0
  0
LINE
  5
1E1
330
1F
100
AcDbEntity
  8
0
  6
Continuous
 62
     7
370
    25
100
AcDbLine
 10
25.0017013355
 20
27.723739792
 30
0.0
 11
25.5593681902
 21
27.723739792
 31
0.0
  0
LINE
  5
1E2
330
1F
100
AcDbEntity
  8
0
  6
Continuous
 62
     7
370
    25
100
AcDbLine
 10
23.1267013355
 20
27.723739792
 30
0.0
 11
23.6987013355
 21
27.723739792
 31
0.0
  0
LINE
  5
1E3
330
1F
100
AcDbEntity
  8
0
  6
Continuous
 62
     7
370
    25
100
AcDbLine
 10
21.5855585133
 20
26.664739792
 30
0.0
 11
21.5855585133
 21
27.287739792
 31
0.0
  0
LINE
  5
1E4
330
1F
100
AcDbEntity
  8
0
  6
Continuous
 62
     7
370
    25
100
AcDbLine
 10
21.5855585133
 20
27.287739792
 30
0.0
 11
47.5176585133
 21
27.287739792
 31
0.0
  0
LINE
  5
1E5
330
1F
100
AcDbEntity
  8
0
  6
Continuous
 62
     7
370
    25
100
AcDbLine
 10
47.5176585133
 20
27.287739792
 30
0.0
 11
49.7696585133
 21
27.287739792
 31
0.0
  0
LINE
  5
1E6
330
1F
100
AcDbEntity
  8
0
  6
Continuous
 62
     7
370
    25
100
AcDbLine
 10
21.5855585133
 20
26.660739792
 30
0.0
 11
21.5855585133
 21
26.664739792
 31
0.0
  0
LINE
  5
1E7
330
1F
100
AcDbEntity
  8
0
  6
Continuous
 62
     7
370
    25
100
AcDbLine
 10
49.7696585133
 20
26.037739792
 30
0.0
 11
47.5176585133
 21
26.037739792
 31
0.0
  0
LINE
  5
1E8
330
1F
100
AcDbEntity
  8
0
  6
Continuous
 62
     7
370
    25
100
AcDbLine
 10
47.5176585133
 20
26.037739792
 30
0.0
 11
21.5855585133
 21
26.037739792
 31
0.0
  0
LINE
  5
1E9
330
1F
100
AcDbEntity
  8
0
  6
Continuous
 62
     7
370
    25
100
AcDbLine
 10
21.5855585133
 20
26.037739792
 30
0.0
 11
21.5855585133
 21
26.660739792
 31
0.0
  0
LINE
  5
1EA
330
1F
100
AcDbEntity
  8
0
  6
Continuous
 62
     7
370
    25
100
AcDbLine
 10
21.5605585133
 20
27.287739792
 30
0.0
 11
21.5855585133
 21
27.287739792
 31
0.0
  0
LINE
  5
1EB
330
1F
100
AcDbEntity
  8
0
  6
Continuous
 62
     7
370
    25
100
AcDbLine
 10
21.5605585133
 20
27.274739792
 30
0.0
 11
21.5605585133
 21
27.287739792
 31
0.0
  0
LINE
  5
1EC
330
1F
100
AcDbEntity
  8
0
  6
Continuous
 62
     7
370
    25
100
AcDbLine
 10
21.5855585133
 20
26.037739792
 30
0.0
 11
21.5605585133
 21
26.037739792
 31
0.0
  0
LINE
  5
1ED
330
1F
100
AcDbEntity
  8
0
  6
Continuous
 62
     7
370
    25
100
AcDbLine
 10
21.5605585133
 20
26.037739792
 30
0.0
 11
21.5605585133
 21
26.054739792
 31
0.0
  0
LINE
  5
1EE
330
1F
100
AcDbEntity
  8
0
  6
Continuous
 62
     7
370
    25
100
AcDbLine
 10
20.3927013355
 20
28.850239792
 30
0.0
 11
20.3927013355
 21
28.475239792
 31
0.0
  0
LINE
  5
1EF
330
1F
100
AcDbEntity
  8
0
  6
Continuous
 62
     7
370
    25
100
AcDbLine
 10
20.3927013355
 20
28.850239792
 30
0.0
 11
20.5127013355
 21
28.850239792
 31
0.0
  0
LINE
  5
1F0
330
1F
100
AcDbEntity
  8
0
  6
Continuous
 62
     7
370
    25
100
AcDbLine
 10
20.5127013355
 20
28.850239792
 30
0.0
 11
20.5127013355
 21
28.475239792
 31
0.0
  0
LINE
  5
1F1
330
1F
100
AcDbEntity
  8
0
  6
Continuous
 62
     7
370
    25
100
AcDbLine
 10
20.3927013355
 20
28.475239792
 30
0.0
 11
20.3927013355
 21
24.850239792
 31
0.0
  0
LINE
  5
1F2
330
1F
100
AcDbEntity
  8
0
  6
Continuous
 62
     7
370
    25
100
AcDbLine
 10
20.5127013355
 20
28.475239792
 30
0.0
 11
20.5127013355
 21
24.850239792
 31
0.0
  0
LINE
  5
1F3
330
1F
100
AcDbEntity
  8
0
  6
Continuous
 62
     7
370
    25
100
AcDbLine
 10
20.3927013355
 20
24.475239792
 30
0.0
 11
20.5127013355
 21
24.475239792
 31
0.0
  0
LINE
  5
1F4
330
1F
100
AcDbEntity
  8
0
  6
Continuous
 62
     7
370
    25
100
AcDbLine
 10
20.3927013355
 20
24.850239792
 30
0.0
 11
20.3927013355
 21
24.475239792
 31
0.0
  0
LINE
  5
1F5
330
1F
100
AcDbEntity
  8
0
  6
Continuous
 62
     7
370
    25
100
AcDbLine
 10
20.5127013355
 20
24.850239792
 30
0.0
 11
20.5127013355
 21
24.475239792
 31
0.0
  0
LINE
  5
1F6
330
1F
100
AcDbEntity
  8
0
  6
Continuous
 62
     7
370
    25
100
AcDbLine
 10
26.4371985589
 20
27.317739792
 30
0.0
 11
20.6797013355
 21
27.317739792
 31
0.0
  0
LINE
  5
1F7
330
1F
100
AcDbEntity
  8
0
  6
Continuous
 62
     7
370
    25
100
AcDbLine
 10
20.6797013355
 20
27.317739792
 30
0.0
 11
20.6797013355
 21
27.452739792
 31
0.0
  0
LINE
  5
1F8
330
1F
100
AcDbEntity
  8
0
  6
Continuous
 62
     7
370
    25
100
AcDbLine
 10
20.6797013355
 20
27.452739792
 30
0.0
 11
26.4371985589
 21
27.452739792
 31
0.0
  0
ARC
  5
1F9
330
1F
100
AcDbEntity
  8
0
  6
Continuous
 62
     7
370
    25
100
AcDbCircle
 10
20.6797013355
 20
27.285739792
 30
0.0
 40
0.166999999999998
100
AcDbArc
 50
90.0
 51
180.0
  0
ARC
  5
1FA
330
1F
100
AcDbEntity
  8
0
  6
Continuous
 62
     7
370
    25
100
AcDbCircle
 10
20.6797013355
 20
27.285739792
 30
0.0
 40
0.032
100
AcDbArc
 50
90.0
 51
180.0
  0
LINE
  5
1FB
330
1F
100
AcDbEntity
  8
0
  6
Continuous
 62
     7
370
    25
100
AcDbLine
 10
20.6477013355
 20
26.039739792
 30
0.0
 11
20.6477013355
 21
27.285739792
 31
0.0
  0
ARC
  5
1FC
330
1F
100
AcDbEntity
  8
0
  6
Continuous
 62
     7
370
    25
100
AcDbCircle
 10
20.6797013355
 20
26.039739792
 30
0.0
 40
0.0319999999999965
100
AcDbArc
 50
180.0
 51
270.0000000001
  0
LINE
  5
1FD
330
1F
100
AcDbEntity
  8
0
  6
Continuous
 62
     7
370
    25
100
AcDbLine
 10
20.6797013355
 20
25.872739792
 30
0.0
 11
20.6797013355
 21
26.007739792
 31
0.0
  0
ARC
  5
1FE
330
1F
100
AcDbEntity
  8
0
  6
Continuous
 62
     7
370
    25
100
AcDbCircle
 10
20.6797013355
 20
26.039739792
 30
0.0
 40
0.166999999999998
100
AcDbArc
 50
180.0
 51
270.0
  0
LINE
  5
1FF
330
1F
100
AcDbEntity
  8
0
  6
Continuous
 62
     7
370
    25
100
AcDbLine
 10
20.5127013355
 20
27.285739792
 30
0.0
 11
20.5127013355
 21
26.039739792
 31
0.0
  0
LINE
  5
200
330
1F
100
AcDbEntity
  8
0
  6
Continuous
 62
     7
370
    25
100
AcDbLine
 10
26.4371985589
 20
26.007739792
 30
0.0
 11
20.6797013355
 21
26.007739792
 31
0.0
  0
LINE
  5
201
330
1F
100
AcDbEntity
  8
0
  6
Continuous
 62
     7
370
    25
100
AcDbLine
 10
26.4371985589
 20
25.872739792
 30
0.0
 11
20.6797013355
 21
25.872739792
 31
0.0
  0
LINE
  5
202
330
1F
100
AcDbEntity
  8
0
  6
Continuous
 62
     7
370
    25
100
AcDbLine
 10
26.8977013355
 20
27.452739792
 30
0.0
 11
26.8977013355
 21
27.317739792
 31
0.0
  0
LINE
  5
203
330
1F
100
AcDbEntity
  8
0
  6
Continuous
 62
     7
370
    25
100
AcDbLine
 10
26.8977013355
 20
27.317739792
 30
0.0
 11
26.4371985589
 21
27.317739792
 31
0.0
  0
LINE
  5
204
330
1F
100
AcDbEntity
  8
0
  6
Continuous
 62
     7
370
    25
100
AcDbLine
 10
26.8977013355
 20
27.452739792
 30
0.0
 11
26.4371985589
 21
27.452739792
 31
0.0
  0
LINE
  5
205
330
1F
100
AcDbEntity
  8
0
  6
Continuous
 62
     7
370
    25
100
AcDbLine
 10
26.8977013355
 20
26.007739792
 30
0.0
 11
26.8977013355
 21
25.872739792
 31
0.0
  0
LINE
  5
206
330
1F
100
AcDbEntity
  8
0
  6
Continuous
 62
     7
370
    25
100
AcDbLine
 10
26.8977013355
 20
26.007739792
 30
0.0
 11
26.4371985589
 21
26.007739792
 31
0.0
  0
LINE
  5
207
330
1F
100
AcDbEntity
  8
0
  6
Continuous
 62
     7
370
    25
100
AcDbLine
 10
26.8977013355
 20
25.872739792
 30
0.0
 11
26.4371985589
 21
25.872739792
 31
0.0
  0
LINE
  5
208
330
1F
100
AcDbEntity
  8
0
  6
Continuous
 62
     7
370
    25
100
AcDbLine
 10
52.7195702856
 20
15.7746778251
 30
0.0
 11
52.7334026873
 21
15.7666080337
 31
0.0
  0
ARC
  5
209
330
1F
100
AcDbEntity
  8
0
  6
Continuous
 62
     7
370
    25
100
AcDbCircle
 10
52.6222161467
 20
16.5404672881
 30
0.0
 40
0.1869139827871535
100
AcDbArc
 50
270.0
 51
304.122597741
  0
ARC
  5
20A
330
1F
100
AcDbEntity
  8
0
  6
Continuous
 62
     7
370
    25
100
AcDbCircle
 10
52.6222161467
 20
15.6166393225
 30
0.0
 40
0.1869139827871588
100
AcDbArc
 50
55.9154476724
 51
90.0
  0
LINE
  5
20B
330
1F
100
AcDbEntity
  8
0
  6
Continuous
 62
     7
370
    25
100
AcDbLine
 10
52.6222161467
 20
16.3535533053
 30
0.0
 11
52.5643678639
 21
16.3535533053
 31
0.0
  0
LINE
  5
20C
330
1F
100
AcDbEntity
  8
0
  6
Continuous
 62
     7
370
    25
100
AcDbLine
 10
52.5643678639
 20
15.8035533053
 30
0.0
 11
52.6222161467
 21
15.8035533053
 31
0.0
  0
ARC
  5
20D
330
1F
100
AcDbEntity
  8
0
  6
Continuous
 62
     7
370
    25
100
AcDbCircle
 10
52.5643678639
 20
16.3035533053
 30
0.0
 40
0.0500000000000043
100
AcDbArc
 50
90.0
 51
180.0
  0
ARC
  5
20E
330
1F
100
AcDbEntity
  8
0
  6
Continuous
 62
     7
370
    25
100
AcDbCircle
 10
52.5643678639
 20
15.8535533053
 30
0.0
 40
0.0500000000000043
100
AcDbArc
 50
180.0
 51
270.0
  0
ARC
  5
20F
330
1F
100
AcDbEntity
  8
0
  6
Continuous
 62
     7
370
    25
100
AcDbCircle
 10
52.2243024433
 20
16.3035533053
 30
0.0
 40
0.290065420560745
100
AcDbArc
 50
309.1326325072
 51
360.0
  0
ARC
  5
210
330
1F
100
AcDbEntity
  8
0
  6
Continuous
 62
     7
370
    25
100
AcDbCircle
 10
52.2243024433
 20
15.8535533053
 30
0.0
 40
0.290065420560744
100
AcDbArc
 50
0.0
 51
50.8673674928
  0
LINE
  5
211
330
1F
100
AcDbEntity
  8
0
  6
Continuous
 62
     7
370
    25
100
AcDbLine
 10
52.7269434626
 20
15.769953219
 30
0.0
 11
52.7365982129
 21
15.7637610824
 31
0.0
  0
LINE
  5
212
330
1F
100
AcDbEntity
  8
0
  6
Continuous
 62
     7
370
    25
100
AcDbLine
 10
53.0573678639
 20
16.4091658935
 30
0.0
 11
52.7924239683
 21
16.4091658935
 31
0.0
  0
ARC
  5
213
330
1F
100
AcDbEntity
  8
0
  6
Continuous
 62
     7
370
    25
100
AcDbCircle
 10
52.7924239683
 20
16.3091658935
 30
0.0
 40
0.1000000000000014
100
AcDbArc
 50
90.0
 51
123.7395906563
  0
LINE
  5
214
330
1F
100
AcDbEntity
  8
0
  6
Continuous
 62
     7
370
    25
100
AcDbLine
 10
52.7924239683
 20
15.7479407171
 30
0.0
 11
53.0573678639
 21
15.7479407171
 31
0.0
  0
ARC
  5
215
330
1F
100
AcDbEntity
  8
0
  6
Continuous
 62
     7
370
    25
100
AcDbCircle
 10
52.7924239683
 20
15.8479407171
 30
0.0
 40
0.1000000000000045
100
AcDbArc
 50
236.2604093437
 51
270.0000000003
  0
LINE
  5
216
330
1F
100
AcDbEntity
  8
0
  6
Continuous
 62
     7
370
    25
100
AcDbLine
 10
52.7367577522
 20
16.393513625
 30
0.0
 11
52.7269260438
 21
16.3870631004
 31
0.0
  0
ARC
  5
217
330
1F
100
AcDbEntity
  8
0
  6
Continuous
 62
     7
370
    25
100
AcDbCircle
 10
54.8783678639
 20
15.7925533053
 30
0.0
 40
0.0299999999999994
100
AcDbArc
 50
270.0
 51
0.0
  0
LINE
  5
218
330
1F
100
AcDbEntity
  8
0
  6
Continuous
 62
     7
370
    25
100
AcDbLine
 10
54.6373678639
 20
15.7625533053
 30
0.0
 11
54.8783678639
 21
15.7625533053
 31
0.0
  0
LINE
  5
219
330
1F
100
AcDbEntity
  8
0
  6
Continuous
 62
     7
370
    25
100
AcDbLine
 10
53.2223678639
 20
16.2760533053
 30
0.0
 11
53.1923678639
 21
16.2760533053
 31
0.0
  0
LINE
  5
21A
330
1F
100
AcDbEntity
  8
0
  6
Continuous
 62
     7
370
    25
100
AcDbLine
 10
53.1923678639
 20
15.8810533053
 30
0.0
 11
53.2223678639
 21
15.8810533053
 31
0.0
  0
CIRCLE
  5
21B
330
1F
100
AcDbEntity
  8
0
  6
Continuous
 62
     7
370
    25
100
AcDbCircle
 10
56.2850812325
 20
17.0163474032
 30
0.0
 40
0.2999999999999982
  0
CIRCLE
  5
21C
330
1F
100
AcDbEntity
  8
0
  6
Continuous
 62
     7
370
    25
100
AcDbCircle
 10
56.2850812325
 20
17.0163474032
 30
0.0
 40
0.3700000000000045
  0
ARC
  5
21D
330
1F
100
AcDbEntity
  8
0
  6
Continuous
 62
     7
370
    25
100
AcDbCircle
 10
56.2850812325
 20
17.0163474032
 30
0.0
 40
0.707999999999999
100
AcDbArc
 50
283.5252916764
 51
76.4856055229
  0
LINE
  5
21E
330
1F
100
AcDbEntity
  8
0
  6
Continuous
 62
     7
370
    25
100
AcDbLine
 10
54.4723678639
 20
15.8521118442
 30
0.0
 11
56.4506644264
 21
16.3279825247
 31
0.0
  0
CIRCLE
  5
21F
330
1F
100
AcDbEntity
  8
0
  6
Continuous
 62
     7
370
    25
100
AcDbCircle
 10
56.2850812325
 20
17.0163474032
 30
0.0
 40
0.3750000000000022
  0
LINE
  5
220
330
1F
100
AcDbEntity
  8
0
  6
Continuous
 62
     7
370
    25
100
AcDbLine
 10
56.4505335019
 20
17.7047437618
 30
0.0
 11
54.4723678639
 21
18.1801849664
 31
0.0
  0
LINE
  5
221
330
1F
100
AcDbEntity
  8
0
  6
Continuous
 62
     7
370
    25
100
AcDbLine
 10
52.5143678639
 20
15.9558389302
 30
0.0
 11
52.5143678639
 21
15.8535533053
 31
0.0
  0
LINE
  5
222
330
1F
100
AcDbEntity
  8
0
  6
Continuous
 62
     7
370
    25
100
AcDbLine
 10
52.5143678639
 20
16.3035533053
 30
0.0
 11
52.5143678639
 21
15.9558389302
 31
0.0
  0
LINE
  5
223
330
1F
100
AcDbEntity
  8
0
  6
Continuous
 62
     7
370
    25
100
AcDbLine
 10
54.9083678639
 20
15.9569897582
 30
0.0
 11
54.9083678639
 21
15.7925533053
 31
0.0
  0
LINE
  5
224
330
1F
100
AcDbEntity
  8
0
  6
Continuous
 62
     7
370
    25
100
AcDbLine
 10
54.4723678639
 20
19.2683705447
 30
0.0
 11
54.4723678639
 21
14.7643705447
 31
0.0
  0
ARC
  5
225
330
1F
100
AcDbEntity
  8
0
  6
Continuous
 62
     7
370
    25
100
AcDbCircle
 10
53.8493678639
 20
14.7643705447
 30
0.0
 40
0.6230000000000011
100
AcDbArc
 50
270.0
 51
0.0
  0
ARC
  5
226
330
1F
100
AcDbEntity
  8
0
  6
Continuous
 62
     7
370
    25
100
AcDbCircle
 10
53.8493678639
 20
19.2683705447
 30
0.0
 40
0.6230000000000011
100
AcDbArc
 50
0.0
 51
90.0
  0
LINE
  5
227
330
1F
100
AcDbEntity
  8
0
  6
Continuous
 62
     7
370
    25
100
AcDbLine
 10
53.8493678639
 20
19.8913705447
 30
0.0
 11
53.8453678639
 21
19.8913705447
 31
0.0
  0
LINE
  5
228
330
1F
100
AcDbEntity
  8
0
  6
Continuous
 62
     7
370
    25
100
AcDbLine
 10
53.8453678639
 20
14.1413705447
 30
0.0
 11
53.8493678639
 21
14.1413705447
 31
0.0
  0
ARC
  5
229
330
1F
100
AcDbEntity
  8
0
  6
Continuous
 62
     7
370
    25
100
AcDbCircle
 10
53.8453678639
 20
14.7643705447
 30
0.0
 40
0.6230000000000011
100
AcDbArc
 50
180.0
 51
270.0
  0
LINE
  5
22A
330
1F
100
AcDbEntity
  8
0
  6
Continuous
 62
     7
370
    25
100
AcDbLine
 10
53.2223678639
 20
14.7643705447
 30
0.0
 11
53.2223678639
 21
19.2683705447
 31
0.0
  0
ARC
  5
22B
330
1F
100
AcDbEntity
  8
0
  6
Continuous
 62
     7
370
    25
100
AcDbCircle
 10
53.8453678639
 20
19.2683705447
 30
0.0
 40
0.6230000000000047
100
AcDbArc
 50
90.0
 51
180.0
  0
ARC
  5
22C
330
1F
100
AcDbEntity
  8
0
  6
Continuous
 62
     7
370
    25
100
AcDbCircle
 10
52.0348678639
 20
21.2035533053
 30
0.0
 40
0.375
100
AcDbArc
 50
90.0
 51
180.0
  0
LINE
  5
22D
330
1F
100
AcDbEntity
  8
0
  6
Continuous
 62
     7
370
    25
100
AcDbLine
 10
55.6598678639
 20
21.5785533053
 30
0.0
 11
54.6373678639
 21
21.5785533053
 31
0.0
  0
LINE
  5
22E
330
1F
100
AcDbEntity
  8
0
  6
Continuous
 62
     7
370
    25
100
AcDbLine
 10
53.0573678639
 20
21.5785533053
 30
0.0
 11
52.0348678639
 21
21.5785533053
 31
0.0
  0
ARC
  5
22F
330
1F
100
AcDbEntity
  8
0
  6
Continuous
 62
     7
370
    25
100
AcDbCircle
 10
55.6598678639
 20
21.2035533053
 30
0.0
 40
0.375
100
AcDbArc
 50
0.0
 51
90.0
  0
LINE
  5
230
330
1F
100
AcDbEntity
  8
0
  6
Continuous
 62
     7
370
    25
100
AcDbLine
 10
56.0348678639
 20
10.9535533053
 30
0.0
 11
56.0348678639
 21
16.2279644602
 31
0.0
  0
LINE
  5
231
330
1F
100
AcDbEntity
  8
0
  6
Continuous
 62
     7
370
    25
100
AcDbLine
 10
56.0348678639
 20
17.8046467062
 30
0.0
 11
56.0348678639
 21
21.2035533053
 31
0.0
  0
ARC
  5
232
330
1F
100
AcDbEntity
  8
0
  6
Continuous
 62
     7
370
    25
100
AcDbCircle
 10
55.6598678639
 20
10.9535533053
 30
0.0
 40
0.375
100
AcDbArc
 50
270.0
 51
0.0
  0
LINE
  5
233
330
1F
100
AcDbEntity
  8
0
  6
Continuous
 62
     7
370
    25
100
AcDbLine
 10
52.1873678639
 20
11.0785533053
 30
0.0
 11
52.1873678639
 21
10.9155533053
 31
0.0
  0
ARC
  5
234
330
1F
100
AcDbEntity
  8
0
  6
Continuous
 62
     7
370
    25
100
AcDbCircle
 10
52.3473678639
 20
10.9155533053
 30
0.0
 40
0.1600000000000037
100
AcDbArc
 50
180.0
 51
0.0
  0
LINE
  5
235
330
1F
100
AcDbEntity
  8
0
  6
Continuous
 62
     7
370
    25
100
AcDbLine
 10
52.5073678639
 20
10.9155533053
 30
0.0
 11
52.5073678639
 21
11.0785533053
 31
0.0
  0
ARC
  5
236
330
1F
100
AcDbEntity
  8
0
  6
Continuous
 62
     7
370
    25
100
AcDbCircle
 10
52.3473678639
 20
11.0785533053
 30
0.0
 40
0.1599999999999966
100
AcDbArc
 50
0.0
 51
180.0
  0
LINE
  5
237
330
1F
100
AcDbEntity
  8
0
  6
Continuous
 62
     7
370
    25
100
AcDbLine
 10
55.1873678639
 20
11.0785533053
 30
0.0
 11
55.1873678639
 21
10.9155533053
 31
0.0
  0
ARC
  5
238
330
1F
100
AcDbEntity
  8
0
  6
Continuous
 62
     7
370
    25
100
AcDbCircle
 10
55.3473678639
 20
10.9155533053
 30
0.0
 40
0.1599999999999966
100
AcDbArc
 50
180.0
 51
0.0
  0
LINE
  5
239
330
1F
100
AcDbEntity
  8
0
  6
Continuous
 62
     7
370
    25
100
AcDbLine
 10
55.5073678639
 20
10.9155533053
 30
0.0
 11
55.5073678639
 21
11.0785533053
 31
0.0
  0
ARC
  5
23A
330
1F
100
AcDbEntity
  8
0
  6
Continuous
 62
     7
370
    25
100
AcDbCircle
 10
55.3473678639
 20
11.0785533053
 30
0.0
 40
0.159999999999993
100
AcDbArc
 50
0.0
 51
180.0
  0
LINE
  5
23B
330
1F
100
AcDbEntity
  8
0
  6
Continuous
 62
     7
370
    25
100
AcDbLine
 10
55.5073678639
 20
21.0785533053
 30
0.0
 11
55.5073678639
 21
21.2415533053
 31
0.0
  0
ARC
  5
23C
330
1F
100
AcDbEntity
  8
0
  6
Continuous
 62
     7
370
    25
100
AcDbCircle
 10
55.3473678639
 20
21.2415533053
 30
0.0
 40
0.159999999999993
100
AcDbArc
 50
360.0
 51
180.0
  0
LINE
  5
23D
330
1F
100
AcDbEntity
  8
0
  6
Continuous
 62
     7
370
    25
100
AcDbLine
 10
55.1873678639
 20
21.2415533053
 30
0.0
 11
55.1873678639
 21
21.0785533053
 31
0.0
  0
ARC
  5
23E
330
1F
100
AcDbEntity
  8
0
  6
Continuous
 62
     7
370
    25
100
AcDbCircle
 10
55.3473678639
 20
21.0785533053
 30
0.0
 40
0.1599999999999966
100
AcDbArc
 50
180.0
 51
0.0
  0
LINE
  5
23F
330
1F
100
AcDbEntity
  8
0
  6
Continuous
 62
     7
370
    25
100
AcDbLine
 10
52.5073678639
 20
21.0785533053
 30
0.0
 11
52.5073678639
 21
21.2415533053
 31
0.0
  0
ARC
  5
240
330
1F
100
AcDbEntity
  8
0
  6
Continuous
 62
     7
370
    25
100
AcDbCircle
 10
52.3473678639
 20
21.2415533053
 30
0.0
 40
0.1599999999999966
100
AcDbArc
 50
0.0
 51
180.0
  0
LINE
  5
241
330
1F
100
AcDbEntity
  8
0
  6
Continuous
 62
     7
370
    25
100
AcDbLine
 10
52.1873678639
 20
21.2415533053
 30
0.0
 11
52.1873678639
 21
21.0785533053
 31
0.0
  0
ARC
  5
242
330
1F
100
AcDbEntity
  8
0
  6
Continuous
 62
     7
370
    25
100
AcDbCircle
 10
52.3473678639
 20
21.0785533053
 30
0.0
 40
0.1600000000000037
100
AcDbArc
 50
180.0
 51
0.0
  0
LINE
  5
243
330
1F
100
AcDbEntity
  8
0
  6
Continuous
 62
     7
370
    25
100
AcDbLine
 10
52.0348678639
 20
10.5785533053
 30
0.0
 11
53.0573678639
 21
10.5785533053
 31
0.0
  0
LINE
  5
244
330
1F
100
AcDbEntity
  8
0
  6
Continuous
 62
     7
370
    25
100
AcDbLine
 10
54.6373678639
 20
10.5785533053
 30
0.0
 11
55.6598678639
 21
10.5785533053
 31
0.0
  0
ARC
  5
245
330
1F
100
AcDbEntity
  8
0
  6
Continuous
 62
     7
370
    25
100
AcDbCircle
 10
52.0348678639
 20
10.9535533053
 30
0.0
 40
0.3749999999999929
100
AcDbArc
 50
180.0
 51
270.0
  0
LINE
  5
246
330
1F
100
AcDbEntity
  8
0
  6
Continuous
 62
     7
370
    25
100
AcDbLine
 10
51.6598678639
 20
21.2035533053
 30
0.0
 11
51.6598678639
 21
10.9535533053
 31
0.0
  0
LINE
  5
247
330
1F
100
AcDbEntity
  8
0
  6
Continuous
 62
     7
370
    25
100
AcDbLine
 10
53.0573678639
 20
17.1895870847
 30
0.0
 11
53.0573678639
 21
18.4662813703
 31
0.0
  0
LINE
  5
248
330
1F
100
AcDbEntity
  8
0
  6
Continuous
 62
     7
370
    25
100
AcDbLine
 10
53.1923678639
 20
17.1895870847
 30
0.0
 11
53.1923678639
 21
18.4662813703
 31
0.0
  0
LINE
  5
249
330
1F
100
AcDbEntity
  8
0
  6
Continuous
 62
     7
370
    25
100
AcDbLine
 10
54.5023678639
 20
18.1729746318
 30
0.0
 11
54.5023678639
 21
18.4662813703
 31
0.0
  0
LINE
  5
24A
330
1F
100
AcDbEntity
  8
0
  6
Continuous
 62
     7
370
    25
100
AcDbLine
 10
54.6373678639
 20
18.1405281261
 30
0.0
 11
54.6373678639
 21
18.4662813703
 31
0.0
  0
LINE
  5
24B
330
1F
100
AcDbEntity
  8
0
  6
Continuous
 62
     7
370
    25
100
AcDbLine
 10
53.0573678639
 20
11.9353846204
 30
0.0
 11
53.0573678639
 21
12.3883796695
 31
0.0
  0
LINE
  5
24C
330
1F
100
AcDbEntity
  8
0
  6
Continuous
 62
     7
370
    25
100
AcDbLine
 10
53.1923678639
 20
11.9353846204
 30
0.0
 11
53.1923678639
 21
12.3883796695
 31
0.0
  0
LINE
  5
24D
330
1F
100
AcDbEntity
  8
0
  6
Continuous
 62
     7
370
    25
100
AcDbLine
 10
54.5023678639
 20
11.9353846204
 30
0.0
 11
54.5023678639
 21
12.3883796695
 31
0.0
  0
LINE
  5
24E
330
1F
100
AcDbEntity
  8
0
  6
Continuous
 62
     7
370
    25
100
AcDbLine
 10
54.6373678639
 20
11.9353846204
 30
0.0
 11
54.6373678639
 21
12.3883796695
 31
0.0
  0
LINE
  5
24F
330
1F
100
AcDbEntity
  8
0
  6
Continuous
 62
     7
370
    25
100
AcDbLine
 10
53.0573678639
 20
12.3883796695
 30
0.0
 11
53.0573678639
 21
17.1895870847
 31
0.0
  0
LINE
  5
250
330
1F
100
AcDbEntity
  8
0
  6
Continuous
 62
     7
370
    25
100
AcDbLine
 10
53.1923678639
 20
12.3883796695
 30
0.0
 11
53.1923678639
 21
17.1895870847
 31
0.0
  0
LINE
  5
251
330
1F
100
AcDbEntity
  8
0
  6
Continuous
 62
     7
370
    25
100
AcDbLine
 10
54.5023678639
 20
12.3883796695
 30
0.0
 11
54.5023678639
 21
15.8593282144
 31
0.0
  0
LINE
  5
252
330
1F
100
AcDbEntity
  8
0
  6
Continuous
 62
     7
370
    25
100
AcDbLine
 10
54.6373678639
 20
12.3883796695
 30
0.0
 11
54.6373678639
 21
15.8918018804
 31
0.0
  0
LINE
  5
253
330
1F
100
AcDbEntity
  8
0
  6
Continuous
 62
     7
370
    25
100
AcDbLine
 10
53.1923678639
 20
10.5785533053
 30
0.0
 11
53.0573678639
 21
10.5785533053
 31
0.0
  0
LINE
  5
254
330
1F
100
AcDbEntity
  8
0
  6
Continuous
 62
     7
370
    25
100
AcDbLine
 10
53.0573678639
 20
10.5785533053
 30
0.0
 11
53.0573678639
 21
11.9353846204
 31
0.0
  0
LINE
  5
255
330
1F
100
AcDbEntity
  8
0
  6
Continuous
 62
     7
370
    25
100
AcDbLine
 10
53.1923678639
 20
10.5785533053
 30
0.0
 11
53.1923678639
 21
11.9353846204
 31
0.0
  0
LINE
  5
256
330
1F
100
AcDbEntity
  8
0
  6
Continuous
 62
     7
370
    25
100
AcDbLine
 10
54.6373678639
 20
10.5785533053
 30
0.0
 11
54.5023678639
 21
10.5785533053
 31
0.0
  0
LINE
  5
257
330
1F
100
AcDbEntity
  8
0
  6
Continuous
 62
     7
370
    25
100
AcDbLine
 10
54.5023678639
 20
10.5785533053
 30
0.0
 11
54.5023678639
 21
11.9353846204
 31
0.0
  0
LINE
  5
258
330
1F
100
AcDbEntity
  8
0
  6
Continuous
 62
     7
370
    25
100
AcDbLine
 10
54.6373678639
 20
11.9353846204
 30
0.0
 11
54.6373678639
 21
10.5785533053
 31
0.0
  0
LINE
  5
259
330
1F
100
AcDbEntity
  8
0
  6
Continuous
 62
     7
370
    25
100
AcDbLine
 10
53.0573678639
 20
21.5785533053
 30
0.0
 11
53.1923678639
 21
21.5785533053
 31
0.0
  0
LINE
  5
25A
330
1F
100
AcDbEntity
  8
0
  6
Continuous
 62
     7
370
    25
100
AcDbLine
 10
53.0573678639
 20
18.4662813703
 30
0.0
 11
53.0573678639
 21
21.5785533053
 31
0.0
  0
LINE
  5
25B
330
1F
100
AcDbEntity
  8
0
  6
Continuous
 62
     7
370
    25
100
AcDbLine
 10
53.1923678639
 20
18.4662813703
 30
0.0
 11
53.1923678639
 21
21.5785533053
 31
0.0
  0
LINE
  5
25C
330
1F
100
AcDbEntity
  8
0
  6
Continuous
 62
     7
370
    25
100
AcDbLine
 10
54.5023678639
 20
21.5785533053
 30
0.0
 11
54.6373678639
 21
21.5785533053
 31
0.0
  0
LINE
  5
25D
330
1F
100
AcDbEntity
  8
0
  6
Continuous
 62
     7
370
    25
100
AcDbLine
 10
54.5023678639
 20
18.4662813703
 30
0.0
 11
54.5023678639
 21
21.5785533053
 31
0.0
  0
LINE
  5
25E
330
1F
100
AcDbEntity
  8
0
  6
Continuous
 62
     7
370
    25
100
AcDbLine
 10
54.6373678639
 20
21.5785533053
 30
0.0
 11
54.6373678639
 21
18.4662813703
 31
0.0
  0
LINE
  5
25F
330
1F
100
AcDbEntity
  8
0
  6
Continuous
 62
     7
370
    25
100
AcDbLine
 10
53.1923678639
 20
10.5785533053
 30
0.0
 11
53.2243678639
 21
10.5785533053
 31
0.0
  0
LINE
  5
260
330
1F
100
AcDbEntity
  8
0
  6
Continuous
 62
     7
370
    25
100
AcDbLine
 10
53.2243678639
 20
21.5785533053
 30
0.0
 11
53.1923678639
 21
21.5785533053
 31
0.0
  0
LINE
  5
261
330
1F
100
AcDbEntity
  8
0
  6
Continuous
 62
     7
370
    25
100
AcDbLine
 10
54.5023678639
 20
21.5785533053
 30
0.0
 11
54.4703678639
 21
21.5785533053
 31
0.0
  0
LINE
  5
262
330
1F
100
AcDbEntity
  8
0
  6
Continuous
 62
     7
370
    25
100
AcDbLine
 10
54.4703678639
 20
10.5785533053
 30
0.0
 11
54.5023678639
 21
10.5785533053
 31
0.0
  0
CIRCLE
  5
263
330
1F
100
AcDbEntity
  8
0
  6
Continuous
 62
     7
370
    25
100
AcDbCircle
 10
53.8473678639
 20
11.0785533053
 30
0.0
 40
0.1600000000000037
  0
CIRCLE
  5
264
330
1F
100
AcDbEntity
  8
0
  6
Continuous
 62
     7
370
    25
100
AcDbCircle
 10
53.8473678639
 20
21.0785533053
 30
0.0
 40
0.1599999999999966
  0
LINE
  5
265
330
1F
100
AcDbEntity
  8
0
  6
Continuous
 62
     7
370
    25
100
AcDbLine
 10
53.2243678639
 20
21.5785533053
 30
0.0
 11
54.4703678639
 21
21.5785533053
 31
0.0
  0
LINE
  5
266
330
1F
100
AcDbEntity
  8
0
  6
Continuous
 62
     7
370
    25
100
AcDbLine
 10
54.4703678639
 20
10.5785533053
 30
0.0
 11
53.2243678639
 21
10.5785533053
 31
0.0
  0
DIMENSION
  5
267
330
1F
100
AcDbEntity
  8
DIMS
100
AcDbDimension
  2
_D_2
 10
51.6598678639
 20
9.7491742947
 30
0.0
 11
53.9377072502
 21
9.7491742947
 31
0.0
 70
   160
  1
<>
 71
     2
 42
-1.0
  3
SLDDIMSTYLE2
100
AcDbAlignedDimension
 13
56.0348678639
 23
10.9535533053
 33
0.0
 14
51.6598678639
 24
10.9535533053
 34
0.0
100
AcDbRotatedDimension
  0
DIMENSION
  5
277
330
1F
100
AcDbEntity
  8
DIMS
100
AcDbDimension
  2
_D_3
 10
55.3473678639
 20
22.7576317382
 30
0.0
 11
53.9917767177
 21
22.7576317382
 31
0.0
 70
   160
  1
<>
 71
     2
 42
-1.0
  3
SLDDIMSTYLE0
100
AcDbAlignedDimension
 13
52.3473678639
 23
21.2415533053
 33
0.0
 14
55.3473678639
 24
21.2415533053
 34
0.0
100
AcDbRotatedDimension
  0
DIMENSION
  5
282
330
1F
100
AcDbEntity
  8
DIMS
100
AcDbDimension
  2
_D_4
 10
58.2446595962
 20
11.0785533053
 30
0.0
 11
58.2446595962
 21
16.6363049212
 31
0.0
 70
   160
  1
<>
 71
     2
 42
-1.0
  3
SLDDIMSTYLE2
100
AcDbAlignedDimension
 13
55.3473678639
 23
21.2415533053
 33
0.0
 14
55.3473678639
 24
11.0785533053
 34
0.0
 50
90.0
100
AcDbRotatedDimension
  0
DIMENSION
  5
291
330
1F
100
AcDbEntity
  8
DIMS
100
AcDbDimension
  2
_D_5
 10
52.4562198812
 20
21.1242876311
 30
0.0
 11
45.892333935
 21
23.6750593365
 31
0.0
 70
   163
  1
Mounting hole (4) <>
 71
     1
 42
-1.0
  3
SLDDIMSTYLE3
100
AcDbDiametricDimension
 15
52.2385158466
 25
21.3588189794
 35
0.0
 40
0.0
  0
INSERT
  5
2A4
330
1F
100
AcDbEntity
  8
NOTES
100
AcDbBlockReference
  2
SW_NOTE_0_3
 10
50.7211902089
 20
8.0478147483
 30
0.0
  0
LINE
  5
2A5
330
1F
100
AcDbEntity
  8
0
  6
Continuous
 62
     7
370
    25
100
AcDbLine
 10
10.0942749873
 20
33.5570749012
 30
0.0
 11
10.0723945264
 21
33.5791937943
 31
0.0
  0
LINE
  5
2A6
330
1F
100
AcDbEntity
  8
0
  6
Continuous
 62
     7
370
    25
100
AcDbLine
 10
9.4724033359
 20
33.5824451429
 30
0.0
 11
9.4502844428
 21
33.560564682
 31
0.0
  0
LINE
  5
2A7
330
1F
100
AcDbEntity
  8
0
  6
Continuous
 62
     7
370
    25
100
AcDbLine
 10
9.4753783785
 20
28.9643612167
 30
0.0
 11
9.4972588394
 21
28.9422423236
 31
0.0
  0
LINE
  5
2A8
330
1F
100
AcDbEntity
  8
0
  6
Continuous
 62
     7
370
    25
100
AcDbLine
 10
9.9972514982
 20
28.9395328664
 30
0.0
 11
10.0193703913
 21
28.9614133273
 31
0.0
  0
ARC
  5
2A9
330
1F
100
AcDbEntity
  8
0
  6
Continuous
 62
     7
370
    25
100
AcDbCircle
 10
9.4929313864
 20
33.679835333
 30
0.0
 40
0.0200000000000026
100
AcDbArc
 50
89.6895175616
 51
179.6895175616
  0
ARC
  5
2AA
330
1F
100
AcDbEntity
  8
0
  6
Continuous
 62
     7
370
    25
100
AcDbCircle
 10
10.0529231642
 20
33.676800741
 30
0.0
 40
0.0199999999999991
100
AcDbArc
 50
359.6895175616
 51
89.6895175616
  0
LINE
  5
2AB
330
1F
100
AcDbEntity
  8
0
  6
Continuous
 62
     7
370
    25
100
AcDbLine
 10
10.0723945264
 20
33.5791937943
 30
0.0
 11
10.0729228706
 21
33.6766923627
 31
0.0
  0
LINE
  5
2AC
330
1F
100
AcDbEntity
  8
0
  6
Continuous
 62
     7
370
    25
100
AcDbLine
 10
9.47293168
 20
33.6799437113
 30
0.0
 11
9.4724033359
 21
33.5824451429
 31
0.0
  0
LINE
  5
2AD
330
1F
100
AcDbEntity
  8
0
  6
Continuous
 62
     7
370
    25
100
AcDbLine
 10
9.4972588394
 20
28.9422423236
 30
0.0
 11
9.4967304953
 21
28.8447437551
 31
0.0
  0
LINE
  5
2AE
330
1F
100
AcDbEntity
  8
0
  6
Continuous
 62
     7
370
    25
100
AcDbLine
 10
9.996723154
 20
28.842034298
 30
0.0
 11
9.9972514982
 21
28.9395328664
 31
0.0
  0
ARC
  5
2AF
330
1F
100
AcDbEntity
  8
0
  6
Continuous
 62
     7
370
    25
100
AcDbCircle
 10
9.9767234477
 20
28.8421426763
 30
0.0
 40
0.0200000000000044
100
AcDbArc
 50
269.6895175616
 51
359.6895175616
  0
ARC
  5
2B0
330
1F
100
AcDbEntity
  8
0
  6
Continuous
 62
     7
370
    25
100
AcDbCircle
 10
9.5167302016
 20
28.8446353768
 30
0.0
 40
0.0200000000000008
100
AcDbArc
 50
179.6895175616
 51
269.6895175616
  0
LINE
  5
2B1
330
1F
100
AcDbEntity
  8
0
  6
Continuous
 62
     7
370
    25
100
AcDbLine
 10
9.7496373062
 20
29.3329590174
 30
0.0
 11
9.7496392081
 21
29.3329590071
 31
0.0
  0
LINE
  5
2B2
330
1F
100
AcDbEntity
  8
0
  6
Continuous
 62
     7
370
    25
100
AcDbLine
 10
9.7515655881
 20
29.6887966439
 30
0.0
 11
9.7515655881
 21
29.6887966439
 31
0.0
  0
LINE
  5
2B3
330
1F
100
AcDbEntity
  8
0
  6
Continuous
 62
     7
370
    25
100
AcDbLine
 10
9.7686035062
 20
32.8329076289
 30
0.0
 11
9.7686054081
 21
32.8329076186
 31
0.0
  0
LINE
  5
2B4
330
1F
100
AcDbEntity
  8
0
  6
Continuous
 62
     7
370
    25
100
AcDbLine
 10
9.7705317881
 20
33.1887452554
 30
0.0
 11
9.7705317881
 21
33.1887452554
 31
0.0
  0
ARC
  5
2B5
330
1F
100
AcDbEntity
  8
0
  6
Continuous
 62
     7
370
    25
100
AcDbCircle
 10
12.4689110577
 20
12.2657890238
 30
0.0
 40
0.0500000000000003
100
AcDbArc
 50
276.1241715128
 51
359.6895175616
  0
LINE
  5
2B6
330
1F
100
AcDbEntity
  8
0
  6
Continuous
 62
     7
370
    25
100
AcDbLine
 10
12.5189103236
 20
12.2655180781
 30
0.0
 11
12.5193195668
 21
12.3410382251
 31
0.0
  0
ARC
  5
2B7
330
1F
100
AcDbEntity
  8
0
  6
Continuous
 62
     7
370
    25
100
AcDbCircle
 10
11.935826355
 20
17.234150346
 30
0.0
 40
5.04687837837835
100
AcDbArc
 50
272.8533473224
 51
276.1241715128
  0
LINE
  5
2B8
330
1F
100
AcDbEntity
  8
0
  6
Continuous
 62
     7
370
    25
100
AcDbLine
 10
9.4724033359
 20
33.5824451429
 30
0.0
 11
10.0723945264
 21
33.5791937943
 31
0.0
  0
LINE
  5
2B9
330
1F
100
AcDbEntity
  8
0
  6
Continuous
 62
     7
370
    25
100
AcDbLine
 10
9.9972514982
 20
28.9395328664
 30
0.0
 11
9.4972588394
 21
28.9422423236
 31
0.0
  0
LINE
  5
2BA
330
1F
100
AcDbEntity
  8
0
  6
Continuous
 62
     7
370
    25
100
AcDbLine
 10
9.4930397646
 20
33.6998350394
 30
0.0
 11
10.0530315425
 21
33.6968004474
 31
0.0
  0
LINE
  5
2BB
330
1F
100
AcDbEntity
  8
0
  6
Continuous
 62
     7
370
    25
100
AcDbLine
 10
9.9766150694
 20
28.8221429699
 30
0.0
 11
9.5166218233
 21
28.8246356705
 31
0.0
  0
CIRCLE
  5
2BC
330
1F
100
AcDbEntity
  8
0
  6
Continuous
 62
     7
370
    25
100
AcDbCircle
 10
9.750603349
 20
29.5108778203
 30
0.0
 40
0.1779214255771747
  0
CIRCLE
  5
2BD
330
1F
100
AcDbEntity
  8
0
  6
Continuous
 62
     7
370
    25
100
AcDbCircle
 10
9.7506090547
 20
29.5108777894
 30
0.0
 40
0.087499999999998
  0
ARC
  5
2BE
330
1F
100
AcDbEntity
  8
0
  6
Continuous
 62
     7
370
    25
100
AcDbCircle
 10
9.7506014471
 20
29.5108778307
 30
0.0
 40
0.1779214255771754
100
AcDbArc
 50
89.6895175614
 51
269.6895175614
  0
LINE
  5
2BF
330
1F
100
AcDbEntity
  8
0
  6
Continuous
 62
     7
370
    25
100
AcDbLine
 10
9.5856137357
 20
29.3706840194
 30
0.0
 11
9.546695806
 21
29.5836638183
 31
0.0
  0
LINE
  5
2C0
330
1F
100
AcDbEntity
  8
0
  6
Continuous
 62
     7
370
    25
100
AcDbLine
 10
9.5553965084
 20
29.5805582789
 30
0.0
 11
9.546695806
 21
29.5836638183
 31
0.0
  0
LINE
  5
2C1
330
1F
100
AcDbEntity
  8
0
  6
Continuous
 62
     7
370
    25
100
AcDbLine
 10
9.5553965084
 20
29.5805582789
 30
0.0
 11
9.5926539397
 21
29.3766656181
 31
0.0
  0
LINE
  5
2C2
330
1F
100
AcDbEntity
  8
0
  6
Continuous
 62
     7
370
    25
100
AcDbLine
 10
9.5856137357
 20
29.3706840194
 30
0.0
 11
9.5926539397
 21
29.3766656181
 31
0.0
  0
LINE
  5
2C3
330
1F
100
AcDbEntity
  8
0
  6
Continuous
 62
     7
370
    25
100
AcDbLine
 10
9.9085489546
 20
29.6450900432
 30
0.0
 11
9.7133440158
 21
29.7147704915
 31
0.0
  0
LINE
  5
2C4
330
1F
100
AcDbEntity
  8
0
  6
Continuous
 62
     7
370
    25
100
AcDbLine
 10
9.9458063859
 20
29.4411973824
 30
0.0
 11
9.9085489546
 21
29.6450900432
 31
0.0
  0
LINE
  5
2C5
330
1F
100
AcDbEntity
  8
0
  6
Continuous
 62
     7
370
    25
100
AcDbLine
 10
9.7878588784
 20
29.3069851698
 30
0.0
 11
9.9458063859
 21
29.4411973824
 31
0.0
  0
LINE
  5
2C6
330
1F
100
AcDbEntity
  8
0
  6
Continuous
 62
     7
370
    25
100
AcDbLine
 10
9.5926539397
 20
29.3766656181
 30
0.0
 11
9.7878588784
 21
29.3069851698
 31
0.0
  0
LINE
  5
2C7
330
1F
100
AcDbEntity
  8
0
  6
Continuous
 62
     7
370
    25
100
AcDbLine
 10
9.7133440158
 20
29.7147704915
 30
0.0
 11
9.5553965084
 21
29.5805582789
 31
0.0
  0
LINE
  5
2C8
330
1F
100
AcDbEntity
  8
0
  6
Continuous
 62
     7
370
    25
100
AcDbLine
 10
9.546695806
 20
29.5836638183
 30
0.0
 11
9.7116827567
 21
29.7238576337
 31
0.0
  0
LINE
  5
2C9
330
1F
100
AcDbEntity
  8
0
  6
Continuous
 62
     7
370
    25
100
AcDbLine
 10
9.7133440158
 20
29.7147704915
 30
0.0
 11
9.7116827567
 21
29.7238576337
 31
0.0
  0
LINE
  5
2CA
330
1F
100
AcDbEntity
  8
0
  6
Continuous
 62
     7
370
    25
100
AcDbLine
 10
9.789518616
 20
29.2978980359
 30
0.0
 11
9.5856137357
 21
29.3706840194
 31
0.0
  0
LINE
  5
2CB
330
1F
100
AcDbEntity
  8
0
  6
Continuous
 62
     7
370
    25
100
AcDbLine
 10
9.789518616
 20
29.2978980359
 30
0.0
 11
9.7878588784
 21
29.3069851698
 31
0.0
  0
LINE
  5
2CC
330
1F
100
AcDbEntity
  8
0
  6
Continuous
 62
     7
370
    25
100
AcDbLine
 10
9.7116827567
 20
29.7238576337
 30
0.0
 11
9.915587637
 21
29.6510716501
 31
0.0
  0
LINE
  5
2CD
330
1F
100
AcDbEntity
  8
0
  6
Continuous
 62
     7
370
    25
100
AcDbLine
 10
9.9085489546
 20
29.6450900432
 30
0.0
 11
9.915587637
 21
29.6510716501
 31
0.0
  0
LINE
  5
2CE
330
1F
100
AcDbEntity
  8
0
  6
Continuous
 62
     7
370
    25
100
AcDbLine
 10
9.9545055667
 20
29.4380918512
 30
0.0
 11
9.789518616
 21
29.2978980359
 31
0.0
  0
LINE
  5
2CF
330
1F
100
AcDbEntity
  8
0
  6
Continuous
 62
     7
370
    25
100
AcDbLine
 10
9.9545055667
 20
29.4380918512
 30
0.0
 11
9.9458063859
 21
29.4411973824
 31
0.0
  0
LINE
  5
2D0
330
1F
100
AcDbEntity
  8
0
  6
Continuous
 62
     7
370
    25
100
AcDbLine
 10
9.915587637
 20
29.6510716501
 30
0.0
 11
9.9545055667
 21
29.4380918512
 31
0.0
  0
LINE
  5
2D1
330
1F
100
AcDbEntity
  8
0
  6
Continuous
 62
     7
370
    25
100
AcDbLine
 10
9.5466821124
 20
29.5836638925
 30
0.0
 11
9.5856000421
 21
29.3706840936
 31
0.0
  0
LINE
  5
2D2
330
1F
100
AcDbEntity
  8
0
  6
Continuous
 62
     7
370
    25
100
AcDbLine
 10
9.5466821124
 20
29.5836638925
 30
0.0
 11
9.546695806
 21
29.5836638183
 31
0.0
  0
LINE
  5
2D3
330
1F
100
AcDbEntity
  8
0
  6
Continuous
 62
     7
370
    25
100
AcDbLine
 10
9.5856000421
 20
29.3706840936
 30
0.0
 11
9.5856137357
 21
29.3706840194
 31
0.0
  0
LINE
  5
2D4
330
1F
100
AcDbEntity
  8
0
  6
Continuous
 62
     7
370
    25
100
AcDbLine
 10
9.7116690631
 20
29.7238577079
 30
0.0
 11
9.5466821124
 21
29.5836638925
 31
0.0
  0
LINE
  5
2D5
330
1F
100
AcDbEntity
  8
0
  6
Continuous
 62
     7
370
    25
100
AcDbLine
 10
9.7116690631
 20
29.7238577079
 30
0.0
 11
9.7116827567
 21
29.7238576337
 31
0.0
  0
LINE
  5
2D6
330
1F
100
AcDbEntity
  8
0
  6
Continuous
 62
     7
370
    25
100
AcDbLine
 10
9.5856000421
 20
29.3706840936
 30
0.0
 11
9.7895049224
 21
29.2978981101
 31
0.0
  0
LINE
  5
2D7
330
1F
100
AcDbEntity
  8
0
  6
Continuous
 62
     7
370
    25
100
AcDbLine
 10
9.7895049224
 20
29.2978981101
 30
0.0
 11
9.789518616
 21
29.2978980359
 31
0.0
  0
CIRCLE
  5
2D8
330
1F
100
AcDbEntity
  8
0
  6
Continuous
 62
     7
370
    25
100
AcDbCircle
 10
9.7695695491
 20
33.0108264319
 30
0.0
 40
0.1779214255771772
  0
CIRCLE
  5
2D9
330
1F
100
AcDbEntity
  8
0
  6
Continuous
 62
     7
370
    25
100
AcDbCircle
 10
9.7695752547
 20
33.0108264009
 30
0.0
 40
0.0875000000000011
  0
ARC
  5
2DA
330
1F
100
AcDbEntity
  8
0
  6
Continuous
 62
     7
370
    25
100
AcDbCircle
 10
9.7695676472
 20
33.0108264422
 30
0.0
 40
0.1779214255771746
100
AcDbArc
 50
197.7253491075
 51
269.6895175614
  0
ARC
  5
2DB
330
1F
100
AcDbEntity
  8
0
  6
Continuous
 62
     7
370
    25
100
AcDbCircle
 10
9.7695676472
 20
33.0108264422
 30
0.0
 40
0.1779214255771852
100
AcDbArc
 50
89.6895175614
 51
197.7253491075
  0
LINE
  5
2DC
330
1F
100
AcDbEntity
  8
0
  6
Continuous
 62
     7
370
    25
100
AcDbLine
 10
9.5633387683
 20
32.9449101136
 30
0.0
 11
9.609367609
 21
33.15646707
 31
0.0
  0
LINE
  5
2DD
330
1F
100
AcDbEntity
  8
0
  6
Continuous
 62
     7
370
    25
100
AcDbLine
 10
9.609367609
 20
33.15646707
 30
0.0
 11
9.6162035389
 21
33.1502530659
 31
0.0
  0
LINE
  5
2DE
330
1F
100
AcDbEntity
  8
0
  6
Continuous
 62
     7
370
    25
100
AcDbLine
 10
9.6162035389
 20
33.1502530659
 30
0.0
 11
9.5721385954
 21
32.9477225397
 31
0.0
  0
LINE
  5
2DF
330
1F
100
AcDbEntity
  8
0
  6
Continuous
 62
     7
370
    25
100
AcDbLine
 10
9.5721385954
 20
32.9477225397
 30
0.0
 11
9.5633387683
 21
32.9449101136
 31
0.0
  0
LINE
  5
2E0
330
1F
100
AcDbEntity
  8
0
  6
Continuous
 62
     7
370
    25
100
AcDbLine
 10
9.5721385954
 20
32.9477225397
 30
0.0
 11
9.7255027037
 21
32.8082959159
 31
0.0
  0
LINE
  5
2E1
330
1F
100
AcDbEntity
  8
0
  6
Continuous
 62
     7
370
    25
100
AcDbLine
 10
9.8136325907
 20
33.2133569684
 30
0.0
 11
9.6162035389
 21
33.1502530659
 31
0.0
  0
LINE
  5
2E2
330
1F
100
AcDbEntity
  8
0
  6
Continuous
 62
     7
370
    25
100
AcDbLine
 10
9.9669966989
 20
33.0739303447
 30
0.0
 11
9.8136325907
 21
33.2133569684
 31
0.0
  0
LINE
  5
2E3
330
1F
100
AcDbEntity
  8
0
  6
Continuous
 62
     7
370
    25
100
AcDbLine
 10
9.9229317554
 20
32.8713998184
 30
0.0
 11
9.9669966989
 21
33.0739303447
 31
0.0
  0
LINE
  5
2E4
330
1F
100
AcDbEntity
  8
0
  6
Continuous
 62
     7
370
    25
100
AcDbLine
 10
9.7255027037
 20
32.8082959159
 30
0.0
 11
9.9229317554
 21
32.8713998184
 31
0.0
  0
LINE
  5
2E5
330
1F
100
AcDbEntity
  8
0
  6
Continuous
 62
     7
370
    25
100
AcDbLine
 10
9.7255027037
 20
32.8082959159
 30
0.0
 11
9.7235380457
 21
32.7992694899
 31
0.0
  0
LINE
  5
2E6
330
1F
100
AcDbEntity
  8
0
  6
Continuous
 62
     7
370
    25
100
AcDbLine
 10
9.7235380457
 20
32.7992694899
 30
0.0
 11
9.5633387683
 21
32.9449101136
 31
0.0
  0
LINE
  5
2E7
330
1F
100
AcDbEntity
  8
0
  6
Continuous
 62
     7
370
    25
100
AcDbLine
 10
9.609367609
 20
33.15646707
 30
0.0
 11
9.8155957271
 21
33.2223834027
 31
0.0
  0
LINE
  5
2E8
330
1F
100
AcDbEntity
  8
0
  6
Continuous
 62
     7
370
    25
100
AcDbLine
 10
9.8155957271
 20
33.2223834027
 30
0.0
 11
9.8136325907
 21
33.2133569684
 31
0.0
  0
LINE
  5
2E9
330
1F
100
AcDbEntity
  8
0
  6
Continuous
 62
     7
370
    25
100
AcDbLine
 10
9.9229317554
 20
32.8713998184
 30
0.0
 11
9.9297661638
 21
32.8651858226
 31
0.0
  0
LINE
  5
2EA
330
1F
100
AcDbEntity
  8
0
  6
Continuous
 62
     7
370
    25
100
AcDbLine
 10
9.9297661638
 20
32.8651858226
 30
0.0
 11
9.7235380457
 21
32.7992694899
 31
0.0
  0
LINE
  5
2EB
330
1F
100
AcDbEntity
  8
0
  6
Continuous
 62
     7
370
    25
100
AcDbLine
 10
9.8155957271
 20
33.2223834027
 30
0.0
 11
9.9757950045
 21
33.076742779
 31
0.0
  0
LINE
  5
2EC
330
1F
100
AcDbEntity
  8
0
  6
Continuous
 62
     7
370
    25
100
AcDbLine
 10
9.9757950045
 20
33.076742779
 30
0.0
 11
9.9669966989
 21
33.0739303447
 31
0.0
  0
LINE
  5
2ED
330
1F
100
AcDbEntity
  8
0
  6
Continuous
 62
     7
370
    25
100
AcDbLine
 10
9.9757950045
 20
33.076742779
 30
0.0
 11
9.9297661638
 21
32.8651858226
 31
0.0
  0
LINE
  5
2EE
330
1F
100
AcDbEntity
  8
0
  6
Continuous
 62
     7
370
    25
100
AcDbLine
 10
9.6093539154
 20
33.1564671442
 30
0.0
 11
9.5633250747
 21
32.9449101878
 31
0.0
  0
LINE
  5
2EF
330
1F
100
AcDbEntity
  8
0
  6
Continuous
 62
     7
370
    25
100
AcDbLine
 10
9.6093539154
 20
33.1564671442
 30
0.0
 11
9.609367609
 21
33.15646707
 31
0.0
  0
LINE
  5
2F0
330
1F
100
AcDbEntity
  8
0
  6
Continuous
 62
     7
370
    25
100
AcDbLine
 10
9.5633250747
 20
32.9449101878
 30
0.0
 11
9.5633387683
 21
32.9449101136
 31
0.0
  0
LINE
  5
2F1
330
1F
100
AcDbEntity
  8
0
  6
Continuous
 62
     7
370
    25
100
AcDbLine
 10
9.5633250747
 20
32.9449101878
 30
0.0
 11
9.7235243521
 21
32.7992695641
 31
0.0
  0
LINE
  5
2F2
330
1F
100
AcDbEntity
  8
0
  6
Continuous
 62
     7
370
    25
100
AcDbLine
 10
9.7235243521
 20
32.7992695641
 30
0.0
 11
9.7235380457
 21
32.7992694899
 31
0.0
  0
LINE
  5
2F3
330
1F
100
AcDbEntity
  8
0
  6
Continuous
 62
     7
370
    25
100
AcDbLine
 10
9.8155820335
 20
33.2223834769
 30
0.0
 11
9.6093539154
 21
33.1564671442
 31
0.0
  0
LINE
  5
2F4
330
1F
100
AcDbEntity
  8
0
  6
Continuous
 62
     7
370
    25
100
AcDbLine
 10
9.8155820335
 20
33.2223834769
 30
0.0
 11
9.8155957271
 21
33.2223834027
 31
0.0
  0
CIRCLE
  5
2F5
330
1F
100
AcDbEntity
  8
0
  6
Continuous
 62
     7
370
    25
100
AcDbCircle
 10
9.750601371
 20
29.5108778311
 30
0.0
 40
0.0674999999999986
  0
LINE
  5
2F6
330
1F
100
AcDbEntity
  8
0
  6
Continuous
 62
     7
370
    25
100
AcDbLine
 10
9.7498436113
 20
29.5391265326
 30
0.0
 11
9.7223526697
 21
29.5101200713
 31
0.0
  0
LINE
  5
2F7
330
1F
100
AcDbEntity
  8
0
  6
Continuous
 62
     7
370
    25
100
AcDbLine
 10
9.7223526697
 20
29.5101200713
 30
0.0
 11
9.750601371
 21
29.5108778311
 31
0.0
  0
LINE
  5
2F8
330
1F
100
AcDbEntity
  8
0
  6
Continuous
 62
     7
370
    25
100
AcDbLine
 10
9.750601371
 20
29.5108778311
 30
0.0
 11
9.7498436113
 21
29.5391265326
 31
0.0
  0
LINE
  5
2F9
330
1F
100
AcDbEntity
  8
0
  6
Continuous
 62
     7
370
    25
100
AcDbLine
 10
9.7223526697
 20
29.5101200713
 30
0.0
 11
9.7505918616
 21
29.5108778826
 31
0.0
  0
LINE
  5
2FA
330
1F
100
AcDbEntity
  8
0
  6
Continuous
 62
     7
370
    25
100
AcDbLine
 10
9.7505918616
 20
29.5108778826
 30
0.0
 11
9.750601371
 21
29.5108778311
 31
0.0
  0
LINE
  5
2FB
330
1F
100
AcDbEntity
  8
0
  6
Continuous
 62
     7
370
    25
100
AcDbLine
 10
9.7505918616
 20
29.5108778826
 30
0.0
 11
9.7498436113
 21
29.5391265326
 31
0.0
  0
CIRCLE
  5
2FC
330
1F
100
AcDbEntity
  8
0
  6
Continuous
 62
     7
370
    25
100
AcDbCircle
 10
9.7695675711
 20
33.0108264426
 30
0.0
 40
0.0674999999999943
  0
LINE
  5
2FD
330
1F
100
AcDbEntity
  8
0
  6
Continuous
 62
     7
370
    25
100
AcDbLine
 10
9.7478155138
 20
33.0288656038
 30
0.0
 11
9.75152841
 21
32.9890743852
 31
0.0
  0
LINE
  5
2FE
330
1F
100
AcDbEntity
  8
0
  6
Continuous
 62
     7
370
    25
100
AcDbLine
 10
9.75152841
 20
32.9890743852
 30
0.0
 11
9.7695675711
 21
33.0108264426
 31
0.0
  0
LINE
  5
2FF
330
1F
100
AcDbEntity
  8
0
  6
Continuous
 62
     7
370
    25
100
AcDbLine
 10
9.7695675711
 20
33.0108264426
 30
0.0
 11
9.7478155138
 21
33.0288656038
 31
0.0
  0
LINE
  5
300
330
1F
100
AcDbEntity
  8
0
  6
Continuous
 62
     7
370
    25
100
AcDbLine
 10
9.7695580616
 20
33.0108264941
 30
0.0
 11
9.7695675711
 21
33.0108264426
 31
0.0
  0
LINE
  5
301
330
1F
100
AcDbEntity
  8
0
  6
Continuous
 62
     7
370
    25
100
AcDbLine
 10
9.7695580616
 20
33.0108264941
 30
0.0
 11
9.7478155138
 21
33.0288656038
 31
0.0
  0
LINE
  5
302
330
1F
100
AcDbEntity
  8
0
  6
Continuous
 62
     7
370
    25
100
AcDbLine
 10
9.75152841
 20
32.9890743852
 30
0.0
 11
9.7695580616
 21
33.0108264941
 31
0.0
  0
LWPOLYLINE
  5
303
330
1F
100
AcDbEntity
  8
0
  6
Continuous
 62
     7
370
    25
100
AcDbPolyline
 90
        9
 70
   128
 43
0.0
 10
8.107070206
 20
33.5198428469
 10
8.0509935085
 20
33.5129411006
 10
7.9969937148
 20
33.4918937563
 10
7.9471460068
 20
33.4575096519
 10
7.9033660038
 20
33.411110149
 10
7.867336147
 20
33.3544783547
 10
7.8404410433
 20
33.2897905969
 10
7.8237142567
 20
33.21953279
 10
7.8177985881
 20
33.146404902
  0
LINE
  5
304
330
1F
100
AcDbEntity
  8
0
  6
Continuous
 62
     7
370
    25
100
AcDbLine
 10
8.1377984845
 20
33.5196763306
 30
0.0
 11
8.107070206
 21
33.5198428469
 31
0.0
  0
LWPOLYLINE
  5
305
330
1F
100
AcDbEntity
  8
0
  6
Continuous
 62
     7
370
    25
100
AcDbPolyline
 90
        9
 70
   128
 43
0.0
 10
8.1377984845
 20
33.5196763306
 10
8.081721787
 20
33.5127745842
 10
8.0277219934
 20
33.49172724
 10
7.9778742853
 20
33.4573431355
 10
7.9340942824
 20
33.4109436327
 10
7.8980644255
 20
33.3543118383
 10
7.8711693219
 20
33.2896240806
 10
7.8544425353
 20
33.2193662736
 10
7.8485268667
 20
33.1462383857
  0
LINE
  5
306
330
1F
100
AcDbEntity
  8
0
  6
Continuous
 62
     7
370
    25
100
AcDbLine
 10
7.8177985881
 20
33.146404902
 30
0.0
 11
7.7974776595
 21
29.3964599611
 31
0.0
  0
LINE
  5
307
330
1F
100
AcDbEntity
  8
0
  6
Continuous
 62
     7
370
    25
100
AcDbLine
 10
7.8485268667
 20
33.1462383857
 30
0.0
 11
7.8282059381
 21
29.3962934448
 31
0.0
  0
LWPOLYLINE
  5
308
330
1F
100
AcDbEntity
  8
0
  6
Continuous
 62
     7
370
    25
100
AcDbPolyline
 90
        9
 70
   128
 43
0.0
 10
7.7974776595
 20
29.3964599611
 10
7.8026004448
 20
29.3232722559
 10
7.8185648182
 20
29.2528372958
 10
7.8447572777
 20
29.1878618568
 10
7.8801712619
 20
29.1308429087
 10
7.9234458312
 20
29.0839716577
 10
7.9729179682
 20
29.0490493396
 10
8.0266864863
 20
29.0274179996
 10
8.0826850917
 20
29.0199089178
  0
LWPOLYLINE
  5
309
330
1F
100
AcDbEntity
  8
0
  6
Continuous
 62
     7
370
    25
100
AcDbPolyline
 90
        9
 70
   128
 43
0.0
 10
7.8282059381
 20
29.3962934448
 10
7.8333287234
 20
29.3231057395
 10
7.8492930967
 20
29.2526707794
 10
7.8754855563
 20
29.1876953405
 10
7.9108995405
 20
29.1306763924
 10
7.9541741098
 20
29.0838051414
 10
8.0036462467
 20
29.0488828233
 10
8.0574147649
 20
29.0272514832
 10
8.1134133702
 20
29.0197424015
  0
LINE
  5
30A
330
1F
100
AcDbEntity
  8
0
  6
Continuous
 62
     7
370
    25
100
AcDbLine
 10
8.1134133702
 20
29.0197424015
 30
0.0
 11
8.0826850917
 21
29.0199089178
 31
0.0
  0
LINE
  5
30B
330
1F
100
AcDbEntity
  8
0
  6
Continuous
 62
     7
370
    25
100
AcDbLine
 10
8.1134133702
 20
29.0197424015
 30
0.0
 11
8.3918500705
 21
29.0182335547
 31
0.0
  0
LINE
  5
30C
330
1F
100
AcDbEntity
  8
0
  6
Continuous
 62
     7
370
    25
100
AcDbLine
 10
8.4162351848
 20
33.5181674838
 30
0.0
 11
8.1377984845
 21
33.5196763306
 31
0.0
  0
LWPOLYLINE
  5
30D
330
1F
100
AcDbEntity
  8
0
  6
Continuous
 62
     7
370
    25
100
AcDbPolyline
 90
        9
 70
   128
 43
0.0
 10
11.6920265691
 20
33.1254104844
 10
11.6869029029
 20
33.1985981944
 10
11.6709359208
 20
33.2690331687
 10
11.6447392248
 20
33.3340086306
 10
11.6093195392
 20
33.3910276096
 10
11.5660380229
 20
33.4378988982
 10
11.51655796
 20
33.4728212593
 10
11.4627808418
 20
33.4944526459
 10
11.4067732927
 20
33.5019617761
  0
LINE
  5
30E
330
1F
100
AcDbEntity
  8
0
  6
Continuous
 62
     7
370
    25
100
AcDbLine
 10
11.6717056405
 20
29.3754655435
 30
0.0
 11
11.6920265691
 21
33.1254104844
 31
0.0
  0
LWPOLYLINE
  5
30F
330
1F
100
AcDbEntity
  8
0
  6
Continuous
 62
     7
370
    25
100
AcDbPolyline
 90
        9
 70
   128
 43
0.0
 10
11.3823881784
 20
29.002027847
 10
11.4384738197
 20
29.0089295449
 10
11.4924822134
 20
29.0299768426
 10
11.5423378473
 20
29.0643609041
 10
11.5861247973
 20
29.1107603693
 10
11.6221603555
 20
29.1673921327
 10
11.6490596956
 20
29.2320798675
 10
11.665789091
 20
29.3023376603
 10
11.6717056405
 20
29.3754655435
  0
LINE
  5
310
330
1F
100
AcDbEntity
  8
0
  6
Continuous
 62
     7
370
    25
100
AcDbLine
 10
11.1039070389
 20
29.0035369346
 30
0.0
 11
11.3823881784
 21
29.002027847
 31
0.0
  0
LINE
  5
311
330
1F
100
AcDbEntity
  8
0
  6
Continuous
 62
     7
370
    25
100
AcDbLine
 10
11.4067732927
 20
33.5019617761
 30
0.0
 11
11.1282921532
 21
33.5034708637
 31
0.0
  0
LWPOLYLINE
  5
312
330
1F
100
AcDbEntity
  8
0
  6
Continuous
 62
     7
370
    25
100
AcDbPolyline
 90
        9
 70
   128
 43
0.0
 10
11.4131094928
 20
29.0018613684
 10
11.4691951341
 20
29.0087630663
 10
11.5232035278
 20
29.029810364
 10
11.5730591617
 20
29.0641944255
 10
11.6168461117
 20
29.1105938907
 10
11.6528816699
 20
29.1672256541
 10
11.67978101
 20
29.2319133889
 10
11.6965104054
 20
29.3021711817
 10
11.7024269549
 20
29.3752990649
  0
LINE
  5
313
330
1F
100
AcDbEntity
  8
0
  6
Continuous
 62
     7
370
    25
100
AcDbLine
 10
11.3823881784
 20
29.002027847
 30
0.0
 11
11.4131094928
 21
29.0018613684
 31
0.0
  0
LWPOLYLINE
  5
314
330
1F
100
AcDbEntity
  8
0
  6
Continuous
 62
     7
370
    25
100
AcDbPolyline
 90
        9
 70
   128
 43
0.0
 10
11.7227478835
 20
33.1252440058
 10
11.7176242173
 20
33.1984317158
 10
11.7016572352
 20
33.2688666901
 10
11.6754605392
 20
33.333842152
 10
11.6400408536
 20
33.3908611309
 10
11.5967593373
 20
33.4377324196
 10
11.5472792745
 20
33.4726547807
 10
11.4935021563
 20
33.4942861673
 10
11.4374946072
 20
33.5017952975
  0
LINE
  5
315
330
1F
100
AcDbEntity
  8
0
  6
Continuous
 62
     7
370
    25
100
AcDbLine
 10
11.4067732927
 20
33.5019617761
 30
0.0
 11
11.4374946072
 21
33.5017952975
 31
0.0
  0
LINE
  5
316
330
1F
100
AcDbEntity
  8
0
  6
Continuous
 62
     7
370
    25
100
AcDbLine
 10
11.7024269549
 20
29.3752990649
 30
0.0
 11
11.7227478835
 21
33.1252440058
 31
0.0
  0
LINE
  5
317
330
1F
100
AcDbEntity
  8
0
  6
Continuous
 62
     7
370
    25
100
AcDbLine
 10
8.4432705442
 20
29.0179549075
 30
0.0
 11
8.3918500705
 21
29.0182335547
 31
0.0
  0
LINE
  5
318
330
1F
100
AcDbEntity
  8
0
  6
Continuous
 62
     7
370
    25
100
AcDbLine
 10
8.4162351848
 20
33.5181674838
 30
0.0
 11
8.4676556585
 21
33.5178888366
 31
0.0
  0
LINE
  5
319
330
1F
100
AcDbEntity
  8
0
  6
Continuous
 62
     7
370
    25
100
AcDbLine
 10
11.0768681199
 20
33.5037495302
 30
0.0
 11
11.1282921532
 21
33.5034708637
 31
0.0
  0
LINE
  5
31A
330
1F
100
AcDbEntity
  8
0
  6
Continuous
 62
     7
370
    25
100
AcDbLine
 10
11.1039070389
 20
29.0035369346
 30
0.0
 11
11.0524830055
 21
29.0038156012
 31
0.0
  0
LINE
  5
31B
330
1F
100
AcDbEntity
  8
0
  6
Continuous
 62
     7
370
    25
100
AcDbLine
 10
8.4432705442
 20
29.0179549075
 30
0.0
 11
11.0524830055
 21
29.0038156012
 31
0.0
  0
LINE
  5
31C
330
1F
100
AcDbEntity
  8
0
  6
Continuous
 62
     7
370
    25
100
AcDbLine
 10
11.0768681199
 20
33.5037495302
 30
0.0
 11
8.4676556585
 21
33.5178888366
 31
0.0
  0
LINE
  5
31D
330
1F
100
AcDbEntity
  8
0
  6
Continuous
 62
     7
370
    25
100
AcDbLine
 10
8.492263621
 20
33.5177554862
 30
0.0
 11
8.4925167564
 21
33.5657548192
 31
0.0
  0
LINE
  5
31E
330
1F
100
AcDbEntity
  8
0
  6
Continuous
 62
     7
370
    25
100
AcDbLine
 10
8.492263621
 20
33.5177554862
 30
0.0
 11
8.4925167564
 21
33.5657548192
 31
0.0
  0
LINE
  5
31F
330
1F
100
AcDbEntity
  8
0
  6
Continuous
 62
     7
370
    25
100
AcDbLine
 10
11.0524791579
 20
33.5518823987
 30
0.0
 11
8.4925167564
 21
33.5657548192
 31
0.0
  0
LWPOLYLINE
  5
320
330
1F
100
AcDbEntity
  8
0
  6
Continuous
 62
     7
370
    25
100
AcDbPolyline
 90
        7
 70
   128
 43
0.0
 10
11.0522260224
 20
33.5038830656
 10
11.0522928172
 20
33.516328505
 10
11.0523575642
 20
33.528451256
 10
11.0524103243
 20
33.5384001427
 10
11.0524490699
 20
33.5457928349
 10
11.0524723122
 20
33.5503452356
 10
11.0524791579
 20
33.5518823987
  0
LWPOLYLINE
  5
321
330
1F
100
AcDbEntity
  8
0
  6
Continuous
 62
     7
370
    25
100
AcDbPolyline
 90
        7
 70
   128
 43
0.0
 10
8.4678785067
 20
29.0178215571
 10
8.4678104179
 20
29.0053761247
 10
8.4677437787
 20
28.9932533839
 10
8.467688713
 20
28.9833045098
 10
8.4676473368
 20
28.9759118318
 10
8.4676212403
 20
28.9713594466
 10
8.4676114263
 20
28.9698222996
  0
LINE
  5
322
330
1F
100
AcDbEntity
  8
0
  6
Continuous
 62
     7
370
    25
100
AcDbLine
 10
8.4678785067
 20
29.0178215571
 30
0.0
 11
8.4676114263
 21
28.9698222996
 31
0.0
  0
LINE
  5
323
330
1F
100
AcDbEntity
  8
0
  6
Continuous
 62
     7
370
    25
100
AcDbLine
 10
11.0275738277
 20
28.9559498791
 30
0.0
 11
11.0278409081
 21
29.0039491365
 31
0.0
  0
LINE
  5
324
330
1F
100
AcDbEntity
  8
0
  6
Continuous
 62
     7
370
    25
100
AcDbLine
 10
8.4676114263
 20
28.9698222996
 30
0.0
 11
11.0275738277
 21
28.9559498791
 31
0.0
  0
CIRCLE
  5
325
330
1F
100
AcDbEntity
  8
0
  6
Continuous
 62
     7
370
    25
100
AcDbCircle
 10
8.7403621254
 20
16.0785533053
 30
0.0
 40
0.2750000000000022
  0
LINE
  5
326
330
1F
100
AcDbEntity
  8
0
  6
Continuous
 62
     7
370
    25
100
AcDbLine
 10
8.9058446644
 20
16.3541415174
 30
0.0
 11
9.0479134744
 21
16.172070689
 31
0.0
  0
LINE
  5
327
330
1F
100
AcDbEntity
  8
0
  6
Continuous
 62
     7
370
    25
100
AcDbLine
 10
8.5748795865
 20
15.8029650932
 30
0.0
 11
8.4328107764
 21
15.9850359215
 31
0.0
  0
LINE
  5
328
330
1F
100
AcDbEntity
  8
0
  6
Continuous
 62
     7
370
    25
100
AcDbLine
 10
8.8962872486
 20
15.7974471166
 30
0.0
 11
8.667574881
 21
15.7654473322
 31
0.0
  0
LINE
  5
329
330
1F
100
AcDbEntity
  8
0
  6
Continuous
 62
     7
370
    25
100
AcDbLine
 10
8.5844370023
 20
16.3596594939
 30
0.0
 11
8.8131493699
 21
16.3916592783
 31
0.0
  0
LINE
  5
32A
330
1F
100
AcDbEntity
  8
0
  6
Continuous
 62
     7
370
    25
100
AcDbLine
 10
9.0617697876
 20
16.0730353287
 30
0.0
 11
8.97512623
 21
15.8589647159
 31
0.0
  0
LINE
  5
32B
330
1F
100
AcDbEntity
  8
0
  6
Continuous
 62
     7
370
    25
100
AcDbLine
 10
8.4189544633
 20
16.0840712818
 30
0.0
 11
8.5055980209
 21
16.2981418946
 31
0.0
  0
ARC
  5
32C
330
1F
100
AcDbEntity
  8
0
  6
Continuous
 62
     7
370
    25
100
AcDbCircle
 10
8.5116497578
 20
16.0465535208
 30
0.0
 40
0.1000000000000043
100
AcDbArc
 50
157.9647093692
 51
217.9647093695
  0
ARC
  5
32D
330
1F
100
AcDbEntity
  8
0
  6
Continuous
 62
     7
370
    25
100
AcDbCircle
 10
8.5982933154
 20
16.2606241336
 30
0.0
 40
0.1000000000000054
100
AcDbArc
 50
97.9647093691
 51
157.9647093691
  0
ARC
  5
32E
330
1F
100
AcDbEntity
  8
0
  6
Continuous
 62
     7
370
    25
100
AcDbCircle
 10
8.8270056831
 20
16.2926239181
 30
0.0
 40
0.1000000000001614
100
AcDbArc
 50
37.9647093692
 51
97.9647093697
  0
ARC
  5
32F
330
1F
100
AcDbEntity
  8
0
  6
Continuous
 62
     7
370
    25
100
AcDbCircle
 10
8.9690744931
 20
16.1105530897
 30
0.0
 40
0.1000000000000039
100
AcDbArc
 50
337.964709369
 51
37.9647093695
  0
ARC
  5
330
330
1F
100
AcDbEntity
  8
0
  6
Continuous
 62
     7
370
    25
100
AcDbCircle
 10
8.6537185678
 20
15.8644826925
 30
0.0
 40
0.1000000000001575
100
AcDbArc
 50
217.9647093691
 51
277.9647093696
  0
ARC
  5
331
330
1F
100
AcDbEntity
  8
0
  6
Continuous
 62
     7
370
    25
100
AcDbCircle
 10
8.8824309355
 20
15.8964824769
 30
0.0
 40
0.1000000000000004
100
AcDbArc
 50
277.9647093692
 51
337.9647093695
  0
CIRCLE
  5
332
330
1F
100
AcDbEntity
  8
0
  6
Continuous
 62
     7
370
    25
100
AcDbCircle
 10
10.6153621254
 20
16.0785533053
 30
0.0
 40
0.2750000000000005
  0
LINE
  5
333
330
1F
100
AcDbEntity
  8
0
  6
Continuous
 62
     7
370
    25
100
AcDbLine
 10
10.7130385807
 20
15.7722974589
 30
0.0
 11
10.4824960041
 21
15.7858419677
 31
0.0
  0
LINE
  5
334
330
1F
100
AcDbEntity
  8
0
  6
Continuous
 62
     7
370
    25
100
AcDbLine
 10
10.5176856702
 20
16.3848091516
 30
0.0
 11
10.7482282468
 21
16.3712646428
 31
0.0
  0
LINE
  5
335
330
1F
100
AcDbEntity
  8
0
  6
Continuous
 62
     7
370
    25
100
AcDbLine
 10
10.3012985548
 20
16.1470909368
 30
0.0
 11
10.4282997318
 21
16.3399744104
 31
0.0
  0
LINE
  5
336
330
1F
100
AcDbEntity
  8
0
  6
Continuous
 62
     7
370
    25
100
AcDbLine
 10
10.9294256961
 20
16.0100156737
 30
0.0
 11
10.8024245191
 21
15.8171322001
 31
0.0
  0
LINE
  5
337
330
1F
100
AcDbEntity
  8
0
  6
Continuous
 62
     7
370
    25
100
AcDbLine
 10
10.3989750101
 20
15.8408350905
 30
0.0
 11
10.2954336105
 21
16.0472630728
 31
0.0
  0
LINE
  5
338
330
1F
100
AcDbEntity
  8
0
  6
Continuous
 62
     7
370
    25
100
AcDbLine
 10
10.8317492408
 20
16.3162715201
 30
0.0
 11
10.9352906404
 21
16.1098435377
 31
0.0
  0
ARC
  5
339
330
1F
100
AcDbEntity
  8
0
  6
Continuous
 62
     7
370
    25
100
AcDbCircle
 10
10.4883609485
 20
15.8856698317
 30
0.0
 40
0.1000000000000037
100
AcDbArc
 50
206.6377049601
 51
266.6377049606
  0
ARC
  5
33A
330
1F
100
AcDbEntity
  8
0
  6
Continuous
 62
     7
370
    25
100
AcDbCircle
 10
10.3848195489
 20
16.0920978141
 30
0.0
 40
0.1000000000000012
100
AcDbArc
 50
146.6377049603
 51
206.6377049606
  0
ARC
  5
33B
330
1F
100
AcDbEntity
  8
0
  6
Continuous
 62
     7
370
    25
100
AcDbCircle
 10
10.7189035251
 20
15.8721253229
 30
0.0
 40
0.1000000000001617
100
AcDbArc
 50
266.6377049601
 51
326.6377049607
  0
ARC
  5
33C
330
1F
100
AcDbEntity
  8
0
  6
Continuous
 62
     7
370
    25
100
AcDbCircle
 10
10.7423633024
 20
16.2714367789
 30
0.0
 40
0.1000000000000056
100
AcDbArc
 50
26.6377049602
 51
86.6377049606
  0
ARC
  5
33D
330
1F
100
AcDbEntity
  8
0
  6
Continuous
 62
     7
370
    25
100
AcDbCircle
 10
10.845904702
 20
16.0650087965
 30
0.0
 40
0.1000000000000085
100
AcDbArc
 50
326.6377049601
 51
26.6377049602
  0
ARC
  5
33E
330
1F
100
AcDbEntity
  8
0
  6
Continuous
 62
     7
370
    25
100
AcDbCircle
 10
10.5118207258
 20
16.2849812876
 30
0.0
 40
0.100000000000158
100
AcDbArc
 50
86.6377049603
 51
146.6377049607
  0
ARC
  5
33F
330
1F
100
AcDbEntity
  8
0
  6
Continuous
 62
     7
370
    25
100
AcDbCircle
 10
9.7980208883
 20
38.3132660447
 30
0.0
 40
2.875000000000002
100
AcDbArc
 50
359.6895175616
 51
179.6895175616
  0
LINE
  5
340
330
1F
100
AcDbEntity
  8
0
  6
Continuous
 62
     7
370
    25
100
AcDbLine
 10
6.8310494453
 20
21.3490042753
 30
0.0
 11
6.8697273296
 21
28.4864702503
 31
0.0
  0
LINE
  5
341
330
1F
100
AcDbEntity
  8
0
  6
Continuous
 62
     7
370
    25
100
AcDbLine
 10
6.8697273296
 20
28.4864702503
 30
0.0
 11
6.8699416957
 21
28.5260285316
 31
0.0
  0
LINE
  5
342
330
1F
100
AcDbEntity
  8
0
  6
Continuous
 62
     7
370
    25
100
AcDbLine
 10
6.8699416957
 20
28.5260285316
 30
0.0
 11
6.9230631002
 21
38.3288454233
 31
0.0
  0
ARC
  5
343
330
1F
100
AcDbEntity
  8
0
  6
Continuous
 62
     7
370
    25
100
AcDbCircle
 10
9.7980208883
 20
38.3132660447
 30
0.0
 40
1.625
100
AcDbArc
 50
359.6895175616
 51
179.6895175616
  0
LINE
  5
344
330
1F
100
AcDbEntity
  8
0
  6
Continuous
 62
     7
370
    25
100
AcDbLine
 10
8.1730447472
 20
38.3220717805
 30
0.0
 11
8.1470203249
 21
33.5196263575
 31
0.0
  0
LINE
  5
345
330
1F
100
AcDbEntity
  8
0
  6
Continuous
 62
     7
370
    25
100
AcDbLine
 10
8.1226352106
 20
29.0196924284
 30
0.0
 11
8.0787484076
 21
20.9209929106
 31
0.0
  0
LINE
  5
346
330
1F
100
AcDbEntity
  8
0
  6
Continuous
 62
     7
370
    25
100
AcDbLine
 10
11.3180917585
 20
18.9456506342
 30
0.0
 11
11.3725874927
 21
29.0020809569
 31
0.0
  0
LINE
  5
347
330
1F
100
AcDbEntity
  8
0
  6
Continuous
 62
     7
370
    25
100
AcDbLine
 10
11.3969726071
 20
33.502014886
 30
0.0
 11
11.4229970293
 21
38.304460309
 31
0.0
  0
LINE
  5
348
330
1F
100
AcDbEntity
  8
0
  6
Continuous
 62
     7
370
    25
100
AcDbLine
 10
12.6729786763
 20
38.2976866661
 30
0.0
 11
12.532319376
 21
12.3409677793
 31
0.0
  0
LINE
  5
349
330
1F
100
AcDbEntity
  8
0
  6
Continuous
 62
     7
370
    25
100
AcDbLine
 10
12.532319376
 20
12.3409677793
 30
0.0
 11
12.2317955033
 21
12.3425963163
 31
0.0
  0
LINE
  5
34A
330
1F
100
AcDbEntity
  8
0
  6
Continuous
 62
     7
370
    25
100
AcDbLine
 10
5.7203621254
 20
21.2035533053
 30
0.0
 11
5.7203621254
 21
10.9535533053
 31
0.0
  0
LINE
  5
34B
330
1F
100
AcDbEntity
  8
0
  6
Continuous
 62
     7
370
    25
100
AcDbLine
 10
5.8403621254
 20
21.2035533053
 30
0.0
 11
5.8403621254
 21
10.9535533053
 31
0.0
  0
LINE
  5
34C
330
1F
100
AcDbEntity
  8
0
  6
Continuous
 62
     7
370
    25
100
AcDbLine
 10
5.7203621254
 20
10.5785533053
 30
0.0
 11
5.8403621254
 21
10.5785533053
 31
0.0
  0
LINE
  5
34D
330
1F
100
AcDbEntity
  8
0
  6
Continuous
 62
     7
370
    25
100
AcDbLine
 10
5.7203621254
 20
10.9535533053
 30
0.0
 11
5.7203621254
 21
10.5785533053
 31
0.0
  0
LINE
  5
34E
330
1F
100
AcDbEntity
  8
0
  6
Continuous
 62
     7
370
    25
100
AcDbLine
 10
5.8403621254
 20
10.9535533053
 30
0.0
 11
5.8403621254
 21
10.5785533053
 31
0.0
  0
LINE
  5
34F
330
1F
100
AcDbEntity
  8
0
  6
Continuous
 62
     7
370
    25
100
AcDbLine
 10
5.7203621254
 20
21.5785533053
 30
0.0
 11
5.8403621254
 21
21.5785533053
 31
0.0
  0
LINE
  5
350
330
1F
100
AcDbEntity
  8
0
  6
Continuous
 62
     7
370
    25
100
AcDbLine
 10
5.7203621254
 20
21.5785533053
 30
0.0
 11
5.7203621254
 21
21.2035533053
 31
0.0
  0
LINE
  5
351
330
1F
100
AcDbEntity
  8
0
  6
Continuous
 62
     7
370
    25
100
AcDbLine
 10
5.8403621254
 20
21.5785533053
 30
0.0
 11
5.8403621254
 21
21.2035533053
 31
0.0
  0
LINE
  5
352
330
1F
100
AcDbEntity
  8
0
  6
Continuous
 62
     7
370
    25
100
AcDbLine
 10
5.8403621254
 20
21.5785533053
 30
0.0
 11
6.0073621254
 21
21.5785533053
 31
0.0
  0
LINE
  5
353
330
1F
100
AcDbEntity
  8
0
  6
Continuous
 62
     7
370
    25
100
AcDbLine
 10
6.0073621254
 20
10.5785533053
 30
0.0
 11
5.8403621254
 21
10.5785533053
 31
0.0
  0
ARC
  5
354
330
1F
100
AcDbEntity
  8
0
  6
Continuous
 62
     7
370
    25
100
AcDbCircle
 10
11.7253614612
 20
12.3883800923
 30
0.0
 40
0.5000006642856907
100
AcDbArc
 50
295.0430839644
 51
359.9999515455
  0
LWPOLYLINE
  5
355
330
1F
100
AcDbEntity
  8
0
  6
Continuous
 62
     7
370
    25
100
AcDbPolyline
 90
        9
 70
   128
 43
0.0
 10
6.0073621254
 20
10.5785533053
 10
7.1831245813
 20
10.7271086675
 10
8.3546123037
 20
10.9136550154
 10
9.2637977468
 20
11.0931706737
 10
10.1659862834
 20
11.3117851771
 10
10.616324245
 20
11.4406555349
 10
11.0619171394
 20
11.5849721741
 10
11.5040857308
 20
11.7487679477
 10
11.9370115657
 20
11.9353846204
  0
LWPOLYLINE
  5
356
330
1F
100
AcDbEntity
  8
0
  6
Continuous
 62
     7
370
    25
100
AcDbPolyline
 90
       13
 70
   128
 43
0.0
 10
11.7648593489
 20
18.4662813703
 10
11.3952986886
 20
18.8736636631
 10
10.9929229454
 20
19.2488347902
 10
10.551917871
 20
19.6005125894
 10
10.0872912005
 20
19.9205155981
 10
9.6804157572
 20
20.1672715656
 10
9.2622010854
 20
20.3943550206
 10
8.8311345027
 20
20.604773995
 10
8.3920858751
 20
20.7980467999
 10
7.8093523599
 20
21.0266974615
 10
7.2176380365
 20
21.2311179804
 10
6.6153664981
 20
21.4147746164
 10
6.0073621254
 20
21.5785533053
  0
ARC
  5
357
330
1F
100
AcDbEntity
  8
0
  6
Continuous
 62
     7
370
    25
100
AcDbCircle
 10
10.2253562775
 20
17.1895849754
 30
0.0
 40
2.000005847905401
100
AcDbArc
 50
0.0000604278
 51
39.668619801
  0
LINE
  5
358
330
1F
100
AcDbEntity
  8
0
  6
Continuous
 62
     7
370
    25
100
AcDbLine
 10
12.2253621254
 20
12.3883796695
 30
0.0
 11
12.2253621254
 21
17.1895870847
 31
0.0
  0
DIMENSION
  5
359
330
1F
100
AcDbEntity
  8
DIMS
100
AcDbDimension
  2
_D_6
 10
5.0904408656
 20
41.1882660447
 30
0.0
 11
5.0904408656
 21
25.7811577924
 31
0.0
 70
   160
  1
<>
 71
     2
 42
-1.0
  3
SLDDIMSTYLE2
100
AcDbAlignedDimension
 13
5.7203621254
 23
10.5785533053
 33
0.0
 14
9.7980208883
 24
41.1882660447
 34
0.0
 50
90.0
100
AcDbRotatedDimension
  0
DIMENSION
  5
368
330
1F
100
AcDbEntity
  8
DIMS
100
AcDbDimension
  2
_D_7
 10
12.532319376
 20
9.9853947672
 30
0.0
 11
9.3592995067
 21
9.9853947672
 31
0.0
 70
   160
  1
<>
 71
     2
 42
-1.0
  3
SLDDIMSTYLE2
100
AcDbAlignedDimension
 13
5.7203621254
 23
10.5785533053
 33
0.0
 14
12.532319376
 24
12.3409677793
 34
0.0
 50
0.0
100
AcDbRotatedDimension
  0
MTEXT
  5
377
330
1F
100
AcDbEntity
  8
NOTES
100
AcDbMText
 10
3.5171237112
 20
9.1016633545
 30
0.0
 40
0.5
 41
0.0
 71
     1
 72
     1
  1
Front View (grab bar in up position)
  7
SLDTEXTSTYLE1
 73
     1
 44
1.0
  0
ARC
  5
378
330
1F
100
AcDbEntity
  8
0
  6
Continuous
 62
     7
370
    25
100
AcDbCircle
 10
33.3374520422
 20
39.3338850464
 30
0.0
 40
0.1535171823557201
100
AcDbArc
 50
129.8375199564
 51
215.3243856538
  0
LWPOLYLINE
  5
379
330
1F
100
AcDbEntity
  8
0
  6
Continuous
 62
     7
370
    25
100
AcDbPolyline
 90
        8
 70
   128
 43
0.0
 10
33.2121986666
 20
39.245120655
 10
33.2250778658
 20
39.2229092152
 10
33.2539588779
 20
39.186128165
 10
33.2889689403
 20
39.1563605706
 10
33.3249449141
 20
39.1380588826
 10
33.3604071852
 20
39.1308313834
 10
33.39409964
 20
39.1343127745
 10
33.4164135035
 20
39.1445829021
  0
LINE
  5
37A
330
1F
100
AcDbEntity
  8
0
  6
Continuous
 62
     7
370
    25
100
AcDbLine
 10
33.25421936
 20
39.4605674292
 30
0.0
 11
33.2400772244
 21
39.4524017951
 31
0.0
  0
LINE
  5
37B
330
1F
100
AcDbEntity
  8
0
  6
Continuous
 62
     7
370
    25
100
AcDbLine
 10
33.4180095719
 20
39.1442391522
 30
0.0
 11
33.4321517074
 21
39.1524047863
 31
0.0
  0
LWPOLYLINE
  5
37C
330
1F
100
AcDbEntity
  8
0
  6
Continuous
 62
     7
370
    25
100
AcDbPolyline
 90
       15
 70
   128
 43
0.0
 10
35.7172333601
 20
38.0244031705
 10
35.7141708456
 20
38.0232324212
 10
35.6875127501
 20
38.0003733041
 10
35.6704349132
 20
37.9715190533
 10
35.6617703989
 20
37.9378272494
 10
35.6615347291
 20
37.8988932539
 10
35.6706650963
 20
37.8559279802
 10
35.6888049205
 20
37.8131097429
 10
35.7145741345
 20
37.7738181033
 10
35.7468311066
 20
37.7404622889
 10
35.7849859989
 20
37.7155187681
 10
35.8209067082
 20
37.7037636815
 10
35.8554412197
 20
37.7028893168
 10
35.8874096728
 20
37.7125887553
 10
35.892595618
 20
37.7164573196
  0
LINE
  5
37D
330
1F
100
AcDbEntity
  8
0
  6
Continuous
 62
     7
370
    25
100
AcDbLine
 10
35.7290930941
 20
38.0318532335
 30
0.0
 11
35.7149509586
 21
38.0236875994
 31
0.0
  0
LINE
  5
37E
330
1F
100
AcDbEntity
  8
0
  6
Continuous
 62
     7
370
    25
100
AcDbLine
 10
35.892883306
 20
37.7155249565
 30
0.0
 11
35.9070254416
 21
37.7236905906
 31
0.0
  0
LINE
  5
37F
330
1F
100
AcDbEntity
  8
0
  6
Continuous
 62
     7
370
    25
100
AcDbLine
 10
35.7708952453
 20
37.910289653
 30
0.0
 11
35.7708952453
 21
37.9056575517
 31
0.0
  0
LINE
  5
380
330
1F
100
AcDbEntity
  8
0
  6
Continuous
 62
     7
370
    25
100
AcDbLine
 10
35.8186308124
 20
37.8229838909
 30
0.0
 11
35.8226166023
 21
37.8208755683
 31
0.0
  0
LINE
  5
381
330
1F
100
AcDbEntity
  8
0
  6
Continuous
 62
     7
370
    25
100
AcDbLine
 10
33.2960215111
 20
39.3390038487
 30
0.0
 11
33.2960215112
 21
39.3343717473
 31
0.0
  0
LINE
  5
382
330
1F
100
AcDbEntity
  8
0
  6
Continuous
 62
     7
370
    25
100
AcDbLine
 10
33.3437570783
 20
39.2516980866
 30
0.0
 11
33.3477428682
 21
39.249589764
 31
0.0
  0
LINE
  5
383
330
1F
100
AcDbEntity
  8
0
  6
Continuous
 62
     7
370
    25
100
AcDbLine
 10
35.7045338809
 20
36.1052552469
 30
0.0
 11
35.7304280224
 21
36.0951180413
 31
0.0
  0
LINE
  5
384
330
1F
100
AcDbEntity
  8
0
  6
Continuous
 62
     7
370
    25
100
AcDbLine
 10
32.9003607576
 20
40.8980438542
 30
0.0
 11
32.8744707482
 21
40.858006608
 31
0.0
  0
LINE
  5
385
330
1F
100
AcDbEntity
  8
0
  6
Continuous
 62
     7
370
    25
100
AcDbLine
 10
38.4742287487
 20
39.3727838816
 30
0.0
 11
38.4402876232
 21
39.3923776763
 31
0.0
  0
LINE
  5
386
330
1F
100
AcDbEntity
  8
0
  6
Continuous
 62
     7
370
    25
100
AcDbLine
 10
36.6434584969
 20
36.5074171631
 30
0.0
 11
36.6691436754
 21
36.5471376514
 31
0.0
  0
LINE
  5
387
330
1F
100
AcDbEntity
  8
0
  6
Continuous
 62
     7
370
    25
100
AcDbLine
 10
35.2583071079
 20
41.2292959279
 30
0.0
 11
35.2243659824
 21
41.2488897226
 31
0.0
  0
ARC
  5
388
330
1F
100
AcDbEntity
  8
0
  6
Continuous
 62
     7
370
    25
100
AcDbCircle
 10
21.6427062322
 20
44.1811605487
 30
0.0
 40
0.1391373220438978
100
AcDbArc
 50
57.812505698
 51
67.7137383033
  0
ARC
  5
389
330
1F
100
AcDbEntity
  8
0
  6
Continuous
 62
     7
370
    25
100
AcDbCircle
 10
21.6192523065
 20
44.3255387962
 30
0.0
 40
0.0778065365575703
100
AcDbArc
 50
348.4081092524
 51
6.2773720811
  0
LWPOLYLINE
  5
38A
330
1F
100
AcDbEntity
  8
0
  6
Continuous
 62
     7
370
    25
100
AcDbPolyline
 90
       17
 70
   128
 43
0.0
 10
21.6692981954
 20
44.6108986481
 10
21.6603335406
 20
44.6066679785
 10
21.6317817586
 20
44.5795346287
 10
21.6119343868
 20
44.5451291374
 10
21.6003710355
 20
44.5038715747
 10
21.5975699019
 20
44.4560061183
 10
21.6041779923
 20
44.4034303067
 10
21.6198997003
 20
44.3493582494
 10
21.6437643657
 20
44.2964775017
 10
21.674645448
 20
44.2469757236
 10
21.7113378347
 20
44.2028874761
 10
21.7526068424
 20
44.166138203
 10
21.797382441
 20
44.1385306617
 10
21.8445742174
 20
44.1221128455
 10
21.8853459703
 20
44.1187948889
 10
21.9228263156
 20
44.1261125803
 10
21.9451020306
 20
44.1382946574
  0
LWPOLYLINE
  5
38B
330
1F
100
AcDbEntity
  8
0
  6
Continuous
 62
     7
370
    25
100
AcDbPolyline
 90
        4
 70
   128
 43
0.0
 10
21.7173393133
 20
44.6417844947
 10
21.7174457908
 20
44.6419993051
 10
21.7139940625
 20
44.6385702502
 10
21.7097847649
 20
44.636213089
  0
LWPOLYLINE
  5
38C
330
1F
100
AcDbEntity
  8
0
  6
Continuous
 62
     7
370
    25
100
AcDbPolyline
 90
        4
 70
   128
 43
0.0
 10
21.9850436347
 20
44.1590424899
 10
21.9892898575
 20
44.1615606259
 10
21.9940486175
 20
44.1628589986
 10
21.9938231119
 20
44.162872716
  0
LINE
  5
38D
330
1F
100
AcDbEntity
  8
0
  6
Continuous
 62
     7
370
    25
100
AcDbLine
 10
21.7097847649
 20
44.636213089
 30
0.0
 11
21.6689988165
 21
44.6121558809
 31
0.0
  0
LINE
  5
38E
330
1F
100
AcDbEntity
  8
0
  6
Continuous
 62
     7
370
    25
100
AcDbLine
 10
21.9439764679
 20
44.1358290066
 30
0.0
 11
21.9850436347
 21
44.1590424899
 31
0.0
  0
ARC
  5
38F
330
1F
100
AcDbEntity
  8
0
  6
Continuous
 62
     7
370
    25
100
AcDbCircle
 10
21.9483614108
 20
44.5845067415
 30
0.0
 40
0.4231761830750865
100
AcDbArc
 50
275.8402566272
 51
299.9225467494
  0
ARC
  5
390
330
1F
100
AcDbEntity
  8
0
  6
Continuous
 62
     7
370
    25
100
AcDbCircle
 10
22.1194482161
 20
44.3097112536
 30
0.0
 40
0.1
100
AcDbArc
 50
294.0714218005
 51
299.9973117335
  0
LINE
  5
391
330
1F
100
AcDbEntity
  8
0
  6
Continuous
 62
     7
370
    25
100
AcDbLine
 10
22.1694441528
 20
44.2231063674
 30
0.0
 11
22.356787778
 21
44.3312575401
 31
0.0
  0
LINE
  5
392
330
1F
100
AcDbEntity
  8
0
  6
Continuous
 62
     7
370
    25
100
AcDbLine
 10
21.721098153
 20
44.6558403645
 30
0.0
 11
21.7143884404
 21
44.635346022
 31
0.0
  0
ARC
  5
393
330
1F
100
AcDbEntity
  8
0
  6
Continuous
 62
     7
370
    25
100
AcDbCircle
 10
21.8160471041
 20
44.6244604875
 30
0.0
 40
0.1000000000000015
100
AcDbArc
 50
119.9973117338
 51
161.7116881393
  0
LINE
  5
394
330
1F
100
AcDbEntity
  8
0
  6
Continuous
 62
     7
370
    25
100
AcDbLine
 10
21.9533947927
 20
44.8192165465
 30
0.0
 11
21.7660511675
 21
44.7110653737
 31
0.0
  0
ARC
  5
395
330
1F
100
AcDbEntity
  8
0
  6
Continuous
 62
     7
370
    25
100
AcDbCircle
 10
22.9685314469
 20
43.4157779438
 30
0.0
 40
0.1391373220090748
100
AcDbArc
 50
57.8125056968
 51
67.7137383045
  0
ARC
  5
396
330
1F
100
AcDbEntity
  8
0
  6
Continuous
 62
     7
370
    25
100
AcDbCircle
 10
22.9450775213
 20
43.5601561913
 30
0.0
 40
0.0778065365580584
100
AcDbArc
 50
348.4081092525
 51
6.277372081
  0
LWPOLYLINE
  5
397
330
1F
100
AcDbEntity
  8
0
  6
Continuous
 62
     7
370
    25
100
AcDbPolyline
 90
       18
 70
   128
 43
0.0
 10
22.9998883272
 20
43.8493181818
 10
22.9985696306
 20
43.8488508466
 10
22.9669115623
 20
43.8248980075
 10
22.943976884
 20
43.7929765503
 10
22.929411398
 20
43.7542155288
 10
22.9233430776
 20
43.7086262577
 10
22.92651944
 20
43.657423523
 10
22.9390425472
 20
43.6035182585
 10
22.9600870946
 20
43.5499413866
 10
22.9885654023
 20
43.4989775929
 10
23.0233060629
 20
43.4526944836
 10
23.0630516561
 20
43.413084639
 10
23.1066742573
 20
43.3819567474
 10
23.1531490744
 20
43.3612243474
 10
23.1949375945
 20
43.35345047
 10
23.2338780005
 20
43.3565015202
 10
23.2688911585
 20
43.3699258477
 10
23.2743741483
 20
43.3742258087
  0
LWPOLYLINE
  5
398
330
1F
100
AcDbEntity
  8
0
  6
Continuous
 62
     7
370
    25
100
AcDbPolyline
 90
        4
 70
   128
 43
0.0
 10
23.0432239204
 20
43.8765172756
 10
23.0432767236
 20
43.8766247715
 10
23.0400001681
 20
43.8733352275
 10
23.0355799475
 20
43.8708104163
  0
LWPOLYLINE
  5
399
330
1F
100
AcDbEntity
  8
0
  6
Continuous
 62
     7
370
    25
100
AcDbPolyline
 90
        4
 70
   128
 43
0.0
 10
23.3107065957
 20
43.3940603054
 10
23.314866822
 20
43.3960806978
 10
23.3198537522
 20
43.3974743915
 10
23.3195081511
 20
43.3974941364
  0
LINE
  5
39A
330
1F
100
AcDbEntity
  8
0
  6
Continuous
 62
     7
370
    25
100
AcDbLine
 10
23.0355799475
 20
43.8708104163
 30
0.0
 11
22.9948240312
 21
43.8467732761
 31
0.0
  0
LINE
  5
39B
330
1F
100
AcDbEntity
  8
0
  6
Continuous
 62
     7
370
    25
100
AcDbLine
 10
23.2698016827
 20
43.3704464018
 30
0.0
 11
23.3107065957
 21
43.3940603054
 31
0.0
  0
ARC
  5
39C
330
1F
100
AcDbEntity
  8
0
  6
Continuous
 62
     7
370
    25
100
AcDbCircle
 10
23.4304467214
 20
43.5198410184
 30
0.0
 40
0.1000000000000364
100
AcDbArc
 50
284.3082804848
 51
299.9973117336
  0
ARC
  5
39D
330
1F
100
AcDbEntity
  8
0
  6
Continuous
 62
     7
370
    25
100
AcDbCircle
 10
23.2703060237
 20
44.0555700819
 30
0.0
 40
0.6596467456897619
100
AcDbArc
 50
274.3861293828
 51
286.2366989749
  0
LINE
  5
39E
330
1F
100
AcDbEntity
  8
0
  6
Continuous
 62
     7
370
    25
100
AcDbLine
 10
23.480442658
 20
43.4332361322
 30
0.0
 11
23.6677862832
 21
43.541387305
 31
0.0
  0
LINE
  5
39F
330
1F
100
AcDbEntity
  8
0
  6
Continuous
 62
     7
370
    25
100
AcDbLine
 10
23.0666626692
 20
43.9270793503
 30
0.0
 11
23.0425035639
 21
43.8749182726
 31
0.0
  0
ARC
  5
3A0
330
1F
100
AcDbEntity
  8
0
  6
Continuous
 62
     7
370
    25
100
AcDbCircle
 10
23.1566990283
 20
43.883565513
 30
0.0
 40
0.1000000000000369
100
AcDbArc
 50
119.9973117337
 51
154.2059008892
  0
LINE
  5
3A1
330
1F
100
AcDbEntity
  8
0
  6
Continuous
 62
     7
370
    25
100
AcDbLine
 10
23.2940467169
 20
44.078321572
 30
0.0
 11
23.1067030917
 21
43.9701703992
 31
0.0
  0
LWPOLYLINE
  5
3A2
330
1F
100
AcDbEntity
  8
0
  6
Continuous
 62
     7
370
    25
100
AcDbPolyline
 90
       14
 70
   128
 43
0.0
 10
39.4455954244
 20
33.4445282522
 10
39.5266245277
 20
33.3995840212
 10
39.6766871261
 20
33.3259388131
 10
39.8286759334
 20
33.2639255167
 10
39.981326917
 20
33.2143703548
 10
40.1335442107
 20
33.1777901969
 10
40.284165813
 20
33.1544884225
 10
40.432066669
 20
33.1445211681
 10
40.5762466631
 20
33.1477146102
 10
40.715869597
 20
33.1637211645
 10
40.8502539253
 20
33.1920860256
 10
40.9788389793
 20
33.2323019918
 10
41.101150537
 20
33.2838465094
 10
41.1937372662
 20
33.3337799687
  0
LINE
  5
3A3
330
1F
100
AcDbEntity
  8
0
  6
Continuous
 62
     7
370
    25
100
AcDbLine
 10
41.1944532877
 20
33.3330361225
 30
0.0
 11
41.1972817149
 21
33.3346689388
 31
0.0
  0
LWPOLYLINE
  5
3A4
330
1F
100
AcDbEntity
  8
0
  6
Continuous
 62
     7
370
    25
100
AcDbPolyline
 90
       37
 70
   128
 43
0.0
 10
41.1967530214
 20
33.3355138139
 10
41.2196055955
 20
33.3478385616
 10
41.3281857206
 20
33.4205254936
 10
41.4292963121
 20
33.5030031524
 10
41.5226420628
 20
33.5948175694
 10
41.6080060343
 20
33.69562422
 10
41.6851770125
 20
33.8051554448
 10
41.7539284001
 20
33.923204966
 10
41.8139994626
 20
34.0495923249
 10
41.8650861795
 20
34.184106565
 10
41.9068495117
 20
34.3264363155
 10
41.9389455802
 20
34.476104097
 10
41.9610738005
 20
34.6324300839
 10
41.9730283932
 20
34.7945453536
 10
41.9747337429
 20
34.9614536827
 10
41.9662509885
 20
35.1321165894
 10
41.9477640464
 20
35.3054824912
 10
41.919549617
 20
35.4805756874
 10
41.8819225545
 20
35.6565940181
 10
41.8352163123
 20
35.8328043622
 10
41.7797709704
 20
36.0085235211
 10
41.7159280473
 20
36.1831010425
 10
41.6440291904
 20
36.355906555
 10
41.5644165853
 20
36.5263216186
 10
41.4774337466
 20
36.6937351688
 10
41.3834259814
 20
36.8575414363
 10
41.2827402339
 20
37.0171393244
 10
41.1757473309
 20
37.1719005336
 10
41.0627994318
 20
37.321235289
 10
40.9442443914
 20
37.4645611686
 10
40.8204257036
 20
37.6012990058
 10
40.6916821398
 20
37.7308693875
 10
40.5583496091
 20
37.8526871289
 10
40.420766975
 20
37.9661535935
 10
40.2792881591
 20
38.0706473472
 10
40.1343032146
 20
38.1655148683
 10
40.0713732219
 20
38.2029577677
  0
LWPOLYLINE
  5
3A5
330
1F
100
AcDbEntity
  8
0
  6
Continuous
 62
     7
370
    25
100
AcDbPolyline
 90
       33
 70
   128
 43
0.0
 10
39.4455954244
 20
37.1189619057
 10
39.4900017348
 20
37.0923198019
 10
39.57680475
 20
37.0345224515
 10
39.6659469404
 20
36.9674022368
 10
39.7565039668
 20
36.8911209251
 10
39.8474673922
 20
36.80604677
 10
39.9378474327
 20
36.7126864854
 10
40.0266869695
 20
36.6116699014
 10
40.1130728654
 20
36.5037349214
 10
40.1961450225
 20
36.3897134779
 10
40.2751038239
 20
36.2705187365
 10
40.3492165531
 20
36.1471335697
 10
40.4178233282
 20
36.0206001642
 10
40.4803293621
 20
35.8920402641
 10
40.5362353431
 20
35.7626064762
 10
40.5851456171
 20
35.6334620108
 10
40.6267652274
 20
35.5057898208
 10
40.6609087634
 20
35.3807819456
 10
40.6875103713
 20
35.2596269938
 10
40.7066347504
 20
35.1434949259
 10
40.718488671
 20
35.0335181739
 10
40.7234321249
 20
34.9307680803
 10
40.7219876231
 20
34.8362257059
 10
40.7148453876
 20
34.7507463126
 10
40.7028612442
 20
34.6750173354
 10
40.6870429055
 20
34.6095103626
 10
40.6685673802
 20
34.5545527376
 10
40.6486621935
 20
34.5100031532
 10
40.6285088708
 20
34.4753044504
 10
40.6090452959
 20
34.4494132133
 10
40.59054607
 20
34.4306966095
 10
40.5714115219
 20
34.4167207177
 10
40.569072722
 20
34.4156758313
  0
LWPOLYLINE
  5
3A6
330
1F
100
AcDbEntity
  8
0
  6
Continuous
 62
     7
370
    25
100
AcDbPolyline
 90
       11
 70
   128
 43
0.0
 10
40.5719032628
 20
34.4173095919
 10
40.5452511092
 20
34.4054024285
 10
40.5183067459
 20
34.3990148935
 10
40.4846797117
 20
34.3956620545
 10
40.4439013439
 20
34.3963102292
 10
40.3905078309
 20
34.4028893389
 10
40.3298250907
 20
34.4165267062
 10
40.2623431754
 20
34.4380272477
 10
40.1886888773
 20
34.468075674
 10
40.1097036222
 20
34.5071581403
 10
40.0713732219
 20
34.5285241142
  0
LINE
  5
3A7
330
1F
100
AcDbEntity
  8
0
  6
Continuous
 62
     7
370
    25
100
AcDbLine
 10
25.0555367142
 20
45.4261659753
 30
0.0
 11
32.9003607576
 21
40.8980438542
 31
0.0
  0
LINE
  5
3A8
330
1F
100
AcDbEntity
  8
0
  6
Continuous
 62
     7
370
    25
100
AcDbLine
 10
35.9900888455
 20
39.1137833927
 30
0.0
 11
39.4455954244
 21
37.1189619057
 31
0.0
  0
LINE
  5
3A9
330
1F
100
AcDbEntity
  8
0
  6
Continuous
 62
     7
370
    25
100
AcDbLine
 10
40.0713732219
 20
38.2029577677
 30
0.0
 11
21.989504079
 21
48.6413986355
 31
0.0
  0
LINE
  5
3AA
330
1F
100
AcDbEntity
  8
0
  6
Continuous
 62
     7
370
    25
100
AcDbLine
 10
24.7148178332
 20
41.9484251451
 30
0.0
 11
39.4455954244
 21
33.4445282522
 31
0.0
  0
LINE
  5
3AB
330
1F
100
AcDbEntity
  8
0
  6
Continuous
 62
     7
370
    25
100
AcDbLine
 10
40.0713732219
 20
34.5285241142
 30
0.0
 11
36.3186370379
 21
36.6949326
 31
0.0
  0
LINE
  5
3AC
330
1F
100
AcDbEntity
  8
0
  6
Continuous
 62
     7
370
    25
100
AcDbLine
 10
33.1028536043
 20
38.5513648609
 30
0.0
 11
25.6514669443
 21
42.8529588178
 31
0.0
  0
LINE
  5
3AD
330
1F
100
AcDbEntity
  8
0
  6
Continuous
 62
     7
370
    25
100
AcDbLine
 10
25.71585206
 20
42.8561963148
 30
0.0
 11
25.71585206
 21
45.0449740401
 31
0.0
  0
LINE
  5
3AE
330
1F
100
AcDbEntity
  8
0
  6
Continuous
 62
     7
370
    25
100
AcDbLine
 10
22.1322117803
 20
51.3309198453
 30
0.0
 11
22.0473589666
 21
51.379904332
 31
0.0
  0
LINE
  5
3AF
330
1F
100
AcDbEntity
  8
0
  6
Continuous
 62
     7
370
    25
100
AcDbLine
 10
19.10912736
 20
40.8810846607
 30
0.0
 11
19.1939801738
 21
40.832100174
 31
0.0
  0
LINE
  5
3B0
330
1F
100
AcDbEntity
  8
0
  6
Continuous
 62
     7
370
    25
100
AcDbLine
 10
20.1736552848
 20
50.2500032708
 30
0.0
 11
20.1736552848
 21
41.2680543401
 31
0.0
  0
LINE
  5
3B1
330
1F
100
AcDbEntity
  8
0
  6
Continuous
 62
     7
370
    25
100
AcDbLine
 10
24.5119189136
 20
39.9083824506
 30
0.0
 11
24.6073783291
 21
39.9634899981
 31
0.0
  0
LINE
  5
3B2
330
1F
100
AcDbEntity
  8
0
  6
Continuous
 62
     7
370
    25
100
AcDbLine
 10
25.5336882124
 20
40.4982373114
 30
0.0
 11
25.6291476279
 21
40.5533448589
 31
0.0
  0
LINE
  5
3B3
330
1F
100
AcDbEntity
  8
0
  6
Continuous
 62
     7
370
    25
100
AcDbLine
 10
33.4548622634
 20
39.351595832
 30
0.0
 11
33.3168268415
 21
39.4881735053
 31
0.0
  0
LINE
  5
3B4
330
1F
100
AcDbEntity
  8
0
  6
Continuous
 62
     7
370
    25
100
AcDbLine
 10
33.3168268415
 20
39.4881735053
 30
0.0
 11
33.3213089351
 21
39.4995372475
 31
0.0
  0
LINE
  5
3B5
330
1F
100
AcDbEntity
  8
0
  6
Continuous
 62
     7
370
    25
100
AcDbLine
 10
33.3213089351
 20
39.4995372475
 30
0.0
 11
33.4654963535
 21
39.3568725469
 31
0.0
  0
LINE
  5
3B6
330
1F
100
AcDbEntity
  8
0
  6
Continuous
 62
     7
370
    25
100
AcDbLine
 10
33.4548622634
 20
39.351595832
 30
0.0
 11
33.4654963535
 21
39.3568725469
 31
0.0
  0
LINE
  5
3B7
330
1F
100
AcDbEntity
  8
0
  6
Continuous
 62
     7
370
    25
100
AcDbLine
 10
33.5673197295
 20
39.4156651123
 30
0.0
 11
33.4231323111
 21
39.5583298128
 31
0.0
  0
LINE
  5
3B8
330
1F
100
AcDbEntity
  8
0
  6
Continuous
 62
     7
370
    25
100
AcDbLine
 10
33.5673197295
 20
39.4156651123
 30
0.0
 11
33.4654963535
 21
39.3568725469
 31
0.0
  0
LINE
  5
3B9
330
1F
100
AcDbEntity
  8
0
  6
Continuous
 62
     7
370
    25
100
AcDbLine
 10
33.4231323111
 20
39.5583298128
 30
0.0
 11
33.3213089351
 21
39.4995372475
 31
0.0
  0
LWPOLYLINE
  5
3BA
330
1F
100
AcDbEntity
  8
0
  6
Continuous
 62
     7
370
    25
100
AcDbPolyline
 90
        7
 70
   128
 43
0.0
 10
33.4390498802
 20
39.3452087159
 10
33.412212768
 20
39.3880787216
 10
33.3797834798
 20
39.424338579
 10
33.3443892437
 20
39.4510507301
 10
33.3088974901
 20
39.4660511153
 10
33.2761835499
 20
39.4681244925
 10
33.25421936
 20
39.4605674292
  0
LWPOLYLINE
  5
3BB
330
1F
100
AcDbEntity
  8
0
  6
Continuous
 62
     7
370
    25
100
AcDbPolyline
 90
        7
 70
   128
 43
0.0
 10
33.4321517074
 20
39.1524047863
 10
33.4374733554
 20
39.1558693264
 10
33.4571205548
 20
39.1790930057
 10
33.4675374164
 20
39.2126373165
 10
33.4678800279
 20
39.2537846982
 10
33.4581206332
 20
39.2992016347
 10
33.4390498802
 20
39.3452087159
  0
LINE
  5
3BC
330
1F
100
AcDbEntity
  8
0
  6
Continuous
 62
     7
370
    25
100
AcDbLine
 10
33.4812209556
 20
39.1699084344
 30
0.0
 11
33.4548622634
 21
39.351595832
 31
0.0
  0
LINE
  5
3BD
330
1F
100
AcDbEntity
  8
0
  6
Continuous
 62
     7
370
    25
100
AcDbLine
 10
33.3695442259
 20
39.1247987101
 30
0.0
 11
33.3927535598
 21
39.1341736861
 31
0.0
  0
LINE
  5
3BE
330
1F
100
AcDbEntity
  8
0
  6
Continuous
 62
     7
370
    25
100
AcDbLine
 10
33.4187948952
 20
39.144692596
 30
0.0
 11
33.4812209556
 21
39.1699084344
 31
0.0
  0
LINE
  5
3BF
330
1F
100
AcDbEntity
  8
0
  6
Continuous
 62
     7
370
    25
100
AcDbLine
 10
33.3631597131
 20
39.131115798
 30
0.0
 11
33.3695442259
 21
39.1247987101
 31
0.0
  0
LINE
  5
3C0
330
1F
100
AcDbEntity
  8
0
  6
Continuous
 62
     7
370
    25
100
AcDbLine
 10
33.2051501119
 20
39.443063781
 30
0.0
 11
33.2082541796
 21
39.4216678031
 31
0.0
  0
LINE
  5
3C1
330
1F
100
AcDbEntity
  8
0
  6
Continuous
 62
     7
370
    25
100
AcDbLine
 10
33.3168268415
 20
39.4881735053
 30
0.0
 11
33.2051501119
 21
39.443063781
 31
0.0
  0
LINE
  5
3C2
330
1F
100
AcDbEntity
  8
0
  6
Continuous
 62
     7
370
    25
100
AcDbLine
 10
33.4654963535
 20
39.3568725469
 30
0.0
 11
33.4930298063
 21
39.1670876608
 31
0.0
  0
LINE
  5
3C3
330
1F
100
AcDbEntity
  8
0
  6
Continuous
 62
     7
370
    25
100
AcDbLine
 10
33.4930298063
 20
39.1670876608
 30
0.0
 11
33.4812209556
 21
39.1699084344
 31
0.0
  0
LINE
  5
3C4
330
1F
100
AcDbEntity
  8
0
  6
Continuous
 62
     7
370
    25
100
AcDbLine
 10
33.5948531823
 20
39.2258802262
 30
0.0
 11
33.5673197295
 21
39.4156651123
 31
0.0
  0
LINE
  5
3C5
330
1F
100
AcDbEntity
  8
0
  6
Continuous
 62
     7
370
    25
100
AcDbLine
 10
33.5948531823
 20
39.2258802262
 30
0.0
 11
33.4930298063
 21
39.1670876608
 31
0.0
  0
LWPOLYLINE
  5
3C6
330
1F
100
AcDbEntity
  8
0
  6
Continuous
 62
     7
370
    25
100
AcDbPolyline
 90
       17
 70
   128
 43
0.0
 10
33.2394718526
 20
39.2547801751
 10
33.2583940002
 20
39.2265444126
 10
33.2816128423
 20
39.2055064734
 10
33.3055935208
 20
39.1948691931
 10
33.3266851947
 20
39.1962520012
 10
33.3416768479
 20
39.2094443776
 10
33.3482861371
 20
39.2324379027
 10
33.3455068579
 20
39.2617320207
 10
33.3337621304
 20
39.2928669677
 10
33.3148399828
 20
39.3211027302
 10
33.2916211406
 20
39.3421406694
 10
33.2676404621
 20
39.3527779497
 10
33.2465487882
 20
39.3513951416
 10
33.231557135
 20
39.3382027652
 10
33.2249478458
 20
39.3152092401
 10
33.227727125
 20
39.2859151221
 10
33.2394718526
 20
39.2547801751
  0
LINE
  5
3C7
330
1F
100
AcDbEntity
  8
0
  6
Continuous
 62
     7
370
    25
100
AcDbLine
 10
33.429963926
 20
39.553498578
 30
0.0
 11
33.5679993479
 21
39.4169209046
 31
0.0
  0
LINE
  5
3C8
330
1F
100
AcDbEntity
  8
0
  6
Continuous
 62
     7
370
    25
100
AcDbLine
 10
33.5679993479
 20
39.4169209046
 30
0.0
 11
33.5673197295
 21
39.4156651123
 31
0.0
  0
LINE
  5
3C9
330
1F
100
AcDbEntity
  8
0
  6
Continuous
 62
     7
370
    25
100
AcDbLine
 10
33.4231323111
 20
39.5583298128
 30
0.0
 11
33.429963926
 21
39.553498578
 31
0.0
  0
LINE
  5
3CA
330
1F
100
AcDbEntity
  8
0
  6
Continuous
 62
     7
370
    25
100
AcDbLine
 10
33.2051501119
 20
39.443063781
 30
0.0
 11
33.2046549696
 21
39.4524170619
 31
0.0
  0
LINE
  5
3CB
330
1F
100
AcDbEntity
  8
0
  6
Continuous
 62
     7
370
    25
100
AcDbLine
 10
33.2046549696
 20
39.4524170619
 30
0.0
 11
33.3213089351
 21
39.4995372475
 31
0.0
  0
LINE
  5
3CC
330
1F
100
AcDbEntity
  8
0
  6
Continuous
 62
     7
370
    25
100
AcDbLine
 10
33.4231323111
 20
39.5583298128
 30
0.0
 11
33.3064783456
 21
39.5112096273
 31
0.0
  0
LINE
  5
3CD
330
1F
100
AcDbEntity
  8
0
  6
Continuous
 62
     7
370
    25
100
AcDbLine
 10
33.3064783456
 20
39.5112096273
 30
0.0
 11
33.2046549696
 21
39.4524170619
 31
0.0
  0
LINE
  5
3CE
330
1F
100
AcDbEntity
  8
0
  6
Continuous
 62
     7
370
    25
100
AcDbLine
 10
33.5679993479
 20
39.4169209046
 30
0.0
 11
33.59435804
 21
39.235233507
 31
0.0
  0
LINE
  5
3CF
330
1F
100
AcDbEntity
  8
0
  6
Continuous
 62
     7
370
    25
100
AcDbLine
 10
33.59435804
 20
39.235233507
 30
0.0
 11
33.5948531823
 21
39.2258802262
 31
0.0
  0
LINE
  5
3D0
330
1F
100
AcDbEntity
  8
0
  6
Continuous
 62
     7
370
    25
100
AcDbLine
 10
33.4930298063
 20
39.1670876608
 30
0.0
 11
33.3763758408
 21
39.1199674752
 31
0.0
  0
LINE
  5
3D1
330
1F
100
AcDbEntity
  8
0
  6
Continuous
 62
     7
370
    25
100
AcDbLine
 10
33.3763758408
 20
39.1199674752
 30
0.0
 11
33.3695442259
 21
39.1247987101
 31
0.0
  0
LINE
  5
3D2
330
1F
100
AcDbEntity
  8
0
  6
Continuous
 62
     7
370
    25
100
AcDbLine
 10
35.8562492026
 20
38.0349856814
 30
0.0
 11
35.9695369913
 21
37.8506758269
 31
0.0
  0
LINE
  5
3D3
330
1F
100
AcDbEntity
  8
0
  6
Continuous
 62
     7
370
    25
100
AcDbLine
 10
35.9695369913
 20
37.8506758269
 30
0.0
 11
35.9576584467
 21
37.8487050331
 31
0.0
  0
LINE
  5
3D4
330
1F
100
AcDbEntity
  8
0
  6
Continuous
 62
     7
370
    25
100
AcDbLine
 10
35.9576584467
 20
37.8487050331
 30
0.0
 11
35.8492042702
 21
38.0251510004
 31
0.0
  0
LINE
  5
3D5
330
1F
100
AcDbEntity
  8
0
  6
Continuous
 62
     7
370
    25
100
AcDbLine
 10
35.8562492026
 20
38.0349856814
 30
0.0
 11
35.8492042702
 21
38.0251510004
 31
0.0
  0
LINE
  5
3D6
330
1F
100
AcDbEntity
  8
0
  6
Continuous
 62
     7
370
    25
100
AcDbLine
 10
36.0713603674
 20
37.9094683923
 30
0.0
 11
35.9580725786
 21
38.0937782467
 31
0.0
  0
LINE
  5
3D7
330
1F
100
AcDbEntity
  8
0
  6
Continuous
 62
     7
370
    25
100
AcDbLine
 10
36.0713603674
 20
37.9094683923
 30
0.0
 11
35.9695369913
 21
37.8506758269
 31
0.0
  0
LINE
  5
3D8
330
1F
100
AcDbEntity
  8
0
  6
Continuous
 62
     7
370
    25
100
AcDbLine
 10
35.9580725786
 20
38.0937782467
 30
0.0
 11
35.8562492026
 21
38.0349856814
 31
0.0
  0
LWPOLYLINE
  5
3D9
330
1F
100
AcDbEntity
  8
0
  6
Continuous
 62
     7
370
    25
100
AcDbPolyline
 90
       13
 70
   128
 43
0.0
 10
35.9070254416
 20
37.7236905906
 10
35.9254896282
 20
37.7401430902
 10
35.9395838645
 20
37.7700148594
 10
35.9438329007
 20
37.8086164641
 10
35.9378925052
 20
37.852820632
 10
35.9222439335
 20
37.8990462042
 10
35.8981549398
 20
37.9435482597
 10
35.867577071
 20
37.9827215068
 10
35.8329875644
 20
38.0133923618
 10
35.797188656
 20
38.0330760546
 10
35.7630805604
 20
38.0401779293
 10
35.7334265127
 20
38.0341226345
 10
35.7290930941
 20
38.0318532335
  0
LINE
  5
3DA
330
1F
100
AcDbEntity
  8
0
  6
Continuous
 62
     7
370
    25
100
AcDbLine
 10
35.7096050914
 20
38.0542178794
 30
0.0
 11
35.7005974208
 21
38.0115933112
 31
0.0
  0
LINE
  5
3DB
330
1F
100
AcDbEntity
  8
0
  6
Continuous
 62
     7
370
    25
100
AcDbLine
 10
35.8492042702
 20
38.0251510004
 30
0.0
 11
35.7096050914
 21
38.0542178794
 31
0.0
  0
LINE
  5
3DC
330
1F
100
AcDbEntity
  8
0
  6
Continuous
 62
     7
370
    25
100
AcDbLine
 10
35.9265134443
 20
37.7013259447
 30
0.0
 11
35.9576584467
 21
37.8487050331
 31
0.0
  0
LINE
  5
3DD
330
1F
100
AcDbEntity
  8
0
  6
Continuous
 62
     7
370
    25
100
AcDbLine
 10
35.8813099643
 20
37.7107380637
 30
0.0
 11
35.9265134443
 21
37.7013259447
 31
0.0
  0
LWPOLYLINE
  5
3DE
330
1F
100
AcDbEntity
  8
0
  6
Continuous
 62
     7
370
    25
100
AcDbPolyline
 90
       17
 70
   128
 43
0.0
 10
35.8204235283
 20
37.8328385826
 10
35.8087267217
 20
37.8639765891
 10
35.7898386629
 20
37.8922422334
 10
35.7666348877
 20
37.9133323274
 10
35.7426479604
 20
37.9240360954
 10
35.7215296732
 20
37.9227239859
 10
35.7064950941
 20
37.9095957555
 10
35.6998331013
 20
37.8866500583
 10
35.7025579229
 20
37.8573801688
 10
35.7142547295
 20
37.8262421623
 10
35.7331427883
 20
37.797976518
 10
35.7563465636
 20
37.776886424
 10
35.7803334909
 20
37.766182656
 10
35.801451778
 20
37.7674947656
 10
35.8164863571
 20
37.780622996
 10
35.8231483499
 20
37.8035686931
 10
35.8204235283
 20
37.8328385826
  0
LINE
  5
3DF
330
1F
100
AcDbEntity
  8
0
  6
Continuous
 62
     7
370
    25
100
AcDbLine
 10
35.9695369913
 20
37.8506758269
 30
0.0
 11
35.9370039109
 21
37.6967283112
 31
0.0
  0
LINE
  5
3E0
330
1F
100
AcDbEntity
  8
0
  6
Continuous
 62
     7
370
    25
100
AcDbLine
 10
35.9265134443
 20
37.7013259447
 30
0.0
 11
35.9370039109
 21
37.6967283112
 31
0.0
  0
LINE
  5
3E1
330
1F
100
AcDbEntity
  8
0
  6
Continuous
 62
     7
370
    25
100
AcDbLine
 10
36.0388272869
 20
37.7555208766
 30
0.0
 11
36.0713603674
 21
37.9094683923
 31
0.0
  0
LINE
  5
3E2
330
1F
100
AcDbEntity
  8
0
  6
Continuous
 62
     7
370
    25
100
AcDbLine
 10
36.0388272869
 20
37.7555208766
 30
0.0
 11
35.9370039109
 21
37.6967283112
 31
0.0
  0
LINE
  5
3E3
330
1F
100
AcDbEntity
  8
0
  6
Continuous
 62
     7
370
    25
100
AcDbLine
 10
35.7104283333
 20
38.0653480201
 30
0.0
 11
35.8562492026
 21
38.0349856814
 31
0.0
  0
LINE
  5
3E4
330
1F
100
AcDbEntity
  8
0
  6
Continuous
 62
     7
370
    25
100
AcDbLine
 10
35.7104283333
 20
38.0653480201
 30
0.0
 11
35.7096050914
 21
38.0542178794
 31
0.0
  0
LINE
  5
3E5
330
1F
100
AcDbEntity
  8
0
  6
Continuous
 62
     7
370
    25
100
AcDbLine
 10
35.9580725786
 20
38.0937782467
 30
0.0
 11
35.8122517093
 21
38.1241405855
 31
0.0
  0
LINE
  5
3E6
330
1F
100
AcDbEntity
  8
0
  6
Continuous
 62
     7
370
    25
100
AcDbLine
 10
35.8122517093
 20
38.1241405855
 30
0.0
 11
35.7104283333
 21
38.0653480201
 31
0.0
  0
LINE
  5
3E7
330
1F
100
AcDbEntity
  8
0
  6
Continuous
 62
     7
370
    25
100
AcDbLine
 10
35.9623413547
 20
38.090476073
 30
0.0
 11
36.0707955312
 21
37.9140301057
 31
0.0
  0
LINE
  5
3E8
330
1F
100
AcDbEntity
  8
0
  6
Continuous
 62
     7
370
    25
100
AcDbLine
 10
36.0713603674
 20
37.9094683923
 30
0.0
 11
36.0707955312
 21
37.9140301057
 31
0.0
  0
LINE
  5
3E9
330
1F
100
AcDbEntity
  8
0
  6
Continuous
 62
     7
370
    25
100
AcDbLine
 10
35.9623413547
 20
38.090476073
 30
0.0
 11
35.9580725786
 21
38.0937782467
 31
0.0
  0
LINE
  5
3EA
330
1F
100
AcDbEntity
  8
0
  6
Continuous
 62
     7
370
    25
100
AcDbLine
 10
35.9370039109
 20
37.6967283112
 30
0.0
 11
35.8765929323
 21
37.7093068852
 31
0.0
  0
LINE
  5
3EB
330
1F
100
AcDbEntity
  8
0
  6
Continuous
 62
     7
370
    25
100
AcDbLine
 10
35.6987302212
 20
38.0099922015
 30
0.0
 11
35.7104283333
 21
38.0653480201
 31
0.0
  0
ARC
  5
3EC
330
1F
100
AcDbEntity
  8
0
  6
Continuous
 62
     7
370
    25
100
AcDbCircle
 10
35.8700573074
 20
37.9079836154
 30
0.0
 40
0.0991888722152935
100
AcDbArc
 50
178.6678129844
 51
241.4264453769
  0
LINE
  5
3ED
330
1F
100
AcDbEntity
  8
0
  6
Continuous
 62
     7
370
    25
100
AcDbLine
 10
35.8057311615
 20
37.8695084357
 30
0.0
 11
35.8058708027
 21
37.8677015982
 31
0.0
  0
LINE
  5
3EE
330
1F
100
AcDbEntity
  8
0
  6
Continuous
 62
     7
370
    25
100
AcDbLine
 10
35.8058708027
 20
37.8677015982
 30
0.0
 11
35.8064715473
 21
37.8681913137
 31
0.0
  0
ARC
  5
3EF
330
1F
100
AcDbEntity
  8
0
  6
Continuous
 62
     7
370
    25
100
AcDbCircle
 10
33.392523127
 20
39.3351588825
 30
0.0
 40
0.0965781840186737
100
AcDbArc
 50
177.718340077
 51
242.3759182839
  0
ARC
  5
3F0
330
1F
100
AcDbEntity
  8
0
  6
Continuous
 62
     7
370
    25
100
AcDbCircle
 10
33.6115294302
 20
35.6867133767
 30
0.0
 40
4.171473947811952
100
AcDbArc
 50
52.8262898889
 51
60.0130289419
  0
ARC
  5
3F1
330
1F
100
AcDbEntity
  8
0
  6
Continuous
 62
     7
370
    25
100
AcDbCircle
 10
33.5856394209
 20
35.6466761305
 30
0.0
 40
4.171473947808592
100
AcDbArc
 50
52.8262898889
 51
60.0130289419
  0
LINE
  5
3F2
330
1F
100
AcDbEntity
  8
0
  6
Continuous
 62
     7
370
    25
100
AcDbLine
 10
32.9242034902
 20
40.8074550732
 30
0.0
 11
33.089443518
 21
40.6754878434
 31
0.0
  0
LWPOLYLINE
  5
3F3
330
1F
100
AcDbEntity
  8
0
  6
Continuous
 62
     7
370
    25
100
AcDbPolyline
 90
        9
 70
   128
 43
0.0
 10
33.0189044131
 20
40.7905179491
 10
32.9704486997
 20
40.8177658165
 10
32.9304059528
 20
40.838734803
 10
32.9003149926
 20
40.8526190822
 10
32.8813321979
 20
40.8588850889
 10
32.8741870668
 20
40.8572920242
 10
32.8791541827
 20
40.8479011085
 10
32.8960426621
 20
40.8310732296
 10
32.9242034902
 20
40.8074550732
  0
LINE
  5
3F4
330
1F
100
AcDbEntity
  8
0
  6
Continuous
 62
     7
370
    25
100
AcDbLine
 10
35.6705548425
 20
39.2597527394
 30
0.0
 11
33.0189044131
 21
40.7905179491
 31
0.0
  0
LINE
  5
3F5
330
1F
100
AcDbEntity
  8
0
  6
Continuous
 62
     7
370
    25
100
AcDbLine
 10
36.2714240333
 20
38.8385695918
 30
0.0
 11
36.1061840055
 21
38.9705368216
 31
0.0
  0
LINE
  5
3F6
330
1F
100
AcDbEntity
  8
0
  6
Continuous
 62
     7
370
    25
100
AcDbLine
 10
35.6964448519
 20
39.2997899856
 30
0.0
 11
33.0447944224
 21
40.8305551953
 31
0.0
  0
LINE
  5
3F7
330
1F
100
AcDbEntity
  8
0
  6
Continuous
 62
     7
370
    25
100
AcDbLine
 10
36.2973140427
 20
38.878606838
 30
0.0
 11
36.1320740149
 21
39.0105740678
 31
0.0
  0
ARC
  5
3F8
330
1F
100
AcDbEntity
  8
0
  6
Continuous
 62
     7
370
    25
100
AcDbCircle
 10
36.2503206924
 20
38.8289849329
 30
0.0
 40
0.0683425814435586
100
AcDbArc
 50
355.5985652268
 51
46.5584283192
  0
ARC
  5
3F9
330
1F
100
AcDbEntity
  8
0
  6
Continuous
 62
     7
370
    25
100
AcDbCircle
 10
36.2420072256
 20
38.8075073664
 30
0.0
 40
0.0427809586501192
100
AcDbArc
 50
355.5985652268
 51
46.5584283192
  0
ARC
  5
3FA
330
1F
100
AcDbEntity
  8
0
  6
Continuous
 62
     7
370
    25
100
AcDbCircle
 10
33.0600267103
 20
40.644425618
 30
0.0
 40
0.0427809586501257
100
AcDbArc
 50
355.5985652268
 51
46.5584283192
  0
LINE
  5
3FB
330
1F
100
AcDbEntity
  8
0
  6
Continuous
 62
     7
370
    25
100
AcDbLine
 10
36.2848374699
 20
36.6737657287
 30
0.0
 11
36.284662016
 21
38.8042241847
 31
0.0
  0
LINE
  5
3FC
330
1F
100
AcDbEntity
  8
0
  6
Continuous
 62
     7
370
    25
100
AcDbLine
 10
36.3186371739
 20
36.6932815942
 30
0.0
 11
36.31846172
 21
38.8237400501
 31
0.0
  0
LINE
  5
3FD
330
1F
100
AcDbEntity
  8
0
  6
Continuous
 62
     7
370
    25
100
AcDbLine
 10
33.1026815006
 20
40.6411424363
 30
0.0
 11
33.1028569546
 21
38.5106839803
 31
0.0
  0
LWPOLYLINE
  5
3FE
330
1F
100
AcDbEntity
  8
0
  6
Continuous
 62
     7
370
    25
100
AcDbPolyline
 90
        9
 70
   128
 43
0.0
 10
35.6708132949
 20
36.1214814937
 10
35.7258191064
 20
36.0980156367
 10
35.7852604314
 20
36.0882473412
 10
35.8468529729
 20
36.0925519971
 10
35.9082297643
 20
36.1107641791
 10
35.9670321297
 20
36.1421840031
 10
36.0210003273
 20
36.1856040229
 10
36.0680603895
 20
36.2393556316
 10
36.1064038245
 20
36.3013731849
  0
LINE
  5
3FF
330
1F
100
AcDbEntity
  8
0
  6
Continuous
 62
     7
370
    25
100
AcDbLine
 10
33.0191628654
 20
37.6522467033
 30
0.0
 11
35.6708132949
 21
36.1214814937
 31
0.0
  0
LWPOLYLINE
  5
400
330
1F
100
AcDbEntity
  8
0
  6
Continuous
 62
     7
370
    25
100
AcDbPolyline
 90
        9
 70
   128
 43
0.0
 10
32.9244233092
 20
38.1382914365
 10
32.896270018
 20
38.0703912383
 10
32.879388786
 20
37.9992177618
 10
32.8744283493
 20
37.9275061638
 10
32.8815793348
 20
37.8580122808
 10
32.9005669341
 20
37.7934067236
 10
32.9306614644
 20
37.7361722478
 10
32.9707064098
 20
37.6885083419
 10
33.0191628654
 20
37.6522467033
  0
LINE
  5
401
330
1F
100
AcDbEntity
  8
0
  6
Continuous
 62
     7
370
    25
100
AcDbLine
 10
33.0896258876
 20
38.4610554095
 30
0.0
 11
32.9244233092
 21
38.1382914365
 31
0.0
  0
LINE
  5
402
330
1F
100
AcDbEntity
  8
0
  6
Continuous
 62
     7
370
    25
100
AcDbLine
 10
36.1064038245
 20
36.3013731849
 30
0.0
 11
36.2716064029
 21
36.6241371579
 31
0.0
  0
LINE
  5
403
330
1F
100
AcDbEntity
  8
0
  6
Continuous
 62
     7
370
    25
100
AcDbLine
 10
36.132297966
 20
36.2912359792
 30
0.0
 11
36.2975005444
 21
36.6139999522
 31
0.0
  0
LWPOLYLINE
  5
404
330
1F
100
AcDbEntity
  8
0
  6
Continuous
 62
     7
370
    25
100
AcDbPolyline
 90
        9
 70
   128
 43
0.0
 10
35.7304280224
 20
36.0951180413
 10
35.7517132479
 20
36.0878784311
 10
35.8111545729
 20
36.0781101355
 10
35.8727471144
 20
36.0824147915
 10
35.9341239057
 20
36.1006269734
 10
35.9929262712
 20
36.1320467974
 10
36.0468944688
 20
36.1754668173
 10
36.093954531
 20
36.2292184259
 10
36.132297966
 20
36.2912359792
  0
ARC
  5
405
330
1F
100
AcDbEntity
  8
0
  6
Continuous
 62
     7
370
    25
100
AcDbCircle
 10
36.1728517996
 20
36.6770433128
 30
0.0
 40
0.1120336239788293
100
AcDbArc
 50
331.820551943
 51
358.3235521101
  0
ARC
  5
406
330
1F
100
AcDbEntity
  8
0
  6
Continuous
 62
     7
370
    25
100
AcDbCircle
 10
32.9908712843
 20
38.5139615644
 30
0.0
 40
0.1120336239791598
100
AcDbArc
 50
331.820551943
 51
358.32355211
  0
ARC
  5
407
330
1F
100
AcDbEntity
  8
0
  6
Continuous
 62
     7
370
    25
100
AcDbCircle
 10
36.1397400656
 20
36.6985175347
 30
0.0
 40
0.1789737143061105
100
AcDbArc
 50
331.820551943
 51
358.3235521101
  0
ARC
  5
408
330
1F
100
AcDbEntity
  8
0
  6
Continuous
 62
     7
370
    25
100
AcDbCircle
 10
32.818978153
 20
40.5355786707
 30
0.0
 40
0.3714890813999882
100
AcDbArc
 50
52.5645061628
 51
77.345506803
  0
LWPOLYLINE
  5
409
330
1F
100
AcDbEntity
  8
0
  6
Continuous
 62
     7
370
    25
100
AcDbPolyline
 90
        3
 70
   128
 43
0.0
 10
36.4397314444
 20
38.8542102456
 10
36.4251856228
 20
38.8550928597
 10
36.411371413
 20
38.8574415477
  0
LINE
  5
40A
330
1F
100
AcDbEntity
  8
0
  6
Continuous
 62
     7
370
    25
100
AcDbLine
 10
36.3883631675
 20
38.8655050904
 30
0.0
 11
36.3842243061
 21
38.8677311116
 31
0.0
  0
ARC
  5
40B
330
1F
100
AcDbEntity
  8
0
  6
Continuous
 62
     7
370
    25
100
AcDbCircle
 10
36.4409589968
 20
36.8866545644
 30
0.0
 40
0.1229515896294751
100
AcDbArc
 50
242.6103641893
 51
297.395927503
  0
LINE
  5
40C
330
1F
100
AcDbEntity
  8
0
  6
Continuous
 62
     7
370
    25
100
AcDbLine
 10
36.4227516533
 20
38.8640124703
 30
0.0
 11
36.4068517096
 21
38.8548318822
 31
0.0
  0
LINE
  5
40D
330
1F
100
AcDbEntity
  8
0
  6
Continuous
 62
     7
370
    25
100
AcDbLine
 10
36.4068501976
 20
38.8731921853
 30
0.0
 11
36.4068517096
 21
38.8548318822
 31
0.0
  0
LINE
  5
40E
330
1F
100
AcDbEntity
  8
0
  6
Continuous
 62
     7
370
    25
100
AcDbLine
 10
36.3840828713
 20
38.8679760528
 30
0.0
 11
36.4068517096
 21
38.8548318822
 31
0.0
  0
LINE
  5
40F
330
1F
100
AcDbEntity
  8
0
  6
Continuous
 62
     7
370
    25
100
AcDbLine
 10
36.3840828847
 20
38.8678127524
 30
0.0
 11
36.3840828713
 21
38.8679760528
 31
0.0
  0
LINE
  5
410
330
1F
100
AcDbEntity
  8
0
  6
Continuous
 62
     7
370
    25
100
AcDbLine
 10
36.3842243061
 20
38.8677311116
 30
0.0
 11
36.3840828847
 21
38.8678127524
 31
0.0
  0
LINE
  5
411
330
1F
100
AcDbEntity
  8
0
  6
Continuous
 62
     7
370
    25
100
AcDbLine
 10
36.3842550269
 20
36.777567659
 30
0.0
 11
36.3843964482
 21
36.7774860182
 31
0.0
  0
LINE
  5
412
330
1F
100
AcDbEntity
  8
0
  6
Continuous
 62
     7
370
    25
100
AcDbLine
 10
36.3842550403
 20
36.7774043586
 30
0.0
 11
36.3842550269
 21
36.777567659
 31
0.0
  0
LINE
  5
413
330
1F
100
AcDbEntity
  8
0
  6
Continuous
 62
     7
370
    25
100
AcDbLine
 10
36.4070238787
 20
36.764260188
 30
0.0
 11
36.3842550403
 21
36.7774043586
 31
0.0
  0
LINE
  5
414
330
1F
100
AcDbEntity
  8
0
  6
Continuous
 62
     7
370
    25
100
AcDbLine
 10
36.4070238787
 20
36.764260188
 30
0.0
 11
36.4070255161
 21
36.7443773724
 31
0.0
  0
LINE
  5
415
330
1F
100
AcDbEntity
  8
0
  6
Continuous
 62
     7
370
    25
100
AcDbLine
 10
36.3842243061
 20
38.8677311116
 30
0.0
 11
36.3840828847
 21
38.8678127524
 31
0.0
  0
LINE
  5
416
330
1F
100
AcDbEntity
  8
0
  6
Continuous
 62
     7
370
    25
100
AcDbLine
 10
38.237249939
 20
39.389263296
 30
0.0
 11
38.0918865614
 21
39.3456910931
 31
0.0
  0
LINE
  5
417
330
1F
100
AcDbEntity
  8
0
  6
Continuous
 62
     7
370
    25
100
AcDbLine
 10
38.2033088135
 20
39.4088570907
 30
0.0
 11
38.0579454359
 21
39.3652848878
 31
0.0
  0
LWPOLYLINE
  5
418
330
1F
100
AcDbEntity
  8
0
  6
Continuous
 62
     7
370
    25
100
AcDbPolyline
 90
       11
 70
   128
 43
0.0
 10
38.6208379379
 20
39.0403339631
 10
38.6196508091
 20
39.0885510775
 10
38.6098009971
 20
39.1632266344
 10
38.5903021983
 20
39.2299470601
 10
38.5615387375
 20
39.2873972833
 10
38.5240775475
 20
39.3344449503
 10
38.4786569948
 20
39.3701627435
 10
38.4261723264
 20
39.3938466588
 10
38.3676580241
 20
39.4050298823
 10
38.304267415
 20
39.4034919907
 10
38.237249939
 20
39.389263296
  0
LINE
  5
419
330
1F
100
AcDbEntity
  8
0
  6
Continuous
 62
     7
370
    25
100
AcDbLine
 10
36.497533533
 20
36.77749223
 30
0.0
 11
37.924106262
 21
37.9972989033
 31
0.0
  0
LINE
  5
41A
330
1F
100
AcDbEntity
  8
0
  6
Continuous
 62
     7
370
    25
100
AcDbLine
 10
36.3843964482
 20
36.7774860182
 30
0.0
 11
36.3842550403
 21
36.7774043586
 31
0.0
  0
LINE
  5
41B
330
1F
100
AcDbEntity
  8
0
  6
Continuous
 62
     7
370
    25
100
AcDbLine
 10
36.4119498684
 20
36.7671044423
 30
0.0
 11
36.4070238787
 21
36.764260188
 31
0.0
  0
ARC
  5
41C
330
1F
100
AcDbEntity
  8
0
  6
Continuous
 62
     7
370
    25
100
AcDbCircle
 10
36.4752731807
 20
36.7391242816
 30
0.0
 40
0.0684495338402275
100
AcDbArc
 50
175.5985652268
 51
226.5584283192
  0
ARC
  5
41D
330
1F
100
AcDbEntity
  8
0
  6
Continuous
 62
     7
370
    25
100
AcDbCircle
 10
36.4836214318
 20
36.7606917125
 30
0.0
 40
0.0427809586500456
100
AcDbArc
 50
175.5985652268
 51
226.5584283193
  0
LINE
  5
41E
330
1F
100
AcDbEntity
  8
0
  6
Continuous
 62
     7
370
    25
100
AcDbLine
 10
36.4542046241
 20
36.7296294871
 30
0.0
 11
36.6194109335
 21
36.5976891861
 31
0.0
  0
LINE
  5
41F
330
1F
100
AcDbEntity
  8
0
  6
Continuous
 62
     7
370
    25
100
AcDbLine
 10
36.4282062884
 20
36.689424721
 30
0.0
 11
36.5934125977
 21
36.5574844201
 31
0.0
  0
ARC
  5
420
330
1F
100
AcDbEntity
  8
0
  6
Continuous
 62
     7
370
    25
100
AcDbCircle
 10
36.546387644
 20
36.4604336226
 30
0.0
 40
0.1078434214572124
100
AcDbArc
 50
25.8275787744
 51
64.1479746801
  0
ARC
  5
421
330
1F
100
AcDbEntity
  8
0
  6
Continuous
 62
     7
370
    25
100
AcDbCircle
 10
38.3029542638
 20
39.1296357934
 30
0.0
 40
0.2964687987094664
100
AcDbArc
 50
62.4042436028
 51
109.6399115607
  0
LWPOLYLINE
  5
422
330
1F
100
AcDbEntity
  8
0
  6
Continuous
 62
     7
370
    25
100
AcDbPolyline
 90
        5
 70
   128
 43
0.0
 10
36.6194109335
 20
36.5976891861
 10
36.6475717616
 20
36.5740710298
 10
36.664460241
 20
36.5572431508
 10
36.6694273569
 20
36.5478522351
 10
36.6691436754
 20
36.5471376514
  0
LINE
  5
423
330
1F
100
AcDbEntity
  8
0
  6
Continuous
 62
     7
370
    25
100
AcDbLine
 10
34.8759649206
 20
41.2022031394
 30
0.0
 11
35.0213282982
 21
41.2457753423
 31
0.0
  0
LWPOLYLINE
  5
424
330
1F
100
AcDbEntity
  8
0
  6
Continuous
 62
     7
370
    25
100
AcDbPolyline
 90
       11
 70
   128
 43
0.0
 10
35.0213282982
 20
41.2457753423
 10
35.0883457742
 20
41.2600040369
 10
35.1517363833
 20
41.2615419286
 10
35.2102506855
 20
41.2503587051
 10
35.262735354
 20
41.2266747898
 10
35.3081559067
 20
41.1909569966
 10
35.3456170967
 20
41.1439093296
 10
35.3743805575
 20
41.0864591064
 10
35.3938793563
 20
41.0197386807
 10
35.4037291683
 20
40.9450631238
 10
35.4049162971
 20
40.8968460094
  0
LINE
  5
425
330
1F
100
AcDbEntity
  8
0
  6
Continuous
 62
     7
370
    25
100
AcDbLine
 10
34.8420237951
 20
41.2217969341
 30
0.0
 11
34.9873871727
 21
41.265369137
 31
0.0
  0
ARC
  5
426
330
1F
100
AcDbEntity
  8
0
  6
Continuous
 62
     7
370
    25
100
AcDbCircle
 10
35.087032623
 20
40.9861478397
 30
0.0
 40
0.2964687987094727
100
AcDbArc
 50
62.4042436028
 51
109.6399115607
  0
LINE
  5
427
330
1F
100
AcDbEntity
  8
0
  6
Continuous
 62
     7
370
    25
100
AcDbLine
 10
22.1577614725
 20
44.8361586129
 30
0.0
 11
22.3094620285
 21
44.6787839959
 31
0.0
  0
ARC
  5
428
330
1F
100
AcDbEntity
  8
0
  6
Continuous
 62
     7
370
    25
100
AcDbCircle
 10
22.1929279233
 20
44.5662557039
 30
0.0
 40
0.1619963400535083
100
AcDbArc
 50
8.2125315853
 51
43.9981210567
  0
LINE
  5
429
330
1F
100
AcDbEntity
  8
0
  6
Continuous
 62
     7
370
    25
100
AcDbLine
 10
22.3532629928
 20
44.5893961377
 30
0.0
 11
22.376766294
 21
44.3892193219
 31
0.0
  0
ARC
  5
42A
330
1F
100
AcDbEntity
  8
0
  6
Continuous
 62
     7
370
    25
100
AcDbCircle
 10
22.0987376594
 20
44.7917593304
 30
0.0
 40
0.073858694854056
100
AcDbArc
 50
36.9514584165
 51
98.526378573
  0
LINE
  5
42B
330
1F
100
AcDbEntity
  8
0
  6
Continuous
 62
     7
370
    25
100
AcDbLine
 10
21.959589765
 20
44.8219995184
 30
0.0
 11
22.0877870198
 21
44.8648017174
 31
0.0
  0
LINE
  5
42C
330
1F
100
AcDbEntity
  8
0
  6
Continuous
 62
     7
370
    25
100
AcDbLine
 10
22.1602357264
 20
44.2184074804
 30
0.0
 11
22.1594538944
 21
44.2177397239
 31
0.0
  0
ARC
  5
42D
330
1F
100
AcDbEntity
  8
0
  6
Continuous
 62
     7
370
    25
100
AcDbCircle
 10
22.3235467853
 20
44.3751392197
 30
0.0
 40
0.0550505712338566
100
AcDbArc
 50
307.1444435428
 51
14.8190196979
  0
LINE
  5
42E
330
1F
100
AcDbEntity
  8
0
  6
Continuous
 62
     7
370
    25
100
AcDbLine
 10
21.7212180409
 20
44.6551031574
 30
0.0
 11
21.721098153
 21
44.6558403645
 31
0.0
  0
LINE
  5
42F
330
1F
100
AcDbEntity
  8
0
  6
Continuous
 62
     7
370
    25
100
AcDbLine
 10
21.9533947927
 20
44.8192165465
 30
0.0
 11
21.959589765
 21
44.8219995184
 31
0.0
  0
LINE
  5
430
330
1F
100
AcDbEntity
  8
0
  6
Continuous
 62
     7
370
    25
100
AcDbLine
 10
23.2735122059
 20
43.3727072913
 30
0.0
 11
23.2698016827
 21
43.3704464018
 31
0.0
  0
LWPOLYLINE
  5
431
330
1F
100
AcDbEntity
  8
0
  6
Continuous
 62
     7
370
    25
100
AcDbPolyline
 90
        3
 70
   128
 43
0.0
 10
22.9948240312
 20
43.8467732761
 10
22.9970114042
 20
43.8479964711
 10
22.9984522995
 20
43.8487601054
  0
LINE
  5
432
330
1F
100
AcDbEntity
  8
0
  6
Continuous
 62
     7
370
    25
100
AcDbLine
 10
23.6970946344
 20
43.766168209
 30
0.0
 11
23.6884007427
 21
43.5828824959
 31
0.0
  0
LINE
  5
433
330
1F
100
AcDbEntity
  8
0
  6
Continuous
 62
     7
370
    25
100
AcDbLine
 10
23.5281757991
 20
44.0393174464
 30
0.0
 11
23.6650496456
 21
43.8574551992
 31
0.0
  0
ARC
  5
434
330
1F
100
AcDbEntity
  8
0
  6
Continuous
 62
     7
370
    25
100
AcDbCircle
 10
23.5481717216
 20
43.7651589182
 30
0.0
 40
0.1489263328293247
100
AcDbArc
 50
0.3883030567
 51
38.2974815171
  0
ARC
  5
435
330
1F
100
AcDbEntity
  8
0
  6
Continuous
 62
     7
370
    25
100
AcDbCircle
 10
23.4450602487
 20
43.9870345482
 30
0.0
 40
0.0981921390781736
100
AcDbArc
 50
32.1714818246
 51
82.6832876461
  0
LINE
  5
436
330
1F
100
AcDbEntity
  8
0
  6
Continuous
 62
     7
370
    25
100
AcDbLine
 10
23.3119976648
 20
44.0830036759
 30
0.0
 11
23.457565403
 21
44.0844271418
 31
0.0
  0
ARC
  5
437
330
1F
100
AcDbEntity
  8
0
  6
Continuous
 62
     7
370
    25
100
AcDbCircle
 10
23.6404973045
 20
43.5808123785
 30
0.0
 40
0.0479481468476351
100
AcDbArc
 50
304.6899435052
 51
2.474461967
  0
ARC
  5
438
330
1F
100
AcDbEntity
  8
0
  6
Continuous
 62
     7
370
    25
100
AcDbCircle
 10
23.311771209
 20
44.0471193338
 30
0.0
 40
0.0358850565900054
100
AcDbArc
 50
89.6384275165
 51
119.5988252391
  0
LINE
  5
439
330
1F
100
AcDbEntity
  8
0
  6
Continuous
 62
     7
370
    25
100
AcDbLine
 10
32.7973576963
 20
42.1882378919
 30
0.0
 11
32.825330036
 21
42.1720898039
 31
0.0
  0
LINE
  5
43A
330
1F
100
AcDbEntity
  8
0
  6
Continuous
 62
     7
370
    25
100
AcDbLine
 10
32.825330036
 20
42.1720898039
 30
0.0
 11
32.8281584631
 21
42.1737226201
 31
0.0
  0
LINE
  5
43B
330
1F
100
AcDbEntity
  8
0
  6
Continuous
 62
     7
370
    25
100
AcDbLine
 10
32.905935734
 20
42.210631137
 30
0.0
 11
32.8779633943
 21
42.226779225
 31
0.0
  0
ARC
  5
43C
330
1F
100
AcDbEntity
  8
0
  6
Continuous
 62
     7
370
    25
100
AcDbCircle
 10
33.0573323353
 20
41.7483910527
 30
0.0
 40
0.5109094444426594
100
AcDbArc
 50
110.5532496214
 51
120.2192797573
  0
ARC
  5
43D
330
1F
100
AcDbEntity
  8
0
  6
Continuous
 62
     7
370
    25
100
AcDbCircle
 10
33.085304675
 20
41.7322429647
 30
0.0
 40
0.5109094444448574
100
AcDbArc
 50
110.5532496214
 51
120.2192797573
  0
LINE
  5
43E
330
1F
100
AcDbEntity
  8
0
  6
Continuous
 62
     7
370
    25
100
AcDbLine
 10
32.8779633943
 20
42.1992128075
 30
0.0
 11
32.8779633943
 21
42.226779225
 31
0.0
  0
LINE
  5
43F
330
1F
100
AcDbEntity
  8
0
  6
Continuous
 62
     7
370
    25
100
AcDbLine
 10
32.8001861234
 20
42.1898707081
 30
0.0
 11
32.7973576963
 21
42.1882378919
 31
0.0
  0
ARC
  5
440
330
1F
100
AcDbEntity
  8
0
  6
Continuous
 62
     7
370
    25
100
AcDbCircle
 10
25.0676126165
 20
45.791607979
 30
0.0
 40
0.3623954927337913
100
AcDbArc
 50
237.9621541619
 51
267.1307924554
  0
LINE
  5
441
330
1F
100
AcDbEntity
  8
0
  6
Continuous
 62
     7
370
    25
100
AcDbLine
 10
24.8753693043
 20
45.4844060876
 30
0.0
 11
24.924866779
 21
45.5129803715
 31
0.0
  0
ARC
  5
442
330
1F
100
AcDbEntity
  8
0
  6
Continuous
 62
     7
370
    25
100
AcDbCircle
 10
24.9285463998
 20
42.5833760453
 30
0.0
 40
0.1640991010778631
100
AcDbArc
 50
251.0916819754
 51
322.7773819112
  0
ARC
  5
443
330
1F
100
AcDbEntity
  8
0
  6
Continuous
 62
     7
370
    25
100
AcDbCircle
 10
24.9690013196
 20
42.6608853346
 30
0.0
 40
0.2508805809277153
100
AcDbArc
 50
239.839570819
 51
248.0860618819
  0
LINE
  5
444
330
1F
100
AcDbEntity
  8
0
  6
Continuous
 62
     7
370
    25
100
AcDbLine
 10
24.8429531648
 20
42.4439684644
 30
0.0
 11
24.7148178332
 21
42.5179394168
 31
0.0
  0
LINE
  5
445
330
1F
100
AcDbEntity
  8
0
  6
Continuous
 62
     7
370
    25
100
AcDbLine
 10
24.044384802
 20
45.9670002121
 30
0.0
 11
24.8429531593
 21
45.5059965122
 31
0.0
  0
ARC
  5
446
330
1F
100
AcDbEntity
  8
0
  6
Continuous
 62
     7
370
    25
100
AcDbCircle
 10
24.684569947
 20
45.2330676678
 30
0.0
 40
0.3155556939648643
100
AcDbArc
 50
52.7966572325
 51
59.872997635
  0
ARC
  5
447
330
1F
100
AcDbEntity
  8
0
  6
Continuous
 62
     7
370
    25
100
AcDbCircle
 10
25.9904438455
 20
41.9384980256
 30
0.0
 40
1.079036094107044
100
AcDbArc
 50
148.7848704668
 51
148.9199068524
  0
ARC
  5
448
330
1F
100
AcDbEntity
  8
0
  6
Continuous
 62
     7
370
    25
100
AcDbCircle
 10
24.6227011162
 20
42.7629192982
 30
0.0
 40
0.5179581477442871
100
AcDbArc
 50
327.4330437821
 51
328.9204649912
  0
ARC
  5
449
330
1F
100
AcDbEntity
  8
0
  6
Continuous
 62
     7
370
    25
100
AcDbCircle
 10
25.7161434569
 20
42.9345687702
 30
0.0
 40
0.1009475408374401
100
AcDbArc
 50
243.2364739286
 51
247.6617460078
  0
ARC
  5
44A
330
1F
100
AcDbEntity
  8
0
  6
Continuous
 62
     7
370
    25
100
AcDbCircle
 10
25.5766934132
 20
42.6581073096
 30
0.0
 40
0.208692983041576
100
AcDbArc
 50
63.2315370461
 51
63.6353093776
  0
LWPOLYLINE
  5
44B
330
1F
100
AcDbEntity
  8
0
  6
Continuous
 62
     7
370
    25
100
AcDbPolyline
 90
       11
 70
   128
 43
0.0
 10
25.6693704399
 20
42.8450932179
 10
25.6177011536
 20
42.8629222974
 10
25.5604523223
 20
42.8680940421
 10
25.4989057134
 20
42.8604926595
 10
25.4344393193
 20
42.8402883402
 10
25.3684965045
 20
42.807933447
 10
25.3025536896
 20
42.7641523868
 10
25.2380872955
 20
42.7099253917
 10
25.1765406866
 20
42.6464665723
 10
25.1192918553
 20
42.5751967339
 10
25.0676225691
 20
42.4977115663
  0
LWPOLYLINE
  5
44C
330
1F
100
AcDbEntity
  8
0
  6
Continuous
 62
     7
370
    25
100
AcDbPolyline
 90
        4
 70
   128
 43
0.0
 10
25.7152578095
 20
42.8561490097
 10
25.7157918841
 20
42.8547471505
 10
25.705580124
 20
42.8434007558
 10
25.6777759415
 20
42.8411967199
  0
ARC
  5
44D
330
1F
100
AcDbEntity
  8
0
  6
Continuous
 62
     7
370
    25
100
AcDbCircle
 10
19.6071531175
 20
49.3961219653
 30
0.0
 40
0.5763018028395793
100
AcDbArc
 50
122.60547834
 51
177.3945215143
  0
ARC
  5
44E
330
1F
100
AcDbEntity
  8
0
  6
Continuous
 62
     7
370
    25
100
AcDbCircle
 10
19.6920059312
 20
49.3471374786
 30
0.0
 40
0.5763018028395108
100
AcDbArc
 50
122.60547834
 51
177.3945215143
  0
LINE
  5
44F
330
1F
100
AcDbEntity
  8
0
  6
Continuous
 62
     7
370
    25
100
AcDbLine
 10
19.1162998932
 20
49.3733352982
 30
0.0
 11
19.1162998932
 21
41.0037919764
 31
0.0
  0
LINE
  5
450
330
1F
100
AcDbEntity
  8
0
  6
Continuous
 62
     7
370
    25
100
AcDbLine
 10
21.9447270179
 20
51.3123543263
 30
0.0
 11
19.3814649361
 21
49.8326146237
 31
0.0
  0
LWPOLYLINE
  5
451
330
1F
100
AcDbEntity
  8
0
  6
Continuous
 62
     7
370
    25
100
AcDbPolyline
 90
        9
 70
   128
 43
0.0
 10
22.2098920609
 20
51.1592280428
 10
22.2047969889
 20
51.2160239241
 10
22.1897075738
 20
51.2647545267
 10
22.1652036934
 20
51.3035471608
 10
22.1322270179
 20
51.3309110473
 10
22.0920448226
 20
51.3457946074
 10
22.0462012867
 20
51.3476258742
 10
21.9964581515
 20
51.3363344731
 10
21.9447270179
 20
51.3123543263
  0
LINE
  5
452
330
1F
100
AcDbEntity
  8
0
  6
Continuous
 62
     7
370
    25
100
AcDbLine
 10
22.2098920609
 20
50.0342073511
 30
0.0
 11
22.2098920609
 21
51.1592280428
 31
0.0
  0
LINE
  5
453
330
1F
100
AcDbEntity
  8
0
  6
Continuous
 62
     7
370
    25
100
AcDbLine
 10
19.3814649361
 20
40.8506656929
 30
0.0
 11
20.1736552848
 21
41.3079874468
 31
0.0
  0
LWPOLYLINE
  5
454
330
1F
100
AcDbEntity
  8
0
  6
Continuous
 62
     7
370
    25
100
AcDbPolyline
 90
        9
 70
   128
 43
0.0
 10
19.1162998932
 20
41.0037919764
 10
19.1213949651
 20
40.9469960951
 10
19.1364843802
 20
40.8982654925
 10
19.1609882607
 20
40.8594728584
 10
19.1939649361
 20
40.8321089719
 10
19.2341471314
 20
40.8172254118
 10
19.2799906674
 20
40.8153941451
 10
19.3297338025
 20
40.8266855462
 10
19.3814649361
 20
40.8506656929
  0
ARC
  5
455
330
1F
100
AcDbEntity
  8
0
  6
Continuous
 62
     7
370
    25
100
AcDbCircle
 10
20.5470555156
 20
50.2312028016
 30
0.0
 40
0.228578071005194
100
AcDbArc
 50
295.8240537412
 51
4.181322812
  0
LINE
  5
456
330
1F
100
AcDbEntity
  8
0
  6
Continuous
 62
     7
370
    25
100
AcDbLine
 10
19.4892987203
 20
41.3211872174
 30
0.0
 11
19.4892987203
 21
41.188091065
 31
0.0
  0
LWPOLYLINE
  5
457
330
1F
100
AcDbEntity
  8
0
  6
Continuous
 62
     7
370
    25
100
AcDbPolyline
 90
       11
 70
   128
 43
0.0
 10
19.4892987203
 20
41.188091065
 10
19.4948360433
 20
41.1509156956
 10
19.5109059808
 20
41.1237725675
 10
19.5359354952
 20
41.1093186392
 10
19.5674745233
 20
41.1089687619
 10
19.6024358053
 20
41.1227571841
 10
19.6373970872
 20
41.1493341989
 10
19.6689361153
 20
41.1860982629
 10
19.6939656297
 20
41.2294506534
 10
19.7100355672
 20
41.2751477364
 10
19.7155728902
 20
41.3187163629
  0
LINE
  5
458
330
1F
100
AcDbEntity
  8
0
  6
Continuous
 62
     7
370
    25
100
AcDbLine
 10
19.7155728902
 20
41.3187163629
 30
0.0
 11
19.7155728902
 21
41.4518125153
 31
0.0
  0
LWPOLYLINE
  5
459
330
1F
100
AcDbEntity
  8
0
  6
Continuous
 62
     7
370
    25
100
AcDbPolyline
 90
       11
 70
   128
 43
0.0
 10
19.7155728902
 20
41.4518125153
 10
19.7100355672
 20
41.4889878847
 10
19.6939656297
 20
41.5161310128
 10
19.6689361153
 20
41.5305849411
 10
19.6373970872
 20
41.5309348184
 10
19.6024358053
 20
41.5171463962
 10
19.5674745233
 20
41.4905693815
 10
19.5359354952
 20
41.4538053174
 10
19.5109059808
 20
41.4104529269
 10
19.4948360433
 20
41.3647558439
 10
19.4892987203
 20
41.3211872174
  0
LINE
  5
45A
330
1F
100
AcDbEntity
  8
0
  6
Continuous
 62
     7
370
    25
100
AcDbLine
 10
21.8368932338
 20
50.8418328019
 30
0.0
 11
21.8368932338
 21
50.9749289542
 31
0.0
  0
LWPOLYLINE
  5
45B
330
1F
100
AcDbEntity
  8
0
  6
Continuous
 62
     7
370
    25
100
AcDbPolyline
 90
       11
 70
   128
 43
0.0
 10
21.8368932338
 20
50.9749289542
 10
21.8313559107
 20
51.0121043236
 10
21.8152859733
 20
51.0392474517
 10
21.7902564589
 20
51.05370138
 10
21.7587174308
 20
51.0540512573
 10
21.7237561488
 20
51.0402628352
 10
21.6887948669
 20
51.0136858204
 10
21.6572558388
 20
50.9769217564
 10
21.6322263244
 20
50.9335693659
 10
21.6161563869
 20
50.8878722829
 10
21.6106190638
 20
50.8443036563
  0
LINE
  5
45C
330
1F
100
AcDbEntity
  8
0
  6
Continuous
 62
     7
370
    25
100
AcDbLine
 10
21.6106190638
 20
50.8443036563
 30
0.0
 11
21.6106190638
 21
50.711207504
 31
0.0
  0
LWPOLYLINE
  5
45D
330
1F
100
AcDbEntity
  8
0
  6
Continuous
 62
     7
370
    25
100
AcDbPolyline
 90
       11
 70
   128
 43
0.0
 10
21.6106190638
 20
50.711207504
 10
21.6161563869
 20
50.6740321345
 10
21.6322263244
 20
50.6468890064
 10
21.6572558388
 20
50.6324350781
 10
21.6887948669
 20
50.6320852009
 10
21.7237561488
 20
50.645873623
 10
21.7587174308
 20
50.6724506378
 10
21.7902564589
 20
50.7092147018
 10
21.8152859733
 20
50.7525670923
 10
21.8313559107
 20
50.7982641753
 10
21.8368932338
 20
50.8418328019
  0
LINE
  5
45E
330
1F
100
AcDbEntity
  8
0
  6
Continuous
 62
     7
370
    25
100
AcDbLine
 10
19.7155728902
 20
49.6172206341
 30
0.0
 11
19.7155728902
 21
49.7503167865
 31
0.0
  0
LWPOLYLINE
  5
45F
330
1F
100
AcDbEntity
  8
0
  6
Continuous
 62
     7
370
    25
100
AcDbPolyline
 90
       11
 70
   128
 43
0.0
 10
19.7155728902
 20
49.7503167865
 10
19.7100355672
 20
49.7874921559
 10
19.6939656297
 20
49.814635284
 10
19.6689361153
 20
49.8290892123
 10
19.6373970872
 20
49.8294390896
 10
19.6024358053
 20
49.8156506674
 10
19.5674745233
 20
49.7890736526
 10
19.5359354952
 20
49.7523095886
 10
19.5109059808
 20
49.7089571981
 10
19.4948360433
 20
49.6632601151
 10
19.4892987203
 20
49.6196914886
  0
LINE
  5
460
330
1F
100
AcDbEntity
  8
0
  6
Continuous
 62
     7
370
    25
100
AcDbLine
 10
19.4892987203
 20
49.6196914886
 30
0.0
 11
19.4892987203
 21
49.4865953362
 31
0.0
  0
LWPOLYLINE
  5
461
330
1F
100
AcDbEntity
  8
0
  6
Continuous
 62
     7
370
    25
100
AcDbPolyline
 90
       11
 70
   128
 43
0.0
 10
19.4892987203
 20
49.4865953362
 10
19.4948360433
 20
49.4494199668
 10
19.5109059808
 20
49.4222768387
 10
19.5359354952
 20
49.4078229104
 10
19.5674745233
 20
49.4074730331
 10
19.6024358053
 20
49.4212614553
 10
19.6373970872
 20
49.4478384701
 10
19.6689361153
 20
49.4846025341
 10
19.6939656297
 20
49.5279549246
 10
19.7100355672
 20
49.5736520076
 10
19.7155728902
 20
49.6172206341
  0
LINE
  5
462
330
1F
100
AcDbEntity
  8
0
  6
Continuous
 62
     7
370
    25
100
AcDbLine
 10
19.0314470794
 20
49.4223197849
 30
0.0
 11
19.0314470794
 21
41.0527764631
 31
0.0
  0
LINE
  5
463
330
1F
100
AcDbEntity
  8
0
  6
Continuous
 62
     7
370
    25
100
AcDbLine
 10
21.8598742042
 20
51.361338813
 30
0.0
 11
19.2966121224
 21
49.8815991104
 31
0.0
  0
LINE
  5
464
330
1F
100
AcDbEntity
  8
0
  6
Continuous
 62
     7
370
    25
100
AcDbLine
 10
19.6307200765
 20
49.7993012732
 30
0.0
 11
19.6278293425
 21
49.8269766992
 31
0.0
  0
ARC
  5
465
330
1F
100
AcDbEntity
  8
0
  6
Continuous
 62
     7
370
    25
100
AcDbCircle
 10
19.4019063416
 20
49.6691902019
 30
0.0
 40
0.2288332055808045
100
AcDbArc
 50
293.237086399
 51
359.2525673995
  0
LINE
  5
466
330
1F
100
AcDbEntity
  8
0
  6
Continuous
 62
     7
370
    25
100
AcDbLine
 10
19.6307200765
 20
49.6662051208
 30
0.0
 11
19.6307200765
 21
49.7993012732
 31
0.0
  0
LINE
  5
467
330
1F
100
AcDbEntity
  8
0
  6
Continuous
 62
     7
370
    25
100
AcDbLine
 10
21.7520404201
 20
51.0239134409
 30
0.0
 11
21.7491496861
 21
51.0515888669
 31
0.0
  0
ARC
  5
468
330
1F
100
AcDbEntity
  8
0
  6
Continuous
 62
     7
370
    25
100
AcDbCircle
 10
21.9697192248
 20
51.2080083146
 30
0.0
 40
0.1886164634631563
100
AcDbArc
 50
65.6928809539
 51
125.6175774752
  0
ARC
  5
469
330
1F
100
AcDbEntity
  8
0
  6
Continuous
 62
     7
370
    25
100
AcDbCircle
 10
21.5232266852
 20
50.8938023696
 30
0.0
 40
0.2288332055809687
100
AcDbArc
 50
293.2370863992
 51
359.2525673994
  0
LINE
  5
46A
330
1F
100
AcDbEntity
  8
0
  6
Continuous
 62
     7
370
    25
100
AcDbLine
 10
21.7520404201
 20
50.8908172886
 30
0.0
 11
21.7520404201
 21
51.0239134409
 31
0.0
  0
ARC
  5
46B
330
1F
100
AcDbEntity
  8
0
  6
Continuous
 62
     7
370
    25
100
AcDbCircle
 10
19.2098291629
 20
41.0300649524
 30
0.0
 40
0.1798220799169428
100
AcDbArc
 50
172.7441704404
 51
235.9436491662
  0
LINE
  5
46C
330
1F
100
AcDbEntity
  8
0
  6
Continuous
 62
     7
370
    25
100
AcDbLine
 10
19.6307200765
 20
41.500797002
 30
0.0
 11
19.6278293425
 21
41.528472428
 31
0.0
  0
ARC
  5
46D
330
1F
100
AcDbEntity
  8
0
  6
Continuous
 62
     7
370
    25
100
AcDbCircle
 10
19.4019063416
 20
41.3706859307
 30
0.0
 40
0.2288332055810045
100
AcDbArc
 50
293.2370863992
 51
359.2525673994
  0
LINE
  5
46E
330
1F
100
AcDbEntity
  8
0
  6
Continuous
 62
     7
370
    25
100
AcDbLine
 10
19.6307200765
 20
41.3677008496
 30
0.0
 11
19.6307200765
 21
41.500797002
 31
0.0
  0
LWPOLYLINE
  5
46F
330
1F
100
AcDbEntity
  8
0
  6
Continuous
 62
     7
370
    25
100
AcDbPolyline
 90
        8
 70
   128
 43
0.0
 10
24.4154637816
 20
39.8872854548
 10
24.4670954317
 20
39.8917768296
 10
24.513053132
 20
39.9090033326
 10
24.5519431182
 20
39.9386521645
 10
24.582767466
 20
39.9797148453
 10
24.604531543
 20
40.0311790299
 10
24.616747309
 20
40.0914492074
 10
24.6193584178
 20
40.1394685319
  0
LWPOLYLINE
  5
470
330
1F
100
AcDbEntity
  8
0
  6
Continuous
 62
     7
370
    25
100
AcDbPolyline
 90
        9
 70
   128
 43
0.0
 10
20.2225684524
 20
41.1998842627
 10
21.053958058
 20
40.8412347756
 10
21.8823249705
 20
40.5153514422
 10
22.5252161627
 20
40.2908001181
 10
23.1631597949
 20
40.1010307624
 10
23.4815968213
 20
40.0224288865
 10
23.7966785786
 20
39.9583764854
 10
24.109338988
 20
39.911627407
 10
24.4154637816
 20
39.8872854548
  0
LWPOLYLINE
  5
471
330
1F
100
AcDbEntity
  8
0
  6
Continuous
 62
     7
370
    25
100
AcDbPolyline
 90
       13
 70
   128
 43
0.0
 10
24.2937337817
 20
45.2903024224
 10
24.0324149328
 20
45.7738028509
 10
23.7478923162
 20
46.244396798
 10
23.4360546375
 20
46.7115761338
 10
23.1075139681
 20
47.1625341416
 10
22.8198095831
 20
47.5301086659
 10
22.5240871526
 20
47.8862484999
 10
22.2192770488
 20
48.2340273075
 10
21.908822787
 20
48.5710638711
 10
21.4967679667
 20
48.9956406524
 10
21.0783627562
 20
49.4040985356
 10
20.6524924672
 20
49.799911359
 10
20.2225684524
 20
50.1818331935
  0
ARC
  5
472
330
1F
100
AcDbEntity
  8
0
  6
Continuous
 62
     7
370
    25
100
AcDbCircle
 10
21.8271448959
 20
43.9792363549
 30
0.0
 40
2.793376982260163
100
AcDbArc
 50
1.6537266893
 51
27.9919860207
  0
LINE
  5
473
330
1F
100
AcDbEntity
  8
0
  6
Continuous
 62
     7
370
    25
100
AcDbLine
 10
24.6193584178
 20
40.1394685319
 30
0.0
 11
24.6193584178
 21
44.0598503327
 31
0.0
  0
LINE
  5
474
330
1F
100
AcDbEntity
  8
0
  6
Continuous
 62
     7
370
    25
100
AcDbLine
 10
20.2225684524
 20
50.1818331935
 30
0.0
 11
20.3180278678
 21
50.236940741
 31
0.0
  0
LWPOLYLINE
  5
475
330
1F
100
AcDbEntity
  8
0
  6
Continuous
 62
     7
370
    25
100
AcDbPolyline
 90
       13
 70
   128
 43
0.0
 10
24.3891931972
 20
45.34540997
 10
24.1278743483
 20
45.8289103984
 10
23.8433517316
 20
46.2995043456
 10
23.531514053
 20
46.7666836813
 10
23.2029733836
 20
47.2176416892
 10
22.9152689985
 20
47.5852162135
 10
22.6195465681
 20
47.9413560474
 10
22.3147364643
 20
48.2891348551
 10
22.0042822024
 20
48.6261714187
 10
21.5922273822
 20
49.0507481999
 10
21.1738221716
 20
49.4592060831
 10
20.7479518827
 20
49.8550189065
 10
20.3180278678
 20
50.236940741
  0
LWPOLYLINE
  5
476
330
1F
100
AcDbEntity
  8
0
  6
Continuous
 62
     7
370
    25
100
AcDbPolyline
 90
        8
 70
   128
 43
0.0
 10
25.4372330804
 20
40.4771403156
 10
25.4888647306
 20
40.4816316904
 10
25.5348224308
 20
40.4988581934
 10
25.573712417
 20
40.5285070252
 10
25.6045367648
 20
40.5695697061
 10
25.6263008418
 20
40.6210338907
 10
25.6385166078
 20
40.6813040682
 10
25.6411277166
 20
40.7293233927
  0
ARC
  5
477
330
1F
100
AcDbEntity
  8
0
  6
Continuous
 62
     7
370
    25
100
AcDbCircle
 10
25.6226082028
 20
44.8078237778
 30
0.0
 40
4.334649142210147
100
AcDbArc
 50
257.911254586
 51
267.5489475578
  0
LWPOLYLINE
  5
478
330
1F
100
AcDbEntity
  8
0
  6
Continuous
 62
     7
370
    25
100
AcDbPolyline
 90
       11
 70
   128
 43
0.0
 10
24.5500887265
 20
47.1632045827
 10
24.4578239363
 20
47.3014309945
 10
24.1292832669
 20
47.7523890024
 10
23.8415788819
 20
48.1199635267
 10
23.5458564514
 20
48.4761033607
 10
23.2410463477
 20
48.8238821683
 10
22.9305920858
 20
49.1609187319
 10
22.5185372655
 20
49.5854955132
 10
22.100132055
 20
49.9939533964
 10
21.674261766
 20
50.3897662198
 10
21.2443377512
 20
50.7716880543
  0
LINE
  5
479
330
1F
100
AcDbEntity
  8
0
  6
Continuous
 62
     7
370
    25
100
AcDbLine
 10
25.6411277166
 20
40.7293233927
 30
0.0
 11
25.6411277166
 21
41.4136778318
 31
0.0
  0
LINE
  5
47A
330
1F
100
AcDbEntity
  8
0
  6
Continuous
 62
     7
370
    25
100
AcDbLine
 10
21.2443377512
 20
50.7716880543
 30
0.0
 11
21.3397971666
 21
50.8267956018
 31
0.0
  0
LWPOLYLINE
  5
47B
330
1F
100
AcDbEntity
  8
0
  6
Continuous
 62
     7
370
    25
100
AcDbPolyline
 90
       11
 70
   128
 43
0.0
 10
21.3397971666
 20
50.8267956018
 10
21.7446704209
 20
50.4675881113
 10
22.1460013596
 20
50.0961274849
 10
22.5447570575
 20
49.709670525
 10
22.9379903474
 20
49.3088151206
 10
23.2260990083
 20
49.0007019216
 10
23.5097053897
 20
48.6835926103
 10
23.7895858517
 20
48.3551571456
 10
24.0630610889
 20
48.0168530678
 10
24.428568056
 20
47.5321240214
 10
24.7699010323
 20
47.0363096396
  0
ARC
  5
47C
330
1F
100
AcDbEntity
  8
0
  6
Continuous
 62
     7
370
    25
100
AcDbCircle
 10
21.9226043114
 20
44.0343439024
 30
0.0
 40
2.793376982260488
100
AcDbArc
 50
1.6537266893
 51
27.9919860207
  0
LINE
  5
47D
330
1F
100
AcDbEntity
  8
0
  6
Continuous
 62
     7
370
    25
100
AcDbLine
 10
24.7148178332
 20
40.1945760794
 30
0.0
 11
24.7148178332
 21
44.1149578803
 31
0.0
  0
LWPOLYLINE
  5
47E
330
1F
100
AcDbEntity
  8
0
  6
Continuous
 62
     7
370
    25
100
AcDbPolyline
 90
        3
 70
   128
 43
0.0
 10
25.736587132
 20
44.7048127411
 10
25.7311738698
 20
44.8506869805
 10
25.71585206
 20
44.9931749423
  0
LINE
  5
47F
330
1F
100
AcDbEntity
  8
0
  6
Continuous
 62
     7
370
    25
100
AcDbLine
 10
25.736587132
 20
40.7844309402
 30
0.0
 11
25.736587132
 21
41.3585702843
 31
0.0
  0
LINE
  5
480
330
1F
100
AcDbEntity
  8
0
  6
Continuous
 62
     7
370
    25
100
AcDbLine
 10
25.736587132
 20
42.8038199793
 30
0.0
 11
25.736587132
 21
44.7048127411
 31
0.0
  0
ARC
  5
481
330
1F
100
AcDbEntity
  8
0
  6
Continuous
 62
     7
370
    25
100
AcDbCircle
 10
20.2484412658
 20
50.2500032708
 30
0.0
 40
0.0729147579113462
100
AcDbArc
 50
110.7834207995
 51
249.2165792005
  0
ARC
  5
482
330
1F
100
AcDbEntity
  8
0
  6
Continuous
 62
     7
370
    25
100
AcDbCircle
 10
20.2572316142
 20
41.276388705
 30
0.0
 40
0.0839908595085292
100
AcDbArc
 50
185.6947992512
 51
245.6253417064
  0
ARC
  5
483
330
1F
100
AcDbEntity
  8
0
  6
Continuous
 62
     7
370
    25
100
AcDbCircle
 10
21.2217103342
 20
50.5988888506
 30
0.0
 40
0.2566826586212465
100
AcDbArc
 50
62.6096722366
 51
117.3903277634
  0
ARC
  5
484
330
1F
100
AcDbEntity
  8
0
  6
Continuous
 62
     7
370
    25
100
AcDbCircle
 10
21.2217103342
 20
50.7280172996
 30
0.0
 40
0.04918470105319
100
AcDbArc
 50
62.6096722366
 51
117.3903277634
  0
LINE
  5
485
330
1F
100
AcDbEntity
  8
0
  6
Continuous
 62
     7
370
    25
100
AcDbLine
 10
20.3180278678
 20
50.2630658006
 30
0.0
 11
21.1990829172
 21
50.7716880543
 31
0.0
  0
ARC
  5
486
330
1F
100
AcDbEntity
  8
0
  6
Continuous
 62
     7
370
    25
100
AcDbCircle
 10
20.3229855327
 20
50.2500032708
 30
0.0
 40
0.0139716901387087
100
AcDbArc
 50
110.7834207996
 51
249.2165792006
  0
LINE
  5
487
330
1F
100
AcDbEntity
  8
0
  6
Continuous
 62
     7
370
    25
100
AcDbLine
 10
21.1036235017
 20
50.8267956018
 30
0.0
 11
20.2225684524
 21
50.3181733482
 31
0.0
  0
LWPOLYLINE
  5
488
330
1F
100
AcDbEntity
  8
0
  6
Continuous
 62
     7
370
    25
100
AcDbPolyline
 90
       22
 70
   128
 43
0.0
 10
20.8716924775
 20
50.1744191705
 10
20.8666661142
 20
50.133008772
 10
20.8520336389
 20
50.0894745537
 10
20.8290952112
 20
50.0476847219
 10
20.799889011
 20
50.0113524865
 10
20.7670101374
 20
49.9837061262
 10
20.7333800227
 20
49.9672021412
 10
20.70198685
 20
49.9633069832
 10
20.6756200406
 20
49.972366754
 10
20.6566224011
 20
49.9935764532
 10
20.6466819553
 20
50.025051506
 10
20.6466819553
 20
50.0639952158
 10
20.6566224011
 20
50.106947263
 10
20.6756200406
 20
50.1500911699
 10
20.70198685
 20
50.1895934108
 10
20.7333800227
 20
50.2219440385
 10
20.7670101374
 20
50.2442685576
 10
20.799889011
 20
50.2545833366
 10
20.8290952112
 20
50.2519718622
 10
20.8520336389
 20
50.2366661753
 10
20.8666661142
 20
50.2100262534
 10
20.8716924775
 20
50.1744191705
  0
ARC
  5
489
330
1F
100
AcDbEntity
  8
0
  6
Continuous
 62
     7
370
    25
100
AcDbCircle
 10
20.5450923984
 20
50.2323360852
 30
0.0
 40
0.2304568500941928
100
AcDbArc
 50
296.1406467958
 51
3.8647291742
  0
LWPOLYLINE
  5
48A
330
1F
100
AcDbEntity
  8
0
  6
Continuous
 62
     7
370
    25
100
AcDbPolyline
 90
        7
 70
   128
 43
0.0
 10
24.6073783291
 20
39.9634899981
 10
24.6085125475
 20
39.9641108802
 10
24.6474025337
 20
39.993759712
 10
24.6782268815
 20
40.0348223929
 10
24.6999909584
 20
40.0862865775
 10
24.7122067244
 20
40.1465567549
 10
24.7148178332
 20
40.1945760794
  0
LWPOLYLINE
  5
48B
330
1F
100
AcDbEntity
  8
0
  6
Continuous
 62
     7
370
    25
100
AcDbPolyline
 90
        7
 70
   128
 43
0.0
 10
25.6291476279
 20
40.5533448589
 10
25.6302818463
 20
40.5539657409
 10
25.6691718325
 20
40.5836145728
 10
25.6999961803
 20
40.6246772537
 10
25.7217602572
 20
40.6761414383
 10
25.7339760232
 20
40.7364116157
 10
25.736587132
 20
40.7844309402
  0
MTEXT
  5
48C
330
1F
100
AcDbEntity
  8
NOTES
100
AcDbMText
 10
19.470297573
 20
35.9840680658
 30
0.0
 40
0.5
 41
0.0
 71
     1
 72
     1
  1
grab bar in down position
  7
SLDTEXTSTYLE1
 73
     1
 44
1.0
  0
ARC
  5
48D
330
1F
100
AcDbEntity
  8
0
  6
Continuous
 62
     7
370
    25
100
AcDbCircle
 10
51.1336009371
 20
46.7956103073
 30
0.0
 40
0.1535289453198838
100
AcDbArc
 50
129.8374998689
 51
215.3199077045
  0
LWPOLYLINE
  5
48E
330
1F
100
AcDbEntity
  8
0
  6
Continuous
 62
     7
370
    25
100
AcDbPolyline
 90
        8
 70
   128
 43
0.0
 10
51.0083310267
 20
46.7068489046
 10
51.0212107946
 20
46.684636517
 10
51.0500932465
 20
46.6478554697
 10
51.0851057866
 20
46.618088824
 10
51.1210835857
 20
46.5997891045
 10
51.1565487092
 20
46.5925632737
 10
51.1902437035
 20
46.5960465808
 10
51.2125570478
 20
46.6063172109
  0
LINE
  5
48F
330
1F
100
AcDbEntity
  8
0
  6
Continuous
 62
     7
370
    25
100
AcDbLine
 10
51.0503616924
 20
46.9223008512
 30
0.0
 11
51.0362209017
 21
46.9141359853
 31
0.0
  0
LINE
  5
490
330
1F
100
AcDbEntity
  8
0
  6
Continuous
 62
     7
370
    25
100
AcDbLine
 10
51.2141533846
 20
46.6059734207
 30
0.0
 11
51.2282941753
 21
46.6141382865
 31
0.0
  0
LWPOLYLINE
  5
491
330
1F
100
AcDbEntity
  8
0
  6
Continuous
 62
     7
370
    25
100
AcDbPolyline
 90
       15
 70
   128
 43
0.0
 10
51.0519151764
 20
49.7649605835
 10
51.048851323
 20
49.7637892579
 10
51.0221910369
 20
49.7409285896
 10
51.0051106248
 20
49.7120715945
 10
50.9964442079
 20
49.6783762995
 10
50.9962076115
 20
49.6394395163
 10
51.0053376532
 20
49.5964732428
 10
51.0234780127
 20
49.5536546864
 10
51.0492489791
 20
49.5143633851
 10
51.0815088294
 20
49.4810089928
 10
51.1196670687
 20
49.456068426
 10
51.1555901448
 20
49.4443168538
 10
51.1901271776
 20
49.4434460371
 10
51.2220971539
 20
49.4531491022
 10
51.2272777434
 20
49.4570141694
  0
LINE
  5
492
330
1F
100
AcDbEntity
  8
0
  6
Continuous
 62
     7
370
    25
100
AcDbLine
 10
51.0637728211
 20
49.7724096522
 30
0.0
 11
51.0496320304
 21
49.7642447864
 31
0.0
  0
LINE
  5
493
330
1F
100
AcDbEntity
  8
0
  6
Continuous
 62
     7
370
    25
100
AcDbLine
 10
51.2275645132
 20
49.4560822217
 30
0.0
 11
51.241705304
 21
49.4642470876
 31
0.0
  0
LINE
  5
494
330
1F
100
AcDbEntity
  8
0
  6
Continuous
 62
     7
370
    25
100
AcDbLine
 10
51.0921585506
 20
46.8007573844
 30
0.0
 11
51.09215932
 21
46.7960868596
 31
0.0
  0
LINE
  5
495
330
1F
100
AcDbEntity
  8
0
  6
Continuous
 62
     7
370
    25
100
AcDbLine
 10
51.13988134
 20
46.7134367452
 30
0.0
 11
51.1438996585
 21
46.7113119028
 31
0.0
  0
LINE
  5
496
330
1F
100
AcDbEntity
  8
0
  6
Continuous
 62
     7
370
    25
100
AcDbLine
 10
51.1055696792
 20
49.6508661854
 30
0.0
 11
51.1055704487
 21
49.6461956606
 31
0.0
  0
LINE
  5
497
330
1F
100
AcDbEntity
  8
0
  6
Continuous
 62
     7
370
    25
100
AcDbLine
 10
51.1532924686
 20
49.5635455462
 30
0.0
 11
51.1573108009
 21
49.5614206972
 31
0.0
  0
LINE
  5
498
330
1F
100
AcDbEntity
  8
0
  6
Continuous
 62
     7
370
    25
100
AcDbLine
 10
49.5653847474
 20
50.4402696302
 30
0.0
 11
49.5612229122
 21
50.4126442706
 31
0.0
  0
LINE
  5
499
330
1F
100
AcDbEntity
  8
0
  6
Continuous
 62
     7
370
    25
100
AcDbLine
 10
52.2472747234
 20
45.5797714539
 30
0.0
 11
52.2945577509
 21
45.5820273691
 31
0.0
  0
LINE
  5
49A
330
1F
100
AcDbEntity
  8
0
  6
Continuous
 62
     7
370
    25
100
AcDbLine
 10
53.7771687555
 20
51.1275965158
 30
0.0
 11
53.7773526796
 21
51.1666837222
 31
0.0
  0
LINE
  5
49B
330
1F
100
AcDbEntity
  8
0
  6
Continuous
 62
     7
370
    25
100
AcDbLine
 10
50.4272181803
 20
51.0274809446
 30
0.0
 11
50.3801214136
 21
51.0252339161
 31
0.0
  0
LINE
  5
49C
330
1F
100
AcDbEntity
  8
0
  6
Continuous
 62
     7
370
    25
100
AcDbLine
 10
53.7597419518
 20
47.424083708
 30
0.0
 11
53.7599258758
 21
47.4631709145
 31
0.0
  0
ARC
  5
49D
330
1F
100
AcDbEntity
  8
0
  6
Continuous
 62
     7
370
    25
100
AcDbCircle
 10
49.5449615285
 20
35.6062549385
 30
0.0
 40
0.1391373220436699
100
AcDbArc
 50
57.812505698
 51
67.7137383033
  0
ARC
  5
49E
330
1F
100
AcDbEntity
  8
0
  6
Continuous
 62
     7
370
    25
100
AcDbCircle
 10
49.5215076029
 20
35.750633186
 30
0.0
 40
0.077806536558848
100
AcDbArc
 50
348.4081092525
 51
6.2773720809
  0
ARC
  5
49F
330
1F
100
AcDbEntity
  8
0
  6
Continuous
 62
     7
370
    25
100
AcDbCircle
 10
49.6625721973
 20
35.8973716592
 30
0.0
 40
0.1655918465109482
100
AcDbArc
 50
124.2853308054
 51
193.4115484209
  0
LWPOLYLINE
  5
4A0
330
1F
100
AcDbEntity
  8
0
  6
Continuous
 62
     7
370
    25
100
AcDbPolyline
 90
       12
 70
   128
 43
0.0
 10
49.5014961816
 20
35.858963629
 10
49.5060799371
 20
35.8302297421
 10
49.5215422872
 20
35.7761159809
 10
49.5451720092
 20
35.7231644895
 10
49.5758540794
 20
35.6735275624
 10
49.6123866727
 20
35.6292416815
 10
49.6535312482
 20
35.5922392581
 10
49.6982135101
 20
35.5643213452
 10
49.7453531861
 20
35.5475225813
 10
49.7862217274
 20
35.5438229154
 10
49.8238347238
 20
35.5507753988
 10
49.8466206478
 20
35.5629371686
  0
LWPOLYLINE
  5
4A1
330
1F
100
AcDbEntity
  8
0
  6
Continuous
 62
     7
370
    25
100
AcDbPolyline
 90
        4
 70
   128
 43
0.0
 10
49.88727949
 20
35.5844158075
 10
49.8884372881
 20
35.5852495103
 10
49.8958740552
 20
35.5878950678
 10
49.8952669495
 20
35.5879313847
  0
LWPOLYLINE
  5
4A2
330
1F
100
AcDbEntity
  8
0
  6
Continuous
 62
     7
370
    25
100
AcDbPolyline
 90
        4
 70
   128
 43
0.0
 10
49.6190420989
 20
36.0660966293
 10
49.6191488105
 20
36.0664110416
 10
49.6131871765
 20
36.0614829893
 10
49.6123535169
 20
36.0611410298
  0
LINE
  5
4A3
330
1F
100
AcDbEntity
  8
0
  6
Continuous
 62
     7
370
    25
100
AcDbLine
 10
49.6123535169
 20
36.0611410298
 30
0.0
 11
49.5712541128
 21
36.0372502708
 31
0.0
  0
LINE
  5
4A4
330
1F
100
AcDbEntity
  8
0
  6
Continuous
 62
     7
370
    25
100
AcDbLine
 10
49.8462317643
 20
35.5609233965
 30
0.0
 11
49.88727949
 21
35.5844158075
 31
0.0
  0
ARC
  5
4A5
330
1F
100
AcDbEntity
  8
0
  6
Continuous
 62
     7
370
    25
100
AcDbCircle
 10
49.7695451374
 20
36.0988415869
 30
0.0
 40
0.1000000000000019
100
AcDbArc
 50
119.9973117336
 51
139.7694644413
  0
ARC
  5
4A6
330
1F
100
AcDbEntity
  8
0
  6
Continuous
 62
     7
370
    25
100
AcDbCircle
 10
50.0027388051
 20
35.8542370173
 30
0.0
 40
0.4375081741370931
100
AcDbArc
 50
135.0322093607
 51
150.6477001399
  0
LINE
  5
4A7
330
1F
100
AcDbEntity
  8
0
  6
Continuous
 62
     7
370
    25
100
AcDbLine
 10
49.906892826
 20
36.2935976459
 30
0.0
 11
49.7195492008
 21
36.1854464731
 31
0.0
  0
ARC
  5
4A8
330
1F
100
AcDbEntity
  8
0
  6
Continuous
 62
     7
370
    25
100
AcDbCircle
 10
49.9702064187
 20
35.685371598
 30
0.0
 40
0.1000000000000043
100
AcDbArc
 50
269.3859153409
 51
300.1657313992
  0
LWPOLYLINE
  5
4A9
330
1F
100
AcDbEntity
  8
0
  6
Continuous
 62
     7
370
    25
100
AcDbPolyline
 90
        3
 70
   128
 43
0.0
 10
49.8952669495
 20
35.5879313847
 10
49.9422834787
 20
35.5858413355
 10
49.9691346593
 20
35.5853773415
  0
LINE
  5
4AA
330
1F
100
AcDbEntity
  8
0
  6
Continuous
 62
     7
370
    25
100
AcDbLine
 10
50.0204567121
 20
35.5989140477
 30
0.0
 11
50.2078003373
 21
35.7070652204
 31
0.0
  0
ARC
  5
4AB
330
1F
100
AcDbEntity
  8
0
  6
Continuous
 62
     7
370
    25
100
AcDbCircle
 10
50.8707867432
 20
34.8408723337
 30
0.0
 40
0.1391373220430185
100
AcDbArc
 50
57.812505698
 51
67.7137383033
  0
ARC
  5
4AC
330
1F
100
AcDbEntity
  8
0
  6
Continuous
 62
     7
370
    25
100
AcDbCircle
 10
50.8473328176
 20
34.9852505812
 30
0.0
 40
0.0778065365590138
100
AcDbArc
 50
348.4081092526
 51
6.2773720809
  0
LWPOLYLINE
  5
4AD
330
1F
100
AcDbEntity
  8
0
  6
Continuous
 62
     7
370
    25
100
AcDbPolyline
 90
       17
 70
   128
 43
0.0
 10
50.8979898162
 20
35.2716070954
 10
50.893719439
 20
35.2698572479
 10
50.8637778694
 20
35.2440519882
 10
50.8425962186
 20
35.2107240765
 10
50.8297164272
 20
35.1705573291
 10
50.8254759199
 20
35.1236598335
 10
50.8305877148
 20
35.0716323412
 10
50.8449278088
 20
35.0175912625
 10
50.8675788757
 20
34.9643709026
 10
50.897429725
 20
34.9141978903
 10
50.9332924522
 20
34.8691171278
 10
50.9739140514
 20
34.8310905084
 10
51.0182021545
 20
34.8019149656
 10
51.0651083151
 20
34.7835736201
 10
51.1063565464
 20
34.7783052263
 10
51.1444991191
 20
34.7837568933
 10
51.1700088521
 20
34.7960381825
  0
LWPOLYLINE
  5
4AE
330
1F
100
AcDbEntity
  8
0
  6
Continuous
 62
     7
370
    25
100
AcDbPolyline
 90
        3
 70
   128
 43
0.0
 10
50.9448758176
 20
35.3008599083
 10
50.944283135
 20
35.3002817979
 10
50.9378748283
 20
35.2955747524
  0
LWPOLYLINE
  5
4AF
330
1F
100
AcDbEntity
  8
0
  6
Continuous
 62
     7
370
    25
100
AcDbPolyline
 90
        3
 70
   128
 43
0.0
 10
51.2128004327
 20
34.8188593816
 10
51.2214591178
 20
34.8224712525
 10
51.2209934499
 20
34.8225194757
  0
LINE
  5
4B0
330
1F
100
AcDbEntity
  8
0
  6
Continuous
 62
     7
370
    25
100
AcDbLine
 10
50.9378748283
 20
35.2955747524
 30
0.0
 11
50.8970793275
 21
35.2718676659
 31
0.0
  0
LINE
  5
4B1
330
1F
100
AcDbEntity
  8
0
  6
Continuous
 62
     7
370
    25
100
AcDbLine
 10
51.172056979
 20
34.7955407916
 30
0.0
 11
51.2128004327
 21
34.8188593816
 31
0.0
  0
ARC
  5
4B2
330
1F
100
AcDbEntity
  8
0
  6
Continuous
 62
     7
370
    25
100
AcDbCircle
 10
51.1226133454
 20
35.3376205471
 30
0.0
 40
0.0999999999999982
100
AcDbArc
 50
119.9973117337
 51
130.2158989186
  0
ARC
  5
4B3
330
1F
100
AcDbEntity
  8
0
  6
Continuous
 62
     7
370
    25
100
AcDbCircle
 10
51.3292686583
 20
35.03289072
 30
0.0
 40
0.4677523549329229
100
AcDbArc
 50
125.4394023672
 51
144.9954520198
  0
LINE
  5
4B4
330
1F
100
AcDbEntity
  8
0
  6
Continuous
 62
     7
370
    25
100
AcDbLine
 10
51.2599610339
 20
35.5323766062
 30
0.0
 11
51.0726174087
 21
35.4242254334
 31
0.0
  0
LWPOLYLINE
  5
4B5
330
1F
100
AcDbEntity
  8
0
  6
Continuous
 62
     7
370
    25
100
AcDbPolyline
 90
        3
 70
   128
 43
0.0
 10
51.2211622146
 20
34.820881536
 10
51.2527332809
 20
34.8152832819
 10
51.253603209
 20
34.8151635856
  0
ARC
  5
4B6
330
1F
100
AcDbEntity
  8
0
  6
Continuous
 62
     7
370
    25
100
AcDbCircle
 10
51.2690429969
 20
34.915974764
 30
0.0
 40
0.1000000000000037
100
AcDbArc
 50
261.4421769951
 51
299.9973117335
  0
LINE
  5
4B7
330
1F
100
AcDbEntity
  8
0
  6
Continuous
 62
     7
370
    25
100
AcDbLine
 10
51.3190389336
 20
34.8293698777
 30
0.0
 11
51.5063825588
 21
34.9375210505
 31
0.0
  0
LINE
  5
4B8
330
1F
100
AcDbEntity
  8
0
  6
Continuous
 62
     7
370
    25
100
AcDbLine
 10
53.4678766498
 20
31.9165410791
 30
0.0
 11
53.4681660284
 21
31.9780393066
 31
0.0
  0
LWPOLYLINE
  5
4B9
330
1F
100
AcDbEntity
  8
0
  6
Continuous
 62
     7
370
    25
100
AcDbPolyline
 90
       16
 70
   128
 43
0.0
 10
52.6146756004
 20
31.5755789591
 10
52.6151783671
 20
31.575419056
 10
52.6974947481
 20
31.5577655609
 10
52.7829419724
 20
31.5473805688
 10
52.8698410524
 20
31.5444152657
 10
52.9565001492
 20
31.5489124212
 10
53.0412205691
 20
31.5608050532
 10
53.1223567998
 20
31.5799232955
 10
53.1983417718
 20
31.6060132827
 10
53.2676866627
 20
31.6387555899
 10
53.3289643398
 20
31.6777748073
 10
53.380741672
 20
31.7225879138
 10
53.4214879517
 20
31.7723653946
 10
53.4498486582
 20
31.8257680736
 10
53.4650428707
 20
31.8809284081
 10
53.4660397355
 20
31.9066964428
  0
LWPOLYLINE
  5
4BA
330
1F
100
AcDbEntity
  8
0
  6
Continuous
 62
     7
370
    25
100
AcDbPolyline
 90
       15
 70
   128
 43
0.0
 10
49.9268612326
 20
56.5350408688
 10
49.8833279712
 20
56.5106205486
 10
49.776006367
 20
56.43618515
 10
49.6762296488
 20
56.3520556243
 10
49.5842567762
 20
56.2586549325
 10
49.5003022449
 20
56.1563138703
 10
49.4245784145
 20
56.045287791
 10
49.3573166388
 20
55.9257753211
 10
49.2987849176
 20
55.7979576474
 10
49.249294547
 20
55.6620579959
 10
49.2091881916
 20
55.5184123941
 10
49.1788059946
 20
55.3675321213
 10
49.1584355455
 20
55.2101323672
 10
49.1482618072
 20
55.0471097167
 10
49.1470502147
 20
54.9779641129
  0
LINE
  5
4BB
330
1F
100
AcDbEntity
  8
0
  6
Continuous
 62
     7
370
    25
100
AcDbLine
 10
49.9278696575
 20
56.5373293204
 30
0.0
 11
49.9250412304
 21
56.5356965041
 31
0.0
  0
LWPOLYLINE
  5
4BC
330
1F
100
AcDbEntity
  8
0
  6
Continuous
 62
     7
370
    25
100
AcDbPolyline
 90
       36
 70
   128
 43
0.0
 10
53.5806270296
 20
53.1152807529
 10
53.5794991148
 20
53.2084324968
 10
53.5695480052
 20
53.3798880594
 10
53.549638461
 20
53.5535550873
 10
53.5200449555
 20
53.7288295814
 10
53.4810861888
 20
53.9049195312
 10
53.4330971157
 20
54.0811002169
 10
53.3764182238
 20
54.256694133
 10
53.3113910714
 20
54.4310543959
 10
53.238357338
 20
54.6035527634
 10
53.1576593547
 20
54.7735720713
 10
53.069640879
 20
54.9405021036
 10
52.97464748
 20
55.103737781
 10
52.8730282396
 20
55.2626757574
 10
52.7651539444
 20
55.4166896607
 10
52.6513750981
 20
55.565192733
 10
52.5320389972
 20
55.7076031717
 10
52.4074884393
 20
55.8433420349
 10
52.2780615961
 20
55.9718294687
 10
52.144094324
 20
56.0924788692
 10
52.0059267313
 20
56.2046889111
 10
51.8639164102
 20
56.3078340637
 10
51.718461012
 20
56.4012555646
 10
51.5700319844
 20
56.4842570703
 10
51.4193091091
 20
56.5560724407
 10
51.2671307193
 20
56.6159652213
 10
51.1144733956
 20
56.6632968727
 10
50.9624497
 20
56.6975839162
 10
50.8122228528
 20
56.7185648845
 10
50.6649013787
 20
56.7262262619
 10
50.5214581472
 20
56.720776784
 10
50.3827007587
 20
56.7025873172
 10
50.2492870534
 20
56.672125205
 10
50.1217604354
 20
56.6299025187
 10
50.0005828619
 20
56.5764417758
 10
49.9285594195
 20
56.5360396679
  0
LWPOLYLINE
  5
4BD
330
1F
100
AcDbEntity
  8
0
  6
Continuous
 62
     7
370
    25
100
AcDbPolyline
 90
       32
 70
   128
 43
0.0
 10
50.5504064117
 20
55.4527672583
 10
50.5713530994
 20
55.4630152881
 10
50.596870471
 20
55.4700415041
 10
50.6288395146
 20
55.4742189733
 10
50.6678503427
 20
55.4746355836
 10
50.7196749263
 20
55.4694616963
 10
50.7788355047
 20
55.4574141683
 10
50.8448986794
 20
55.437670556
 10
50.9172861304
 20
55.4095126759
 10
50.9952199582
 20
55.3723970595
 10
51.0776927633
 20
55.3260366774
 10
51.1637783682
 20
55.2702653932
 10
51.2524967491
 20
55.205094542
 10
51.3428414826
 20
55.1307046762
 10
51.4338026039
 20
55.0474329549
 10
51.524385184
 20
54.9557583698
 10
51.6136242449
 20
54.8562862582
 10
51.700596631
 20
54.7497331089
 10
51.7844304853
 20
54.6369122801
 10
51.8643129779
 20
54.5187209338
 10
51.9394968934
 20
54.3961282502
 10
52.0093066251
 20
54.2701648157
 10
52.0731349152
 20
54.1419323948
 10
52.130457949
 20
54.0125860751
 10
52.1808600109
 20
53.8832837049
 10
52.2240243807
 20
53.7552049388
 10
52.2597419337
 20
53.6295408767
 10
52.2879209164
 20
53.5074820002
 10
52.3085977633
 20
53.3902035971
 10
52.3219485631
 20
53.2788477304
 10
52.3283003856
 20
53.1745007407
 10
52.3289840108
 20
53.1211613906
  0
LWPOLYLINE
  5
4BE
330
1F
100
AcDbEntity
  8
0
  6
Continuous
 62
     7
370
    25
100
AcDbPolyline
 90
       12
 70
   128
 43
0.0
 10
50.3986932335
 20
54.9720834752
 10
50.3997681468
 20
55.0213210553
 10
50.4061508036
 20
55.1080973928
 10
50.4175074863
 20
55.1852408096
 10
50.4328493033
 20
55.2522139302
 10
50.4510224618
 20
55.308666562
 10
50.4707995678
 20
55.3546671889
 10
50.4909833802
 20
55.3907102586
 10
50.5105837302
 20
55.4177651944
 10
50.5291891181
 20
55.4373724056
 10
50.547983106
 20
55.4518306986
 10
50.5515935441
 20
55.4535970818
  0
LINE
  5
4BF
330
1F
100
AcDbEntity
  8
0
  6
Continuous
 62
     7
370
    25
100
AcDbLine
 10
52.3289840108
 20
53.1211613906
 30
0.0
 11
52.310296768
 21
49.149782354
 31
0.0
  0
LINE
  5
4C0
330
1F
100
AcDbEntity
  8
0
  6
Continuous
 62
     7
370
    25
100
AcDbLine
 10
52.2935085344
 20
45.5819773101
 30
0.0
 11
52.252386412
 21
36.8427782628
 31
0.0
  0
LINE
  5
4C1
330
1F
100
AcDbEntity
  8
0
  6
Continuous
 62
     7
370
    25
100
AcDbLine
 10
53.4811658845
 20
31.9779781361
 30
0.0
 11
53.5806270296
 21
53.1152807529
 31
0.0
  0
LINE
  5
4C2
330
1F
100
AcDbEntity
  8
0
  6
Continuous
 62
     7
370
    25
100
AcDbLine
 10
49.1470502147
 20
54.9779641129
 30
0.0
 11
49.0807114819
 21
40.8797766299
 31
0.0
  0
LINE
  5
4C3
330
1F
100
AcDbEntity
  8
0
  6
Continuous
 62
     7
370
    25
100
AcDbLine
 10
50.3263107998
 20
39.5894996357
 30
0.0
 11
50.3609238965
 21
46.9454123104
 31
0.0
  0
LINE
  5
4C4
330
1F
100
AcDbEntity
  8
0
  6
Continuous
 62
     7
370
    25
100
AcDbLine
 10
50.3783508642
 20
50.648959954
 30
0.0
 11
50.3986932335
 21
54.9720834752
 31
0.0
  0
LINE
  5
4C5
330
1F
100
AcDbEntity
  8
0
  6
Continuous
 62
     7
370
    25
100
AcDbLine
 10
52.2545987391
 20
37.3129380123
 30
0.0
 11
51.852704888
 21
37.5474613068
 31
0.0
  0
LINE
  5
4C6
330
1F
100
AcDbEntity
  8
0
  6
Continuous
 62
     7
370
    25
100
AcDbLine
 10
47.0113826563
 20
32.3061790505
 30
0.0
 11
47.0962354701
 21
32.2571945638
 31
0.0
  0
LINE
  5
4C7
330
1F
100
AcDbEntity
  8
0
  6
Continuous
 62
     7
370
    25
100
AcDbLine
 10
48.0759105811
 20
41.6750976607
 30
0.0
 11
48.0759105811
 21
32.6931487299
 31
0.0
  0
LINE
  5
4C8
330
1F
100
AcDbEntity
  8
0
  6
Continuous
 62
     7
370
    25
100
AcDbLine
 10
52.4141742099
 20
31.3334768405
 30
0.0
 11
52.5096336254
 21
31.388584388
 31
0.0
  0
LINE
  5
4C9
330
1F
100
AcDbEntity
  8
0
  6
Continuous
 62
     7
370
    25
100
AcDbLine
 10
53.4679956699
 20
31.94183502
 30
0.0
 11
53.5314029242
 21
31.9784392488
 31
0.0
  0
LINE
  5
4CA
330
1F
100
AcDbEntity
  8
0
  6
Continuous
 62
     7
370
    25
100
AcDbLine
 10
51.2510242593
 20
46.8133406077
 30
0.0
 11
51.112980372
 21
46.9499133931
 31
0.0
  0
LINE
  5
4CB
330
1F
100
AcDbEntity
  8
0
  6
Continuous
 62
     7
370
    25
100
AcDbLine
 10
51.112980372
 20
46.9499133931
 30
0.0
 11
51.1174624237
 21
46.9612771143
 31
0.0
  0
LINE
  5
4CC
330
1F
100
AcDbEntity
  8
0
  6
Continuous
 62
     7
370
    25
100
AcDbLine
 10
51.1174624237
 20
46.9612771143
 30
0.0
 11
51.2616586848
 21
46.8186175196
 31
0.0
  0
LINE
  5
4CD
330
1F
100
AcDbEntity
  8
0
  6
Continuous
 62
     7
370
    25
100
AcDbLine
 10
51.2510242593
 20
46.8133406077
 30
0.0
 11
51.2616586848
 21
46.8186175196
 31
0.0
  0
LINE
  5
4CE
330
1F
100
AcDbEntity
  8
0
  6
Continuous
 62
     7
370
    25
100
AcDbLine
 10
51.3634723779
 20
46.8774045537
 30
0.0
 11
51.2192761168
 21
47.0200641485
 31
0.0
  0
LINE
  5
4CF
330
1F
100
AcDbEntity
  8
0
  6
Continuous
 62
     7
370
    25
100
AcDbLine
 10
51.3634723779
 20
46.8774045537
 30
0.0
 11
51.2616586848
 21
46.8186175196
 31
0.0
  0
LINE
  5
4D0
330
1F
100
AcDbEntity
  8
0
  6
Continuous
 62
     7
370
    25
100
AcDbLine
 10
51.2192761168
 20
47.0200641485
 30
0.0
 11
51.1174624237
 21
46.9612771143
 31
0.0
  0
LWPOLYLINE
  5
4D1
330
1F
100
AcDbEntity
  8
0
  6
Continuous
 62
     7
370
    25
100
AcDbPolyline
 90
        7
 70
   128
 43
0.0
 10
51.2352091015
 20
46.8069518895
 10
51.20837168
 20
46.8498217167
 10
51.1759407448
 20
46.8860806231
 10
51.1405436575
 20
46.9127911279
 10
51.1050480794
 20
46.9277893048
 10
51.0723296512
 20
46.9298600907
 10
51.0503616924
 20
46.9223008512
  0
LWPOLYLINE
  5
4D2
330
1F
100
AcDbEntity
  8
0
  6
Continuous
 62
     7
370
    25
100
AcDbPolyline
 90
        7
 70
   128
 43
0.0
 10
51.2282941753
 20
46.6141382865
 10
51.2336168422
 20
46.6176034149
 10
51.2532687414
 20
46.6408298079
 10
51.2636898339
 20
46.6743765616
 10
51.2640358649
 20
46.7155259177
 10
51.254278801
 20
46.7609442001
 10
51.2352091015
 20
46.8069518895
  0
LINE
  5
4D3
330
1F
100
AcDbEntity
  8
0
  6
Continuous
 62
     7
370
    25
100
AcDbLine
 10
51.2773718212
 20
46.6316467835
 30
0.0
 11
51.2510242593
 21
46.8133406077
 31
0.0
  0
LINE
  5
4D4
330
1F
100
AcDbEntity
  8
0
  6
Continuous
 62
     7
370
    25
100
AcDbLine
 10
51.1656754958
 20
46.5865257447
 30
0.0
 11
51.1889003887
 21
46.5959077122
 31
0.0
  0
LINE
  5
4D5
330
1F
100
AcDbEntity
  8
0
  6
Continuous
 62
     7
370
    25
100
AcDbLine
 10
51.2149348521
 20
46.6064246386
 30
0.0
 11
51.2773718212
 21
46.6316467835
 31
0.0
  0
LINE
  5
4D6
330
1F
100
AcDbEntity
  8
0
  6
Continuous
 62
     7
370
    25
100
AcDbLine
 10
51.1592868244
 20
46.5928463334
 30
0.0
 11
51.1656754958
 21
46.5865257447
 31
0.0
  0
LINE
  5
4D7
330
1F
100
AcDbEntity
  8
0
  6
Continuous
 62
     7
370
    25
100
AcDbLine
 10
51.0012840466
 20
46.9047923543
 30
0.0
 11
51.0043877223
 21
46.8833892843
 31
0.0
  0
LINE
  5
4D8
330
1F
100
AcDbEntity
  8
0
  6
Continuous
 62
     7
370
    25
100
AcDbLine
 10
51.112980372
 20
46.9499133931
 30
0.0
 11
51.0012840466
 21
46.9047923543
 31
0.0
  0
LINE
  5
4D9
330
1F
100
AcDbEntity
  8
0
  6
Continuous
 62
     7
370
    25
100
AcDbLine
 10
51.2616586848
 20
46.8186175196
 30
0.0
 11
51.2891805113
 21
46.6288259204
 31
0.0
  0
LINE
  5
4DA
330
1F
100
AcDbEntity
  8
0
  6
Continuous
 62
     7
370
    25
100
AcDbLine
 10
51.2891805113
 20
46.6288259204
 30
0.0
 11
51.2773718212
 21
46.6316467835
 31
0.0
  0
LINE
  5
4DB
330
1F
100
AcDbEntity
  8
0
  6
Continuous
 62
     7
370
    25
100
AcDbLine
 10
51.3909942044
 20
46.6876129546
 30
0.0
 11
51.3634723779
 21
46.8774045537
 31
0.0
  0
LINE
  5
4DC
330
1F
100
AcDbEntity
  8
0
  6
Continuous
 62
     7
370
    25
100
AcDbLine
 10
51.3909942044
 20
46.6876129546
 30
0.0
 11
51.2891805113
 21
46.6288259204
 31
0.0
  0
LWPOLYLINE
  5
4DD
330
1F
100
AcDbEntity
  8
0
  6
Continuous
 62
     7
370
    25
100
AcDbPolyline
 90
       17
 70
   128
 43
0.0
 10
51.0356113596
 20
46.7165119327
 10
51.0545338883
 20
46.6882763902
 10
51.077754313
 20
46.6672393648
 10
51.1017375345
 20
46.6566035528
 10
51.1228323248
 20
46.6579881602
 10
51.1378271931
 20
46.6711823931
 10
51.1444393069
 20
46.6941775491
 10
51.1416620316
 20
46.7234728241
 10
51.1299181823
 20
46.7546082782
 10
51.1109956536
 20
46.7828438207
 10
51.0877752289
 20
46.8038808461
 10
51.0637920074
 20
46.8145166581
 10
51.0426972172
 20
46.8131320507
 10
51.0277023488
 20
46.7999378178
 10
51.0210902351
 20
46.7769426618
 10
51.0238675103
 20
46.7476473867
 10
51.0356113596
 20
46.7165119327
  0
LINE
  5
4DE
330
1F
100
AcDbEntity
  8
0
  6
Continuous
 62
     7
370
    25
100
AcDbLine
 10
51.2261066977
 20
47.01523232
 30
0.0
 11
51.364150585
 21
46.8786595346
 31
0.0
  0
LINE
  5
4DF
330
1F
100
AcDbEntity
  8
0
  6
Continuous
 62
     7
370
    25
100
AcDbLine
 10
51.364150585
 20
46.8786595346
 30
0.0
 11
51.3634723779
 21
46.8774045537
 31
0.0
  0
LINE
  5
4E0
330
1F
100
AcDbEntity
  8
0
  6
Continuous
 62
     7
370
    25
100
AcDbLine
 10
51.2192761168
 20
47.0200641485
 30
0.0
 11
51.2261066977
 21
47.01523232
 31
0.0
  0
LINE
  5
4E1
330
1F
100
AcDbEntity
  8
0
  6
Continuous
 62
     7
370
    25
100
AcDbLine
 10
51.0012840466
 20
46.9047923543
 30
0.0
 11
51.000787989
 21
46.91414511
 31
0.0
  0
LINE
  5
4E2
330
1F
100
AcDbEntity
  8
0
  6
Continuous
 62
     7
370
    25
100
AcDbLine
 10
51.000787989
 20
46.91414511
 30
0.0
 11
51.1174624237
 21
46.9612771143
 31
0.0
  0
LINE
  5
4E3
330
1F
100
AcDbEntity
  8
0
  6
Continuous
 62
     7
370
    25
100
AcDbLine
 10
51.2192761168
 20
47.0200641485
 30
0.0
 11
51.1026016822
 21
46.9729321442
 31
0.0
  0
LINE
  5
4E4
330
1F
100
AcDbEntity
  8
0
  6
Continuous
 62
     7
370
    25
100
AcDbLine
 10
51.1026016822
 20
46.9729321442
 30
0.0
 11
51.000787989
 21
46.91414511
 31
0.0
  0
LINE
  5
4E5
330
1F
100
AcDbEntity
  8
0
  6
Continuous
 62
     7
370
    25
100
AcDbLine
 10
51.364150585
 20
46.8786595346
 30
0.0
 11
51.3904981469
 21
46.6969657103
 31
0.0
  0
LINE
  5
4E6
330
1F
100
AcDbEntity
  8
0
  6
Continuous
 62
     7
370
    25
100
AcDbLine
 10
51.3904981469
 20
46.6969657103
 30
0.0
 11
51.3909942044
 21
46.6876129546
 31
0.0
  0
LINE
  5
4E7
330
1F
100
AcDbEntity
  8
0
  6
Continuous
 62
     7
370
    25
100
AcDbLine
 10
51.2891805113
 20
46.6288259204
 30
0.0
 11
51.1725060766
 21
46.5816939161
 31
0.0
  0
LINE
  5
4E8
330
1F
100
AcDbEntity
  8
0
  6
Continuous
 62
     7
370
    25
100
AcDbLine
 10
51.1725060766
 20
46.5816939161
 30
0.0
 11
51.1656754958
 21
46.5865257447
 31
0.0
  0
LINE
  5
4E9
330
1F
100
AcDbEntity
  8
0
  6
Continuous
 62
     7
370
    25
100
AcDbLine
 10
51.1909457022
 20
49.775551788
 30
0.0
 11
51.3042345228
 21
49.5912425293
 31
0.0
  0
LINE
  5
4EA
330
1F
100
AcDbEntity
  8
0
  6
Continuous
 62
     7
370
    25
100
AcDbLine
 10
51.3042345228
 20
49.5912425293
 30
0.0
 11
51.2923557364
 21
49.5892715925
 31
0.0
  0
LINE
  5
4EB
330
1F
100
AcDbEntity
  8
0
  6
Continuous
 62
     7
370
    25
100
AcDbLine
 10
51.2923557364
 20
49.5892715925
 30
0.0
 11
51.1839005721
 21
49.7657169895
 31
0.0
  0
LINE
  5
4EC
330
1F
100
AcDbEntity
  8
0
  6
Continuous
 62
     7
370
    25
100
AcDbLine
 10
51.1909457022
 20
49.775551788
 30
0.0
 11
51.1839005721
 21
49.7657169895
 31
0.0
  0
LINE
  5
4ED
330
1F
100
AcDbEntity
  8
0
  6
Continuous
 62
     7
370
    25
100
AcDbLine
 10
51.406048216
 20
49.6500295635
 30
0.0
 11
51.2927593954
 21
49.8343388221
 31
0.0
  0
LINE
  5
4EE
330
1F
100
AcDbEntity
  8
0
  6
Continuous
 62
     7
370
    25
100
AcDbLine
 10
51.406048216
 20
49.6500295635
 30
0.0
 11
51.3042345228
 21
49.5912425293
 31
0.0
  0
LINE
  5
4EF
330
1F
100
AcDbEntity
  8
0
  6
Continuous
 62
     7
370
    25
100
AcDbLine
 10
51.2927593954
 20
49.8343388221
 30
0.0
 11
51.1909457022
 21
49.775551788
 31
0.0
  0
LWPOLYLINE
  5
4F0
330
1F
100
AcDbEntity
  8
0
  6
Continuous
 62
     7
370
    25
100
AcDbPolyline
 90
       13
 70
   128
 43
0.0
 10
51.241705304
 20
49.4642470876
 10
51.2601734446
 20
49.4807018702
 10
51.2742721347
 20
49.510576211
 10
51.278524938
 20
49.5491799909
 10
51.2725873177
 20
49.5933857611
 10
51.2569403046
 20
49.6396122333
 10
51.2328515266
 20
49.6841144133
 10
51.2022725131
 20
49.7232869994
 10
51.1676805941
 20
49.7539564616
 10
51.1318782011
 20
49.7736381423
 10
51.097765831
 20
49.780737549
 10
51.0681070651
 20
49.7746795298
 10
51.0637728211
 20
49.7724096522
  0
LINE
  5
4F1
330
1F
100
AcDbEntity
  8
0
  6
Continuous
 62
     7
370
    25
100
AcDbLine
 10
51.0442838983
 20
49.7947737669
 30
0.0
 11
51.0352710265
 21
49.7521444221
 31
0.0
  0
LINE
  5
4F2
330
1F
100
AcDbEntity
  8
0
  6
Continuous
 62
     7
370
    25
100
AcDbLine
 10
51.1839005721
 20
49.7657169895
 30
0.0
 11
51.0442838983
 21
49.7947737669
 31
0.0
  0
LINE
  5
4F3
330
1F
100
AcDbEntity
  8
0
  6
Continuous
 62
     7
370
    25
100
AcDbLine
 10
51.2611942268
 20
49.4418829729
 30
0.0
 11
51.2923557364
 21
49.5892715925
 31
0.0
  0
LINE
  5
4F4
330
1F
100
AcDbEntity
  8
0
  6
Continuous
 62
     7
370
    25
100
AcDbLine
 10
51.2159807162
 20
49.4512927295
 30
0.0
 11
51.2611942268
 21
49.4418829729
 31
0.0
  0
LWPOLYLINE
  5
4F5
330
1F
100
AcDbEntity
  8
0
  6
Continuous
 62
     7
370
    25
100
AcDbPolyline
 90
       17
 70
   128
 43
0.0
 10
51.155116088
 20
49.5734023778
 10
51.1434201667
 20
49.6045408955
 10
51.1245317341
 20
49.632806324
 10
51.1013263827
 20
49.6538955079
 10
51.077336917
 20
49.6645978102
 10
51.0562155156
 20
49.6632839025
 10
51.0411777204
 20
49.6501538151
 10
51.0345128995
 20
49.627206485
 10
51.0372357113
 20
49.5979354351
 10
51.0489316326
 20
49.5667969174
 10
51.0678200652
 20
49.538531489
 10
51.0910254166
 20
49.517442305
 10
51.1150148823
 20
49.5067400027
 10
51.1361362837
 20
49.5080539105
 10
51.1511740789
 20
49.5211839978
 10
51.1578388998
 20
49.5441313279
 10
51.155116088
 20
49.5734023778
  0
LINE
  5
4F6
330
1F
100
AcDbEntity
  8
0
  6
Continuous
 62
     7
370
    25
100
AcDbLine
 10
51.3042345228
 20
49.5912425293
 30
0.0
 11
51.2716841994
 21
49.4372850576
 31
0.0
  0
LINE
  5
4F7
330
1F
100
AcDbEntity
  8
0
  6
Continuous
 62
     7
370
    25
100
AcDbLine
 10
51.2611942268
 20
49.4418829729
 30
0.0
 11
51.2716841994
 21
49.4372850576
 31
0.0
  0
LINE
  5
4F8
330
1F
100
AcDbEntity
  8
0
  6
Continuous
 62
     7
370
    25
100
AcDbLine
 10
51.3734978926
 20
49.4960720917
 30
0.0
 11
51.406048216
 21
49.6500295635
 31
0.0
  0
LINE
  5
4F9
330
1F
100
AcDbEntity
  8
0
  6
Continuous
 62
     7
370
    25
100
AcDbLine
 10
51.3734978926
 20
49.4960720917
 30
0.0
 11
51.2716841994
 21
49.4372850576
 31
0.0
  0
LINE
  5
4FA
330
1F
100
AcDbEntity
  8
0
  6
Continuous
 62
     7
370
    25
100
AcDbLine
 10
51.0451065582
 20
49.8059035749
 30
0.0
 11
51.1909457022
 21
49.775551788
 31
0.0
  0
LINE
  5
4FB
330
1F
100
AcDbEntity
  8
0
  6
Continuous
 62
     7
370
    25
100
AcDbLine
 10
51.0451065582
 20
49.8059035749
 30
0.0
 11
51.0442838983
 21
49.7947737669
 31
0.0
  0
LINE
  5
4FC
330
1F
100
AcDbEntity
  8
0
  6
Continuous
 62
     7
370
    25
100
AcDbLine
 10
51.2927593954
 20
49.8343388221
 30
0.0
 11
51.1469202514
 21
49.8646906091
 31
0.0
  0
LINE
  5
4FD
330
1F
100
AcDbEntity
  8
0
  6
Continuous
 62
     7
370
    25
100
AcDbLine
 10
51.1469202514
 20
49.8646906091
 30
0.0
 11
51.0451065582
 21
49.8059035749
 31
0.0
  0
LINE
  5
4FE
330
1F
100
AcDbEntity
  8
0
  6
Continuous
 62
     7
370
    25
100
AcDbLine
 10
51.2970268979
 20
49.8310359164
 30
0.0
 11
51.4054820621
 21
49.6545905194
 31
0.0
  0
LINE
  5
4FF
330
1F
100
AcDbEntity
  8
0
  6
Continuous
 62
     7
370
    25
100
AcDbLine
 10
51.406048216
 20
49.6500295635
 30
0.0
 11
51.4054820621
 21
49.6545905194
 31
0.0
  0
LINE
  5
500
330
1F
100
AcDbEntity
  8
0
  6
Continuous
 62
     7
370
    25
100
AcDbLine
 10
51.2970268979
 20
49.8310359164
 30
0.0
 11
51.2927593954
 21
49.8343388221
 31
0.0
  0
LINE
  5
501
330
1F
100
AcDbEntity
  8
0
  6
Continuous
 62
     7
370
    25
100
AcDbLine
 10
51.2716841994
 20
49.4372850576
 30
0.0
 11
51.2112609188
 21
49.4498602448
 31
0.0
  0
LINE
  5
502
330
1F
100
AcDbEntity
  8
0
  6
Continuous
 62
     7
370
    25
100
AcDbLine
 10
51.0334016787
 20
49.7505414933
 30
0.0
 11
51.0451065582
 21
49.8059035749
 31
0.0
  0
ARC
  5
503
330
1F
100
AcDbEntity
  8
0
  6
Continuous
 62
     7
370
    25
100
AcDbCircle
 10
51.1886340883
 20
46.7968771771
 30
0.0
 40
0.0965535363967452
100
AcDbArc
 50
177.6968281902
 51
242.3989559031
  0
ARC
  5
504
330
1F
100
AcDbEntity
  8
0
  6
Continuous
 62
     7
370
    25
100
AcDbCircle
 10
51.2047046582
 20
49.6485243735
 30
0.0
 40
0.0991626347585743
100
AcDbArc
 50
178.6467845049
 51
241.4490091646
  0
LINE
  5
505
330
1F
100
AcDbEntity
  8
0
  6
Continuous
 62
     7
370
    25
100
AcDbLine
 10
51.1404049715
 20
49.6101073196
 30
0.0
 11
51.1405478759
 21
49.608256485
 31
0.0
  0
LINE
  5
506
330
1F
100
AcDbEntity
  8
0
  6
Continuous
 62
     7
370
    25
100
AcDbLine
 10
51.1405478759
 20
49.608256485
 30
0.0
 11
51.1411635245
 21
49.6087583193
 31
0.0
  0
ARC
  5
507
330
1F
100
AcDbEntity
  8
0
  6
Continuous
 62
     7
370
    25
100
AcDbCircle
 10
48.2639470953
 20
48.812309615
 30
0.0
 40
4.06020291264646
100
AcDbArc
 50
359.7328509504
 51
7.1215781041
  0
ARC
  5
508
330
1F
100
AcDbEntity
  8
0
  6
Continuous
 62
     7
370
    25
100
AcDbCircle
 10
48.2163297041
 20
48.8100377471
 30
0.0
 40
4.06020291264879
100
AcDbArc
 50
359.7328509504
 51
7.1215781041
  0
LINE
  5
509
330
1F
100
AcDbEntity
  8
0
  6
Continuous
 62
     7
370
    25
100
AcDbLine
 10
52.2621194157
 20
45.7374185886
 30
0.0
 11
52.2764884822
 21
48.7911065897
 31
0.0
  0
LWPOLYLINE
  5
50A
330
1F
100
AcDbEntity
  8
0
  6
Continuous
 62
     7
370
    25
100
AcDbPolyline
 90
        9
 70
   128
 43
0.0
 10
52.2279665631
 20
45.6489765695
 10
52.2343767373
 20
45.6125238298
 10
52.2405957916
 20
45.5892071002
 10
52.2463847313
 20
45.5799224295
 10
52.2515210906
 20
45.5850266224
 10
52.2558074821
 20
45.6043235277
 10
52.2590791823
 20
45.637071576
 10
52.2612104614
 20
45.6820122783
 10
52.2621194157
 20
45.7374185886
  0
LINE
  5
50B
330
1F
100
AcDbEntity
  8
0
  6
Continuous
 62
     7
370
    25
100
AcDbLine
 10
52.1962532393
 20
45.8592553503
 30
0.0
 11
52.2279665631
 21
45.6489765695
 31
0.0
  0
LINE
  5
50C
330
1F
100
AcDbEntity
  8
0
  6
Continuous
 62
     7
370
    25
100
AcDbLine
 10
52.2452094428
 20
49.3134021708
 30
0.0
 11
52.213496119
 21
49.5236809516
 31
0.0
  0
LINE
  5
50D
330
1F
100
AcDbEntity
  8
0
  6
Continuous
 62
     7
370
    25
100
AcDbLine
 10
52.309736807
 20
45.7396904565
 30
0.0
 11
52.3241058734
 21
48.7933784576
 31
0.0
  0
LINE
  5
50E
330
1F
100
AcDbEntity
  8
0
  6
Continuous
 62
     7
370
    25
100
AcDbLine
 10
52.292826834
 20
49.3156740388
 30
0.0
 11
52.2611135102
 21
49.5259528195
 31
0.0
  0
ARC
  5
50F
330
1F
100
AcDbEntity
  8
0
  6
Continuous
 62
     7
370
    25
100
AcDbCircle
 10
52.1940350554
 20
49.5100439768
 30
0.0
 40
0.0689391788671882
100
AcDbArc
 50
13.3421942503
 51
64.0874517038
  0
ARC
  5
510
330
1F
100
AcDbEntity
  8
0
  6
Continuous
 62
     7
370
    25
100
AcDbCircle
 10
52.1715064759
 20
49.5137223646
 30
0.0
 40
0.0431544155663542
100
AcDbArc
 50
13.3421942504
 51
64.0874517038
  0
ARC
  5
511
330
1F
100
AcDbEntity
  8
0
  6
Continuous
 62
     7
370
    25
100
AcDbCircle
 10
52.1542635962
 20
45.8492967632
 30
0.0
 40
0.0431544155664466
100
AcDbArc
 50
13.3421942504
 51
64.0874517037
  0
LINE
  5
512
330
1F
100
AcDbEntity
  8
0
  6
Continuous
 62
     7
370
    25
100
AcDbLine
 10
52.1903649033
 20
49.5525381255
 30
0.0
 11
50.3451976243
 21
50.6290732683
 31
0.0
  0
LINE
  5
513
330
1F
100
AcDbEntity
  8
0
  6
Continuous
 62
     7
370
    25
100
AcDbLine
 10
52.2241613931
 20
49.5720521549
 30
0.0
 11
50.3789941142
 21
50.6485872977
 31
0.0
  0
LINE
  5
514
330
1F
100
AcDbEntity
  8
0
  6
Continuous
 62
     7
370
    25
100
AcDbLine
 10
50.3279547446
 20
46.9646476669
 30
0.0
 11
52.1731220235
 21
45.8881125242
 31
0.0
  0
LINE
  5
515
330
1F
100
AcDbEntity
  8
0
  6
Continuous
 62
     7
370
    25
100
AcDbLine
 10
49.9162324897
 20
46.9977231027
 30
0.0
 11
50.2783569964
 21
46.978223115
 31
0.0
  0
LWPOLYLINE
  5
516
330
1F
100
AcDbEntity
  8
0
  6
Continuous
 62
     7
370
    25
100
AcDbPolyline
 90
        9
 70
   128
 43
0.0
 10
49.5440962603
 20
47.3232083861
 10
49.5509940368
 20
47.2632473559
 10
49.5719829417
 20
47.2048175294
 10
49.6062563832
 20
47.1501643319
 10
49.6524972522
 20
47.1013880552
 10
49.7089285379
 20
47.0603631443
 10
49.7733816178
 20
47.0286661634
 10
49.843379596
 20
47.0075152098
 10
49.9162324897
 20
46.9977231027
  0
LINE
  5
517
330
1F
100
AcDbEntity
  8
0
  6
Continuous
 62
     7
370
    25
100
AcDbLine
 10
49.5584653268
 20
50.3768963872
 30
0.0
 11
49.5440962603
 21
47.3232083861
 31
0.0
  0
LWPOLYLINE
  5
518
330
1F
100
AcDbEntity
  8
0
  6
Continuous
 62
     7
370
    25
100
AcDbPolyline
 90
        9
 70
   128
 43
0.0
 10
49.9334753694
 20
50.662148704
 10
49.8605672562
 20
50.6602056594
 10
49.7904057415
 20
50.6466021331
 10
49.7256870927
 20
50.621860901
 10
49.6688984114
 20
50.586932755
 10
49.6222220547
 20
50.5431599639
 10
49.5874517689
 20
50.4922246916
 10
49.5659237564
 20
50.4360843521
 10
49.5584653268
 20
50.3768963872
  0
LINE
  5
519
330
1F
100
AcDbEntity
  8
0
  6
Continuous
 62
     7
370
    25
100
AcDbLine
 10
50.2955998761
 20
50.6426487163
 30
0.0
 11
49.9334753694
 21
50.662148704
 31
0.0
  0
LINE
  5
51A
330
1F
100
AcDbEntity
  8
0
  6
Continuous
 62
     7
370
    25
100
AcDbLine
 10
50.2997617113
 20
50.6702740759
 30
0.0
 11
49.9376372046
 21
50.6897740636
 31
0.0
  0
LWPOLYLINE
  5
51B
330
1F
100
AcDbEntity
  8
0
  6
Continuous
 62
     7
370
    25
100
AcDbPolyline
 90
        9
 70
   128
 43
0.0
 10
49.9376372046
 20
50.6897740636
 10
49.8647290914
 20
50.687831019
 10
49.7945675767
 20
50.6742274927
 10
49.729848928
 20
50.6494862606
 10
49.6730602467
 20
50.6145581146
 10
49.62638389
 20
50.5707853235
 10
49.5916136041
 20
50.5198500512
 10
49.5700855916
 20
50.4637097117
 10
49.5653847474
 20
50.4402696302
  0
ARC
  5
51C
330
1F
100
AcDbEntity
  8
0
  6
Continuous
 62
     7
370
    25
100
AcDbCircle
 10
50.2934665242
 20
50.4916939401
 30
0.0
 40
0.1786910582364206
100
AcDbArc
 50
61.403785155
 51
87.9810836419
  0
ARC
  5
51D
330
1F
100
AcDbEntity
  8
0
  6
Continuous
 62
     7
370
    25
100
AcDbCircle
 10
50.2916592269
 20
50.5308614638
 30
0.0
 40
0.1118566874721257
100
AcDbArc
 50
61.403785155
 51
87.9810836419
  0
ARC
  5
51E
330
1F
100
AcDbEntity
  8
0
  6
Continuous
 62
     7
370
    25
100
AcDbCircle
 10
50.2744163472
 20
46.8664358625
 30
0.0
 40
0.1118566874718552
100
AcDbArc
 50
61.403785155
 51
87.9810836419
  0
ARC
  5
51F
330
1F
100
AcDbEntity
  8
0
  6
Continuous
 62
     7
370
    25
100
AcDbCircle
 10
51.8945605282
 20
45.7000994368
 30
0.0
 40
0.4170596975358766
100
AcDbArc
 50
343.5543367207
 51
5.4472277867
  0
ARC
  5
520
330
1F
100
AcDbEntity
  8
0
  6
Continuous
 62
     7
370
    25
100
AcDbCircle
 10
50.6080424779
 20
50.6570968384
 30
0.0
 40
0.1235377373797912
100
AcDbArc
 50
122.5717236851
 51
177.0755947793
  0
LINE
  5
521
330
1F
100
AcDbEntity
  8
0
  6
Continuous
 62
     7
370
    25
100
AcDbLine
 10
52.2950045375
 20
49.6071844717
 30
0.0
 11
52.295168468
 21
49.6118831523
 31
0.0
  0
ARC
  5
522
330
1F
100
AcDbEntity
  8
0
  6
Continuous
 62
     7
370
    25
100
AcDbCircle
 10
52.4283607813
 20
49.5949086268
 30
0.0
 40
0.1349107675945748
100
AcDbArc
 50
149.0011849794
 51
162.3701068773
  0
LINE
  5
523
330
1F
100
AcDbEntity
  8
0
  6
Continuous
 62
     7
370
    25
100
AcDbLine
 10
50.4674265111
 20
50.6995871052
 30
0.0
 11
50.484646805
 21
50.6895401833
 31
0.0
  0
LINE
  5
524
330
1F
100
AcDbEntity
  8
0
  6
Continuous
 62
     7
370
    25
100
AcDbLine
 10
50.4845234226
 20
50.6633191823
 30
0.0
 11
50.484646805
 21
50.6895401833
 31
0.0
  0
LINE
  5
525
330
1F
100
AcDbEntity
  8
0
  6
Continuous
 62
     7
370
    25
100
AcDbLine
 10
50.4846648553
 20
50.6632366655
 30
0.0
 11
50.4845234226
 21
50.6633191823
 31
0.0
  0
LINE
  5
526
330
1F
100
AcDbEntity
  8
0
  6
Continuous
 62
     7
370
    25
100
AcDbLine
 10
50.4846656217
 20
50.6633995289
 30
0.0
 11
50.4846648553
 21
50.6632366655
 31
0.0
  0
LINE
  5
527
330
1F
100
AcDbEntity
  8
0
  6
Continuous
 62
     7
370
    25
100
AcDbLine
 10
52.2950037711
 20
49.6070216083
 30
0.0
 11
52.2950045375
 21
49.6071844717
 31
0.0
  0
LINE
  5
528
330
1F
100
AcDbEntity
  8
0
  6
Continuous
 62
     7
370
    25
100
AcDbLine
 10
52.2951452038
 20
49.6069390915
 30
0.0
 11
52.2950037711
 21
49.6070216083
 31
0.0
  0
LINE
  5
529
330
1F
100
AcDbEntity
  8
0
  6
Continuous
 62
     7
370
    25
100
AcDbLine
 10
52.2952685862
 20
49.6331600925
 30
0.0
 11
52.2951452038
 21
49.6069390915
 31
0.0
  0
LINE
  5
52A
330
1F
100
AcDbEntity
  8
0
  6
Continuous
 62
     7
370
    25
100
AcDbLine
 10
52.2952685862
 20
49.6331600925
 30
0.0
 11
52.3124888801
 21
49.6231131706
 31
0.0
  0
LINE
  5
52B
330
1F
100
AcDbEntity
  8
0
  6
Continuous
 62
     7
370
    25
100
AcDbLine
 10
52.3126184305
 20
49.6431778598
 30
0.0
 11
52.2952685862
 21
49.6331600925
 31
0.0
  0
LINE
  5
52C
330
1F
100
AcDbEntity
  8
0
  6
Continuous
 62
     7
370
    25
100
AcDbLine
 10
52.3208293326
 20
51.3881439214
 30
0.0
 11
50.5415353246
 21
50.7612043364
 31
0.0
  0
LWPOLYLINE
  5
52D
330
1F
100
AcDbEntity
  8
0
  6
Continuous
 62
     7
370
    25
100
AcDbPolyline
 90
       11
 70
   128
 43
0.0
 10
53.6731858436
 20
50.9535718339
 10
53.7190053064
 20
51.0046255237
 10
53.752020158
 20
51.0589390721
 10
53.7715796699
 20
51.1154419494
 10
53.7772983208
 20
51.1730204743
 10
53.7690633951
 20
51.230539764
 10
53.7470372045
 20
51.2868661033
 10
53.7116538891
 20
51.3408892905
 10
53.6636108602
 20
51.391544519
 10
53.6038550542
 20
51.4378333657
 10
53.5728257209
 20
51.4573607386
  0
LINE
  5
52E
330
1F
100
AcDbEntity
  8
0
  6
Continuous
 62
     7
370
    25
100
AcDbLine
 10
53.5699963228
 20
50.8560621812
 30
0.0
 11
53.6731858436
 21
50.9535718339
 31
0.0
  0
LINE
  5
52F
330
1F
100
AcDbEntity
  8
0
  6
Continuous
 62
     7
370
    25
100
AcDbLine
 10
53.5698123988
 20
50.8169749748
 30
0.0
 11
53.6730019196
 21
50.9144846275
 31
0.0
  0
LINE
  5
530
330
1F
100
AcDbEntity
  8
0
  6
Continuous
 62
     7
370
    25
100
AcDbLine
 10
52.2950045375
 20
49.6071844717
 30
0.0
 11
52.2950037711
 21
49.6070216083
 31
0.0
  0
LINE
  5
531
330
1F
100
AcDbEntity
  8
0
  6
Continuous
 62
     7
370
    25
100
AcDbLine
 10
50.4895737989
 20
50.6923850203
 30
0.0
 11
50.484646805
 21
50.6895401833
 31
0.0
  0
LINE
  5
532
330
1F
100
AcDbEntity
  8
0
  6
Continuous
 62
     7
370
    25
100
AcDbLine
 10
50.4846656217
 20
50.6633995289
 30
0.0
 11
50.4845234226
 21
50.6633191823
 31
0.0
  0
LINE
  5
533
330
1F
100
AcDbEntity
  8
0
  6
Continuous
 62
     7
370
    25
100
AcDbLine
 10
50.5013644088
 20
50.7191827833
 30
0.0
 11
50.5013644088
 21
50.7191827833
 31
0.0
  0
ARC
  5
534
330
1F
100
AcDbEntity
  8
0
  6
Continuous
 62
     7
370
    25
100
AcDbCircle
 10
50.4975999948
 20
50.7616923228
 30
0.0
 40
0.0690470649061204
100
AcDbArc
 50
193.3421942503
 51
244.0874517038
  0
ARC
  5
535
330
1F
100
AcDbEntity
  8
0
  6
Continuous
 62
     7
370
    25
100
AcDbCircle
 10
50.5202228362
 20
50.7579985443
 30
0.0
 40
0.0431544155662621
100
AcDbArc
 50
193.3421942503
 51
244.0874517038
  0
LINE
  5
536
330
1F
100
AcDbEntity
  8
0
  6
Continuous
 62
     7
370
    25
100
AcDbLine
 10
50.3987097135
 20
50.9559944553
 30
0.0
 11
50.4304165659
 21
50.7457585836
 31
0.0
  0
LINE
  5
537
330
1F
100
AcDbEntity
  8
0
  6
Continuous
 62
     7
370
    25
100
AcDbLine
 10
50.4465263406
 20
50.958275829
 30
0.0
 11
50.4782331931
 21
50.7480399572
 31
0.0
  0
ARC
  5
538
330
1F
100
AcDbEntity
  8
0
  6
Continuous
 62
     7
370
    25
100
AcDbCircle
 10
50.2887680522
 20
50.9635939562
 30
0.0
 40
0.110203998570405
100
AcDbArc
 50
356.0458317344
 51
34.0091978293
  0
ARC
  5
539
330
1F
100
AcDbEntity
  8
0
  6
Continuous
 62
     7
370
    25
100
AcDbCircle
 10
53.4795968947
 20
51.1410327248
 30
0.0
 40
0.2978750476849087
100
AcDbArc
 50
310.4875194735
 51
357.4146899179
  0
LWPOLYLINE
  5
53A
330
1F
100
AcDbEntity
  8
0
  6
Continuous
 62
     7
370
    25
100
AcDbPolyline
 90
        5
 70
   128
 43
0.0
 10
50.4272181803
 20
51.0274809446
 10
50.4281081724
 20
51.027329969
 10
50.4338971121
 20
51.0180452983
 10
50.4401161664
 20
50.9947285687
 10
50.4465263406
 20
50.958275829
  0
LWPOLYLINE
  5
53B
330
1F
100
AcDbEntity
  8
0
  6
Continuous
 62
     7
370
    25
100
AcDbPolyline
 90
       11
 70
   128
 43
0.0
 10
53.5553989171
 20
47.7538479309
 10
53.5864282504
 20
47.7343205579
 10
53.6461840564
 20
47.6880317113
 10
53.6942270853
 20
47.6373764827
 10
53.7296104007
 20
47.5833532956
 10
53.7516365913
 20
47.5270269562
 10
53.7598715171
 20
47.4695076665
 10
53.7541528662
 20
47.4119291417
 10
53.7345933543
 20
47.3554262643
 10
53.7015785027
 20
47.301112716
 10
53.6557590399
 20
47.2500590261
  0
LINE
  5
53C
330
1F
100
AcDbEntity
  8
0
  6
Continuous
 62
     7
370
    25
100
AcDbLine
 10
53.6557590399
 20
47.2500590261
 30
0.0
 11
53.5525695191
 21
47.1525493735
 31
0.0
  0
LINE
  5
53D
330
1F
100
AcDbEntity
  8
0
  6
Continuous
 62
     7
370
    25
100
AcDbLine
 10
53.6555751158
 20
47.2109718197
 30
0.0
 11
53.552385595
 21
47.1134621671
 31
0.0
  0
ARC
  5
53E
330
1F
100
AcDbEntity
  8
0
  6
Continuous
 62
     7
370
    25
100
AcDbCircle
 10
53.462170091
 20
47.4375199171
 30
0.0
 40
0.2978750476849372
100
AcDbArc
 50
310.4875194735
 51
357.4146899179
  0
ARC
  5
53F
330
1F
100
AcDbEntity
  8
0
  6
Continuous
 62
     7
370
    25
100
AcDbCircle
 10
49.8524577226
 20
35.9268963508
 30
0.0
 40
0.2717711738245752
100
AcDbArc
 50
126.0354443334
 51
149.1897429688
  0
LINE
  5
540
330
1F
100
AcDbEntity
  8
0
  6
Continuous
 62
     7
370
    25
100
AcDbLine
 10
50.1743604071
 20
36.157809812
 30
0.0
 11
50.2748182261
 21
35.9511484855
 31
0.0
  0
ARC
  5
541
330
1F
100
AcDbEntity
  8
0
  6
Continuous
 62
     7
370
    25
100
AcDbCircle
 10
50.0462511702
 20
36.1007865681
 30
0.0
 40
0.1402270548529538
100
AcDbArc
 50
23.9945266936
 51
63.5023921948
  0
LINE
  5
542
330
1F
100
AcDbEntity
  8
0
  6
Continuous
 62
     7
370
    25
100
AcDbLine
 10
49.9470908697
 20
36.2935153764
 30
0.0
 11
50.1088149358
 21
36.2262831902
 31
0.0
  0
ARC
  5
543
330
1F
100
AcDbEntity
  8
0
  6
Continuous
 62
     7
370
    25
100
AcDbCircle
 10
50.1797921743
 20
35.8965715874
 30
0.0
 40
0.109583704628739
100
AcDbArc
 50
343.051089094
 51
29.8703093689
  0
LINE
  5
544
330
1F
100
AcDbEntity
  8
0
  6
Continuous
 62
     7
370
    25
100
AcDbLine
 10
50.2846161191
 20
35.8646258688
 30
0.0
 11
50.2233498719
 21
35.7251967285
 31
0.0
  0
ARC
  5
545
330
1F
100
AcDbEntity
  8
0
  6
Continuous
 62
     7
370
    25
100
AcDbCircle
 10
49.9269081147
 20
36.2526433312
 30
0.0
 40
0.0455836338242191
100
AcDbArc
 50
63.7196833418
 51
116.0457932878
  0
ARC
  5
546
330
1F
100
AcDbEntity
  8
0
  6
Continuous
 62
     7
370
    25
100
AcDbCircle
 10
50.1886962326
 20
35.7391822259
 30
0.0
 40
0.0373693571867588
100
AcDbArc
 50
300.7453806925
 51
338.0220085626
  0
LINE
  5
547
330
1F
100
AcDbEntity
  8
0
  6
Continuous
 62
     7
370
    25
100
AcDbLine
 10
51.536180593
 20
35.3407253543
 30
0.0
 11
51.6093954188
 21
35.1299024627
 31
0.0
  0
LINE
  5
548
330
1F
100
AcDbEntity
  8
0
  6
Continuous
 62
     7
370
    25
100
AcDbLine
 10
51.3141041125
 20
35.524891151
 30
0.0
 11
51.4771223317
 21
35.419723092
 31
0.0
  0
ARC
  5
549
330
1F
100
AcDbEntity
  8
0
  6
Continuous
 62
     7
370
    25
100
AcDbCircle
 10
51.3867174164
 20
35.2905622096
 30
0.0
 40
0.1576565324992684
100
AcDbArc
 50
18.5528904997
 51
55.0102729831
  0
ARC
  5
54A
330
1F
100
AcDbEntity
  8
0
  6
Continuous
 62
     7
370
    25
100
AcDbCircle
 10
51.5334242269
 20
35.0942161815
 30
0.0
 40
0.0839352885546032
100
AcDbArc
 50
328.8379766109
 51
25.161058211
  0
LINE
  5
54B
330
1F
100
AcDbEntity
  8
0
  6
Continuous
 62
     7
370
    25
100
AcDbLine
 10
51.6052482769
 20
35.0507830317
 30
0.0
 11
51.5154448834
 21
34.9451281991
 31
0.0
  0
ARC
  5
54C
330
1F
100
AcDbEntity
  8
0
  6
Continuous
 62
     7
370
    25
100
AcDbCircle
 10
51.2807183019
 20
35.4829620955
 30
0.0
 40
0.0535971830793882
100
AcDbArc
 50
51.4716104147
 51
112.7855335896
  0
LINE
  5
54D
330
1F
100
AcDbEntity
  8
0
  6
Continuous
 62
     7
370
    25
100
AcDbLine
 10
51.2541622517
 20
34.817088145
 30
0.0
 11
51.2541622517
 21
34.817088145
 31
0.0
  0
LWPOLYLINE
  5
54E
330
1F
100
AcDbEntity
  8
0
  6
Continuous
 62
     7
370
    25
100
AcDbPolyline
 90
        3
 70
   128
 43
0.0
 10
51.5154448834
 20
34.9451281991
 10
51.509863989
 20
34.9398324775
 10
51.5063825588
 20
34.9375210505
  0
ARC
  5
54F
330
1F
100
AcDbEntity
  8
0
  6
Continuous
 62
     7
370
    25
100
AcDbCircle
 10
52.8551647419
 20
32.5853315983
 30
0.0
 40
0.9691187618521532
100
AcDbArc
 50
255.7780674102
 51
297.048445821
  0
LINE
  5
550
330
1F
100
AcDbEntity
  8
0
  6
Continuous
 62
     7
370
    25
100
AcDbLine
 10
53.2986938381
 20
31.723845596
 30
0.0
 11
53.295865411
 21
31.7222127798
 31
0.0
  0
ARC
  5
551
330
1F
100
AcDbEntity
  8
0
  6
Continuous
 62
     7
370
    25
100
AcDbCircle
 10
53.1642565378
 20
32.0129496482
 30
0.0
 40
0.3188330922197344
100
AcDbArc
 50
294.939065782
 51
353.7027874405
  0
ARC
  5
552
330
1F
100
AcDbEntity
  8
0
  6
Continuous
 62
     7
370
    25
100
AcDbCircle
 10
47.5094084138
 20
40.8212163552
 30
0.0
 40
0.5763018028395358
100
AcDbArc
 50
122.60547834
 51
177.3945215143
  0
ARC
  5
553
330
1F
100
AcDbEntity
  8
0
  6
Continuous
 62
     7
370
    25
100
AcDbCircle
 10
47.5942612275
 20
40.7722318685
 30
0.0
 40
0.576301802839544
100
AcDbArc
 50
122.60547834
 51
177.3945215143
  0
LINE
  5
554
330
1F
100
AcDbEntity
  8
0
  6
Continuous
 62
     7
370
    25
100
AcDbLine
 10
47.0185551895
 20
40.7984296881
 30
0.0
 11
47.0185551895
 21
32.4288863663
 31
0.0
  0
LINE
  5
555
330
1F
100
AcDbEntity
  8
0
  6
Continuous
 62
     7
370
    25
100
AcDbLine
 10
49.0873893497
 20
42.2989450316
 30
0.0
 11
47.2837202324
 21
41.2577090135
 31
0.0
  0
LINE
  5
556
330
1F
100
AcDbEntity
  8
0
  6
Continuous
 62
     7
370
    25
100
AcDbLine
 10
47.2837202324
 20
32.2757600828
 30
0.0
 11
48.0759105811
 21
32.7330818367
 31
0.0
  0
LWPOLYLINE
  5
557
330
1F
100
AcDbEntity
  8
0
  6
Continuous
 62
     7
370
    25
100
AcDbPolyline
 90
        9
 70
   128
 43
0.0
 10
47.0185551895
 20
32.4288863663
 10
47.0236502614
 20
32.372090485
 10
47.0387396765
 20
32.3233598824
 10
47.063243557
 20
32.2845672483
 10
47.0962202324
 20
32.2572033618
 10
47.1364024277
 20
32.2423198017
 10
47.1822459637
 20
32.2404885349
 10
47.2319890988
 20
32.251779936
 10
47.2837202324
 20
32.2757600828
  0
ARC
  5
558
330
1F
100
AcDbEntity
  8
0
  6
Continuous
 62
     7
370
    25
100
AcDbCircle
 10
48.4493108119
 20
41.6562971914
 30
0.0
 40
0.2285780710050792
100
AcDbArc
 50
295.8240537412
 51
4.1813228121
  0
LINE
  5
559
330
1F
100
AcDbEntity
  8
0
  6
Continuous
 62
     7
370
    25
100
AcDbLine
 10
47.3915540166
 20
32.7462816072
 30
0.0
 11
47.3915540166
 21
32.6131854549
 31
0.0
  0
LWPOLYLINE
  5
55A
330
1F
100
AcDbEntity
  8
0
  6
Continuous
 62
     7
370
    25
100
AcDbPolyline
 90
       11
 70
   128
 43
0.0
 10
47.3915540166
 20
32.6131854549
 10
47.3970913396
 20
32.5760100855
 10
47.4131612771
 20
32.5488669574
 10
47.4381907915
 20
32.5344130291
 10
47.4697298196
 20
32.5340631518
 10
47.5046911016
 20
32.5478515739
 10
47.5396523835
 20
32.5744285887
 10
47.5711914116
 20
32.6111926527
 10
47.596220926
 20
32.6545450433
 10
47.6122908635
 20
32.7002421262
 10
47.6178281865
 20
32.7438107528
  0
LINE
  5
55B
330
1F
100
AcDbEntity
  8
0
  6
Continuous
 62
     7
370
    25
100
AcDbLine
 10
47.6178281865
 20
32.7438107528
 30
0.0
 11
47.6178281865
 21
32.8769069051
 31
0.0
  0
LWPOLYLINE
  5
55C
330
1F
100
AcDbEntity
  8
0
  6
Continuous
 62
     7
370
    25
100
AcDbPolyline
 90
       11
 70
   128
 43
0.0
 10
47.6178281865
 20
32.8769069051
 10
47.6122908635
 20
32.9140822746
 10
47.596220926
 20
32.9412254027
 10
47.5711914116
 20
32.955679331
 10
47.5396523835
 20
32.9560292083
 10
47.5046911016
 20
32.9422407861
 10
47.4697298196
 20
32.9156637713
 10
47.4381907915
 20
32.8788997073
 10
47.4131612771
 20
32.8355473168
 10
47.3970913396
 20
32.7898502338
 10
47.3915540166
 20
32.7462816072
  0
LINE
  5
55D
330
1F
100
AcDbEntity
  8
0
  6
Continuous
 62
     7
370
    25
100
AcDbLine
 10
47.6178281865
 20
41.042315024
 30
0.0
 11
47.6178281865
 21
41.1754111763
 31
0.0
  0
LWPOLYLINE
  5
55E
330
1F
100
AcDbEntity
  8
0
  6
Continuous
 62
     7
370
    25
100
AcDbPolyline
 90
       11
 70
   128
 43
0.0
 10
47.6178281865
 20
41.1754111763
 10
47.6122908635
 20
41.2125865458
 10
47.596220926
 20
41.2397296739
 10
47.5711914116
 20
41.2541836022
 10
47.5396523835
 20
41.2545334794
 10
47.5046911016
 20
41.2407450573
 10
47.4697298196
 20
41.2141680425
 10
47.4381907915
 20
41.1774039785
 10
47.4131612771
 20
41.134051588
 10
47.3970913396
 20
41.088354505
 10
47.3915540166
 20
41.0447858784
  0
LINE
  5
55F
330
1F
100
AcDbEntity
  8
0
  6
Continuous
 62
     7
370
    25
100
AcDbLine
 10
47.3915540166
 20
41.0447858784
 30
0.0
 11
47.3915540166
 21
40.9116897261
 31
0.0
  0
LWPOLYLINE
  5
560
330
1F
100
AcDbEntity
  8
0
  6
Continuous
 62
     7
370
    25
100
AcDbPolyline
 90
       11
 70
   128
 43
0.0
 10
47.3915540166
 20
40.9116897261
 10
47.3970913396
 20
40.8745143567
 10
47.4131612771
 20
40.8473712286
 10
47.4381907915
 20
40.8329173003
 10
47.4697298196
 20
40.832567423
 10
47.5046911016
 20
40.8463558451
 10
47.5396523835
 20
40.8729328599
 10
47.5711914116
 20
40.9096969239
 10
47.596220926
 20
40.9530493144
 10
47.6122908635
 20
40.9987463974
 10
47.6178281865
 20
41.042315024
  0
LINE
  5
561
330
1F
100
AcDbEntity
  8
0
  6
Continuous
 62
     7
370
    25
100
AcDbLine
 10
46.9337023757
 20
40.8474141748
 30
0.0
 11
46.9337023757
 21
32.477870853
 31
0.0
  0
LINE
  5
562
330
1F
100
AcDbEntity
  8
0
  6
Continuous
 62
     7
370
    25
100
AcDbLine
 10
49.0878515964
 20
42.3971808543
 30
0.0
 11
47.1988674187
 21
41.3066935002
 31
0.0
  0
LINE
  5
563
330
1F
100
AcDbEntity
  8
0
  6
Continuous
 62
     7
370
    25
100
AcDbLine
 10
47.5329753728
 20
41.224395663
 30
0.0
 11
47.5300846388
 21
41.252071089
 31
0.0
  0
ARC
  5
564
330
1F
100
AcDbEntity
  8
0
  6
Continuous
 62
     7
370
    25
100
AcDbCircle
 10
47.3041616379
 20
41.0942845918
 30
0.0
 40
0.2288332055806828
100
AcDbArc
 50
293.237086399
 51
359.2525673995
  0
LINE
  5
565
330
1F
100
AcDbEntity
  8
0
  6
Continuous
 62
     7
370
    25
100
AcDbLine
 10
47.5329753728
 20
41.0912995107
 30
0.0
 11
47.5329753728
 21
41.224395663
 31
0.0
  0
ARC
  5
566
330
1F
100
AcDbEntity
  8
0
  6
Continuous
 62
     7
370
    25
100
AcDbCircle
 10
47.1120844592
 20
32.4551593422
 30
0.0
 40
0.1798220798893573
100
AcDbArc
 50
172.744170435
 51
235.9436491716
  0
LINE
  5
567
330
1F
100
AcDbEntity
  8
0
  6
Continuous
 62
     7
370
    25
100
AcDbLine
 10
47.5329753728
 20
32.9258913918
 30
0.0
 11
47.5300846388
 21
32.9535668178
 31
0.0
  0
ARC
  5
568
330
1F
100
AcDbEntity
  8
0
  6
Continuous
 62
     7
370
    25
100
AcDbCircle
 10
47.3041616379
 20
32.7957803206
 30
0.0
 40
0.2288332055810258
100
AcDbArc
 50
293.2370863992
 51
359.2525673994
  0
LINE
  5
569
330
1F
100
AcDbEntity
  8
0
  6
Continuous
 62
     7
370
    25
100
AcDbLine
 10
47.5329753728
 20
32.7927952395
 30
0.0
 11
47.5329753728
 21
32.9258913918
 31
0.0
  0
LWPOLYLINE
  5
56A
330
1F
100
AcDbEntity
  8
0
  6
Continuous
 62
     7
370
    25
100
AcDbPolyline
 90
        8
 70
   128
 43
0.0
 10
52.3177190779
 20
31.3123798446
 10
52.369350728
 20
31.3168712195
 10
52.4153084283
 20
31.3340977225
 10
52.4541984145
 20
31.3637465543
 10
52.4850227623
 20
31.4048092352
 10
52.5067868393
 20
31.4562734198
 10
52.5190026053
 20
31.5165435972
 10
52.5216137141
 20
31.5645629217
  0
LWPOLYLINE
  5
56B
330
1F
100
AcDbEntity
  8
0
  6
Continuous
 62
     7
370
    25
100
AcDbPolyline
 90
        9
 70
   128
 43
0.0
 10
48.1248237487
 20
32.6249786526
 10
48.9562133543
 20
32.2663291654
 10
49.7845802668
 20
31.9404458321
 10
50.427471459
 20
31.715894508
 10
51.0654150912
 20
31.5261251522
 10
51.3838521176
 20
31.4475232764
 10
51.6989338749
 20
31.3834708753
 10
52.0115942843
 20
31.3367217968
 10
52.3177190779
 20
31.3123798446
  0
LWPOLYLINE
  5
56C
330
1F
100
AcDbEntity
  8
0
  6
Continuous
 62
     7
370
    25
100
AcDbPolyline
 90
       13
 70
   128
 43
0.0
 10
52.195989078
 20
36.7153968123
 10
51.9346702291
 20
37.1988972407
 10
51.6501476125
 20
37.6694911879
 10
51.3383099338
 20
38.1366705236
 10
51.0097692644
 20
38.5876285315
 10
50.7220648794
 20
38.9552030558
 10
50.4263424489
 20
39.3113428898
 10
50.1215323452
 20
39.6591216974
 10
49.8110780833
 20
39.996158261
 10
49.399023263
 20
40.4207350423
 10
48.9806180525
 20
40.8291929255
 10
48.5547477635
 20
41.2250057489
 10
48.1248237487
 20
41.6069275833
  0
ARC
  5
56D
330
1F
100
AcDbEntity
  8
0
  6
Continuous
 62
     7
370
    25
100
AcDbCircle
 10
49.7294001922
 20
35.4043307447
 30
0.0
 40
2.793376982259916
100
AcDbArc
 50
1.6537266893
 51
27.9919860207
  0
LINE
  5
56E
330
1F
100
AcDbEntity
  8
0
  6
Continuous
 62
     7
370
    25
100
AcDbLine
 10
52.5216137141
 20
31.5645629217
 30
0.0
 11
52.5216137141
 21
35.4849447226
 31
0.0
  0
LINE
  5
56F
330
1F
100
AcDbEntity
  8
0
  6
Continuous
 62
     7
370
    25
100
AcDbLine
 10
48.1248237487
 20
41.6069275833
 30
0.0
 11
48.2202831641
 21
41.6620351309
 31
0.0
  0
LWPOLYLINE
  5
570
330
1F
100
AcDbEntity
  8
0
  6
Continuous
 62
     7
370
    25
100
AcDbPolyline
 90
       13
 70
   128
 43
0.0
 10
52.2914484935
 20
36.7705043598
 10
52.0301296446
 20
37.2540047883
 10
51.7456070279
 20
37.7245987354
 10
51.4337693493
 20
38.1917780712
 10
51.1052286799
 20
38.642736079
 10
50.8175242948
 20
39.0103106033
 10
50.5218018644
 20
39.3664504373
 10
50.2169917606
 20
39.7142292449
 10
49.9065374987
 20
40.0512658085
 10
49.4944826785
 20
40.4758425898
 10
49.0760774679
 20
40.884300473
 10
48.650207179
 20
41.2801132964
 10
48.2202831641
 20
41.6620351309
  0
ARC
  5
571
330
1F
100
AcDbEntity
  8
0
  6
Continuous
 62
     7
370
    25
100
AcDbCircle
 10
53.2588212781
 20
32.1383033703
 30
0.0
 40
0.2850176401720993
100
AcDbArc
 50
319.8081768471
 51
3.2411341625
  0
ARC
  5
572
330
1F
100
AcDbEntity
  8
0
  6
Continuous
 62
     7
370
    25
100
AcDbCircle
 10
38.5940483932
 20
29.015246838
 30
0.0
 40
16.84501920673876
100
AcDbArc
 50
35.7682944992
 51
45.8209135311
  0
ARC
  5
573
330
1F
100
AcDbEntity
  8
0
  6
Continuous
 62
     7
370
    25
100
AcDbCircle
 10
51.42438806
 20
36.0696227775
 30
0.0
 40
2.119001276434284
100
AcDbArc
 50
0.139976048
 51
11.2917699761
  0
LINE
  5
574
330
1F
100
AcDbEntity
  8
0
  6
Continuous
 62
     7
370
    25
100
AcDbLine
 10
53.5433830129
 20
32.1544177825
 30
0.0
 11
53.5433830129
 21
36.0747995834
 31
0.0
  0
ARC
  5
575
330
1F
100
AcDbEntity
  8
0
  6
Continuous
 62
     7
370
    25
100
AcDbCircle
 10
38.3176211857
 20
28.7490020754
 30
0.0
 40
17.33567429628348
100
AcDbArc
 50
36.4458532122
 51
46.1188604964
  0
ARC
  5
576
330
1F
100
AcDbEntity
  8
0
  6
Continuous
 62
     7
370
    25
100
AcDbCircle
 10
49.8248596077
 20
35.4594382923
 30
0.0
 40
2.793376982260533
100
AcDbArc
 50
1.6537266893
 51
27.9919860207
  0
LINE
  5
577
330
1F
100
AcDbEntity
  8
0
  6
Continuous
 62
     7
370
    25
100
AcDbLine
 10
52.6170731295
 20
31.6196704693
 30
0.0
 11
52.6170731295
 21
35.5400522701
 31
0.0
  0
ARC
  5
578
330
1F
100
AcDbEntity
  8
0
  6
Continuous
 62
     7
370
    25
100
AcDbCircle
 10
51.2415565515
 20
36.1090582729
 30
0.0
 40
2.397376534961856
100
AcDbArc
 50
0.4982807716
 51
19.2907037159
  0
LINE
  5
579
330
1F
100
AcDbEntity
  8
0
  6
Continuous
 62
     7
370
    25
100
AcDbLine
 10
53.6388424284
 20
32.2095253301
 30
0.0
 11
53.6388424284
 21
36.1299071309
 31
0.0
  0
ARC
  5
57A
330
1F
100
AcDbEntity
  8
0
  6
Continuous
 62
     7
370
    25
100
AcDbCircle
 10
48.1506965621
 20
41.6750976607
 30
0.0
 40
0.0729147579113343
100
AcDbArc
 50
110.7834207995
 51
249.2165792006
  0
ARC
  5
57B
330
1F
100
AcDbEntity
  8
0
  6
Continuous
 62
     7
370
    25
100
AcDbCircle
 10
48.1594869106
 20
32.7014830949
 30
0.0
 40
0.0839908595084811
100
AcDbArc
 50
185.6947992512
 51
245.6253417064
  0
ARC
  5
57C
330
1F
100
AcDbEntity
  8
0
  6
Continuous
 62
     7
370
    25
100
AcDbCircle
 10
49.1127385887
 20
42.0567561602
 30
0.0
 40
0.222477475360585
100
AcDbArc
 50
96.5683552487
 51
118.7061304862
  0
LINE
  5
57D
330
1F
100
AcDbEntity
  8
0
  6
Continuous
 62
     7
370
    25
100
AcDbLine
 10
48.2202831641
 20
41.6881601905
 30
0.0
 11
49.0868693223
 21
42.188429731
 31
0.0
  0
ARC
  5
57E
330
1F
100
AcDbEntity
  8
0
  6
Continuous
 62
     7
370
    25
100
AcDbCircle
 10
48.225240829
 20
41.6750976607
 30
0.0
 40
0.0139716901387229
100
AcDbArc
 50
110.7834207996
 51
249.2165792006
  0
LINE
  5
57F
330
1F
100
AcDbEntity
  8
0
  6
Continuous
 62
     7
370
    25
100
AcDbLine
 10
49.005878798
 20
42.2518899917
 30
0.0
 11
48.1248237487
 21
41.743267738
 31
0.0
  0
LWPOLYLINE
  5
580
330
1F
100
AcDbEntity
  8
0
  6
Continuous
 62
     7
370
    25
100
AcDbPolyline
 90
       22
 70
   128
 43
0.0
 10
48.7739477738
 20
41.5995135603
 10
48.7689214105
 20
41.5581031619
 10
48.7542889352
 20
41.5145689436
 10
48.7313505075
 20
41.4727791118
 10
48.7021443073
 20
41.4364468764
 10
48.6692654337
 20
41.408800516
 10
48.635635319
 20
41.3922965311
 10
48.6042421463
 20
41.3884013731
 10
48.5778753369
 20
41.3974611439
 10
48.5588776974
 20
41.4186708431
 10
48.5489372516
 20
41.4501458959
 10
48.5489372516
 20
41.4890896056
 10
48.5588776974
 20
41.5320416529
 10
48.5778753369
 20
41.5751855597
 10
48.6042421463
 20
41.6146878007
 10
48.635635319
 20
41.6470384284
 10
48.6692654337
 20
41.6693629474
 10
48.7021443073
 20
41.6796777265
 10
48.7313505075
 20
41.6770662521
 10
48.7542889352
 20
41.6617605652
 10
48.7689214105
 20
41.6351206433
 10
48.7739477738
 20
41.5995135603
  0
ARC
  5
581
330
1F
100
AcDbEntity
  8
0
  6
Continuous
 62
     7
370
    25
100
AcDbCircle
 10
48.4473476947
 20
41.657430475
 30
0.0
 40
0.2304568500942339
100
AcDbArc
 50
296.1406467958
 51
3.8647291742
  0
LWPOLYLINE
  5
582
330
1F
100
AcDbEntity
  8
0
  6
Continuous
 62
     7
370
    25
100
AcDbPolyline
 90
        7
 70
   128
 43
0.0
 10
52.5096336254
 20
31.388584388
 10
52.5107678438
 20
31.38920527
 10
52.54965783
 20
31.4188541019
 10
52.5804821778
 20
31.4599167827
 10
52.6022462547
 20
31.5113809673
 10
52.6144620207
 20
31.5716511448
 10
52.6170731295
 20
31.6196704693
  0
LWPOLYLINE
  5
583
330
1F
100
AcDbEntity
  8
0
  6
Continuous
 62
     7
370
    25
100
AcDbPolyline
 90
        7
 70
   128
 43
0.0
 10
53.5314029242
 20
31.9784392488
 10
53.5325371426
 20
31.9790601308
 10
53.5714271288
 20
32.0087089626
 10
53.6022514766
 20
32.0497716435
 10
53.6240155535
 20
32.1012358281
 10
53.6362313195
 20
32.1615060056
 10
53.6388424284
 20
32.2095253301
  0
MTEXT
  5
584
330
1F
100
AcDbEntity
  8
NOTES
100
AcDbMText
 10
46.8770291274
 20
30.6550259005
 30
0.0
 40
0.5
 41
0.0
 71
     1
 72
     1
  1
grab bar in up position
  7
SLDTEXTSTYLE1
 73
     1
 44
1.0
  0
ENDSEC
  0
SECTION
  2
OBJECTS
  0
DICTIONARY
  5
C
330
0
100
AcDbDictionary
281
     1
  3
ACAD_GROUP
350
D
  3
ACAD_LAYOUT
350
1A
  3
ACAD_MLINESTYLE
350
17
  3
ACAD_PLOTSETTINGS
350
19
  3
ACAD_PLOTSTYLENAME
350
E
  3
ACAD_SCALELIST
350
47
  3
DWGPROPS
350
585
  0
DICTIONARY
  5
D
102
{ACAD_REACTORS
330
C
102
}
330
C
100
AcDbDictionary
281
     1
  0
DICTIONARY
  5
1A
102
{ACAD_REACTORS
330
C
102
}
330
C
100
AcDbDictionary
281
     1
  3
Layout1
350
1E
  3
Layout2
350
26
  3
Model
350
22
  0
DICTIONARY
  5
17
102
{ACAD_REACTORS
330
C
102
}
330
C
100
AcDbDictionary
281
     1
  3
Standard
350
18
  0
DICTIONARY
  5
19
102
{ACAD_REACTORS
330
C
102
}
330
C
100
AcDbDictionary
281
     1
  0
ACDBDICTIONARYWDFLT
  5
E
102
{ACAD_REACTORS
330
C
102
}
330
C
100
AcDbDictionary
281
     1
  3
Normal
350
F
100
AcDbDictionaryWithDefault
340
F
  0
DICTIONARY
  5
47
102
{ACAD_REACTORS
330
C
102
}
330
C
100
AcDbDictionary
281
     1
  3
A0
350
48
  3
A1
350
49
  3
A2
350
4A
  3
A3
350
4B
  3
A4
350
4C
  3
A5
350
4D
  3
A6
350
4E
  3
A7
350
4F
  3
A8
350
50
  3
A9
350
51
  3
B0
350
52
  3
B1
350
53
  3
B2
350
54
  3
B3
350
55
  3
B4
350
56
  3
B5
350
57
  3
B6
350
58
  3
B7
350
59
  3
B8
350
5A
  3
B9
350
5B
  3
C0
350
5C
  3
C1
350
5D
  3
C2
350
5E
  3
C3
350
5F
  3
C4
350
60
  3
C5
350
61
  3
C6
350
62
  3
C7
350
63
  3
C8
350
64
  3
C9
350
65
  3
D0
350
66
  3
D1
350
67
  3
D2
350
68
  0
XRECORD
  5
585
102
{ACAD_REACTORS
330
C
102
}
330
C
100
AcDbXrecord
280
     1
  1
DWGPROPS COOKIE
  2

  3

  4

  6

  7

  8
carl
  9

300
=
301
=
302
=
303
=
304
=
305
=
306
=
307
=
308
=
309
=
 40
0.0
 41
2461102.592909688
 42
2461102.59291419
  1

 90
        0
  0
LAYOUT
  5
1E
102
{ACAD_REACTORS
330
1A
102
}
330
1A
100
AcDbPlotSettings
  1

  2
none_device
  4

  6

 40
0.0
 41
0.0
 42
0.0
 43
0.0
 44
0.0
 45
0.0
 46
0.0
 47
0.0
 48
0.0
 49
0.0
140
0.0
141
0.0
142
1.0
143
1.0
 70
   688
 72
     0
 73
     0
 74
     5
  7

 75
    16
147
1.0
148
0.0
149
0.0
100
AcDbLayout
  1
Layout1
 70
     1
 71
     1
 10
0.0
 20
0.0
 11
12.0
 21
9.0
 12
0.0
 22
0.0
 32
0.0
 14
1.0000000000E+20
 24
1.0000000000E+20
 34
1.0000000000E+20
 15
-1.0000000000E+20
 25
-1.0000000000E+20
 35
-1.0000000000E+20
146
0.0
 13
0.0
 23
0.0
 33
0.0
 16
1.0
 26
0.0
 36
0.0
 17
0.0
 27
1.0
 37
0.0
 76
     0
330
1B
  0
LAYOUT
  5
26
102
{ACAD_REACTORS
330
1A
102
}
330
1A
100
AcDbPlotSettings
  1

  2
none_device
  4

  6

 40
0.0
 41
0.0
 42
0.0
 43
0.0
 44
0.0
 45
0.0
 46
0.0
 47
0.0
 48
0.0
 49
0.0
140
0.0
141
0.0
142
1.0
143
1.0
 70
   688
 72
     0
 73
     0
 74
     5
  7

 75
    16
147
1.0
148
0.0
149
0.0
100
AcDbLayout
  1
Layout2
 70
     1
 71
     2
 10
0.0
 20
0.0
 11
0.0
 21
0.0
 12
0.0
 22
0.0
 32
0.0
 14
0.0
 24
0.0
 34
0.0
 15
0.0
 25
0.0
 35
0.0
146
0.0
 13
0.0
 23
0.0
 33
0.0
 16
1.0
 26
0.0
 36
0.0
 17
0.0
 27
1.0
 37
0.0
 76
     0
330
23
  0
LAYOUT
  5
22
102
{ACAD_REACTORS
330
1A
102
}
330
1A
100
AcDbPlotSettings
  1

  2
none_device
  4
Letter_(8.50_x_11.00_Inches)
  6

 40
6.35
 41
6.35
 42
6.35000508
 43
6.35000508
 44
215.9
 45
279.4
 46
0.0
 47
0.0
 48
0.0
 49
0.0
140
0.0
141
0.0
142
1.0
143
1.0
 70
  1712
 72
     0
 73
     0
 74
     0
  7

 75
     0
147
1.0
148
0.0
149
0.0
100
AcDbLayout
  1
Model
 70
     1
 71
     0
 10
0.0
 20
0.0
 11
60.0
 21
60.0
 12
0.0
 22
0.0
 32
0.0
 14
0.0
 24
0.0
 34
0.0
 15
60.0
 25
60.0
 35
0.0
146
0.0
 13
0.0
 23
0.0
 33
0.0
 16
1.0
 26
0.0
 36
0.0
 17
0.0
 27
1.0
 37
0.0
 76
     0
330
1F
331
29
  0
MLINESTYLE
  5
18
102
{ACAD_REACTORS
330
17
102
}
330
17
100
AcDbMlineStyle
  2
Standard
 70
     0
  3

 62
   256
 51
90.0
 52
90.0
 71
     2
 49
0.5
 62
   256
  6
BYLAYER
 49
-0.5
 62
   256
  6
BYLAYER
  0
ACDBPLACEHOLDER
  5
F
102
{ACAD_REACTORS
330
E
102
}
330
E
  0
SCALE
  5
48
102
{ACAD_REACTORS
330
47
102
}
330
47
100
AcDbScale
 70
     0
300
1:1
140
1.0
141
1.0
290
     1
  0
SCALE
  5
49
102
{ACAD_REACTORS
330
47
102
}
330
47
100
AcDbScale
 70
     0
300
1:2
140
1.0
141
2.0
290
     0
  0
SCALE
  5
4A
102
{ACAD_REACTORS
330
47
102
}
330
47
100
AcDbScale
 70
     0
300
1:4
140
1.0
141
4.0
290
     0
  0
SCALE
  5
4B
102
{ACAD_REACTORS
330
47
102
}
330
47
100
AcDbScale
 70
     0
300
1:5
140
1.0
141
5.0
290
     0
  0
SCALE
  5
4C
102
{ACAD_REACTORS
330
47
102
}
330
47
100
AcDbScale
 70
     0
300
1:8
140
1.0
141
8.0
290
     0
  0
SCALE
  5
4D
102
{ACAD_REACTORS
330
47
102
}
330
47
100
AcDbScale
 70
     0
300
1:10
140
1.0
141
10.0
290
     0
  0
SCALE
  5
4E
102
{ACAD_REACTORS
330
47
102
}
330
47
100
AcDbScale
 70
     0
300
1:16
140
1.0
141
16.0
290
     0
  0
SCALE
  5
4F
102
{ACAD_REACTORS
330
47
102
}
330
47
100
AcDbScale
 70
     0
300
1:20
140
1.0
141
20.0
290
     0
  0
SCALE
  5
50
102
{ACAD_REACTORS
330
47
102
}
330
47
100
AcDbScale
 70
     0
300
1:30
140
1.0
141
30.0
290
     0
  0
SCALE
  5
51
102
{ACAD_REACTORS
330
47
102
}
330
47
100
AcDbScale
 70
     0
300
1:40
140
1.0
141
40.0
290
     0
  0
SCALE
  5
52
102
{ACAD_REACTORS
330
47
102
}
330
47
100
AcDbScale
 70
     0
300
1:50
140
1.0
141
50.0
290
     0
  0
SCALE
  5
53
102
{ACAD_REACTORS
330
47
102
}
330
47
100
AcDbScale
 70
     0
300
1:100
140
1.0
141
100.0
290
     0
  0
SCALE
  5
54
102
{ACAD_REACTORS
330
47
102
}
330
47
100
AcDbScale
 70
     0
300
2:1
140
2.0
141
1.0
290
     0
  0
SCALE
  5
55
102
{ACAD_REACTORS
330
47
102
}
330
47
100
AcDbScale
 70
     0
300
4:1
140
4.0
141
1.0
290
     0
  0
SCALE
  5
56
102
{ACAD_REACTORS
330
47
102
}
330
47
100
AcDbScale
 70
     0
300
8:1
140
8.0
141
1.0
290
     0
  0
SCALE
  5
57
102
{ACAD_REACTORS
330
47
102
}
330
47
100
AcDbScale
 70
     0
300
10:1
140
10.0
141
1.0
290
     0
  0
SCALE
  5
58
102
{ACAD_REACTORS
330
47
102
}
330
47
100
AcDbScale
 70
     0
300
100:1
140
100.0
141
1.0
290
     0
  0
SCALE
  5
59
102
{ACAD_REACTORS
330
47
102
}
330
47
100
AcDbScale
 70
     0
300
1/128" = 1'-0"
140
0.0078125
141
12.0
290
     0
  0
SCALE
  5
5A
102
{ACAD_REACTORS
330
47
102
}
330
47
100
AcDbScale
 70
     0
300
1/64" = 1'-0"
140
0.015625
141
12.0
290
     0
  0
SCALE
  5
5B
102
{ACAD_REACTORS
330
47
102
}
330
47
100
AcDbScale
 70
     0
300
1/32" = 1'-0"
140
0.03125
141
12.0
290
     0
  0
SCALE
  5
5C
102
{ACAD_REACTORS
330
47
102
}
330
47
100
AcDbScale
 70
     0
300
1/16" = 1'-0"
140
0.0625
141
12.0
290
     0
  0
SCALE
  5
5D
102
{ACAD_REACTORS
330
47
102
}
330
47
100
AcDbScale
 70
     0
300
3/32" = 1'-0"
140
0.09375
141
12.0
290
     0
  0
SCALE
  5
5E
102
{ACAD_REACTORS
330
47
102
}
330
47
100
AcDbScale
 70
     0
300
1/8" = 1'-0"
140
0.125
141
12.0
290
     0
  0
SCALE
  5
5F
102
{ACAD_REACTORS
330
47
102
}
330
47
100
AcDbScale
 70
     0
300
3/16" = 1'-0"
140
0.1875
141
12.0
290
     0
  0
SCALE
  5
60
102
{ACAD_REACTORS
330
47
102
}
330
47
100
AcDbScale
 70
     0
300
1/4" = 1'-0"
140
0.25
141
12.0
290
     0
  0
SCALE
  5
61
102
{ACAD_REACTORS
330
47
102
}
330
47
100
AcDbScale
 70
     0
300
3/8" = 1'-0"
140
0.375
141
12.0
290
     0
  0
SCALE
  5
62
102
{ACAD_REACTORS
330
47
102
}
330
47
100
AcDbScale
 70
     0
300
1/2" = 1'-0"
140
0.5
141
12.0
290
     0
  0
SCALE
  5
63
102
{ACAD_REACTORS
330
47
102
}
330
47
100
AcDbScale
 70
     0
300
3/4" = 1'-0"
140
0.75
141
12.0
290
     0
  0
SCALE
  5
64
102
{ACAD_REACTORS
330
47
102
}
330
47
100
AcDbScale
 70
     0
300
1" = 1'-0"
140
1.0
141
12.0
290
     0
  0
SCALE
  5
65
102
{ACAD_REACTORS
330
47
102
}
330
47
100
AcDbScale
 70
     0
300
1-1/2" = 1'-0"
140
1.5
141
12.0
290
     0
  0
SCALE
  5
66
102
{ACAD_REACTORS
330
47
102
}
330
47
100
AcDbScale
 70
     0
300
3" = 1'-0"
140
3.0
141
12.0
290
     0
  0
SCALE
  5
67
102
{ACAD_REACTORS
330
47
102
}
330
47
100
AcDbScale
 70
     0
300
6" = 1'-0"
140
6.0
141
12.0
290
     0
  0
SCALE
  5
68
102
{ACAD_REACTORS
330
47
102
}
330
47
100
AcDbScale
 70
     0
300
1'-0" = 1'-0"
140
12.0
141
12.0
290
     0
  0
ENDSEC
  0
EOF
