  0
SECTION
  2
HEADER
  9
$ACADVER
  1
AC1015
  9
$ACADMAINTVER
 70
     6
  9
$DWGCODEPAGE
  3
ANSI_1252
  9
$INSBASE
 10
0.0
 20
0.0
 30
0.0
  9
$EXTMIN
 10
0.0
 20
0.0
 30
0.0
  9
$EXTMAX
 10
60.0
 20
60.0
 30
0.0
  9
$LIMMIN
 10
0.0
 20
0.0
  9
$LIMMAX
 10
60.0
 20
60.0
  9
$ORTHOMODE
 70
     0
  9
$REGENMODE
 70
     1
  9
$FILLMODE
 70
     1
  9
$QTEXTMODE
 70
     0
  9
$MIRRTEXT
 70
     1
  9
$LTSCALE
 40
1.0
  9
$ATTMODE
 70
     1
  9
$TEXTSIZE
 40
0.5
  9
$TRACEWID
 40
0.05
  9
$TEXTSTYLE
  7
Standard
  9
$CLAYER
  8
0
  9
$CELTYPE
  6
ByLayer
  9
$CECOLOR
 62
   256
  9
$CELTSCALE
 40
1.0
  9
$DISPSILH
 70
     0
  9
$DIMSCALE
 40
1.0
  9
$DIMASZ
 40
0.5
  9
$DIMEXO
 40
0.1666666667
  9
$DIMDLI
 40
0.38
  9
$DIMRND
 40
0.0
  9
$DIMDLE
 40
0.0
  9
$DIMEXE
 40
0.375
  9
$DIMTP
 40
0.0
  9
$DIMTM
 40
0.0
  9
$DIMTXT
 40
0.5
  9
$DIMCEN
 40
0.09
  9
$DIMTSZ
 40
0.0
  9
$DIMTOL
 70
     0
  9
$DIMLIM
 70
     0
  9
$DIMTIH
 70
     1
  9
$DIMTOH
 70
     1
  9
$DIMSE1
 70
     0
  9
$DIMSE2
 70
     0
  9
$DIMTAD
 70
     0
  9
$DIMZIN
 70
     1
  9
$DIMBLK
  1

  9
$DIMASO
 70
     1
  9
$DIMSHO
 70
     1
  9
$DIMPOST
  1

  9
$DIMAPOST
  1

  9
$DIMALT
 70
     0
  9
$DIMALTD
 70
     2
  9
$DIMALTF
 40
25.4
  9
$DIMLFAC
 40
1.0
  9
$DIMTOFL
 70
     0
  9
$DIMTVP
 40
0.0
  9
$DIMTIX
 70
     0
  9
$DIMSOXD
 70
     0
  9
$DIMSAH
 70
     0
  9
$DIMBLK1
  1

  9
$DIMBLK2
  1

  9
$DIMSTYLE
  2
Standard
  9
$DIMCLRD
 70
     0
  9
$DIMCLRE
 70
     0
  9
$DIMCLRT
 70
     0
  9
$DIMTFAC
 40
1.0
  9
$DIMGAP
 40
0.125
  9
$DIMJUST
 70
     0
  9
$DIMSD1
 70
     0
  9
$DIMSD2
 70
     0
  9
$DIMTOLJ
 70
     1
  9
$DIMTZIN
 70
     1
  9
$DIMALTZ
 70
     0
  9
$DIMALTTZ
 70
     0
  9
$DIMUPT
 70
     0
  9
$DIMDEC
 70
     2
  9
$DIMTDEC
 70
     2
  9
$DIMALTU
 70
     2
  9
$DIMALTTD
 70
     2
  9
$DIMTXSTY
  7
Standard
  9
$DIMAUNIT
 70
     0
  9
$DIMADEC
 70
     2
  9
$DIMALTRND
 40
0.0
  9
$DIMAZIN
 70
     0
  9
$DIMDSEP
 70
    46
  9
$DIMATFIT
 70
     3
  9
$DIMFRAC
 70
     0
  9
$DIMLDRBLK
  1

  9
$DIMLUNIT
 70
     2
  9
$DIMLWD
 70
    -2
  9
$DIMLWE
 70
    -2
  9
$DIMTMOVE
 70
     0
  9
$LUNITS
 70
     2
  9
$LUPREC
 70
     2
  9
$SKETCHINC
 40
0.1
  9
$FILLETRAD
 40
0.5
  9
$AUNITS
 70
     0
  9
$AUPREC
 70
     2
  9
$MENU
  1
.
  9
$ELEVATION
 40
0.0
  9
$PELEVATION
 40
0.0
  9
$THICKNESS
 40
0.0
  9
$LIMCHECK
 70
     0
  9
$CHAMFERA
 40
0.0
  9
$CHAMFERB
 40
0.0
  9
$CHAMFERC
 40
0.0
  9
$CHAMFERD
 40
0.0
  9
$SKPOLY
 70
     0
  9
$TDCREATE
 40
2461103.555923438
  9
$TDUCREATE
 40
2461103.764256771
  9
$TDUPDATE
 40
2461103.555927558
  9
$TDUUPDATE
 40
2461103.764260891
  9
$TDINDWG
 40
0.0000000116
  9
$TDUSRTIMER
 40
0.0000000116
  9
$USRTIMER
 70
     1
  9
$ANGBASE
 50
0.0
  9
$ANGDIR
 70
     0
  9
$PDMODE
 70
     0
  9
$PDSIZE
 40
-1.0
  9
$PLINEWID
 40
0.0
  9
$SPLFRAME
 70
     0
  9
$SPLINETYPE
 70
     6
  9
$SPLINESEGS
 70
     8
  9
$HANDSEED
  5
345
  9
$SURFTAB1
 70
     6
  9
$SURFTAB2
 70
     6
  9
$SURFTYPE
 70
     6
  9
$SURFU
 70
     6
  9
$SURFV
 70
     6
  9
$UCSBASE
  2

  9
$UCSNAME
  2

  9
$UCSORG
 10
0.0
 20
0.0
 30
0.0
  9
$UCSXDIR
 10
1.0
 20
0.0
 30
0.0
  9
$UCSYDIR
 10
0.0
 20
1.0
 30
0.0
  9
$UCSORTHOREF
  2

  9
$UCSORTHOVIEW
 70
     0
  9
$UCSORGTOP
 10
0.0
 20
0.0
 30
0.0
  9
$UCSORGBOTTOM
 10
0.0
 20
0.0
 30
0.0
  9
$UCSORGLEFT
 10
0.0
 20
0.0
 30
0.0
  9
$UCSORGRIGHT
 10
0.0
 20
0.0
 30
0.0
  9
$UCSORGFRONT
 10
0.0
 20
0.0
 30
0.0
  9
$UCSORGBACK
 10
0.0
 20
0.0
 30
0.0
  9
$PUCSBASE
  2

  9
$PUCSNAME
  2

  9
$PUCSORG
 10
0.0
 20
0.0
 30
0.0
  9
$PUCSXDIR
 10
1.0
 20
0.0
 30
0.0
  9
$PUCSYDIR
 10
0.0
 20
1.0
 30
0.0
  9
$PUCSORTHOREF
  2

  9
$PUCSORTHOVIEW
 70
     0
  9
$PUCSORGTOP
 10
0.0
 20
0.0
 30
0.0
  9
$PUCSORGBOTTOM
 10
0.0
 20
0.0
 30
0.0
  9
$PUCSORGLEFT
 10
0.0
 20
0.0
 30
0.0
  9
$PUCSORGRIGHT
 10
0.0
 20
0.0
 30
0.0
  9
$PUCSORGFRONT
 10
0.0
 20
0.0
 30
0.0
  9
$PUCSORGBACK
 10
0.0
 20
0.0
 30
0.0
  9
$USERI1
 70
     0
  9
$USERI2
 70
     0
  9
$USERI3
 70
     0
  9
$USERI4
 70
     0
  9
$USERI5
 70
     0
  9
$USERR1
 40
0.0
  9
$USERR2
 40
0.0
  9
$USERR3
 40
0.0
  9
$USERR4
 40
0.0
  9
$USERR5
 40
0.0
  9
$WORLDVIEW
 70
     1
  9
$SHADEDGE
 70
     3
  9
$SHADEDIF
 70
    70
  9
$TILEMODE
 70
     1
  9
$MAXACTVP
 70
    64
  9
$PINSBASE
 10
0.0
 20
0.0
 30
0.0
  9
$PLIMCHECK
 70
     0
  9
$PEXTMIN
 10
1.0000000000E+20
 20
1.0000000000E+20
 30
1.0000000000E+20
  9
$PEXTMAX
 10
-1.0000000000E+20
 20
-1.0000000000E+20
 30
-1.0000000000E+20
  9
$PLIMMIN
 10
0.0
 20
0.0
  9
$PLIMMAX
 10
12.0
 20
9.0
  9
$UNITMODE
 70
     0
  9
$VISRETAIN
 70
     1
  9
$PLINEGEN
 70
     0
  9
$PSLTSCALE
 70
     1
  9
$TREEDEPTH
 70
  3020
  9
$CMLSTYLE
  2
Standard
  9
$CMLJUST
 70
     0
  9
$CMLSCALE
 40
1.0
  9
$PROXYGRAPHICS
 70
     1
  9
$MEASUREMENT
 70
     0
  9
$CELWEIGHT
370
    -1
  9
$ENDCAPS
280
     0
  9
$JOINSTYLE
280
     0
  9
$LWDISPLAY
290
     1
  9
$INSUNITS
 70
     1
  9
$HYPERLINKBASE
  1

  9
$STYLESHEET
  1

  9
$XEDIT
290
     1
  9
$CEPSNTYPE
380
     0
  9
$PSTYLEMODE
290
     1
  9
$FINGERPRINTGUID
  2
{61506d20-e17d-4cb6-91fa-c4140f9f3777}
  9
$VERSIONGUID
  2
{FAEB1C32-E019-11D5-929B-00C0DF256EC4}
  9
$EXTNAMES
290
     1
  9
$PSVPSCALE
 40
0.0
  9
$OLESTARTUP
290
     0
  0
ENDSEC
  0
SECTION
  2
CLASSES
  0
CLASS
  1
ACDBDICTIONARYWDFLT
  2
AcDbDictionaryWithDefault
  3
ObjectDBX Classes
 90
        0
280
     0
281
     0
  0
CLASS
  1
VISUALSTYLE
  2
AcDbVisualStyle
  3
ObjectDBX Classes
 90
     4095
280
     0
281
     0
  0
CLASS
  1
MATERIAL
  2
AcDbMaterial
  3
ObjectDBX Classes
 90
     1153
280
     0
281
     0
  0
CLASS
  1
SCALE
  2
AcDbScale
  3
ObjectDBX Classes
 90
     1153
280
     0
281
     0
  0
CLASS
  1
TABLESTYLE
  2
AcDbTableStyle
  3
ObjectDBX Classes
 90
     4095
280
     0
281
     0
  0
CLASS
  1
MLEADERSTYLE
  2
AcDbMLeaderStyle
  3
ACDB_MLEADERSTYLE_CLASS
 90
     4095
280
     0
281
     0
  0
CLASS
  1
SUN
  2
AcDbSun
  3
SCENEOE
 90
     1153
280
     0
281
     0
  0
CLASS
  1
ACDBPLACEHOLDER
  2
AcDbPlaceHolder
  3
ObjectDBX Classes
 90
        0
280
     0
281
     0
  0
CLASS
  1
LAYOUT
  2
AcDbLayout
  3
ObjectDBX Classes
 90
        0
280
     0
281
     0
  0
ENDSEC
  0
SECTION
  2
TABLES
  0
TABLE
  2
VPORT
  5
8
330
0
100
AcDbSymbolTable
 70
     1
  0
VPORT
  5
29
330
8
100
AcDbSymbolTableRecord
100
AcDbViewportTableRecord
  2
*Active
 70
     0
 10
0.0
 20
0.0
 11
1.0
 21
1.0
 12
30.0
 22
30.0
 13
0.0
 23
0.0
 14
0.5
 24
0.5
 15
0.5
 25
0.5
 16
0.0
 26
0.0
 36
1.0
 17
0.0
 27
0.0
 37
0.0
 40
60.0
 41
1.0
 42
50.0
 43
0.0
 44
0.0
 50
0.0
 51
0.0
 71
     0
 72
  2000
 73
     1
 74
     3
 75
     0
 76
     0
 77
     0
 78
     0
281
     0
 65
     1
110
0.0
120
0.0
130
0.0
111
1.0
121
0.0
131
0.0
112
0.0
122
1.0
132
0.0
 79
     0
146
0.0
  0
ENDTAB
  0
TABLE
  2
LTYPE
  5
5
330
0
100
AcDbSymbolTable
 70
     6
  0
LTYPE
  5
14
330
5
100
AcDbSymbolTableRecord
100
AcDbLinetypeTableRecord
  2
ByBlock
 70
     0
  3

 72
    65
 73
     0
 40
0.0
  0
LTYPE
  5
15
330
5
100
AcDbSymbolTableRecord
100
AcDbLinetypeTableRecord
  2
ByLayer
 70
     0
  3

 72
    65
 73
     0
 40
0.0
  0
LTYPE
  5
16
330
5
100
AcDbSymbolTableRecord
100
AcDbLinetypeTableRecord
  2
Continuous
 70
     0
  3
Solid line
 72
    65
 73
     0
 40
0.0
  0
LTYPE
  5
6E
330
5
100
AcDbSymbolTableRecord
100
AcDbLinetypeTableRecord
  2
HIDDEN
 70
     0
  3
Hidden __ __ __ __ __ __ __ __ __ __ __ __ __ __
 72
    65
 73
     2
 40
0.075
 49
0.05
 74
     0
 49
-0.025
 74
     0
  0
LTYPE
  5
6F
330
5
100
AcDbSymbolTableRecord
100
AcDbLinetypeTableRecord
  2
PHANTOM
 70
     0
  3
Phantom ______  __  __  ______  __  __  ______
 72
    65
 73
     6
 40
0.5
 49
0.25
 74
     0
 49
-0.05
 74
     0
 49
0.05
 74
     0
 49
-0.05
 74
     0
 49
0.05
 74
     0
 49
-0.05
 74
     0
  0
LTYPE
  5
70
330
5
100
AcDbSymbolTableRecord
100
AcDbLinetypeTableRecord
  2
CENTER
 70
     0
  3
Center ____ _ ____ _ ____ _ ____ _ ____ _ ____
 72
    65
 73
     4
 40
0.4
 49
0.25
 74
     0
 49
-0.05
 74
     0
 49
0.05
 74
     0
 49
-0.05
 74
     0
  0
LTYPE
  5
71
330
5
100
AcDbSymbolTableRecord
100
AcDbLinetypeTableRecord
  2
CENTERX2
 70
     0
  3
Center (2x) ________  __  ________  __  _____
 72
    65
 73
     4
 40
0.8
 49
0.5
 74
     0
 49
-0.1
 74
     0
 49
0.1
 74
     0
 49
-0.1
 74
     0
  0
LTYPE
  5
72
330
5
100
AcDbSymbolTableRecord
100
AcDbLinetypeTableRecord
  2
DOT2
 70
     0
  3
Dot (.5x) ........................................
 72
    65
 73
     2
 40
0.025
 49
0.0
 74
     0
 49
-0.025
 74
     0
  0
ENDTAB
  0
TABLE
  2
LAYER
  5
2
330
0
100
AcDbSymbolTable
 70
     6
  0
LAYER
  5
10
330
2
100
AcDbSymbolTableRecord
100
AcDbLayerTableRecord
  2
0
 70
     0
 62
     7
  6
Continuous
370
    -3
390
F
  0
LAYER
  5
73
330
2
100
AcDbSymbolTableRecord
100
AcDbLayerTableRecord
  2
FORMAT
 70
     0
 62
     7
  6
Continuous
370
    -3
390
F
  0
LAYER
  5
74
330
2
100
AcDbSymbolTableRecord
100
AcDbLayerTableRecord
  2
NOTES
 70
     0
 62
     1
  6
Continuous
370
    -3
390
F
  0
LAYER
  5
75
330
2
100
AcDbSymbolTableRecord
100
AcDbLayerTableRecord
  2
OBJECT
 70
     0
 62
     7
  6
Continuous
370
    -3
390
F
  0
LAYER
  5
76
330
2
100
AcDbSymbolTableRecord
100
AcDbLayerTableRecord
  2
DIMS
 70
     0
 62
     5
  6
Continuous
370
    -3
390
F
  0
LAYER
  5
77
330
2
100
AcDbSymbolTableRecord
100
AcDbLayerTableRecord
  2
TITLE
 70
     0
 62
     8
  6
Continuous
370
    -3
390
F
  0
ENDTAB
  0
TABLE
  2
STYLE
  5
3
330
0
100
AcDbSymbolTable
 70
     4
  0
STYLE
  5
11
330
3
100
AcDbSymbolTableRecord
100
AcDbTextStyleTableRecord
  2
Standard
 70
     0
 40
0.0
 41
1.0
 50
0.0
 71
     0
 42
0.5
  3
txt
  4

  0
STYLE
  5
83
330
3
100
AcDbSymbolTableRecord
100
AcDbTextStyleTableRecord
  2
SLDTEXTSTYLE0
 70
     0
 40
0.0
 41
0.605
 50
0.0
 71
     0
 42
0.5
  3
TXT
  4

  0
STYLE
  5
87
330
3
100
AcDbSymbolTableRecord
100
AcDbTextStyleTableRecord
  2
SLDTEXTSTYLE1
 70
     0
 40
0.0
 41
0.75
 50
0.0
 71
     0
 42
0.5
  3
TXT
  4

  0
STYLE
  5
8A
330
3
100
AcDbSymbolTableRecord
100
AcDbTextStyleTableRecord
  2
SLDTEXTSTYLE2
 70
     0
 40
0.0
 41
0.6607142857
 50
0.0
 71
     0
 42
0.5
  3
TXT
  4

  0
ENDTAB
  0
TABLE
  2
VIEW
  5
6
330
0
100
AcDbSymbolTable
 70
     0
  0
ENDTAB
  0
TABLE
  2
UCS
  5
7
330
0
100
AcDbSymbolTable
 70
     0
  0
ENDTAB
  0
TABLE
  2
APPID
  5
9
330
0
100
AcDbSymbolTable
 70
     1
  0
APPID
  5
12
330
9
100
AcDbSymbolTableRecord
100
AcDbRegAppTableRecord
  2
ACAD
 70
     0
  0
ENDTAB
  0
TABLE
  2
DIMSTYLE
  5
A
330
0
100
AcDbSymbolTable
 70
     4
100
AcDbDimStyleTable
  0
DIMSTYLE
105
27
330
A
100
AcDbSymbolTableRecord
100
AcDbDimStyleTableRecord
  2
Standard
 70
     0
178
     0
340
11
  0
DIMSTYLE
105
D4
102
{ACAD_REACTORS
330
D3
330
E5
330
1C9
102
}
330
A
100
AcDbSymbolTableRecord
100
AcDbDimStyleTableRecord
  2
SLDDIMSTYLE0
 70
     0
 41
0.5
 44
0.0
 45
0.000000001
 78
    12
 79
     3
140
0.5
147
0.125
173
     1
178
     0
271
     2
272
     2
276
     2
277
     5
284
    12
340
87
341
D5
343
D5
344
D5
  0
DIMSTYLE
105
1BA
102
{ACAD_REACTORS
330
1B9
330
1D4
330
22C
330
23B
102
}
330
A
100
AcDbSymbolTableRecord
100
AcDbDimStyleTableRecord
  2
SLDDIMSTYLE1
 70
     0
 41
0.5
 44
0.0
 45
0.000000001
 78
    12
 79
     3
140
0.5
147
0.125
173
     1
178
     0
271
     6
272
     2
276
     2
277
     5
284
    12
340
87
341
D5
343
D5
344
D5
  0
DIMSTYLE
105
1E4
102
{ACAD_REACTORS
330
1E3
102
}
330
A
100
AcDbSymbolTableRecord
100
AcDbDimStyleTableRecord
  2
SLDDIMSTYLE2
 70
     0
 41
0.5
 44
0.0
 45
0.000000001
 78
    12
 79
     3
140
0.5
141
0.0
147
0.125
173
     1
178
     0
271
     2
272
     2
276
     2
277
     5
284
    12
340
87
341
D5
343
D5
344
D5
  0
ENDTAB
  0
TABLE
  2
BLOCK_RECORD
  5
1
330
0
100
AcDbSymbolTable
 70
    13
  0
BLOCK_RECORD
  5
1F
330
1
100
AcDbSymbolTableRecord
100
AcDbBlockTableRecord
  2
*Model_Space
340
22
  0
BLOCK_RECORD
  5
1B
330
1
100
AcDbSymbolTableRecord
100
AcDbBlockTableRecord
  2
*Paper_Space
340
1E
  0
BLOCK_RECORD
  5
23
330
1
100
AcDbSymbolTableRecord
100
AcDbBlockTableRecord
  2
*Paper_Space0
340
26
  0
BLOCK_RECORD
  5
8D
330
1
100
AcDbSymbolTableRecord
100
AcDbBlockTableRecord
  2
SW_NOTE_0
340
0
102
{BLKREFS
331
92
102
}
  0
BLOCK_RECORD
  5
93
330
1
100
AcDbSymbolTableRecord
100
AcDbBlockTableRecord
  2
SW_NOTE_0_1
340
0
102
{BLKREFS
331
9A
102
}
  0
BLOCK_RECORD
  5
D5
330
1
100
AcDbSymbolTableRecord
100
AcDbBlockTableRecord
  2
_Open90
340
0
102
{BLKREFS
331
DE
331
DF
331
E9
331
EA
331
1BE
331
1BF
331
1CD
331
1CE
331
1D8
331
1D9
331
1E8
331
230
331
231
331
23F
331
240
102
}
  0
BLOCK_RECORD
  5
DB
330
1
100
AcDbSymbolTableRecord
100
AcDbBlockTableRecord
  2
_D
340
0
  0
BLOCK_RECORD
  5
E6
330
1
100
AcDbSymbolTableRecord
100
AcDbBlockTableRecord
  2
_D_1
340
0
  0
BLOCK_RECORD
  5
1BB
330
1
100
AcDbSymbolTableRecord
100
AcDbBlockTableRecord
  2
_D_2
340
0
  0
BLOCK_RECORD
  5
1CA
330
1
100
AcDbSymbolTableRecord
100
AcDbBlockTableRecord
  2
_D_3
340
0
  0
BLOCK_RECORD
  5
1D5
330
1
100
AcDbSymbolTableRecord
100
AcDbBlockTableRecord
  2
_D_4
340
0
  0
BLOCK_RECORD
  5
1E5
330
1
100
AcDbSymbolTableRecord
100
AcDbBlockTableRecord
  2
_D_5
340
0
  0
BLOCK_RECORD
  5
1F1
330
1
100
AcDbSymbolTableRecord
100
AcDbBlockTableRecord
  2
SW_NOTE_0_2
340
0
102
{BLKREFS
331
1F6
102
}
  0
BLOCK_RECORD
  5
22D
330
1
100
AcDbSymbolTableRecord
100
AcDbBlockTableRecord
  2
_D_6
340
0
  0
BLOCK_RECORD
  5
23C
330
1
100
AcDbSymbolTableRecord
100
AcDbBlockTableRecord
  2
_D_7
340
0
  0
ENDTAB
  0
ENDSEC
  0
SECTION
  2
BLOCKS
  0
BLOCK
  5
20
330
1F
100
AcDbEntity
  8
0
100
AcDbBlockBegin
  2
*Model_Space
 70
     0
 10
0.0
 20
0.0
 30
0.0
  3
*Model_Space
  1

  0
ENDBLK
  5
21
330
1F
100
AcDbEntity
  8
0
100
AcDbBlockEnd
  0
BLOCK
  5
1C
330
1B
100
AcDbEntity
 67
     1
  8
0
100
AcDbBlockBegin
  2
*Paper_Space
 70
     0
 10
0.0
 20
0.0
 30
0.0
  3
*Paper_Space
  1

  0
ENDBLK
  5
1D
330
1B
100
AcDbEntity
 67
     1
  8
0
100
AcDbBlockEnd
  0
BLOCK
  5
24
330
23
100
AcDbEntity
  8
0
100
AcDbBlockBegin
  2
*Paper_Space0
 70
     0
 10
0.0
 20
0.0
 30
0.0
  3
*Paper_Space0
  1

  0
ENDBLK
  5
25
330
23
100
AcDbEntity
  8
0
100
AcDbBlockEnd
  0
BLOCK
  5
8E
330
8D
100
AcDbEntity
  8
0
100
AcDbBlockBegin
  2
SW_NOTE_0
 70
     0
 10
0.0
 20
0.0
 30
0.0
  3
SW_NOTE_0
  1

  0
MTEXT
  5
90
330
8D
100
AcDbEntity
  8
NOTES
 62
     0
100
AcDbMText
 10
0.0
 20
0.3759780908
 30
0.0
 40
0.2916666667
 41
0.0
 71
     1
 72
     1
  1
FROST PRODUCTS LTD.
  7
SLDTEXTSTYLE0
 73
     1
 44
1.0
  0
MTEXT
  5
91
330
8D
100
AcDbEntity
  8
NOTES
 62
     0
100
AcDbMText
 10
0.0
 20
-0.0495142709
 30
0.0
 40
0.2291666667
 41
0.0
 71
     1
 72
     1
  1
5280 JOHN LUCAS DRIVE, BURLINGTON, ON, L7L 5Z9
  7
SLDTEXTSTYLE0
 73
     1
 44
1.0
  0
ENDBLK
  5
8F
330
8D
100
AcDbEntity
  8
0
100
AcDbBlockEnd
  0
BLOCK
  5
94
330
93
100
AcDbEntity
  8
0
100
AcDbBlockBegin
  2
SW_NOTE_0_1
 70
     0
 10
0.0
 20
0.0
 30
0.0
  3
SW_NOTE_0_1
  1

  0
MTEXT
  5
96
330
93
100
AcDbEntity
  8
NOTES
 62
     0
100
AcDbMText
 10
0.0
 20
0.2381282771
 30
0.0
 40
0.184729064
 41
0.0
 71
     1
 72
     1
  1
PROPRIETARY AND CONFIDENTIAL
  7
SLDTEXTSTYLE0
 73
     1
 44
1.0
  0
MTEXT
  5
97
330
93
100
AcDbEntity
  8
NOTES
 62
     0
100
AcDbMText
 10
0.0
 20
-0.0504364796
 30
0.0
 40
0.25
 41
0.0
 71
     1
 72
     1
  1
THE INFORMATION CONTAINED IN THIS DRAWING IS THE SOLE PROPERTY OF
  7
SLDTEXTSTYLE0
 73
     1
 44
1.0
  0
MTEXT
  5
98
330
93
100
AcDbEntity
  8
NOTES
 62
     0
100
AcDbMText
 10
0.0
 20
-0.4231398941
 30
0.0
 40
0.25
 41
0.0
 71
     1
 72
     1
  1
FROST PRODUCTS LTD.  ANY REPRODUCTION IN PART OR AS A WHOLE WITHOUT
  7
SLDTEXTSTYLE0
 73
     1
 44
1.0
  0
MTEXT
  5
99
330
93
100
AcDbEntity
  8
NOTES
 62
     0
100
AcDbMText
 10
0.0
 20
-0.7958433086
 30
0.0
 40
0.25
 41
0.0
 71
     1
 72
     1
  1
THE WRITTEN PERMISSION OF FROST PRODUCTS LTD. IS PROHIBITED.
  7
SLDTEXTSTYLE0
 73
     1
 44
1.0
  0
ENDBLK
  5
95
330
93
100
AcDbEntity
  8
0
100
AcDbBlockEnd
  0
BLOCK
  5
D6
330
D5
100
AcDbEntity
  8
0
100
AcDbBlockBegin
  2
_Open90
 70
     0
 10
0.0
 20
0.0
 30
0.0
  3
_Open90
  1

  0
LINE
  5
D8
330
D5
100
AcDbEntity
  8
0
  6
ByBlock
 62
     0
370
    -2
100
AcDbLine
 10
-0.5
 20
0.5
 30
0.0
 11
0.0
 21
0.0
 31
0.0
  0
LINE
  5
D9
330
D5
100
AcDbEntity
  8
0
  6
ByBlock
 62
     0
370
    -2
100
AcDbLine
 10
0.0
 20
0.0
 30
0.0
 11
-0.5
 21
-0.5
 31
0.0
  0
LINE
  5
DA
330
D5
100
AcDbEntity
  8
0
  6
ByBlock
 62
     0
370
    -2
100
AcDbLine
 10
0.0
 20
0.0
 30
0.0
 11
-1.0
 21
0.0
 31
0.0
  0
ENDBLK
  5
D7
330
D5
100
AcDbEntity
  8
0
100
AcDbBlockEnd
  0
BLOCK
  5
DC
330
DB
100
AcDbEntity
  8
0
100
AcDbBlockBegin
  2
_D
 70
     0
 10
0.0
 20
0.0
 30
0.0
  3
_D
  1

  0
INSERT
  5
DE
330
DB
100
AcDbEntity
  8
DIMS
100
AcDbBlockReference
  2
_Open90
 10
20.3927013355
 20
9.5129538223
 30
-3.5670360985
 41
0.5
 42
0.5
 50
180.0
  0
INSERT
  5
DF
330
DB
100
AcDbEntity
  8
DIMS
100
AcDbBlockReference
  2
_Open90
 10
50.3926585133
 20
9.5129538223
 30
-3.5670360985
 41
0.5
 42
0.5
 50
0.0
  0
LINE
  5
E0
330
DB
100
AcDbEntity
  8
DIMS
100
AcDbLine
 10
20.3927013355
 20
10.4118866386
 30
0.0
 11
20.3927013355
 21
9.1379538223
 31
0.0
  0
LINE
  5
E1
330
DB
100
AcDbEntity
  8
DIMS
100
AcDbLine
 10
50.3926585133
 20
16.849703878
 30
0.0
 11
50.3926585133
 21
9.1379538223
 31
0.0
  0
LINE
  5
E2
330
DB
100
AcDbEntity
  8
DIMS
100
AcDbLine
 10
20.3927013355
 20
9.5129538223
 30
0.0
 11
37.2817175297
 21
9.5129538223
 31
0.0
  0
LINE
  5
E3
330
DB
100
AcDbEntity
  8
DIMS
100
AcDbLine
 10
50.3926585133
 20
9.5129538223
 30
0.0
 11
38.2268563847
 21
9.5129538223
 31
0.0
  0
MTEXT
  5
E4
330
DB
100
AcDbEntity
  8
DIMS
100
AcDbMText
 10
37.2817175297
 20
9.7606127352
 30
0.0
 40
0.5
 41
0.0
 71
     1
 72
     1
  1
30"
  7
SLDTEXTSTYLE1
 73
     1
 44
1.0
  0
ENDBLK
  5
DD
330
DB
100
AcDbEntity
  8
0
100
AcDbBlockEnd
  0
BLOCK
  5
E7
330
E6
100
AcDbEntity
  8
0
100
AcDbBlockBegin
  2
_D_1
 70
     0
 10
0.0
 20
0.0
 30
0.0
  3
_D_1
  1

  0
INSERT
  5
E9
330
E6
100
AcDbEntity
  8
DIMS
100
AcDbBlockReference
  2
_Open90
 10
19.2543079838
 20
21.5785533053
 30
-3.5670360985
 41
0.5
 42
0.5
 50
90.0
  0
INSERT
  5
EA
330
E6
100
AcDbEntity
  8
DIMS
100
AcDbBlockReference
  2
_Open90
 10
19.2543079838
 20
10.5785533053
 30
-3.5670360985
 41
0.5
 42
0.5
 50
270.0
  0
LINE
  5
EB
330
E6
100
AcDbEntity
  8
DIMS
100
AcDbLine
 10
20.2260346688
 20
21.5785533053
 30
0.0
 11
18.8793079838
 21
21.5785533053
 31
0.0
  0
LINE
  5
EC
330
E6
100
AcDbEntity
  8
DIMS
100
AcDbLine
 10
20.2260346688
 20
10.5785533053
 30
0.0
 11
18.8793079838
 21
10.5785533053
 31
0.0
  0
LINE
  5
ED
330
E6
100
AcDbEntity
  8
DIMS
100
AcDbLine
 10
19.2543079838
 20
21.5785533053
 30
0.0
 11
19.2543079838
 21
16.6671245532
 31
0.0
  0
LINE
  5
EE
330
E6
100
AcDbEntity
  8
DIMS
100
AcDbLine
 10
19.2543079838
 20
10.5785533053
 30
0.0
 11
19.2543079838
 21
15.8733745294
 31
0.0
  0
MTEXT
  5
EF
330
E6
100
AcDbEntity
  8
DIMS
100
AcDbMText
 10
18.7817385563
 20
16.5179084542
 30
0.0
 40
0.5
 41
0.0
 71
     1
 72
     1
  1
11"
  7
SLDTEXTSTYLE1
 73
     1
 44
1.0
  0
ENDBLK
  5
E8
330
E6
100
AcDbEntity
  8
0
100
AcDbBlockEnd
  0
BLOCK
  5
1BC
330
1BB
100
AcDbEntity
  8
0
100
AcDbBlockBegin
  2
_D_2
 70
     0
 10
0.0
 20
0.0
 30
0.0
  3
_D_2
  1

  0
INSERT
  5
1BE
330
1BB
100
AcDbEntity
  8
DIMS
100
AcDbBlockReference
  2
_Open90
 10
56.0348678639
 20
9.7491742947
 30
15.2547270075
 41
0.5
 42
0.5
 50
0.0
  0
INSERT
  5
1BF
330
1BB
100
AcDbEntity
  8
DIMS
100
AcDbBlockReference
  2
_Open90
 10
51.6598678639
 20
9.7491742947
 30
15.2547270075
 41
0.5
 42
0.5
 50
180.0
  0
LINE
  5
1C0
330
1BB
100
AcDbEntity
  8
DIMS
100
AcDbLine
 10
53.7613183295
 20
9.8004589931
 30
0.0
 11
54.2772905789
 21
9.8004589931
 31
0.0
  0
LINE
  5
1C1
330
1BB
100
AcDbEntity
  8
DIMS
100
AcDbLine
 10
56.0348678639
 20
10.7868866386
 30
0.0
 11
56.0348678639
 21
9.3741742947
 31
0.0
  0
LINE
  5
1C2
330
1BB
100
AcDbEntity
  8
DIMS
100
AcDbLine
 10
51.6598678639
 20
10.7868866386
 30
0.0
 11
51.6598678639
 21
9.3741742947
 31
0.0
  0
LINE
  5
1C3
330
1BB
100
AcDbEntity
  8
DIMS
100
AcDbLine
 10
56.0348678639
 20
9.7491742947
 30
0.0
 11
54.5568045183
 21
9.7491742947
 31
0.0
  0
LINE
  5
1C4
330
1BB
100
AcDbEntity
  8
DIMS
100
AcDbLine
 10
51.6598678639
 20
9.7491742947
 30
0.0
 11
53.318609982
 21
9.7491742947
 31
0.0
  0
MTEXT
  5
1C5
330
1BB
100
AcDbEntity
  8
DIMS
100
AcDbMText
 10
53.318609982
 20
10.0357220484
 30
0.0
 40
0.5
 41
0.0
 71
     1
 72
     1
  1
4
  7
SLDTEXTSTYLE1
 73
     1
 44
1.0
  0
MTEXT
  5
1C6
330
1BB
100
AcDbEntity
  8
DIMS
100
AcDbMText
 10
53.8345822315
 20
10.4010345475
 30
0.0
 40
0.5
 41
0.0
 71
     1
 72
     1
  1
3
  7
SLDTEXTSTYLE1
 73
     1
 44
1.0
  0
MTEXT
  5
1C7
330
1BB
100
AcDbEntity
  8
DIMS
100
AcDbMText
 10
53.8345822315
 20
9.7398539689
 30
0.0
 40
0.5
 41
0.0
 71
     1
 72
     1
  1
8
  7
SLDTEXTSTYLE1
 73
     1
 44
1.0
  0
MTEXT
  5
1C8
330
1BB
100
AcDbEntity
  8
DIMS
100
AcDbMText
 10
54.3505544809
 20
10.0357220484
 30
0.0
 40
0.5
 41
0.0
 71
     1
 72
     1
  1
"
  7
SLDTEXTSTYLE1
 73
     1
 44
1.0
  0
ENDBLK
  5
1BD
330
1BB
100
AcDbEntity
  8
0
100
AcDbBlockEnd
  0
BLOCK
  5
1CB
330
1CA
100
AcDbEntity
  8
0
100
AcDbBlockBegin
  2
_D_3
 70
     0
 10
0.0
 20
0.0
 30
0.0
  3
_D_3
  1

  0
INSERT
  5
1CD
330
1CA
100
AcDbEntity
  8
DIMS
100
AcDbBlockReference
  2
_Open90
 10
52.3473678639
 20
22.7576317382
 30
15.2547270075
 41
0.5
 42
0.5
 50
180.0
  0
INSERT
  5
1CE
330
1CA
100
AcDbEntity
  8
DIMS
100
AcDbBlockReference
  2
_Open90
 10
55.3473678639
 20
22.7576317382
 30
15.2547270075
 41
0.5
 42
0.5
 50
0.0
  0
LINE
  5
1CF
330
1CA
100
AcDbEntity
  8
DIMS
100
AcDbLine
 10
52.3473678639
 20
21.4082199719
 30
0.0
 11
52.3473678639
 21
23.1326317382
 31
0.0
  0
LINE
  5
1D0
330
1CA
100
AcDbEntity
  8
DIMS
100
AcDbLine
 10
55.3473678639
 20
21.4082199719
 30
0.0
 11
55.3473678639
 21
23.1326317382
 31
0.0
  0
LINE
  5
1D1
330
1CA
100
AcDbEntity
  8
DIMS
100
AcDbLine
 10
52.3473678639
 20
22.7576317382
 30
0.0
 11
53.7039294946
 21
22.7576317382
 31
0.0
  0
LINE
  5
1D2
330
1CA
100
AcDbEntity
  8
DIMS
100
AcDbLine
 10
55.3473678639
 20
22.7576317382
 30
0.0
 11
54.2796239408
 21
22.7576317382
 31
0.0
  0
MTEXT
  5
1D3
330
1CA
100
AcDbEntity
  8
DIMS
100
AcDbMText
 10
53.7039294946
 20
23.0052906512
 30
0.0
 40
0.5
 41
0.0
 71
     1
 72
     1
  1
3"
  7
SLDTEXTSTYLE1
 73
     1
 44
1.0
  0
ENDBLK
  5
1CC
330
1CA
100
AcDbEntity
  8
0
100
AcDbBlockEnd
  0
BLOCK
  5
1D6
330
1D5
100
AcDbEntity
  8
0
100
AcDbBlockBegin
  2
_D_4
 70
     0
 10
0.0
 20
0.0
 30
0.0
  3
_D_4
  1

  0
INSERT
  5
1D8
330
1D5
100
AcDbEntity
  8
DIMS
100
AcDbBlockReference
  2
_Open90
 10
58.2446595962
 20
21.2415533053
 30
15.2547270075
 41
0.5
 42
0.5
 50
90.0
  0
INSERT
  5
1D9
330
1D5
100
AcDbEntity
  8
DIMS
100
AcDbBlockReference
  2
_Open90
 10
58.2446595962
 20
11.0785533053
 30
15.2547270075
 41
0.5
 42
0.5
 50
270.0
  0
LINE
  5
1DA
330
1D5
100
AcDbEntity
  8
DIMS
100
AcDbLine
 10
58.0682706755
 20
16.6875896196
 30
0.0
 11
58.9536873704
 21
16.6875896196
 31
0.0
  0
LINE
  5
1DB
330
1D5
100
AcDbEntity
  8
DIMS
100
AcDbLine
 10
55.5140345306
 20
21.2415533053
 30
0.0
 11
58.6196595962
 21
21.2415533053
 31
0.0
  0
LINE
  5
1DC
330
1D5
100
AcDbEntity
  8
DIMS
100
AcDbLine
 10
55.5140345306
 20
11.0785533053
 30
0.0
 11
58.6196595962
 21
11.0785533053
 31
0.0
  0
LINE
  5
1DD
330
1D5
100
AcDbEntity
  8
DIMS
100
AcDbLine
 10
58.2446595962
 20
21.2415533053
 30
0.0
 11
58.2446595962
 21
17.2901590745
 31
0.0
  0
LINE
  5
1DE
330
1D5
100
AcDbEntity
  8
DIMS
100
AcDbLine
 10
58.2446595962
 20
11.0785533053
 30
0.0
 11
58.2446595962
 21
15.9824507679
 31
0.0
  0
MTEXT
  5
1DF
330
1D5
100
AcDbEntity
  8
DIMS
100
AcDbMText
 10
57.2561178826
 20
16.9228526749
 30
0.0
 40
0.5
 41
0.0
 71
     1
 72
     1
  1
10
  7
SLDTEXTSTYLE1
 73
     1
 44
1.0
  0
MTEXT
  5
1E0
330
1D5
100
AcDbEntity
  8
DIMS
100
AcDbMText
 10
58.3262568002
 20
17.288165174
 30
0.0
 40
0.5
 41
0.0
 71
     1
 72
     1
  1
3
  7
SLDTEXTSTYLE1
 73
     1
 44
1.0
  0
MTEXT
  5
1E1
330
1D5
100
AcDbEntity
  8
DIMS
100
AcDbMText
 10
58.1415345775
 20
16.6269845954
 30
0.0
 40
0.5
 41
0.0
 71
     1
 72
     1
  1
16
  7
SLDTEXTSTYLE1
 73
     1
 44
1.0
  0
MTEXT
  5
1E2
330
1D5
100
AcDbEntity
  8
DIMS
100
AcDbMText
 10
59.0269513458
 20
16.9228526749
 30
0.0
 40
0.5
 41
0.0
 71
     1
 72
     1
  1
"
  7
SLDTEXTSTYLE1
 73
     1
 44
1.0
  0
ENDBLK
  5
1D7
330
1D5
100
AcDbEntity
  8
0
100
AcDbBlockEnd
  0
BLOCK
  5
1E6
330
1E5
100
AcDbEntity
  8
0
100
AcDbBlockBegin
  2
_D_5
 70
     0
 10
0.0
 20
0.0
 30
0.0
  3
_D_5
  1

  0
INSERT
  5
1E8
330
1E5
100
AcDbEntity
  8
DIMS
100
AcDbBlockReference
  2
_Open90
 10
52.2385158466
 20
21.3588189794
 30
15.2547270075
 41
0.5
 42
0.5
 50
312.8690533513
  0
LINE
  5
1E9
330
1E5
100
AcDbEntity
  8
DIMS
100
AcDbLine
 10
48.6735315947
 20
23.7263440349
 30
0.0
 11
49.5589482897
 21
23.7263440349
 31
0.0
  0
LINE
  5
1EA
330
1E5
100
AcDbEntity
  8
DIMS
100
AcDbLine
 10
52.2385158466
 20
21.3588189794
 30
0.0
 11
50.088462669
 21
23.6750593365
 31
0.0
  0
LINE
  5
1EB
330
1E5
100
AcDbEntity
  8
DIMS
100
AcDbLine
 10
50.088462669
 20
23.6750593365
 30
0.0
 11
49.838462669
 21
23.6750593365
 31
0.0
  0
MTEXT
  5
1EC
330
1E5
100
AcDbEntity
  8
DIMS
100
AcDbMText
 10
41.946205201
 20
23.9616070902
 30
0.0
 40
0.5
 41
0.0
 71
     1
 72
     1
  1
Mounting hole (4)
  7
SLDTEXTSTYLE1
 73
     1
 44
1.0
  0
MTEXT
  5
1ED
330
1E5
100
AcDbEntity
  8
DIMS
100
AcDbMText
 10
47.8462049904
 20
23.9539682009
 30
0.0
 40
0.5
 41
0.0
 71
     1
 72
     1
  1
%%c
  7
SLDTEXTSTYLE1
 73
     1
 44
1.0
  0
MTEXT
  5
1EE
330
1E5
100
AcDbEntity
  8
DIMS
100
AcDbMText
 10
48.9315177194
 20
24.3269195892
 30
0.0
 40
0.5
 41
0.0
 71
     1
 72
     1
  1
5
  7
SLDTEXTSTYLE1
 73
     1
 44
1.0
  0
MTEXT
  5
1EF
330
1E5
100
AcDbEntity
  8
DIMS
100
AcDbMText
 10
48.7467954967
 20
23.6657390107
 30
0.0
 40
0.5
 41
0.0
 71
     1
 72
     1
  1
16
  7
SLDTEXTSTYLE1
 73
     1
 44
1.0
  0
MTEXT
  5
1F0
330
1E5
100
AcDbEntity
  8
DIMS
100
AcDbMText
 10
49.632211825
 20
23.9616070902
 30
0.0
 40
0.5
 41
0.0
 71
     1
 72
     1
  1
"
  7
SLDTEXTSTYLE1
 73
     1
 44
1.0
  0
ENDBLK
  5
1E7
330
1E5
100
AcDbEntity
  8
0
100
AcDbBlockEnd
  0
BLOCK
  5
1F2
330
1F1
100
AcDbEntity
  8
0
100
AcDbBlockBegin
  2
SW_NOTE_0_2
 70
     0
 10
0.0
 20
0.0
 30
0.0
  3
SW_NOTE_0_2
  1

  0
MTEXT
  5
1F4
330
1F1
100
AcDbEntity
  8
NOTES
 62
     0
100
AcDbMText
 10
0.0
 20
0.6445338699
 30
0.0
 40
0.5
 41
0.0
 71
     1
 72
     1
  1
Side View
  7
SLDTEXTSTYLE1
 73
     1
 44
1.0
  0
MTEXT
  5
1F5
330
1F1
100
AcDbEntity
  8
NOTES
 62
     0
100
AcDbMText
 10
0.0
 20
-0.001993928
 30
0.0
 40
0.5
 41
0.0
 71
     1
 72
     1
  1
(grab bar in down position)
  7
SLDTEXTSTYLE1
 73
     1
 44
1.0
  0
ENDBLK
  5
1F3
330
1F1
100
AcDbEntity
  8
0
100
AcDbBlockEnd
  0
BLOCK
  5
22E
330
22D
100
AcDbEntity
  8
0
100
AcDbBlockBegin
  2
_D_6
 70
     0
 10
0.0
 20
0.0
 30
0.0
  3
_D_6
  1

  0
INSERT
  5
230
330
22D
100
AcDbEntity
  8
DIMS
100
AcDbBlockReference
  2
_Open90
 10
5.0904408656
 20
10.5785533053
 30
-3.0750931603
 41
0.5
 42
0.5
 50
270.0
  0
INSERT
  5
231
330
22D
100
AcDbEntity
  8
DIMS
100
AcDbBlockReference
  2
_Open90
 10
5.0904408656
 20
41.1882660447
 30
-3.0750931603
 41
0.5
 42
0.5
 50
90.0
  0
LINE
  5
232
330
22D
100
AcDbEntity
  8
DIMS
100
AcDbLine
 10
5.0987742043
 20
25.8324424908
 30
0.0
 11
5.6147464538
 21
25.8324424908
 31
0.0
  0
LINE
  5
233
330
22D
100
AcDbEntity
  8
DIMS
100
AcDbLine
 10
5.5536954588
 20
10.5785533053
 30
0.0
 11
4.7154408656
 21
10.5785533053
 31
0.0
  0
LINE
  5
234
330
22D
100
AcDbEntity
  8
DIMS
100
AcDbLine
 10
9.6313542216
 20
41.1882660447
 30
0.0
 11
4.7154408656
 21
41.1882660447
 31
0.0
  0
LINE
  5
235
330
22D
100
AcDbEntity
  8
DIMS
100
AcDbLine
 10
5.0904408656
 20
10.5785533053
 30
0.0
 11
5.0904408656
 21
25.1273036391
 31
0.0
  0
LINE
  5
236
330
22D
100
AcDbEntity
  8
DIMS
100
AcDbLine
 10
5.0904408656
 20
41.1882660447
 30
0.0
 11
5.0904408656
 21
26.4350119457
 31
0.0
  0
MTEXT
  5
237
330
22D
100
AcDbEntity
  8
DIMS
100
AcDbMText
 10
4.2866214114
 20
26.0677055461
 30
0.0
 40
0.5
 41
0.0
 71
     1
 72
     1
  1
30
  7
SLDTEXTSTYLE1
 73
     1
 44
1.0
  0
MTEXT
  5
238
330
22D
100
AcDbEntity
  8
DIMS
100
AcDbMText
 10
5.1720381063
 20
26.4330180451
 30
0.0
 40
0.5
 41
0.0
 71
     1
 72
     1
  1
5
  7
SLDTEXTSTYLE1
 73
     1
 44
1.0
  0
MTEXT
  5
239
330
22D
100
AcDbEntity
  8
DIMS
100
AcDbMText
 10
5.1720381063
 20
25.7718374666
 30
0.0
 40
0.5
 41
0.0
 71
     1
 72
     1
  1
8
  7
SLDTEXTSTYLE1
 73
     1
 44
1.0
  0
MTEXT
  5
23A
330
22D
100
AcDbEntity
  8
DIMS
100
AcDbMText
 10
5.6880103558
 20
26.0677055461
 30
0.0
 40
0.5
 41
0.0
 71
     1
 72
     1
  1
"
  7
SLDTEXTSTYLE1
 73
     1
 44
1.0
  0
ENDBLK
  5
22F
330
22D
100
AcDbEntity
  8
0
100
AcDbBlockEnd
  0
BLOCK
  5
23D
330
23C
100
AcDbEntity
  8
0
100
AcDbBlockBegin
  2
_D_7
 70
     0
 10
0.0
 20
0.0
 30
0.0
  3
_D_7
  1

  0
INSERT
  5
23F
330
23C
100
AcDbEntity
  8
DIMS
100
AcDbBlockReference
  2
_Open90
 10
5.7203621254
 20
9.9853947672
 30
-3.0750931603
 41
0.5
 42
0.5
 50
180.0
  0
INSERT
  5
240
330
23C
100
AcDbEntity
  8
DIMS
100
AcDbBlockReference
  2
_Open90
 10
12.532319376
 20
9.9853947672
 30
-3.0750931603
 41
0.5
 42
0.5
 50
0.0
  0
LINE
  5
241
330
23C
100
AcDbEntity
  8
DIMS
100
AcDbLine
 10
8.9981884
 20
10.0366794655
 30
0.0
 11
9.8836050949
 21
10.0366794655
 31
0.0
  0
LINE
  5
242
330
23C
100
AcDbEntity
  8
DIMS
100
AcDbLine
 10
5.7203621254
 20
10.4118866386
 30
0.0
 11
5.7203621254
 21
9.6103947672
 31
0.0
  0
LINE
  5
243
330
23C
100
AcDbEntity
  8
DIMS
100
AcDbLine
 10
12.532319376
 20
12.1743011126
 30
0.0
 11
12.532319376
 21
9.6103947672
 31
0.0
  0
LINE
  5
244
330
23C
100
AcDbEntity
  8
DIMS
100
AcDbLine
 10
5.7203621254
 20
9.9853947672
 30
0.0
 11
8.5554800525
 21
9.9853947672
 31
0.0
  0
LINE
  5
245
330
23C
100
AcDbEntity
  8
DIMS
100
AcDbLine
 10
12.532319376
 20
9.9853947672
 30
0.0
 11
10.1631189609
 21
9.9853947672
 31
0.0
  0
MTEXT
  5
246
330
23C
100
AcDbEntity
  8
DIMS
100
AcDbMText
 10
8.5554800525
 20
10.2719425209
 30
0.0
 40
0.5
 41
0.0
 71
     1
 72
     1
  1
6
  7
SLDTEXTSTYLE1
 73
     1
 44
1.0
  0
MTEXT
  5
247
330
23C
100
AcDbEntity
  8
DIMS
100
AcDbMText
 10
9.071452302
 20
10.6372550199
 30
0.0
 40
0.5
 41
0.0
 71
     1
 72
     1
  1
13
  7
SLDTEXTSTYLE1
 73
     1
 44
1.0
  0
MTEXT
  5
248
330
23C
100
AcDbEntity
  8
DIMS
100
AcDbMText
 10
9.071452302
 20
9.9760744414
 30
0.0
 40
0.5
 41
0.0
 71
     1
 72
     1
  1
16
  7
SLDTEXTSTYLE1
 73
     1
 44
1.0
  0
MTEXT
  5
249
330
23C
100
AcDbEntity
  8
DIMS
100
AcDbMText
 10
9.9568689969
 20
10.2719425209
 30
0.0
 40
0.5
 41
0.0
 71
     1
 72
     1
  1
"
  7
SLDTEXTSTYLE1
 73
     1
 44
1.0
  0
ENDBLK
  5
23E
330
23C
100
AcDbEntity
  8
0
100
AcDbBlockEnd
  0
ENDSEC
  0
SECTION
  2
ENTITIES
  0
LINE
  5
78
330
1F
100
AcDbEntity
  8
TITLE
370
    50
100
AcDbLine
 10
42.518223024
 20
1.4876117645
 30
0.0
 11
59.4999864512
 21
1.4876117645
 31
0.0
  0
LINE
  5
79
330
1F
100
AcDbEntity
  8
TITLE
370
    50
100
AcDbLine
 10
59.4999317442
 20
5.4753603936
 30
0.0
 11
49.3105350723
 21
5.4753603936
 31
0.0
  0
LINE
  5
7A
330
1F
100
AcDbEntity
  8
TITLE
370
    50
100
AcDbLine
 10
42.518223024
 20
2.5427877231
 30
0.0
 11
35.5059791203
 21
2.5427877231
 31
0.0
  0
LINE
  5
7B
330
1F
100
AcDbEntity
  8
TITLE
370
    50
100
AcDbLine
 10
42.518223024
 20
1.4876117645
 30
0.0
 11
35.5059791203
 21
1.4876117645
 31
0.0
  0
LINE
  5
7C
330
1F
100
AcDbEntity
  8
TITLE
370
    50
100
AcDbLine
 10
42.518223024
 20
1.4876117645
 30
0.0
 11
42.518223024
 21
3.5979636817
 31
0.0
  0
LINE
  5
7D
330
1F
100
AcDbEntity
  8
TITLE
370
    50
100
AcDbLine
 10
35.5059791203
 20
3.5979636817
 30
0.0
 11
35.5059791203
 21
0.5
 31
0.0
  0
LINE
  5
7E
330
1F
100
AcDbEntity
  8
TITLE
370
    50
100
AcDbLine
 10
35.5059791203
 20
0.5
 30
0.0
 11
59.5
 21
0.5
 31
0.0
  0
LINE
  5
7F
330
1F
100
AcDbEntity
  8
TITLE
370
    50
100
AcDbLine
 10
59.4999317442
 20
5.4753603936
 30
0.0
 11
59.5
 21
0.5
 31
0.0
  0
LINE
  5
80
330
1F
100
AcDbEntity
  8
TITLE
370
    50
100
AcDbLine
 10
42.518223024
 20
3.5979636817
 30
0.0
 11
35.5059791203
 21
3.5979636817
 31
0.0
  0
LINE
  5
81
330
1F
100
AcDbEntity
  8
TITLE
370
    50
100
AcDbLine
 10
42.518223024
 20
3.5979636817
 30
0.0
 11
59.4997615643
 21
3.5979648343
 31
0.0
  0
LINE
  5
82
330
1F
100
AcDbEntity
  8
TITLE
370
    50
100
AcDbLine
 10
49.3105350723
 20
5.4753603936
 30
0.0
 11
49.3105350723
 21
0.4636772425
 31
0.0
  0
MTEXT
  5
84
330
1F
100
AcDbEntity
  8
NOTES
100
AcDbMText
 10
36.408297803
 20
1.0702903347
 30
0.0
 40
0.25
 41
0.0
 71
     1
 72
     1
  1
UNLESS OTHERWISE SPECIFIED DIMENSIONS ARE IN INCHES.
  7
SLDTEXTSTYLE0
 73
     1
 44
1.0
  0
MTEXT
  5
85
330
1F
100
AcDbEntity
  8
NOTES
100
AcDbMText
 10
36.4300699279
 20
3.0830627776
 30
0.0
 40
0.25
 41
0.0
 71
     1
 72
     1
  1
DATE:
  7
SLDTEXTSTYLE0
 73
     1
 44
1.0
  0
MTEXT
  5
86
330
1F
100
AcDbEntity
  8
NOTES
100
AcDbMText
 10
38.538701188
 20
2.1930329637
 30
0.0
 40
0.25
 41
0.0
 71
     2
 72
     1
  1
DO NOT SCALE DRAWING
  7
SLDTEXTSTYLE0
 73
     1
 44
1.0
  0
MTEXT
  5
88
330
1F
100
AcDbEntity
  8
NOTES
100
AcDbMText
 10
42.8307373075
 20
3.2712065527
 30
0.0
 40
0.25
 41
0.0
 71
     1
 72
     1
  1
TITLE:
  7
SLDTEXTSTYLE1
 73
     1
 44
1.0
  0
MTEXT
  5
89
330
1F
100
AcDbEntity
  8
NOTES
100
AcDbMText
 10
50.1561831052
 20
3.2712065527
 30
0.0
 40
0.25
 41
0.0
 71
     1
 72
     1
  1
DWG NO.
  7
SLDTEXTSTYLE1
 73
     1
 44
1.0
  0
MTEXT
  5
8B
330
1F
100
AcDbEntity
  8
NOTES
100
AcDbMText
 10
50.1831753203
 20
1.0675125551
 30
0.0
 40
0.25
 41
0.0
 71
     1
 72
     1
  1
SCALE:     1:1
  7
SLDTEXTSTYLE2
 73
     1
 44
1.0
  0
MTEXT
  5
8C
330
1F
100
AcDbEntity
  8
NOTES
100
AcDbMText
 10
54.2273149542
 20
2.8225904513
 30
0.0
 40
0.2916666667
 41
0.0
 71
     2
 72
     1
  1
1055-S(1055-W)_Flip Up Grab bar
  7
SLDTEXTSTYLE1
 73
     1
 44
1.0
  0
INSERT
  5
92
330
1F
100
AcDbEntity
  8
NOTES
100
AcDbBlockReference
  2
SW_NOTE_0
 10
50.266131557
 20
4.6105227838
 30
0.0
  0
INSERT
  5
9A
330
1F
100
AcDbEntity
  8
NOTES
100
AcDbBlockReference
  2
SW_NOTE_0_1
 10
36.6159726246
 20
5.1481526848
 30
0.0
  0
CIRCLE
  5
9B
330
1F
100
AcDbEntity
  8
0
  6
Continuous
 62
     7
370
    25
100
AcDbCircle
 10
25.2877013355
 20
16.0785533053
 30
0.0
 40
0.2750000000000049
  0
LINE
  5
9C
330
1F
100
AcDbEntity
  8
0
  6
Continuous
 62
     7
370
    25
100
AcDbLine
 10
24.981979286
 20
15.97921871
 30
0.0
 11
24.9942743055
 21
16.2098312981
 31
0.0
  0
LINE
  5
9D
330
1F
100
AcDbEntity
  8
0
  6
Continuous
 62
     7
370
    25
100
AcDbLine
 10
25.5934233849
 20
16.1778879006
 30
0.0
 11
25.5811283654
 21
15.9472753124
 31
0.0
  0
LINE
  5
9E
330
1F
100
AcDbEntity
  8
0
  6
Continuous
 62
     7
370
    25
100
AcDbLine
 10
25.3545360771
 20
16.3929836642
 30
0.0
 11
25.5481049272
 21
16.267029571
 31
0.0
  0
LINE
  5
9F
330
1F
100
AcDbEntity
  8
0
  6
Continuous
 62
     7
370
    25
100
AcDbLine
 10
25.2208665938
 20
15.7641229463
 30
0.0
 11
25.0272977437
 21
15.8900770396
 31
0.0
  0
LINE
  5
A0
330
1F
100
AcDbEntity
  8
0
  6
Continuous
 62
     7
370
    25
100
AcDbLine
 10
25.0488140277
 20
16.2936490689
 30
0.0
 11
25.2546778972
 21
16.3983075638
 31
0.0
  0
LINE
  5
A1
330
1F
100
AcDbEntity
  8
0
  6
Continuous
 62
     7
370
    25
100
AcDbLine
 10
25.5265886432
 20
15.8634575416
 30
0.0
 11
25.3207247737
 21
15.7587990467
 31
0.0
  0
ARC
  5
A2
330
1F
100
AcDbEntity
  8
0
  6
Continuous
 62
     7
370
    25
100
AcDbCircle
 10
25.0818374659
 20
15.9738948104
 30
0.0
 40
0.1000000000001633
100
AcDbArc
 50
176.9481873986
 51
236.9481873991
  0
ARC
  5
A3
330
1F
100
AcDbEntity
  8
0
  6
Continuous
 62
     7
370
    25
100
AcDbCircle
 10
25.0941324854
 20
16.2045073985
 30
0.0
 40
0.0999999999999968
100
AcDbArc
 50
116.9481873985
 51
176.948187399
  0
ARC
  5
A4
330
1F
100
AcDbEntity
  8
0
  6
Continuous
 62
     7
370
    25
100
AcDbCircle
 10
25.275406316
 20
15.8479407171
 30
0.0
 40
0.1000000000000086
100
AcDbArc
 50
236.9481873985
 51
296.9481873986
  0
ARC
  5
A5
330
1F
100
AcDbEntity
  8
0
  6
Continuous
 62
     7
370
    25
100
AcDbCircle
 10
25.2999963549
 20
16.3091658935
 30
0.0
 40
0.1000000000000067
100
AcDbArc
 50
56.9481873987
 51
116.948187399
  0
ARC
  5
A6
330
1F
100
AcDbEntity
  8
0
  6
Continuous
 62
     7
370
    25
100
AcDbCircle
 10
25.4812701855
 20
15.952599212
 30
0.0
 40
0.0999999999999983
100
AcDbArc
 50
296.9481873986
 51
356.948187399
  0
ARC
  5
A7
330
1F
100
AcDbEntity
  8
0
  6
Continuous
 62
     7
370
    25
100
AcDbCircle
 10
25.493565205
 20
16.1832118002
 30
0.0
 40
0.1000000000001519
100
AcDbArc
 50
356.9481873987
 51
56.9481873991
  0
CIRCLE
  5
A8
330
1F
100
AcDbEntity
  8
0
  6
Continuous
 62
     7
370
    25
100
AcDbCircle
 10
23.4127013355
 20
16.0785533053
 30
0.0
 40
0.2750000000000004
  0
LINE
  5
A9
330
1F
100
AcDbEntity
  8
0
  6
Continuous
 62
     7
370
    25
100
AcDbLine
 10
23.6891822369
 20
15.9145665849
 30
0.0
 11
23.5078839405
 21
15.7715132346
 31
0.0
  0
LINE
  5
AA
330
1F
100
AcDbEntity
  8
0
  6
Continuous
 62
     7
370
    25
100
AcDbLine
 10
23.136220434
 20
16.2425400256
 30
0.0
 11
23.3175187304
 21
16.385593376
 31
0.0
  0
LINE
  5
AB
330
1F
100
AcDbEntity
  8
0
  6
Continuous
 62
     7
370
    25
100
AcDbLine
 10
23.132444219
 20
15.9211071811
 30
0.0
 11
23.0992055317
 21
16.1496427866
 31
0.0
  0
LINE
  5
AC
330
1F
100
AcDbEntity
  8
0
  6
Continuous
 62
     7
370
    25
100
AcDbLine
 10
23.6929584519
 20
16.2359994295
 30
0.0
 11
23.7261971392
 21
16.0074638239
 31
0.0
  0
LINE
  5
AD
330
1F
100
AcDbEntity
  8
0
  6
Continuous
 62
     7
370
    25
100
AcDbLine
 10
23.4089251205
 20
15.7571204608
 30
0.0
 11
23.1943881368
 21
15.8426027159
 31
0.0
  0
LINE
  5
AE
330
1F
100
AcDbEntity
  8
0
  6
Continuous
 62
     7
370
    25
100
AcDbLine
 10
23.4164775504
 20
16.3999861498
 30
0.0
 11
23.6310145341
 21
16.3145038946
 31
0.0
  0
ARC
  5
AF
330
1F
100
AcDbEntity
  8
0
  6
Continuous
 62
     7
370
    25
100
AcDbCircle
 10
23.3794626481
 20
16.3070889108
 30
0.0
 40
0.0999999999999973
100
AcDbArc
 50
68.2751918075
 51
128.2751918079
  0
ARC
  5
B0
330
1F
100
AcDbEntity
  8
0
  6
Continuous
 62
     7
370
    25
100
AcDbCircle
 10
23.2314030391
 20
15.9354999549
 30
0.0
 40
0.1000000000000053
100
AcDbArc
 50
188.2751918076
 51
248.2751918079
  0
ARC
  5
B1
330
1F
100
AcDbEntity
  8
0
  6
Continuous
 62
     7
370
    25
100
AcDbCircle
 10
23.4459400228
 20
15.8500176997
 30
0.0
 40
0.099999999999999
100
AcDbArc
 50
248.2751918074
 51
308.2751918079
  0
ARC
  5
B2
330
1F
100
AcDbEntity
  8
0
  6
Continuous
 62
     7
370
    25
100
AcDbCircle
 10
23.5939996319
 20
16.2216066557
 30
0.0
 40
0.1000000000000089
100
AcDbArc
 50
8.2751918074
 51
68.2751918075
  0
ARC
  5
B3
330
1F
100
AcDbEntity
  8
0
  6
Continuous
 62
     7
370
    25
100
AcDbCircle
 10
23.6272383192
 20
15.9930710501
 30
0.0
 40
0.1000000000001608
100
AcDbArc
 50
308.2751918076
 51
8.275191808
  0
ARC
  5
B4
330
1F
100
AcDbEntity
  8
0
  6
Continuous
 62
     7
370
    25
100
AcDbCircle
 10
23.1981643517
 20
16.1640355604
 30
0.0
 40
0.1000000000001502
100
AcDbArc
 50
128.2751918076
 51
188.275191808
  0
LINE
  5
B5
330
1F
100
AcDbEntity
  8
0
  6
Continuous
 62
     7
370
    25
100
AcDbLine
 10
27.1671425777
 20
15.3913705447
 30
0.0
 11
47.5176585133
 21
15.3913705447
 31
0.0
  0
LINE
  5
B6
330
1F
100
AcDbEntity
  8
0
  6
Continuous
 62
     7
370
    25
100
AcDbLine
 10
47.5176585133
 20
14.1413705447
 30
0.0
 11
26.8977013355
 21
14.1413705447
 31
0.0
  0
ARC
  5
B7
330
1F
100
AcDbEntity
  8
0
  6
Continuous
 62
     7
370
    25
100
AcDbCircle
 10
47.5176585133
 20
17.0163705447
 30
0.0
 40
1.625000000000003
100
AcDbArc
 50
270.0
 51
90.0
  0
ARC
  5
B8
330
1F
100
AcDbEntity
  8
0
  6
Continuous
 62
     7
370
    25
100
AcDbCircle
 10
47.5176585133
 20
17.0163705447
 30
0.0
 40
2.875000000000003
100
AcDbArc
 50
270.0
 51
90.0
  0
LINE
  5
B9
330
1F
100
AcDbEntity
  8
0
  6
Continuous
 62
     7
370
    25
100
AcDbLine
 10
24.8019474161
 20
19.8913705447
 30
0.0
 11
37.6751388283
 21
19.8913705447
 31
0.0
  0
LINE
  5
BA
330
1F
100
AcDbEntity
  8
0
  6
Continuous
 62
     7
370
    25
100
AcDbLine
 10
37.6751388283
 20
19.8913705447
 30
0.0
 11
37.7146976904
 21
19.8913705447
 31
0.0
  0
LINE
  5
BB
330
1F
100
AcDbEntity
  8
0
  6
Continuous
 62
     7
370
    25
100
AcDbLine
 10
37.7146976904
 20
19.8913705447
 30
0.0
 11
47.5176585133
 21
19.8913705447
 31
0.0
  0
LINE
  5
BC
330
1F
100
AcDbEntity
  8
0
  6
Continuous
 62
     7
370
    25
100
AcDbLine
 10
47.5176585133
 20
18.6413705447
 30
0.0
 11
27.1671425777
 21
18.6413705447
 31
0.0
  0
ARC
  5
BD
330
1F
100
AcDbEntity
  8
0
  6
Continuous
 62
     7
370
    25
100
AcDbCircle
 10
26.9912992337
 20
15.4461542756
 30
0.0
 40
0.2999999999999991
100
AcDbArc
 50
270.0
 51
278.7898719522
  0
LINE
  5
BE
330
1F
100
AcDbEntity
  8
0
  6
Continuous
 62
     7
370
    25
100
AcDbLine
 10
26.9912992337
 20
15.1461542756
 30
0.0
 11
26.8977013355
 21
15.1461542756
 31
0.0
  0
LINE
  5
BF
330
1F
100
AcDbEntity
  8
0
  6
Continuous
 62
     7
370
    25
100
AcDbLine
 10
26.0435164344
 20
18.8961542756
 30
0.0
 11
26.9912992258
 21
18.8961542756
 31
0.0
  0
ARC
  5
C0
330
1F
100
AcDbEntity
  8
0
  6
Continuous
 62
     7
370
    25
100
AcDbCircle
 10
26.9912992258
 20
18.5961542756
 30
0.0
 40
0.3000000000000014
100
AcDbArc
 50
81.2101265342
 51
90.0
  0
LWPOLYLINE
  5
C1
330
1F
100
AcDbEntity
  8
0
  6
Continuous
 62
     7
370
    25
100
AcDbPolyline
 90
        6
 70
   128
 43
0.0
 10
27.1671425777
 20
18.824075499
 10
27.1553252317
 20
18.8525053089
 10
27.1318751733
 20
18.869924489
 10
27.0941472862
 20
18.8825350644
 10
27.0678405654
 20
18.8878973236
 10
27.0371425777
 20
18.8926308971
  0
LINE
  5
C2
330
1F
100
AcDbEntity
  8
0
  6
Continuous
 62
     7
370
    25
100
AcDbLine
 10
27.1671425777
 20
18.8187619628
 30
0.0
 11
27.1671425777
 21
15.2182330455
 31
0.0
  0
LWPOLYLINE
  5
C3
330
1F
100
AcDbEntity
  8
0
  6
Continuous
 62
     7
370
    25
100
AcDbPolyline
 90
        6
 70
   128
 43
0.0
 10
27.0371425777
 20
15.1496776529
 10
27.0704002117
 20
15.1555347806
 10
27.0972787485
 20
15.1613133295
 10
27.1318205239
 20
15.1726346913
 10
27.157616444
 20
15.1917503644
 10
27.1671425777
 20
15.2182330455
  0
LINE
  5
C4
330
1F
100
AcDbEntity
  8
0
  6
Continuous
 62
     7
370
    25
100
AcDbLine
 10
20.3927013355
 20
21.5785533053
 30
0.0
 11
20.3927013355
 21
21.2035533053
 31
0.0
  0
LINE
  5
C5
330
1F
100
AcDbEntity
  8
0
  6
Continuous
 62
     7
370
    25
100
AcDbLine
 10
20.3927013355
 20
21.5785533053
 30
0.0
 11
20.5127013355
 21
21.5785533053
 31
0.0
  0
LINE
  5
C6
330
1F
100
AcDbEntity
  8
0
  6
Continuous
 62
     7
370
    25
100
AcDbLine
 10
20.5127013355
 20
21.5785533053
 30
0.0
 11
20.5127013355
 21
21.2035533053
 31
0.0
  0
LINE
  5
C7
330
1F
100
AcDbEntity
  8
0
  6
Continuous
 62
     7
370
    25
100
AcDbLine
 10
20.3927013355
 20
10.5785533053
 30
0.0
 11
20.5127013355
 21
10.5785533053
 31
0.0
  0
LINE
  5
C8
330
1F
100
AcDbEntity
  8
0
  6
Continuous
 62
     7
370
    25
100
AcDbLine
 10
20.3927013355
 20
10.9535533053
 30
0.0
 11
20.3927013355
 21
10.5785533053
 31
0.0
  0
LINE
  5
C9
330
1F
100
AcDbEntity
  8
0
  6
Continuous
 62
     7
370
    25
100
AcDbLine
 10
20.5127013355
 20
10.9535533053
 30
0.0
 11
20.5127013355
 21
10.5785533053
 31
0.0
  0
LINE
  5
CA
330
1F
100
AcDbEntity
  8
0
  6
Continuous
 62
     7
370
    25
100
AcDbLine
 10
20.3927013355
 20
21.2035533053
 30
0.0
 11
20.3927013355
 21
10.9535533053
 31
0.0
  0
LINE
  5
CB
330
1F
100
AcDbEntity
  8
0
  6
Continuous
 62
     7
370
    25
100
AcDbLine
 10
20.5127013355
 20
21.2035533053
 30
0.0
 11
20.5127013355
 21
10.9535533053
 31
0.0
  0
LINE
  5
CC
330
1F
100
AcDbEntity
  8
0
  6
Continuous
 62
     7
370
    25
100
AcDbLine
 10
20.5127013355
 20
21.5785533053
 30
0.0
 11
20.6797013355
 21
21.5785533053
 31
0.0
  0
LINE
  5
CD
330
1F
100
AcDbEntity
  8
0
  6
Continuous
 62
     7
370
    25
100
AcDbLine
 10
20.6797013355
 20
10.5785533053
 30
0.0
 11
20.5127013355
 21
10.5785533053
 31
0.0
  0
ARC
  5
CE
330
1F
100
AcDbEntity
  8
0
  6
Continuous
 62
     7
370
    25
100
AcDbCircle
 10
26.3977001805
 20
12.3883804046
 30
0.0
 40
0.5000011549382767
100
AcDbArc
 50
295.0431197537
 51
359.9999157563
  0
LWPOLYLINE
  5
CF
330
1F
100
AcDbEntity
  8
0
  6
Continuous
 62
     7
370
    25
100
AcDbPolyline
 90
        9
 70
   128
 43
0.0
 10
20.6797013355
 20
10.5785533053
 10
21.8554637913
 20
10.7271086675
 10
23.0269515137
 20
10.9136550154
 10
23.9361369568
 20
11.0931706737
 10
24.8383254934
 20
11.3117851771
 10
25.288663455
 20
11.4406555349
 10
25.7342563495
 20
11.5849721741
 10
26.1764249409
 20
11.7487679477
 10
26.6093507757
 20
11.9353846204
  0
LWPOLYLINE
  5
D0
330
1F
100
AcDbEntity
  8
0
  6
Continuous
 62
     7
370
    25
100
AcDbPolyline
 90
       13
 70
   128
 43
0.0
 10
26.4371985589
 20
18.4662813703
 10
26.0676378987
 20
18.8736636631
 10
25.6652621554
 20
19.2488347902
 10
25.224257081
 20
19.6005125894
 10
24.7596304105
 20
19.9205155981
 10
24.3527549672
 20
20.1672715656
 10
23.9345402954
 20
20.3943550206
 10
23.5034737127
 20
20.604773995
 10
23.0644250851
 20
20.7980467999
 10
22.4816915699
 20
21.0266974615
 10
21.8899772465
 20
21.2311179804
 10
21.2877057081
 20
21.4147746164
 10
20.6797013355
 20
21.5785533053
  0
ARC
  5
D1
330
1F
100
AcDbEntity
  8
0
  6
Continuous
 62
     7
370
    25
100
AcDbCircle
 10
24.8976954876
 20
17.1895849754
 30
0.0
 40
2.000005847905439
100
AcDbArc
 50
0.0000604278
 51
39.668619801
  0
LINE
  5
D2
330
1F
100
AcDbEntity
  8
0
  6
Continuous
 62
     7
370
    25
100
AcDbLine
 10
26.8977013355
 20
12.3883796695
 30
0.0
 11
26.8977013355
 21
17.1895870847
 31
0.0
  0
DIMENSION
  5
D3
330
1F
100
AcDbEntity
  8
DIMS
100
AcDbDimension
  2
_D
 10
50.3926585133
 20
9.5129538223
 30
0.0
 11
37.7542869572
 21
9.5129538223
 31
0.0
 70
   160
  1
<>
 71
     2
 42
-1.0
  3
SLDDIMSTYLE0
100
AcDbAlignedDimension
 13
20.3927013355
 23
10.5785533053
 33
0.0
 14
50.3926585133
 24
17.0163705447
 34
0.0
 50
0.0
100
AcDbRotatedDimension
  0
DIMENSION
  5
E5
330
1F
100
AcDbEntity
  8
DIMS
100
AcDbDimension
  2
_D_1
 10
19.2543079838
 20
10.5785533053
 30
0.0
 11
19.2543079838
 21
16.2702495413
 31
0.0
 70
   160
  1
<>
 71
     2
 42
-1.0
  3
SLDDIMSTYLE0
100
AcDbAlignedDimension
 13
20.3927013355
 23
21.5785533053
 33
0.0
 14
20.3927013355
 24
10.5785533053
 34
0.0
 50
90.0
100
AcDbRotatedDimension
  0
MTEXT
  5
F0
330
1F
100
AcDbEntity
  8
NOTES
100
AcDbMText
 10
20.5962190262
 20
9.1827425749
 30
0.0
 40
0.5
 41
0.0
 71
     1
 72
     1
  1
Front View (grab bar in down position)
  7
SLDTEXTSTYLE1
 73
     1
 44
1.0
  0
ARC
  5
F1
330
1F
100
AcDbEntity
  8
0
  6
Continuous
 62
     7
370
    25
100
AcDbCircle
 10
24.8257873527
 20
25.4375880748
 30
0.0
 40
0.1869139827871525
100
AcDbArc
 50
0.0
 51
24.3884394514
  0
ARC
  5
F2
330
1F
100
AcDbEntity
  8
0
  6
Continuous
 62
     7
370
    25
100
AcDbCircle
 10
25.7496153182
 20
25.4375880748
 30
0.0
 40
0.1869139827871571
100
AcDbArc
 50
155.4781316175
 51
180.0
  0
LINE
  5
F3
330
1F
100
AcDbEntity
  8
0
  6
Continuous
 62
     7
370
    25
100
AcDbLine
 10
25.0127013355
 20
25.4375880748
 30
0.0
 11
25.0127013355
 21
25.379739792
 31
0.0
  0
LINE
  5
F4
330
1F
100
AcDbEntity
  8
0
  6
Continuous
 62
     7
370
    25
100
AcDbLine
 10
25.5627013355
 20
25.379739792
 30
0.0
 11
25.5627013355
 21
25.4375880748
 31
0.0
  0
ARC
  5
F5
330
1F
100
AcDbEntity
  8
0
  6
Continuous
 62
     7
370
    25
100
AcDbCircle
 10
25.0627013355
 20
25.379739792
 30
0.0
 40
0.0500000000000043
100
AcDbArc
 50
180.0
 51
270.0
  0
ARC
  5
F6
330
1F
100
AcDbEntity
  8
0
  6
Continuous
 62
     7
370
    25
100
AcDbCircle
 10
25.5127013355
 20
25.379739792
 30
0.0
 40
0.0500000000000007
100
AcDbArc
 50
270.0
 51
0.0
  0
ARC
  5
F7
330
1F
100
AcDbEntity
  8
0
  6
Continuous
 62
     7
370
    25
100
AcDbCircle
 10
25.0627013355
 20
25.0396743715
 30
0.0
 40
0.2900654205607462
100
AcDbArc
 50
39.1326325072
 51
90.0
  0
ARC
  5
F8
330
1F
100
AcDbEntity
  8
0
  6
Continuous
 62
     7
370
    25
100
AcDbCircle
 10
25.5127013355
 20
25.0396743715
 30
0.0
 40
0.2900654205607509
100
AcDbArc
 50
90.0
 51
140.8673674928
  0
LINE
  5
F9
330
1F
100
AcDbEntity
  8
0
  6
Continuous
 62
     7
370
    25
100
AcDbLine
 10
25.593565205
 20
25.6077958964
 30
0.0
 11
25.593565205
 21
25.872739792
 31
0.0
  0
ARC
  5
FA
330
1F
100
AcDbEntity
  8
0
  6
Continuous
 62
     7
370
    25
100
AcDbCircle
 10
25.493565205
 20
25.6077958964
 30
0.0
 40
0.0999999999999976
100
AcDbArc
 50
355.5134736602
 51
359.9999999999
  0
ARC
  5
FB
330
1F
100
AcDbEntity
  8
0
  6
Continuous
 62
     7
370
    25
100
AcDbCircle
 10
25.185444302
 20
25.5871038211
 30
0.0
 40
0.2027634304302527
100
AcDbArc
 50
179.1720210704
 51
200.900507611
  0
LINE
  5
FC
330
1F
100
AcDbEntity
  8
0
  6
Continuous
 62
     7
370
    25
100
AcDbLine
 10
24.9820930918
 20
25.5977743236
 30
0.0
 11
24.9827020428
 21
25.590033845
 31
0.0
  0
ARC
  5
FD
330
1F
100
AcDbEntity
  8
0
  6
Continuous
 62
     7
370
    25
100
AcDbCircle
 10
25.3349798761
 20
25.5983424703
 30
0.0
 40
0.2583372732810932
100
AcDbArc
 50
341.2177398078
 51
359.8136419473
  0
LINE
  5
FE
330
1F
100
AcDbEntity
  8
0
  6
Continuous
 62
     7
370
    25
100
AcDbLine
 10
24.9818374659
 20
25.872739792
 30
0.0
 11
24.9818374659
 21
25.6077958964
 31
0.0
  0
ARC
  5
FF
330
1F
100
AcDbEntity
  8
0
  6
Continuous
 62
     7
370
    25
100
AcDbCircle
 10
25.0818374659
 20
25.6077958964
 30
0.0
 40
0.100000000000005
100
AcDbArc
 50
180.0000000001
 51
184.4865263401
  0
ARC
  5
100
330
1F
100
AcDbEntity
  8
0
  6
Continuous
 62
     7
370
    25
100
AcDbCircle
 10
22.9507873527
 20
25.4375880748
 30
0.0
 40
0.1869139827871537
100
AcDbArc
 50
0.0
 51
25.2339604097
  0
ARC
  5
101
330
1F
100
AcDbEntity
  8
0
  6
Continuous
 62
     7
370
    25
100
AcDbCircle
 10
23.8746153182
 20
25.4375880748
 30
0.0
 40
0.1869139827871521
100
AcDbArc
 50
154.763203241
 51
180.0
  0
LINE
  5
102
330
1F
100
AcDbEntity
  8
0
  6
Continuous
 62
     7
370
    25
100
AcDbLine
 10
23.1377013355
 20
25.4375880748
 30
0.0
 11
23.1377013355
 21
25.379739792
 31
0.0
  0
LINE
  5
103
330
1F
100
AcDbEntity
  8
0
  6
Continuous
 62
     7
370
    25
100
AcDbLine
 10
23.6877013355
 20
25.379739792
 30
0.0
 11
23.6877013355
 21
25.4375880748
 31
0.0
  0
ARC
  5
104
330
1F
100
AcDbEntity
  8
0
  6
Continuous
 62
     7
370
    25
100
AcDbCircle
 10
23.1877013355
 20
25.379739792
 30
0.0
 40
0.0500000000000007
100
AcDbArc
 50
180.0
 51
270.0
  0
ARC
  5
105
330
1F
100
AcDbEntity
  8
0
  6
Continuous
 62
     7
370
    25
100
AcDbCircle
 10
23.6377013355
 20
25.379739792
 30
0.0
 40
0.0500000000000043
100
AcDbArc
 50
270.0
 51
0.0
  0
ARC
  5
106
330
1F
100
AcDbEntity
  8
0
  6
Continuous
 62
     7
370
    25
100
AcDbCircle
 10
23.1877013355
 20
25.0396743715
 30
0.0
 40
0.2900654205607462
100
AcDbArc
 50
39.1326325072
 51
90.0
  0
ARC
  5
107
330
1F
100
AcDbEntity
  8
0
  6
Continuous
 62
     7
370
    25
100
AcDbCircle
 10
23.6377013355
 20
25.0396743715
 30
0.0
 40
0.2900654205607438
100
AcDbArc
 50
90.0
 51
140.8673674928
  0
ARC
  5
108
330
1F
100
AcDbEntity
  8
0
  6
Continuous
 62
     7
370
    25
100
AcDbCircle
 10
23.4490860902
 20
25.6264451367
 30
0.0
 40
0.2787226294820926
100
AcDbArc
 50
336.9422036846
 51
351.6725601081
  0
LINE
  5
109
330
1F
100
AcDbEntity
  8
0
  6
Continuous
 62
     7
370
    25
100
AcDbLine
 10
23.0981643517
 20
25.872739792
 30
0.0
 11
23.0981643517
 21
25.6077958964
 31
0.0
  0
ARC
  5
10A
330
1F
100
AcDbEntity
  8
0
  6
Continuous
 62
     7
370
    25
100
AcDbCircle
 10
23.1981643517
 20
25.6077958964
 30
0.0
 40
0.1000000000000014
100
AcDbArc
 50
180.0000000001
 51
191.9763211989
  0
ARC
  5
10B
330
1F
100
AcDbEntity
  8
0
  6
Continuous
 62
     7
370
    25
100
AcDbCircle
 10
23.3129562971
 20
25.6093532141
 30
0.0
 40
0.2135368940739441
100
AcDbArc
 50
186.1389113969
 51
205.3905801826
  0
LINE
  5
10C
330
1F
100
AcDbEntity
  8
0
  6
Continuous
 62
     7
370
    25
100
AcDbLine
 10
23.7272383192
 20
25.6077958964
 30
0.0
 11
23.7272383192
 21
25.872739792
 31
0.0
  0
ARC
  5
10D
330
1F
100
AcDbEntity
  8
0
  6
Continuous
 62
     7
370
    25
100
AcDbCircle
 10
23.6272383192
 20
25.6077958964
 30
0.0
 40
0.099999999999998
100
AcDbArc
 50
348.023678801
 51
359.9999999999
  0
LINE
  5
10E
330
1F
100
AcDbEntity
  8
0
  6
Continuous
 62
     7
370
    25
100
AcDbLine
 10
21.5855585133
 20
27.274739792
 30
0.0
 11
21.5100372574
 21
27.274739792
 31
0.0
  0
LINE
  5
10F
330
1F
100
AcDbEntity
  8
0
  6
Continuous
 62
     7
370
    25
100
AcDbLine
 10
21.5100372574
 20
26.054739792
 30
0.0
 11
21.5855585133
 21
26.054739792
 31
0.0
  0
ARC
  5
110
330
1F
100
AcDbEntity
  8
0
  6
Continuous
 62
     7
370
    25
100
AcDbCircle
 10
21.5100372574
 20
27.224739792
 30
0.0
 40
0.0500000000000078
100
AcDbArc
 50
90.0
 51
173.5653460488
  0
ARC
  5
111
330
1F
100
AcDbEntity
  8
0
  6
Continuous
 62
     7
370
    25
100
AcDbCircle
 10
21.5100372574
 20
26.104739792
 30
0.0
 40
0.0500000000000055
100
AcDbArc
 50
186.4346539513
 51
270.0
  0
ARC
  5
112
330
1F
100
AcDbEntity
  8
0
  6
Continuous
 62
     7
370
    25
100
AcDbCircle
 10
26.4754368917
 20
26.664739792
 30
0.0
 40
5.04687837837835
100
AcDbArc
 50
173.5653460488
 51
186.4346539512
  0
LINE
  5
113
330
1F
100
AcDbEntity
  8
0
  6
Continuous
 62
     7
370
    25
100
AcDbLine
 10
21.5100372574
 20
27.274739792
 30
0.0
 11
21.4850372574
 21
27.274739792
 31
0.0
  0
LINE
  5
114
330
1F
100
AcDbEntity
  8
0
  6
Continuous
 62
     7
370
    25
100
AcDbLine
 10
21.4850372574
 20
26.054739792
 30
0.0
 11
21.5100372574
 21
26.054739792
 31
0.0
  0
ARC
  5
115
330
1F
100
AcDbEntity
  8
0
  6
Continuous
 62
     7
370
    25
100
AcDbCircle
 10
21.4850372574
 20
27.224739792
 30
0.0
 40
0.0500000000000007
100
AcDbArc
 50
90.0
 51
173.5653460488
  0
ARC
  5
116
330
1F
100
AcDbEntity
  8
0
  6
Continuous
 62
     7
370
    25
100
AcDbCircle
 10
21.4850372574
 20
26.104739792
 30
0.0
 40
0.0500000000000059
100
AcDbArc
 50
186.4346539513
 51
270.0
  0
ARC
  5
117
330
1F
100
AcDbEntity
  8
0
  6
Continuous
 62
     7
370
    25
100
AcDbCircle
 10
26.4504368917
 20
26.664739792
 30
0.0
 40
5.046878378378349
100
AcDbArc
 50
173.5653460488
 51
186.4346539512
  0
ARC
  5
118
330
1F
100
AcDbEntity
  8
0
  6
Continuous
 62
     7
370
    25
100
AcDbCircle
 10
25.5737013355
 20
27.693739792
 30
0.0
 40
0.0300000000000011
100
AcDbArc
 50
0.0
 51
90.0
  0
ARC
  5
119
330
1F
100
AcDbEntity
  8
0
  6
Continuous
 62
     7
370
    25
100
AcDbCircle
 10
25.0017013355
 20
27.693739792
 30
0.0
 40
0.0300000000000011
100
AcDbArc
 50
90.0
 51
180.0
  0
LINE
  5
11A
330
1F
100
AcDbEntity
  8
0
  6
Continuous
 62
     7
370
    25
100
AcDbLine
 10
24.9717013355
 20
27.693739792
 30
0.0
 11
24.9717013355
 21
27.452739792
 31
0.0
  0
LINE
  5
11B
330
1F
100
AcDbEntity
  8
0
  6
Continuous
 62
     7
370
    25
100
AcDbLine
 10
25.6037013355
 20
27.452739792
 30
0.0
 11
25.6037013355
 21
27.693739792
 31
0.0
  0
LINE
  5
11C
330
1F
100
AcDbEntity
  8
0
  6
Continuous
 62
     7
370
    25
100
AcDbLine
 10
25.0902013355
 20
27.317739792
 30
0.0
 11
25.0902013355
 21
27.287739792
 31
0.0
  0
LINE
  5
11D
330
1F
100
AcDbEntity
  8
0
  6
Continuous
 62
     7
370
    25
100
AcDbLine
 10
25.0902013355
 20
26.037739792
 30
0.0
 11
25.0902013355
 21
26.007739792
 31
0.0
  0
LINE
  5
11E
330
1F
100
AcDbEntity
  8
0
  6
Continuous
 62
     7
370
    25
100
AcDbLine
 10
25.4852013355
 20
26.007739792
 30
0.0
 11
25.4852013355
 21
26.037739792
 31
0.0
  0
LINE
  5
11F
330
1F
100
AcDbEntity
  8
0
  6
Continuous
 62
     7
370
    25
100
AcDbLine
 10
25.4852013355
 20
27.287739792
 30
0.0
 11
25.4852013355
 21
27.317739792
 31
0.0
  0
LINE
  5
120
330
1F
100
AcDbEntity
  8
0
  6
Continuous
 62
     7
370
    25
100
AcDbLine
 10
25.1502013355
 20
25.882739792
 30
0.0
 11
25.1502013355
 21
25.872739792
 31
0.0
  0
LINE
  5
121
330
1F
100
AcDbEntity
  8
0
  6
Continuous
 62
     7
370
    25
100
AcDbLine
 10
25.4252013355
 20
25.872739792
 30
0.0
 11
25.4252013355
 21
25.882739792
 31
0.0
  0
LINE
  5
122
330
1F
100
AcDbEntity
  8
0
  6
Continuous
 62
     7
370
    25
100
AcDbLine
 10
23.0967013355
 20
27.693739792
 30
0.0
 11
23.0967013355
 21
27.452739792
 31
0.0
  0
LINE
  5
123
330
1F
100
AcDbEntity
  8
0
  6
Continuous
 62
     7
370
    25
100
AcDbLine
 10
23.7287013355
 20
27.452739792
 30
0.0
 11
23.7287013355
 21
27.693739792
 31
0.0
  0
ARC
  5
124
330
1F
100
AcDbEntity
  8
0
  6
Continuous
 62
     7
370
    25
100
AcDbCircle
 10
23.6987013355
 20
27.693739792
 30
0.0
 40
0.0299999999999976
100
AcDbArc
 50
0.0
 51
90.0
  0
ARC
  5
125
330
1F
100
AcDbEntity
  8
0
  6
Continuous
 62
     7
370
    25
100
AcDbCircle
 10
23.1267013355
 20
27.693739792
 30
0.0
 40
0.0300000000000011
100
AcDbArc
 50
90.0
 51
180.0
  0
LINE
  5
126
330
1F
100
AcDbEntity
  8
0
  6
Continuous
 62
     7
370
    25
100
AcDbLine
 10
23.2152013355
 20
27.317739792
 30
0.0
 11
23.2152013355
 21
27.287739792
 31
0.0
  0
LINE
  5
127
330
1F
100
AcDbEntity
  8
0
  6
Continuous
 62
     7
370
    25
100
AcDbLine
 10
23.2152013355
 20
26.037739792
 30
0.0
 11
23.2152013355
 21
26.007739792
 31
0.0
  0
LINE
  5
128
330
1F
100
AcDbEntity
  8
0
  6
Continuous
 62
     7
370
    25
100
AcDbLine
 10
23.6102013355
 20
26.007739792
 30
0.0
 11
23.6102013355
 21
26.037739792
 31
0.0
  0
LINE
  5
129
330
1F
100
AcDbEntity
  8
0
  6
Continuous
 62
     7
370
    25
100
AcDbLine
 10
23.6102013355
 20
27.287739792
 30
0.0
 11
23.6102013355
 21
27.317739792
 31
0.0
  0
LINE
  5
12A
330
1F
100
AcDbEntity
  8
0
  6
Continuous
 62
     7
370
    25
100
AcDbLine
 10
23.2752013355
 20
25.882739792
 30
0.0
 11
23.2752013355
 21
25.872739792
 31
0.0
  0
LINE
  5
12B
330
1F
100
AcDbEntity
  8
0
  6
Continuous
 62
     7
370
    25
100
AcDbLine
 10
23.5502013355
 20
25.872739792
 30
0.0
 11
23.5502013355
 21
25.882739792
 31
0.0
  0
ARC
  5
12C
330
1F
100
AcDbEntity
  8
0
  6
Continuous
 62
     7
370
    25
100
AcDbCircle
 10
49.7696585133
 20
26.664739792
 30
0.0
 40
0.6229999999999976
100
AcDbArc
 50
0.0
 51
90.0
  0
LINE
  5
12D
330
1F
100
AcDbEntity
  8
0
  6
Continuous
 62
     7
370
    25
100
AcDbLine
 10
50.3926585133
 20
26.660739792
 30
0.0
 11
50.3926585133
 21
26.664739792
 31
0.0
  0
ARC
  5
12E
330
1F
100
AcDbEntity
  8
0
  6
Continuous
 62
     7
370
    25
100
AcDbCircle
 10
49.7696585133
 20
26.660739792
 30
0.0
 40
0.6230000000000047
100
AcDbArc
 50
270.0
 51
0.0
  0
LINE
  5
12F
330
1F
100
AcDbEntity
  8
0
  6
Continuous
 62
     7
370
    25
100
AcDbLine
 10
25.0627013355
 20
25.329739792
 30
0.0
 11
25.5127013355
 21
25.329739792
 31
0.0
  0
LWPOLYLINE
  5
130
330
1F
100
AcDbEntity
  8
0
  6
Continuous
 62
     7
370
    25
100
AcDbPolyline
 90
        3
 70
   128
 43
0.0
 10
25.5932587806
 20
25.5999734306
 10
25.5932235004
 20
25.5995413901
 10
25.5933157829
 20
25.5975022138
  0
LWPOLYLINE
  5
131
330
1F
100
AcDbEntity
  8
0
  6
Continuous
 62
     7
370
    25
100
AcDbPolyline
 90
        3
 70
   128
 43
0.0
 10
24.9821438903
 20
25.5999734306
 10
24.9821791705
 20
25.5995413901
 10
24.9820930918
 20
25.5977743236
  0
LINE
  5
132
330
1F
100
AcDbEntity
  8
0
  6
Continuous
 62
     7
370
    25
100
AcDbLine
 10
23.3803175944
 20
25.329739792
 30
0.0
 11
23.6377013355
 21
25.329739792
 31
0.0
  0
LINE
  5
133
330
1F
100
AcDbEntity
  8
0
  6
Continuous
 62
     7
370
    25
100
AcDbLine
 10
23.1877013355
 20
25.329739792
 30
0.0
 11
23.3803175944
 21
25.329739792
 31
0.0
  0
LINE
  5
134
330
1F
100
AcDbEntity
  8
0
  6
Continuous
 62
     7
370
    25
100
AcDbLine
 10
25.5593681902
 20
27.723739792
 30
0.0
 11
25.5737013355
 21
27.723739792
 31
0.0
  0
LINE
  5
135
330
1F
100
AcDbEntity
  8
0
  6
Continuous
 62
     7
370
    25
100
AcDbLine
 10
25.0017013355
 20
27.723739792
 30
0.0
 11
25.5593681902
 21
27.723739792
 31
0.0
  0
LINE
  5
136
330
1F
100
AcDbEntity
  8
0
  6
Continuous
 62
     7
370
    25
100
AcDbLine
 10
23.1267013355
 20
27.723739792
 30
0.0
 11
23.6987013355
 21
27.723739792
 31
0.0
  0
LINE
  5
137
330
1F
100
AcDbEntity
  8
0
  6
Continuous
 62
     7
370
    25
100
AcDbLine
 10
21.5855585133
 20
26.664739792
 30
0.0
 11
21.5855585133
 21
27.287739792
 31
0.0
  0
LINE
  5
138
330
1F
100
AcDbEntity
  8
0
  6
Continuous
 62
     7
370
    25
100
AcDbLine
 10
21.5855585133
 20
27.287739792
 30
0.0
 11
47.5176585133
 21
27.287739792
 31
0.0
  0
LINE
  5
139
330
1F
100
AcDbEntity
  8
0
  6
Continuous
 62
     7
370
    25
100
AcDbLine
 10
47.5176585133
 20
27.287739792
 30
0.0
 11
49.7696585133
 21
27.287739792
 31
0.0
  0
LINE
  5
13A
330
1F
100
AcDbEntity
  8
0
  6
Continuous
 62
     7
370
    25
100
AcDbLine
 10
47.5176585133
 20
26.037739792
 30
0.0
 11
21.5855585133
 21
26.037739792
 31
0.0
  0
LINE
  5
13B
330
1F
100
AcDbEntity
  8
0
  6
Continuous
 62
     7
370
    25
100
AcDbLine
 10
21.5855585133
 20
26.037739792
 30
0.0
 11
21.5855585133
 21
26.660739792
 31
0.0
  0
LINE
  5
13C
330
1F
100
AcDbEntity
  8
0
  6
Continuous
 62
     7
370
    25
100
AcDbLine
 10
49.7696585133
 20
26.037739792
 30
0.0
 11
47.5176585133
 21
26.037739792
 31
0.0
  0
LINE
  5
13D
330
1F
100
AcDbEntity
  8
0
  6
Continuous
 62
     7
370
    25
100
AcDbLine
 10
21.5855585133
 20
26.660739792
 30
0.0
 11
21.5855585133
 21
26.664739792
 31
0.0
  0
LINE
  5
13E
330
1F
100
AcDbEntity
  8
0
  6
Continuous
 62
     7
370
    25
100
AcDbLine
 10
21.5605585133
 20
27.287739792
 30
0.0
 11
21.5855585133
 21
27.287739792
 31
0.0
  0
LINE
  5
13F
330
1F
100
AcDbEntity
  8
0
  6
Continuous
 62
     7
370
    25
100
AcDbLine
 10
21.5605585133
 20
27.274739792
 30
0.0
 11
21.5605585133
 21
27.287739792
 31
0.0
  0
LINE
  5
140
330
1F
100
AcDbEntity
  8
0
  6
Continuous
 62
     7
370
    25
100
AcDbLine
 10
21.5855585133
 20
26.037739792
 30
0.0
 11
21.5605585133
 21
26.037739792
 31
0.0
  0
LINE
  5
141
330
1F
100
AcDbEntity
  8
0
  6
Continuous
 62
     7
370
    25
100
AcDbLine
 10
21.5605585133
 20
26.037739792
 30
0.0
 11
21.5605585133
 21
26.054739792
 31
0.0
  0
LINE
  5
142
330
1F
100
AcDbEntity
  8
0
  6
Continuous
 62
     7
370
    25
100
AcDbLine
 10
20.3927013355
 20
28.850239792
 30
0.0
 11
20.5127013355
 21
28.850239792
 31
0.0
  0
LINE
  5
143
330
1F
100
AcDbEntity
  8
0
  6
Continuous
 62
     7
370
    25
100
AcDbLine
 10
20.5127013355
 20
28.850239792
 30
0.0
 11
20.5127013355
 21
28.475239792
 31
0.0
  0
LINE
  5
144
330
1F
100
AcDbEntity
  8
0
  6
Continuous
 62
     7
370
    25
100
AcDbLine
 10
20.3927013355
 20
28.850239792
 30
0.0
 11
20.3927013355
 21
28.475239792
 31
0.0
  0
LINE
  5
145
330
1F
100
AcDbEntity
  8
0
  6
Continuous
 62
     7
370
    25
100
AcDbLine
 10
20.5127013355
 20
28.475239792
 30
0.0
 11
20.5127013355
 21
24.850239792
 31
0.0
  0
LINE
  5
146
330
1F
100
AcDbEntity
  8
0
  6
Continuous
 62
     7
370
    25
100
AcDbLine
 10
20.3927013355
 20
28.475239792
 30
0.0
 11
20.3927013355
 21
24.850239792
 31
0.0
  0
LINE
  5
147
330
1F
100
AcDbEntity
  8
0
  6
Continuous
 62
     7
370
    25
100
AcDbLine
 10
20.3927013355
 20
24.475239792
 30
0.0
 11
20.5127013355
 21
24.475239792
 31
0.0
  0
LINE
  5
148
330
1F
100
AcDbEntity
  8
0
  6
Continuous
 62
     7
370
    25
100
AcDbLine
 10
20.5127013355
 20
24.850239792
 30
0.0
 11
20.5127013355
 21
24.475239792
 31
0.0
  0
LINE
  5
149
330
1F
100
AcDbEntity
  8
0
  6
Continuous
 62
     7
370
    25
100
AcDbLine
 10
20.3927013355
 20
24.850239792
 30
0.0
 11
20.3927013355
 21
24.475239792
 31
0.0
  0
LINE
  5
14A
330
1F
100
AcDbEntity
  8
0
  6
Continuous
 62
     7
370
    25
100
AcDbLine
 10
26.4371985589
 20
27.317739792
 30
0.0
 11
20.6797013355
 21
27.317739792
 31
0.0
  0
LINE
  5
14B
330
1F
100
AcDbEntity
  8
0
  6
Continuous
 62
     7
370
    25
100
AcDbLine
 10
20.6797013355
 20
27.317739792
 30
0.0
 11
20.6797013355
 21
27.452739792
 31
0.0
  0
LINE
  5
14C
330
1F
100
AcDbEntity
  8
0
  6
Continuous
 62
     7
370
    25
100
AcDbLine
 10
20.6797013355
 20
27.452739792
 30
0.0
 11
26.4371985589
 21
27.452739792
 31
0.0
  0
ARC
  5
14D
330
1F
100
AcDbEntity
  8
0
  6
Continuous
 62
     7
370
    25
100
AcDbCircle
 10
20.6797013355
 20
27.285739792
 30
0.0
 40
0.1670000000000087
100
AcDbArc
 50
90.0
 51
180.0
  0
ARC
  5
14E
330
1F
100
AcDbEntity
  8
0
  6
Continuous
 62
     7
370
    25
100
AcDbCircle
 10
20.6797013355
 20
27.285739792
 30
0.0
 40
0.0320000000000036
100
AcDbArc
 50
90.0
 51
180.0
  0
LINE
  5
14F
330
1F
100
AcDbEntity
  8
0
  6
Continuous
 62
     7
370
    25
100
AcDbLine
 10
20.6477013355
 20
26.039739792
 30
0.0
 11
20.6477013355
 21
27.285739792
 31
0.0
  0
ARC
  5
150
330
1F
100
AcDbEntity
  8
0
  6
Continuous
 62
     7
370
    25
100
AcDbCircle
 10
20.6797013355
 20
26.039739792
 30
0.0
 40
0.0320000000000036
100
AcDbArc
 50
180.0
 51
270.0000000001
  0
LINE
  5
151
330
1F
100
AcDbEntity
  8
0
  6
Continuous
 62
     7
370
    25
100
AcDbLine
 10
20.6797013355
 20
25.872739792
 30
0.0
 11
20.6797013355
 21
26.007739792
 31
0.0
  0
ARC
  5
152
330
1F
100
AcDbEntity
  8
0
  6
Continuous
 62
     7
370
    25
100
AcDbCircle
 10
20.6797013355
 20
26.039739792
 30
0.0
 40
0.1670000000000016
100
AcDbArc
 50
180.0
 51
270.0
  0
LINE
  5
153
330
1F
100
AcDbEntity
  8
0
  6
Continuous
 62
     7
370
    25
100
AcDbLine
 10
20.5127013355
 20
27.285739792
 30
0.0
 11
20.5127013355
 21
26.039739792
 31
0.0
  0
LINE
  5
154
330
1F
100
AcDbEntity
  8
0
  6
Continuous
 62
     7
370
    25
100
AcDbLine
 10
26.4371985589
 20
25.872739792
 30
0.0
 11
20.6797013355
 21
25.872739792
 31
0.0
  0
LINE
  5
155
330
1F
100
AcDbEntity
  8
0
  6
Continuous
 62
     7
370
    25
100
AcDbLine
 10
26.4371985589
 20
26.007739792
 30
0.0
 11
20.6797013355
 21
26.007739792
 31
0.0
  0
LINE
  5
156
330
1F
100
AcDbEntity
  8
0
  6
Continuous
 62
     7
370
    25
100
AcDbLine
 10
26.8977013355
 20
27.452739792
 30
0.0
 11
26.8977013355
 21
27.317739792
 31
0.0
  0
LINE
  5
157
330
1F
100
AcDbEntity
  8
0
  6
Continuous
 62
     7
370
    25
100
AcDbLine
 10
26.8977013355
 20
27.317739792
 30
0.0
 11
26.4371985589
 21
27.317739792
 31
0.0
  0
LINE
  5
158
330
1F
100
AcDbEntity
  8
0
  6
Continuous
 62
     7
370
    25
100
AcDbLine
 10
26.8977013355
 20
27.452739792
 30
0.0
 11
26.4371985589
 21
27.452739792
 31
0.0
  0
LINE
  5
159
330
1F
100
AcDbEntity
  8
0
  6
Continuous
 62
     7
370
    25
100
AcDbLine
 10
26.8977013355
 20
26.007739792
 30
0.0
 11
26.8977013355
 21
25.872739792
 31
0.0
  0
LINE
  5
15A
330
1F
100
AcDbEntity
  8
0
  6
Continuous
 62
     7
370
    25
100
AcDbLine
 10
26.8977013355
 20
25.872739792
 30
0.0
 11
26.4371985589
 21
25.872739792
 31
0.0
  0
LINE
  5
15B
330
1F
100
AcDbEntity
  8
0
  6
Continuous
 62
     7
370
    25
100
AcDbLine
 10
26.8977013355
 20
26.007739792
 30
0.0
 11
26.4371985589
 21
26.007739792
 31
0.0
  0
ARC
  5
15C
330
1F
100
AcDbEntity
  8
0
  6
Continuous
 62
     7
370
    25
100
AcDbCircle
 10
52.6222161467
 20
16.5404672881
 30
0.0
 40
0.1869139827871535
100
AcDbArc
 50
270.0
 51
304.122597741
  0
ARC
  5
15D
330
1F
100
AcDbEntity
  8
0
  6
Continuous
 62
     7
370
    25
100
AcDbCircle
 10
52.6222161467
 20
15.6166393225
 30
0.0
 40
0.1869139827871578
100
AcDbArc
 50
55.9154476724
 51
90.0
  0
ARC
  5
15E
330
1F
100
AcDbEntity
  8
0
  6
Continuous
 62
     7
370
    25
100
AcDbCircle
 10
52.5643678639
 20
16.3035533053
 30
0.0
 40
0.0499999999999972
100
AcDbArc
 50
90.0
 51
180.0
  0
ARC
  5
15F
330
1F
100
AcDbEntity
  8
0
  6
Continuous
 62
     7
370
    25
100
AcDbCircle
 10
52.5643678639
 20
15.8535533053
 30
0.0
 40
0.0499999999999972
100
AcDbArc
 50
180.0
 51
270.0
  0
LINE
  5
160
330
1F
100
AcDbEntity
  8
0
  6
Continuous
 62
     7
370
    25
100
AcDbLine
 10
52.6222161467
 20
16.3535533053
 30
0.0
 11
52.5643678639
 21
16.3535533053
 31
0.0
  0
LINE
  5
161
330
1F
100
AcDbEntity
  8
0
  6
Continuous
 62
     7
370
    25
100
AcDbLine
 10
52.5643678639
 20
15.8035533053
 30
0.0
 11
52.6222161467
 21
15.8035533053
 31
0.0
  0
ARC
  5
162
330
1F
100
AcDbEntity
  8
0
  6
Continuous
 62
     7
370
    25
100
AcDbCircle
 10
52.2243024433
 20
16.3035533053
 30
0.0
 40
0.290065420560744
100
AcDbArc
 50
309.1326325072
 51
360.0
  0
ARC
  5
163
330
1F
100
AcDbEntity
  8
0
  6
Continuous
 62
     7
370
    25
100
AcDbCircle
 10
52.2243024433
 20
15.8535533053
 30
0.0
 40
0.2900654205607454
100
AcDbArc
 50
0.0
 51
50.8673674928
  0
LINE
  5
164
330
1F
100
AcDbEntity
  8
0
  6
Continuous
 62
     7
370
    25
100
AcDbLine
 10
52.7269434626
 20
15.769953219
 30
0.0
 11
52.7365982129
 21
15.7637610824
 31
0.0
  0
ARC
  5
165
330
1F
100
AcDbEntity
  8
0
  6
Continuous
 62
     7
370
    25
100
AcDbCircle
 10
52.7924239683
 20
16.3091658935
 30
0.0
 40
0.1000000000000041
100
AcDbArc
 50
90.0
 51
123.7395906563
  0
LINE
  5
166
330
1F
100
AcDbEntity
  8
0
  6
Continuous
 62
     7
370
    25
100
AcDbLine
 10
53.0573678639
 20
16.4091658935
 30
0.0
 11
52.7924239683
 21
16.4091658935
 31
0.0
  0
LINE
  5
167
330
1F
100
AcDbEntity
  8
0
  6
Continuous
 62
     7
370
    25
100
AcDbLine
 10
52.7924239683
 20
15.7479407171
 30
0.0
 11
53.0573678639
 21
15.7479407171
 31
0.0
  0
ARC
  5
168
330
1F
100
AcDbEntity
  8
0
  6
Continuous
 62
     7
370
    25
100
AcDbCircle
 10
52.7924239683
 20
15.8479407171
 30
0.0
 40
0.100000000000007
100
AcDbArc
 50
236.2604093437
 51
270.0000000003
  0
LINE
  5
169
330
1F
100
AcDbEntity
  8
0
  6
Continuous
 62
     7
370
    25
100
AcDbLine
 10
52.7367577522
 20
16.393513625
 30
0.0
 11
52.7269260438
 21
16.3870631004
 31
0.0
  0
LWPOLYLINE
  5
16A
330
1F
100
AcDbEntity
  8
0
  6
Continuous
 62
     7
370
    25
100
AcDbPolyline
 90
        3
 70
   128
 43
0.0
 10
52.7195702856
 20
15.7746778251
 10
52.7340036742
 20
15.7662574193
 10
52.7436627623
 20
15.7613459703
  0
LINE
  5
16B
330
1F
100
AcDbEntity
  8
0
  6
Continuous
 62
     7
370
    25
100
AcDbLine
 10
54.8783678639
 20
16.3945533053
 30
0.0
 11
54.6373678639
 21
16.3945533053
 31
0.0
  0
LINE
  5
16C
330
1F
100
AcDbEntity
  8
0
  6
Continuous
 62
     7
370
    25
100
AcDbLine
 10
54.6373678639
 20
15.7625533053
 30
0.0
 11
54.8783678639
 21
15.7625533053
 31
0.0
  0
ARC
  5
16D
330
1F
100
AcDbEntity
  8
0
  6
Continuous
 62
     7
370
    25
100
AcDbCircle
 10
54.8783678639
 20
15.7925533053
 30
0.0
 40
0.0299999999999994
100
AcDbArc
 50
270.0
 51
0.0
  0
ARC
  5
16E
330
1F
100
AcDbEntity
  8
0
  6
Continuous
 62
     7
370
    25
100
AcDbCircle
 10
54.8783678639
 20
16.3645533053
 30
0.0
 40
0.0300000000000011
100
AcDbArc
 50
0.0
 51
90.0
  0
LINE
  5
16F
330
1F
100
AcDbEntity
  8
0
  6
Continuous
 62
     7
370
    25
100
AcDbLine
 10
54.5023678639
 20
16.2760533053
 30
0.0
 11
54.4723678639
 21
16.2760533053
 31
0.0
  0
LINE
  5
170
330
1F
100
AcDbEntity
  8
0
  6
Continuous
 62
     7
370
    25
100
AcDbLine
 10
53.2223678639
 20
16.2760533053
 30
0.0
 11
53.1923678639
 21
16.2760533053
 31
0.0
  0
LINE
  5
171
330
1F
100
AcDbEntity
  8
0
  6
Continuous
 62
     7
370
    25
100
AcDbLine
 10
53.1923678639
 20
15.8810533053
 30
0.0
 11
53.2223678639
 21
15.8810533053
 31
0.0
  0
LINE
  5
172
330
1F
100
AcDbEntity
  8
0
  6
Continuous
 62
     7
370
    25
100
AcDbLine
 10
54.4723678639
 20
15.8810533053
 30
0.0
 11
54.5023678639
 21
15.8810533053
 31
0.0
  0
LINE
  5
173
330
1F
100
AcDbEntity
  8
0
  6
Continuous
 62
     7
370
    25
100
AcDbLine
 10
52.5143678639
 20
15.9558389302
 30
0.0
 11
52.5143678639
 21
15.8535533053
 31
0.0
  0
LINE
  5
174
330
1F
100
AcDbEntity
  8
0
  6
Continuous
 62
     7
370
    25
100
AcDbLine
 10
52.5143678639
 20
16.3035533053
 30
0.0
 11
52.5143678639
 21
15.9558389302
 31
0.0
  0
LINE
  5
175
330
1F
100
AcDbEntity
  8
0
  6
Continuous
 62
     7
370
    25
100
AcDbLine
 10
54.9083678639
 20
16.167957556
 30
0.0
 11
54.9083678639
 21
15.7925533053
 31
0.0
  0
LINE
  5
176
330
1F
100
AcDbEntity
  8
0
  6
Continuous
 62
     7
370
    25
100
AcDbLine
 10
54.9083678639
 20
16.3645533053
 30
0.0
 11
54.9083678639
 21
16.167957556
 31
0.0
  0
LINE
  5
177
330
1F
100
AcDbEntity
  8
0
  6
Continuous
 62
     7
370
    25
100
AcDbLine
 10
54.4723678639
 20
19.2683705447
 30
0.0
 11
54.4723678639
 21
14.7643705447
 31
0.0
  0
ARC
  5
178
330
1F
100
AcDbEntity
  8
0
  6
Continuous
 62
     7
370
    25
100
AcDbCircle
 10
53.8493678639
 20
14.7643705447
 30
0.0
 40
0.6230000000000011
100
AcDbArc
 50
270.0
 51
0.0
  0
ARC
  5
179
330
1F
100
AcDbEntity
  8
0
  6
Continuous
 62
     7
370
    25
100
AcDbCircle
 10
53.8493678639
 20
19.2683705447
 30
0.0
 40
0.6230000000000011
100
AcDbArc
 50
0.0
 51
90.0
  0
LINE
  5
17A
330
1F
100
AcDbEntity
  8
0
  6
Continuous
 62
     7
370
    25
100
AcDbLine
 10
53.8493678639
 20
19.8913705447
 30
0.0
 11
53.8453678639
 21
19.8913705447
 31
0.0
  0
LINE
  5
17B
330
1F
100
AcDbEntity
  8
0
  6
Continuous
 62
     7
370
    25
100
AcDbLine
 10
53.8453678639
 20
14.1413705447
 30
0.0
 11
53.8493678639
 21
14.1413705447
 31
0.0
  0
ARC
  5
17C
330
1F
100
AcDbEntity
  8
0
  6
Continuous
 62
     7
370
    25
100
AcDbCircle
 10
53.8453678639
 20
14.7643705447
 30
0.0
 40
0.6229999999999976
100
AcDbArc
 50
180.0
 51
270.0
  0
LINE
  5
17D
330
1F
100
AcDbEntity
  8
0
  6
Continuous
 62
     7
370
    25
100
AcDbLine
 10
53.2223678639
 20
14.7643705447
 30
0.0
 11
53.2223678639
 21
19.2683705447
 31
0.0
  0
ARC
  5
17E
330
1F
100
AcDbEntity
  8
0
  6
Continuous
 62
     7
370
    25
100
AcDbCircle
 10
53.8453678639
 20
19.2683705447
 30
0.0
 40
0.6230000000000011
100
AcDbArc
 50
90.0
 51
180.0
  0
ARC
  5
17F
330
1F
100
AcDbEntity
  8
0
  6
Continuous
 62
     7
370
    25
100
AcDbCircle
 10
52.0348678639
 20
21.2035533053
 30
0.0
 40
0.375
100
AcDbArc
 50
90.0
 51
180.0
  0
LINE
  5
180
330
1F
100
AcDbEntity
  8
0
  6
Continuous
 62
     7
370
    25
100
AcDbLine
 10
55.6598678639
 20
21.5785533053
 30
0.0
 11
54.6373678639
 21
21.5785533053
 31
0.0
  0
LINE
  5
181
330
1F
100
AcDbEntity
  8
0
  6
Continuous
 62
     7
370
    25
100
AcDbLine
 10
53.0573678639
 20
21.5785533053
 30
0.0
 11
52.0348678639
 21
21.5785533053
 31
0.0
  0
ARC
  5
182
330
1F
100
AcDbEntity
  8
0
  6
Continuous
 62
     7
370
    25
100
AcDbCircle
 10
55.6598678639
 20
21.2035533053
 30
0.0
 40
0.375
100
AcDbArc
 50
0.0
 51
90.0
  0
LINE
  5
183
330
1F
100
AcDbEntity
  8
0
  6
Continuous
 62
     7
370
    25
100
AcDbLine
 10
56.0348678639
 20
10.9535533053
 30
0.0
 11
56.0348678639
 21
21.2035533053
 31
0.0
  0
ARC
  5
184
330
1F
100
AcDbEntity
  8
0
  6
Continuous
 62
     7
370
    25
100
AcDbCircle
 10
55.6598678639
 20
10.9535533053
 30
0.0
 40
0.375
100
AcDbArc
 50
270.0
 51
0.0
  0
LINE
  5
185
330
1F
100
AcDbEntity
  8
0
  6
Continuous
 62
     7
370
    25
100
AcDbLine
 10
52.0348678639
 20
10.5785533053
 30
0.0
 11
53.0573678639
 21
10.5785533053
 31
0.0
  0
LINE
  5
186
330
1F
100
AcDbEntity
  8
0
  6
Continuous
 62
     7
370
    25
100
AcDbLine
 10
54.6373678639
 20
10.5785533053
 30
0.0
 11
55.6598678639
 21
10.5785533053
 31
0.0
  0
LINE
  5
187
330
1F
100
AcDbEntity
  8
0
  6
Continuous
 62
     7
370
    25
100
AcDbLine
 10
52.1873678639
 20
11.0785533053
 30
0.0
 11
52.1873678639
 21
10.9155533053
 31
0.0
  0
ARC
  5
188
330
1F
100
AcDbEntity
  8
0
  6
Continuous
 62
     7
370
    25
100
AcDbCircle
 10
52.3473678639
 20
10.9155533053
 30
0.0
 40
0.1600000000000037
100
AcDbArc
 50
180.0
 51
0.0
  0
LINE
  5
189
330
1F
100
AcDbEntity
  8
0
  6
Continuous
 62
     7
370
    25
100
AcDbLine
 10
52.5073678639
 20
10.9155533053
 30
0.0
 11
52.5073678639
 21
11.0785533053
 31
0.0
  0
ARC
  5
18A
330
1F
100
AcDbEntity
  8
0
  6
Continuous
 62
     7
370
    25
100
AcDbCircle
 10
52.3473678639
 20
11.0785533053
 30
0.0
 40
0.159999999999993
100
AcDbArc
 50
0.0
 51
180.0
  0
LINE
  5
18B
330
1F
100
AcDbEntity
  8
0
  6
Continuous
 62
     7
370
    25
100
AcDbLine
 10
55.1873678639
 20
11.0785533053
 30
0.0
 11
55.1873678639
 21
10.9155533053
 31
0.0
  0
ARC
  5
18C
330
1F
100
AcDbEntity
  8
0
  6
Continuous
 62
     7
370
    25
100
AcDbCircle
 10
55.3473678639
 20
10.9155533053
 30
0.0
 40
0.1600000000000037
100
AcDbArc
 50
180.0
 51
0.0
  0
LINE
  5
18D
330
1F
100
AcDbEntity
  8
0
  6
Continuous
 62
     7
370
    25
100
AcDbLine
 10
55.5073678639
 20
10.9155533053
 30
0.0
 11
55.5073678639
 21
11.0785533053
 31
0.0
  0
ARC
  5
18E
330
1F
100
AcDbEntity
  8
0
  6
Continuous
 62
     7
370
    25
100
AcDbCircle
 10
55.3473678639
 20
11.0785533053
 30
0.0
 40
0.1599999999999966
100
AcDbArc
 50
0.0
 51
180.0
  0
LINE
  5
18F
330
1F
100
AcDbEntity
  8
0
  6
Continuous
 62
     7
370
    25
100
AcDbLine
 10
55.5073678639
 20
21.0785533053
 30
0.0
 11
55.5073678639
 21
21.2415533053
 31
0.0
  0
ARC
  5
190
330
1F
100
AcDbEntity
  8
0
  6
Continuous
 62
     7
370
    25
100
AcDbCircle
 10
55.3473678639
 20
21.2415533053
 30
0.0
 40
0.1599999999999966
100
AcDbArc
 50
360.0
 51
180.0
  0
LINE
  5
191
330
1F
100
AcDbEntity
  8
0
  6
Continuous
 62
     7
370
    25
100
AcDbLine
 10
55.1873678639
 20
21.2415533053
 30
0.0
 11
55.1873678639
 21
21.0785533053
 31
0.0
  0
ARC
  5
192
330
1F
100
AcDbEntity
  8
0
  6
Continuous
 62
     7
370
    25
100
AcDbCircle
 10
55.3473678639
 20
21.0785533053
 30
0.0
 40
0.1600000000000037
100
AcDbArc
 50
180.0
 51
0.0
  0
LINE
  5
193
330
1F
100
AcDbEntity
  8
0
  6
Continuous
 62
     7
370
    25
100
AcDbLine
 10
52.5073678639
 20
21.0785533053
 30
0.0
 11
52.5073678639
 21
21.2415533053
 31
0.0
  0
ARC
  5
194
330
1F
100
AcDbEntity
  8
0
  6
Continuous
 62
     7
370
    25
100
AcDbCircle
 10
52.3473678639
 20
21.2415533053
 30
0.0
 40
0.159999999999993
100
AcDbArc
 50
0.0
 51
180.0
  0
LINE
  5
195
330
1F
100
AcDbEntity
  8
0
  6
Continuous
 62
     7
370
    25
100
AcDbLine
 10
52.1873678639
 20
21.2415533053
 30
0.0
 11
52.1873678639
 21
21.0785533053
 31
0.0
  0
ARC
  5
196
330
1F
100
AcDbEntity
  8
0
  6
Continuous
 62
     7
370
    25
100
AcDbCircle
 10
52.3473678639
 20
21.0785533053
 30
0.0
 40
0.1600000000000037
100
AcDbArc
 50
180.0
 51
0.0
  0
LINE
  5
197
330
1F
100
AcDbEntity
  8
0
  6
Continuous
 62
     7
370
    25
100
AcDbLine
 10
51.6598678639
 20
21.2035533053
 30
0.0
 11
51.6598678639
 21
10.9535533053
 31
0.0
  0
ARC
  5
198
330
1F
100
AcDbEntity
  8
0
  6
Continuous
 62
     7
370
    25
100
AcDbCircle
 10
52.0348678639
 20
10.9535533053
 30
0.0
 40
0.375
100
AcDbArc
 50
180.0
 51
270.0
  0
LINE
  5
199
330
1F
100
AcDbEntity
  8
0
  6
Continuous
 62
     7
370
    25
100
AcDbLine
 10
53.0573678639
 20
17.1895870847
 30
0.0
 11
53.0573678639
 21
18.4662813703
 31
0.0
  0
LINE
  5
19A
330
1F
100
AcDbEntity
  8
0
  6
Continuous
 62
     7
370
    25
100
AcDbLine
 10
53.1923678639
 20
17.1895870847
 30
0.0
 11
53.1923678639
 21
18.4662813703
 31
0.0
  0
LINE
  5
19B
330
1F
100
AcDbEntity
  8
0
  6
Continuous
 62
     7
370
    25
100
AcDbLine
 10
54.6373678639
 20
17.1895870847
 30
0.0
 11
54.6373678639
 21
18.4662813703
 31
0.0
  0
LINE
  5
19C
330
1F
100
AcDbEntity
  8
0
  6
Continuous
 62
     7
370
    25
100
AcDbLine
 10
54.5023678639
 20
17.1895870847
 30
0.0
 11
54.5023678639
 21
18.4662813703
 31
0.0
  0
LINE
  5
19D
330
1F
100
AcDbEntity
  8
0
  6
Continuous
 62
     7
370
    25
100
AcDbLine
 10
53.0573678639
 20
11.9353846204
 30
0.0
 11
53.0573678639
 21
12.3883796695
 31
0.0
  0
LINE
  5
19E
330
1F
100
AcDbEntity
  8
0
  6
Continuous
 62
     7
370
    25
100
AcDbLine
 10
53.1923678639
 20
11.9353846204
 30
0.0
 11
53.1923678639
 21
12.3883796695
 31
0.0
  0
LINE
  5
19F
330
1F
100
AcDbEntity
  8
0
  6
Continuous
 62
     7
370
    25
100
AcDbLine
 10
54.6373678639
 20
11.9353846204
 30
0.0
 11
54.6373678639
 21
12.3883796695
 31
0.0
  0
LINE
  5
1A0
330
1F
100
AcDbEntity
  8
0
  6
Continuous
 62
     7
370
    25
100
AcDbLine
 10
54.5023678639
 20
11.9353846204
 30
0.0
 11
54.5023678639
 21
12.3883796695
 31
0.0
  0
LINE
  5
1A1
330
1F
100
AcDbEntity
  8
0
  6
Continuous
 62
     7
370
    25
100
AcDbLine
 10
53.0573678639
 20
12.3883796695
 30
0.0
 11
53.0573678639
 21
17.1895870847
 31
0.0
  0
LINE
  5
1A2
330
1F
100
AcDbEntity
  8
0
  6
Continuous
 62
     7
370
    25
100
AcDbLine
 10
53.1923678639
 20
12.3883796695
 30
0.0
 11
53.1923678639
 21
17.1895870847
 31
0.0
  0
LINE
  5
1A3
330
1F
100
AcDbEntity
  8
0
  6
Continuous
 62
     7
370
    25
100
AcDbLine
 10
54.6373678639
 20
12.3883796695
 30
0.0
 11
54.6373678639
 21
17.1895870847
 31
0.0
  0
LINE
  5
1A4
330
1F
100
AcDbEntity
  8
0
  6
Continuous
 62
     7
370
    25
100
AcDbLine
 10
54.5023678639
 20
12.3883796695
 30
0.0
 11
54.5023678639
 21
17.1895870847
 31
0.0
  0
LINE
  5
1A5
330
1F
100
AcDbEntity
  8
0
  6
Continuous
 62
     7
370
    25
100
AcDbLine
 10
53.1923678639
 20
10.5785533053
 30
0.0
 11
53.0573678639
 21
10.5785533053
 31
0.0
  0
LINE
  5
1A6
330
1F
100
AcDbEntity
  8
0
  6
Continuous
 62
     7
370
    25
100
AcDbLine
 10
53.0573678639
 20
10.5785533053
 30
0.0
 11
53.0573678639
 21
11.9353846204
 31
0.0
  0
LINE
  5
1A7
330
1F
100
AcDbEntity
  8
0
  6
Continuous
 62
     7
370
    25
100
AcDbLine
 10
53.1923678639
 20
10.5785533053
 30
0.0
 11
53.1923678639
 21
11.9353846204
 31
0.0
  0
LINE
  5
1A8
330
1F
100
AcDbEntity
  8
0
  6
Continuous
 62
     7
370
    25
100
AcDbLine
 10
54.6373678639
 20
10.5785533053
 30
0.0
 11
54.5023678639
 21
10.5785533053
 31
0.0
  0
LINE
  5
1A9
330
1F
100
AcDbEntity
  8
0
  6
Continuous
 62
     7
370
    25
100
AcDbLine
 10
54.6373678639
 20
11.9353846204
 30
0.0
 11
54.6373678639
 21
10.5785533053
 31
0.0
  0
LINE
  5
1AA
330
1F
100
AcDbEntity
  8
0
  6
Continuous
 62
     7
370
    25
100
AcDbLine
 10
54.5023678639
 20
10.5785533053
 30
0.0
 11
54.5023678639
 21
11.9353846204
 31
0.0
  0
LINE
  5
1AB
330
1F
100
AcDbEntity
  8
0
  6
Continuous
 62
     7
370
    25
100
AcDbLine
 10
53.0573678639
 20
21.5785533053
 30
0.0
 11
53.1923678639
 21
21.5785533053
 31
0.0
  0
LINE
  5
1AC
330
1F
100
AcDbEntity
  8
0
  6
Continuous
 62
     7
370
    25
100
AcDbLine
 10
53.0573678639
 20
18.4662813703
 30
0.0
 11
53.0573678639
 21
21.5785533053
 31
0.0
  0
LINE
  5
1AD
330
1F
100
AcDbEntity
  8
0
  6
Continuous
 62
     7
370
    25
100
AcDbLine
 10
53.1923678639
 20
18.4662813703
 30
0.0
 11
53.1923678639
 21
21.5785533053
 31
0.0
  0
LINE
  5
1AE
330
1F
100
AcDbEntity
  8
0
  6
Continuous
 62
     7
370
    25
100
AcDbLine
 10
54.5023678639
 20
21.5785533053
 30
0.0
 11
54.6373678639
 21
21.5785533053
 31
0.0
  0
LINE
  5
1AF
330
1F
100
AcDbEntity
  8
0
  6
Continuous
 62
     7
370
    25
100
AcDbLine
 10
54.6373678639
 20
21.5785533053
 30
0.0
 11
54.6373678639
 21
18.4662813703
 31
0.0
  0
LINE
  5
1B0
330
1F
100
AcDbEntity
  8
0
  6
Continuous
 62
     7
370
    25
100
AcDbLine
 10
54.5023678639
 20
18.4662813703
 30
0.0
 11
54.5023678639
 21
21.5785533053
 31
0.0
  0
LINE
  5
1B1
330
1F
100
AcDbEntity
  8
0
  6
Continuous
 62
     7
370
    25
100
AcDbLine
 10
53.1923678639
 20
10.5785533053
 30
0.0
 11
53.2243678639
 21
10.5785533053
 31
0.0
  0
LINE
  5
1B2
330
1F
100
AcDbEntity
  8
0
  6
Continuous
 62
     7
370
    25
100
AcDbLine
 10
53.2243678639
 20
21.5785533053
 30
0.0
 11
53.1923678639
 21
21.5785533053
 31
0.0
  0
LINE
  5
1B3
330
1F
100
AcDbEntity
  8
0
  6
Continuous
 62
     7
370
    25
100
AcDbLine
 10
54.5023678639
 20
21.5785533053
 30
0.0
 11
54.4703678639
 21
21.5785533053
 31
0.0
  0
LINE
  5
1B4
330
1F
100
AcDbEntity
  8
0
  6
Continuous
 62
     7
370
    25
100
AcDbLine
 10
54.4703678639
 20
10.5785533053
 30
0.0
 11
54.5023678639
 21
10.5785533053
 31
0.0
  0
CIRCLE
  5
1B5
330
1F
100
AcDbEntity
  8
0
  6
Continuous
 62
     7
370
    25
100
AcDbCircle
 10
53.8473678639
 20
11.0785533053
 30
0.0
 40
0.1600000000000037
  0
CIRCLE
  5
1B6
330
1F
100
AcDbEntity
  8
0
  6
Continuous
 62
     7
370
    25
100
AcDbCircle
 10
53.8473678639
 20
21.0785533053
 30
0.0
 40
0.1599999999999966
  0
LINE
  5
1B7
330
1F
100
AcDbEntity
  8
0
  6
Continuous
 62
     7
370
    25
100
AcDbLine
 10
53.2243678639
 20
21.5785533053
 30
0.0
 11
54.4703678639
 21
21.5785533053
 31
0.0
  0
LINE
  5
1B8
330
1F
100
AcDbEntity
  8
0
  6
Continuous
 62
     7
370
    25
100
AcDbLine
 10
54.4703678639
 20
10.5785533053
 30
0.0
 11
53.2243678639
 21
10.5785533053
 31
0.0
  0
DIMENSION
  5
1B9
330
1F
100
AcDbEntity
  8
DIMS
100
AcDbDimension
  2
_D_2
 10
51.6598678639
 20
9.7491742947
 30
0.0
 11
53.9377072502
 21
9.7491742947
 31
0.0
 70
   160
  1
<>
 71
     2
 42
-1.0
  3
SLDDIMSTYLE1
100
AcDbAlignedDimension
 13
56.0348678639
 23
10.9535533053
 33
0.0
 14
51.6598678639
 24
10.9535533053
 34
0.0
100
AcDbRotatedDimension
  0
DIMENSION
  5
1C9
330
1F
100
AcDbEntity
  8
DIMS
100
AcDbDimension
  2
_D_3
 10
55.3473678639
 20
22.7576317382
 30
0.0
 11
53.9917767177
 21
22.7576317382
 31
0.0
 70
   160
  1
<>
 71
     2
 42
-1.0
  3
SLDDIMSTYLE0
100
AcDbAlignedDimension
 13
52.3473678639
 23
21.2415533053
 33
0.0
 14
55.3473678639
 24
21.2415533053
 34
0.0
 50
0.0
100
AcDbRotatedDimension
  0
DIMENSION
  5
1D4
330
1F
100
AcDbEntity
  8
DIMS
100
AcDbDimension
  2
_D_4
 10
58.2446595962
 20
11.0785533053
 30
0.0
 11
58.2446595962
 21
16.6363049212
 31
0.0
 70
   160
  1
<>
 71
     2
 42
-1.0
  3
SLDDIMSTYLE1
100
AcDbAlignedDimension
 13
55.3473678639
 23
21.2415533053
 33
0.0
 14
55.3473678639
 24
11.0785533053
 34
0.0
 50
90.0
100
AcDbRotatedDimension
  0
DIMENSION
  5
1E3
330
1F
100
AcDbEntity
  8
DIMS
100
AcDbDimension
  2
_D_5
 10
52.4562198812
 20
21.1242876311
 30
0.0
 11
45.892333935
 21
23.6750593365
 31
0.0
 70
   163
  1
Mounting hole (4) <>
 71
     1
 42
-1.0
  3
SLDDIMSTYLE2
100
AcDbDiametricDimension
 15
52.2385158466
 25
21.3588189794
 35
0.0
 40
0.0
  0
INSERT
  5
1F6
330
1F
100
AcDbEntity
  8
NOTES
100
AcDbBlockReference
  2
SW_NOTE_0_2
 10
50.7211902089
 20
8.0478147483
 30
0.0
  0
LINE
  5
1F7
330
1F
100
AcDbEntity
  8
0
  6
Continuous
 62
     7
370
    25
100
AcDbLine
 10
12.5189103236
 20
12.2655180781
 30
0.0
 11
12.5193195668
 21
12.3410382251
 31
0.0
  0
ARC
  5
1F8
330
1F
100
AcDbEntity
  8
0
  6
Continuous
 62
     7
370
    25
100
AcDbCircle
 10
12.4689110577
 20
12.2657890238
 30
0.0
 40
0.0500000000000003
100
AcDbArc
 50
276.1241715128
 51
359.6895175616
  0
ARC
  5
1F9
330
1F
100
AcDbEntity
  8
0
  6
Continuous
 62
     7
370
    25
100
AcDbCircle
 10
11.935826355
 20
17.234150346
 30
0.0
 40
5.046878378378345
100
AcDbArc
 50
272.8731801722
 51
276.1241715128
  0
CIRCLE
  5
1FA
330
1F
100
AcDbEntity
  8
0
  6
Continuous
 62
     7
370
    25
100
AcDbCircle
 10
10.6153621254
 20
16.0785533053
 30
0.0
 40
0.2750000000000034
  0
LINE
  5
1FB
330
1F
100
AcDbEntity
  8
0
  6
Continuous
 62
     7
370
    25
100
AcDbLine
 10
10.7130385807
 20
15.7722974589
 30
0.0
 11
10.4824960041
 21
15.7858419677
 31
0.0
  0
LINE
  5
1FC
330
1F
100
AcDbEntity
  8
0
  6
Continuous
 62
     7
370
    25
100
AcDbLine
 10
10.5176856702
 20
16.3848091516
 30
0.0
 11
10.7482282468
 21
16.3712646428
 31
0.0
  0
LINE
  5
1FD
330
1F
100
AcDbEntity
  8
0
  6
Continuous
 62
     7
370
    25
100
AcDbLine
 10
10.3012985548
 20
16.1470909368
 30
0.0
 11
10.4282997318
 21
16.3399744104
 31
0.0
  0
LINE
  5
1FE
330
1F
100
AcDbEntity
  8
0
  6
Continuous
 62
     7
370
    25
100
AcDbLine
 10
10.9294256961
 20
16.0100156737
 30
0.0
 11
10.8024245191
 21
15.8171322001
 31
0.0
  0
LINE
  5
1FF
330
1F
100
AcDbEntity
  8
0
  6
Continuous
 62
     7
370
    25
100
AcDbLine
 10
10.3989750101
 20
15.8408350905
 30
0.0
 11
10.2954336105
 21
16.0472630728
 31
0.0
  0
LINE
  5
200
330
1F
100
AcDbEntity
  8
0
  6
Continuous
 62
     7
370
    25
100
AcDbLine
 10
10.8317492408
 20
16.3162715201
 30
0.0
 11
10.9352906404
 21
16.1098435377
 31
0.0
  0
ARC
  5
201
330
1F
100
AcDbEntity
  8
0
  6
Continuous
 62
     7
370
    25
100
AcDbCircle
 10
10.4883609485
 20
15.8856698317
 30
0.0
 40
0.1000000000000014
100
AcDbArc
 50
206.6377049601
 51
266.6377049606
  0
ARC
  5
202
330
1F
100
AcDbEntity
  8
0
  6
Continuous
 62
     7
370
    25
100
AcDbCircle
 10
10.3848195489
 20
16.0920978141
 30
0.0
 40
0.1000000000000061
100
AcDbArc
 50
146.6377049603
 51
206.6377049606
  0
ARC
  5
203
330
1F
100
AcDbEntity
  8
0
  6
Continuous
 62
     7
370
    25
100
AcDbCircle
 10
10.7189035251
 20
15.8721253229
 30
0.0
 40
0.100000000000158
100
AcDbArc
 50
266.6377049601
 51
326.6377049607
  0
ARC
  5
204
330
1F
100
AcDbEntity
  8
0
  6
Continuous
 62
     7
370
    25
100
AcDbCircle
 10
10.7423633024
 20
16.2714367789
 30
0.0
 40
0.0999999999999992
100
AcDbArc
 50
26.6377049602
 51
86.6377049606
  0
ARC
  5
205
330
1F
100
AcDbEntity
  8
0
  6
Continuous
 62
     7
370
    25
100
AcDbCircle
 10
10.845904702
 20
16.0650087965
 30
0.0
 40
0.1000000000000085
100
AcDbArc
 50
326.6377049601
 51
26.6377049602
  0
ARC
  5
206
330
1F
100
AcDbEntity
  8
0
  6
Continuous
 62
     7
370
    25
100
AcDbCircle
 10
10.5118207258
 20
16.2849812876
 30
0.0
 40
0.1000000000001509
100
AcDbArc
 50
86.6377049603
 51
146.6377049607
  0
CIRCLE
  5
207
330
1F
100
AcDbEntity
  8
0
  6
Continuous
 62
     7
370
    25
100
AcDbCircle
 10
8.7403621254
 20
16.0785533053
 30
0.0
 40
0.2750000000000022
  0
LINE
  5
208
330
1F
100
AcDbEntity
  8
0
  6
Continuous
 62
     7
370
    25
100
AcDbLine
 10
8.9058446644
 20
16.3541415174
 30
0.0
 11
9.0479134744
 21
16.172070689
 31
0.0
  0
LINE
  5
209
330
1F
100
AcDbEntity
  8
0
  6
Continuous
 62
     7
370
    25
100
AcDbLine
 10
8.5748795865
 20
15.8029650932
 30
0.0
 11
8.4328107764
 21
15.9850359215
 31
0.0
  0
LINE
  5
20A
330
1F
100
AcDbEntity
  8
0
  6
Continuous
 62
     7
370
    25
100
AcDbLine
 10
8.8962872486
 20
15.7974471166
 30
0.0
 11
8.667574881
 21
15.7654473322
 31
0.0
  0
LINE
  5
20B
330
1F
100
AcDbEntity
  8
0
  6
Continuous
 62
     7
370
    25
100
AcDbLine
 10
8.5844370023
 20
16.3596594939
 30
0.0
 11
8.8131493699
 21
16.3916592783
 31
0.0
  0
LINE
  5
20C
330
1F
100
AcDbEntity
  8
0
  6
Continuous
 62
     7
370
    25
100
AcDbLine
 10
9.0617697876
 20
16.0730353287
 30
0.0
 11
8.97512623
 21
15.8589647159
 31
0.0
  0
LINE
  5
20D
330
1F
100
AcDbEntity
  8
0
  6
Continuous
 62
     7
370
    25
100
AcDbLine
 10
8.4189544633
 20
16.0840712818
 30
0.0
 11
8.5055980209
 21
16.2981418946
 31
0.0
  0
ARC
  5
20E
330
1F
100
AcDbEntity
  8
0
  6
Continuous
 62
     7
370
    25
100
AcDbCircle
 10
8.5116497578
 20
16.0465535208
 30
0.0
 40
0.0999999999999993
100
AcDbArc
 50
157.9647093692
 51
217.9647093695
  0
ARC
  5
20F
330
1F
100
AcDbEntity
  8
0
  6
Continuous
 62
     7
370
    25
100
AcDbCircle
 10
8.5982933154
 20
16.2606241336
 30
0.0
 40
0.100000000000009
100
AcDbArc
 50
97.9647093691
 51
157.9647093691
  0
ARC
  5
210
330
1F
100
AcDbEntity
  8
0
  6
Continuous
 62
     7
370
    25
100
AcDbCircle
 10
8.8270056831
 20
16.2926239181
 30
0.0
 40
0.1000000000001614
100
AcDbArc
 50
37.9647093692
 51
97.9647093697
  0
ARC
  5
211
330
1F
100
AcDbEntity
  8
0
  6
Continuous
 62
     7
370
    25
100
AcDbCircle
 10
8.9690744931
 20
16.1105530897
 30
0.0
 40
0.1000000000000006
100
AcDbArc
 50
337.964709369
 51
37.9647093695
  0
ARC
  5
212
330
1F
100
AcDbEntity
  8
0
  6
Continuous
 62
     7
370
    25
100
AcDbCircle
 10
8.8824309355
 20
15.8964824769
 30
0.0
 40
0.1000000000000039
100
AcDbArc
 50
277.9647093692
 51
337.9647093695
  0
ARC
  5
213
330
1F
100
AcDbEntity
  8
0
  6
Continuous
 62
     7
370
    25
100
AcDbCircle
 10
8.6537185678
 20
15.8644826925
 30
0.0
 40
0.1000000000001484
100
AcDbArc
 50
217.9647093691
 51
277.9647093696
  0
ARC
  5
214
330
1F
100
AcDbEntity
  8
0
  6
Continuous
 62
     7
370
    25
100
AcDbCircle
 10
9.7980208883
 20
38.3132660447
 30
0.0
 40
2.875000000000002
100
AcDbArc
 50
359.6895175616
 51
179.6895175616
  0
LINE
  5
215
330
1F
100
AcDbEntity
  8
0
  6
Continuous
 62
     7
370
    25
100
AcDbLine
 10
6.8310494453
 20
21.3490042753
 30
0.0
 11
6.8697273296
 21
28.4864702503
 31
0.0
  0
LINE
  5
216
330
1F
100
AcDbEntity
  8
0
  6
Continuous
 62
     7
370
    25
100
AcDbLine
 10
6.8697273296
 20
28.4864702503
 30
0.0
 11
6.8699416957
 21
28.5260285316
 31
0.0
  0
LINE
  5
217
330
1F
100
AcDbEntity
  8
0
  6
Continuous
 62
     7
370
    25
100
AcDbLine
 10
6.8699416957
 20
28.5260285316
 30
0.0
 11
6.9230631002
 21
38.3288454233
 31
0.0
  0
ARC
  5
218
330
1F
100
AcDbEntity
  8
0
  6
Continuous
 62
     7
370
    25
100
AcDbCircle
 10
9.7980208883
 20
38.3132660447
 30
0.0
 40
1.625
100
AcDbArc
 50
359.6895175616
 51
179.6895175616
  0
LINE
  5
219
330
1F
100
AcDbEntity
  8
0
  6
Continuous
 62
     7
370
    25
100
AcDbLine
 10
8.1730447472
 20
38.3220717805
 30
0.0
 11
8.0787484076
 21
20.9209929106
 31
0.0
  0
LINE
  5
21A
330
1F
100
AcDbEntity
  8
0
  6
Continuous
 62
     7
370
    25
100
AcDbLine
 10
11.3180917585
 20
18.9456506342
 30
0.0
 11
11.4229970293
 21
38.304460309
 31
0.0
  0
LINE
  5
21B
330
1F
100
AcDbEntity
  8
0
  6
Continuous
 62
     7
370
    25
100
AcDbLine
 10
12.6729786763
 20
38.2976866661
 30
0.0
 11
12.532319376
 21
12.3409677793
 31
0.0
  0
LINE
  5
21C
330
1F
100
AcDbEntity
  8
0
  6
Continuous
 62
     7
370
    25
100
AcDbLine
 10
12.532319376
 20
12.3409677793
 30
0.0
 11
12.2317955033
 21
12.3425963163
 31
0.0
  0
LINE
  5
21D
330
1F
100
AcDbEntity
  8
0
  6
Continuous
 62
     7
370
    25
100
AcDbLine
 10
5.7203621254
 20
21.5785533053
 30
0.0
 11
5.7203621254
 21
21.2035533053
 31
0.0
  0
LINE
  5
21E
330
1F
100
AcDbEntity
  8
0
  6
Continuous
 62
     7
370
    25
100
AcDbLine
 10
5.7203621254
 20
21.5785533053
 30
0.0
 11
5.8403621254
 21
21.5785533053
 31
0.0
  0
LINE
  5
21F
330
1F
100
AcDbEntity
  8
0
  6
Continuous
 62
     7
370
    25
100
AcDbLine
 10
5.8403621254
 20
21.5785533053
 30
0.0
 11
5.8403621254
 21
21.2035533053
 31
0.0
  0
LINE
  5
220
330
1F
100
AcDbEntity
  8
0
  6
Continuous
 62
     7
370
    25
100
AcDbLine
 10
5.7203621254
 20
10.5785533053
 30
0.0
 11
5.8403621254
 21
10.5785533053
 31
0.0
  0
LINE
  5
221
330
1F
100
AcDbEntity
  8
0
  6
Continuous
 62
     7
370
    25
100
AcDbLine
 10
5.7203621254
 20
10.9535533053
 30
0.0
 11
5.7203621254
 21
10.5785533053
 31
0.0
  0
LINE
  5
222
330
1F
100
AcDbEntity
  8
0
  6
Continuous
 62
     7
370
    25
100
AcDbLine
 10
5.8403621254
 20
10.9535533053
 30
0.0
 11
5.8403621254
 21
10.5785533053
 31
0.0
  0
LINE
  5
223
330
1F
100
AcDbEntity
  8
0
  6
Continuous
 62
     7
370
    25
100
AcDbLine
 10
5.7203621254
 20
21.2035533053
 30
0.0
 11
5.7203621254
 21
10.9535533053
 31
0.0
  0
LINE
  5
224
330
1F
100
AcDbEntity
  8
0
  6
Continuous
 62
     7
370
    25
100
AcDbLine
 10
5.8403621254
 20
21.2035533053
 30
0.0
 11
5.8403621254
 21
10.9535533053
 31
0.0
  0
LINE
  5
225
330
1F
100
AcDbEntity
  8
0
  6
Continuous
 62
     7
370
    25
100
AcDbLine
 10
5.8403621254
 20
21.5785533053
 30
0.0
 11
6.0073621254
 21
21.5785533053
 31
0.0
  0
LINE
  5
226
330
1F
100
AcDbEntity
  8
0
  6
Continuous
 62
     7
370
    25
100
AcDbLine
 10
6.0073621254
 20
10.5785533053
 30
0.0
 11
5.8403621254
 21
10.5785533053
 31
0.0
  0
ARC
  5
227
330
1F
100
AcDbEntity
  8
0
  6
Continuous
 62
     7
370
    25
100
AcDbCircle
 10
11.7253609705
 20
12.3883804046
 30
0.0
 40
0.5000011549382806
100
AcDbArc
 50
295.0431197537
 51
359.9999157563
  0
LWPOLYLINE
  5
228
330
1F
100
AcDbEntity
  8
0
  6
Continuous
 62
     7
370
    25
100
AcDbPolyline
 90
        9
 70
   128
 43
0.0
 10
6.0073621254
 20
10.5785533053
 10
7.1831245813
 20
10.7271086675
 10
8.3546123037
 20
10.9136550154
 10
9.2637977468
 20
11.0931706737
 10
10.1659862834
 20
11.3117851771
 10
10.616324245
 20
11.4406555349
 10
11.0619171394
 20
11.5849721741
 10
11.5040857308
 20
11.7487679477
 10
11.9370115657
 20
11.9353846204
  0
LWPOLYLINE
  5
229
330
1F
100
AcDbEntity
  8
0
  6
Continuous
 62
     7
370
    25
100
AcDbPolyline
 90
       13
 70
   128
 43
0.0
 10
11.7648593489
 20
18.4662813703
 10
11.3952986886
 20
18.8736636631
 10
10.9929229454
 20
19.2488347902
 10
10.551917871
 20
19.6005125894
 10
10.0872912005
 20
19.9205155981
 10
9.6804157572
 20
20.1672715656
 10
9.2622010854
 20
20.3943550206
 10
8.8311345027
 20
20.604773995
 10
8.3920858751
 20
20.7980467999
 10
7.8093523599
 20
21.0266974615
 10
7.2176380365
 20
21.2311179804
 10
6.6153664981
 20
21.4147746164
 10
6.0073621254
 20
21.5785533053
  0
ARC
  5
22A
330
1F
100
AcDbEntity
  8
0
  6
Continuous
 62
     7
370
    25
100
AcDbCircle
 10
10.2253562775
 20
17.1895849754
 30
0.0
 40
2.000005847905376
100
AcDbArc
 50
0.0000604278
 51
39.668619801
  0
LINE
  5
22B
330
1F
100
AcDbEntity
  8
0
  6
Continuous
 62
     7
370
    25
100
AcDbLine
 10
12.2253621254
 20
12.3883796695
 30
0.0
 11
12.2253621254
 21
17.1895870847
 31
0.0
  0
DIMENSION
  5
22C
330
1F
100
AcDbEntity
  8
DIMS
100
AcDbDimension
  2
_D_6
 10
5.0904408656
 20
41.1882660447
 30
0.0
 11
5.0904408656
 21
25.7811577924
 31
0.0
 70
   160
  1
<>
 71
     2
 42
-1.0
  3
SLDDIMSTYLE1
100
AcDbAlignedDimension
 13
5.7203621254
 23
10.5785533053
 33
0.0
 14
9.7980208883
 24
41.1882660447
 34
0.0
 50
90.0
100
AcDbRotatedDimension
  0
DIMENSION
  5
23B
330
1F
100
AcDbEntity
  8
DIMS
100
AcDbDimension
  2
_D_7
 10
12.532319376
 20
9.9853947672
 30
0.0
 11
9.3592995067
 21
9.9853947672
 31
0.0
 70
   160
  1
<>
 71
     2
 42
-1.0
  3
SLDDIMSTYLE1
100
AcDbAlignedDimension
 13
5.7203621254
 23
10.5785533053
 33
0.0
 14
12.532319376
 24
12.3409677793
 34
0.0
 50
0.0
100
AcDbRotatedDimension
  0
MTEXT
  5
24A
330
1F
100
AcDbEntity
  8
NOTES
100
AcDbMText
 10
3.5171237112
 20
9.1016633545
 30
0.0
 40
0.5
 41
0.0
 71
     1
 72
     1
  1
Front View (grab bar in up position)
  7
SLDTEXTSTYLE1
 73
     1
 44
1.0
  0
ARC
  5
24B
330
1F
100
AcDbEntity
  8
0
  6
Continuous
 62
     7
370
    25
100
AcDbCircle
 10
22.9685314469
 20
43.4157779438
 30
0.0
 40
0.1391373220432337
100
AcDbArc
 50
57.812505698
 51
67.7137383033
  0
ARC
  5
24C
330
1F
100
AcDbEntity
  8
0
  6
Continuous
 62
     7
370
    25
100
AcDbCircle
 10
22.9450775213
 20
43.5601561913
 30
0.0
 40
0.0778065365577765
100
AcDbArc
 50
348.4081092524
 51
6.2773720811
  0
LWPOLYLINE
  5
24D
330
1F
100
AcDbEntity
  8
0
  6
Continuous
 62
     7
370
    25
100
AcDbPolyline
 90
       18
 70
   128
 43
0.0
 10
22.9998883272
 20
43.8493181818
 10
22.9985696306
 20
43.8488508466
 10
22.9669115623
 20
43.8248980075
 10
22.943976884
 20
43.7929765503
 10
22.929411398
 20
43.7542155288
 10
22.9233430776
 20
43.7086262577
 10
22.92651944
 20
43.657423523
 10
22.9390425472
 20
43.6035182585
 10
22.9600870946
 20
43.5499413866
 10
22.9885654023
 20
43.4989775929
 10
23.0233060629
 20
43.4526944836
 10
23.0630516561
 20
43.413084639
 10
23.1066742573
 20
43.3819567474
 10
23.1531490744
 20
43.3612243474
 10
23.1949375945
 20
43.35345047
 10
23.2338780005
 20
43.3565015202
 10
23.2688911585
 20
43.3699258477
 10
23.2743741483
 20
43.3742258087
  0
LWPOLYLINE
  5
24E
330
1F
100
AcDbEntity
  8
0
  6
Continuous
 62
     7
370
    25
100
AcDbPolyline
 90
        4
 70
   128
 43
0.0
 10
23.0432239204
 20
43.8765172756
 10
23.0432767236
 20
43.8766247715
 10
23.0400001681
 20
43.8733352275
 10
23.0355799475
 20
43.8708104163
  0
LWPOLYLINE
  5
24F
330
1F
100
AcDbEntity
  8
0
  6
Continuous
 62
     7
370
    25
100
AcDbPolyline
 90
        4
 70
   128
 43
0.0
 10
23.3107065957
 20
43.3940603054
 10
23.314866822
 20
43.3960806978
 10
23.3198537522
 20
43.3974743915
 10
23.3195081511
 20
43.3974941364
  0
LINE
  5
250
330
1F
100
AcDbEntity
  8
0
  6
Continuous
 62
     7
370
    25
100
AcDbLine
 10
23.0355799475
 20
43.8708104163
 30
0.0
 11
22.9948240312
 21
43.8467732761
 31
0.0
  0
LINE
  5
251
330
1F
100
AcDbEntity
  8
0
  6
Continuous
 62
     7
370
    25
100
AcDbLine
 10
23.2698016827
 20
43.3704464018
 30
0.0
 11
23.3107065957
 21
43.3940603054
 31
0.0
  0
ARC
  5
252
330
1F
100
AcDbEntity
  8
0
  6
Continuous
 62
     7
370
    25
100
AcDbCircle
 10
23.4304467214
 20
43.5198410184
 30
0.0
 40
0.1000000000000303
100
AcDbArc
 50
284.3082804848
 51
299.9973117336
  0
ARC
  5
253
330
1F
100
AcDbEntity
  8
0
  6
Continuous
 62
     7
370
    25
100
AcDbCircle
 10
23.2703060237
 20
44.055570082
 30
0.0
 40
0.6596467457286109
100
AcDbArc
 50
274.3861293832
 51
286.2366989746
  0
LINE
  5
254
330
1F
100
AcDbEntity
  8
0
  6
Continuous
 62
     7
370
    25
100
AcDbLine
 10
23.480442658
 20
43.4332361322
 30
0.0
 11
23.6677862832
 21
43.541387305
 31
0.0
  0
LINE
  5
255
330
1F
100
AcDbEntity
  8
0
  6
Continuous
 62
     7
370
    25
100
AcDbLine
 10
23.0666626692
 20
43.9270793503
 30
0.0
 11
23.0425035639
 21
43.8749182726
 31
0.0
  0
ARC
  5
256
330
1F
100
AcDbEntity
  8
0
  6
Continuous
 62
     7
370
    25
100
AcDbCircle
 10
23.1566990283
 20
43.883565513
 30
0.0
 40
0.1000000000000345
100
AcDbArc
 50
119.9973117336
 51
154.2059008892
  0
LINE
  5
257
330
1F
100
AcDbEntity
  8
0
  6
Continuous
 62
     7
370
    25
100
AcDbLine
 10
23.2940467169
 20
44.078321572
 30
0.0
 11
23.1067030917
 21
43.9701703992
 31
0.0
  0
ARC
  5
258
330
1F
100
AcDbEntity
  8
0
  6
Continuous
 62
     7
370
    25
100
AcDbCircle
 10
21.6427062322
 20
44.1811605487
 30
0.0
 40
0.1391373220440235
100
AcDbArc
 50
57.812505698
 51
67.7137383032
  0
ARC
  5
259
330
1F
100
AcDbEntity
  8
0
  6
Continuous
 62
     7
370
    25
100
AcDbCircle
 10
21.6192523065
 20
44.3255387962
 30
0.0
 40
0.0778065365576588
100
AcDbArc
 50
348.4081092524
 51
6.2773720811
  0
LWPOLYLINE
  5
25A
330
1F
100
AcDbEntity
  8
0
  6
Continuous
 62
     7
370
    25
100
AcDbPolyline
 90
       17
 70
   128
 43
0.0
 10
21.6692981954
 20
44.6108986481
 10
21.6603335406
 20
44.6066679785
 10
21.6317817586
 20
44.5795346287
 10
21.6119343868
 20
44.5451291374
 10
21.6003710355
 20
44.5038715747
 10
21.5975699019
 20
44.4560061183
 10
21.6041779923
 20
44.4034303067
 10
21.6198997003
 20
44.3493582494
 10
21.6437643657
 20
44.2964775017
 10
21.674645448
 20
44.2469757236
 10
21.7113378347
 20
44.2028874761
 10
21.7526068424
 20
44.166138203
 10
21.797382441
 20
44.1385306617
 10
21.8445742174
 20
44.1221128455
 10
21.8853459703
 20
44.1187948889
 10
21.9228263156
 20
44.1261125803
 10
21.9451020306
 20
44.1382946574
  0
LWPOLYLINE
  5
25B
330
1F
100
AcDbEntity
  8
0
  6
Continuous
 62
     7
370
    25
100
AcDbPolyline
 90
        4
 70
   128
 43
0.0
 10
21.7173393133
 20
44.6417844947
 10
21.7174457908
 20
44.6419993051
 10
21.7139940625
 20
44.6385702502
 10
21.7097847649
 20
44.636213089
  0
LWPOLYLINE
  5
25C
330
1F
100
AcDbEntity
  8
0
  6
Continuous
 62
     7
370
    25
100
AcDbPolyline
 90
        4
 70
   128
 43
0.0
 10
21.9850436347
 20
44.1590424899
 10
21.9892898575
 20
44.1615606259
 10
21.9940486175
 20
44.1628589986
 10
21.9938231119
 20
44.162872716
  0
LINE
  5
25D
330
1F
100
AcDbEntity
  8
0
  6
Continuous
 62
     7
370
    25
100
AcDbLine
 10
21.7097847649
 20
44.636213089
 30
0.0
 11
21.6689988165
 21
44.6121558809
 31
0.0
  0
LINE
  5
25E
330
1F
100
AcDbEntity
  8
0
  6
Continuous
 62
     7
370
    25
100
AcDbLine
 10
21.9439764679
 20
44.1358290066
 30
0.0
 11
21.9850436347
 21
44.1590424899
 31
0.0
  0
ARC
  5
25F
330
1F
100
AcDbEntity
  8
0
  6
Continuous
 62
     7
370
    25
100
AcDbCircle
 10
21.9483614108
 20
44.5845067415
 30
0.0
 40
0.4231761830746006
100
AcDbArc
 50
275.8402566272
 51
299.9225467494
  0
ARC
  5
260
330
1F
100
AcDbEntity
  8
0
  6
Continuous
 62
     7
370
    25
100
AcDbCircle
 10
22.1194482161
 20
44.3097112536
 30
0.0
 40
0.1
100
AcDbArc
 50
294.0714218005
 51
299.9973117335
  0
LINE
  5
261
330
1F
100
AcDbEntity
  8
0
  6
Continuous
 62
     7
370
    25
100
AcDbLine
 10
22.1694441528
 20
44.2231063674
 30
0.0
 11
22.356787778
 21
44.3312575401
 31
0.0
  0
LINE
  5
262
330
1F
100
AcDbEntity
  8
0
  6
Continuous
 62
     7
370
    25
100
AcDbLine
 10
21.721098153
 20
44.6558403645
 30
0.0
 11
21.7143884404
 21
44.635346022
 31
0.0
  0
ARC
  5
263
330
1F
100
AcDbEntity
  8
0
  6
Continuous
 62
     7
370
    25
100
AcDbCircle
 10
21.8160471041
 20
44.6244604875
 30
0.0
 40
0.0999999999999982
100
AcDbArc
 50
119.9973117337
 51
161.7116881393
  0
LINE
  5
264
330
1F
100
AcDbEntity
  8
0
  6
Continuous
 62
     7
370
    25
100
AcDbLine
 10
21.9533947927
 20
44.8192165465
 30
0.0
 11
21.7660511675
 21
44.7110653737
 31
0.0
  0
LWPOLYLINE
  5
265
330
1F
100
AcDbEntity
  8
0
  6
Continuous
 62
     7
370
    25
100
AcDbPolyline
 90
       14
 70
   128
 43
0.0
 10
39.4455954244
 20
33.4445282522
 10
39.5266245277
 20
33.3995840212
 10
39.6766871261
 20
33.3259388131
 10
39.8286759334
 20
33.2639255167
 10
39.981326917
 20
33.2143703548
 10
40.1335442107
 20
33.1777901969
 10
40.284165813
 20
33.1544884225
 10
40.432066669
 20
33.1445211681
 10
40.5762466631
 20
33.1477146102
 10
40.715869597
 20
33.1637211645
 10
40.8502539253
 20
33.1920860256
 10
40.9788389793
 20
33.2323019918
 10
41.101150537
 20
33.2838465094
 10
41.1937372662
 20
33.3337799687
  0
LINE
  5
266
330
1F
100
AcDbEntity
  8
0
  6
Continuous
 62
     7
370
    25
100
AcDbLine
 10
41.1944532877
 20
33.3330361225
 30
0.0
 11
41.1972817149
 21
33.3346689388
 31
0.0
  0
LWPOLYLINE
  5
267
330
1F
100
AcDbEntity
  8
0
  6
Continuous
 62
     7
370
    25
100
AcDbPolyline
 90
       37
 70
   128
 43
0.0
 10
41.1967530214
 20
33.3355138139
 10
41.2196055955
 20
33.3478385616
 10
41.3281857206
 20
33.4205254936
 10
41.4292963121
 20
33.5030031524
 10
41.5226420628
 20
33.5948175694
 10
41.6080060343
 20
33.69562422
 10
41.6851770125
 20
33.8051554448
 10
41.7539284001
 20
33.923204966
 10
41.8139994626
 20
34.0495923249
 10
41.8650861795
 20
34.184106565
 10
41.9068495117
 20
34.3264363155
 10
41.9389455802
 20
34.476104097
 10
41.9610738005
 20
34.6324300839
 10
41.9730283932
 20
34.7945453536
 10
41.9747337429
 20
34.9614536827
 10
41.9662509885
 20
35.1321165894
 10
41.9477640464
 20
35.3054824912
 10
41.919549617
 20
35.4805756874
 10
41.8819225545
 20
35.6565940181
 10
41.8352163123
 20
35.8328043622
 10
41.7797709704
 20
36.0085235211
 10
41.7159280473
 20
36.1831010425
 10
41.6440291904
 20
36.355906555
 10
41.5644165853
 20
36.5263216186
 10
41.4774337466
 20
36.6937351688
 10
41.3834259814
 20
36.8575414363
 10
41.2827402339
 20
37.0171393244
 10
41.1757473309
 20
37.1719005336
 10
41.0627994318
 20
37.321235289
 10
40.9442443914
 20
37.4645611686
 10
40.8204257036
 20
37.6012990058
 10
40.6916821398
 20
37.7308693875
 10
40.5583496091
 20
37.8526871289
 10
40.420766975
 20
37.9661535935
 10
40.2792881591
 20
38.0706473472
 10
40.1343032146
 20
38.1655148683
 10
40.0713732219
 20
38.2029577677
  0
LWPOLYLINE
  5
268
330
1F
100
AcDbEntity
  8
0
  6
Continuous
 62
     7
370
    25
100
AcDbPolyline
 90
       33
 70
   128
 43
0.0
 10
39.4455954244
 20
37.1189619057
 10
39.4900017348
 20
37.0923198019
 10
39.57680475
 20
37.0345224515
 10
39.6659469404
 20
36.9674022368
 10
39.7565039668
 20
36.8911209251
 10
39.8474673922
 20
36.80604677
 10
39.9378474327
 20
36.7126864854
 10
40.0266869695
 20
36.6116699014
 10
40.1130728654
 20
36.5037349214
 10
40.1961450225
 20
36.3897134779
 10
40.2751038239
 20
36.2705187365
 10
40.3492165531
 20
36.1471335697
 10
40.4178233282
 20
36.0206001642
 10
40.4803293621
 20
35.8920402641
 10
40.5362353431
 20
35.7626064762
 10
40.5851456171
 20
35.6334620108
 10
40.6267652274
 20
35.5057898208
 10
40.6609087634
 20
35.3807819456
 10
40.6875103713
 20
35.2596269938
 10
40.7066347504
 20
35.1434949259
 10
40.718488671
 20
35.0335181739
 10
40.7234321249
 20
34.9307680803
 10
40.7219876231
 20
34.8362257059
 10
40.7148453876
 20
34.7507463126
 10
40.7028612442
 20
34.6750173354
 10
40.6870429055
 20
34.6095103626
 10
40.6685673802
 20
34.5545527376
 10
40.6486621935
 20
34.5100031532
 10
40.6285088708
 20
34.4753044504
 10
40.6090452959
 20
34.4494132133
 10
40.59054607
 20
34.4306966095
 10
40.5714115219
 20
34.4167207177
 10
40.569072722
 20
34.4156758313
  0
LWPOLYLINE
  5
269
330
1F
100
AcDbEntity
  8
0
  6
Continuous
 62
     7
370
    25
100
AcDbPolyline
 90
       11
 70
   128
 43
0.0
 10
40.5719032628
 20
34.4173095919
 10
40.5452511092
 20
34.4054024285
 10
40.5183067459
 20
34.3990148935
 10
40.4846797117
 20
34.3956620545
 10
40.4439013439
 20
34.3963102292
 10
40.3905078309
 20
34.4028893389
 10
40.3298250907
 20
34.4165267062
 10
40.2623431754
 20
34.4380272477
 10
40.1886888773
 20
34.468075674
 10
40.1097036222
 20
34.5071581403
 10
40.0713732219
 20
34.5285241142
  0
LINE
  5
26A
330
1F
100
AcDbEntity
  8
0
  6
Continuous
 62
     7
370
    25
100
AcDbLine
 10
25.0555367142
 20
45.4261659753
 30
0.0
 11
39.4455954244
 21
37.1189619057
 31
0.0
  0
LINE
  5
26B
330
1F
100
AcDbEntity
  8
0
  6
Continuous
 62
     7
370
    25
100
AcDbLine
 10
40.0713732219
 20
38.2029577677
 30
0.0
 11
21.989504079
 21
48.6413986355
 31
0.0
  0
LINE
  5
26C
330
1F
100
AcDbEntity
  8
0
  6
Continuous
 62
     7
370
    25
100
AcDbLine
 10
24.7148178332
 20
41.9484251451
 30
0.0
 11
39.4455954244
 21
33.4445282522
 31
0.0
  0
LINE
  5
26D
330
1F
100
AcDbEntity
  8
0
  6
Continuous
 62
     7
370
    25
100
AcDbLine
 10
40.0713732219
 20
34.5285241142
 30
0.0
 11
25.6514669443
 21
42.8529588178
 31
0.0
  0
LINE
  5
26E
330
1F
100
AcDbEntity
  8
0
  6
Continuous
 62
     7
370
    25
100
AcDbLine
 10
25.71585206
 20
42.8561963148
 30
0.0
 11
25.71585206
 21
45.0449740401
 31
0.0
  0
LINE
  5
26F
330
1F
100
AcDbEntity
  8
0
  6
Continuous
 62
     7
370
    25
100
AcDbLine
 10
22.1322117803
 20
51.3309198453
 30
0.0
 11
22.0473589666
 21
51.379904332
 31
0.0
  0
LINE
  5
270
330
1F
100
AcDbEntity
  8
0
  6
Continuous
 62
     7
370
    25
100
AcDbLine
 10
19.10912736
 20
40.8810846607
 30
0.0
 11
19.1939801738
 21
40.832100174
 31
0.0
  0
LINE
  5
271
330
1F
100
AcDbEntity
  8
0
  6
Continuous
 62
     7
370
    25
100
AcDbLine
 10
20.1736552848
 20
50.2500032708
 30
0.0
 11
20.1736552848
 21
41.2680543401
 31
0.0
  0
LINE
  5
272
330
1F
100
AcDbEntity
  8
0
  6
Continuous
 62
     7
370
    25
100
AcDbLine
 10
24.5119189136
 20
39.9083824506
 30
0.0
 11
24.6073783291
 21
39.9634899981
 31
0.0
  0
LINE
  5
273
330
1F
100
AcDbEntity
  8
0
  6
Continuous
 62
     7
370
    25
100
AcDbLine
 10
25.5336882124
 20
40.4982373114
 30
0.0
 11
25.6291476279
 21
40.5533448589
 31
0.0
  0
LINE
  5
274
330
1F
100
AcDbEntity
  8
0
  6
Continuous
 62
     7
370
    25
100
AcDbLine
 10
23.2735122059
 20
43.3727072913
 30
0.0
 11
23.2698016827
 21
43.3704464018
 31
0.0
  0
LWPOLYLINE
  5
275
330
1F
100
AcDbEntity
  8
0
  6
Continuous
 62
     7
370
    25
100
AcDbPolyline
 90
        3
 70
   128
 43
0.0
 10
22.9948240312
 20
43.8467732761
 10
22.9970114042
 20
43.8479964711
 10
22.9984522995
 20
43.8487601054
  0
LINE
  5
276
330
1F
100
AcDbEntity
  8
0
  6
Continuous
 62
     7
370
    25
100
AcDbLine
 10
23.6970946344
 20
43.766168209
 30
0.0
 11
23.6884007427
 21
43.5828824959
 31
0.0
  0
LINE
  5
277
330
1F
100
AcDbEntity
  8
0
  6
Continuous
 62
     7
370
    25
100
AcDbLine
 10
23.5281757991
 20
44.0393174464
 30
0.0
 11
23.6650496456
 21
43.8574551992
 31
0.0
  0
ARC
  5
278
330
1F
100
AcDbEntity
  8
0
  6
Continuous
 62
     7
370
    25
100
AcDbCircle
 10
23.5481717216
 20
43.7651589182
 30
0.0
 40
0.1489263328293425
100
AcDbArc
 50
0.3883030567
 51
38.2974815171
  0
ARC
  5
279
330
1F
100
AcDbEntity
  8
0
  6
Continuous
 62
     7
370
    25
100
AcDbCircle
 10
23.4450602487
 20
43.9870345482
 30
0.0
 40
0.0981921390781333
100
AcDbArc
 50
32.1714818246
 51
82.6832876461
  0
LINE
  5
27A
330
1F
100
AcDbEntity
  8
0
  6
Continuous
 62
     7
370
    25
100
AcDbLine
 10
23.3119976648
 20
44.0830036759
 30
0.0
 11
23.457565403
 21
44.0844271418
 31
0.0
  0
ARC
  5
27B
330
1F
100
AcDbEntity
  8
0
  6
Continuous
 62
     7
370
    25
100
AcDbCircle
 10
23.6404973045
 20
43.5808123785
 30
0.0
 40
0.047948146847667
100
AcDbArc
 50
304.6899435053
 51
2.474461967
  0
ARC
  5
27C
330
1F
100
AcDbEntity
  8
0
  6
Continuous
 62
     7
370
    25
100
AcDbCircle
 10
23.311771209
 20
44.0471193338
 30
0.0
 40
0.0358850565901471
100
AcDbArc
 50
89.6384275166
 51
119.5988252391
  0
LINE
  5
27D
330
1F
100
AcDbEntity
  8
0
  6
Continuous
 62
     7
370
    25
100
AcDbLine
 10
22.1577614725
 20
44.8361586129
 30
0.0
 11
22.3094620285
 21
44.6787839959
 31
0.0
  0
ARC
  5
27E
330
1F
100
AcDbEntity
  8
0
  6
Continuous
 62
     7
370
    25
100
AcDbCircle
 10
22.1929279233
 20
44.5662557039
 30
0.0
 40
0.1619963400536648
100
AcDbArc
 50
8.2125315853
 51
43.9981210567
  0
LINE
  5
27F
330
1F
100
AcDbEntity
  8
0
  6
Continuous
 62
     7
370
    25
100
AcDbLine
 10
22.3532629928
 20
44.5893961377
 30
0.0
 11
22.376766294
 21
44.3892193219
 31
0.0
  0
ARC
  5
280
330
1F
100
AcDbEntity
  8
0
  6
Continuous
 62
     7
370
    25
100
AcDbCircle
 10
22.0987376594
 20
44.7917593304
 30
0.0
 40
0.0738586948540027
100
AcDbArc
 50
36.9514584165
 51
98.5263785731
  0
LINE
  5
281
330
1F
100
AcDbEntity
  8
0
  6
Continuous
 62
     7
370
    25
100
AcDbLine
 10
21.959589765
 20
44.8219995184
 30
0.0
 11
22.0877870198
 21
44.8648017174
 31
0.0
  0
LINE
  5
282
330
1F
100
AcDbEntity
  8
0
  6
Continuous
 62
     7
370
    25
100
AcDbLine
 10
22.1602357264
 20
44.2184074804
 30
0.0
 11
22.1594538944
 21
44.2177397239
 31
0.0
  0
ARC
  5
283
330
1F
100
AcDbEntity
  8
0
  6
Continuous
 62
     7
370
    25
100
AcDbCircle
 10
22.3235467853
 20
44.3751392197
 30
0.0
 40
0.0550505712338773
100
AcDbArc
 50
307.1444435428
 51
14.8190196979
  0
LINE
  5
284
330
1F
100
AcDbEntity
  8
0
  6
Continuous
 62
     7
370
    25
100
AcDbLine
 10
21.7212180409
 20
44.6551031574
 30
0.0
 11
21.721098153
 21
44.6558403645
 31
0.0
  0
LINE
  5
285
330
1F
100
AcDbEntity
  8
0
  6
Continuous
 62
     7
370
    25
100
AcDbLine
 10
21.9533947927
 20
44.8192165465
 30
0.0
 11
21.959589765
 21
44.8219995184
 31
0.0
  0
ARC
  5
286
330
1F
100
AcDbEntity
  8
0
  6
Continuous
 62
     7
370
    25
100
AcDbCircle
 10
25.0676126165
 20
45.791607979
 30
0.0
 40
0.362395492732944
100
AcDbArc
 50
237.9621541619
 51
267.1307924553
  0
LINE
  5
287
330
1F
100
AcDbEntity
  8
0
  6
Continuous
 62
     7
370
    25
100
AcDbLine
 10
24.8753693043
 20
45.4844060876
 30
0.0
 11
24.924866779
 21
45.5129803715
 31
0.0
  0
ARC
  5
288
330
1F
100
AcDbEntity
  8
0
  6
Continuous
 62
     7
370
    25
100
AcDbCircle
 10
24.9285463998
 20
42.5833760453
 30
0.0
 40
0.1640991010778663
100
AcDbArc
 50
251.0916819754
 51
322.7773819112
  0
ARC
  5
289
330
1F
100
AcDbEntity
  8
0
  6
Continuous
 62
     7
370
    25
100
AcDbCircle
 10
24.9690013196
 20
42.6608853346
 30
0.0
 40
0.250880580929252
100
AcDbArc
 50
239.839570819
 51
248.0860618818
  0
LINE
  5
28A
330
1F
100
AcDbEntity
  8
0
  6
Continuous
 62
     7
370
    25
100
AcDbLine
 10
24.8429531648
 20
42.4439684644
 30
0.0
 11
24.7148178332
 21
42.5179394168
 31
0.0
  0
LINE
  5
28B
330
1F
100
AcDbEntity
  8
0
  6
Continuous
 62
     7
370
    25
100
AcDbLine
 10
24.044384802
 20
45.9670002121
 30
0.0
 11
24.8429531593
 21
45.5059965122
 31
0.0
  0
ARC
  5
28C
330
1F
100
AcDbEntity
  8
0
  6
Continuous
 62
     7
370
    25
100
AcDbCircle
 10
24.684569947
 20
45.2330676678
 30
0.0
 40
0.31555569396678
100
AcDbArc
 50
52.7966572325
 51
59.872997635
  0
ARC
  5
28D
330
1F
100
AcDbEntity
  8
0
  6
Continuous
 62
     7
370
    25
100
AcDbCircle
 10
25.9904438412
 20
41.9384980283
 30
0.0
 40
1.079036088991493
100
AcDbArc
 50
148.7848704662
 51
148.9199068525
  0
ARC
  5
28E
330
1F
100
AcDbEntity
  8
0
  6
Continuous
 62
     7
370
    25
100
AcDbCircle
 10
24.6227011162
 20
42.7629192982
 30
0.0
 40
0.5179581477355826
100
AcDbArc
 50
327.4330437821
 51
328.9204649912
  0
ARC
  5
28F
330
1F
100
AcDbEntity
  8
0
  6
Continuous
 62
     7
370
    25
100
AcDbCircle
 10
25.7161434569
 20
42.9345687702
 30
0.0
 40
0.1009475408379394
100
AcDbArc
 50
243.2364739286
 51
247.6617460078
  0
ARC
  5
290
330
1F
100
AcDbEntity
  8
0
  6
Continuous
 62
     7
370
    25
100
AcDbCircle
 10
25.5766934132
 20
42.6581073097
 30
0.0
 40
0.208692982956824
100
AcDbArc
 50
63.231537046
 51
63.6353093777
  0
LWPOLYLINE
  5
291
330
1F
100
AcDbEntity
  8
0
  6
Continuous
 62
     7
370
    25
100
AcDbPolyline
 90
       11
 70
   128
 43
0.0
 10
25.6693704399
 20
42.8450932179
 10
25.6177011536
 20
42.8629222974
 10
25.5604523223
 20
42.8680940421
 10
25.4989057134
 20
42.8604926595
 10
25.4344393193
 20
42.8402883402
 10
25.3684965045
 20
42.807933447
 10
25.3025536896
 20
42.7641523868
 10
25.2380872955
 20
42.7099253917
 10
25.1765406866
 20
42.6464665723
 10
25.1192918553
 20
42.5751967339
 10
25.0676225691
 20
42.4977115663
  0
LWPOLYLINE
  5
292
330
1F
100
AcDbEntity
  8
0
  6
Continuous
 62
     7
370
    25
100
AcDbPolyline
 90
        4
 70
   128
 43
0.0
 10
25.7152578095
 20
42.8561490097
 10
25.7157918841
 20
42.8547471505
 10
25.705580124
 20
42.8434007558
 10
25.6777759415
 20
42.8411967199
  0
LINE
  5
293
330
1F
100
AcDbEntity
  8
0
  6
Continuous
 62
     7
370
    25
100
AcDbLine
 10
19.1162998932
 20
49.3733352982
 30
0.0
 11
19.1162998932
 21
41.0037919764
 31
0.0
  0
ARC
  5
294
330
1F
100
AcDbEntity
  8
0
  6
Continuous
 62
     7
370
    25
100
AcDbCircle
 10
19.6920059312
 20
49.3471374786
 30
0.0
 40
0.5763018028395966
100
AcDbArc
 50
122.60547834
 51
177.3945215143
  0
LINE
  5
295
330
1F
100
AcDbEntity
  8
0
  6
Continuous
 62
     7
370
    25
100
AcDbLine
 10
21.9447270179
 20
51.3123543263
 30
0.0
 11
19.3814649361
 21
49.8326146237
 31
0.0
  0
LWPOLYLINE
  5
296
330
1F
100
AcDbEntity
  8
0
  6
Continuous
 62
     7
370
    25
100
AcDbPolyline
 90
        9
 70
   128
 43
0.0
 10
22.2098920609
 20
51.1592280428
 10
22.2047969889
 20
51.2160239241
 10
22.1897075738
 20
51.2647545267
 10
22.1652036934
 20
51.3035471608
 10
22.1322270179
 20
51.3309110473
 10
22.0920448226
 20
51.3457946074
 10
22.0462012867
 20
51.3476258742
 10
21.9964581515
 20
51.3363344731
 10
21.9447270179
 20
51.3123543263
  0
LINE
  5
297
330
1F
100
AcDbEntity
  8
0
  6
Continuous
 62
     7
370
    25
100
AcDbLine
 10
22.2098920609
 20
50.0342073511
 30
0.0
 11
22.2098920609
 21
51.1592280428
 31
0.0
  0
LINE
  5
298
330
1F
100
AcDbEntity
  8
0
  6
Continuous
 62
     7
370
    25
100
AcDbLine
 10
19.3814649361
 20
40.8506656929
 30
0.0
 11
20.1736552848
 21
41.3079874468
 31
0.0
  0
LWPOLYLINE
  5
299
330
1F
100
AcDbEntity
  8
0
  6
Continuous
 62
     7
370
    25
100
AcDbPolyline
 90
        9
 70
   128
 43
0.0
 10
19.1162998932
 20
41.0037919764
 10
19.1213949651
 20
40.9469960951
 10
19.1364843802
 20
40.8982654925
 10
19.1609882607
 20
40.8594728584
 10
19.1939649361
 20
40.8321089719
 10
19.2341471314
 20
40.8172254118
 10
19.2799906674
 20
40.8153941451
 10
19.3297338025
 20
40.8266855462
 10
19.3814649361
 20
40.8506656929
  0
ARC
  5
29A
330
1F
100
AcDbEntity
  8
0
  6
Continuous
 62
     7
370
    25
100
AcDbCircle
 10
20.5470555122
 20
50.2312028035
 30
0.0
 40
0.2285780746366396
100
AcDbArc
 50
295.8240558426
 51
4.1813206484
  0
LINE
  5
29B
330
1F
100
AcDbEntity
  8
0
  6
Continuous
 62
     7
370
    25
100
AcDbLine
 10
19.4892987203
 20
41.3211872174
 30
0.0
 11
19.4892987203
 21
41.188091065
 31
0.0
  0
LWPOLYLINE
  5
29C
330
1F
100
AcDbEntity
  8
0
  6
Continuous
 62
     7
370
    25
100
AcDbPolyline
 90
       11
 70
   128
 43
0.0
 10
19.4892987203
 20
41.188091065
 10
19.4948360433
 20
41.1509156956
 10
19.5109059808
 20
41.1237725675
 10
19.5359354952
 20
41.1093186392
 10
19.5674745233
 20
41.1089687619
 10
19.6024358053
 20
41.1227571841
 10
19.6373970872
 20
41.1493341989
 10
19.6689361153
 20
41.1860982629
 10
19.6939656297
 20
41.2294506534
 10
19.7100355672
 20
41.2751477364
 10
19.7155728902
 20
41.3187163629
  0
LINE
  5
29D
330
1F
100
AcDbEntity
  8
0
  6
Continuous
 62
     7
370
    25
100
AcDbLine
 10
19.7155728902
 20
41.3187163629
 30
0.0
 11
19.7155728902
 21
41.4518125153
 31
0.0
  0
LWPOLYLINE
  5
29E
330
1F
100
AcDbEntity
  8
0
  6
Continuous
 62
     7
370
    25
100
AcDbPolyline
 90
       11
 70
   128
 43
0.0
 10
19.7155728902
 20
41.4518125153
 10
19.7100355672
 20
41.4889878847
 10
19.6939656297
 20
41.5161310128
 10
19.6689361153
 20
41.5305849411
 10
19.6373970872
 20
41.5309348184
 10
19.6024358053
 20
41.5171463962
 10
19.5674745233
 20
41.4905693815
 10
19.5359354952
 20
41.4538053174
 10
19.5109059808
 20
41.4104529269
 10
19.4948360433
 20
41.3647558439
 10
19.4892987203
 20
41.3211872174
  0
LINE
  5
29F
330
1F
100
AcDbEntity
  8
0
  6
Continuous
 62
     7
370
    25
100
AcDbLine
 10
21.8368932338
 20
50.8418328019
 30
0.0
 11
21.8368932338
 21
50.9749289542
 31
0.0
  0
LWPOLYLINE
  5
2A0
330
1F
100
AcDbEntity
  8
0
  6
Continuous
 62
     7
370
    25
100
AcDbPolyline
 90
       11
 70
   128
 43
0.0
 10
21.8368932338
 20
50.9749289542
 10
21.8313559107
 20
51.0121043236
 10
21.8152859733
 20
51.0392474517
 10
21.7902564589
 20
51.05370138
 10
21.7587174308
 20
51.0540512573
 10
21.7237561488
 20
51.0402628352
 10
21.6887948669
 20
51.0136858204
 10
21.6572558388
 20
50.9769217564
 10
21.6322263244
 20
50.9335693659
 10
21.6161563869
 20
50.8878722829
 10
21.6106190638
 20
50.8443036563
  0
LINE
  5
2A1
330
1F
100
AcDbEntity
  8
0
  6
Continuous
 62
     7
370
    25
100
AcDbLine
 10
21.6106190638
 20
50.8443036563
 30
0.0
 11
21.6106190638
 21
50.711207504
 31
0.0
  0
LWPOLYLINE
  5
2A2
330
1F
100
AcDbEntity
  8
0
  6
Continuous
 62
     7
370
    25
100
AcDbPolyline
 90
       11
 70
   128
 43
0.0
 10
21.6106190638
 20
50.711207504
 10
21.6161563869
 20
50.6740321345
 10
21.6322263244
 20
50.6468890064
 10
21.6572558388
 20
50.6324350781
 10
21.6887948669
 20
50.6320852009
 10
21.7237561488
 20
50.645873623
 10
21.7587174308
 20
50.6724506378
 10
21.7902564589
 20
50.7092147018
 10
21.8152859733
 20
50.7525670923
 10
21.8313559107
 20
50.7982641753
 10
21.8368932338
 20
50.8418328019
  0
LINE
  5
2A3
330
1F
100
AcDbEntity
  8
0
  6
Continuous
 62
     7
370
    25
100
AcDbLine
 10
19.7155728902
 20
49.6172206341
 30
0.0
 11
19.7155728902
 21
49.7503167865
 31
0.0
  0
LWPOLYLINE
  5
2A4
330
1F
100
AcDbEntity
  8
0
  6
Continuous
 62
     7
370
    25
100
AcDbPolyline
 90
       11
 70
   128
 43
0.0
 10
19.7155728902
 20
49.7503167865
 10
19.7100355672
 20
49.7874921559
 10
19.6939656297
 20
49.814635284
 10
19.6689361153
 20
49.8290892123
 10
19.6373970872
 20
49.8294390896
 10
19.6024358053
 20
49.8156506674
 10
19.5674745233
 20
49.7890736526
 10
19.5359354952
 20
49.7523095886
 10
19.5109059808
 20
49.7089571981
 10
19.4948360433
 20
49.6632601151
 10
19.4892987203
 20
49.6196914886
  0
LINE
  5
2A5
330
1F
100
AcDbEntity
  8
0
  6
Continuous
 62
     7
370
    25
100
AcDbLine
 10
19.4892987203
 20
49.6196914886
 30
0.0
 11
19.4892987203
 21
49.4865953362
 31
0.0
  0
LWPOLYLINE
  5
2A6
330
1F
100
AcDbEntity
  8
0
  6
Continuous
 62
     7
370
    25
100
AcDbPolyline
 90
       11
 70
   128
 43
0.0
 10
19.4892987203
 20
49.4865953362
 10
19.4948360433
 20
49.4494199668
 10
19.5109059808
 20
49.4222768387
 10
19.5359354952
 20
49.4078229104
 10
19.5674745233
 20
49.4074730331
 10
19.6024358053
 20
49.4212614553
 10
19.6373970872
 20
49.4478384701
 10
19.6689361153
 20
49.4846025341
 10
19.6939656297
 20
49.5279549246
 10
19.7100355672
 20
49.5736520076
 10
19.7155728902
 20
49.6172206341
  0
ARC
  5
2A7
330
1F
100
AcDbEntity
  8
0
  6
Continuous
 62
     7
370
    25
100
AcDbCircle
 10
19.6071531175
 20
49.3961219653
 30
0.0
 40
0.5763018028394883
100
AcDbArc
 50
122.60547834
 51
177.3945215143
  0
LINE
  5
2A8
330
1F
100
AcDbEntity
  8
0
  6
Continuous
 62
     7
370
    25
100
AcDbLine
 10
19.0314470794
 20
49.4223197849
 30
0.0
 11
19.0314470794
 21
41.0527764631
 31
0.0
  0
LINE
  5
2A9
330
1F
100
AcDbEntity
  8
0
  6
Continuous
 62
     7
370
    25
100
AcDbLine
 10
21.8598742042
 20
51.361338813
 30
0.0
 11
19.2966121224
 21
49.8815991104
 31
0.0
  0
LINE
  5
2AA
330
1F
100
AcDbEntity
  8
0
  6
Continuous
 62
     7
370
    25
100
AcDbLine
 10
19.6307200765
 20
49.7993012732
 30
0.0
 11
19.6278293425
 21
49.8269766992
 31
0.0
  0
ARC
  5
2AB
330
1F
100
AcDbEntity
  8
0
  6
Continuous
 62
     7
370
    25
100
AcDbCircle
 10
19.4019063416
 20
49.6691902019
 30
0.0
 40
0.2288332055810572
100
AcDbArc
 50
293.2370863992
 51
359.2525673994
  0
LINE
  5
2AC
330
1F
100
AcDbEntity
  8
0
  6
Continuous
 62
     7
370
    25
100
AcDbLine
 10
19.6307200765
 20
49.6662051208
 30
0.0
 11
19.6307200765
 21
49.7993012732
 31
0.0
  0
LINE
  5
2AD
330
1F
100
AcDbEntity
  8
0
  6
Continuous
 62
     7
370
    25
100
AcDbLine
 10
21.7520404201
 20
51.0239134409
 30
0.0
 11
21.7491496861
 21
51.0515888669
 31
0.0
  0
ARC
  5
2AE
330
1F
100
AcDbEntity
  8
0
  6
Continuous
 62
     7
370
    25
100
AcDbCircle
 10
21.9697192248
 20
51.2080083146
 30
0.0
 40
0.1886164634631996
100
AcDbArc
 50
65.6928809539
 51
125.6175774752
  0
ARC
  5
2AF
330
1F
100
AcDbEntity
  8
0
  6
Continuous
 62
     7
370
    25
100
AcDbCircle
 10
21.5232266852
 20
50.8938023696
 30
0.0
 40
0.2288332055809794
100
AcDbArc
 50
293.2370863992
 51
359.2525673994
  0
LINE
  5
2B0
330
1F
100
AcDbEntity
  8
0
  6
Continuous
 62
     7
370
    25
100
AcDbLine
 10
21.7520404201
 20
50.8908172886
 30
0.0
 11
21.7520404201
 21
51.0239134409
 31
0.0
  0
ARC
  5
2B1
330
1F
100
AcDbEntity
  8
0
  6
Continuous
 62
     7
370
    25
100
AcDbCircle
 10
19.2098291629
 20
41.0300649524
 30
0.0
 40
0.1798220799089613
100
AcDbArc
 50
172.7441704388
 51
235.9436491678
  0
LINE
  5
2B2
330
1F
100
AcDbEntity
  8
0
  6
Continuous
 62
     7
370
    25
100
AcDbLine
 10
19.6307200765
 20
41.500797002
 30
0.0
 11
19.6278293425
 21
41.528472428
 31
0.0
  0
ARC
  5
2B3
330
1F
100
AcDbEntity
  8
0
  6
Continuous
 62
     7
370
    25
100
AcDbCircle
 10
19.4019063416
 20
41.3706859307
 30
0.0
 40
0.2288332055809936
100
AcDbArc
 50
293.2370863992
 51
359.2525673994
  0
LINE
  5
2B4
330
1F
100
AcDbEntity
  8
0
  6
Continuous
 62
     7
370
    25
100
AcDbLine
 10
19.6307200765
 20
41.3677008496
 30
0.0
 11
19.6307200765
 21
41.500797002
 31
0.0
  0
LWPOLYLINE
  5
2B5
330
1F
100
AcDbEntity
  8
0
  6
Continuous
 62
     7
370
    25
100
AcDbPolyline
 90
        8
 70
   128
 43
0.0
 10
24.4154637816
 20
39.8872854548
 10
24.4670954317
 20
39.8917768296
 10
24.513053132
 20
39.9090033326
 10
24.5519431182
 20
39.9386521645
 10
24.582767466
 20
39.9797148453
 10
24.604531543
 20
40.0311790299
 10
24.616747309
 20
40.0914492074
 10
24.6193584178
 20
40.1394685319
  0
LWPOLYLINE
  5
2B6
330
1F
100
AcDbEntity
  8
0
  6
Continuous
 62
     7
370
    25
100
AcDbPolyline
 90
        9
 70
   128
 43
0.0
 10
20.2225684524
 20
41.1998842627
 10
21.053958058
 20
40.8412347756
 10
21.8823249705
 20
40.5153514422
 10
22.5252161627
 20
40.2908001181
 10
23.1631597949
 20
40.1010307624
 10
23.4815968213
 20
40.0224288865
 10
23.7966785786
 20
39.9583764854
 10
24.109338988
 20
39.911627407
 10
24.4154637816
 20
39.8872854548
  0
LWPOLYLINE
  5
2B7
330
1F
100
AcDbEntity
  8
0
  6
Continuous
 62
     7
370
    25
100
AcDbPolyline
 90
       13
 70
   128
 43
0.0
 10
24.2937337817
 20
45.2903024224
 10
24.0324149328
 20
45.7738028509
 10
23.7478923162
 20
46.244396798
 10
23.4360546375
 20
46.7115761338
 10
23.1075139681
 20
47.1625341416
 10
22.8198095831
 20
47.5301086659
 10
22.5240871526
 20
47.8862484999
 10
22.2192770488
 20
48.2340273075
 10
21.908822787
 20
48.5710638711
 10
21.4967679667
 20
48.9956406524
 10
21.0783627562
 20
49.4040985356
 10
20.6524924672
 20
49.799911359
 10
20.2225684524
 20
50.1818331935
  0
ARC
  5
2B8
330
1F
100
AcDbEntity
  8
0
  6
Continuous
 62
     7
370
    25
100
AcDbCircle
 10
21.8271448959
 20
43.9792363549
 30
0.0
 40
2.793376982260077
100
AcDbArc
 50
1.6537266893
 51
27.9919860207
  0
LINE
  5
2B9
330
1F
100
AcDbEntity
  8
0
  6
Continuous
 62
     7
370
    25
100
AcDbLine
 10
24.6193584178
 20
40.1394685319
 30
0.0
 11
24.6193584178
 21
44.0598503327
 31
0.0
  0
LINE
  5
2BA
330
1F
100
AcDbEntity
  8
0
  6
Continuous
 62
     7
370
    25
100
AcDbLine
 10
20.2225684524
 20
50.1818331935
 30
0.0
 11
20.3180278678
 21
50.236940741
 31
0.0
  0
LWPOLYLINE
  5
2BB
330
1F
100
AcDbEntity
  8
0
  6
Continuous
 62
     7
370
    25
100
AcDbPolyline
 90
       13
 70
   128
 43
0.0
 10
24.3891931972
 20
45.34540997
 10
24.1278743483
 20
45.8289103984
 10
23.8433517316
 20
46.2995043456
 10
23.531514053
 20
46.7666836813
 10
23.2029733836
 20
47.2176416892
 10
22.9152689985
 20
47.5852162135
 10
22.6195465681
 20
47.9413560474
 10
22.3147364643
 20
48.2891348551
 10
22.0042822024
 20
48.6261714187
 10
21.5922273822
 20
49.0507481999
 10
21.1738221716
 20
49.4592060831
 10
20.7479518827
 20
49.8550189065
 10
20.3180278678
 20
50.236940741
  0
LWPOLYLINE
  5
2BC
330
1F
100
AcDbEntity
  8
0
  6
Continuous
 62
     7
370
    25
100
AcDbPolyline
 90
        8
 70
   128
 43
0.0
 10
25.4372330804
 20
40.4771403156
 10
25.4888647306
 20
40.4816316904
 10
25.5348224308
 20
40.4988581934
 10
25.573712417
 20
40.5285070252
 10
25.6045367648
 20
40.5695697061
 10
25.6263008418
 20
40.6210338907
 10
25.6385166078
 20
40.6813040682
 10
25.6411277166
 20
40.7293233927
  0
ARC
  5
2BD
330
1F
100
AcDbEntity
  8
0
  6
Continuous
 62
     7
370
    25
100
AcDbCircle
 10
25.6226082028
 20
44.8078237778
 30
0.0
 40
4.334649142210147
100
AcDbArc
 50
257.911254586
 51
267.5489475578
  0
LWPOLYLINE
  5
2BE
330
1F
100
AcDbEntity
  8
0
  6
Continuous
 62
     7
370
    25
100
AcDbPolyline
 90
       11
 70
   128
 43
0.0
 10
24.5500887265
 20
47.1632045827
 10
24.4578239363
 20
47.3014309945
 10
24.1292832669
 20
47.7523890024
 10
23.8415788819
 20
48.1199635267
 10
23.5458564514
 20
48.4761033607
 10
23.2410463477
 20
48.8238821683
 10
22.9305920858
 20
49.1609187319
 10
22.5185372655
 20
49.5854955132
 10
22.100132055
 20
49.9939533964
 10
21.674261766
 20
50.3897662198
 10
21.2443377512
 20
50.7716880543
  0
LINE
  5
2BF
330
1F
100
AcDbEntity
  8
0
  6
Continuous
 62
     7
370
    25
100
AcDbLine
 10
25.6411277166
 20
40.7293233927
 30
0.0
 11
25.6411277166
 21
41.4136778318
 31
0.0
  0
LINE
  5
2C0
330
1F
100
AcDbEntity
  8
0
  6
Continuous
 62
     7
370
    25
100
AcDbLine
 10
21.2443377512
 20
50.7716880543
 30
0.0
 11
21.3397971666
 21
50.8267956018
 31
0.0
  0
LWPOLYLINE
  5
2C1
330
1F
100
AcDbEntity
  8
0
  6
Continuous
 62
     7
370
    25
100
AcDbPolyline
 90
       11
 70
   128
 43
0.0
 10
21.3397971666
 20
50.8267956018
 10
21.7446704209
 20
50.4675881113
 10
22.1460013596
 20
50.0961274849
 10
22.5447570575
 20
49.709670525
 10
22.9379903474
 20
49.3088151206
 10
23.2260990083
 20
49.0007019216
 10
23.5097053897
 20
48.6835926103
 10
23.7895858517
 20
48.3551571456
 10
24.0630610889
 20
48.0168530678
 10
24.428568056
 20
47.5321240214
 10
24.7699010323
 20
47.0363096396
  0
ARC
  5
2C2
330
1F
100
AcDbEntity
  8
0
  6
Continuous
 62
     7
370
    25
100
AcDbCircle
 10
21.9226043114
 20
44.0343439024
 30
0.0
 40
2.793376982260678
100
AcDbArc
 50
1.6537266893
 51
27.9919860207
  0
LINE
  5
2C3
330
1F
100
AcDbEntity
  8
0
  6
Continuous
 62
     7
370
    25
100
AcDbLine
 10
24.7148178332
 20
40.1945760794
 30
0.0
 11
24.7148178332
 21
44.1149578803
 31
0.0
  0
LWPOLYLINE
  5
2C4
330
1F
100
AcDbEntity
  8
0
  6
Continuous
 62
     7
370
    25
100
AcDbPolyline
 90
        3
 70
   128
 43
0.0
 10
25.736587132
 20
44.7048127411
 10
25.7311738698
 20
44.8506869805
 10
25.71585206
 20
44.9931749423
  0
LINE
  5
2C5
330
1F
100
AcDbEntity
  8
0
  6
Continuous
 62
     7
370
    25
100
AcDbLine
 10
25.736587132
 20
40.7844309402
 30
0.0
 11
25.736587132
 21
41.3585702843
 31
0.0
  0
LINE
  5
2C6
330
1F
100
AcDbEntity
  8
0
  6
Continuous
 62
     7
370
    25
100
AcDbLine
 10
25.736587132
 20
42.8038199793
 30
0.0
 11
25.736587132
 21
44.7048127411
 31
0.0
  0
ARC
  5
2C7
330
1F
100
AcDbEntity
  8
0
  6
Continuous
 62
     7
370
    25
100
AcDbCircle
 10
20.2484412658
 20
50.2500032708
 30
0.0
 40
0.0729147579113437
100
AcDbArc
 50
110.7834207995
 51
249.2165792005
  0
ARC
  5
2C8
330
1F
100
AcDbEntity
  8
0
  6
Continuous
 62
     7
370
    25
100
AcDbCircle
 10
20.2572316142
 20
41.276388705
 30
0.0
 40
0.0839908595085214
100
AcDbArc
 50
185.6947992512
 51
245.6253417064
  0
ARC
  5
2C9
330
1F
100
AcDbEntity
  8
0
  6
Continuous
 62
     7
370
    25
100
AcDbCircle
 10
21.2217103342
 20
50.5988888506
 30
0.0
 40
0.2566826586212111
100
AcDbArc
 50
62.6096722366
 51
117.3903277634
  0
ARC
  5
2CA
330
1F
100
AcDbEntity
  8
0
  6
Continuous
 62
     7
370
    25
100
AcDbCircle
 10
21.2217103342
 20
50.7280172996
 30
0.0
 40
0.0491847010532122
100
AcDbArc
 50
62.6096722366
 51
117.3903277634
  0
LINE
  5
2CB
330
1F
100
AcDbEntity
  8
0
  6
Continuous
 62
     7
370
    25
100
AcDbLine
 10
20.3180278678
 20
50.2630658006
 30
0.0
 11
21.1990829172
 21
50.7716880543
 31
0.0
  0
ARC
  5
2CC
330
1F
100
AcDbEntity
  8
0
  6
Continuous
 62
     7
370
    25
100
AcDbCircle
 10
20.3229855327
 20
50.2500032708
 30
0.0
 40
0.013971690138706
100
AcDbArc
 50
110.7834207995
 51
249.2165792007
  0
LINE
  5
2CD
330
1F
100
AcDbEntity
  8
0
  6
Continuous
 62
     7
370
    25
100
AcDbLine
 10
21.1036235017
 20
50.8267956018
 30
0.0
 11
20.2225684524
 21
50.3181733482
 31
0.0
  0
LWPOLYLINE
  5
2CE
330
1F
100
AcDbEntity
  8
0
  6
Continuous
 62
     7
370
    25
100
AcDbPolyline
 90
       22
 70
   128
 43
0.0
 10
20.8716924775
 20
50.1744191705
 10
20.8666661142
 20
50.133008772
 10
20.8520336389
 20
50.0894745537
 10
20.8290952112
 20
50.0476847219
 10
20.799889011
 20
50.0113524865
 10
20.7670101374
 20
49.9837061262
 10
20.7333800227
 20
49.9672021412
 10
20.70198685
 20
49.9633069832
 10
20.6756200406
 20
49.972366754
 10
20.6566224011
 20
49.9935764532
 10
20.6466819553
 20
50.025051506
 10
20.6466819553
 20
50.0639952158
 10
20.6566224011
 20
50.106947263
 10
20.6756200406
 20
50.1500911699
 10
20.70198685
 20
50.1895934108
 10
20.7333800227
 20
50.2219440385
 10
20.7670101374
 20
50.2442685576
 10
20.799889011
 20
50.2545833366
 10
20.8290952112
 20
50.2519718622
 10
20.8520336389
 20
50.2366661753
 10
20.8666661142
 20
50.2100262534
 10
20.8716924775
 20
50.1744191705
  0
ARC
  5
2CF
330
1F
100
AcDbEntity
  8
0
  6
Continuous
 62
     7
370
    25
100
AcDbCircle
 10
20.5450923984
 20
50.2323360847
 30
0.0
 40
0.2304568500939894
100
AcDbArc
 50
296.1406483811
 51
3.8647292901
  0
LWPOLYLINE
  5
2D0
330
1F
100
AcDbEntity
  8
0
  6
Continuous
 62
     7
370
    25
100
AcDbPolyline
 90
        7
 70
   128
 43
0.0
 10
24.6073783291
 20
39.9634899981
 10
24.6085125475
 20
39.9641108802
 10
24.6474025337
 20
39.993759712
 10
24.6782268815
 20
40.0348223929
 10
24.6999909584
 20
40.0862865775
 10
24.7122067244
 20
40.1465567549
 10
24.7148178332
 20
40.1945760794
  0
LWPOLYLINE
  5
2D1
330
1F
100
AcDbEntity
  8
0
  6
Continuous
 62
     7
370
    25
100
AcDbPolyline
 90
        7
 70
   128
 43
0.0
 10
25.6291476279
 20
40.5533448589
 10
25.6302818463
 20
40.5539657409
 10
25.6691718325
 20
40.5836145728
 10
25.6999961803
 20
40.6246772537
 10
25.7217602572
 20
40.6761414383
 10
25.7339760232
 20
40.7364116157
 10
25.736587132
 20
40.7844309402
  0
MTEXT
  5
2D2
330
1F
100
AcDbEntity
  8
NOTES
100
AcDbMText
 10
19.470297573
 20
35.9840680658
 30
0.0
 40
0.5
 41
0.0
 71
     1
 72
     1
  1
grab bar in down position
  7
SLDTEXTSTYLE1
 73
     1
 44
1.0
  0
ARC
  5
2D3
330
1F
100
AcDbEntity
  8
0
  6
Continuous
 62
     7
370
    25
100
AcDbCircle
 10
50.8707867432
 20
34.8408723337
 30
0.0
 40
0.1391373220434712
100
AcDbArc
 50
57.812505698
 51
67.7137383033
  0
ARC
  5
2D4
330
1F
100
AcDbEntity
  8
0
  6
Continuous
 62
     7
370
    25
100
AcDbCircle
 10
50.8473328176
 20
34.9852505812
 30
0.0
 40
0.0778065365590628
100
AcDbArc
 50
348.4081092526
 51
6.2773720809
  0
LWPOLYLINE
  5
2D5
330
1F
100
AcDbEntity
  8
0
  6
Continuous
 62
     7
370
    25
100
AcDbPolyline
 90
       17
 70
   128
 43
0.0
 10
50.8979898162
 20
35.2716070954
 10
50.893719439
 20
35.2698572479
 10
50.8637778694
 20
35.2440519882
 10
50.8425962186
 20
35.2107240765
 10
50.8297164272
 20
35.1705573291
 10
50.8254759199
 20
35.1236598335
 10
50.8305877148
 20
35.0716323412
 10
50.8449278088
 20
35.0175912625
 10
50.8675788757
 20
34.9643709026
 10
50.897429725
 20
34.9141978903
 10
50.9332924522
 20
34.8691171278
 10
50.9739140514
 20
34.8310905084
 10
51.0182021545
 20
34.8019149656
 10
51.0651083151
 20
34.7835736201
 10
51.1063565464
 20
34.7783052263
 10
51.1444991191
 20
34.7837568933
 10
51.1700088521
 20
34.7960381825
  0
LWPOLYLINE
  5
2D6
330
1F
100
AcDbEntity
  8
0
  6
Continuous
 62
     7
370
    25
100
AcDbPolyline
 90
        3
 70
   128
 43
0.0
 10
50.9448758176
 20
35.3008599083
 10
50.944283135
 20
35.3002817979
 10
50.9378748283
 20
35.2955747524
  0
LWPOLYLINE
  5
2D7
330
1F
100
AcDbEntity
  8
0
  6
Continuous
 62
     7
370
    25
100
AcDbPolyline
 90
        3
 70
   128
 43
0.0
 10
51.2128004327
 20
34.8188593816
 10
51.2214591178
 20
34.8224712525
 10
51.2209934499
 20
34.8225194757
  0
LINE
  5
2D8
330
1F
100
AcDbEntity
  8
0
  6
Continuous
 62
     7
370
    25
100
AcDbLine
 10
50.9378748283
 20
35.2955747524
 30
0.0
 11
50.8970793275
 21
35.2718676659
 31
0.0
  0
LINE
  5
2D9
330
1F
100
AcDbEntity
  8
0
  6
Continuous
 62
     7
370
    25
100
AcDbLine
 10
51.172056979
 20
34.7955407916
 30
0.0
 11
51.2128004327
 21
34.8188593816
 31
0.0
  0
ARC
  5
2DA
330
1F
100
AcDbEntity
  8
0
  6
Continuous
 62
     7
370
    25
100
AcDbCircle
 10
51.1226133454
 20
35.3376205471
 30
0.0
 40
0.099999999999993
100
AcDbArc
 50
119.9973117337
 51
130.2158989186
  0
ARC
  5
2DB
330
1F
100
AcDbEntity
  8
0
  6
Continuous
 62
     7
370
    25
100
AcDbCircle
 10
51.3292686583
 20
35.03289072
 30
0.0
 40
0.4677523549328675
100
AcDbArc
 50
125.4394023672
 51
144.9954520198
  0
LINE
  5
2DC
330
1F
100
AcDbEntity
  8
0
  6
Continuous
 62
     7
370
    25
100
AcDbLine
 10
51.2599610339
 20
35.5323766062
 30
0.0
 11
51.0726174087
 21
35.4242254334
 31
0.0
  0
LWPOLYLINE
  5
2DD
330
1F
100
AcDbEntity
  8
0
  6
Continuous
 62
     7
370
    25
100
AcDbPolyline
 90
        3
 70
   128
 43
0.0
 10
51.2211622146
 20
34.820881536
 10
51.2527332809
 20
34.8152832819
 10
51.253603209
 20
34.8151635856
  0
ARC
  5
2DE
330
1F
100
AcDbEntity
  8
0
  6
Continuous
 62
     7
370
    25
100
AcDbCircle
 10
51.2690429969
 20
34.915974764
 30
0.0
 40
0.0999999999999956
100
AcDbArc
 50
261.4421769951
 51
299.9973117335
  0
LINE
  5
2DF
330
1F
100
AcDbEntity
  8
0
  6
Continuous
 62
     7
370
    25
100
AcDbLine
 10
51.3190389336
 20
34.8293698777
 30
0.0
 11
51.5063825588
 21
34.9375210505
 31
0.0
  0
ARC
  5
2E0
330
1F
100
AcDbEntity
  8
0
  6
Continuous
 62
     7
370
    25
100
AcDbCircle
 10
49.5449615285
 20
35.6062549385
 30
0.0
 40
0.1391373220668065
100
AcDbArc
 50
57.8125056988
 51
67.7137383024
  0
ARC
  5
2E1
330
1F
100
AcDbEntity
  8
0
  6
Continuous
 62
     7
370
    25
100
AcDbCircle
 10
49.5215076029
 20
35.750633186
 30
0.0
 40
0.077806536556812
100
AcDbArc
 50
348.4081092523
 51
6.2773720812
  0
ARC
  5
2E2
330
1F
100
AcDbEntity
  8
0
  6
Continuous
 62
     7
370
    25
100
AcDbCircle
 10
49.6625721973
 20
35.8973716592
 30
0.0
 40
0.1655918465109583
100
AcDbArc
 50
124.2853308054
 51
193.4115484209
  0
LWPOLYLINE
  5
2E3
330
1F
100
AcDbEntity
  8
0
  6
Continuous
 62
     7
370
    25
100
AcDbPolyline
 90
       12
 70
   128
 43
0.0
 10
49.5014961816
 20
35.858963629
 10
49.5060799371
 20
35.8302297421
 10
49.5215422872
 20
35.7761159809
 10
49.5451720092
 20
35.7231644895
 10
49.5758540794
 20
35.6735275624
 10
49.6123866727
 20
35.6292416815
 10
49.6535312482
 20
35.5922392581
 10
49.6982135101
 20
35.5643213452
 10
49.7453531861
 20
35.5475225813
 10
49.7862217274
 20
35.5438229154
 10
49.8238347238
 20
35.5507753988
 10
49.8466206478
 20
35.5629371686
  0
LWPOLYLINE
  5
2E4
330
1F
100
AcDbEntity
  8
0
  6
Continuous
 62
     7
370
    25
100
AcDbPolyline
 90
        4
 70
   128
 43
0.0
 10
49.88727949
 20
35.5844158075
 10
49.8884372881
 20
35.5852495103
 10
49.8958740552
 20
35.5878950678
 10
49.8952669495
 20
35.5879313847
  0
LWPOLYLINE
  5
2E5
330
1F
100
AcDbEntity
  8
0
  6
Continuous
 62
     7
370
    25
100
AcDbPolyline
 90
        4
 70
   128
 43
0.0
 10
49.6190420989
 20
36.0660966293
 10
49.6191488105
 20
36.0664110416
 10
49.6131871765
 20
36.0614829893
 10
49.6123535169
 20
36.0611410298
  0
LINE
  5
2E6
330
1F
100
AcDbEntity
  8
0
  6
Continuous
 62
     7
370
    25
100
AcDbLine
 10
49.6123535169
 20
36.0611410298
 30
0.0
 11
49.5712541128
 21
36.0372502708
 31
0.0
  0
LINE
  5
2E7
330
1F
100
AcDbEntity
  8
0
  6
Continuous
 62
     7
370
    25
100
AcDbLine
 10
49.8462317643
 20
35.5609233965
 30
0.0
 11
49.88727949
 21
35.5844158075
 31
0.0
  0
ARC
  5
2E8
330
1F
100
AcDbEntity
  8
0
  6
Continuous
 62
     7
370
    25
100
AcDbCircle
 10
49.7695451374
 20
36.0988415869
 30
0.0
 40
0.0999999999999986
100
AcDbArc
 50
119.9973117336
 51
139.7694644413
  0
ARC
  5
2E9
330
1F
100
AcDbEntity
  8
0
  6
Continuous
 62
     7
370
    25
100
AcDbCircle
 10
50.0027388051
 20
35.8542370173
 30
0.0
 40
0.4375081741374398
100
AcDbArc
 50
135.0322093607
 51
150.6477001399
  0
LINE
  5
2EA
330
1F
100
AcDbEntity
  8
0
  6
Continuous
 62
     7
370
    25
100
AcDbLine
 10
49.906892826
 20
36.2935976459
 30
0.0
 11
49.7195492008
 21
36.1854464731
 31
0.0
  0
ARC
  5
2EB
330
1F
100
AcDbEntity
  8
0
  6
Continuous
 62
     7
370
    25
100
AcDbCircle
 10
49.9702064187
 20
35.685371598
 30
0.0
 40
0.1000000000000045
100
AcDbArc
 50
269.3859153409
 51
300.1657313992
  0
LWPOLYLINE
  5
2EC
330
1F
100
AcDbEntity
  8
0
  6
Continuous
 62
     7
370
    25
100
AcDbPolyline
 90
        3
 70
   128
 43
0.0
 10
49.8952669495
 20
35.5879313847
 10
49.9422834787
 20
35.5858413355
 10
49.9691346593
 20
35.5853773415
  0
LINE
  5
2ED
330
1F
100
AcDbEntity
  8
0
  6
Continuous
 62
     7
370
    25
100
AcDbLine
 10
50.0204567121
 20
35.5989140477
 30
0.0
 11
50.2078003373
 21
35.7070652204
 31
0.0
  0
LINE
  5
2EE
330
1F
100
AcDbEntity
  8
0
  6
Continuous
 62
     7
370
    25
100
AcDbLine
 10
53.4678766498
 20
31.9165410791
 30
0.0
 11
53.4681660284
 21
31.9780393066
 31
0.0
  0
LWPOLYLINE
  5
2EF
330
1F
100
AcDbEntity
  8
0
  6
Continuous
 62
     7
370
    25
100
AcDbPolyline
 90
       16
 70
   128
 43
0.0
 10
52.6146756004
 20
31.5755789591
 10
52.6151783671
 20
31.575419056
 10
52.6974947481
 20
31.5577655609
 10
52.7829419724
 20
31.5473805688
 10
52.8698410524
 20
31.5444152657
 10
52.9565001492
 20
31.5489124212
 10
53.0412205691
 20
31.5608050532
 10
53.1223567998
 20
31.5799232955
 10
53.1983417718
 20
31.6060132827
 10
53.2676866627
 20
31.6387555899
 10
53.3289643398
 20
31.6777748073
 10
53.380741672
 20
31.7225879138
 10
53.4214879517
 20
31.7723653946
 10
53.4498486582
 20
31.8257680736
 10
53.4650428707
 20
31.8809284081
 10
53.4660397355
 20
31.9066964428
  0
LWPOLYLINE
  5
2F0
330
1F
100
AcDbEntity
  8
0
  6
Continuous
 62
     7
370
    25
100
AcDbPolyline
 90
       15
 70
   128
 43
0.0
 10
49.9268612326
 20
56.5350408688
 10
49.8833279712
 20
56.5106205486
 10
49.776006367
 20
56.43618515
 10
49.6762296488
 20
56.3520556243
 10
49.5842567762
 20
56.2586549325
 10
49.5003022449
 20
56.1563138703
 10
49.4245784145
 20
56.045287791
 10
49.3573166388
 20
55.9257753211
 10
49.2987849176
 20
55.7979576474
 10
49.249294547
 20
55.6620579959
 10
49.2091881916
 20
55.5184123941
 10
49.1788059946
 20
55.3675321213
 10
49.1584355455
 20
55.2101323672
 10
49.1482618072
 20
55.0471097167
 10
49.1470502147
 20
54.9779641129
  0
LINE
  5
2F1
330
1F
100
AcDbEntity
  8
0
  6
Continuous
 62
     7
370
    25
100
AcDbLine
 10
49.9278696575
 20
56.5373293204
 30
0.0
 11
49.9250412304
 21
56.5356965041
 31
0.0
  0
LWPOLYLINE
  5
2F2
330
1F
100
AcDbEntity
  8
0
  6
Continuous
 62
     7
370
    25
100
AcDbPolyline
 90
       36
 70
   128
 43
0.0
 10
53.5806270296
 20
53.1152807529
 10
53.5794991148
 20
53.2084324968
 10
53.5695480052
 20
53.3798880594
 10
53.549638461
 20
53.5535550873
 10
53.5200449555
 20
53.7288295814
 10
53.4810861888
 20
53.9049195312
 10
53.4330971157
 20
54.0811002169
 10
53.3764182238
 20
54.256694133
 10
53.3113910714
 20
54.4310543959
 10
53.238357338
 20
54.6035527634
 10
53.1576593547
 20
54.7735720713
 10
53.069640879
 20
54.9405021036
 10
52.97464748
 20
55.103737781
 10
52.8730282396
 20
55.2626757574
 10
52.7651539444
 20
55.4166896607
 10
52.6513750981
 20
55.565192733
 10
52.5320389972
 20
55.7076031717
 10
52.4074884393
 20
55.8433420349
 10
52.2780615961
 20
55.9718294687
 10
52.144094324
 20
56.0924788692
 10
52.0059267313
 20
56.2046889111
 10
51.8639164102
 20
56.3078340637
 10
51.718461012
 20
56.4012555646
 10
51.5700319844
 20
56.4842570703
 10
51.4193091091
 20
56.5560724407
 10
51.2671307193
 20
56.6159652214
 10
51.1144733956
 20
56.6632968727
 10
50.9624497
 20
56.6975839162
 10
50.8122228528
 20
56.7185648845
 10
50.6649013787
 20
56.7262262619
 10
50.5214581472
 20
56.720776784
 10
50.3827007587
 20
56.7025873172
 10
50.2492870534
 20
56.672125205
 10
50.1217604354
 20
56.6299025187
 10
50.0005828619
 20
56.5764417758
 10
49.9285594195
 20
56.5360396679
  0
LWPOLYLINE
  5
2F3
330
1F
100
AcDbEntity
  8
0
  6
Continuous
 62
     7
370
    25
100
AcDbPolyline
 90
       32
 70
   128
 43
0.0
 10
50.5504064117
 20
55.4527672583
 10
50.5713530994
 20
55.4630152881
 10
50.596870471
 20
55.4700415041
 10
50.6288395146
 20
55.4742189733
 10
50.6678503427
 20
55.4746355836
 10
50.7196749263
 20
55.4694616963
 10
50.7788355047
 20
55.4574141683
 10
50.8448986794
 20
55.437670556
 10
50.9172861304
 20
55.4095126759
 10
50.9952199582
 20
55.3723970595
 10
51.0776927633
 20
55.3260366774
 10
51.1637783682
 20
55.2702653932
 10
51.2524967491
 20
55.205094542
 10
51.3428414826
 20
55.1307046762
 10
51.4338026039
 20
55.0474329549
 10
51.524385184
 20
54.9557583698
 10
51.6136242449
 20
54.8562862582
 10
51.700596631
 20
54.7497331089
 10
51.7844304853
 20
54.6369122801
 10
51.8643129779
 20
54.5187209338
 10
51.9394968934
 20
54.3961282502
 10
52.0093066251
 20
54.2701648157
 10
52.0731349152
 20
54.1419323948
 10
52.130457949
 20
54.0125860751
 10
52.1808600109
 20
53.8832837049
 10
52.2240243807
 20
53.7552049388
 10
52.2597419337
 20
53.6295408767
 10
52.2879209164
 20
53.5074820002
 10
52.3085977633
 20
53.3902035971
 10
52.3219485631
 20
53.2788477304
 10
52.3283003856
 20
53.1745007407
 10
52.3289840108
 20
53.1211613906
  0
LWPOLYLINE
  5
2F4
330
1F
100
AcDbEntity
  8
0
  6
Continuous
 62
     7
370
    25
100
AcDbPolyline
 90
       12
 70
   128
 43
0.0
 10
50.3986932335
 20
54.9720834752
 10
50.3997681468
 20
55.0213210553
 10
50.4061508036
 20
55.1080973928
 10
50.4175074863
 20
55.1852408096
 10
50.4328493033
 20
55.2522139302
 10
50.4510224618
 20
55.308666562
 10
50.4707995678
 20
55.3546671889
 10
50.4909833802
 20
55.3907102586
 10
50.5105837302
 20
55.4177651944
 10
50.5291891181
 20
55.4373724056
 10
50.547983106
 20
55.4518306986
 10
50.5515935441
 20
55.4535970818
  0
LINE
  5
2F5
330
1F
100
AcDbEntity
  8
0
  6
Continuous
 62
     7
370
    25
100
AcDbLine
 10
52.3289840108
 20
53.1211613906
 30
0.0
 11
52.252386412
 21
36.8427782628
 31
0.0
  0
LINE
  5
2F6
330
1F
100
AcDbEntity
  8
0
  6
Continuous
 62
     7
370
    25
100
AcDbLine
 10
53.4811658845
 20
31.9779781361
 30
0.0
 11
53.5806270296
 21
53.1152807529
 31
0.0
  0
LINE
  5
2F7
330
1F
100
AcDbEntity
  8
0
  6
Continuous
 62
     7
370
    25
100
AcDbLine
 10
49.1470502147
 20
54.9779641129
 30
0.0
 11
49.0807114819
 21
40.8797766299
 31
0.0
  0
LINE
  5
2F8
330
1F
100
AcDbEntity
  8
0
  6
Continuous
 62
     7
370
    25
100
AcDbLine
 10
50.3263107998
 20
39.5894996357
 30
0.0
 11
50.3986932335
 21
54.9720834752
 31
0.0
  0
LINE
  5
2F9
330
1F
100
AcDbEntity
  8
0
  6
Continuous
 62
     7
370
    25
100
AcDbLine
 10
52.2545987391
 20
37.3129380123
 30
0.0
 11
51.852704888
 21
37.5474613068
 31
0.0
  0
LINE
  5
2FA
330
1F
100
AcDbEntity
  8
0
  6
Continuous
 62
     7
370
    25
100
AcDbLine
 10
47.0113826563
 20
32.3061790505
 30
0.0
 11
47.0962354701
 21
32.2571945638
 31
0.0
  0
LINE
  5
2FB
330
1F
100
AcDbEntity
  8
0
  6
Continuous
 62
     7
370
    25
100
AcDbLine
 10
48.0759105811
 20
41.6750976607
 30
0.0
 11
48.0759105811
 21
32.6931487299
 31
0.0
  0
LINE
  5
2FC
330
1F
100
AcDbEntity
  8
0
  6
Continuous
 62
     7
370
    25
100
AcDbLine
 10
52.4141742099
 20
31.3334768405
 30
0.0
 11
52.5096336254
 21
31.388584388
 31
0.0
  0
LINE
  5
2FD
330
1F
100
AcDbEntity
  8
0
  6
Continuous
 62
     7
370
    25
100
AcDbLine
 10
53.4679956699
 20
31.94183502
 30
0.0
 11
53.5314029242
 21
31.9784392488
 31
0.0
  0
LINE
  5
2FE
330
1F
100
AcDbEntity
  8
0
  6
Continuous
 62
     7
370
    25
100
AcDbLine
 10
51.536180593
 20
35.3407253543
 30
0.0
 11
51.6093954188
 21
35.1299024627
 31
0.0
  0
LINE
  5
2FF
330
1F
100
AcDbEntity
  8
0
  6
Continuous
 62
     7
370
    25
100
AcDbLine
 10
51.3141041125
 20
35.524891151
 30
0.0
 11
51.4771223317
 21
35.419723092
 31
0.0
  0
ARC
  5
300
330
1F
100
AcDbEntity
  8
0
  6
Continuous
 62
     7
370
    25
100
AcDbCircle
 10
51.3867174164
 20
35.2905622096
 30
0.0
 40
0.1576565324992246
100
AcDbArc
 50
18.5528904997
 51
55.0102729831
  0
ARC
  5
301
330
1F
100
AcDbEntity
  8
0
  6
Continuous
 62
     7
370
    25
100
AcDbCircle
 10
51.5334242269
 20
35.0942161815
 30
0.0
 40
0.083935288554579
100
AcDbArc
 50
328.8379766109
 51
25.161058211
  0
LINE
  5
302
330
1F
100
AcDbEntity
  8
0
  6
Continuous
 62
     7
370
    25
100
AcDbLine
 10
51.6052482769
 20
35.0507830317
 30
0.0
 11
51.5154448834
 21
34.9451281991
 31
0.0
  0
ARC
  5
303
330
1F
100
AcDbEntity
  8
0
  6
Continuous
 62
     7
370
    25
100
AcDbCircle
 10
51.2807183019
 20
35.4829620955
 30
0.0
 40
0.0535971830794026
100
AcDbArc
 50
51.4716104147
 51
112.7855335896
  0
LINE
  5
304
330
1F
100
AcDbEntity
  8
0
  6
Continuous
 62
     7
370
    25
100
AcDbLine
 10
51.2541622517
 20
34.817088145
 30
0.0
 11
51.2541622517
 21
34.817088145
 31
0.0
  0
LWPOLYLINE
  5
305
330
1F
100
AcDbEntity
  8
0
  6
Continuous
 62
     7
370
    25
100
AcDbPolyline
 90
        3
 70
   128
 43
0.0
 10
51.5154448834
 20
34.9451281991
 10
51.509863989
 20
34.9398324775
 10
51.5063825588
 20
34.9375210505
  0
ARC
  5
306
330
1F
100
AcDbEntity
  8
0
  6
Continuous
 62
     7
370
    25
100
AcDbCircle
 10
49.8524577226
 20
35.9268963508
 30
0.0
 40
0.2717711738234979
100
AcDbArc
 50
126.0354443334
 51
149.1897429689
  0
LINE
  5
307
330
1F
100
AcDbEntity
  8
0
  6
Continuous
 62
     7
370
    25
100
AcDbLine
 10
50.1743604071
 20
36.157809812
 30
0.0
 11
50.2748182261
 21
35.9511484855
 31
0.0
  0
ARC
  5
308
330
1F
100
AcDbEntity
  8
0
  6
Continuous
 62
     7
370
    25
100
AcDbCircle
 10
50.0462511702
 20
36.1007865681
 30
0.0
 40
0.1402270548529567
100
AcDbArc
 50
23.9945266936
 51
63.5023921948
  0
LINE
  5
309
330
1F
100
AcDbEntity
  8
0
  6
Continuous
 62
     7
370
    25
100
AcDbLine
 10
49.9470908697
 20
36.2935153764
 30
0.0
 11
50.1088149358
 21
36.2262831902
 31
0.0
  0
ARC
  5
30A
330
1F
100
AcDbEntity
  8
0
  6
Continuous
 62
     7
370
    25
100
AcDbCircle
 10
50.1797921743
 20
35.8965715874
 30
0.0
 40
0.1095837046288563
100
AcDbArc
 50
343.0510890941
 51
29.8703093689
  0
LINE
  5
30B
330
1F
100
AcDbEntity
  8
0
  6
Continuous
 62
     7
370
    25
100
AcDbLine
 10
50.2846161191
 20
35.8646258688
 30
0.0
 11
50.2233498719
 21
35.7251967285
 31
0.0
  0
ARC
  5
30C
330
1F
100
AcDbEntity
  8
0
  6
Continuous
 62
     7
370
    25
100
AcDbCircle
 10
49.9269081147
 20
36.2526433312
 30
0.0
 40
0.045583633824263
100
AcDbArc
 50
63.7196833418
 51
116.0457932878
  0
ARC
  5
30D
330
1F
100
AcDbEntity
  8
0
  6
Continuous
 62
     7
370
    25
100
AcDbCircle
 10
50.1886962326
 20
35.7391822259
 30
0.0
 40
0.0373693571870508
100
AcDbArc
 50
300.7453806926
 51
338.0220085625
  0
ARC
  5
30E
330
1F
100
AcDbEntity
  8
0
  6
Continuous
 62
     7
370
    25
100
AcDbCircle
 10
52.8551647419
 20
32.5853315983
 30
0.0
 40
0.9691187618520793
100
AcDbArc
 50
255.7780674101
 51
297.048445821
  0
LINE
  5
30F
330
1F
100
AcDbEntity
  8
0
  6
Continuous
 62
     7
370
    25
100
AcDbLine
 10
53.2986938381
 20
31.723845596
 30
0.0
 11
53.295865411
 21
31.7222127798
 31
0.0
  0
ARC
  5
310
330
1F
100
AcDbEntity
  8
0
  6
Continuous
 62
     7
370
    25
100
AcDbCircle
 10
53.1642565378
 20
32.0129496482
 30
0.0
 40
0.3188330922197751
100
AcDbArc
 50
294.939065782
 51
353.7027874405
  0
LINE
  5
311
330
1F
100
AcDbEntity
  8
0
  6
Continuous
 62
     7
370
    25
100
AcDbLine
 10
47.0185551895
 20
40.7984296881
 30
0.0
 11
47.0185551895
 21
32.4288863663
 31
0.0
  0
ARC
  5
312
330
1F
100
AcDbEntity
  8
0
  6
Continuous
 62
     7
370
    25
100
AcDbCircle
 10
47.5942612275
 20
40.7722318685
 30
0.0
 40
0.5763018028395358
100
AcDbArc
 50
122.60547834
 51
177.3945215143
  0
LINE
  5
313
330
1F
100
AcDbEntity
  8
0
  6
Continuous
 62
     7
370
    25
100
AcDbLine
 10
49.0873893497
 20
42.2989450316
 30
0.0
 11
47.2837202324
 21
41.2577090135
 31
0.0
  0
LINE
  5
314
330
1F
100
AcDbEntity
  8
0
  6
Continuous
 62
     7
370
    25
100
AcDbLine
 10
47.2837202324
 20
32.2757600828
 30
0.0
 11
48.0759105811
 21
32.7330818367
 31
0.0
  0
LWPOLYLINE
  5
315
330
1F
100
AcDbEntity
  8
0
  6
Continuous
 62
     7
370
    25
100
AcDbPolyline
 90
        9
 70
   128
 43
0.0
 10
47.0185551895
 20
32.4288863663
 10
47.0236502614
 20
32.372090485
 10
47.0387396765
 20
32.3233598824
 10
47.063243557
 20
32.2845672483
 10
47.0962202324
 20
32.2572033618
 10
47.1364024277
 20
32.2423198017
 10
47.1822459637
 20
32.2404885349
 10
47.2319890988
 20
32.251779936
 10
47.2837202324
 20
32.2757600828
  0
ARC
  5
316
330
1F
100
AcDbEntity
  8
0
  6
Continuous
 62
     7
370
    25
100
AcDbCircle
 10
48.4493108085
 20
41.6562971934
 30
0.0
 40
0.2285780746368021
100
AcDbArc
 50
295.8240558426
 51
4.1813206484
  0
LINE
  5
317
330
1F
100
AcDbEntity
  8
0
  6
Continuous
 62
     7
370
    25
100
AcDbLine
 10
47.3915540166
 20
32.7462816072
 30
0.0
 11
47.3915540166
 21
32.6131854549
 31
0.0
  0
LWPOLYLINE
  5
318
330
1F
100
AcDbEntity
  8
0
  6
Continuous
 62
     7
370
    25
100
AcDbPolyline
 90
       11
 70
   128
 43
0.0
 10
47.3915540166
 20
32.6131854549
 10
47.3970913396
 20
32.5760100855
 10
47.4131612771
 20
32.5488669574
 10
47.4381907915
 20
32.5344130291
 10
47.4697298196
 20
32.5340631518
 10
47.5046911016
 20
32.5478515739
 10
47.5396523835
 20
32.5744285887
 10
47.5711914116
 20
32.6111926527
 10
47.596220926
 20
32.6545450433
 10
47.6122908635
 20
32.7002421262
 10
47.6178281865
 20
32.7438107528
  0
LINE
  5
319
330
1F
100
AcDbEntity
  8
0
  6
Continuous
 62
     7
370
    25
100
AcDbLine
 10
47.6178281865
 20
32.7438107528
 30
0.0
 11
47.6178281865
 21
32.8769069051
 31
0.0
  0
LWPOLYLINE
  5
31A
330
1F
100
AcDbEntity
  8
0
  6
Continuous
 62
     7
370
    25
100
AcDbPolyline
 90
       11
 70
   128
 43
0.0
 10
47.6178281865
 20
32.8769069051
 10
47.6122908635
 20
32.9140822746
 10
47.596220926
 20
32.9412254027
 10
47.5711914116
 20
32.955679331
 10
47.5396523835
 20
32.9560292083
 10
47.5046911016
 20
32.9422407861
 10
47.4697298196
 20
32.9156637713
 10
47.4381907915
 20
32.8788997073
 10
47.4131612771
 20
32.8355473168
 10
47.3970913396
 20
32.7898502338
 10
47.3915540166
 20
32.7462816072
  0
LINE
  5
31B
330
1F
100
AcDbEntity
  8
0
  6
Continuous
 62
     7
370
    25
100
AcDbLine
 10
47.6178281865
 20
41.042315024
 30
0.0
 11
47.6178281865
 21
41.1754111763
 31
0.0
  0
LWPOLYLINE
  5
31C
330
1F
100
AcDbEntity
  8
0
  6
Continuous
 62
     7
370
    25
100
AcDbPolyline
 90
       11
 70
   128
 43
0.0
 10
47.6178281865
 20
41.1754111763
 10
47.6122908635
 20
41.2125865458
 10
47.596220926
 20
41.2397296739
 10
47.5711914116
 20
41.2541836022
 10
47.5396523835
 20
41.2545334794
 10
47.5046911016
 20
41.2407450573
 10
47.4697298196
 20
41.2141680425
 10
47.4381907915
 20
41.1774039785
 10
47.4131612771
 20
41.134051588
 10
47.3970913396
 20
41.088354505
 10
47.3915540166
 20
41.0447858784
  0
LINE
  5
31D
330
1F
100
AcDbEntity
  8
0
  6
Continuous
 62
     7
370
    25
100
AcDbLine
 10
47.3915540166
 20
41.0447858784
 30
0.0
 11
47.3915540166
 21
40.9116897261
 31
0.0
  0
LWPOLYLINE
  5
31E
330
1F
100
AcDbEntity
  8
0
  6
Continuous
 62
     7
370
    25
100
AcDbPolyline
 90
       11
 70
   128
 43
0.0
 10
47.3915540166
 20
40.9116897261
 10
47.3970913396
 20
40.8745143567
 10
47.4131612771
 20
40.8473712286
 10
47.4381907915
 20
40.8329173003
 10
47.4697298196
 20
40.832567423
 10
47.5046911016
 20
40.8463558451
 10
47.5396523835
 20
40.8729328599
 10
47.5711914116
 20
40.9096969239
 10
47.596220926
 20
40.9530493144
 10
47.6122908635
 20
40.9987463974
 10
47.6178281865
 20
41.042315024
  0
ARC
  5
31F
330
1F
100
AcDbEntity
  8
0
  6
Continuous
 62
     7
370
    25
100
AcDbCircle
 10
47.5094084138
 20
40.8212163552
 30
0.0
 40
0.5763018028395009
100
AcDbArc
 50
122.60547834
 51
177.3945215143
  0
LINE
  5
320
330
1F
100
AcDbEntity
  8
0
  6
Continuous
 62
     7
370
    25
100
AcDbLine
 10
46.9337023757
 20
40.8474141748
 30
0.0
 11
46.9337023757
 21
32.477870853
 31
0.0
  0
LINE
  5
321
330
1F
100
AcDbEntity
  8
0
  6
Continuous
 62
     7
370
    25
100
AcDbLine
 10
49.0878515964
 20
42.3971808543
 30
0.0
 11
47.1988674187
 21
41.3066935002
 31
0.0
  0
LINE
  5
322
330
1F
100
AcDbEntity
  8
0
  6
Continuous
 62
     7
370
    25
100
AcDbLine
 10
47.5329753728
 20
41.224395663
 30
0.0
 11
47.5300846388
 21
41.252071089
 31
0.0
  0
ARC
  5
323
330
1F
100
AcDbEntity
  8
0
  6
Continuous
 62
     7
370
    25
100
AcDbCircle
 10
47.3041616379
 20
41.0942845918
 30
0.0
 40
0.2288332055810064
100
AcDbArc
 50
293.2370863992
 51
359.2525673994
  0
LINE
  5
324
330
1F
100
AcDbEntity
  8
0
  6
Continuous
 62
     7
370
    25
100
AcDbLine
 10
47.5329753728
 20
41.0912995107
 30
0.0
 11
47.5329753728
 21
41.224395663
 31
0.0
  0
ARC
  5
325
330
1F
100
AcDbEntity
  8
0
  6
Continuous
 62
     7
370
    25
100
AcDbCircle
 10
47.1120844592
 20
32.4551593422
 30
0.0
 40
0.1798220799052843
100
AcDbArc
 50
172.7441704381
 51
235.9436491685
  0
LINE
  5
326
330
1F
100
AcDbEntity
  8
0
  6
Continuous
 62
     7
370
    25
100
AcDbLine
 10
47.5329753728
 20
32.9258913918
 30
0.0
 11
47.5300846388
 21
32.9535668178
 31
0.0
  0
ARC
  5
327
330
1F
100
AcDbEntity
  8
0
  6
Continuous
 62
     7
370
    25
100
AcDbCircle
 10
47.3041616379
 20
32.7957803206
 30
0.0
 40
0.2288332055810116
100
AcDbArc
 50
293.2370863992
 51
359.2525673994
  0
LINE
  5
328
330
1F
100
AcDbEntity
  8
0
  6
Continuous
 62
     7
370
    25
100
AcDbLine
 10
47.5329753728
 20
32.7927952395
 30
0.0
 11
47.5329753728
 21
32.9258913918
 31
0.0
  0
LWPOLYLINE
  5
329
330
1F
100
AcDbEntity
  8
0
  6
Continuous
 62
     7
370
    25
100
AcDbPolyline
 90
        8
 70
   128
 43
0.0
 10
52.3177190779
 20
31.3123798446
 10
52.369350728
 20
31.3168712195
 10
52.4153084283
 20
31.3340977225
 10
52.4541984145
 20
31.3637465543
 10
52.4850227623
 20
31.4048092352
 10
52.5067868393
 20
31.4562734198
 10
52.5190026053
 20
31.5165435972
 10
52.5216137141
 20
31.5645629217
  0
LWPOLYLINE
  5
32A
330
1F
100
AcDbEntity
  8
0
  6
Continuous
 62
     7
370
    25
100
AcDbPolyline
 90
        9
 70
   128
 43
0.0
 10
48.1248237487
 20
32.6249786526
 10
48.9562133543
 20
32.2663291654
 10
49.7845802668
 20
31.9404458321
 10
50.427471459
 20
31.715894508
 10
51.0654150912
 20
31.5261251522
 10
51.3838521176
 20
31.4475232764
 10
51.6989338749
 20
31.3834708753
 10
52.0115942843
 20
31.3367217968
 10
52.3177190779
 20
31.3123798446
  0
LWPOLYLINE
  5
32B
330
1F
100
AcDbEntity
  8
0
  6
Continuous
 62
     7
370
    25
100
AcDbPolyline
 90
       13
 70
   128
 43
0.0
 10
52.195989078
 20
36.7153968123
 10
51.9346702291
 20
37.1988972407
 10
51.6501476125
 20
37.6694911879
 10
51.3383099338
 20
38.1366705236
 10
51.0097692644
 20
38.5876285315
 10
50.7220648794
 20
38.9552030558
 10
50.4263424489
 20
39.3113428898
 10
50.1215323452
 20
39.6591216974
 10
49.8110780833
 20
39.996158261
 10
49.399023263
 20
40.4207350423
 10
48.9806180525
 20
40.8291929255
 10
48.5547477635
 20
41.2250057489
 10
48.1248237487
 20
41.6069275833
  0
ARC
  5
32C
330
1F
100
AcDbEntity
  8
0
  6
Continuous
 62
     7
370
    25
100
AcDbCircle
 10
49.7294001922
 20
35.4043307447
 30
0.0
 40
2.793376982259844
100
AcDbArc
 50
1.6537266893
 51
27.9919860207
  0
LINE
  5
32D
330
1F
100
AcDbEntity
  8
0
  6
Continuous
 62
     7
370
    25
100
AcDbLine
 10
52.5216137141
 20
31.5645629217
 30
0.0
 11
52.5216137141
 21
35.4849447226
 31
0.0
  0
LINE
  5
32E
330
1F
100
AcDbEntity
  8
0
  6
Continuous
 62
     7
370
    25
100
AcDbLine
 10
48.1248237487
 20
41.6069275833
 30
0.0
 11
48.2202831641
 21
41.6620351309
 31
0.0
  0
LWPOLYLINE
  5
32F
330
1F
100
AcDbEntity
  8
0
  6
Continuous
 62
     7
370
    25
100
AcDbPolyline
 90
       13
 70
   128
 43
0.0
 10
52.2914484935
 20
36.7705043598
 10
52.0301296446
 20
37.2540047883
 10
51.7456070279
 20
37.7245987354
 10
51.4337693493
 20
38.1917780712
 10
51.1052286799
 20
38.642736079
 10
50.8175242948
 20
39.0103106033
 10
50.5218018644
 20
39.3664504373
 10
50.2169917606
 20
39.7142292449
 10
49.9065374987
 20
40.0512658085
 10
49.4944826785
 20
40.4758425898
 10
49.0760774679
 20
40.884300473
 10
48.650207179
 20
41.2801132964
 10
48.2202831641
 20
41.6620351309
  0
ARC
  5
330
330
1F
100
AcDbEntity
  8
0
  6
Continuous
 62
     7
370
    25
100
AcDbCircle
 10
53.2588212781
 20
32.1383033703
 30
0.0
 40
0.2850176401720375
100
AcDbArc
 50
319.8081768471
 51
3.2411341625
  0
ARC
  5
331
330
1F
100
AcDbEntity
  8
0
  6
Continuous
 62
     7
370
    25
100
AcDbCircle
 10
38.5940483932
 20
29.015246838
 30
0.0
 40
16.84501920673058
100
AcDbArc
 50
35.7682944992
 51
45.8209135311
  0
ARC
  5
332
330
1F
100
AcDbEntity
  8
0
  6
Continuous
 62
     7
370
    25
100
AcDbCircle
 10
51.42438806
 20
36.0696227775
 30
0.0
 40
2.119001276431555
100
AcDbArc
 50
0.139976048
 51
11.2917699761
  0
LINE
  5
333
330
1F
100
AcDbEntity
  8
0
  6
Continuous
 62
     7
370
    25
100
AcDbLine
 10
53.5433830129
 20
32.1544177825
 30
0.0
 11
53.5433830129
 21
36.0747995834
 31
0.0
  0
ARC
  5
334
330
1F
100
AcDbEntity
  8
0
  6
Continuous
 62
     7
370
    25
100
AcDbCircle
 10
38.3176211857
 20
28.7490020754
 30
0.0
 40
17.33567429628544
100
AcDbArc
 50
36.4458532122
 51
46.1188604964
  0
ARC
  5
335
330
1F
100
AcDbEntity
  8
0
  6
Continuous
 62
     7
370
    25
100
AcDbCircle
 10
49.8248596077
 20
35.4594382923
 30
0.0
 40
2.793376982260503
100
AcDbArc
 50
1.6537266893
 51
27.9919860207
  0
LINE
  5
336
330
1F
100
AcDbEntity
  8
0
  6
Continuous
 62
     7
370
    25
100
AcDbLine
 10
52.6170731295
 20
31.6196704693
 30
0.0
 11
52.6170731295
 21
35.5400522701
 31
0.0
  0
ARC
  5
337
330
1F
100
AcDbEntity
  8
0
  6
Continuous
 62
     7
370
    25
100
AcDbCircle
 10
51.2415565515
 20
36.1090582729
 30
0.0
 40
2.397376534962275
100
AcDbArc
 50
0.4982807716
 51
19.2907037159
  0
LINE
  5
338
330
1F
100
AcDbEntity
  8
0
  6
Continuous
 62
     7
370
    25
100
AcDbLine
 10
53.6388424284
 20
32.2095253301
 30
0.0
 11
53.6388424284
 21
36.1299071309
 31
0.0
  0
ARC
  5
339
330
1F
100
AcDbEntity
  8
0
  6
Continuous
 62
     7
370
    25
100
AcDbCircle
 10
48.1506965621
 20
41.6750976607
 30
0.0
 40
0.0729147579113318
100
AcDbArc
 50
110.7834207995
 51
249.2165792006
  0
ARC
  5
33A
330
1F
100
AcDbEntity
  8
0
  6
Continuous
 62
     7
370
    25
100
AcDbCircle
 10
48.1594869106
 20
32.7014830949
 30
0.0
 40
0.0839908595084875
100
AcDbArc
 50
185.6947992512
 51
245.6253417065
  0
ARC
  5
33B
330
1F
100
AcDbEntity
  8
0
  6
Continuous
 62
     7
370
    25
100
AcDbCircle
 10
49.1127385887
 20
42.0567561602
 30
0.0
 40
0.2224774753605404
100
AcDbArc
 50
96.5683552487
 51
118.7061304862
  0
LINE
  5
33C
330
1F
100
AcDbEntity
  8
0
  6
Continuous
 62
     7
370
    25
100
AcDbLine
 10
48.2202831641
 20
41.6881601905
 30
0.0
 11
49.0868693223
 21
42.188429731
 31
0.0
  0
ARC
  5
33D
330
1F
100
AcDbEntity
  8
0
  6
Continuous
 62
     7
370
    25
100
AcDbCircle
 10
48.225240829
 20
41.6750976607
 30
0.0
 40
0.0139716901387128
100
AcDbArc
 50
110.7834207995
 51
249.2165792007
  0
LINE
  5
33E
330
1F
100
AcDbEntity
  8
0
  6
Continuous
 62
     7
370
    25
100
AcDbLine
 10
49.005878798
 20
42.2518899917
 30
0.0
 11
48.1248237487
 21
41.743267738
 31
0.0
  0
LWPOLYLINE
  5
33F
330
1F
100
AcDbEntity
  8
0
  6
Continuous
 62
     7
370
    25
100
AcDbPolyline
 90
       22
 70
   128
 43
0.0
 10
48.7739477738
 20
41.5995135603
 10
48.7689214105
 20
41.5581031619
 10
48.7542889352
 20
41.5145689436
 10
48.7313505075
 20
41.4727791118
 10
48.7021443073
 20
41.4364468764
 10
48.6692654337
 20
41.408800516
 10
48.635635319
 20
41.3922965311
 10
48.6042421463
 20
41.3884013731
 10
48.5778753369
 20
41.3974611439
 10
48.5588776974
 20
41.4186708431
 10
48.5489372516
 20
41.4501458959
 10
48.5489372516
 20
41.4890896056
 10
48.5588776974
 20
41.5320416529
 10
48.5778753369
 20
41.5751855597
 10
48.6042421463
 20
41.6146878007
 10
48.635635319
 20
41.6470384284
 10
48.6692654337
 20
41.6693629474
 10
48.7021443073
 20
41.6796777265
 10
48.7313505075
 20
41.6770662521
 10
48.7542889352
 20
41.6617605652
 10
48.7689214105
 20
41.6351206433
 10
48.7739477738
 20
41.5995135603
  0
ARC
  5
340
330
1F
100
AcDbEntity
  8
0
  6
Continuous
 62
     7
370
    25
100
AcDbCircle
 10
48.4473476947
 20
41.6574304745
 30
0.0
 40
0.230456850094029
100
AcDbArc
 50
296.1406483811
 51
3.8647292901
  0
LWPOLYLINE
  5
341
330
1F
100
AcDbEntity
  8
0
  6
Continuous
 62
     7
370
    25
100
AcDbPolyline
 90
        7
 70
   128
 43
0.0
 10
52.5096336254
 20
31.388584388
 10
52.5107678438
 20
31.38920527
 10
52.54965783
 20
31.4188541019
 10
52.5804821778
 20
31.4599167827
 10
52.6022462547
 20
31.5113809673
 10
52.6144620207
 20
31.5716511448
 10
52.6170731295
 20
31.6196704693
  0
LWPOLYLINE
  5
342
330
1F
100
AcDbEntity
  8
0
  6
Continuous
 62
     7
370
    25
100
AcDbPolyline
 90
        7
 70
   128
 43
0.0
 10
53.5314029242
 20
31.9784392488
 10
53.5325371426
 20
31.9790601308
 10
53.5714271288
 20
32.0087089626
 10
53.6022514766
 20
32.0497716435
 10
53.6240155535
 20
32.1012358281
 10
53.6362313195
 20
32.1615060056
 10
53.6388424284
 20
32.2095253301
  0
MTEXT
  5
343
330
1F
100
AcDbEntity
  8
NOTES
100
AcDbMText
 10
46.8770291274
 20
30.6550259005
 30
0.0
 40
0.5
 41
0.0
 71
     1
 72
     1
  1
grab bar in up position
  7
SLDTEXTSTYLE1
 73
     1
 44
1.0
  0
ENDSEC
  0
SECTION
  2
OBJECTS
  0
DICTIONARY
  5
C
330
0
100
AcDbDictionary
281
     1
  3
ACAD_GROUP
350
D
  3
ACAD_LAYOUT
350
1A
  3
ACAD_MLINESTYLE
350
17
  3
ACAD_PLOTSETTINGS
350
19
  3
ACAD_PLOTSTYLENAME
350
E
  3
ACAD_SCALELIST
350
47
  3
DWGPROPS
350
344
  0
DICTIONARY
  5
D
102
{ACAD_REACTORS
330
C
102
}
330
C
100
AcDbDictionary
281
     1
  0
DICTIONARY
  5
1A
102
{ACAD_REACTORS
330
C
102
}
330
C
100
AcDbDictionary
281
     1
  3
Layout1
350
1E
  3
Layout2
350
26
  3
Model
350
22
  0
DICTIONARY
  5
17
102
{ACAD_REACTORS
330
C
102
}
330
C
100
AcDbDictionary
281
     1
  3
Standard
350
18
  0
DICTIONARY
  5
19
102
{ACAD_REACTORS
330
C
102
}
330
C
100
AcDbDictionary
281
     1
  0
ACDBDICTIONARYWDFLT
  5
E
102
{ACAD_REACTORS
330
C
102
}
330
C
100
AcDbDictionary
281
     1
  3
Normal
350
F
100
AcDbDictionaryWithDefault
340
F
  0
DICTIONARY
  5
47
102
{ACAD_REACTORS
330
C
102
}
330
C
100
AcDbDictionary
281
     1
  3
A0
350
48
  3
A1
350
49
  3
A2
350
4A
  3
A3
350
4B
  3
A4
350
4C
  3
A5
350
4D
  3
A6
350
4E
  3
A7
350
4F
  3
A8
350
50
  3
A9
350
51
  3
B0
350
52
  3
B1
350
53
  3
B2
350
54
  3
B3
350
55
  3
B4
350
56
  3
B5
350
57
  3
B6
350
58
  3
B7
350
59
  3
B8
350
5A
  3
B9
350
5B
  3
C0
350
5C
  3
C1
350
5D
  3
C2
350
5E
  3
C3
350
5F
  3
C4
350
60
  3
C5
350
61
  3
C6
350
62
  3
C7
350
63
  3
C8
350
64
  3
C9
350
65
  3
D0
350
66
  3
D1
350
67
  3
D2
350
68
  0
XRECORD
  5
344
102
{ACAD_REACTORS
330
C
102
}
330
C
100
AcDbXrecord
280
     1
  1
DWGPROPS COOKIE
  2

  3

  4

  6

  7

  8
carl
  9

300
=
301
=
302
=
303
=
304
=
305
=
306
=
307
=
308
=
309
=
 40
0.0
 41
2461103.764256771
 42
2461103.764260891
  1

 90
        0
  0
LAYOUT
  5
1E
102
{ACAD_REACTORS
330
1A
102
}
330
1A
100
AcDbPlotSettings
  1

  2
none_device
  4

  6

 40
0.0
 41
0.0
 42
0.0
 43
0.0
 44
0.0
 45
0.0
 46
0.0
 47
0.0
 48
0.0
 49
0.0
140
0.0
141
0.0
142
1.0
143
1.0
 70
   688
 72
     0
 73
     0
 74
     5
  7

 75
    16
147
1.0
148
0.0
149
0.0
100
AcDbLayout
  1
Layout1
 70
     1
 71
     1
 10
0.0
 20
0.0
 11
12.0
 21
9.0
 12
0.0
 22
0.0
 32
0.0
 14
1.0000000000E+20
 24
1.0000000000E+20
 34
1.0000000000E+20
 15
-1.0000000000E+20
 25
-1.0000000000E+20
 35
-1.0000000000E+20
146
0.0
 13
0.0
 23
0.0
 33
0.0
 16
1.0
 26
0.0
 36
0.0
 17
0.0
 27
1.0
 37
0.0
 76
     0
330
1B
  0
LAYOUT
  5
26
102
{ACAD_REACTORS
330
1A
102
}
330
1A
100
AcDbPlotSettings
  1

  2
none_device
  4

  6

 40
0.0
 41
0.0
 42
0.0
 43
0.0
 44
0.0
 45
0.0
 46
0.0
 47
0.0
 48
0.0
 49
0.0
140
0.0
141
0.0
142
1.0
143
1.0
 70
   688
 72
     0
 73
     0
 74
     5
  7

 75
    16
147
1.0
148
0.0
149
0.0
100
AcDbLayout
  1
Layout2
 70
     1
 71
     2
 10
0.0
 20
0.0
 11
0.0
 21
0.0
 12
0.0
 22
0.0
 32
0.0
 14
0.0
 24
0.0
 34
0.0
 15
0.0
 25
0.0
 35
0.0
146
0.0
 13
0.0
 23
0.0
 33
0.0
 16
1.0
 26
0.0
 36
0.0
 17
0.0
 27
1.0
 37
0.0
 76
     0
330
23
  0
LAYOUT
  5
22
102
{ACAD_REACTORS
330
1A
102
}
330
1A
100
AcDbPlotSettings
  1

  2
none_device
  4
Letter_(8.50_x_11.00_Inches)
  6

 40
6.35
 41
6.35
 42
6.35000508
 43
6.35000508
 44
215.9
 45
279.4
 46
0.0
 47
0.0
 48
0.0
 49
0.0
140
0.0
141
0.0
142
1.0
143
1.0
 70
  1712
 72
     0
 73
     0
 74
     0
  7

 75
     0
147
1.0
148
0.0
149
0.0
100
AcDbLayout
  1
Model
 70
     1
 71
     0
 10
0.0
 20
0.0
 11
60.0
 21
60.0
 12
0.0
 22
0.0
 32
0.0
 14
0.0
 24
0.0
 34
0.0
 15
60.0
 25
60.0
 35
0.0
146
0.0
 13
0.0
 23
0.0
 33
0.0
 16
1.0
 26
0.0
 36
0.0
 17
0.0
 27
1.0
 37
0.0
 76
     0
330
1F
331
29
  0
MLINESTYLE
  5
18
102
{ACAD_REACTORS
330
17
102
}
330
17
100
AcDbMlineStyle
  2
Standard
 70
     0
  3

 62
   256
 51
90.0
 52
90.0
 71
     2
 49
0.5
 62
   256
  6
BYLAYER
 49
-0.5
 62
   256
  6
BYLAYER
  0
ACDBPLACEHOLDER
  5
F
102
{ACAD_REACTORS
330
E
102
}
330
E
  0
SCALE
  5
48
102
{ACAD_REACTORS
330
47
102
}
330
47
100
AcDbScale
 70
     0
300
1:1
140
1.0
141
1.0
290
     1
  0
SCALE
  5
49
102
{ACAD_REACTORS
330
47
102
}
330
47
100
AcDbScale
 70
     0
300
1:2
140
1.0
141
2.0
290
     0
  0
SCALE
  5
4A
102
{ACAD_REACTORS
330
47
102
}
330
47
100
AcDbScale
 70
     0
300
1:4
140
1.0
141
4.0
290
     0
  0
SCALE
  5
4B
102
{ACAD_REACTORS
330
47
102
}
330
47
100
AcDbScale
 70
     0
300
1:5
140
1.0
141
5.0
290
     0
  0
SCALE
  5
4C
102
{ACAD_REACTORS
330
47
102
}
330
47
100
AcDbScale
 70
     0
300
1:8
140
1.0
141
8.0
290
     0
  0
SCALE
  5
4D
102
{ACAD_REACTORS
330
47
102
}
330
47
100
AcDbScale
 70
     0
300
1:10
140
1.0
141
10.0
290
     0
  0
SCALE
  5
4E
102
{ACAD_REACTORS
330
47
102
}
330
47
100
AcDbScale
 70
     0
300
1:16
140
1.0
141
16.0
290
     0
  0
SCALE
  5
4F
102
{ACAD_REACTORS
330
47
102
}
330
47
100
AcDbScale
 70
     0
300
1:20
140
1.0
141
20.0
290
     0
  0
SCALE
  5
50
102
{ACAD_REACTORS
330
47
102
}
330
47
100
AcDbScale
 70
     0
300
1:30
140
1.0
141
30.0
290
     0
  0
SCALE
  5
51
102
{ACAD_REACTORS
330
47
102
}
330
47
100
AcDbScale
 70
     0
300
1:40
140
1.0
141
40.0
290
     0
  0
SCALE
  5
52
102
{ACAD_REACTORS
330
47
102
}
330
47
100
AcDbScale
 70
     0
300
1:50
140
1.0
141
50.0
290
     0
  0
SCALE
  5
53
102
{ACAD_REACTORS
330
47
102
}
330
47
100
AcDbScale
 70
     0
300
1:100
140
1.0
141
100.0
290
     0
  0
SCALE
  5
54
102
{ACAD_REACTORS
330
47
102
}
330
47
100
AcDbScale
 70
     0
300
2:1
140
2.0
141
1.0
290
     0
  0
SCALE
  5
55
102
{ACAD_REACTORS
330
47
102
}
330
47
100
AcDbScale
 70
     0
300
4:1
140
4.0
141
1.0
290
     0
  0
SCALE
  5
56
102
{ACAD_REACTORS
330
47
102
}
330
47
100
AcDbScale
 70
     0
300
8:1
140
8.0
141
1.0
290
     0
  0
SCALE
  5
57
102
{ACAD_REACTORS
330
47
102
}
330
47
100
AcDbScale
 70
     0
300
10:1
140
10.0
141
1.0
290
     0
  0
SCALE
  5
58
102
{ACAD_REACTORS
330
47
102
}
330
47
100
AcDbScale
 70
     0
300
100:1
140
100.0
141
1.0
290
     0
  0
SCALE
  5
59
102
{ACAD_REACTORS
330
47
102
}
330
47
100
AcDbScale
 70
     0
300
1/128" = 1'-0"
140
0.0078125
141
12.0
290
     0
  0
SCALE
  5
5A
102
{ACAD_REACTORS
330
47
102
}
330
47
100
AcDbScale
 70
     0
300
1/64" = 1'-0"
140
0.015625
141
12.0
290
     0
  0
SCALE
  5
5B
102
{ACAD_REACTORS
330
47
102
}
330
47
100
AcDbScale
 70
     0
300
1/32" = 1'-0"
140
0.03125
141
12.0
290
     0
  0
SCALE
  5
5C
102
{ACAD_REACTORS
330
47
102
}
330
47
100
AcDbScale
 70
     0
300
1/16" = 1'-0"
140
0.0625
141
12.0
290
     0
  0
SCALE
  5
5D
102
{ACAD_REACTORS
330
47
102
}
330
47
100
AcDbScale
 70
     0
300
3/32" = 1'-0"
140
0.09375
141
12.0
290
     0
  0
SCALE
  5
5E
102
{ACAD_REACTORS
330
47
102
}
330
47
100
AcDbScale
 70
     0
300
1/8" = 1'-0"
140
0.125
141
12.0
290
     0
  0
SCALE
  5
5F
102
{ACAD_REACTORS
330
47
102
}
330
47
100
AcDbScale
 70
     0
300
3/16" = 1'-0"
140
0.1875
141
12.0
290
     0
  0
SCALE
  5
60
102
{ACAD_REACTORS
330
47
102
}
330
47
100
AcDbScale
 70
     0
300
1/4" = 1'-0"
140
0.25
141
12.0
290
     0
  0
SCALE
  5
61
102
{ACAD_REACTORS
330
47
102
}
330
47
100
AcDbScale
 70
     0
300
3/8" = 1'-0"
140
0.375
141
12.0
290
     0
  0
SCALE
  5
62
102
{ACAD_REACTORS
330
47
102
}
330
47
100
AcDbScale
 70
     0
300
1/2" = 1'-0"
140
0.5
141
12.0
290
     0
  0
SCALE
  5
63
102
{ACAD_REACTORS
330
47
102
}
330
47
100
AcDbScale
 70
     0
300
3/4" = 1'-0"
140
0.75
141
12.0
290
     0
  0
SCALE
  5
64
102
{ACAD_REACTORS
330
47
102
}
330
47
100
AcDbScale
 70
     0
300
1" = 1'-0"
140
1.0
141
12.0
290
     0
  0
SCALE
  5
65
102
{ACAD_REACTORS
330
47
102
}
330
47
100
AcDbScale
 70
     0
300
1-1/2" = 1'-0"
140
1.5
141
12.0
290
     0
  0
SCALE
  5
66
102
{ACAD_REACTORS
330
47
102
}
330
47
100
AcDbScale
 70
     0
300
3" = 1'-0"
140
3.0
141
12.0
290
     0
  0
SCALE
  5
67
102
{ACAD_REACTORS
330
47
102
}
330
47
100
AcDbScale
 70
     0
300
6" = 1'-0"
140
6.0
141
12.0
290
     0
  0
SCALE
  5
68
102
{ACAD_REACTORS
330
47
102
}
330
47
100
AcDbScale
 70
     0
300
1'-0" = 1'-0"
140
12.0
141
12.0
290
     0
  0
ENDSEC
  0
EOF
