  0
SECTION
  2
HEADER
  9
$ACADVER
  1
AC1018
  9
$ACADMAINTVER
 70
    39
  9
$DWGCODEPAGE
  3
ANSI_1252
  9
$LASTSAVEDBY
  1
fottrem
  9
$INSBASE
 10
0.0
 20
0.0
 30
0.0
  9
$EXTMIN
 10
0.1653543307086614
 20
0.1653543307086614
 30
-1.499999999999997
  9
$EXTMAX
 10
89.83464566929135
 20
119.8346456692913
 30
9.750000000000005
  9
$LIMMIN
 10
0.0
 20
0.0
  9
$LIMMAX
 10
90.0
 20
120.0
  9
$ORTHOMODE
 70
     0
  9
$REGENMODE
 70
     1
  9
$FILLMODE
 70
     1
  9
$QTEXTMODE
 70
     0
  9
$MIRRTEXT
 70
     1
  9
$LTSCALE
 40
1.0
  9
$ATTMODE
 70
     1
  9
$TEXTSIZE
 40
0.5
  9
$TRACEWID
 40
0.05
  9
$TEXTSTYLE
  7
Standard
  9
$CLAYER
  8
0
  9
$CELTYPE
  6
ByLayer
  9
$CECOLOR
 62
   256
  9
$CELTSCALE
 40
1.0
  9
$DISPSILH
 70
     0
  9
$DIMSCALE
 40
1.0
  9
$DIMASZ
 40
0.3
  9
$DIMEXO
 40
0.1666666666666667
  9
$DIMDLI
 40
0.38
  9
$DIMRND
 40
0.0
  9
$DIMDLE
 40
0.0
  9
$DIMEXE
 40
0.3750000000000001
  9
$DIMTP
 40
0.0
  9
$DIMTM
 40
0.0
  9
$DIMTXT
 40
0.5
  9
$DIMCEN
 40
0.09
  9
$DIMTSZ
 40
0.0
  9
$DIMTOL
 70
     0
  9
$DIMLIM
 70
     0
  9
$DIMTIH
 70
     1
  9
$DIMTOH
 70
     1
  9
$DIMSE1
 70
     0
  9
$DIMSE2
 70
     0
  9
$DIMTAD
 70
     0
  9
$DIMZIN
 70
     1
  9
$DIMBLK
  1

  9
$DIMASO
 70
     1
  9
$DIMSHO
 70
     1
  9
$DIMPOST
  1

  9
$DIMAPOST
  1

  9
$DIMALT
 70
     0
  9
$DIMALTD
 70
     2
  9
$DIMALTF
 40
25.4
  9
$DIMLFAC
 40
1.0
  9
$DIMTOFL
 70
     0
  9
$DIMTVP
 40
0.0
  9
$DIMTIX
 70
     0
  9
$DIMSOXD
 70
     0
  9
$DIMSAH
 70
     0
  9
$DIMBLK1
  1

  9
$DIMBLK2
  1

  9
$DIMSTYLE
  2
Standard
  9
$DIMCLRD
 70
     0
  9
$DIMCLRE
 70
     0
  9
$DIMCLRT
 70
     0
  9
$DIMTFAC
 40
1.0
  9
$DIMGAP
 40
0.125
  9
$DIMJUST
 70
     0
  9
$DIMSD1
 70
     0
  9
$DIMSD2
 70
     0
  9
$DIMTOLJ
 70
     1
  9
$DIMTZIN
 70
     1
  9
$DIMALTZ
 70
     0
  9
$DIMALTTZ
 70
     0
  9
$DIMUPT
 70
     0
  9
$DIMDEC
 70
     2
  9
$DIMTDEC
 70
     2
  9
$DIMALTU
 70
     2
  9
$DIMALTTD
 70
     2
  9
$DIMTXSTY
  7
Standard
  9
$DIMAUNIT
 70
     0
  9
$DIMADEC
 70
     2
  9
$DIMALTRND
 40
0.0
  9
$DIMAZIN
 70
     0
  9
$DIMDSEP
 70
    46
  9
$DIMATFIT
 70
     3
  9
$DIMFRAC
 70
     0
  9
$DIMLDRBLK
  1

  9
$DIMLUNIT
 70
     2
  9
$DIMLWD
 70
    -2
  9
$DIMLWE
 70
    -2
  9
$DIMTMOVE
 70
     0
  9
$LUNITS
 70
     2
  9
$LUPREC
 70
     4
  9
$SKETCHINC
 40
0.1
  9
$FILLETRAD
 40
0.5
  9
$AUNITS
 70
     0
  9
$AUPREC
 70
     2
  9
$MENU
  1
.
  9
$ELEVATION
 40
0.0
  9
$PELEVATION
 40
0.0
  9
$THICKNESS
 40
0.0
  9
$LIMCHECK
 70
     0
  9
$CHAMFERA
 40
0.0
  9
$CHAMFERB
 40
0.0
  9
$CHAMFERC
 40
0.0
  9
$CHAMFERD
 40
0.0
  9
$SKPOLY
 70
     0
  9
$TDCREATE
 40
2453353.550459155
  9
$TDUCREATE
 40
2453353.717125822
  9
$TDUPDATE
 40
2459507.67052331
  9
$TDUUPDATE
 40
2459507.837189977
  9
$TDINDWG
 40
0.043344919
  9
$TDUSRTIMER
 40
0.043344919
  9
$USRTIMER
 70
     1
  9
$ANGBASE
 50
0.0
  9
$ANGDIR
 70
     0
  9
$PDMODE
 70
     0
  9
$PDSIZE
 40
-1.0
  9
$PLINEWID
 40
0.0
  9
$SPLFRAME
 70
     0
  9
$SPLINETYPE
 70
     6
  9
$SPLINESEGS
 70
     8
  9
$HANDSEED
  5
3BA
  9
$SURFTAB1
 70
     6
  9
$SURFTAB2
 70
     6
  9
$SURFTYPE
 70
     6
  9
$SURFU
 70
     6
  9
$SURFV
 70
     6
  9
$UCSBASE
  2

  9
$UCSNAME
  2

  9
$UCSORG
 10
0.0
 20
0.0
 30
0.0
  9
$UCSXDIR
 10
1.0
 20
0.0
 30
0.0
  9
$UCSYDIR
 10
0.0
 20
1.0
 30
0.0
  9
$UCSORTHOREF
  2

  9
$UCSORTHOVIEW
 70
     0
  9
$UCSORGTOP
 10
0.0
 20
0.0
 30
0.0
  9
$UCSORGBOTTOM
 10
0.0
 20
0.0
 30
0.0
  9
$UCSORGLEFT
 10
0.0
 20
0.0
 30
0.0
  9
$UCSORGRIGHT
 10
0.0
 20
0.0
 30
0.0
  9
$UCSORGFRONT
 10
0.0
 20
0.0
 30
0.0
  9
$UCSORGBACK
 10
0.0
 20
0.0
 30
0.0
  9
$PUCSBASE
  2

  9
$PUCSNAME
  2

  9
$PUCSORG
 10
0.0
 20
0.0
 30
0.0
  9
$PUCSXDIR
 10
1.0
 20
0.0
 30
0.0
  9
$PUCSYDIR
 10
0.0
 20
1.0
 30
0.0
  9
$PUCSORTHOREF
  2

  9
$PUCSORTHOVIEW
 70
     0
  9
$PUCSORGTOP
 10
0.0
 20
0.0
 30
0.0
  9
$PUCSORGBOTTOM
 10
0.0
 20
0.0
 30
0.0
  9
$PUCSORGLEFT
 10
0.0
 20
0.0
 30
0.0
  9
$PUCSORGRIGHT
 10
0.0
 20
0.0
 30
0.0
  9
$PUCSORGFRONT
 10
0.0
 20
0.0
 30
0.0
  9
$PUCSORGBACK
 10
0.0
 20
0.0
 30
0.0
  9
$USERI1
 70
     0
  9
$USERI2
 70
     0
  9
$USERI3
 70
     0
  9
$USERI4
 70
     0
  9
$USERI5
 70
     0
  9
$USERR1
 40
0.0
  9
$USERR2
 40
0.0
  9
$USERR3
 40
0.0
  9
$USERR4
 40
0.0
  9
$USERR5
 40
0.0
  9
$WORLDVIEW
 70
     1
  9
$SHADEDGE
 70
     3
  9
$SHADEDIF
 70
    70
  9
$TILEMODE
 70
     1
  9
$MAXACTVP
 70
    64
  9
$PINSBASE
 10
0.0
 20
0.0
 30
0.0
  9
$PLIMCHECK
 70
     0
  9
$PEXTMIN
 10
1.000000000000000E+20
 20
1.000000000000000E+20
 30
1.000000000000000E+20
  9
$PEXTMAX
 10
-1.000000000000000E+20
 20
-1.000000000000000E+20
 30
-1.000000000000000E+20
  9
$PLIMMIN
 10
0.0
 20
0.0
  9
$PLIMMAX
 10
12.0
 20
9.0
  9
$UNITMODE
 70
     0
  9
$VISRETAIN
 70
     1
  9
$PLINEGEN
 70
     0
  9
$PSLTSCALE
 70
     1
  9
$TREEDEPTH
 70
  3020
  9
$CMLSTYLE
  2
Standard
  9
$CMLJUST
 70
     0
  9
$CMLSCALE
 40
1.0
  9
$PROXYGRAPHICS
 70
     1
  9
$MEASUREMENT
 70
     0
  9
$CELWEIGHT
370
    -1
  9
$ENDCAPS
280
     0
  9
$JOINSTYLE
280
     0
  9
$LWDISPLAY
290
     1
  9
$INSUNITS
 70
     1
  9
$HYPERLINKBASE
  1

  9
$STYLESHEET
  1

  9
$XEDIT
290
     0
  9
$CEPSNTYPE
380
     0
  9
$PSTYLEMODE
290
     1
  9
$FINGERPRINTGUID
  2
{42f5213c-c259-496d-8cce-bb28c42eb391}
  9
$VERSIONGUID
  2
{FAEB1C32-E019-11D5-929B-00C0DF256EC4}
  9
$EXTNAMES
290
     1
  9
$PSVPSCALE
 40
0.0
  9
$OLESTARTUP
290
     0
  9
$SORTENTS
280
   127
  9
$INDEXCTL
280
     0
  9
$HIDETEXT
280
     1
  9
$XCLIPFRAME
290
     0
  9
$HALOGAP
280
     0
  9
$OBSCOLOR
 70
   257
  9
$OBSLTYPE
280
     0
  9
$INTERSECTIONDISPLAY
280
     0
  9
$INTERSECTIONCOLOR
 70
   257
  9
$DIMASSOC
280
     2
  9
$PROJECTNAME
  1

  0
ENDSEC
  0
SECTION
  2
CLASSES
  0
CLASS
  1
ACDBDICTIONARYWDFLT
  2
AcDbDictionaryWithDefault
  3
ObjectDBX Classes
 90
        0
 91
        3
280
     0
281
     0
  0
CLASS
  1
ACDBPLACEHOLDER
  2
AcDbPlaceHolder
  3
ObjectDBX Classes
 90
        0
 91
        1
280
     0
281
     0
  0
CLASS
  1
LAYOUT
  2
AcDbLayout
  3
ObjectDBX Classes
 90
        0
 91
        1
280
     0
281
     0
  0
CLASS
  1
DICTIONARYVAR
  2
AcDbDictionaryVar
  3
ObjectDBX Classes
 90
        0
 91
        3
280
     0
281
     0
  0
CLASS
  1
TABLESTYLE
  2
AcDbTableStyle
  3
ObjectDBX Classes
 90
     2047
 91
        3
280
     0
281
     0
  0
CLASS
  1
SCALE
  2
AcDbScale
  3
ObjectDBX Classes
 90
     1153
 91
       67
280
     1
281
     0
  0
ENDSEC
  0
SECTION
  2
TABLES
  0
TABLE
  2
VPORT
  5
8
330
0
100
AcDbSymbolTable
 70
     2
  0
VPORT
  5
97
330
8
100
AcDbSymbolTableRecord
100
AcDbViewportTableRecord
  2
*Active
 70
     0
 10
0.0
 20
0.0
 11
1.0
 21
1.0
 12
43.1494087882328
 22
41.99704991223228
 13
0.0
 23
0.0
 14
0.5
 24
0.5
 15
0.5
 25
0.5
 16
0.0
 26
0.0
 36
1.0
 17
0.0
 27
0.0
 37
0.0
 40
62.85920643560549
 41
0.75
 42
50.0
 43
0.0
 44
0.0
 50
0.0
 51
0.0
 71
    16
 72
  2000
 73
     1
 74
     1
 75
     0
 76
     0
 77
     0
 78
     0
281
     0
 65
     0
110
0.0
120
0.0
130
0.0
111
1.0
121
0.0
131
0.0
112
0.0
122
1.0
132
0.0
 79
     0
146
0.0
  0
ENDTAB
  0
TABLE
  2
LTYPE
  5
5
330
0
100
AcDbSymbolTable
 70
     8
  0
LTYPE
  5
14
330
5
100
AcDbSymbolTableRecord
100
AcDbLinetypeTableRecord
  2
ByBlock
 70
     0
  3

 72
    65
 73
     0
 40
0.0
  0
LTYPE
  5
15
330
5
100
AcDbSymbolTableRecord
100
AcDbLinetypeTableRecord
  2
ByLayer
 70
     0
  3

 72
    65
 73
     0
 40
0.0
  0
LTYPE
  5
16
330
5
100
AcDbSymbolTableRecord
100
AcDbLinetypeTableRecord
  2
Continuous
 70
     0
  3
Solid line
 72
    65
 73
     0
 40
0.0
  0
LTYPE
  5
387
330
5
100
AcDbSymbolTableRecord
100
AcDbLinetypeTableRecord
  2
SLD-Solid
 70
     0
  3
SolidWorks Line Style
 72
    65
 73
     0
 40
0.0
  0
LTYPE
  5
388
330
5
100
AcDbSymbolTableRecord
100
AcDbLinetypeTableRecord
  2
SLD-Dashed
 70
     0
  3
SolidWorks Line Style
 72
    65
 73
     2
 40
0.075
 49
0.05
 74
     4
 75
     0
340
0
 46
1.0
 50
0.0
 44
0.0
 45
0.0
 49
-0.025
 74
     4
 75
     0
340
0
 46
1.0
 50
0.0
 44
0.0
 45
0.0
  0
LTYPE
  5
389
330
5
100
AcDbSymbolTableRecord
100
AcDbLinetypeTableRecord
  2
SLD-Phantom
 70
     0
  3
SolidWorks Line Style
 72
    65
 73
     6
 40
0.4999999999999999
 49
0.25
 74
     4
 75
     0
340
0
 46
1.0
 50
0.0
 44
0.0
 45
0.0
 49
-0.05
 74
     4
 75
     0
340
0
 46
1.0
 50
0.0
 44
0.0
 45
0.0
 49
0.05
 74
     4
 75
     0
340
0
 46
1.0
 50
0.0
 44
0.0
 45
0.0
 49
-0.05
 74
     4
 75
     0
340
0
 46
1.0
 50
0.0
 44
0.0
 45
0.0
 49
0.05
 74
     4
 75
     0
340
0
 46
1.0
 50
0.0
 44
0.0
 45
0.0
 49
-0.05
 74
     4
 75
     0
340
0
 46
1.0
 50
0.0
 44
0.0
 45
0.0
  0
LTYPE
  5
38A
330
5
100
AcDbSymbolTableRecord
100
AcDbLinetypeTableRecord
  2
SLD-Chain
 70
     0
  3
SolidWorks Line Style
 72
    65
 73
     4
 40
0.4
 49
0.25
 74
     4
 75
     0
340
0
 46
1.0
 50
0.0
 44
0.0
 45
0.0
 49
-0.05
 74
     4
 75
     0
340
0
 46
1.0
 50
0.0
 44
0.0
 45
0.0
 49
0.05
 74
     4
 75
     0
340
0
 46
1.0
 50
0.0
 44
0.0
 45
0.0
 49
-0.05
 74
     4
 75
     0
340
0
 46
1.0
 50
0.0
 44
0.0
 45
0.0
  0
LTYPE
  5
38B
330
5
100
AcDbSymbolTableRecord
100
AcDbLinetypeTableRecord
  2
SLD-Center
 70
     0
  3
SolidWorks Line Style
 72
    65
 73
     4
 40
0.7500000000000002
 49
0.6000000000000001
 74
     4
 75
     0
340
0
 46
1.0
 50
0.0
 44
0.0
 45
0.0
 49
-0.05
 74
     4
 75
     0
340
0
 46
1.0
 50
0.0
 44
0.0
 45
0.0
 49
0.05
 74
     4
 75
     0
340
0
 46
1.0
 50
0.0
 44
0.0
 45
0.0
 49
-0.05
 74
     4
 75
     0
340
0
 46
1.0
 50
0.0
 44
0.0
 45
0.0
  0
LTYPE
  5
38C
330
5
100
AcDbSymbolTableRecord
100
AcDbLinetypeTableRecord
  2
SLD-Stitch
 70
     0
  3
SolidWorks Line Style
 72
    65
 73
     2
 40
0.025
 49
0.0
 74
     4
 75
     0
340
0
 46
1.0
 50
0.0
 44
0.0
 45
0.0
 49
-0.025
 74
     4
 75
     0
340
0
 46
1.0
 50
0.0
 44
0.0
 45
0.0
  0
LTYPE
  5
38D
330
5
100
AcDbSymbolTableRecord
100
AcDbLinetypeTableRecord
  2
SLD-Thin-Thick-Chain
 70
     0
  3
SolidWorks Line Style
 72
    65
 73
     4
 40
0.4
 49
0.25
 74
     4
 75
     0
340
0
 46
1.0
 50
0.0
 44
0.0
 45
0.0
 49
-0.05
 74
     4
 75
     0
340
0
 46
1.0
 50
0.0
 44
0.0
 45
0.0
 49
0.05
 74
     4
 75
     0
340
0
 46
1.0
 50
0.0
 44
0.0
 45
0.0
 49
-0.05
 74
     4
 75
     0
340
0
 46
1.0
 50
0.0
 44
0.0
 45
0.0
  0
ENDTAB
  0
TABLE
  2
LAYER
  5
2
330
0
100
AcDbSymbolTable
 70
     6
  0
LAYER
  5
10
330
2
100
AcDbSymbolTableRecord
100
AcDbLayerTableRecord
  2
0
 70
     0
 62
     7
  6
Continuous
370
    -3
390
F
  0
LAYER
  5
38E
330
2
100
AcDbSymbolTableRecord
100
AcDbLayerTableRecord
  2
FORMAT
 70
     0
 62
     7
  6
SLD-Solid
370
    -3
390
F
  0
LAYER
  5
38F
330
2
100
AcDbSymbolTableRecord
100
AcDbLayerTableRecord
  2
NOTES
 70
     0
 62
     1
  6
SLD-Solid
370
    -3
390
F
  0
LAYER
  5
77
330
2
100
AcDbSymbolTableRecord
100
AcDbLayerTableRecord
  2
OBJECT
 70
     0
 62
     7
  6
SLD-Solid
370
    25
390
F
  0
LAYER
  5
78
330
2
100
AcDbSymbolTableRecord
100
AcDbLayerTableRecord
  2
DIMS
 70
     0
 62
     5
  6
SLD-Solid
370
    -3
390
F
  0
LAYER
  5
79
330
2
100
AcDbSymbolTableRecord
100
AcDbLayerTableRecord
  2
TITLE
 70
     0
 62
     8
  6
SLD-Solid
370
    -3
390
F
  0
ENDTAB
  0
TABLE
  2
STYLE
  5
3
330
0
100
AcDbSymbolTable
 70
     5
  0
STYLE
  5
11
330
3
100
AcDbSymbolTableRecord
100
AcDbTextStyleTableRecord
  2
Standard
 70
     0
 40
0.0
 41
1.0
 50
0.0
 71
     0
 42
0.5
  3
GOTHIC.TTF
  4

1001
ACAD
1000
CENTURY GOTHIC
1071
       34
  0
STYLE
  5
15E
330
3
100
AcDbSymbolTableRecord
100
AcDbTextStyleTableRecord
  2
SLDTEXTSTYLE0
 70
     0
 40
0.0
 41
0.948
 50
0.0
 71
     0
 42
0.5
  3
ARIAL.TTF
  4

1001
ACAD
1000
Arial
1071
      290
  0
STYLE
  5
162
330
3
100
AcDbSymbolTableRecord
100
AcDbTextStyleTableRecord
  2
SLDTEXTSTYLE1
 70
     0
 40
0.0
 41
0.913
 50
0.0
 71
     0
 42
0.5
  3
GOTHIC.TTF
  4

1001
ACAD
1000
Century Gothic
1071
      290
  0
STYLE
  5
171
330
3
100
AcDbSymbolTableRecord
100
AcDbTextStyleTableRecord
  2
SLDTEXTSTYLE2
 70
     0
 40
0.0
 41
0.87
 50
0.0
 71
     0
 42
0.5
  3
ARIALNB.TTF
  4

1001
ACAD
1000
Arial Narrow
1071
 33554722
  0
STYLE
  5
173
330
3
100
AcDbSymbolTableRecord
100
AcDbTextStyleTableRecord
  2
SLDTEXTSTYLE3
 70
     0
 40
0.0
 41
0.87
 50
0.0
 71
     0
 42
0.5
  3
ARIALN.TTF
  4

1001
ACAD
1000
Arial Narrow
1071
      290
  0
ENDTAB
  0
TABLE
  2
VIEW
  5
6
330
0
100
AcDbSymbolTable
 70
     0
  0
ENDTAB
  0
TABLE
  2
UCS
  5
7
330
0
100
AcDbSymbolTable
 70
     0
  0
ENDTAB
  0
TABLE
  2
APPID
  5
9
330
0
100
AcDbSymbolTable
 70
     1
  0
APPID
  5
12
330
9
100
AcDbSymbolTableRecord
100
AcDbRegAppTableRecord
  2
ACAD
 70
     0
  0
ENDTAB
  0
TABLE
  2
DIMSTYLE
  5
A
330
0
100
AcDbSymbolTable
 70
     7
100
AcDbDimStyleTable
  0
DIMSTYLE
105
27
330
A
100
AcDbSymbolTableRecord
100
AcDbDimStyleTableRecord
  2
Standard
 70
     0
340
11
  0
DIMSTYLE
105
27B
102
{ACAD_REACTORS
330
27A
330
28C
330
297
330
2A1
102
}
330
A
100
AcDbSymbolTableRecord
100
AcDbDimStyleTableRecord
  2
SLDDIMSTYLE0
 70
     0
 41
0.3
 44
0.0
 45
0.000000001
 78
    12
 79
     3
140
0.5
147
0.125
173
     1
271
     2
272
     2
276
     2
277
     5
284
    12
340
162
341
390
343
390
344
390
  0
DIMSTYLE
105
2AB
102
{ACAD_REACTORS
330
2AA
102
}
330
A
100
AcDbSymbolTableRecord
100
AcDbDimStyleTableRecord
  2
SLDDIMSTYLE1
 70
     0
 41
0.3
 44
0.0
 45
0.000000001
 78
    12
 79
     3
140
0.5
141
0.0
147
0.125
173
     1
271
     2
272
     2
276
     2
277
     5
284
    12
340
162
341
390
343
390
344
390
  0
DIMSTYLE
105
2BF
330
A
100
AcDbSymbolTableRecord
100
AcDbDimStyleTableRecord
  2
SLDDIMSTYLE2
 70
     0
 41
0.3
 44
0.0
 45
0.000000001
146
0.3
147
0.0
173
     1
271
     0
272
     0
276
     2
277
     5
340
11
341
390
343
390
344
390
  0
DIMSTYLE
105
2C5
330
A
100
AcDbSymbolTableRecord
100
AcDbDimStyleTableRecord
  2
SLDDIMSTYLE3
 70
     0
 41
0.0666666666666667
 44
0.0
 45
0.000000001
146
0.2
147
0.0
173
     1
271
     0
272
     0
276
     2
277
     5
340
11
341
396
343
396
344
396
  0
DIMSTYLE
105
2F4
102
{ACAD_REACTORS
330
2F3
102
}
330
A
100
AcDbSymbolTableRecord
100
AcDbDimStyleTableRecord
  2
SLDDIMSTYLE4
 70
     0
 41
0.3
 44
0.0
 45
0.000000001
 78
    12
 79
     3
140
0.5
147
0.125
172
     1
173
     1
271
     6
272
     2
276
     2
277
     5
284
    12
289
     0
340
162
341
390
343
390
344
390
  0
DIMSTYLE
105
303
102
{ACAD_REACTORS
330
302
102
}
330
A
100
AcDbSymbolTableRecord
100
AcDbDimStyleTableRecord
  2
SLDDIMSTYLE5
 70
     0
 41
0.3
 44
0.0
 45
0.000000001
 78
    12
 79
     3
140
0.5
147
0.125
173
     1
271
     6
272
     2
276
     2
277
     5
284
    12
340
162
341
390
343
390
344
390
  0
ENDTAB
  0
TABLE
  2
BLOCK_RECORD
  5
1
330
0
100
AcDbSymbolTable
 70
    14
  0
BLOCK_RECORD
  5
1F
330
1
100
AcDbSymbolTableRecord
100
AcDbBlockTableRecord
  2
*Model_Space
340
22
  0
BLOCK_RECORD
  5
73
330
1
100
AcDbSymbolTableRecord
100
AcDbBlockTableRecord
  2
*Paper_Space
340
74
  0
BLOCK_RECORD
  5
390
330
1
100
AcDbSymbolTableRecord
100
AcDbBlockTableRecord
  2
_Open90
340
0
102
{BLKREFS
331
285
331
286
331
290
331
291
331
29B
331
29C
331
2A5
331
2A6
331
2AF
331
2F8
331
2F9
331
307
331
308
102
}
  0
BLOCK_RECORD
  5
396
330
1
100
AcDbSymbolTableRecord
100
AcDbBlockTableRecord
  2
_Origin
340
0
  0
BLOCK_RECORD
  5
23
330
1
100
AcDbSymbolTableRecord
100
AcDbBlockTableRecord
  2
*Paper_Space2
340
26
  0
BLOCK_RECORD
  5
168
330
1
100
AcDbSymbolTableRecord
100
AcDbBlockTableRecord
  2
SW_NOTE_0
340
0
102
{BLKREFS
331
16D
102
}
  0
BLOCK_RECORD
  5
16E
330
1
100
AcDbSymbolTableRecord
100
AcDbBlockTableRecord
  2
SW_NOTE_0_1
340
0
102
{BLKREFS
331
177
102
}
  0
BLOCK_RECORD
  5
282
330
1
100
AcDbSymbolTableRecord
100
AcDbBlockTableRecord
  2
_D
340
0
  0
BLOCK_RECORD
  5
28D
330
1
100
AcDbSymbolTableRecord
100
AcDbBlockTableRecord
  2
_D_1
340
0
  0
BLOCK_RECORD
  5
298
330
1
100
AcDbSymbolTableRecord
100
AcDbBlockTableRecord
  2
_D_2
340
0
  0
BLOCK_RECORD
  5
2A2
330
1
100
AcDbSymbolTableRecord
100
AcDbBlockTableRecord
  2
_D_3
340
0
  0
BLOCK_RECORD
  5
2AC
330
1
100
AcDbSymbolTableRecord
100
AcDbBlockTableRecord
  2
_D_4
340
0
  0
BLOCK_RECORD
  5
2B9
330
1
100
AcDbSymbolTableRecord
100
AcDbBlockTableRecord
  2
SW_NOTE_0_2
340
0
102
{BLKREFS
331
2BE
102
}
  0
BLOCK_RECORD
  5
2F5
330
1
100
AcDbSymbolTableRecord
100
AcDbBlockTableRecord
  2
_D_5
340
0
  0
BLOCK_RECORD
  5
304
330
1
100
AcDbSymbolTableRecord
100
AcDbBlockTableRecord
  2
_D_6
340
0
  0
BLOCK_RECORD
  5
350
330
1
100
AcDbSymbolTableRecord
100
AcDbBlockTableRecord
  2
SW_NOTE_0_3
340
0
  0
ENDTAB
  0
ENDSEC
  0
SECTION
  2
BLOCKS
  0
BLOCK
  5
20
330
1F
100
AcDbEntity
  8
0
100
AcDbBlockBegin
  2
*Model_Space
 70
     0
 71
     0
 10
0.0
 20
0.0
 30
0.0
  3
*Model_Space
  1

  0
ENDBLK
  5
21
330
1F
100
AcDbEntity
  8
0
100
AcDbBlockEnd
  0
BLOCK
  5
75
330
73
100
AcDbEntity
 67
     1
  8
0
100
AcDbBlockBegin
  2
*Paper_Space
 70
     0
 71
     0
 10
0.0
 20
0.0
 30
0.0
  3
*Paper_Space
  1

  0
ENDBLK
  5
76
330
73
100
AcDbEntity
 67
     1
  8
0
100
AcDbBlockEnd
  0
BLOCK
  5
391
330
390
100
AcDbEntity
  8
0
100
AcDbBlockBegin
  2
_Open90
 70
     0
 71
     0
 10
0.0
 20
0.0
 30
0.0
  3
_Open90
  1

  0
LINE
  5
27F
330
390
100
AcDbEntity
  8
0
  6
ByBlock
 62
     0
370
    -2
100
AcDbLine
 10
-0.5
 20
0.5
 30
0.0
 11
0.0
 21
0.0
 31
0.0
  0
LINE
  5
280
330
390
100
AcDbEntity
  8
0
  6
ByBlock
 62
     0
370
    -2
100
AcDbLine
 10
0.0
 20
0.0
 30
0.0
 11
-0.5
 21
-0.5
 31
0.0
  0
LINE
  5
281
330
390
100
AcDbEntity
  8
0
  6
ByBlock
 62
     0
370
    -2
100
AcDbLine
 10
0.0
 20
0.0
 30
0.0
 11
-1.0
 21
0.0
 31
0.0
  0
ENDBLK
  5
392
330
390
100
AcDbEntity
  8
0
100
AcDbBlockEnd
  0
BLOCK
  5
397
330
396
100
AcDbEntity
  8
0
100
AcDbBlockBegin
  2
_Origin
 70
     0
 71
     0
 10
0.0
 20
0.0
 30
0.0
  3
_Origin
  1

  0
CIRCLE
  5
2C9
330
396
100
AcDbEntity
  8
0
  6
ByBlock
 62
     0
370
    -2
100
AcDbCircle
 10
0.0
 20
0.0
 30
0.0
 40
0.5
  0
LINE
  5
2CA
330
396
100
AcDbEntity
  8
0
  6
ByBlock
 62
     0
370
    -2
100
AcDbLine
 10
0.0
 20
0.0
 30
0.0
 11
-1.0
 21
0.0
 31
0.0
  0
ENDBLK
  5
398
330
396
100
AcDbEntity
  8
0
100
AcDbBlockEnd
  0
BLOCK
  5
39E
330
23
100
AcDbEntity
  8
0
100
AcDbBlockBegin
  2
*Paper_Space2
 70
     0
 71
     0
 10
0.0
 20
0.0
 30
0.0
  3
*Paper_Space2
  1

  0
ENDBLK
  5
39F
330
23
100
AcDbEntity
  8
0
100
AcDbBlockEnd
  0
BLOCK
  5
3A0
330
168
100
AcDbEntity
  8
0
100
AcDbBlockBegin
  2
SW_NOTE_0
 70
     0
 71
     0
 10
0.0
 20
0.0
 30
0.0
  3
SW_NOTE_0
  1

  0
MTEXT
  5
16B
330
168
100
AcDbEntity
  8
NOTES
 62
     0
100
AcDbMText
 10
0.0
 20
0.3759780907668229
 30
0.0
 40
0.2916666666666666
 41
0.0
 71
     1
 72
     1
  1
FROST PRODUCTS LTD.
  7
SLDTEXTSTYLE0
 73
     1
 44
1.0
  0
MTEXT
  5
16C
330
168
100
AcDbEntity
  8
NOTES
 62
     0
100
AcDbMText
 10
0.0
 20
-0.0495142708586375
 30
0.0
 40
0.2291666666666666
 41
0.0
 71
     1
 72
     1
  1
5280 JOHN LUCAS DRIVE, BURLINGTON, ON, L7L 5Z9
  7
SLDTEXTSTYLE0
 73
     1
 44
1.0
  0
ENDBLK
  5
3A1
330
168
100
AcDbEntity
  8
0
100
AcDbBlockEnd
  0
BLOCK
  5
3A2
330
16E
100
AcDbEntity
  8
0
100
AcDbBlockBegin
  2
SW_NOTE_0_1
 70
     0
 71
     0
 10
0.0
 20
0.0
 30
0.0
  3
SW_NOTE_0_1
  1

  0
MTEXT
  5
172
330
16E
100
AcDbEntity
  8
NOTES
 62
     0
100
AcDbMText
 10
0.0
 20
0.2381282770514712
 30
0.0
 40
0.1847290640394089
 41
0.0
 71
     1
 72
     1
  1
PROPRIETARY AND CONFIDENTIAL
  7
SLDTEXTSTYLE2
 73
     1
 44
1.0
  0
MTEXT
  5
174
330
16E
100
AcDbEntity
  8
NOTES
 62
     0
100
AcDbMText
 10
0.0
 20
-0.0504364795553608
 30
0.0
 40
0.25
 41
0.0
 71
     1
 72
     1
  1
THE INFORMATION CONTAINED IN THIS DRAWING IS THE SOLE PROPERTY OF 
  7
SLDTEXTSTYLE3
 73
     1
 44
1.0
  0
MTEXT
  5
175
330
16E
100
AcDbEntity
  8
NOTES
 62
     0
100
AcDbMText
 10
0.0
 20
-0.4231398940537119
 30
0.0
 40
0.25
 41
0.0
 71
     1
 72
     1
  1
FROST PRODUCTS LTD.  ANY REPRODUCTION IN PART OR AS A WHOLE WITHOUT 
  7
SLDTEXTSTYLE3
 73
     1
 44
1.0
  0
MTEXT
  5
176
330
16E
100
AcDbEntity
  8
NOTES
 62
     0
100
AcDbMText
 10
0.0
 20
-0.7958433085520636
 30
0.0
 40
0.25
 41
0.0
 71
     1
 72
     1
  1
THE WRITTEN PERMISSION OF FROST PRODUCTS LTD. IS PROHIBITED.
  7
SLDTEXTSTYLE3
 73
     1
 44
1.0
  0
ENDBLK
  5
3A3
330
16E
100
AcDbEntity
  8
0
100
AcDbBlockEnd
  0
BLOCK
  5
3A4
330
282
100
AcDbEntity
  8
0
100
AcDbBlockBegin
  2
_D
 70
     0
 71
     0
 10
0.0
 20
0.0
 30
0.0
  3
_D
  1

  0
INSERT
  5
285
330
282
100
AcDbEntity
  8
DIMS
100
AcDbBlockReference
  2
_Open90
 10
8.089917400466717
 20
24.46781095701396
 30
0.0
 41
0.3
 42
0.3
 50
180.0000000000008
  0
INSERT
  5
286
330
282
100
AcDbEntity
  8
DIMS
100
AcDbBlockReference
  2
_Open90
 10
38.09782261134705
 20
24.46781095701417
 30
0.0
 41
0.3
 42
0.3
 50
0.0000000000007888
  0
LINE
  5
287
330
282
100
AcDbEntity
  8
DIMS
100
AcDbLine
 10
8.089917400466705
 20
26.21693986686867
 30
0.0
 11
8.08991740046672
 21
24.09281095701396
 31
0.0
  0
LINE
  5
288
330
282
100
AcDbEntity
  8
DIMS
100
AcDbLine
 10
38.09782261134703
 20
26.2248450777492
 30
0.0
 11
38.09782261134706
 21
24.09281095701417
 31
0.0
  0
LINE
  5
289
330
282
100
AcDbEntity
  8
DIMS
100
AcDbLine
 10
8.089917400466717
 20
24.46781095701396
 30
0.0
 11
23.00351279583164
 21
24.46781095701406
 31
0.0
  0
LINE
  5
28A
330
282
100
AcDbEntity
  8
DIMS
100
AcDbLine
 10
38.09782261134705
 20
24.46781095701417
 30
0.0
 11
23.94865165084027
 21
24.46781095701407
 31
0.0
  0
MTEXT
  5
28B
330
282
100
AcDbEntity
  8
DIMS
100
AcDbMText
 10
23.00351279583164
 20
24.70960787508077
 30
0.0
 40
0.5
 41
0.0
 71
     1
 72
     1
  1
30"
  7
SLDTEXTSTYLE1
 73
     1
 44
1.0
  0
ENDBLK
  5
3A5
330
282
100
AcDbEntity
  8
0
100
AcDbBlockEnd
  0
BLOCK
  5
3A6
330
28D
100
AcDbEntity
  8
0
100
AcDbBlockBegin
  2
_D_1
 70
     0
 71
     0
 10
0.0
 20
0.0
 30
0.0
  3
_D_1
  1

  0
INSERT
  5
290
330
28D
100
AcDbEntity
  8
DIMS
100
AcDbBlockReference
  2
_Open90
 10
6.174121823945434
 20
26.38360653353532
 30
0.0
 41
0.3
 42
0.3
 50
270.0000000000008
  0
INSERT
  5
291
330
28D
100
AcDbEntity
  8
DIMS
100
AcDbBlockReference
  2
_Open90
 10
6.174121823945226
 20
56.39151174441564
 30
0.0
 41
0.3
 42
0.3
 50
90.0000000000008
  0
LINE
  5
292
330
28D
100
AcDbEntity
  8
DIMS
100
AcDbLine
 10
7.923250733800038
 20
26.38360653353534
 30
0.0
 11
5.799121823945434
 21
26.38360653353532
 31
0.0
  0
LINE
  5
293
330
28D
100
AcDbEntity
  8
DIMS
100
AcDbLine
 10
7.931155944680246
 20
56.39151174441566
 30
0.0
 11
5.799121823945226
 21
56.39151174441564
 31
0.0
  0
LINE
  5
294
330
28D
100
AcDbEntity
  8
DIMS
100
AcDbLine
 10
6.174121823945434
 20
26.38360653353532
 30
0.0
 11
6.174121823945327
 21
41.7426325411318
 31
0.0
  0
LINE
  5
295
330
28D
100
AcDbEntity
  8
DIMS
100
AcDbLine
 10
6.174121823945226
 20
56.39151174441564
 30
0.0
 11
6.174121823945321
 21
42.53638256499713
 31
0.0
  0
MTEXT
  5
296
330
28D
100
AcDbEntity
  8
DIMS
100
AcDbMText
 10
5.701552396441012
 20
42.38130447113116
 30
0.0
 40
0.5
 41
0.0
 71
     1
 72
     1
  1
30"
  7
SLDTEXTSTYLE1
 73
     1
 44
1.0
  0
ENDBLK
  5
3A7
330
28D
100
AcDbEntity
  8
0
100
AcDbBlockEnd
  0
BLOCK
  5
3A8
330
298
100
AcDbEntity
  8
0
100
AcDbBlockBegin
  2
_D_2
 70
     0
 71
     0
 10
0.0
 20
0.0
 30
0.0
  3
_D_2
  1

  0
INSERT
  5
29B
330
298
100
AcDbEntity
  8
DIMS
100
AcDbBlockReference
  2
_Open90
 10
6.174121823945242
 20
26.38360653353532
 30
0.0
 41
0.3
 42
0.3
 50
90.00000000000081
  0
INSERT
  5
29C
330
298
100
AcDbEntity
  8
DIMS
100
AcDbBlockReference
  2
_Open90
 10
6.174121823945327
 20
14.39151174441563
 30
0.0
 41
0.3
 42
0.3
 50
270.0000000000008
  0
LINE
  5
29D
330
298
100
AcDbEntity
  8
DIMS
100
AcDbLine
 10
7.923250733800034
 20
26.38360653353534
 30
0.0
 11
5.799121823945241
 21
26.38360653353532
 31
0.0
  0
LINE
  5
29E
330
298
100
AcDbEntity
  8
DIMS
100
AcDbLine
 10
6.174121823945242
 20
26.38360653353532
 30
0.0
 11
6.174121823945305
 21
17.47744312546002
 31
0.0
  0
MTEXT
  5
29F
330
298
100
AcDbEntity
  8
DIMS
100
AcDbMText
 10
5.701552396441012
 20
17.32236503159406
 30
0.0
 40
0.5
 41
0.0
 71
     1
 72
     1
  1
24"
  7
SLDTEXTSTYLE1
 73
     1
 44
1.0
  0
MTEXT
  5
2A0
330
298
100
AcDbEntity
  8
DIMS
100
AcDbMText
 10
6.081760712575432
 20
12.55986488840212
 30
0.0
 40
0.5
 41
0.0
 71
     1
 72
     1
  1
 
  7
SLDTEXTSTYLE1
 73
     1
 44
1.0
  0
ENDBLK
  5
3A9
330
298
100
AcDbEntity
  8
0
100
AcDbBlockEnd
  0
BLOCK
  5
3AA
330
2A2
100
AcDbEntity
  8
0
100
AcDbBlockBegin
  2
_D_3
 70
     0
 71
     0
 10
0.0
 20
0.0
 30
0.0
  3
_D_3
  1

  0
INSERT
  5
2A5
330
2A2
100
AcDbEntity
  8
DIMS
100
AcDbBlockReference
  2
_Open90
 10
38.09782261134705
 20
24.46781095701404
 30
0.0
 41
0.3
 42
0.3
 50
180.0000000000008
  0
INSERT
  5
2A6
330
2A2
100
AcDbEntity
  8
DIMS
100
AcDbBlockReference
  2
_Open90
 10
44.69991550656908
 20
24.46781095701409
 30
0.0
 41
0.3
 42
0.3
 50
0.0000000000008142
  0
LINE
  5
2A7
330
2A2
100
AcDbEntity
  8
DIMS
100
AcDbLine
 10
38.09782261134703
 20
26.2248450777492
 30
0.0
 11
38.09782261134706
 21
24.09281095701404
 31
0.0
  0
LINE
  5
2A8
330
2A2
100
AcDbEntity
  8
DIMS
100
AcDbLine
 10
38.09782261134705
 20
24.46781095701404
 30
0.0
 11
40.90582207861481
 21
24.46781095701406
 31
0.0
  0
MTEXT
  5
2A9
330
2A2
100
AcDbEntity
  8
DIMS
100
AcDbMText
 10
40.90582207861481
 20
24.70960787508077
 30
0.0
 40
0.5
 41
0.0
 71
     1
 72
     1
  1
20"                
  7
SLDTEXTSTYLE1
 73
     1
 44
1.0
  0
ENDBLK
  5
3AB
330
2A2
100
AcDbEntity
  8
0
100
AcDbBlockEnd
  0
BLOCK
  5
3AC
330
2AC
100
AcDbEntity
  8
0
100
AcDbBlockBegin
  2
_D_4
 70
     0
 71
     0
 10
0.0
 20
0.0
 30
0.0
  3
_D_4
  1

  0
INSERT
  5
2AF
330
2AC
100
AcDbEntity
  8
DIMS
100
AcDbBlockReference
  2
_Open90
 10
9.175993791701707
 20
57.47707468863047
 30
-1.499999999999997
 41
0.3
 42
0.3
 50
225.1957334868424
  0
LINE
  5
2B0
330
2AC
100
AcDbEntity
  8
DIMS
100
AcDbLine
 10
12.45692287388528
 20
59.32474953423434
 30
0.0
 11
13.3423395688094
 21
59.32474953423434
 31
0.0
  0
LINE
  5
2B1
330
2AC
100
AcDbEntity
  8
DIMS
100
AcDbLine
 10
9.175993791701707
 20
57.47707468863047
 30
0.0
 11
10.96015204408403
 21
59.27346483584621
 31
0.0
  0
LINE
  5
2B2
330
2AC
100
AcDbEntity
  8
DIMS
100
AcDbLine
 10
10.96015204408403
 20
59.27346483584621
 30
0.0
 11
11.26015204408404
 21
59.27346483584621
 31
0.0
  0
MTEXT
  5
2B3
330
2AC
100
AcDbEntity
  8
DIMS
100
AcDbMText
 10
11.26015204408404
 20
59.54651170541081
 30
0.0
 40
0.5
 41
0.0
 71
     1
 72
     1
  1
%%c
  7
SLDTEXTSTYLE1
 73
     1
 44
1.0
  0
MTEXT
  5
2B4
330
2AC
100
AcDbEntity
  8
DIMS
100
AcDbMText
 10
12.01421452642323
 20
59.55415059466571
 30
0.0
 40
0.5
 41
0.0
 71
     1
 72
     1
  1
3
  7
SLDTEXTSTYLE1
 73
     1
 44
1.0
  0
MTEXT
  5
2B5
330
2AC
100
AcDbEntity
  8
DIMS
100
AcDbMText
 10
12.71490899860756
 20
59.91946309371121
 30
0.0
 40
0.5
 41
0.0
 71
     1
 72
     1
  1
1
  7
SLDTEXTSTYLE1
 73
     1
 44
1.0
  0
MTEXT
  5
2B6
330
2AC
100
AcDbEntity
  8
DIMS
100
AcDbMText
 10
12.53018677586777
 20
59.25828251516317
 30
0.0
 40
0.5
 41
0.0
 71
     1
 72
     1
  1
16
  7
SLDTEXTSTYLE1
 73
     1
 44
1.0
  0
MTEXT
  5
2B7
330
2AC
100
AcDbEntity
  8
DIMS
100
AcDbMText
 10
13.41560354412437
 20
59.55415059466571
 30
0.0
 40
0.5
 41
0.0
 71
     1
 72
     1
  1
"
  7
SLDTEXTSTYLE1
 73
     1
 44
1.0
  0
ENDBLK
  5
3AD
330
2AC
100
AcDbEntity
  8
0
100
AcDbBlockEnd
  0
BLOCK
  5
3AE
330
2B9
100
AcDbEntity
  8
0
100
AcDbBlockBegin
  2
SW_NOTE_0_2
 70
     0
 71
     0
 10
0.0
 20
0.0
 30
0.0
  3
SW_NOTE_0_2
  1

  0
MTEXT
  5
2BC
330
2B9
100
AcDbEntity
  8
NOTES
 62
     0
100
AcDbMText
 10
0.0209965036970116
 20
0.2445086630790032
 30
0.0
 40
0.5
 41
0.0
 71
     1
 72
     1
  1
remove flange cover to 
  7
SLDTEXTSTYLE1
 73
     1
 44
1.0
  0
MTEXT
  5
2BD
330
2B9
100
AcDbEntity
  8
NOTES
 62
     0
100
AcDbMText
 10
0.0209965036970116
 20
-0.4020191348433715
 30
0.0
 40
0.5
 41
0.0
 71
     1
 72
     1
  1
access mounting holes
  7
SLDTEXTSTYLE1
 73
     1
 44
1.0
  0
ENDBLK
  5
3AF
330
2B9
100
AcDbEntity
  8
0
100
AcDbBlockEnd
  0
BLOCK
  5
3B0
330
2F5
100
AcDbEntity
  8
0
100
AcDbBlockBegin
  2
_D_5
 70
     0
 71
     0
 10
0.0
 20
0.0
 30
0.0
  3
_D_5
  1

  0
INSERT
  5
2F8
330
2F5
100
AcDbEntity
  8
DIMS
100
AcDbBlockReference
  2
_Open90
 10
50.82923159911727
 20
32.43873974857186
 30
9.750000000000005
 41
0.3
 42
0.3
 50
180.0000000000004
  0
INSERT
  5
2F9
330
2F5
100
AcDbEntity
  8
DIMS
100
AcDbBlockReference
  2
_Open90
 10
49.56423159911728
 20
32.43873974857186
 30
9.750000000000005
 41
0.3
 42
0.3
 50
0.0000000000004071
  0
LINE
  5
2FA
330
2F5
100
AcDbEntity
  8
DIMS
100
AcDbLine
 10
47.95385033423228
 20
32.49002444695999
 30
0.0
 11
48.46982258367682
 21
32.49002444695999
 31
0.0
  0
LINE
  5
2FB
330
2F5
100
AcDbEntity
  8
DIMS
100
AcDbLine
 10
50.82923159911727
 20
32.43873974857186
 30
0.0
 11
51.12923159911728
 21
32.43873974857186
 31
0.0
  0
LINE
  5
2FC
330
2F5
100
AcDbEntity
  8
DIMS
100
AcDbLine
 10
49.56423159911728
 20
32.43873974857186
 30
0.0
 11
48.7493364497088
 21
32.43873974857186
 31
0.0
  0
MTEXT
  5
2FD
330
2F5
100
AcDbEntity
  8
DIMS
100
AcDbMText
 10
46.75707950443103
 20
32.71178661813646
 30
0.0
 40
0.5
 41
0.0
 71
     1
 72
     1
  1
%%c
  7
SLDTEXTSTYLE1
 73
     1
 44
1.0
  0
MTEXT
  5
2FE
330
2F5
100
AcDbEntity
  8
DIMS
100
AcDbMText
 10
47.51114198677022
 20
32.71942550739136
 30
0.0
 40
0.5
 41
0.0
 71
     1
 72
     1
  1
1
  7
SLDTEXTSTYLE1
 73
     1
 44
1.0
  0
MTEXT
  5
2FF
330
2F5
100
AcDbEntity
  8
DIMS
100
AcDbMText
 10
48.02711423621476
 20
33.08473800643686
 30
0.0
 40
0.5
 41
0.0
 71
     1
 72
     1
  1
1
  7
SLDTEXTSTYLE1
 73
     1
 44
1.0
  0
MTEXT
  5
300
330
2F5
100
AcDbEntity
  8
DIMS
100
AcDbMText
 10
48.02711423621476
 20
32.42355742788882
 30
0.0
 40
0.5
 41
0.0
 71
     1
 72
     1
  1
4
  7
SLDTEXTSTYLE1
 73
     1
 44
1.0
  0
MTEXT
  5
301
330
2F5
100
AcDbEntity
  8
DIMS
100
AcDbMText
 10
48.54308648565931
 20
32.71942550739136
 30
0.0
 40
0.5
 41
0.0
 71
     1
 72
     1
  1
"
  7
SLDTEXTSTYLE1
 73
     1
 44
1.0
  0
ENDBLK
  5
3B1
330
2F5
100
AcDbEntity
  8
0
100
AcDbBlockEnd
  0
BLOCK
  5
3B2
330
304
100
AcDbEntity
  8
0
100
AcDbBlockBegin
  2
_D_6
 70
     0
 71
     0
 10
0.0
 20
0.0
 30
0.0
  3
_D_6
  1

  0
INSERT
  5
307
330
304
100
AcDbEntity
  8
DIMS
100
AcDbBlockReference
  2
_Open90
 10
52.38473159911727
 20
31.90503498533662
 30
9.750000000000005
 41
0.3
 42
0.3
 50
0.0000000000004071
  0
INSERT
  5
308
330
304
100
AcDbEntity
  8
DIMS
100
AcDbBlockReference
  2
_Open90
 10
50.82923159911727
 20
31.90503498533662
 30
9.750000000000005
 41
0.3
 42
0.3
 50
180.0000000000004
  0
LINE
  5
309
330
304
100
AcDbEntity
  8
DIMS
100
AcDbLine
 10
54.07086458685847
 20
31.95631968372474
 30
0.0
 11
54.95628128178259
 21
31.95631968372474
 31
0.0
  0
LINE
  5
30A
330
304
100
AcDbEntity
  8
DIMS
100
AcDbLine
 10
52.38473159911727
 20
27.57951823930249
 30
0.0
 11
52.38473159911727
 21
32.28003498533662
 31
0.0
  0
LINE
  5
30B
330
304
100
AcDbEntity
  8
DIMS
100
AcDbLine
 10
52.38473159911727
 20
31.90503498533662
 30
0.0
 11
53.62815623939642
 21
31.90503498533662
 31
0.0
  0
LINE
  5
30C
330
304
100
AcDbEntity
  8
DIMS
100
AcDbLine
 10
50.82923159911727
 20
31.90503498533662
 30
0.0
 11
52.38473159911727
 21
31.90503498533662
 31
0.0
  0
MTEXT
  5
30D
330
304
100
AcDbEntity
  8
DIMS
100
AcDbMText
 10
53.62815623939641
 20
32.18572074415611
 30
0.0
 40
0.5
 41
0.0
 71
     1
 72
     1
  1
1
  7
SLDTEXTSTYLE1
 73
     1
 44
1.0
  0
MTEXT
  5
30E
330
304
100
AcDbEntity
  8
DIMS
100
AcDbMText
 10
54.32885071158074
 20
32.55103324320162
 30
0.0
 40
0.5
 41
0.0
 71
     1
 72
     1
  1
9
  7
SLDTEXTSTYLE1
 73
     1
 44
1.0
  0
MTEXT
  5
30F
330
304
100
AcDbEntity
  8
DIMS
100
AcDbMText
 10
54.14412848884096
 20
31.88985266465358
 30
0.0
 40
0.5
 41
0.0
 71
     1
 72
     1
  1
16
  7
SLDTEXTSTYLE1
 73
     1
 44
1.0
  0
MTEXT
  5
310
330
304
100
AcDbEntity
  8
DIMS
100
AcDbMText
 10
55.02954518376507
 20
32.18572074415611
 30
0.0
 40
0.5
 41
0.0
 71
     1
 72
     1
  1
"
  7
SLDTEXTSTYLE1
 73
     1
 44
1.0
  0
ENDBLK
  5
3B3
330
304
100
AcDbEntity
  8
0
100
AcDbBlockEnd
  0
BLOCK
  5
3B4
330
350
100
AcDbEntity
  8
0
100
AcDbBlockBegin
  2
SW_NOTE_0_3
 70
     0
 71
     0
 10
0.0
 20
0.0
 30
0.0
  3
SW_NOTE_0_3
  1

  0
MTEXT
  5
353
330
350
100
AcDbEntity
  8
NOTES
 62
     0
100
AcDbMText
 10
0.0
 20
0.6386718749999982
 30
0.0
 40
0.5
 41
0.0
 71
     1
 72
     1
  1
3D view
  7
SLDTEXTSTYLE1
 73
     1
 44
1.0
  0
MTEXT
  5
354
330
350
100
AcDbEntity
  8
NOTES
 62
     0
100
AcDbMText
 10
0.0
 20
-0.3613281770807335
 30
0.0
 40
0.5
 41
0.0
 71
     1
 72
     1
  1
1003-SP-30x30
  7
SLDTEXTSTYLE1
 73
     1
 44
1.0
  0
ENDBLK
  5
3B5
330
350
100
AcDbEntity
  8
0
100
AcDbBlockEnd
  0
ENDSEC
  0
SECTION
  2
ENTITIES
  0
LINE
  5
7A
330
1F
100
AcDbEntity
  8
TITLE
370
    35
100
AcDbLine
 10
72.51822309646207
 20
1.48761176446163
 30
0.0
 11
89.49998645119503
 21
1.48761176446163
 31
0.0
  0
LINE
  5
7B
330
1F
100
AcDbEntity
  8
TITLE
370
    35
100
AcDbLine
 10
89.49993174424402
 20
5.475360393555796
 30
0.0
 11
79.31053507231782
 21
5.475360393555795
 31
0.0
  0
LINE
  5
7C
330
1F
100
AcDbEntity
  8
TITLE
  6
SLD-Solid
370
    18
100
AcDbLine
 10
0.5
 20
0.5
 30
0.0
 11
0.5
 21
119.5
 31
0.0
  0
LINE
  5
7D
330
1F
100
AcDbEntity
  8
TITLE
  6
SLD-Solid
370
    18
100
AcDbLine
 10
0.5
 20
119.5
 30
0.0
 11
89.5
 21
119.5
 31
0.0
  0
LINE
  5
7E
330
1F
100
AcDbEntity
  8
TITLE
370
    35
100
AcDbLine
 10
72.51822309646207
 20
2.542787723103445
 30
0.0
 11
65.50597912026433
 21
2.542787723103443
 31
0.0
  0
LINE
  5
7F
330
1F
100
AcDbEntity
  8
TITLE
370
    35
100
AcDbLine
 10
72.51822309646207
 20
1.48761176446163
 30
0.0
 11
65.50597912026433
 21
1.487611764461628
 31
0.0
  0
LINE
  5
80
330
1F
100
AcDbEntity
  8
TITLE
  6
SLD-Solid
370
    18
100
AcDbLine
 10
89.5
 20
119.5
 30
0.0
 11
89.5
 21
0.5
 31
0.0
  0
LINE
  5
81
330
1F
100
AcDbEntity
  8
TITLE
  6
SLD-Solid
370
    18
100
AcDbLine
 10
89.5
 20
0.5
 30
0.0
 11
0.5
 21
0.5
 31
0.0
  0
LINE
  5
82
330
1F
100
AcDbEntity
  8
TITLE
370
    35
100
AcDbLine
 10
72.51822309646207
 20
1.48761176446163
 30
0.0
 11
72.51822309646207
 21
3.597963681745259
 31
0.0
  0
LINE
  5
83
330
1F
100
AcDbEntity
  8
TITLE
370
    35
100
AcDbLine
 10
65.50597912026433
 20
3.597963681745258
 30
0.0
 11
65.50597912026433
 21
0.5
 31
0.0
  0
LINE
  5
84
330
1F
100
AcDbEntity
  8
TITLE
370
    35
100
AcDbLine
 10
65.50597912026433
 20
0.5
 30
0.0
 11
89.5
 21
0.5
 31
0.0
  0
LINE
  5
85
330
1F
100
AcDbEntity
  8
TITLE
370
    35
100
AcDbLine
 10
89.49993174424402
 20
5.475360393555796
 30
0.0
 11
89.5
 21
0.5
 31
0.0
  0
LINE
  5
86
330
1F
100
AcDbEntity
  8
TITLE
  6
SLD-Solid
370
    18
100
AcDbLine
 10
0.4999606299212599
 20
60.0
 30
0.0
 11
0.5000393700787401
 21
60.0
 31
0.0
  0
LINE
  5
87
330
1F
100
AcDbEntity
  8
TITLE
370
    35
100
AcDbLine
 10
72.51822309646207
 20
3.597963681745259
 30
0.0
 11
65.50597912026433
 21
3.597963681745258
 31
0.0
  0
LINE
  5
88
330
1F
100
AcDbEntity
  8
TITLE
370
    35
100
AcDbLine
 10
72.51822309646207
 20
3.597963681745259
 30
0.0
 11
89.49976156426074
 21
3.597964834324629
 31
0.0
  0
LINE
  5
89
330
1F
100
AcDbEntity
  8
TITLE
370
    35
100
AcDbLine
 10
79.31053507231782
 20
5.475360393555795
 30
0.0
 11
79.31053507231782
 21
0.4636772425222311
 31
0.0
  0
LINE
  5
8A
330
1F
100
AcDbEntity
  8
TITLE
  6
SLD-Solid
370
    18
100
AcDbLine
 10
45.0
 20
119.5000393700787
 30
0.0
 11
45.0
 21
119.4999606299212
 31
0.0
  0
LINE
  5
8B
330
1F
100
AcDbEntity
  8
TITLE
  6
SLD-Solid
370
    18
100
AcDbLine
 10
89.50003937007874
 20
60.0
 30
0.0
 11
89.49996062992125
 21
60.0
 31
0.0
  0
LINE
  5
8C
330
1F
100
AcDbEntity
  8
TITLE
  6
SLD-Solid
370
    18
100
AcDbLine
 10
45.0
 20
0.4999606299212599
 30
0.0
 11
45.0
 21
0.5000393700787401
 31
0.0
  0
LINE
  5
8D
330
1F
100
AcDbEntity
  8
TITLE
  6
SLD-Solid
370
    18
100
AcDbLine
 10
0.5
 20
2.913385826771647
 30
0.0
 11
0.1653543307086614
 21
2.913385826771647
 31
0.0
  0
LINE
  5
8E
330
1F
100
AcDbEntity
  8
TITLE
  6
SLD-Solid
370
    18
100
AcDbLine
 10
89.5
 20
2.913385826771647
 30
0.0
 11
89.83464566929135
 21
2.913385826771647
 31
0.0
  0
LINE
  5
8F
330
1F
100
AcDbEntity
  8
TITLE
  6
SLD-Solid
370
    18
100
AcDbLine
 10
0.5
 20
4.881889763779523
 30
0.0
 11
0.1653543307086614
 21
4.881889763779523
 31
0.0
  0
LINE
  5
90
330
1F
100
AcDbEntity
  8
TITLE
  6
SLD-Solid
370
    18
100
AcDbLine
 10
89.5
 20
4.881889763779523
 30
0.0
 11
89.83464566929135
 21
4.881889763779523
 31
0.0
  0
LINE
  5
91
330
1F
100
AcDbEntity
  8
TITLE
  6
SLD-Solid
370
    18
100
AcDbLine
 10
0.5
 20
6.850393700787399
 30
0.0
 11
0.1653543307086614
 21
6.850393700787399
 31
0.0
  0
LINE
  5
3B6
330
1F
100
AcDbEntity
  8
TITLE
  6
SLD-Solid
370
    18
100
AcDbLine
 10
89.5
 20
6.850393700787399
 30
0.0
 11
89.83464566929135
 21
6.850393700787399
 31
0.0
  0
LINE
  5
3B7
330
1F
100
AcDbEntity
  8
TITLE
  6
SLD-Solid
370
    18
100
AcDbLine
 10
0.5
 20
8.818897637795274
 30
0.0
 11
0.1653543307086614
 21
8.818897637795274
 31
0.0
  0
LINE
  5
94
330
1F
100
AcDbEntity
  8
TITLE
  6
SLD-Solid
370
    18
100
AcDbLine
 10
89.5
 20
8.818897637795274
 30
0.0
 11
89.83464566929135
 21
8.818897637795274
 31
0.0
  0
LINE
  5
95
330
1F
100
AcDbEntity
  8
TITLE
  6
SLD-Solid
370
    18
100
AcDbLine
 10
0.5
 20
10.78740157480315
 30
0.0
 11
0.1653543307086614
 21
10.78740157480315
 31
0.0
  0
LINE
  5
96
330
1F
100
AcDbEntity
  8
TITLE
  6
SLD-Solid
370
    18
100
AcDbLine
 10
89.5
 20
10.78740157480315
 30
0.0
 11
89.83464566929135
 21
10.78740157480315
 31
0.0
  0
LINE
  5
3B8
330
1F
100
AcDbEntity
  8
TITLE
  6
SLD-Solid
370
    18
100
AcDbLine
 10
0.5
 20
12.75590551181102
 30
0.0
 11
0.1653543307086614
 21
12.75590551181102
 31
0.0
  0
LINE
  5
3B9
330
1F
100
AcDbEntity
  8
TITLE
  6
SLD-Solid
370
    18
100
AcDbLine
 10
89.5
 20
12.75590551181102
 30
0.0
 11
89.83464566929135
 21
12.75590551181102
 31
0.0
  0
LINE
  5
99
330
1F
100
AcDbEntity
  8
TITLE
  6
SLD-Solid
370
    18
100
AcDbLine
 10
0.5
 20
14.72440944881889
 30
0.0
 11
0.1653543307086614
 21
14.72440944881889
 31
0.0
  0
LINE
  5
9A
330
1F
100
AcDbEntity
  8
TITLE
  6
SLD-Solid
370
    18
100
AcDbLine
 10
89.5
 20
14.72440944881889
 30
0.0
 11
89.83464566929135
 21
14.72440944881889
 31
0.0
  0
LINE
  5
9B
330
1F
100
AcDbEntity
  8
TITLE
  6
SLD-Solid
370
    18
100
AcDbLine
 10
0.5
 20
16.69291338582677
 30
0.0
 11
0.1653543307086614
 21
16.69291338582677
 31
0.0
  0
LINE
  5
9C
330
1F
100
AcDbEntity
  8
TITLE
  6
SLD-Solid
370
    18
100
AcDbLine
 10
89.5
 20
16.69291338582677
 30
0.0
 11
89.83464566929135
 21
16.69291338582677
 31
0.0
  0
LINE
  5
9D
330
1F
100
AcDbEntity
  8
TITLE
  6
SLD-Solid
370
    18
100
AcDbLine
 10
0.5
 20
18.66141732283464
 30
0.0
 11
0.1653543307086614
 21
18.66141732283464
 31
0.0
  0
LINE
  5
9E
330
1F
100
AcDbEntity
  8
TITLE
  6
SLD-Solid
370
    18
100
AcDbLine
 10
89.5
 20
18.66141732283464
 30
0.0
 11
89.83464566929135
 21
18.66141732283464
 31
0.0
  0
LINE
  5
9F
330
1F
100
AcDbEntity
  8
TITLE
  6
SLD-Solid
370
    18
100
AcDbLine
 10
0.5
 20
20.62992125984252
 30
0.0
 11
0.1653543307086614
 21
20.62992125984252
 31
0.0
  0
LINE
  5
A0
330
1F
100
AcDbEntity
  8
TITLE
  6
SLD-Solid
370
    18
100
AcDbLine
 10
89.5
 20
20.62992125984252
 30
0.0
 11
89.83464566929135
 21
20.62992125984252
 31
0.0
  0
LINE
  5
A1
330
1F
100
AcDbEntity
  8
TITLE
  6
SLD-Solid
370
    18
100
AcDbLine
 10
0.5
 20
22.59842519685039
 30
0.0
 11
0.1653543307086614
 21
22.59842519685039
 31
0.0
  0
LINE
  5
A2
330
1F
100
AcDbEntity
  8
TITLE
  6
SLD-Solid
370
    18
100
AcDbLine
 10
89.5
 20
22.59842519685039
 30
0.0
 11
89.83464566929135
 21
22.59842519685039
 31
0.0
  0
LINE
  5
A3
330
1F
100
AcDbEntity
  8
TITLE
  6
SLD-Solid
370
    18
100
AcDbLine
 10
0.5
 20
24.56692913385827
 30
0.0
 11
0.1653543307086614
 21
24.56692913385827
 31
0.0
  0
LINE
  5
A4
330
1F
100
AcDbEntity
  8
TITLE
  6
SLD-Solid
370
    18
100
AcDbLine
 10
89.5
 20
24.56692913385827
 30
0.0
 11
89.83464566929135
 21
24.56692913385827
 31
0.0
  0
LINE
  5
A5
330
1F
100
AcDbEntity
  8
TITLE
  6
SLD-Solid
370
    18
100
AcDbLine
 10
0.5
 20
26.53543307086614
 30
0.0
 11
0.1653543307086614
 21
26.53543307086614
 31
0.0
  0
LINE
  5
A6
330
1F
100
AcDbEntity
  8
TITLE
  6
SLD-Solid
370
    18
100
AcDbLine
 10
89.5
 20
26.53543307086614
 30
0.0
 11
89.83464566929135
 21
26.53543307086614
 31
0.0
  0
LINE
  5
A7
330
1F
100
AcDbEntity
  8
TITLE
  6
SLD-Solid
370
    18
100
AcDbLine
 10
0.5
 20
28.50393700787401
 30
0.0
 11
0.1653543307086614
 21
28.50393700787401
 31
0.0
  0
LINE
  5
A8
330
1F
100
AcDbEntity
  8
TITLE
  6
SLD-Solid
370
    18
100
AcDbLine
 10
89.5
 20
28.50393700787401
 30
0.0
 11
89.83464566929135
 21
28.50393700787401
 31
0.0
  0
LINE
  5
A9
330
1F
100
AcDbEntity
  8
TITLE
  6
SLD-Solid
370
    18
100
AcDbLine
 10
0.5
 20
30.47244094488189
 30
0.0
 11
0.1653543307086614
 21
30.47244094488189
 31
0.0
  0
LINE
  5
AA
330
1F
100
AcDbEntity
  8
TITLE
  6
SLD-Solid
370
    18
100
AcDbLine
 10
89.5
 20
30.47244094488189
 30
0.0
 11
89.83464566929135
 21
30.47244094488189
 31
0.0
  0
LINE
  5
AB
330
1F
100
AcDbEntity
  8
TITLE
  6
SLD-Solid
370
    18
100
AcDbLine
 10
0.5
 20
32.44094488188976
 30
0.0
 11
0.1653543307086614
 21
32.44094488188976
 31
0.0
  0
LINE
  5
AC
330
1F
100
AcDbEntity
  8
TITLE
  6
SLD-Solid
370
    18
100
AcDbLine
 10
89.5
 20
32.44094488188976
 30
0.0
 11
89.83464566929135
 21
32.44094488188976
 31
0.0
  0
LINE
  5
AD
330
1F
100
AcDbEntity
  8
TITLE
  6
SLD-Solid
370
    18
100
AcDbLine
 10
0.5
 20
34.40944881889764
 30
0.0
 11
0.1653543307086614
 21
34.40944881889764
 31
0.0
  0
LINE
  5
AE
330
1F
100
AcDbEntity
  8
TITLE
  6
SLD-Solid
370
    18
100
AcDbLine
 10
89.5
 20
34.40944881889764
 30
0.0
 11
89.83464566929135
 21
34.40944881889764
 31
0.0
  0
LINE
  5
AF
330
1F
100
AcDbEntity
  8
TITLE
  6
SLD-Solid
370
    18
100
AcDbLine
 10
0.5
 20
36.37795275590551
 30
0.0
 11
0.1653543307086614
 21
36.37795275590551
 31
0.0
  0
LINE
  5
B0
330
1F
100
AcDbEntity
  8
TITLE
  6
SLD-Solid
370
    18
100
AcDbLine
 10
89.5
 20
36.37795275590551
 30
0.0
 11
89.83464566929135
 21
36.37795275590551
 31
0.0
  0
LINE
  5
B1
330
1F
100
AcDbEntity
  8
TITLE
  6
SLD-Solid
370
    18
100
AcDbLine
 10
0.5
 20
38.34645669291339
 30
0.0
 11
0.1653543307086614
 21
38.34645669291339
 31
0.0
  0
LINE
  5
B2
330
1F
100
AcDbEntity
  8
TITLE
  6
SLD-Solid
370
    18
100
AcDbLine
 10
89.5
 20
38.34645669291339
 30
0.0
 11
89.83464566929135
 21
38.34645669291339
 31
0.0
  0
LINE
  5
B3
330
1F
100
AcDbEntity
  8
TITLE
  6
SLD-Solid
370
    18
100
AcDbLine
 10
0.5
 20
40.31496062992126
 30
0.0
 11
0.1653543307086614
 21
40.31496062992126
 31
0.0
  0
LINE
  5
B4
330
1F
100
AcDbEntity
  8
TITLE
  6
SLD-Solid
370
    18
100
AcDbLine
 10
89.5
 20
40.31496062992126
 30
0.0
 11
89.83464566929135
 21
40.31496062992126
 31
0.0
  0
LINE
  5
B5
330
1F
100
AcDbEntity
  8
TITLE
  6
SLD-Solid
370
    18
100
AcDbLine
 10
0.5
 20
42.28346456692914
 30
0.0
 11
0.1653543307086614
 21
42.28346456692914
 31
0.0
  0
LINE
  5
B6
330
1F
100
AcDbEntity
  8
TITLE
  6
SLD-Solid
370
    18
100
AcDbLine
 10
89.5
 20
42.28346456692914
 30
0.0
 11
89.83464566929135
 21
42.28346456692914
 31
0.0
  0
LINE
  5
B7
330
1F
100
AcDbEntity
  8
TITLE
  6
SLD-Solid
370
    18
100
AcDbLine
 10
0.5
 20
44.25196850393701
 30
0.0
 11
0.1653543307086614
 21
44.25196850393701
 31
0.0
  0
LINE
  5
B8
330
1F
100
AcDbEntity
  8
TITLE
  6
SLD-Solid
370
    18
100
AcDbLine
 10
89.5
 20
44.25196850393701
 30
0.0
 11
89.83464566929135
 21
44.25196850393701
 31
0.0
  0
LINE
  5
B9
330
1F
100
AcDbEntity
  8
TITLE
  6
SLD-Solid
370
    18
100
AcDbLine
 10
0.5
 20
46.22047244094488
 30
0.0
 11
0.1653543307086614
 21
46.22047244094488
 31
0.0
  0
LINE
  5
BA
330
1F
100
AcDbEntity
  8
TITLE
  6
SLD-Solid
370
    18
100
AcDbLine
 10
89.5
 20
46.22047244094488
 30
0.0
 11
89.83464566929135
 21
46.22047244094488
 31
0.0
  0
LINE
  5
BB
330
1F
100
AcDbEntity
  8
TITLE
  6
SLD-Solid
370
    18
100
AcDbLine
 10
0.5
 20
48.18897637795276
 30
0.0
 11
0.1653543307086614
 21
48.18897637795276
 31
0.0
  0
LINE
  5
BC
330
1F
100
AcDbEntity
  8
TITLE
  6
SLD-Solid
370
    18
100
AcDbLine
 10
89.5
 20
48.18897637795276
 30
0.0
 11
89.83464566929135
 21
48.18897637795276
 31
0.0
  0
LINE
  5
BD
330
1F
100
AcDbEntity
  8
TITLE
  6
SLD-Solid
370
    18
100
AcDbLine
 10
0.5
 20
50.15748031496063
 30
0.0
 11
0.1653543307086614
 21
50.15748031496063
 31
0.0
  0
LINE
  5
BE
330
1F
100
AcDbEntity
  8
TITLE
  6
SLD-Solid
370
    18
100
AcDbLine
 10
89.5
 20
50.15748031496063
 30
0.0
 11
89.83464566929135
 21
50.15748031496063
 31
0.0
  0
LINE
  5
BF
330
1F
100
AcDbEntity
  8
TITLE
  6
SLD-Solid
370
    18
100
AcDbLine
 10
0.5
 20
52.12598425196851
 30
0.0
 11
0.1653543307086614
 21
52.12598425196851
 31
0.0
  0
LINE
  5
C0
330
1F
100
AcDbEntity
  8
TITLE
  6
SLD-Solid
370
    18
100
AcDbLine
 10
89.5
 20
52.12598425196851
 30
0.0
 11
89.83464566929135
 21
52.12598425196851
 31
0.0
  0
LINE
  5
C1
330
1F
100
AcDbEntity
  8
TITLE
  6
SLD-Solid
370
    18
100
AcDbLine
 10
0.5
 20
54.09448818897638
 30
0.0
 11
0.1653543307086614
 21
54.09448818897638
 31
0.0
  0
LINE
  5
C2
330
1F
100
AcDbEntity
  8
TITLE
  6
SLD-Solid
370
    18
100
AcDbLine
 10
89.5
 20
54.09448818897638
 30
0.0
 11
89.83464566929135
 21
54.09448818897638
 31
0.0
  0
LINE
  5
C3
330
1F
100
AcDbEntity
  8
TITLE
  6
SLD-Solid
370
    18
100
AcDbLine
 10
0.5
 20
56.06299212598425
 30
0.0
 11
0.1653543307086614
 21
56.06299212598425
 31
0.0
  0
LINE
  5
C4
330
1F
100
AcDbEntity
  8
TITLE
  6
SLD-Solid
370
    18
100
AcDbLine
 10
89.5
 20
56.06299212598425
 30
0.0
 11
89.83464566929135
 21
56.06299212598425
 31
0.0
  0
LINE
  5
C5
330
1F
100
AcDbEntity
  8
TITLE
  6
SLD-Solid
370
    18
100
AcDbLine
 10
0.5
 20
58.03149606299213
 30
0.0
 11
0.1653543307086614
 21
58.03149606299213
 31
0.0
  0
LINE
  5
C6
330
1F
100
AcDbEntity
  8
TITLE
  6
SLD-Solid
370
    18
100
AcDbLine
 10
89.5
 20
58.03149606299213
 30
0.0
 11
89.83464566929135
 21
58.03149606299213
 31
0.0
  0
LINE
  5
C7
330
1F
100
AcDbEntity
  8
TITLE
  6
SLD-Solid
370
    18
100
AcDbLine
 10
0.5
 20
60.0
 30
0.0
 11
0.1653543307086614
 21
60.0
 31
0.0
  0
LINE
  5
C8
330
1F
100
AcDbEntity
  8
TITLE
  6
SLD-Solid
370
    18
100
AcDbLine
 10
89.5
 20
60.0
 30
0.0
 11
89.83464566929135
 21
60.0
 31
0.0
  0
LINE
  5
C9
330
1F
100
AcDbEntity
  8
TITLE
  6
SLD-Solid
370
    18
100
AcDbLine
 10
0.5
 20
61.96850393700788
 30
0.0
 11
0.1653543307086614
 21
61.96850393700788
 31
0.0
  0
LINE
  5
CA
330
1F
100
AcDbEntity
  8
TITLE
  6
SLD-Solid
370
    18
100
AcDbLine
 10
89.5
 20
61.96850393700788
 30
0.0
 11
89.83464566929135
 21
61.96850393700788
 31
0.0
  0
LINE
  5
CB
330
1F
100
AcDbEntity
  8
TITLE
  6
SLD-Solid
370
    18
100
AcDbLine
 10
0.5
 20
63.93700787401576
 30
0.0
 11
0.1653543307086614
 21
63.93700787401576
 31
0.0
  0
LINE
  5
CC
330
1F
100
AcDbEntity
  8
TITLE
  6
SLD-Solid
370
    18
100
AcDbLine
 10
89.5
 20
63.93700787401576
 30
0.0
 11
89.83464566929135
 21
63.93700787401576
 31
0.0
  0
LINE
  5
CD
330
1F
100
AcDbEntity
  8
TITLE
  6
SLD-Solid
370
    18
100
AcDbLine
 10
0.5
 20
65.90551181102362
 30
0.0
 11
0.1653543307086614
 21
65.90551181102362
 31
0.0
  0
LINE
  5
CE
330
1F
100
AcDbEntity
  8
TITLE
  6
SLD-Solid
370
    18
100
AcDbLine
 10
89.5
 20
65.90551181102362
 30
0.0
 11
89.83464566929135
 21
65.90551181102362
 31
0.0
  0
LINE
  5
CF
330
1F
100
AcDbEntity
  8
TITLE
  6
SLD-Solid
370
    18
100
AcDbLine
 10
0.5
 20
67.8740157480315
 30
0.0
 11
0.1653543307086614
 21
67.8740157480315
 31
0.0
  0
LINE
  5
D0
330
1F
100
AcDbEntity
  8
TITLE
  6
SLD-Solid
370
    18
100
AcDbLine
 10
89.5
 20
67.8740157480315
 30
0.0
 11
89.83464566929135
 21
67.8740157480315
 31
0.0
  0
LINE
  5
D1
330
1F
100
AcDbEntity
  8
TITLE
  6
SLD-Solid
370
    18
100
AcDbLine
 10
0.5
 20
69.84251968503938
 30
0.0
 11
0.1653543307086614
 21
69.84251968503938
 31
0.0
  0
LINE
  5
D2
330
1F
100
AcDbEntity
  8
TITLE
  6
SLD-Solid
370
    18
100
AcDbLine
 10
89.5
 20
69.84251968503938
 30
0.0
 11
89.83464566929135
 21
69.84251968503938
 31
0.0
  0
LINE
  5
D3
330
1F
100
AcDbEntity
  8
TITLE
  6
SLD-Solid
370
    18
100
AcDbLine
 10
0.5
 20
71.81102362204724
 30
0.0
 11
0.1653543307086614
 21
71.81102362204724
 31
0.0
  0
LINE
  5
D4
330
1F
100
AcDbEntity
  8
TITLE
  6
SLD-Solid
370
    18
100
AcDbLine
 10
89.5
 20
71.81102362204724
 30
0.0
 11
89.83464566929135
 21
71.81102362204724
 31
0.0
  0
LINE
  5
D5
330
1F
100
AcDbEntity
  8
TITLE
  6
SLD-Solid
370
    18
100
AcDbLine
 10
0.5
 20
73.77952755905513
 30
0.0
 11
0.1653543307086614
 21
73.77952755905513
 31
0.0
  0
LINE
  5
D6
330
1F
100
AcDbEntity
  8
TITLE
  6
SLD-Solid
370
    18
100
AcDbLine
 10
89.5
 20
73.77952755905513
 30
0.0
 11
89.83464566929135
 21
73.77952755905513
 31
0.0
  0
LINE
  5
D7
330
1F
100
AcDbEntity
  8
TITLE
  6
SLD-Solid
370
    18
100
AcDbLine
 10
0.5
 20
75.74803149606299
 30
0.0
 11
0.1653543307086614
 21
75.74803149606299
 31
0.0
  0
LINE
  5
D8
330
1F
100
AcDbEntity
  8
TITLE
  6
SLD-Solid
370
    18
100
AcDbLine
 10
89.5
 20
75.74803149606299
 30
0.0
 11
89.83464566929135
 21
75.74803149606299
 31
0.0
  0
LINE
  5
D9
330
1F
100
AcDbEntity
  8
TITLE
  6
SLD-Solid
370
    18
100
AcDbLine
 10
0.5
 20
77.71653543307087
 30
0.0
 11
0.1653543307086614
 21
77.71653543307087
 31
0.0
  0
LINE
  5
DA
330
1F
100
AcDbEntity
  8
TITLE
  6
SLD-Solid
370
    18
100
AcDbLine
 10
89.5
 20
77.71653543307087
 30
0.0
 11
89.83464566929135
 21
77.71653543307087
 31
0.0
  0
LINE
  5
DB
330
1F
100
AcDbEntity
  8
TITLE
  6
SLD-Solid
370
    18
100
AcDbLine
 10
0.5
 20
79.68503937007874
 30
0.0
 11
0.1653543307086614
 21
79.68503937007874
 31
0.0
  0
LINE
  5
DC
330
1F
100
AcDbEntity
  8
TITLE
  6
SLD-Solid
370
    18
100
AcDbLine
 10
89.5
 20
79.68503937007874
 30
0.0
 11
89.83464566929135
 21
79.68503937007874
 31
0.0
  0
LINE
  5
DD
330
1F
100
AcDbEntity
  8
TITLE
  6
SLD-Solid
370
    18
100
AcDbLine
 10
0.5
 20
81.65354330708661
 30
0.0
 11
0.1653543307086614
 21
81.65354330708661
 31
0.0
  0
LINE
  5
DE
330
1F
100
AcDbEntity
  8
TITLE
  6
SLD-Solid
370
    18
100
AcDbLine
 10
89.5
 20
81.65354330708661
 30
0.0
 11
89.83464566929135
 21
81.65354330708661
 31
0.0
  0
LINE
  5
DF
330
1F
100
AcDbEntity
  8
TITLE
  6
SLD-Solid
370
    18
100
AcDbLine
 10
0.5
 20
83.62204724409449
 30
0.0
 11
0.1653543307086614
 21
83.62204724409449
 31
0.0
  0
LINE
  5
E0
330
1F
100
AcDbEntity
  8
TITLE
  6
SLD-Solid
370
    18
100
AcDbLine
 10
89.5
 20
83.62204724409449
 30
0.0
 11
89.83464566929135
 21
83.62204724409449
 31
0.0
  0
LINE
  5
E1
330
1F
100
AcDbEntity
  8
TITLE
  6
SLD-Solid
370
    18
100
AcDbLine
 10
0.5
 20
85.59055118110236
 30
0.0
 11
0.1653543307086614
 21
85.59055118110236
 31
0.0
  0
LINE
  5
E2
330
1F
100
AcDbEntity
  8
TITLE
  6
SLD-Solid
370
    18
100
AcDbLine
 10
89.5
 20
85.59055118110236
 30
0.0
 11
89.83464566929135
 21
85.59055118110236
 31
0.0
  0
LINE
  5
E3
330
1F
100
AcDbEntity
  8
TITLE
  6
SLD-Solid
370
    18
100
AcDbLine
 10
0.5
 20
87.55905511811025
 30
0.0
 11
0.1653543307086614
 21
87.55905511811025
 31
0.0
  0
LINE
  5
E4
330
1F
100
AcDbEntity
  8
TITLE
  6
SLD-Solid
370
    18
100
AcDbLine
 10
89.5
 20
87.55905511811025
 30
0.0
 11
89.83464566929135
 21
87.55905511811025
 31
0.0
  0
LINE
  5
E5
330
1F
100
AcDbEntity
  8
TITLE
  6
SLD-Solid
370
    18
100
AcDbLine
 10
0.5
 20
89.52755905511812
 30
0.0
 11
0.1653543307086614
 21
89.52755905511812
 31
0.0
  0
LINE
  5
E6
330
1F
100
AcDbEntity
  8
TITLE
  6
SLD-Solid
370
    18
100
AcDbLine
 10
89.5
 20
89.52755905511812
 30
0.0
 11
89.83464566929135
 21
89.52755905511812
 31
0.0
  0
LINE
  5
E7
330
1F
100
AcDbEntity
  8
TITLE
  6
SLD-Solid
370
    18
100
AcDbLine
 10
0.5
 20
91.49606299212599
 30
0.0
 11
0.1653543307086614
 21
91.49606299212599
 31
0.0
  0
LINE
  5
E8
330
1F
100
AcDbEntity
  8
TITLE
  6
SLD-Solid
370
    18
100
AcDbLine
 10
89.5
 20
91.49606299212599
 30
0.0
 11
89.83464566929135
 21
91.49606299212599
 31
0.0
  0
LINE
  5
E9
330
1F
100
AcDbEntity
  8
TITLE
  6
SLD-Solid
370
    18
100
AcDbLine
 10
0.5
 20
93.46456692913387
 30
0.0
 11
0.1653543307086614
 21
93.46456692913387
 31
0.0
  0
LINE
  5
EA
330
1F
100
AcDbEntity
  8
TITLE
  6
SLD-Solid
370
    18
100
AcDbLine
 10
89.5
 20
93.46456692913387
 30
0.0
 11
89.83464566929135
 21
93.46456692913387
 31
0.0
  0
LINE
  5
EB
330
1F
100
AcDbEntity
  8
TITLE
  6
SLD-Solid
370
    18
100
AcDbLine
 10
0.5
 20
95.43307086614173
 30
0.0
 11
0.1653543307086614
 21
95.43307086614173
 31
0.0
  0
LINE
  5
EC
330
1F
100
AcDbEntity
  8
TITLE
  6
SLD-Solid
370
    18
100
AcDbLine
 10
89.5
 20
95.43307086614173
 30
0.0
 11
89.83464566929135
 21
95.43307086614173
 31
0.0
  0
LINE
  5
ED
330
1F
100
AcDbEntity
  8
TITLE
  6
SLD-Solid
370
    18
100
AcDbLine
 10
0.5
 20
97.40157480314961
 30
0.0
 11
0.1653543307086614
 21
97.40157480314961
 31
0.0
  0
LINE
  5
EE
330
1F
100
AcDbEntity
  8
TITLE
  6
SLD-Solid
370
    18
100
AcDbLine
 10
89.5
 20
97.40157480314961
 30
0.0
 11
89.83464566929135
 21
97.40157480314961
 31
0.0
  0
LINE
  5
EF
330
1F
100
AcDbEntity
  8
TITLE
  6
SLD-Solid
370
    18
100
AcDbLine
 10
0.5
 20
99.37007874015748
 30
0.0
 11
0.1653543307086614
 21
99.37007874015748
 31
0.0
  0
LINE
  5
F0
330
1F
100
AcDbEntity
  8
TITLE
  6
SLD-Solid
370
    18
100
AcDbLine
 10
89.5
 20
99.37007874015748
 30
0.0
 11
89.83464566929135
 21
99.37007874015748
 31
0.0
  0
LINE
  5
F1
330
1F
100
AcDbEntity
  8
TITLE
  6
SLD-Solid
370
    18
100
AcDbLine
 10
0.5
 20
101.3385826771653
 30
0.0
 11
0.1653543307086614
 21
101.3385826771653
 31
0.0
  0
LINE
  5
F2
330
1F
100
AcDbEntity
  8
TITLE
  6
SLD-Solid
370
    18
100
AcDbLine
 10
89.5
 20
101.3385826771653
 30
0.0
 11
89.83464566929135
 21
101.3385826771653
 31
0.0
  0
LINE
  5
F3
330
1F
100
AcDbEntity
  8
TITLE
  6
SLD-Solid
370
    18
100
AcDbLine
 10
0.5
 20
103.3070866141732
 30
0.0
 11
0.1653543307086614
 21
103.3070866141732
 31
0.0
  0
LINE
  5
F4
330
1F
100
AcDbEntity
  8
TITLE
  6
SLD-Solid
370
    18
100
AcDbLine
 10
89.5
 20
103.3070866141732
 30
0.0
 11
89.83464566929135
 21
103.3070866141732
 31
0.0
  0
LINE
  5
F5
330
1F
100
AcDbEntity
  8
TITLE
  6
SLD-Solid
370
    18
100
AcDbLine
 10
0.5
 20
105.2755905511811
 30
0.0
 11
0.1653543307086614
 21
105.2755905511811
 31
0.0
  0
LINE
  5
F6
330
1F
100
AcDbEntity
  8
TITLE
  6
SLD-Solid
370
    18
100
AcDbLine
 10
89.5
 20
105.2755905511811
 30
0.0
 11
89.83464566929135
 21
105.2755905511811
 31
0.0
  0
LINE
  5
F7
330
1F
100
AcDbEntity
  8
TITLE
  6
SLD-Solid
370
    18
100
AcDbLine
 10
0.5
 20
107.244094488189
 30
0.0
 11
0.1653543307086614
 21
107.244094488189
 31
0.0
  0
LINE
  5
F8
330
1F
100
AcDbEntity
  8
TITLE
  6
SLD-Solid
370
    18
100
AcDbLine
 10
89.5
 20
107.244094488189
 30
0.0
 11
89.83464566929135
 21
107.244094488189
 31
0.0
  0
LINE
  5
F9
330
1F
100
AcDbEntity
  8
TITLE
  6
SLD-Solid
370
    18
100
AcDbLine
 10
0.5
 20
109.2125984251969
 30
0.0
 11
0.1653543307086614
 21
109.2125984251969
 31
0.0
  0
LINE
  5
FA
330
1F
100
AcDbEntity
  8
TITLE
  6
SLD-Solid
370
    18
100
AcDbLine
 10
89.5
 20
109.2125984251969
 30
0.0
 11
89.83464566929135
 21
109.2125984251969
 31
0.0
  0
LINE
  5
FB
330
1F
100
AcDbEntity
  8
TITLE
  6
SLD-Solid
370
    18
100
AcDbLine
 10
0.5
 20
111.1811023622047
 30
0.0
 11
0.1653543307086614
 21
111.1811023622047
 31
0.0
  0
LINE
  5
FC
330
1F
100
AcDbEntity
  8
TITLE
  6
SLD-Solid
370
    18
100
AcDbLine
 10
89.5
 20
111.1811023622047
 30
0.0
 11
89.83464566929135
 21
111.1811023622047
 31
0.0
  0
LINE
  5
FD
330
1F
100
AcDbEntity
  8
TITLE
  6
SLD-Solid
370
    18
100
AcDbLine
 10
0.5
 20
113.1496062992126
 30
0.0
 11
0.1653543307086614
 21
113.1496062992126
 31
0.0
  0
LINE
  5
FE
330
1F
100
AcDbEntity
  8
TITLE
  6
SLD-Solid
370
    18
100
AcDbLine
 10
89.5
 20
113.1496062992126
 30
0.0
 11
89.83464566929135
 21
113.1496062992126
 31
0.0
  0
LINE
  5
FF
330
1F
100
AcDbEntity
  8
TITLE
  6
SLD-Solid
370
    18
100
AcDbLine
 10
0.5
 20
115.1181102362205
 30
0.0
 11
0.1653543307086614
 21
115.1181102362205
 31
0.0
  0
LINE
  5
100
330
1F
100
AcDbEntity
  8
TITLE
  6
SLD-Solid
370
    18
100
AcDbLine
 10
89.5
 20
115.1181102362205
 30
0.0
 11
89.83464566929135
 21
115.1181102362205
 31
0.0
  0
LINE
  5
101
330
1F
100
AcDbEntity
  8
TITLE
  6
SLD-Solid
370
    18
100
AcDbLine
 10
0.5
 20
117.0866141732284
 30
0.0
 11
0.1653543307086614
 21
117.0866141732284
 31
0.0
  0
LINE
  5
102
330
1F
100
AcDbEntity
  8
TITLE
  6
SLD-Solid
370
    18
100
AcDbLine
 10
89.5
 20
117.0866141732284
 30
0.0
 11
89.83464566929135
 21
117.0866141732284
 31
0.0
  0
LINE
  5
103
330
1F
100
AcDbEntity
  8
TITLE
  6
SLD-Solid
370
    18
100
AcDbLine
 10
1.692913385826769
 20
119.5
 30
0.0
 11
1.692913385826769
 21
119.8346456692913
 31
0.0
  0
LINE
  5
104
330
1F
100
AcDbEntity
  8
TITLE
  6
SLD-Solid
370
    18
100
AcDbLine
 10
1.692913385826769
 20
0.5
 30
0.0
 11
1.692913385826769
 21
0.1653543307086614
 31
0.0
  0
LINE
  5
105
330
1F
100
AcDbEntity
  8
TITLE
  6
SLD-Solid
370
    18
100
AcDbLine
 10
3.661417322834644
 20
119.5
 30
0.0
 11
3.661417322834644
 21
119.8346456692913
 31
0.0
  0
LINE
  5
106
330
1F
100
AcDbEntity
  8
TITLE
  6
SLD-Solid
370
    18
100
AcDbLine
 10
3.661417322834644
 20
0.5
 30
0.0
 11
3.661417322834644
 21
0.1653543307086614
 31
0.0
  0
LINE
  5
107
330
1F
100
AcDbEntity
  8
TITLE
  6
SLD-Solid
370
    18
100
AcDbLine
 10
5.62992125984252
 20
119.5
 30
0.0
 11
5.62992125984252
 21
119.8346456692913
 31
0.0
  0
LINE
  5
108
330
1F
100
AcDbEntity
  8
TITLE
  6
SLD-Solid
370
    18
100
AcDbLine
 10
5.62992125984252
 20
0.5
 30
0.0
 11
5.62992125984252
 21
0.1653543307086614
 31
0.0
  0
LINE
  5
109
330
1F
100
AcDbEntity
  8
TITLE
  6
SLD-Solid
370
    18
100
AcDbLine
 10
7.598425196850392
 20
119.5
 30
0.0
 11
7.598425196850392
 21
119.8346456692913
 31
0.0
  0
LINE
  5
10A
330
1F
100
AcDbEntity
  8
TITLE
  6
SLD-Solid
370
    18
100
AcDbLine
 10
7.598425196850392
 20
0.5
 30
0.0
 11
7.598425196850392
 21
0.1653543307086614
 31
0.0
  0
LINE
  5
10B
330
1F
100
AcDbEntity
  8
TITLE
  6
SLD-Solid
370
    18
100
AcDbLine
 10
9.566929133858268
 20
119.5
 30
0.0
 11
9.566929133858268
 21
119.8346456692913
 31
0.0
  0
LINE
  5
10C
330
1F
100
AcDbEntity
  8
TITLE
  6
SLD-Solid
370
    18
100
AcDbLine
 10
9.566929133858268
 20
0.5
 30
0.0
 11
9.566929133858268
 21
0.1653543307086614
 31
0.0
  0
LINE
  5
10D
330
1F
100
AcDbEntity
  8
TITLE
  6
SLD-Solid
370
    18
100
AcDbLine
 10
11.53543307086614
 20
119.5
 30
0.0
 11
11.53543307086614
 21
119.8346456692913
 31
0.0
  0
LINE
  5
10E
330
1F
100
AcDbEntity
  8
TITLE
  6
SLD-Solid
370
    18
100
AcDbLine
 10
11.53543307086614
 20
0.5
 30
0.0
 11
11.53543307086614
 21
0.1653543307086614
 31
0.0
  0
LINE
  5
10F
330
1F
100
AcDbEntity
  8
TITLE
  6
SLD-Solid
370
    18
100
AcDbLine
 10
13.50393700787401
 20
119.5
 30
0.0
 11
13.50393700787401
 21
119.8346456692913
 31
0.0
  0
LINE
  5
110
330
1F
100
AcDbEntity
  8
TITLE
  6
SLD-Solid
370
    18
100
AcDbLine
 10
13.50393700787401
 20
0.5
 30
0.0
 11
13.50393700787401
 21
0.1653543307086614
 31
0.0
  0
LINE
  5
111
330
1F
100
AcDbEntity
  8
TITLE
  6
SLD-Solid
370
    18
100
AcDbLine
 10
15.47244094488189
 20
119.5
 30
0.0
 11
15.47244094488189
 21
119.8346456692913
 31
0.0
  0
LINE
  5
112
330
1F
100
AcDbEntity
  8
TITLE
  6
SLD-Solid
370
    18
100
AcDbLine
 10
15.47244094488189
 20
0.5
 30
0.0
 11
15.47244094488189
 21
0.1653543307086614
 31
0.0
  0
LINE
  5
113
330
1F
100
AcDbEntity
  8
TITLE
  6
SLD-Solid
370
    18
100
AcDbLine
 10
17.44094488188976
 20
119.5
 30
0.0
 11
17.44094488188976
 21
119.8346456692913
 31
0.0
  0
LINE
  5
114
330
1F
100
AcDbEntity
  8
TITLE
  6
SLD-Solid
370
    18
100
AcDbLine
 10
17.44094488188976
 20
0.5
 30
0.0
 11
17.44094488188976
 21
0.1653543307086614
 31
0.0
  0
LINE
  5
115
330
1F
100
AcDbEntity
  8
TITLE
  6
SLD-Solid
370
    18
100
AcDbLine
 10
19.40944881889764
 20
119.5
 30
0.0
 11
19.40944881889764
 21
119.8346456692913
 31
0.0
  0
LINE
  5
116
330
1F
100
AcDbEntity
  8
TITLE
  6
SLD-Solid
370
    18
100
AcDbLine
 10
19.40944881889764
 20
0.5
 30
0.0
 11
19.40944881889764
 21
0.1653543307086614
 31
0.0
  0
LINE
  5
117
330
1F
100
AcDbEntity
  8
TITLE
  6
SLD-Solid
370
    18
100
AcDbLine
 10
21.37795275590551
 20
119.5
 30
0.0
 11
21.37795275590551
 21
119.8346456692913
 31
0.0
  0
LINE
  5
118
330
1F
100
AcDbEntity
  8
TITLE
  6
SLD-Solid
370
    18
100
AcDbLine
 10
21.37795275590551
 20
0.5
 30
0.0
 11
21.37795275590551
 21
0.1653543307086614
 31
0.0
  0
LINE
  5
119
330
1F
100
AcDbEntity
  8
TITLE
  6
SLD-Solid
370
    18
100
AcDbLine
 10
23.34645669291339
 20
119.5
 30
0.0
 11
23.34645669291339
 21
119.8346456692913
 31
0.0
  0
LINE
  5
11A
330
1F
100
AcDbEntity
  8
TITLE
  6
SLD-Solid
370
    18
100
AcDbLine
 10
23.34645669291339
 20
0.5
 30
0.0
 11
23.34645669291339
 21
0.1653543307086614
 31
0.0
  0
LINE
  5
11B
330
1F
100
AcDbEntity
  8
TITLE
  6
SLD-Solid
370
    18
100
AcDbLine
 10
25.31496062992126
 20
119.5
 30
0.0
 11
25.31496062992126
 21
119.8346456692913
 31
0.0
  0
LINE
  5
11C
330
1F
100
AcDbEntity
  8
TITLE
  6
SLD-Solid
370
    18
100
AcDbLine
 10
25.31496062992126
 20
0.5
 30
0.0
 11
25.31496062992126
 21
0.1653543307086614
 31
0.0
  0
LINE
  5
11D
330
1F
100
AcDbEntity
  8
TITLE
  6
SLD-Solid
370
    18
100
AcDbLine
 10
27.28346456692914
 20
119.5
 30
0.0
 11
27.28346456692914
 21
119.8346456692913
 31
0.0
  0
LINE
  5
11E
330
1F
100
AcDbEntity
  8
TITLE
  6
SLD-Solid
370
    18
100
AcDbLine
 10
27.28346456692914
 20
0.5
 30
0.0
 11
27.28346456692914
 21
0.1653543307086614
 31
0.0
  0
LINE
  5
11F
330
1F
100
AcDbEntity
  8
TITLE
  6
SLD-Solid
370
    18
100
AcDbLine
 10
29.25196850393701
 20
119.5
 30
0.0
 11
29.25196850393701
 21
119.8346456692913
 31
0.0
  0
LINE
  5
120
330
1F
100
AcDbEntity
  8
TITLE
  6
SLD-Solid
370
    18
100
AcDbLine
 10
29.25196850393701
 20
0.5
 30
0.0
 11
29.25196850393701
 21
0.1653543307086614
 31
0.0
  0
LINE
  5
121
330
1F
100
AcDbEntity
  8
TITLE
  6
SLD-Solid
370
    18
100
AcDbLine
 10
31.22047244094488
 20
119.5
 30
0.0
 11
31.22047244094488
 21
119.8346456692913
 31
0.0
  0
LINE
  5
122
330
1F
100
AcDbEntity
  8
TITLE
  6
SLD-Solid
370
    18
100
AcDbLine
 10
31.22047244094488
 20
0.5
 30
0.0
 11
31.22047244094488
 21
0.1653543307086614
 31
0.0
  0
LINE
  5
123
330
1F
100
AcDbEntity
  8
TITLE
  6
SLD-Solid
370
    18
100
AcDbLine
 10
33.18897637795276
 20
119.5
 30
0.0
 11
33.18897637795276
 21
119.8346456692913
 31
0.0
  0
LINE
  5
124
330
1F
100
AcDbEntity
  8
TITLE
  6
SLD-Solid
370
    18
100
AcDbLine
 10
33.18897637795276
 20
0.5
 30
0.0
 11
33.18897637795276
 21
0.1653543307086614
 31
0.0
  0
LINE
  5
125
330
1F
100
AcDbEntity
  8
TITLE
  6
SLD-Solid
370
    18
100
AcDbLine
 10
35.15748031496063
 20
119.5
 30
0.0
 11
35.15748031496063
 21
119.8346456692913
 31
0.0
  0
LINE
  5
126
330
1F
100
AcDbEntity
  8
TITLE
  6
SLD-Solid
370
    18
100
AcDbLine
 10
35.15748031496063
 20
0.5
 30
0.0
 11
35.15748031496063
 21
0.1653543307086614
 31
0.0
  0
LINE
  5
127
330
1F
100
AcDbEntity
  8
TITLE
  6
SLD-Solid
370
    18
100
AcDbLine
 10
37.12598425196851
 20
119.5
 30
0.0
 11
37.12598425196851
 21
119.8346456692913
 31
0.0
  0
LINE
  5
128
330
1F
100
AcDbEntity
  8
TITLE
  6
SLD-Solid
370
    18
100
AcDbLine
 10
37.12598425196851
 20
0.5
 30
0.0
 11
37.12598425196851
 21
0.1653543307086614
 31
0.0
  0
LINE
  5
129
330
1F
100
AcDbEntity
  8
TITLE
  6
SLD-Solid
370
    18
100
AcDbLine
 10
39.09448818897638
 20
119.5
 30
0.0
 11
39.09448818897638
 21
119.8346456692913
 31
0.0
  0
LINE
  5
12A
330
1F
100
AcDbEntity
  8
TITLE
  6
SLD-Solid
370
    18
100
AcDbLine
 10
39.09448818897638
 20
0.5
 30
0.0
 11
39.09448818897638
 21
0.1653543307086614
 31
0.0
  0
LINE
  5
12B
330
1F
100
AcDbEntity
  8
TITLE
  6
SLD-Solid
370
    18
100
AcDbLine
 10
41.06299212598425
 20
119.5
 30
0.0
 11
41.06299212598425
 21
119.8346456692913
 31
0.0
  0
LINE
  5
12C
330
1F
100
AcDbEntity
  8
TITLE
  6
SLD-Solid
370
    18
100
AcDbLine
 10
41.06299212598425
 20
0.5
 30
0.0
 11
41.06299212598425
 21
0.1653543307086614
 31
0.0
  0
LINE
  5
12D
330
1F
100
AcDbEntity
  8
TITLE
  6
SLD-Solid
370
    18
100
AcDbLine
 10
43.03149606299213
 20
119.5
 30
0.0
 11
43.03149606299213
 21
119.8346456692913
 31
0.0
  0
LINE
  5
12E
330
1F
100
AcDbEntity
  8
TITLE
  6
SLD-Solid
370
    18
100
AcDbLine
 10
43.03149606299213
 20
0.5
 30
0.0
 11
43.03149606299213
 21
0.1653543307086614
 31
0.0
  0
LINE
  5
12F
330
1F
100
AcDbEntity
  8
TITLE
  6
SLD-Solid
370
    18
100
AcDbLine
 10
45.0
 20
119.5
 30
0.0
 11
45.0
 21
119.8346456692913
 31
0.0
  0
LINE
  5
130
330
1F
100
AcDbEntity
  8
TITLE
  6
SLD-Solid
370
    18
100
AcDbLine
 10
45.0
 20
0.5
 30
0.0
 11
45.0
 21
0.1653543307086614
 31
0.0
  0
LINE
  5
131
330
1F
100
AcDbEntity
  8
TITLE
  6
SLD-Solid
370
    18
100
AcDbLine
 10
46.96850393700788
 20
119.5
 30
0.0
 11
46.96850393700788
 21
119.8346456692913
 31
0.0
  0
LINE
  5
132
330
1F
100
AcDbEntity
  8
TITLE
  6
SLD-Solid
370
    18
100
AcDbLine
 10
46.96850393700788
 20
0.5
 30
0.0
 11
46.96850393700788
 21
0.1653543307086614
 31
0.0
  0
LINE
  5
133
330
1F
100
AcDbEntity
  8
TITLE
  6
SLD-Solid
370
    18
100
AcDbLine
 10
48.93700787401576
 20
119.5
 30
0.0
 11
48.93700787401576
 21
119.8346456692913
 31
0.0
  0
LINE
  5
134
330
1F
100
AcDbEntity
  8
TITLE
  6
SLD-Solid
370
    18
100
AcDbLine
 10
48.93700787401576
 20
0.5
 30
0.0
 11
48.93700787401576
 21
0.1653543307086614
 31
0.0
  0
LINE
  5
135
330
1F
100
AcDbEntity
  8
TITLE
  6
SLD-Solid
370
    18
100
AcDbLine
 10
50.90551181102363
 20
119.5
 30
0.0
 11
50.90551181102363
 21
119.8346456692913
 31
0.0
  0
LINE
  5
136
330
1F
100
AcDbEntity
  8
TITLE
  6
SLD-Solid
370
    18
100
AcDbLine
 10
50.90551181102363
 20
0.5
 30
0.0
 11
50.90551181102363
 21
0.1653543307086614
 31
0.0
  0
LINE
  5
137
330
1F
100
AcDbEntity
  8
TITLE
  6
SLD-Solid
370
    18
100
AcDbLine
 10
52.8740157480315
 20
119.5
 30
0.0
 11
52.8740157480315
 21
119.8346456692913
 31
0.0
  0
LINE
  5
138
330
1F
100
AcDbEntity
  8
TITLE
  6
SLD-Solid
370
    18
100
AcDbLine
 10
52.8740157480315
 20
0.5
 30
0.0
 11
52.8740157480315
 21
0.1653543307086614
 31
0.0
  0
LINE
  5
139
330
1F
100
AcDbEntity
  8
TITLE
  6
SLD-Solid
370
    18
100
AcDbLine
 10
54.84251968503937
 20
119.5
 30
0.0
 11
54.84251968503937
 21
119.8346456692913
 31
0.0
  0
LINE
  5
13A
330
1F
100
AcDbEntity
  8
TITLE
  6
SLD-Solid
370
    18
100
AcDbLine
 10
54.84251968503937
 20
0.5
 30
0.0
 11
54.84251968503937
 21
0.1653543307086614
 31
0.0
  0
LINE
  5
13B
330
1F
100
AcDbEntity
  8
TITLE
  6
SLD-Solid
370
    18
100
AcDbLine
 10
56.81102362204725
 20
119.5
 30
0.0
 11
56.81102362204725
 21
119.8346456692913
 31
0.0
  0
LINE
  5
13C
330
1F
100
AcDbEntity
  8
TITLE
  6
SLD-Solid
370
    18
100
AcDbLine
 10
56.81102362204725
 20
0.5
 30
0.0
 11
56.81102362204725
 21
0.1653543307086614
 31
0.0
  0
LINE
  5
13D
330
1F
100
AcDbEntity
  8
TITLE
  6
SLD-Solid
370
    18
100
AcDbLine
 10
58.77952755905513
 20
119.5
 30
0.0
 11
58.77952755905513
 21
119.8346456692913
 31
0.0
  0
LINE
  5
13E
330
1F
100
AcDbEntity
  8
TITLE
  6
SLD-Solid
370
    18
100
AcDbLine
 10
58.77952755905513
 20
0.5
 30
0.0
 11
58.77952755905513
 21
0.1653543307086614
 31
0.0
  0
LINE
  5
13F
330
1F
100
AcDbEntity
  8
TITLE
  6
SLD-Solid
370
    18
100
AcDbLine
 10
60.748031496063
 20
119.5
 30
0.0
 11
60.748031496063
 21
119.8346456692913
 31
0.0
  0
LINE
  5
140
330
1F
100
AcDbEntity
  8
TITLE
  6
SLD-Solid
370
    18
100
AcDbLine
 10
60.748031496063
 20
0.5
 30
0.0
 11
60.748031496063
 21
0.1653543307086614
 31
0.0
  0
LINE
  5
141
330
1F
100
AcDbEntity
  8
TITLE
  6
SLD-Solid
370
    18
100
AcDbLine
 10
62.71653543307087
 20
119.5
 30
0.0
 11
62.71653543307087
 21
119.8346456692913
 31
0.0
  0
LINE
  5
142
330
1F
100
AcDbEntity
  8
TITLE
  6
SLD-Solid
370
    18
100
AcDbLine
 10
62.71653543307087
 20
0.5
 30
0.0
 11
62.71653543307087
 21
0.1653543307086614
 31
0.0
  0
LINE
  5
143
330
1F
100
AcDbEntity
  8
TITLE
  6
SLD-Solid
370
    18
100
AcDbLine
 10
64.68503937007874
 20
119.5
 30
0.0
 11
64.68503937007874
 21
119.8346456692913
 31
0.0
  0
LINE
  5
144
330
1F
100
AcDbEntity
  8
TITLE
  6
SLD-Solid
370
    18
100
AcDbLine
 10
64.68503937007874
 20
0.5
 30
0.0
 11
64.68503937007874
 21
0.1653543307086614
 31
0.0
  0
LINE
  5
145
330
1F
100
AcDbEntity
  8
TITLE
  6
SLD-Solid
370
    18
100
AcDbLine
 10
66.65354330708662
 20
119.5
 30
0.0
 11
66.65354330708662
 21
119.8346456692913
 31
0.0
  0
LINE
  5
146
330
1F
100
AcDbEntity
  8
TITLE
  6
SLD-Solid
370
    18
100
AcDbLine
 10
66.65354330708662
 20
0.5
 30
0.0
 11
66.65354330708662
 21
0.1653543307086614
 31
0.0
  0
LINE
  5
147
330
1F
100
AcDbEntity
  8
TITLE
  6
SLD-Solid
370
    18
100
AcDbLine
 10
68.62204724409449
 20
119.5
 30
0.0
 11
68.62204724409449
 21
119.8346456692913
 31
0.0
  0
LINE
  5
148
330
1F
100
AcDbEntity
  8
TITLE
  6
SLD-Solid
370
    18
100
AcDbLine
 10
68.62204724409449
 20
0.5
 30
0.0
 11
68.62204724409449
 21
0.1653543307086614
 31
0.0
  0
LINE
  5
149
330
1F
100
AcDbEntity
  8
TITLE
  6
SLD-Solid
370
    18
100
AcDbLine
 10
70.59055118110237
 20
119.5
 30
0.0
 11
70.59055118110237
 21
119.8346456692913
 31
0.0
  0
LINE
  5
14A
330
1F
100
AcDbEntity
  8
TITLE
  6
SLD-Solid
370
    18
100
AcDbLine
 10
70.59055118110237
 20
0.5
 30
0.0
 11
70.59055118110237
 21
0.1653543307086614
 31
0.0
  0
LINE
  5
14B
330
1F
100
AcDbEntity
  8
TITLE
  6
SLD-Solid
370
    18
100
AcDbLine
 10
72.55905511811024
 20
119.5
 30
0.0
 11
72.55905511811024
 21
119.8346456692913
 31
0.0
  0
LINE
  5
14C
330
1F
100
AcDbEntity
  8
TITLE
  6
SLD-Solid
370
    18
100
AcDbLine
 10
72.55905511811024
 20
0.5
 30
0.0
 11
72.55905511811024
 21
0.1653543307086614
 31
0.0
  0
LINE
  5
14D
330
1F
100
AcDbEntity
  8
TITLE
  6
SLD-Solid
370
    18
100
AcDbLine
 10
74.52755905511812
 20
119.5
 30
0.0
 11
74.52755905511812
 21
119.8346456692913
 31
0.0
  0
LINE
  5
14E
330
1F
100
AcDbEntity
  8
TITLE
  6
SLD-Solid
370
    18
100
AcDbLine
 10
74.52755905511812
 20
0.5
 30
0.0
 11
74.52755905511812
 21
0.1653543307086614
 31
0.0
  0
LINE
  5
14F
330
1F
100
AcDbEntity
  8
TITLE
  6
SLD-Solid
370
    18
100
AcDbLine
 10
76.49606299212599
 20
119.5
 30
0.0
 11
76.49606299212599
 21
119.8346456692913
 31
0.0
  0
LINE
  5
150
330
1F
100
AcDbEntity
  8
TITLE
  6
SLD-Solid
370
    18
100
AcDbLine
 10
76.49606299212599
 20
0.5
 30
0.0
 11
76.49606299212599
 21
0.1653543307086614
 31
0.0
  0
LINE
  5
151
330
1F
100
AcDbEntity
  8
TITLE
  6
SLD-Solid
370
    18
100
AcDbLine
 10
78.46456692913387
 20
119.5
 30
0.0
 11
78.46456692913387
 21
119.8346456692913
 31
0.0
  0
LINE
  5
152
330
1F
100
AcDbEntity
  8
TITLE
  6
SLD-Solid
370
    18
100
AcDbLine
 10
78.46456692913387
 20
0.5
 30
0.0
 11
78.46456692913387
 21
0.1653543307086614
 31
0.0
  0
LINE
  5
153
330
1F
100
AcDbEntity
  8
TITLE
  6
SLD-Solid
370
    18
100
AcDbLine
 10
80.43307086614175
 20
119.5
 30
0.0
 11
80.43307086614175
 21
119.8346456692913
 31
0.0
  0
LINE
  5
154
330
1F
100
AcDbEntity
  8
TITLE
  6
SLD-Solid
370
    18
100
AcDbLine
 10
80.43307086614175
 20
0.5
 30
0.0
 11
80.43307086614175
 21
0.1653543307086614
 31
0.0
  0
LINE
  5
155
330
1F
100
AcDbEntity
  8
TITLE
  6
SLD-Solid
370
    18
100
AcDbLine
 10
82.40157480314961
 20
119.5
 30
0.0
 11
82.40157480314961
 21
119.8346456692913
 31
0.0
  0
LINE
  5
156
330
1F
100
AcDbEntity
  8
TITLE
  6
SLD-Solid
370
    18
100
AcDbLine
 10
82.40157480314961
 20
0.5
 30
0.0
 11
82.40157480314961
 21
0.1653543307086614
 31
0.0
  0
LINE
  5
157
330
1F
100
AcDbEntity
  8
TITLE
  6
SLD-Solid
370
    18
100
AcDbLine
 10
84.37007874015748
 20
119.5
 30
0.0
 11
84.37007874015748
 21
119.8346456692913
 31
0.0
  0
LINE
  5
158
330
1F
100
AcDbEntity
  8
TITLE
  6
SLD-Solid
370
    18
100
AcDbLine
 10
84.37007874015748
 20
0.5
 30
0.0
 11
84.37007874015748
 21
0.1653543307086614
 31
0.0
  0
LINE
  5
159
330
1F
100
AcDbEntity
  8
TITLE
  6
SLD-Solid
370
    18
100
AcDbLine
 10
86.33858267716536
 20
119.5
 30
0.0
 11
86.33858267716536
 21
119.8346456692913
 31
0.0
  0
LINE
  5
15A
330
1F
100
AcDbEntity
  8
TITLE
  6
SLD-Solid
370
    18
100
AcDbLine
 10
86.33858267716536
 20
0.5
 30
0.0
 11
86.33858267716536
 21
0.1653543307086614
 31
0.0
  0
LINE
  5
15B
330
1F
100
AcDbEntity
  8
TITLE
  6
SLD-Solid
370
    18
100
AcDbLine
 10
88.30708661417324
 20
119.5
 30
0.0
 11
88.30708661417324
 21
119.8346456692913
 31
0.0
  0
LINE
  5
15C
330
1F
100
AcDbEntity
  8
TITLE
  6
SLD-Solid
370
    18
100
AcDbLine
 10
88.30708661417324
 20
0.5
 30
0.0
 11
88.30708661417324
 21
0.1653543307086614
 31
0.0
  0
HATCH
  5
15D
330
1F
100
AcDbEntity
  8
NOTES
100
AcDbHatch
 10
0.0
 20
0.0
 30
0.0
210
0.0
220
0.0
230
1.0
  2
AR-SAND
 70
     0
 71
     0
 91
        1
 92
        0
 93
        4
 72
     3
 10
62.36067934350628
 20
55.04556871656327
 11
0.6325000000000026
 21
0.0
 40
0.5772877120855404
 50
179.9999985213806
 51
360.0000014786208
 73
     1
 72
     1
 10
62.99317934350628
 20
55.04556873288607
 11
62.99317934350633
 21
38.71475249517104
 72
     3
 10
62.36067934350633
 20
38.71475249517104
 11
-0.6325000000000026
 21
-4.370956789862821E-15
 40
0.5772877120855335
 50
180.0000000000012
 51
360.0
 73
     0
 72
     1
 10
61.72817934350633
 20
38.71475249517104
 11
61.72817934350628
 21
55.04556873288606
 97
        0
 75
     0
 76
     1
 52
0.0
 41
5.333333333333333
 77
     0
 78
     4
 53
37.5
 43
0.0
 44
0.0
 45
-0.3359645765845767
 46
10.27639343473685
 79
     6
 49
0.0
 49
-8.106666666666666
 49
0.0
 49
-9.066666666666666
 49
0.0
 49
-8.666666666666666
 53
7.499999999999999
 43
0.0
 44
0.0
 45
9.438809094761211
 46
15.05144568122528
 79
     6
 49
0.0
 49
-4.373333333333333
 49
0.0
 49
-7.306666666666667
 49
0.0
 49
-2.8
 53
327.5
 43
-6.56
 44
0.0
 45
16.60875659600797
 46
0.030181618863812
 79
     6
 49
0.0
 49
-2.666666666666667
 49
0.0
 49
-9.6
 49
0.0
 49
-12.53333333333333
 53
317.5
 43
-6.56
 44
0.0
 45
16.03267522438556
 46
4.680936346315997
 79
     6
 49
0.0
 49
-1.333333333333333
 49
0.0
 49
-6.293333333333333
 49
0.0
 49
-7.2
 98
        1
 10
0.0
 20
0.0
  0
MTEXT
  5
15F
330
1F
100
AcDbEntity
  8
NOTES
100
AcDbMText
 10
66.40829780303407
 20
1.07029033469434
 30
0.0
 40
0.25
 41
0.0
 71
     1
 72
     1
  1
UNLESS OTHERWISE SPECIFIED DIMENSIONS ARE IN INCHES.
  7
SLDTEXTSTYLE0
 73
     1
 44
1.0
  0
MTEXT
  5
160
330
1F
100
AcDbEntity
  8
NOTES
100
AcDbMText
 10
66.43682511324813
 20
3.219304550135194
 30
0.0
 40
0.25
 41
0.0
 71
     1
 72
     1
  1
DATE:
  7
SLDTEXTSTYLE0
 73
     1
 44
1.0
  0
MTEXT
  5
161
330
1F
100
AcDbEntity
  8
NOTES
100
AcDbMText
 10
68.71306699756624
 20
2.172214814147056
 30
0.0
 40
0.25
 41
0.0
 71
     2
 72
     1
  1
DO NOT SCALE DRAWING
  7
SLDTEXTSTYLE0
 73
     1
 44
1.0
  0
MTEXT
  5
163
330
1F
100
AcDbEntity
  8
NOTES
100
AcDbMText
 10
72.83073730750537
 20
3.268275555297615
 30
0.0
 40
0.25
 41
0.0
 71
     1
 72
     1
  1
TITLE:
  7
SLDTEXTSTYLE1
 73
     1
 44
1.0
  0
MTEXT
  5
164
330
1F
100
AcDbEntity
  8
NOTES
100
AcDbMText
 10
80.15618310516095
 20
3.268275555297599
 30
0.0
 40
0.25
 41
0.0
 71
     1
 72
     1
  1
DWG NO.
  7
SLDTEXTSTYLE1
 73
     1
 44
1.0
  0
MTEXT
  5
165
330
1F
100
AcDbEntity
  8
NOTES
100
AcDbMText
 10
80.18317532028495
 20
1.064581557673834
 30
0.0
 40
0.25
 41
0.0
 71
     1
 72
     1
  1
SCALE:     1:1
  7
SLDTEXTSTYLE1
 73
     1
 44
1.0
  0
MTEXT
  5
166
330
1F
100
AcDbEntity
  8
NOTES
100
AcDbMText
 10
84.17654629354752
 20
2.651034429460867
 30
0.0
 40
0.25
 41
0.0
 71
     2
 72
     1
  1
1003-W 30x30 CAD
  7
SLDTEXTSTYLE1
 73
     1
 44
1.0
  0
MTEXT
  5
167
330
1F
100
AcDbEntity
  8
NOTES
100
AcDbMText
 10
75.94711186959734
 20
2.638886144139308
 30
0.0
 40
0.25
 41
0.0
 71
     2
 72
     1
  1
1003-W-30x30
  7
SLDTEXTSTYLE1
 73
     1
 44
1.0
  0
INSERT
  5
16D
330
1F
100
AcDbEntity
  8
NOTES
100
AcDbBlockReference
  2
SW_NOTE_0
 10
80.26613155701669
 20
4.610522783800339
 30
0.0
  0
INSERT
  5
177
330
1F
100
AcDbEntity
  8
NOTES
100
AcDbBlockReference
  2
SW_NOTE_0_1
 10
66.61597262459081
 20
5.148152684778705
 30
0.0
  0
MTEXT
  5
178
330
1F
100
AcDbEntity
  8
NOTES
100
AcDbMText
 10
69.51893421849252
 20
3.213595773114683
 30
0.0
 40
0.25
 41
0.0
 71
     2
 72
     1
  1
September 23, 2021
  7
SLDTEXTSTYLE1
 73
     1
 44
1.0
  0
MTEXT
  5
179
330
1F
100
AcDbEntity
  8
TITLE
100
AcDbMText
 10
0.3276279775836454
 20
1.786570857903304
 30
0.0
 40
0.125
 41
0.0
 71
     2
 72
     1
  1
A
  7
SLDTEXTSTYLE1
 73
     1
 44
1.0
  0
MTEXT
  5
17A
330
1F
100
AcDbEntity
  8
TITLE
100
AcDbMText
 10
89.66227364687498
 20
1.786570857903304
 30
0.0
 40
0.125
 41
0.0
 71
     2
 72
     1
  1
A
  7
SLDTEXTSTYLE1
 73
     1
 44
1.0
  0
MTEXT
  5
17B
330
1F
100
AcDbEntity
  8
TITLE
100
AcDbMText
 10
0.3317512413046844
 20
3.977515739793066
 30
0.0
 40
0.125
 41
0.0
 71
     2
 72
     1
  1
B
  7
SLDTEXTSTYLE1
 73
     1
 44
1.0
  0
MTEXT
  5
17C
330
1F
100
AcDbEntity
  8
TITLE
100
AcDbMText
 10
89.66639691059602
 20
3.977515739793066
 30
0.0
 40
0.125
 41
0.0
 71
     2
 72
     1
  1
B
  7
SLDTEXTSTYLE1
 73
     1
 44
1.0
  0
MTEXT
  5
17D
330
1F
100
AcDbEntity
  8
TITLE
100
AcDbMText
 10
0.3313750816934456
 20
5.94601967680094
 30
0.0
 40
0.125
 41
0.0
 71
     2
 72
     1
  1
C
  7
SLDTEXTSTYLE1
 73
     1
 44
1.0
  0
MTEXT
  5
17E
330
1F
100
AcDbEntity
  8
TITLE
100
AcDbMText
 10
89.66602075098477
 20
5.94601967680094
 30
0.0
 40
0.125
 41
0.0
 71
     2
 72
     1
  1
C
  7
SLDTEXTSTYLE1
 73
     1
 44
1.0
  0
MTEXT
  5
17F
330
1F
100
AcDbEntity
  8
TITLE
100
AcDbMText
 10
0.3311870028448152
 20
7.914523613808815
 30
0.0
 40
0.125
 41
0.0
 71
     2
 72
     1
  1
D
  7
SLDTEXTSTYLE1
 73
     1
 44
1.0
  0
MTEXT
  5
180
330
1F
100
AcDbEntity
  8
TITLE
100
AcDbMText
 10
89.66583267213615
 20
7.914523613808818
 30
0.0
 40
0.125
 41
0.0
 71
     2
 72
     1
  1
D
  7
SLDTEXTSTYLE1
 73
     1
 44
1.0
  0
MTEXT
  5
181
330
1F
100
AcDbEntity
  8
TITLE
100
AcDbMText
 10
0.3329231160377541
 20
9.88302755081669
 30
0.0
 40
0.125
 41
0.0
 71
     2
 72
     1
  1
E
  7
SLDTEXTSTYLE1
 73
     1
 44
1.0
  0
MTEXT
  5
182
330
1F
100
AcDbEntity
  8
TITLE
100
AcDbMText
 10
89.66756878532908
 20
9.88302755081669
 30
0.0
 40
0.125
 41
0.0
 71
     2
 72
     1
  1
E
  7
SLDTEXTSTYLE1
 73
     1
 44
1.0
  0
MTEXT
  5
183
330
1F
100
AcDbEntity
  8
TITLE
100
AcDbMText
 10
0.3313461474003637
 20
11.85153148782456
 30
0.0
 40
0.125
 41
0.0
 71
     2
 72
     1
  1
F
  7
SLDTEXTSTYLE1
 73
     1
 44
1.0
  0
MTEXT
  5
184
330
1F
100
AcDbEntity
  8
TITLE
100
AcDbMText
 10
89.6659918166917
 20
11.85153148782456
 30
0.0
 40
0.125
 41
0.0
 71
     2
 72
     1
  1
F
  7
SLDTEXTSTYLE1
 73
     1
 44
1.0
  0
MTEXT
  5
185
330
1F
100
AcDbEntity
  8
TITLE
100
AcDbMText
 10
0.332257605436456
 20
13.82003542483243
 30
0.0
 40
0.125
 41
0.0
 71
     2
 72
     1
  1
G
  7
SLDTEXTSTYLE1
 73
     1
 44
1.0
  0
MTEXT
  5
186
330
1F
100
AcDbEntity
  8
TITLE
100
AcDbMText
 10
89.6669032747278
 20
13.82003542483243
 30
0.0
 40
0.125
 41
0.0
 71
     2
 72
     1
  1
G
  7
SLDTEXTSTYLE1
 73
     1
 44
1.0
  0
MTEXT
  5
187
330
1F
100
AcDbEntity
  8
TITLE
100
AcDbMText
 10
0.3323733456814148
 20
15.78853936184031
 30
0.0
 40
0.125
 41
0.0
 71
     2
 72
     1
  1
H
  7
SLDTEXTSTYLE1
 73
     1
 44
1.0
  0
MTEXT
  5
188
330
1F
100
AcDbEntity
  8
TITLE
100
AcDbMText
 10
89.66701901497274
 20
15.78853936184031
 30
0.0
 40
0.125
 41
0.0
 71
     2
 72
     1
  1
H
  7
SLDTEXTSTYLE1
 73
     1
 44
1.0
  0
MTEXT
  5
189
330
1F
100
AcDbEntity
  8
TITLE
100
AcDbMText
 10
0.3315776305595839
 20
17.75704329884818
 30
0.0
 40
0.125
 41
0.0
 71
     2
 72
     1
  1
J
  7
SLDTEXTSTYLE1
 73
     1
 44
1.0
  0
MTEXT
  5
18A
330
1F
100
AcDbEntity
  8
TITLE
100
AcDbMText
 10
89.66622329985091
 20
17.75704329884818
 30
0.0
 40
0.125
 41
0.0
 71
     2
 72
     1
  1
J
  7
SLDTEXTSTYLE1
 73
     1
 44
1.0
  0
MTEXT
  5
18B
330
1F
100
AcDbEntity
  8
TITLE
100
AcDbMText
 10
0.3323154765159243
 20
19.72554723585607
 30
0.0
 40
0.125
 41
0.0
 71
     2
 72
     1
  1
K
  7
SLDTEXTSTYLE1
 73
     1
 44
1.0
  0
MTEXT
  5
18C
330
1F
100
AcDbEntity
  8
TITLE
100
AcDbMText
 10
89.66696114580725
 20
19.72554723585607
 30
0.0
 40
0.125
 41
0.0
 71
     2
 72
     1
  1
K
  7
SLDTEXTSTYLE1
 73
     1
 44
1.0
  0
MTEXT
  5
18D
330
1F
100
AcDbEntity
  8
TITLE
100
AcDbMText
 10
0.3312448739242835
 20
21.69405117286394
 30
0.0
 40
0.125
 41
0.0
 71
     2
 72
     1
  1
L
  7
SLDTEXTSTYLE1
 73
     1
 44
1.0
  0
MTEXT
  5
18E
330
1F
100
AcDbEntity
  8
TITLE
100
AcDbMText
 10
89.66589054321562
 20
21.69405117286394
 30
0.0
 40
0.125
 41
0.0
 71
     2
 72
     1
  1
L
  7
SLDTEXTSTYLE1
 73
     1
 44
1.0
  0
MTEXT
  5
18F
330
1F
100
AcDbEntity
  8
TITLE
100
AcDbMText
 10
0.3283224192293962
 20
23.66255510987181
 30
0.0
 40
0.125
 41
0.0
 71
     2
 72
     1
  1
M
  7
SLDTEXTSTYLE1
 73
     1
 44
1.0
  0
MTEXT
  5
190
330
1F
100
AcDbEntity
  8
TITLE
100
AcDbMText
 10
89.66296808852074
 20
23.66255510987181
 30
0.0
 40
0.125
 41
0.0
 71
     2
 72
     1
  1
M
  7
SLDTEXTSTYLE1
 73
     1
 44
1.0
  0
MTEXT
  5
191
330
1F
100
AcDbEntity
  8
TITLE
100
AcDbMText
 10
0.3315342275836453
 20
25.63105904687969
 30
0.0
 40
0.125
 41
0.0
 71
     2
 72
     1
  1
N
  7
SLDTEXTSTYLE1
 73
     1
 44
1.0
  0
MTEXT
  5
192
330
1F
100
AcDbEntity
  8
TITLE
100
AcDbMText
 10
89.66617989687497
 20
25.63105904687969
 30
0.0
 40
0.125
 41
0.0
 71
     2
 72
     1
  1
N
  7
SLDTEXTSTYLE1
 73
     1
 44
1.0
  0
MTEXT
  5
193
330
1F
100
AcDbEntity
  8
TITLE
100
AcDbMText
 10
0.3321997349363143
 20
27.59956298388756
 30
0.0
 40
0.125
 41
0.0
 71
     2
 72
     1
  1
P
  7
SLDTEXTSTYLE1
 73
     1
 44
1.0
  0
MTEXT
  5
194
330
1F
100
AcDbEntity
  8
TITLE
100
AcDbMText
 10
89.66684540422763
 20
27.59956298388756
 30
0.0
 40
0.125
 41
0.0
 71
     2
 72
     1
  1
P
  7
SLDTEXTSTYLE1
 73
     1
 44
1.0
  0
MTEXT
  5
195
330
1F
100
AcDbEntity
  8
TITLE
100
AcDbMText
 10
0.3309265867271644
 20
29.56806692089544
 30
0.0
 40
0.125
 41
0.0
 71
     2
 72
     1
  1
R
  7
SLDTEXTSTYLE1
 73
     1
 44
1.0
  0
MTEXT
  5
196
330
1F
100
AcDbEntity
  8
TITLE
100
AcDbMText
 10
89.66557225601849
 20
29.56806692089544
 30
0.0
 40
0.125
 41
0.0
 71
     2
 72
     1
  1
R
  7
SLDTEXTSTYLE1
 73
     1
 44
1.0
  0
MTEXT
  5
197
330
1F
100
AcDbEntity
  8
TITLE
100
AcDbMText
 10
0.3323010070777432
 20
31.53657085790331
 30
0.0
 40
0.125
 41
0.0
 71
     2
 72
     1
  1
T
  7
SLDTEXTSTYLE1
 73
     1
 44
1.0
  0
MTEXT
  5
198
330
1F
100
AcDbEntity
  8
TITLE
100
AcDbMText
 10
89.66694667636908
 20
31.53657085790331
 30
0.0
 40
0.125
 41
0.0
 71
     2
 72
     1
  1
T
  7
SLDTEXTSTYLE1
 73
     1
 44
1.0
  0
MTEXT
  5
199
330
1F
100
AcDbEntity
  8
TITLE
100
AcDbMText
 10
0.3328507755201046
 20
33.50507479491118
 30
0.0
 40
0.125
 41
0.0
 71
     2
 72
     1
  1
U
  7
SLDTEXTSTYLE1
 73
     1
 44
1.0
  0
MTEXT
  5
19A
330
1F
100
AcDbEntity
  8
TITLE
100
AcDbMText
 10
89.66749644481143
 20
33.50507479491118
 30
0.0
 40
0.125
 41
0.0
 71
     2
 72
     1
  1
U
  7
SLDTEXTSTYLE1
 73
     1
 44
1.0
  0
MTEXT
  5
19B
330
1F
100
AcDbEntity
  8
TITLE
100
AcDbMText
 10
0.3307529773167151
 20
35.47357873191906
 30
0.0
 40
0.125
 41
0.0
 71
     2
 72
     1
  1
V
  7
SLDTEXTSTYLE1
 73
     1
 44
1.0
  0
MTEXT
  5
19C
330
1F
100
AcDbEntity
  8
TITLE
100
AcDbMText
 10
89.66539864660804
 20
35.47357873191906
 30
0.0
 40
0.125
 41
0.0
 71
     2
 72
     1
  1
V
  7
SLDTEXTSTYLE1
 73
     1
 44
1.0
  0
MTEXT
  5
19D
330
1F
100
AcDbEntity
  8
TITLE
100
AcDbMText
 10
0.3327784409203867
 20
37.44208266892693
 30
0.0
 40
0.125
 41
0.0
 71
     2
 72
     1
  1
W
  7
SLDTEXTSTYLE1
 73
     1
 44
1.0
  0
MTEXT
  5
19E
330
1F
100
AcDbEntity
  8
TITLE
100
AcDbMText
 10
89.66742411021173
 20
37.44208266892694
 30
0.0
 40
0.125
 41
0.0
 71
     2
 72
     1
  1
W
  7
SLDTEXTSTYLE1
 73
     1
 44
1.0
  0
MTEXT
  5
19F
330
1F
100
AcDbEntity
  8
TITLE
100
AcDbMText
 10
0.3321997349363143
 20
39.4105866059348
 30
0.0
 40
0.125
 41
0.0
 71
     2
 72
     1
  1
Y
  7
SLDTEXTSTYLE1
 73
     1
 44
1.0
  0
MTEXT
  5
1A0
330
1F
100
AcDbEntity
  8
TITLE
100
AcDbMText
 10
89.66684540422764
 20
39.4105866059348
 30
0.0
 40
0.125
 41
0.0
 71
     2
 72
     1
  1
Y
  7
SLDTEXTSTYLE1
 73
     1
 44
1.0
  0
MTEXT
  5
1A1
330
1F
100
AcDbEntity
  8
TITLE
100
AcDbMText
 10
0.32257878981296
 20
41.37909054294268
 30
0.0
 40
0.125
 41
0.0
 71
     2
 72
     1
  1
AA
  7
SLDTEXTSTYLE1
 73
     1
 44
1.0
  0
MTEXT
  5
1A2
330
1F
100
AcDbEntity
  8
TITLE
100
AcDbMText
 10
89.65722445910428
 20
41.37909054294268
 30
0.0
 40
0.125
 41
0.0
 71
     2
 72
     1
  1
AA
  7
SLDTEXTSTYLE1
 73
     1
 44
1.0
  0
MTEXT
  5
1A3
330
1F
100
AcDbEntity
  8
TITLE
100
AcDbMText
 10
0.3267020535339989
 20
43.34759447995057
 30
0.0
 40
0.125
 41
0.0
 71
     2
 72
     1
  1
AB
  7
SLDTEXTSTYLE1
 73
     1
 44
1.0
  0
MTEXT
  5
1A4
330
1F
100
AcDbEntity
  8
TITLE
100
AcDbMText
 10
89.66134772282533
 20
43.34759447995057
 30
0.0
 40
0.125
 41
0.0
 71
     2
 72
     1
  1
AB
  7
SLDTEXTSTYLE1
 73
     1
 44
1.0
  0
MTEXT
  5
1A5
330
1F
100
AcDbEntity
  8
TITLE
100
AcDbMText
 10
0.3263258985060407
 20
45.31609841695843
 30
0.0
 40
0.125
 41
0.0
 71
     2
 72
     1
  1
AC
  7
SLDTEXTSTYLE1
 73
     1
 44
1.0
  0
MTEXT
  5
1A6
330
1F
100
AcDbEntity
  8
TITLE
100
AcDbMText
 10
89.66097156779738
 20
45.31609841695843
 30
0.0
 40
0.125
 41
0.0
 71
     2
 72
     1
  1
AC
  7
SLDTEXTSTYLE1
 73
     1
 44
1.0
  0
MTEXT
  5
1A7
330
1F
100
AcDbEntity
  8
TITLE
100
AcDbMText
 10
0.3261378196574102
 20
47.2846023539663
 30
0.0
 40
0.125
 41
0.0
 71
     2
 72
     1
  1
AD
  7
SLDTEXTSTYLE1
 73
     1
 44
1.0
  0
MTEXT
  5
1A8
330
1F
100
AcDbEntity
  8
TITLE
100
AcDbMText
 10
89.66078348894874
 20
47.2846023539663
 30
0.0
 40
0.125
 41
0.0
 71
     2
 72
     1
  1
AD
  7
SLDTEXTSTYLE1
 73
     1
 44
1.0
  0
MTEXT
  5
1A9
330
1F
100
AcDbEntity
  8
TITLE
100
AcDbMText
 10
0.3278739282670687
 20
49.25310629097418
 30
0.0
 40
0.125
 41
0.0
 71
     2
 72
     1
  1
AE
  7
SLDTEXTSTYLE1
 73
     1
 44
1.0
  0
MTEXT
  5
1AA
330
1F
100
AcDbEntity
  8
TITLE
100
AcDbMText
 10
89.6625195975584
 20
49.25310629097419
 30
0.0
 40
0.125
 41
0.0
 71
     2
 72
     1
  1
AE
  7
SLDTEXTSTYLE1
 73
     1
 44
1.0
  0
MTEXT
  5
1AB
330
1F
100
AcDbEntity
  8
TITLE
100
AcDbMText
 10
0.3262969596296784
 20
51.22161022798205
 30
0.0
 40
0.125
 41
0.0
 71
     2
 72
     1
  1
AF
  7
SLDTEXTSTYLE1
 73
     1
 44
1.0
  0
MTEXT
  5
1AC
330
1F
100
AcDbEntity
  8
TITLE
100
AcDbMText
 10
89.660942628921
 20
51.22161022798204
 30
0.0
 40
0.125
 41
0.0
 71
     2
 72
     1
  1
AF
  7
SLDTEXTSTYLE1
 73
     1
 44
1.0
  0
MTEXT
  5
1AD
330
1F
100
AcDbEntity
  8
TITLE
100
AcDbMText
 10
0.3272084176657706
 20
53.19011416498994
 30
0.0
 40
0.125
 41
0.0
 71
     2
 72
     1
  1
AG
  7
SLDTEXTSTYLE1
 73
     1
 44
1.0
  0
MTEXT
  5
1AE
330
1F
100
AcDbEntity
  8
TITLE
100
AcDbMText
 10
89.6618540869571
 20
53.19011416498994
 30
0.0
 40
0.125
 41
0.0
 71
     2
 72
     1
  1
AG
  7
SLDTEXTSTYLE1
 73
     1
 44
1.0
  0
MTEXT
  5
1AF
330
1F
100
AcDbEntity
  8
TITLE
100
AcDbMText
 10
0.3273241624940099
 20
55.1586181019978
 30
0.0
 40
0.125
 41
0.0
 71
     2
 72
     1
  1
AH
  7
SLDTEXTSTYLE1
 73
     1
 44
1.0
  0
MTEXT
  5
1B0
330
1F
100
AcDbEntity
  8
TITLE
100
AcDbMText
 10
89.66196983178531
 20
55.15861810199779
 30
0.0
 40
0.125
 41
0.0
 71
     2
 72
     1
  1
AH
  7
SLDTEXTSTYLE1
 73
     1
 44
1.0
  0
MTEXT
  5
1B1
330
1F
100
AcDbEntity
  8
TITLE
100
AcDbMText
 10
0.3265284427888985
 20
57.12712203900567
 30
0.0
 40
0.125
 41
0.0
 71
     2
 72
     1
  1
AJ
  7
SLDTEXTSTYLE1
 73
     1
 44
1.0
  0
MTEXT
  5
1B2
330
1F
100
AcDbEntity
  8
TITLE
100
AcDbMText
 10
89.66117411208023
 20
57.12712203900568
 30
0.0
 40
0.125
 41
0.0
 71
     2
 72
     1
  1
AJ
  7
SLDTEXTSTYLE1
 73
     1
 44
1.0
  0
MTEXT
  5
1B3
330
1F
100
AcDbEntity
  8
TITLE
100
AcDbMText
 10
0.327266288745239
 20
59.09562597601355
 30
0.0
 40
0.125
 41
0.0
 71
     2
 72
     1
  1
AK
  7
SLDTEXTSTYLE1
 73
     1
 44
1.0
  0
MTEXT
  5
1B4
330
1F
100
AcDbEntity
  8
TITLE
100
AcDbMText
 10
89.66191195803657
 20
59.09562597601356
 30
0.0
 40
0.125
 41
0.0
 71
     2
 72
     1
  1
AK
  7
SLDTEXTSTYLE1
 73
     1
 44
1.0
  0
MTEXT
  5
1B5
330
1F
100
AcDbEntity
  8
TITLE
100
AcDbMText
 10
0.3261956815703178
 20
61.06412991302142
 30
0.0
 40
0.125
 41
0.0
 71
     2
 72
     1
  1
AL
  7
SLDTEXTSTYLE1
 73
     1
 44
1.0
  0
MTEXT
  5
1B6
330
1F
100
AcDbEntity
  8
TITLE
100
AcDbMText
 10
89.66084135086165
 20
61.06412991302142
 30
0.0
 40
0.125
 41
0.0
 71
     2
 72
     1
  1
AL
  7
SLDTEXTSTYLE1
 73
     1
 44
1.0
  0
MTEXT
  5
1B7
330
1F
100
AcDbEntity
  8
TITLE
100
AcDbMText
 10
0.323273231458711
 20
63.03263385002931
 30
0.0
 40
0.125
 41
0.0
 71
     2
 72
     1
  1
AM
  7
SLDTEXTSTYLE1
 73
     1
 44
1.0
  0
MTEXT
  5
1B8
330
1F
100
AcDbEntity
  8
TITLE
100
AcDbMText
 10
89.65791890075003
 20
63.03263385002929
 30
0.0
 40
0.125
 41
0.0
 71
     2
 72
     1
  1
AM
  7
SLDTEXTSTYLE1
 73
     1
 44
1.0
  0
MTEXT
  5
1B9
330
1F
100
AcDbEntity
  8
TITLE
100
AcDbMText
 10
0.32648503981296
 20
65.00113778703715
 30
0.0
 40
0.125
 41
0.0
 71
     2
 72
     1
  1
AN
  7
SLDTEXTSTYLE1
 73
     1
 44
1.0
  0
MTEXT
  5
1BA
330
1F
100
AcDbEntity
  8
TITLE
100
AcDbMText
 10
89.66113070910428
 20
65.00113778703717
 30
0.0
 40
0.125
 41
0.0
 71
     2
 72
     1
  1
AN
  7
SLDTEXTSTYLE1
 73
     1
 44
1.0
  0
MTEXT
  5
1BB
330
1F
100
AcDbEntity
  8
TITLE
100
AcDbMText
 10
0.3271505425823485
 20
66.96964172404503
 30
0.0
 40
0.125
 41
0.0
 71
     2
 72
     1
  1
AP
  7
SLDTEXTSTYLE1
 73
     1
 44
1.0
  0
MTEXT
  5
1BC
330
1F
100
AcDbEntity
  8
TITLE
100
AcDbMText
 10
89.66179621187368
 20
66.96964172404503
 30
0.0
 40
0.125
 41
0.0
 71
     2
 72
     1
  1
AP
  7
SLDTEXTSTYLE1
 73
     1
 44
1.0
  0
MTEXT
  5
1BD
330
1F
100
AcDbEntity
  8
TITLE
100
AcDbMText
 10
0.3258773989564791
 20
68.93814566105293
 30
0.0
 40
0.125
 41
0.0
 71
     2
 72
     1
  1
AR
  7
SLDTEXTSTYLE1
 73
     1
 44
1.0
  0
MTEXT
  5
1BE
330
1F
100
AcDbEntity
  8
TITLE
100
AcDbMText
 10
89.66052306824781
 20
68.93814566105293
 30
0.0
 40
0.125
 41
0.0
 71
     2
 72
     1
  1
AR
  7
SLDTEXTSTYLE1
 73
     1
 44
1.0
  0
MTEXT
  5
1BF
330
1F
100
AcDbEntity
  8
TITLE
100
AcDbMText
 10
0.3272518193070578
 20
70.90664959806078
 30
0.0
 40
0.125
 41
0.0
 71
     2
 72
     1
  1
AT
  7
SLDTEXTSTYLE1
 73
     1
 44
1.0
  0
MTEXT
  5
1C0
330
1F
100
AcDbEntity
  8
TITLE
100
AcDbMText
 10
89.66189748859838
 20
70.9066495980608
 30
0.0
 40
0.125
 41
0.0
 71
     2
 72
     1
  1
AT
  7
SLDTEXTSTYLE1
 73
     1
 44
1.0
  0
MTEXT
  5
1C1
330
1F
100
AcDbEntity
  8
TITLE
100
AcDbMText
 10
0.3278015877494191
 20
72.87515353506866
 30
0.0
 40
0.125
 41
0.0
 71
     2
 72
     1
  1
AU
  7
SLDTEXTSTYLE1
 73
     1
 44
1.0
  0
MTEXT
  5
1C2
330
1F
100
AcDbEntity
  8
TITLE
100
AcDbMText
 10
89.66244725704072
 20
72.87515353506866
 30
0.0
 40
0.125
 41
0.0
 71
     2
 72
     1
  1
AU
  7
SLDTEXTSTYLE1
 73
     1
 44
1.0
  0
MTEXT
  5
1C3
330
1F
100
AcDbEntity
  8
TITLE
100
AcDbMText
 10
0.3257037895460298
 20
74.84365747207653
 30
0.0
 40
0.125
 41
0.0
 71
     2
 72
     1
  1
AV
  7
SLDTEXTSTYLE1
 73
     1
 44
1.0
  0
MTEXT
  5
1C4
330
1F
100
AcDbEntity
  8
TITLE
100
AcDbMText
 10
89.66034945883736
 20
74.84365747207653
 30
0.0
 40
0.125
 41
0.0
 71
     2
 72
     1
  1
AV
  7
SLDTEXTSTYLE1
 73
     1
 44
1.0
  0
MTEXT
  5
1C5
330
1F
100
AcDbEntity
  8
TITLE
100
AcDbMText
 10
0.327729248566421
 20
76.81216140908441
 30
0.0
 40
0.125
 41
0.0
 71
     2
 72
     1
  1
AW
  7
SLDTEXTSTYLE1
 73
     1
 44
1.0
  0
MTEXT
  5
1C6
330
1F
100
AcDbEntity
  8
TITLE
100
AcDbMText
 10
89.66237491785775
 20
76.81216140908441
 30
0.0
 40
0.125
 41
0.0
 71
     2
 72
     1
  1
AW
  7
SLDTEXTSTYLE1
 73
     1
 44
1.0
  0
MTEXT
  5
1C7
330
1F
100
AcDbEntity
  8
TITLE
100
AcDbMText
 10
0.3271505425823485
 20
78.7806653460923
 30
0.0
 40
0.125
 41
0.0
 71
     2
 72
     1
  1
AY
  7
SLDTEXTSTYLE1
 73
     1
 44
1.0
  0
MTEXT
  5
1C8
330
1F
100
AcDbEntity
  8
TITLE
100
AcDbMText
 10
89.66179621187368
 20
78.78066534609228
 30
0.0
 40
0.125
 41
0.0
 71
     2
 72
     1
  1
AY
  7
SLDTEXTSTYLE1
 73
     1
 44
1.0
  0
MTEXT
  5
1C9
330
1F
100
AcDbEntity
  8
TITLE
100
AcDbMText
 10
0.3267020535339989
 20
80.74916928310017
 30
0.0
 40
0.125
 41
0.0
 71
     2
 72
     1
  1
BA
  7
SLDTEXTSTYLE1
 73
     1
 44
1.0
  0
MTEXT
  5
1CA
330
1F
100
AcDbEntity
  8
TITLE
100
AcDbMText
 10
89.66134772282531
 20
80.74916928310017
 30
0.0
 40
0.125
 41
0.0
 71
     2
 72
     1
  1
BA
  7
SLDTEXTSTYLE1
 73
     1
 44
1.0
  0
MTEXT
  5
1CB
330
1F
100
AcDbEntity
  8
TITLE
100
AcDbMText
 10
0.3308253172550379
 20
82.71767322010805
 30
0.0
 40
0.125
 41
0.0
 71
     2
 72
     1
  1
BB
  7
SLDTEXTSTYLE1
 73
     1
 44
1.0
  0
MTEXT
  5
1CC
330
1F
100
AcDbEntity
  8
TITLE
100
AcDbMText
 10
89.66547098654637
 20
82.71767322010805
 30
0.0
 40
0.125
 41
0.0
 71
     2
 72
     1
  1
BB
  7
SLDTEXTSTYLE1
 73
     1
 44
1.0
  0
MTEXT
  5
1CD
330
1F
100
AcDbEntity
  8
TITLE
100
AcDbMText
 10
0.330449153060519
 20
84.68617715711592
 30
0.0
 40
0.125
 41
0.0
 71
     2
 72
     1
  1
BC
  7
SLDTEXTSTYLE1
 73
     1
 44
1.0
  0
MTEXT
  5
1CE
330
1F
100
AcDbEntity
  8
TITLE
100
AcDbMText
 10
89.66509482235185
 20
84.68617715711592
 30
0.0
 40
0.125
 41
0.0
 71
     2
 72
     1
  1
BC
  7
SLDTEXTSTYLE1
 73
     1
 44
1.0
  0
MTEXT
  5
1CF
330
1F
100
AcDbEntity
  8
TITLE
100
AcDbMText
 10
0.3302610742118884
 20
86.65468109412379
 30
0.0
 40
0.125
 41
0.0
 71
     2
 72
     1
  1
BD
  7
SLDTEXTSTYLE1
 73
     1
 44
1.0
  0
MTEXT
  5
1D0
330
1F
100
AcDbEntity
  8
TITLE
100
AcDbMText
 10
89.66490674350321
 20
86.65468109412379
 30
0.0
 40
0.125
 41
0.0
 71
     2
 72
     1
  1
BD
  7
SLDTEXTSTYLE1
 73
     1
 44
1.0
  0
MTEXT
  5
1D1
330
1F
100
AcDbEntity
  8
TITLE
100
AcDbMText
 10
0.3319971919881077
 20
88.62318503113167
 30
0.0
 40
0.125
 41
0.0
 71
     2
 72
     1
  1
BE
  7
SLDTEXTSTYLE1
 73
     1
 44
1.0
  0
MTEXT
  5
1D2
330
1F
100
AcDbEntity
  8
TITLE
100
AcDbMText
 10
89.66664286127946
 20
88.62318503113167
 30
0.0
 40
0.125
 41
0.0
 71
     2
 72
     1
  1
BE
  7
SLDTEXTSTYLE1
 73
     1
 44
1.0
  0
MTEXT
  5
1D3
330
1F
100
AcDbEntity
  8
TITLE
100
AcDbMText
 10
0.3304202233507172
 20
90.59168896813954
 30
0.0
 40
0.125
 41
0.0
 71
     2
 72
     1
  1
BF
  7
SLDTEXTSTYLE1
 73
     1
 44
1.0
  0
MTEXT
  5
1D4
330
1F
100
AcDbEntity
  8
TITLE
100
AcDbMText
 10
89.66506589264205
 20
90.59168896813954
 30
0.0
 40
0.125
 41
0.0
 71
     2
 72
     1
  1
BF
  7
SLDTEXTSTYLE1
 73
     1
 44
1.0
  0
MTEXT
  5
1D5
330
1F
100
AcDbEntity
  8
TITLE
100
AcDbMText
 10
0.3313316813868096
 20
92.56019290514742
 30
0.0
 40
0.125
 41
0.0
 71
     2
 72
     1
  1
BG
  7
SLDTEXTSTYLE1
 73
     1
 44
1.0
  0
MTEXT
  5
1D6
330
1F
100
AcDbEntity
  8
TITLE
100
AcDbMText
 10
89.66597735067815
 20
92.5601929051474
 30
0.0
 40
0.125
 41
0.0
 71
     2
 72
     1
  1
BG
  7
SLDTEXTSTYLE1
 73
     1
 44
1.0
  0
MTEXT
  5
1D7
330
1F
100
AcDbEntity
  8
TITLE
100
AcDbMText
 10
0.331447417048488
 20
94.52869684215528
 30
0.0
 40
0.125
 41
0.0
 71
     2
 72
     1
  1
BH
  7
SLDTEXTSTYLE1
 73
     1
 44
1.0
  0
MTEXT
  5
1D8
330
1F
100
AcDbEntity
  8
TITLE
100
AcDbMText
 10
89.66609308633981
 20
94.52869684215528
 30
0.0
 40
0.125
 41
0.0
 71
     2
 72
     1
  1
BH
  7
SLDTEXTSTYLE1
 73
     1
 44
1.0
  0
MTEXT
  5
1D9
330
1F
100
AcDbEntity
  8
TITLE
100
AcDbMText
 10
0.3306517065099374
 20
96.49720077916318
 30
0.0
 40
0.125
 41
0.0
 71
     2
 72
     1
  1
BJ
  7
SLDTEXTSTYLE1
 73
     1
 44
1.0
  0
MTEXT
  5
1DA
330
1F
100
AcDbEntity
  8
TITLE
100
AcDbMText
 10
89.66529737580127
 20
96.49720077916314
 30
0.0
 40
0.125
 41
0.0
 71
     2
 72
     1
  1
BJ
  7
SLDTEXTSTYLE1
 73
     1
 44
1.0
  0
MTEXT
  5
1DB
330
1F
100
AcDbEntity
  8
TITLE
100
AcDbMText
 10
0.331389552466278
 20
98.46570471617105
 30
0.0
 40
0.125
 41
0.0
 71
     2
 72
     1
  1
BK
  7
SLDTEXTSTYLE1
 73
     1
 44
1.0
  0
MTEXT
  5
1DC
330
1F
100
AcDbEntity
  8
TITLE
100
AcDbMText
 10
89.66603522175761
 20
98.46570471617105
 30
0.0
 40
0.125
 41
0.0
 71
     2
 72
     1
  1
BK
  7
SLDTEXTSTYLE1
 73
     1
 44
1.0
  0
MTEXT
  5
1DD
330
1F
100
AcDbEntity
  8
TITLE
100
AcDbMText
 10
0.3303189544579175
 20
100.4342086531789
 30
0.0
 40
0.125
 41
0.0
 71
     2
 72
     1
  1
BL
  7
SLDTEXTSTYLE1
 73
     1
 44
1.0
  0
MTEXT
  5
1DE
330
1F
100
AcDbEntity
  8
TITLE
100
AcDbMText
 10
89.66496462374926
 20
100.4342086531789
 30
0.0
 40
0.125
 41
0.0
 71
     2
 72
     1
  1
BL
  7
SLDTEXTSTYLE1
 73
     1
 44
1.0
  0
MTEXT
  5
1DF
330
1F
100
AcDbEntity
  8
TITLE
100
AcDbMText
 10
0.3273964951797498
 20
102.4027125901868
 30
0.0
 40
0.125
 41
0.0
 71
     2
 72
     1
  1
BM
  7
SLDTEXTSTYLE1
 73
     1
 44
1.0
  0
MTEXT
  5
1E0
330
1F
100
AcDbEntity
  8
TITLE
100
AcDbMText
 10
89.66204216447109
 20
102.4027125901868
 30
0.0
 40
0.125
 41
0.0
 71
     2
 72
     1
  1
BM
  7
SLDTEXTSTYLE1
 73
     1
 44
1.0
  0
MTEXT
  5
1E1
330
1F
100
AcDbEntity
  8
TITLE
100
AcDbMText
 10
0.3306083035339989
 20
104.3712165271947
 30
0.0
 40
0.125
 41
0.0
 71
     2
 72
     1
  1
BN
  7
SLDTEXTSTYLE1
 73
     1
 44
1.0
  0
MTEXT
  5
1E2
330
1F
100
AcDbEntity
  8
TITLE
100
AcDbMText
 10
89.66525397282533
 20
104.3712165271947
 30
0.0
 40
0.125
 41
0.0
 71
     2
 72
     1
  1
BN
  7
SLDTEXTSTYLE1
 73
     1
 44
1.0
  0
MTEXT
  5
1E3
330
1F
100
AcDbEntity
  8
TITLE
100
AcDbMText
 10
0.3312738154699483
 20
106.3397204642025
 30
0.0
 40
0.125
 41
0.0
 71
     2
 72
     1
  1
BP
  7
SLDTEXTSTYLE1
 73
     1
 44
1.0
  0
MTEXT
  5
1E4
330
1F
100
AcDbEntity
  8
TITLE
100
AcDbMText
 10
89.66591948476128
 20
106.3397204642025
 30
0.0
 40
0.125
 41
0.0
 71
     2
 72
     1
  1
BP
  7
SLDTEXTSTYLE1
 73
     1
 44
1.0
  0
MTEXT
  5
1E5
330
1F
100
AcDbEntity
  8
TITLE
100
AcDbMText
 10
0.330000662677518
 20
108.3082244012104
 30
0.0
 40
0.125
 41
0.0
 71
     2
 72
     1
  1
BR
  7
SLDTEXTSTYLE1
 73
     1
 44
1.0
  0
MTEXT
  5
1E6
330
1F
100
AcDbEntity
  8
TITLE
100
AcDbMText
 10
89.66464633196885
 20
108.3082244012104
 30
0.0
 40
0.125
 41
0.0
 71
     2
 72
     1
  1
BR
  7
SLDTEXTSTYLE1
 73
     1
 44
1.0
  0
MTEXT
  5
1E7
330
1F
100
AcDbEntity
  8
TITLE
100
AcDbMText
 10
0.3313750830280968
 20
110.2767283382183
 30
0.0
 40
0.125
 41
0.0
 71
     2
 72
     1
  1
BT
  7
SLDTEXTSTYLE1
 73
     1
 44
1.0
  0
MTEXT
  5
1E8
330
1F
100
AcDbEntity
  8
TITLE
100
AcDbMText
 10
89.66602075231943
 20
110.2767283382183
 30
0.0
 40
0.125
 41
0.0
 71
     2
 72
     1
  1
BT
  7
SLDTEXTSTYLE1
 73
     1
 44
1.0
  0
MTEXT
  5
1E9
330
1F
100
AcDbEntity
  8
TITLE
100
AcDbMText
 10
0.3319248514704581
 20
112.2452322752262
 30
0.0
 40
0.125
 41
0.0
 71
     2
 72
     1
  1
BU
  7
SLDTEXTSTYLE1
 73
     1
 44
1.0
  0
MTEXT
  5
1EA
330
1F
100
AcDbEntity
  8
TITLE
100
AcDbMText
 10
89.66657052076178
 20
112.2452322752262
 30
0.0
 40
0.125
 41
0.0
 71
     2
 72
     1
  1
BU
  7
SLDTEXTSTYLE1
 73
     1
 44
1.0
  0
MTEXT
  5
1EB
330
1F
100
AcDbEntity
  8
TITLE
100
AcDbMText
 10
0.3298270532670687
 20
114.213736212234
 30
0.0
 40
0.125
 41
0.0
 71
     2
 72
     1
  1
BV
  7
SLDTEXTSTYLE1
 73
     1
 44
1.0
  0
MTEXT
  5
1EC
330
1F
100
AcDbEntity
  8
TITLE
100
AcDbMText
 10
89.66447272255841
 20
114.213736212234
 30
0.0
 40
0.125
 41
0.0
 71
     2
 72
     1
  1
BV
  7
SLDTEXTSTYLE1
 73
     1
 44
1.0
  0
MTEXT
  5
1ED
330
1F
100
AcDbEntity
  8
TITLE
100
AcDbMText
 10
0.3318525214540207
 20
116.1822401492419
 30
0.0
 40
0.125
 41
0.0
 71
     2
 72
     1
  1
BW
  7
SLDTEXTSTYLE1
 73
     1
 44
1.0
  0
MTEXT
  5
1EE
330
1F
100
AcDbEntity
  8
TITLE
100
AcDbMText
 10
89.66649819074536
 20
116.1822401492419
 30
0.0
 40
0.125
 41
0.0
 71
     2
 72
     1
  1
BW
  7
SLDTEXTSTYLE1
 73
     1
 44
1.0
  0
MTEXT
  5
1EF
330
1F
100
AcDbEntity
  8
TITLE
100
AcDbMText
 10
0.3312738154699483
 20
118.3731850311317
 30
0.0
 40
0.125
 41
0.0
 71
     2
 72
     1
  1
BY
  7
SLDTEXTSTYLE1
 73
     1
 44
1.0
  0
MTEXT
  5
1F0
330
1F
100
AcDbEntity
  8
TITLE
100
AcDbMText
 10
89.66591948476128
 20
118.3731850311317
 30
0.0
 40
0.125
 41
0.0
 71
     2
 72
     1
  1
BY
  7
SLDTEXTSTYLE1
 73
     1
 44
1.0
  0
MTEXT
  5
1F1
330
1F
100
AcDbEntity
  8
TITLE
100
AcDbMText
 10
1.093939331543491
 20
0.4125551098718104
 30
0.0
 40
0.125
 41
0.0
 71
     2
 72
     1
  1
46
  7
SLDTEXTSTYLE1
 73
     1
 44
1.0
  0
MTEXT
  5
1F2
330
1F
100
AcDbEntity
  8
TITLE
100
AcDbMText
 10
1.093939331543491
 20
119.7472007791631
 30
0.0
 40
0.125
 41
0.0
 71
     2
 72
     1
  1
46
  7
SLDTEXTSTYLE1
 73
     1
 44
1.0
  0
MTEXT
  5
1F3
330
1F
100
AcDbEntity
  8
TITLE
100
AcDbMText
 10
2.674647992960813
 20
0.4125551098718104
 30
0.0
 40
0.125
 41
0.0
 71
     2
 72
     1
  1
45
  7
SLDTEXTSTYLE1
 73
     1
 44
1.0
  0
MTEXT
  5
1F4
330
1F
100
AcDbEntity
  8
TITLE
100
AcDbMText
 10
2.674647992960813
 20
119.7472007791631
 30
0.0
 40
0.125
 41
0.0
 71
     2
 72
     1
  1
45
  7
SLDTEXTSTYLE1
 73
     1
 44
1.0
  0
MTEXT
  5
1F5
330
1F
100
AcDbEntity
  8
TITLE
100
AcDbMText
 10
4.643151929968689
 20
0.4125551098718104
 30
0.0
 40
0.125
 41
0.0
 71
     2
 72
     1
  1
44
  7
SLDTEXTSTYLE1
 73
     1
 44
1.0
  0
MTEXT
  5
1F6
330
1F
100
AcDbEntity
  8
TITLE
100
AcDbMText
 10
4.643151929968689
 20
119.7472007791631
 30
0.0
 40
0.125
 41
0.0
 71
     2
 72
     1
  1
44
  7
SLDTEXTSTYLE1
 73
     1
 44
1.0
  0
MTEXT
  5
1F7
330
1F
100
AcDbEntity
  8
TITLE
100
AcDbMText
 10
6.611655866976564
 20
0.4125551098718104
 30
0.0
 40
0.125
 41
0.0
 71
     2
 72
     1
  1
43
  7
SLDTEXTSTYLE1
 73
     1
 44
1.0
  0
MTEXT
  5
1F8
330
1F
100
AcDbEntity
  8
TITLE
100
AcDbMText
 10
6.611655866976562
 20
119.7472007791631
 30
0.0
 40
0.125
 41
0.0
 71
     2
 72
     1
  1
43
  7
SLDTEXTSTYLE1
 73
     1
 44
1.0
  0
MTEXT
  5
1F9
330
1F
100
AcDbEntity
  8
TITLE
100
AcDbMText
 10
8.580159803984436
 20
0.4125551098718104
 30
0.0
 40
0.125
 41
0.0
 71
     2
 72
     1
  1
42
  7
SLDTEXTSTYLE1
 73
     1
 44
1.0
  0
MTEXT
  5
1FA
330
1F
100
AcDbEntity
  8
TITLE
100
AcDbMText
 10
8.580159803984436
 20
119.7472007791631
 30
0.0
 40
0.125
 41
0.0
 71
     2
 72
     1
  1
42
  7
SLDTEXTSTYLE1
 73
     1
 44
1.0
  0
MTEXT
  5
1FB
330
1F
100
AcDbEntity
  8
TITLE
100
AcDbMText
 10
10.54866374099231
 20
0.4125551098718104
 30
0.0
 40
0.125
 41
0.0
 71
     2
 72
     1
  1
41
  7
SLDTEXTSTYLE1
 73
     1
 44
1.0
  0
MTEXT
  5
1FC
330
1F
100
AcDbEntity
  8
TITLE
100
AcDbMText
 10
10.54866374099231
 20
119.7472007791632
 30
0.0
 40
0.125
 41
0.0
 71
     2
 72
     1
  1
41
  7
SLDTEXTSTYLE1
 73
     1
 44
1.0
  0
MTEXT
  5
1FD
330
1F
100
AcDbEntity
  8
TITLE
100
AcDbMText
 10
12.51716767800018
 20
0.4125551098718104
 30
0.0
 40
0.125
 41
0.0
 71
     2
 72
     1
  1
40
  7
SLDTEXTSTYLE1
 73
     1
 44
1.0
  0
MTEXT
  5
1FE
330
1F
100
AcDbEntity
  8
TITLE
100
AcDbMText
 10
12.51716767800018
 20
119.7472007791631
 30
0.0
 40
0.125
 41
0.0
 71
     2
 72
     1
  1
40
  7
SLDTEXTSTYLE1
 73
     1
 44
1.0
  0
MTEXT
  5
1FF
330
1F
100
AcDbEntity
  8
TITLE
100
AcDbMText
 10
14.48567161500806
 20
0.4125551098718104
 30
0.0
 40
0.125
 41
0.0
 71
     2
 72
     1
  1
39
  7
SLDTEXTSTYLE1
 73
     1
 44
1.0
  0
MTEXT
  5
200
330
1F
100
AcDbEntity
  8
TITLE
100
AcDbMText
 10
14.48567161500806
 20
119.7472007791631
 30
0.0
 40
0.125
 41
0.0
 71
     2
 72
     1
  1
39
  7
SLDTEXTSTYLE1
 73
     1
 44
1.0
  0
MTEXT
  5
201
330
1F
100
AcDbEntity
  8
TITLE
100
AcDbMText
 10
16.45417555201593
 20
0.4125551098718105
 30
0.0
 40
0.125
 41
0.0
 71
     2
 72
     1
  1
38
  7
SLDTEXTSTYLE1
 73
     1
 44
1.0
  0
MTEXT
  5
202
330
1F
100
AcDbEntity
  8
TITLE
100
AcDbMText
 10
16.45417555201593
 20
119.7472007791631
 30
0.0
 40
0.125
 41
0.0
 71
     2
 72
     1
  1
38
  7
SLDTEXTSTYLE1
 73
     1
 44
1.0
  0
MTEXT
  5
203
330
1F
100
AcDbEntity
  8
TITLE
100
AcDbMText
 10
18.42267948902381
 20
0.4125551098718104
 30
0.0
 40
0.125
 41
0.0
 71
     2
 72
     1
  1
37
  7
SLDTEXTSTYLE1
 73
     1
 44
1.0
  0
MTEXT
  5
204
330
1F
100
AcDbEntity
  8
TITLE
100
AcDbMText
 10
18.42267948902381
 20
119.7472007791631
 30
0.0
 40
0.125
 41
0.0
 71
     2
 72
     1
  1
37
  7
SLDTEXTSTYLE1
 73
     1
 44
1.0
  0
MTEXT
  5
205
330
1F
100
AcDbEntity
  8
TITLE
100
AcDbMText
 10
20.39118342603168
 20
0.4125551098718104
 30
0.0
 40
0.125
 41
0.0
 71
     2
 72
     1
  1
36
  7
SLDTEXTSTYLE1
 73
     1
 44
1.0
  0
MTEXT
  5
206
330
1F
100
AcDbEntity
  8
TITLE
100
AcDbMText
 10
20.39118342603168
 20
119.7472007791631
 30
0.0
 40
0.125
 41
0.0
 71
     2
 72
     1
  1
36
  7
SLDTEXTSTYLE1
 73
     1
 44
1.0
  0
MTEXT
  5
207
330
1F
100
AcDbEntity
  8
TITLE
100
AcDbMText
 10
22.35968736303955
 20
0.4125551098718104
 30
0.0
 40
0.125
 41
0.0
 71
     2
 72
     1
  1
35
  7
SLDTEXTSTYLE1
 73
     1
 44
1.0
  0
MTEXT
  5
208
330
1F
100
AcDbEntity
  8
TITLE
100
AcDbMText
 10
22.35968736303955
 20
119.7472007791632
 30
0.0
 40
0.125
 41
0.0
 71
     2
 72
     1
  1
35
  7
SLDTEXTSTYLE1
 73
     1
 44
1.0
  0
MTEXT
  5
209
330
1F
100
AcDbEntity
  8
TITLE
100
AcDbMText
 10
24.32819130004744
 20
0.4125551098718104
 30
0.0
 40
0.125
 41
0.0
 71
     2
 72
     1
  1
34
  7
SLDTEXTSTYLE1
 73
     1
 44
1.0
  0
MTEXT
  5
20A
330
1F
100
AcDbEntity
  8
TITLE
100
AcDbMText
 10
24.32819130004743
 20
119.7472007791631
 30
0.0
 40
0.125
 41
0.0
 71
     2
 72
     1
  1
34
  7
SLDTEXTSTYLE1
 73
     1
 44
1.0
  0
MTEXT
  5
20B
330
1F
100
AcDbEntity
  8
TITLE
100
AcDbMText
 10
26.29669523705531
 20
0.4125551098718104
 30
0.0
 40
0.125
 41
0.0
 71
     2
 72
     1
  1
33
  7
SLDTEXTSTYLE1
 73
     1
 44
1.0
  0
MTEXT
  5
20C
330
1F
100
AcDbEntity
  8
TITLE
100
AcDbMText
 10
26.29669523705531
 20
119.7472007791631
 30
0.0
 40
0.125
 41
0.0
 71
     2
 72
     1
  1
33
  7
SLDTEXTSTYLE1
 73
     1
 44
1.0
  0
MTEXT
  5
20D
330
1F
100
AcDbEntity
  8
TITLE
100
AcDbMText
 10
28.26519917406318
 20
0.4125551098718104
 30
0.0
 40
0.125
 41
0.0
 71
     2
 72
     1
  1
32
  7
SLDTEXTSTYLE1
 73
     1
 44
1.0
  0
MTEXT
  5
20E
330
1F
100
AcDbEntity
  8
TITLE
100
AcDbMText
 10
28.26519917406318
 20
119.7472007791631
 30
0.0
 40
0.125
 41
0.0
 71
     2
 72
     1
  1
32
  7
SLDTEXTSTYLE1
 73
     1
 44
1.0
  0
MTEXT
  5
20F
330
1F
100
AcDbEntity
  8
TITLE
100
AcDbMText
 10
30.23370311107105
 20
0.4125551098718104
 30
0.0
 40
0.125
 41
0.0
 71
     2
 72
     1
  1
31
  7
SLDTEXTSTYLE1
 73
     1
 44
1.0
  0
MTEXT
  5
210
330
1F
100
AcDbEntity
  8
TITLE
100
AcDbMText
 10
30.23370311107105
 20
119.7472007791631
 30
0.0
 40
0.125
 41
0.0
 71
     2
 72
     1
  1
31
  7
SLDTEXTSTYLE1
 73
     1
 44
1.0
  0
MTEXT
  5
211
330
1F
100
AcDbEntity
  8
TITLE
100
AcDbMText
 10
32.20220704807893
 20
0.4125551098718104
 30
0.0
 40
0.125
 41
0.0
 71
     2
 72
     1
  1
30
  7
SLDTEXTSTYLE1
 73
     1
 44
1.0
  0
MTEXT
  5
212
330
1F
100
AcDbEntity
  8
TITLE
100
AcDbMText
 10
32.20220704807893
 20
119.7472007791631
 30
0.0
 40
0.125
 41
0.0
 71
     2
 72
     1
  1
30
  7
SLDTEXTSTYLE1
 73
     1
 44
1.0
  0
MTEXT
  5
213
330
1F
100
AcDbEntity
  8
TITLE
100
AcDbMText
 10
34.1707109850868
 20
0.4125551098718104
 30
0.0
 40
0.125
 41
0.0
 71
     2
 72
     1
  1
29
  7
SLDTEXTSTYLE1
 73
     1
 44
1.0
  0
MTEXT
  5
214
330
1F
100
AcDbEntity
  8
TITLE
100
AcDbMText
 10
34.17071098508679
 20
119.7472007791631
 30
0.0
 40
0.125
 41
0.0
 71
     2
 72
     1
  1
29
  7
SLDTEXTSTYLE1
 73
     1
 44
1.0
  0
MTEXT
  5
215
330
1F
100
AcDbEntity
  8
TITLE
100
AcDbMText
 10
36.13921492209468
 20
0.4125551098718104
 30
0.0
 40
0.125
 41
0.0
 71
     2
 72
     1
  1
28
  7
SLDTEXTSTYLE1
 73
     1
 44
1.0
  0
MTEXT
  5
216
330
1F
100
AcDbEntity
  8
TITLE
100
AcDbMText
 10
36.13921492209468
 20
119.7472007791631
 30
0.0
 40
0.125
 41
0.0
 71
     2
 72
     1
  1
28
  7
SLDTEXTSTYLE1
 73
     1
 44
1.0
  0
MTEXT
  5
217
330
1F
100
AcDbEntity
  8
TITLE
100
AcDbMText
 10
38.10771885910255
 20
0.4125551098718103
 30
0.0
 40
0.125
 41
0.0
 71
     2
 72
     1
  1
27
  7
SLDTEXTSTYLE1
 73
     1
 44
1.0
  0
MTEXT
  5
218
330
1F
100
AcDbEntity
  8
TITLE
100
AcDbMText
 10
38.10771885910255
 20
119.7472007791632
 30
0.0
 40
0.125
 41
0.0
 71
     2
 72
     1
  1
27
  7
SLDTEXTSTYLE1
 73
     1
 44
1.0
  0
MTEXT
  5
219
330
1F
100
AcDbEntity
  8
TITLE
100
AcDbMText
 10
40.07622279611042
 20
0.4125551098718104
 30
0.0
 40
0.125
 41
0.0
 71
     2
 72
     1
  1
26
  7
SLDTEXTSTYLE1
 73
     1
 44
1.0
  0
MTEXT
  5
21A
330
1F
100
AcDbEntity
  8
TITLE
100
AcDbMText
 10
40.07622279611042
 20
119.7472007791631
 30
0.0
 40
0.125
 41
0.0
 71
     2
 72
     1
  1
26
  7
SLDTEXTSTYLE1
 73
     1
 44
1.0
  0
MTEXT
  5
21B
330
1F
100
AcDbEntity
  8
TITLE
100
AcDbMText
 10
42.0447267331183
 20
0.4125551098718105
 30
0.0
 40
0.125
 41
0.0
 71
     2
 72
     1
  1
25
  7
SLDTEXTSTYLE1
 73
     1
 44
1.0
  0
MTEXT
  5
21C
330
1F
100
AcDbEntity
  8
TITLE
100
AcDbMText
 10
42.0447267331183
 20
119.7472007791631
 30
0.0
 40
0.125
 41
0.0
 71
     2
 72
     1
  1
25
  7
SLDTEXTSTYLE1
 73
     1
 44
1.0
  0
MTEXT
  5
21D
330
1F
100
AcDbEntity
  8
TITLE
100
AcDbMText
 10
44.01323067012616
 20
0.4125551098718104
 30
0.0
 40
0.125
 41
0.0
 71
     2
 72
     1
  1
24
  7
SLDTEXTSTYLE1
 73
     1
 44
1.0
  0
MTEXT
  5
21E
330
1F
100
AcDbEntity
  8
TITLE
100
AcDbMText
 10
44.01323067012617
 20
119.7472007791632
 30
0.0
 40
0.125
 41
0.0
 71
     2
 72
     1
  1
24
  7
SLDTEXTSTYLE1
 73
     1
 44
1.0
  0
MTEXT
  5
21F
330
1F
100
AcDbEntity
  8
TITLE
100
AcDbMText
 10
45.98173460713405
 20
0.4125551098718104
 30
0.0
 40
0.125
 41
0.0
 71
     2
 72
     1
  1
23
  7
SLDTEXTSTYLE1
 73
     1
 44
1.0
  0
MTEXT
  5
220
330
1F
100
AcDbEntity
  8
TITLE
100
AcDbMText
 10
45.98173460713405
 20
119.7472007791631
 30
0.0
 40
0.125
 41
0.0
 71
     2
 72
     1
  1
23
  7
SLDTEXTSTYLE1
 73
     1
 44
1.0
  0
MTEXT
  5
221
330
1F
100
AcDbEntity
  8
TITLE
100
AcDbMText
 10
47.95023854414192
 20
0.4125551098718105
 30
0.0
 40
0.125
 41
0.0
 71
     2
 72
     1
  1
22
  7
SLDTEXTSTYLE1
 73
     1
 44
1.0
  0
MTEXT
  5
222
330
1F
100
AcDbEntity
  8
TITLE
100
AcDbMText
 10
47.95023854414192
 20
119.7472007791631
 30
0.0
 40
0.125
 41
0.0
 71
     2
 72
     1
  1
22
  7
SLDTEXTSTYLE1
 73
     1
 44
1.0
  0
MTEXT
  5
223
330
1F
100
AcDbEntity
  8
TITLE
100
AcDbMText
 10
49.91874248114981
 20
0.4125551098718104
 30
0.0
 40
0.125
 41
0.0
 71
     2
 72
     1
  1
21
  7
SLDTEXTSTYLE1
 73
     1
 44
1.0
  0
MTEXT
  5
224
330
1F
100
AcDbEntity
  8
TITLE
100
AcDbMText
 10
49.91874248114981
 20
119.7472007791631
 30
0.0
 40
0.125
 41
0.0
 71
     2
 72
     1
  1
21
  7
SLDTEXTSTYLE1
 73
     1
 44
1.0
  0
MTEXT
  5
225
330
1F
100
AcDbEntity
  8
TITLE
100
AcDbMText
 10
51.88724641815767
 20
0.4125551098718104
 30
0.0
 40
0.125
 41
0.0
 71
     2
 72
     1
  1
20
  7
SLDTEXTSTYLE1
 73
     1
 44
1.0
  0
MTEXT
  5
226
330
1F
100
AcDbEntity
  8
TITLE
100
AcDbMText
 10
51.88724641815766
 20
119.7472007791631
 30
0.0
 40
0.125
 41
0.0
 71
     2
 72
     1
  1
20
  7
SLDTEXTSTYLE1
 73
     1
 44
1.0
  0
MTEXT
  5
227
330
1F
100
AcDbEntity
  8
TITLE
100
AcDbMText
 10
53.85575035516554
 20
0.4125551098718104
 30
0.0
 40
0.125
 41
0.0
 71
     2
 72
     1
  1
19
  7
SLDTEXTSTYLE1
 73
     1
 44
1.0
  0
MTEXT
  5
228
330
1F
100
AcDbEntity
  8
TITLE
100
AcDbMText
 10
53.85575035516554
 20
119.7472007791631
 30
0.0
 40
0.125
 41
0.0
 71
     2
 72
     1
  1
19
  7
SLDTEXTSTYLE1
 73
     1
 44
1.0
  0
MTEXT
  5
229
330
1F
100
AcDbEntity
  8
TITLE
100
AcDbMText
 10
55.82425429217342
 20
0.4125551098718104
 30
0.0
 40
0.125
 41
0.0
 71
     2
 72
     1
  1
18
  7
SLDTEXTSTYLE1
 73
     1
 44
1.0
  0
MTEXT
  5
22A
330
1F
100
AcDbEntity
  8
TITLE
100
AcDbMText
 10
55.82425429217342
 20
119.7472007791631
 30
0.0
 40
0.125
 41
0.0
 71
     2
 72
     1
  1
18
  7
SLDTEXTSTYLE1
 73
     1
 44
1.0
  0
MTEXT
  5
22B
330
1F
100
AcDbEntity
  8
TITLE
100
AcDbMText
 10
57.79275822918129
 20
0.4125551098718104
 30
0.0
 40
0.125
 41
0.0
 71
     2
 72
     1
  1
17
  7
SLDTEXTSTYLE1
 73
     1
 44
1.0
  0
MTEXT
  5
22C
330
1F
100
AcDbEntity
  8
TITLE
100
AcDbMText
 10
57.7927582291813
 20
119.7472007791632
 30
0.0
 40
0.125
 41
0.0
 71
     2
 72
     1
  1
17
  7
SLDTEXTSTYLE1
 73
     1
 44
1.0
  0
MTEXT
  5
22D
330
1F
100
AcDbEntity
  8
TITLE
100
AcDbMText
 10
59.76126216618918
 20
0.4125551098718104
 30
0.0
 40
0.125
 41
0.0
 71
     2
 72
     1
  1
16
  7
SLDTEXTSTYLE1
 73
     1
 44
1.0
  0
MTEXT
  5
22E
330
1F
100
AcDbEntity
  8
TITLE
100
AcDbMText
 10
59.76126216618916
 20
119.7472007791632
 30
0.0
 40
0.125
 41
0.0
 71
     2
 72
     1
  1
16
  7
SLDTEXTSTYLE1
 73
     1
 44
1.0
  0
MTEXT
  5
22F
330
1F
100
AcDbEntity
  8
TITLE
100
AcDbMText
 10
61.72976610319703
 20
0.4125551098718104
 30
0.0
 40
0.125
 41
0.0
 71
     2
 72
     1
  1
15
  7
SLDTEXTSTYLE1
 73
     1
 44
1.0
  0
MTEXT
  5
230
330
1F
100
AcDbEntity
  8
TITLE
100
AcDbMText
 10
61.72976610319704
 20
119.7472007791631
 30
0.0
 40
0.125
 41
0.0
 71
     2
 72
     1
  1
15
  7
SLDTEXTSTYLE1
 73
     1
 44
1.0
  0
MTEXT
  5
231
330
1F
100
AcDbEntity
  8
TITLE
100
AcDbMText
 10
63.69827004020492
 20
0.4125551098718105
 30
0.0
 40
0.125
 41
0.0
 71
     2
 72
     1
  1
14
  7
SLDTEXTSTYLE1
 73
     1
 44
1.0
  0
MTEXT
  5
232
330
1F
100
AcDbEntity
  8
TITLE
100
AcDbMText
 10
63.69827004020491
 20
119.7472007791631
 30
0.0
 40
0.125
 41
0.0
 71
     2
 72
     1
  1
14
  7
SLDTEXTSTYLE1
 73
     1
 44
1.0
  0
MTEXT
  5
233
330
1F
100
AcDbEntity
  8
TITLE
100
AcDbMText
 10
65.6667739772128
 20
0.4125551098718104
 30
0.0
 40
0.125
 41
0.0
 71
     2
 72
     1
  1
13
  7
SLDTEXTSTYLE1
 73
     1
 44
1.0
  0
MTEXT
  5
234
330
1F
100
AcDbEntity
  8
TITLE
100
AcDbMText
 10
65.6667739772128
 20
119.7472007791631
 30
0.0
 40
0.125
 41
0.0
 71
     2
 72
     1
  1
13
  7
SLDTEXTSTYLE1
 73
     1
 44
1.0
  0
MTEXT
  5
235
330
1F
100
AcDbEntity
  8
TITLE
100
AcDbMText
 10
67.63527791422067
 20
0.4125551098718104
 30
0.0
 40
0.125
 41
0.0
 71
     2
 72
     1
  1
12
  7
SLDTEXTSTYLE1
 73
     1
 44
1.0
  0
MTEXT
  5
236
330
1F
100
AcDbEntity
  8
TITLE
100
AcDbMText
 10
67.63527791422064
 20
119.7472007791631
 30
0.0
 40
0.125
 41
0.0
 71
     2
 72
     1
  1
12
  7
SLDTEXTSTYLE1
 73
     1
 44
1.0
  0
MTEXT
  5
237
330
1F
100
AcDbEntity
  8
TITLE
100
AcDbMText
 10
69.60378185122853
 20
0.4125551098718104
 30
0.0
 40
0.125
 41
0.0
 71
     2
 72
     1
  1
11
  7
SLDTEXTSTYLE1
 73
     1
 44
1.0
  0
MTEXT
  5
238
330
1F
100
AcDbEntity
  8
TITLE
100
AcDbMText
 10
69.60378185122855
 20
119.7472007791631
 30
0.0
 40
0.125
 41
0.0
 71
     2
 72
     1
  1
11
  7
SLDTEXTSTYLE1
 73
     1
 44
1.0
  0
MTEXT
  5
239
330
1F
100
AcDbEntity
  8
TITLE
100
AcDbMText
 10
71.57228578823641
 20
0.4125551098718104
 30
0.0
 40
0.125
 41
0.0
 71
     2
 72
     1
  1
10
  7
SLDTEXTSTYLE1
 73
     1
 44
1.0
  0
MTEXT
  5
23A
330
1F
100
AcDbEntity
  8
TITLE
100
AcDbMText
 10
71.5722857882364
 20
119.7472007791631
 30
0.0
 40
0.125
 41
0.0
 71
     2
 72
     1
  1
10
  7
SLDTEXTSTYLE1
 73
     1
 44
1.0
  0
MTEXT
  5
23B
330
1F
100
AcDbEntity
  8
TITLE
100
AcDbMText
 10
73.54204840592922
 20
0.4125551098718104
 30
0.0
 40
0.125
 41
0.0
 71
     2
 72
     1
  1
9
  7
SLDTEXTSTYLE1
 73
     1
 44
1.0
  0
MTEXT
  5
23C
330
1F
100
AcDbEntity
  8
TITLE
100
AcDbMText
 10
73.54204840592922
 20
119.7472007791631
 30
0.0
 40
0.125
 41
0.0
 71
     2
 72
     1
  1
9
  7
SLDTEXTSTYLE1
 73
     1
 44
1.0
  0
MTEXT
  5
23D
330
1F
100
AcDbEntity
  8
TITLE
100
AcDbMText
 10
75.5105523429371
 20
0.4125551098718104
 30
0.0
 40
0.125
 41
0.0
 71
     2
 72
     1
  1
8
  7
SLDTEXTSTYLE1
 73
     1
 44
1.0
  0
MTEXT
  5
23E
330
1F
100
AcDbEntity
  8
TITLE
100
AcDbMText
 10
75.5105523429371
 20
119.7472007791631
 30
0.0
 40
0.125
 41
0.0
 71
     2
 72
     1
  1
8
  7
SLDTEXTSTYLE1
 73
     1
 44
1.0
  0
MTEXT
  5
23F
330
1F
100
AcDbEntity
  8
TITLE
100
AcDbMText
 10
77.47905627994498
 20
0.4125551098718104
 30
0.0
 40
0.125
 41
0.0
 71
     2
 72
     1
  1
7
  7
SLDTEXTSTYLE1
 73
     1
 44
1.0
  0
MTEXT
  5
240
330
1F
100
AcDbEntity
  8
TITLE
100
AcDbMText
 10
77.47905627994497
 20
119.7472007791631
 30
0.0
 40
0.125
 41
0.0
 71
     2
 72
     1
  1
7
  7
SLDTEXTSTYLE1
 73
     1
 44
1.0
  0
MTEXT
  5
241
330
1F
100
AcDbEntity
  8
TITLE
100
AcDbMText
 10
79.44756021695287
 20
0.4125551098718104
 30
0.0
 40
0.125
 41
0.0
 71
     2
 72
     1
  1
6
  7
SLDTEXTSTYLE1
 73
     1
 44
1.0
  0
MTEXT
  5
242
330
1F
100
AcDbEntity
  8
TITLE
100
AcDbMText
 10
79.44756021695282
 20
119.7472007791631
 30
0.0
 40
0.125
 41
0.0
 71
     2
 72
     1
  1
6
  7
SLDTEXTSTYLE1
 73
     1
 44
1.0
  0
MTEXT
  5
243
330
1F
100
AcDbEntity
  8
TITLE
100
AcDbMText
 10
81.41606415396073
 20
0.4125551098718105
 30
0.0
 40
0.125
 41
0.0
 71
     2
 72
     1
  1
5
  7
SLDTEXTSTYLE1
 73
     1
 44
1.0
  0
MTEXT
  5
244
330
1F
100
AcDbEntity
  8
TITLE
100
AcDbMText
 10
81.41606415396073
 20
119.7472007791632
 30
0.0
 40
0.125
 41
0.0
 71
     2
 72
     1
  1
5
  7
SLDTEXTSTYLE1
 73
     1
 44
1.0
  0
MTEXT
  5
245
330
1F
100
AcDbEntity
  8
TITLE
100
AcDbMText
 10
83.3845680909686
 20
0.4125551098718103
 30
0.0
 40
0.125
 41
0.0
 71
     2
 72
     1
  1
4
  7
SLDTEXTSTYLE1
 73
     1
 44
1.0
  0
MTEXT
  5
246
330
1F
100
AcDbEntity
  8
TITLE
100
AcDbMText
 10
83.38456809096857
 20
119.7472007791631
 30
0.0
 40
0.125
 41
0.0
 71
     2
 72
     1
  1
4
  7
SLDTEXTSTYLE1
 73
     1
 44
1.0
  0
MTEXT
  5
247
330
1F
100
AcDbEntity
  8
TITLE
100
AcDbMText
 10
85.35307202797648
 20
0.4125551098718104
 30
0.0
 40
0.125
 41
0.0
 71
     2
 72
     1
  1
3
  7
SLDTEXTSTYLE1
 73
     1
 44
1.0
  0
MTEXT
  5
248
330
1F
100
AcDbEntity
  8
TITLE
100
AcDbMText
 10
85.35307202797648
 20
119.7472007791631
 30
0.0
 40
0.125
 41
0.0
 71
     2
 72
     1
  1
3
  7
SLDTEXTSTYLE1
 73
     1
 44
1.0
  0
MTEXT
  5
249
330
1F
100
AcDbEntity
  8
TITLE
100
AcDbMText
 10
87.32157596498435
 20
0.4125551098718104
 30
0.0
 40
0.125
 41
0.0
 71
     2
 72
     1
  1
2
  7
SLDTEXTSTYLE1
 73
     1
 44
1.0
  0
MTEXT
  5
24A
330
1F
100
AcDbEntity
  8
TITLE
100
AcDbMText
 10
87.32157596498433
 20
119.7472007791631
 30
0.0
 40
0.125
 41
0.0
 71
     2
 72
     1
  1
2
  7
SLDTEXTSTYLE1
 73
     1
 44
1.0
  0
MTEXT
  5
24B
330
1F
100
AcDbEntity
  8
TITLE
100
AcDbMText
 10
88.90228462640165
 20
0.4125551098718104
 30
0.0
 40
0.125
 41
0.0
 71
     2
 72
     1
  1
1
  7
SLDTEXTSTYLE1
 73
     1
 44
1.0
  0
MTEXT
  5
24C
330
1F
100
AcDbEntity
  8
TITLE
100
AcDbMText
 10
88.90228462640168
 20
119.7472007791631
 30
0.0
 40
0.125
 41
0.0
 71
     2
 72
     1
  1
1
  7
SLDTEXTSTYLE1
 73
     1
 44
1.0
  0
LINE
  5
24D
330
1F
100
AcDbEntity
  8
OBJECT
  6
SLD-Solid
370
    25
100
AcDbLine
 10
7.46532261134712
 20
54.43851174441587
 30
0.0
 11
7.465322611347111
 21
51.39151174441589
 31
0.0
  0
LINE
  5
24E
330
1F
100
AcDbEntity
  8
OBJECT
  6
SLD-Solid
370
    25
100
AcDbLine
 10
8.730322611347106
 20
51.39151174441587
 30
0.0
 11
8.730322611347118
 21
54.43851174441587
 31
0.0
  0
LINE
  5
24F
330
1F
100
AcDbEntity
  8
OBJECT
  6
SLD-Solid
370
    25
100
AcDbLine
 10
9.59782261134702
 20
25.75901174441585
 30
0.0
 11
13.09782261134704
 21
25.75901174441586
 31
0.0
  0
LINE
  5
250
330
1F
100
AcDbEntity
  8
OBJECT
  6
SLD-Solid
370
    25
100
AcDbLine
 10
13.09782261134704
 20
27.02401174441586
 30
0.0
 11
9.59782261134702
 21
27.02401174441585
 31
0.0
  0
LINE
  5
251
330
1F
100
AcDbEntity
  8
OBJECT
  6
SLD-Solid
370
    25
100
AcDbLine
 10
33.09782261134703
 20
25.75901174441586
 30
0.0
 11
36.14482261134704
 21
25.75901174441586
 31
0.0
  0
LINE
  5
252
330
1F
100
AcDbEntity
  8
OBJECT
  6
SLD-Solid
370
    25
100
AcDbLine
 10
36.14482261134704
 20
27.02401174441586
 30
0.0
 11
33.09782261134703
 21
27.02401174441586
 31
0.0
  0
ARC
  5
253
330
1F
100
AcDbEntity
  8
OBJECT
  6
SLD-Solid
370
    25
100
AcDbCircle
 10
9.59782261134702
 20
27.89151174441586
 30
0.0
 40
0.8675000000000033
100
AcDbArc
 50
180.0
 51
270.0000000000008
  0
ARC
  5
254
330
1F
100
AcDbEntity
  8
OBJECT
  6
SLD-Solid
370
    25
100
AcDbCircle
 10
9.59782261134702
 20
27.89151174441586
 30
0.0
 40
2.132500000000004
100
AcDbArc
 50
179.9999999999998
 51
270.0000000000008
  0
LINE
  5
255
330
1F
100
AcDbEntity
  8
OBJECT
  6
SLD-Solid
370
    25
100
AcDbLine
 10
7.465322611347111
 20
51.39151174441589
 30
0.0
 11
7.465322611347032
 21
31.39151174441587
 31
0.0
  0
LINE
  5
256
330
1F
100
AcDbEntity
  8
OBJECT
  6
SLD-Solid
370
    25
100
AcDbLine
 10
8.730322611347031
 20
31.39151174441587
 30
0.0
 11
8.730322611347106
 21
51.39151174441587
 31
0.0
  0
LINE
  5
257
330
1F
100
AcDbEntity
  8
OBJECT
  6
SLD-Solid
370
    25
100
AcDbLine
 10
8.730322611347106
 20
54.43851174441587
 30
0.0
 11
8.730322611347106
 21
56.39151174441587
 31
0.0
  0
LINE
  5
258
330
1F
100
AcDbEntity
  8
OBJECT
  6
SLD-Solid
370
    25
100
AcDbLine
 10
7.465322611347111
 20
56.39151174441587
 30
0.0
 11
7.465322611347111
 21
54.43851174441587
 31
0.0
  0
LINE
  5
259
330
1F
100
AcDbEntity
  8
OBJECT
  6
SLD-Solid
370
    25
100
AcDbLine
 10
38.09782261134703
 20
27.02401174441586
 30
0.0
 11
36.14482261134704
 21
27.02401174441586
 31
0.0
  0
LINE
  5
25A
330
1F
100
AcDbEntity
  8
OBJECT
  6
SLD-Solid
370
    25
100
AcDbLine
 10
36.14482261134704
 20
25.75901174441586
 30
0.0
 11
38.09782261134703
 21
25.75901174441586
 31
0.0
  0
LINE
  5
25B
330
1F
100
AcDbEntity
  8
OBJECT
  6
SLD-Solid
370
    25
100
AcDbLine
 10
13.09782261134704
 20
25.75901174441586
 30
0.0
 11
33.09782261134703
 21
25.75901174441586
 31
0.0
  0
LINE
  5
25C
330
1F
100
AcDbEntity
  8
OBJECT
  6
SLD-Solid
370
    25
100
AcDbLine
 10
33.09782261134703
 20
27.02401174441586
 30
0.0
 11
13.09782261134704
 21
27.02401174441586
 31
0.0
  0
LINE
  5
25D
330
1F
100
AcDbEntity
  8
OBJECT
  6
SLD-Solid
370
    25
100
AcDbLine
 10
7.465322611347032
 20
31.39151174441587
 30
0.0
 11
7.465322611347023
 21
27.89151174441586
 31
0.0
  0
LINE
  5
25E
330
1F
100
AcDbEntity
  8
OBJECT
  6
SLD-Solid
370
    25
100
AcDbLine
 10
8.730322611347018
 20
27.89151174441586
 30
0.0
 11
8.730322611347031
 21
31.39151174441587
 31
0.0
  0
ARC
  5
25F
330
1F
100
AcDbEntity
  8
OBJECT
  6
SLD-Solid
370
    25
100
AcDbCircle
 10
8.097822611347123
 20
56.39151174441587
 30
0.0
 40
0.6550000000000009
100
AcDbArc
 50
344.9388077192758
 51
195.0611922807143
  0
ARC
  5
260
330
1F
100
AcDbEntity
  8
OBJECT
  6
SLD-Solid
370
    25
100
AcDbCircle
 10
8.097822611347123
 20
56.39151174441587
 30
0.0
 40
1.530000000000001
100
AcDbArc
 50
294.4185149509
 51
90.0
  0
ARC
  5
261
330
1F
100
AcDbEntity
  8
OBJECT
  6
SLD-Solid
370
    25
100
AcDbCircle
 10
8.097822611347123
 20
56.39151174441587
 30
0.0
 40
1.530000000000001
100
AcDbArc
 50
90.0
 51
245.5814850491003
  0
ARC
  5
262
330
1F
100
AcDbEntity
  8
OBJECT
  6
SLD-Solid
370
    25
100
AcDbCircle
 10
8.537162439567197
 20
26.83085157263604
 30
0.0
 40
0.6549999999999977
100
AcDbArc
 50
206.9722036503271
 51
243.0277963496754
  0
ARC
  5
263
330
1F
100
AcDbEntity
  8
OBJECT
  6
SLD-Solid
370
    25
100
AcDbCircle
 10
8.537162439567197
 20
26.83085157263604
 30
0.0
 40
0.6550000000000028
100
AcDbArc
 50
33.63485103507053
 51
56.36514896492874
  0
ARC
  5
264
330
1F
100
AcDbEntity
  8
OBJECT
  6
SLD-Solid
370
    25
100
AcDbCircle
 10
8.537162439567197
 20
26.83085157263604
 30
0.0
 40
1.530000000000002
100
AcDbArc
 50
7.252859536581148
 51
82.74714046341877
  0
ARC
  5
265
330
1F
100
AcDbEntity
  8
OBJECT
  6
SLD-Solid
370
    25
100
AcDbCircle
 10
8.537162439567197
 20
26.83085157263604
 30
0.0
 40
1.530000000000002
100
AcDbArc
 50
134.4710595188004
 51
315.5289404812002
  0
LWPOLYLINE
  5
266
330
1F
100
AcDbEntity
  8
OBJECT
  6
SLD-Solid
370
    25
100
AcDbPolyline
 90
        3
 70
   128
 43
0.0
 10
38.09782261134703
 20
25.73651174441586
 10
38.00245384648061
 20
25.74349183832667
 10
37.92762052557838
 20
25.75901174441586
  0
ARC
  5
267
330
1F
100
AcDbEntity
  8
OBJECT
  6
SLD-Solid
370
    25
100
AcDbCircle
 10
38.09782261134703
 20
26.39151174441587
 30
0.0
 40
0.6550000000000011
100
AcDbArc
 50
270.0000000000008
 51
105.0611922807187
  0
ARC
  5
268
330
1F
100
AcDbEntity
  8
OBJECT
  6
SLD-Solid
370
    25
100
AcDbCircle
 10
38.09782261134703
 20
26.39151174441587
 30
0.0
 40
1.529999999999998
100
AcDbArc
 50
204.4185149509009
 51
90.0
  0
ARC
  5
269
330
1F
100
AcDbEntity
  8
OBJECT
  6
SLD-Solid
370
    25
100
AcDbCircle
 10
38.09782261134703
 20
26.39151174441587
 30
0.0
 40
1.529999999999998
100
AcDbArc
 50
90.0
 51
155.5814850491001
  0
ARC
  5
26A
330
1F
100
AcDbEntity
  8
OBJECT
  6
SLD-Solid
370
    25
100
AcDbCircle
 10
8.097822611347105
 20
56.39151174441587
 30
0.0
 40
0.6325000000000003
100
AcDbArc
 50
0.0000000000000603
 51
179.9999999999994
  0
ARC
  5
26B
330
1F
100
AcDbEntity
  8
OBJECT
  6
SLD-Solid
370
    25
100
AcDbCircle
 10
38.09782261134703
 20
26.39151174441587
 30
0.0
 40
0.6325000000000038
100
AcDbArc
 50
270.0000000000014
 51
90.0
  0
LINE
  5
26C
330
1F
100
AcDbEntity
  8
OBJECT
100
AcDbLine
 10
4.822170000818423
 20
14.39151174441563
 30
0.0
 11
44.69991550656915
 21
14.39151174441591
 31
0.0
  0
LINE
  5
26D
330
1F
100
AcDbEntity
  8
OBJECT
100
AcDbLine
 10
44.69991550656915
 20
14.39151174441591
 30
0.0
 11
44.69991550656883
 21
60.38735482240251
 31
0.0
  0
LINE
  5
26E
330
1F
100
AcDbEntity
  8
DIMS
100
AcDbLine
 10
44.69991550656908
 20
24.48257468158615
 30
0.0
 11
44.06079508465969
 21
24.48257468158615
 31
0.0
  0
LINE
  5
26F
330
1F
100
AcDbEntity
  8
DIMS
100
AcDbLine
 10
44.06079508465969
 20
24.48257468158615
 30
0.0
 11
43.74141100513789
 21
25.07274091548513
 31
0.0
  0
LINE
  5
270
330
1F
100
AcDbEntity
  8
DIMS
100
AcDbLine
 10
43.74141100513789
 20
25.07274091548513
 30
0.0
 11
43.4289700577796
 21
23.89935157985069
 31
0.0
  0
LINE
  5
271
330
1F
100
AcDbEntity
  8
DIMS
100
AcDbLine
 10
43.4289700577796
 20
23.89935157985069
 30
0.0
 11
42.95683707066043
 21
24.48257468158614
 31
0.0
  0
LINE
  5
272
330
1F
100
AcDbEntity
  8
DIMS
100
AcDbLine
 10
42.95683707066043
 20
24.48257468158614
 30
0.0
 11
41.84593592449765
 21
24.48257468158613
 31
0.0
  0
LINE
  5
273
330
1F
100
AcDbEntity
  8
DIMS
100
AcDbLine
 10
6.17503152951841
 20
14.39151174441563
 30
0.0
 11
6.175031529518407
 21
14.95354059437351
 31
0.0
  0
LINE
  5
274
330
1F
100
AcDbEntity
  8
DIMS
100
AcDbLine
 10
6.175031529518407
 20
14.95354059437351
 30
0.0
 11
6.51206384321179
 21
15.28254832916942
 31
0.0
  0
LINE
  5
275
330
1F
100
AcDbEntity
  8
DIMS
100
AcDbLine
 10
6.51206384321179
 20
15.28254832916942
 30
0.0
 11
5.829075877305488
 21
15.65754940515022
 31
0.0
  0
LINE
  5
276
330
1F
100
AcDbEntity
  8
DIMS
100
AcDbLine
 10
5.829075877305488
 20
15.65754940515022
 30
0.0
 11
6.17503152951841
 21
15.99526801802473
 31
0.0
  0
LINE
  5
277
330
1F
100
AcDbEntity
  8
DIMS
100
AcDbLine
 10
6.17503152951841
 20
15.99526801802473
 30
0.0
 11
6.175031529518407
 21
16.58075191470159
 31
0.0
  0
HATCH
  5
278
330
1F
100
AcDbEntity
  8
NOTES
100
AcDbHatch
 10
0.0
 20
0.0
 30
0.0
210
0.0
220
0.0
230
1.0
  2
AR-SAND
 70
     0
 71
     0
 91
        1
 92
        0
 93
        4
 72
     1
 10
8.730322611346994
 20
31.39151174441566
 11
8.730322611346853
 21
51.39151174441567
 72
     1
 10
8.730322611346853
 20
51.39151174441567
 11
7.465322611346932
 21
51.39151174441567
 72
     1
 10
7.465322611346932
 20
51.39151174441567
 11
7.465322611347071
 21
31.39151174441565
 72
     1
 10
7.465322611347071
 20
31.39151174441565
 11
8.730322611346994
 21
31.39151174441566
 97
        0
 75
     0
 76
     1
 52
0.0
 41
5.333333333333333
 77
     0
 78
     4
 53
37.5
 43
0.0
 44
0.0
 45
-0.3359645765845767
 46
10.27639343473685
 79
     6
 49
0.0
 49
-8.106666666666666
 49
0.0
 49
-9.066666666666666
 49
0.0
 49
-8.666666666666666
 53
7.499999999999999
 43
0.0
 44
0.0
 45
9.438809094761211
 46
15.05144568122528
 79
     6
 49
0.0
 49
-4.373333333333333
 49
0.0
 49
-7.306666666666667
 49
0.0
 49
-2.8
 53
327.5
 43
-6.56
 44
0.0
 45
16.60875659600797
 46
0.030181618863812
 79
     6
 49
0.0
 49
-2.666666666666667
 49
0.0
 49
-9.6
 49
0.0
 49
-12.53333333333333
 53
317.5
 43
-6.56
 44
0.0
 45
16.03267522438556
 46
4.680936346315997
 79
     6
 49
0.0
 49
-1.333333333333333
 49
0.0
 49
-6.293333333333333
 49
0.0
 49
-7.2
 98
        1
 10
0.0
 20
0.0
  0
HATCH
  5
279
330
1F
100
AcDbEntity
  8
NOTES
100
AcDbHatch
 10
0.0
 20
0.0
 30
0.0
210
0.0
220
0.0
230
1.0
  2
AR-SAND
 70
     0
 71
     0
 91
        1
 92
        0
 93
        4
 72
     1
 10
33.09782261134704
 20
25.78901174441583
 11
33.09782261134703
 21
27.02401174441582
 72
     1
 10
33.09782261134703
 20
27.02401174441582
 11
13.09782261134703
 21
27.02401174441568
 72
     1
 10
13.09782261134703
 20
27.02401174441568
 11
13.09782261134704
 21
25.78901174441569
 72
     1
 10
13.09782261134704
 20
25.78901174441569
 11
33.09782261134704
 21
25.78901174441583
 97
        0
 75
     0
 76
     1
 52
0.0
 41
5.333333333333333
 77
     0
 78
     4
 53
37.5
 43
0.0
 44
0.0
 45
-0.3359645765845767
 46
10.27639343473685
 79
     6
 49
0.0
 49
-8.106666666666666
 49
0.0
 49
-9.066666666666666
 49
0.0
 49
-8.666666666666666
 53
7.499999999999999
 43
0.0
 44
0.0
 45
9.438809094761211
 46
15.05144568122528
 79
     6
 49
0.0
 49
-4.373333333333333
 49
0.0
 49
-7.306666666666667
 49
0.0
 49
-2.8
 53
327.5
 43
-6.56
 44
0.0
 45
16.60875659600797
 46
0.030181618863812
 79
     6
 49
0.0
 49
-2.666666666666667
 49
0.0
 49
-9.6
 49
0.0
 49
-12.53333333333333
 53
317.5
 43
-6.56
 44
0.0
 45
16.03267522438556
 46
4.680936346315997
 79
     6
 49
0.0
 49
-1.333333333333333
 49
0.0
 49
-6.293333333333333
 49
0.0
 49
-7.2
 98
        1
 10
0.0
 20
0.0
  0
DIMENSION
  5
27A
330
1F
100
AcDbEntity
  8
DIMS
100
AcDbDimension
  2
_D
 10
38.09782261134705
 20
24.46781095701417
 30
0.0
 11
23.47608222333595
 21
24.46781095701407
 31
0.0
 70
    32
  1
<>
 71
     2
 42
-1.0
  3
SLDDIMSTYLE0
100
AcDbAlignedDimension
 13
8.089917400466705
 23
26.38360653353534
 33
0.0
 14
38.09782261134703
 24
26.39151174441587
 34
0.0
 50
0.000000000000407
100
AcDbRotatedDimension
  0
DIMENSION
  5
28C
330
1F
100
AcDbEntity
  8
DIMS
100
AcDbDimension
  2
_D_1
 10
6.174121823945227
 20
56.39151174441565
 30
0.0
 11
6.174121823945326
 21
42.13950755306445
 31
0.0
 70
    32
  1
<>
 71
     2
 42
-1.0
  3
SLDDIMSTYLE0
100
AcDbAlignedDimension
 13
8.089917400466705
 23
26.38360653353534
 33
0.0
 14
8.097822611346912
 24
56.39151174441566
 34
0.0
 50
90.0000000000002
100
AcDbRotatedDimension
  0
DIMENSION
  5
297
330
1F
100
AcDbEntity
  8
DIMS
100
AcDbDimension
  2
_D_2
 10
6.174121823945327
 20
14.39151174441563
 30
0.0
 11
6.174121823945326
 21
14.69931815193012
 31
0.0
 70
    32
  1
24"\P\P\P\P^M\P 
 71
     2
 42
-1.0
  3
SLDDIMSTYLE0
100
AcDbAlignedDimension
 13
8.089917400466705
 23
26.38360653353534
 33
0.0
 14
4.822170000818423
 24
14.39151174441563
 34
0.0
 50
90.0000000000002
100
AcDbRotatedDimension
  0
DIMENSION
  5
2A1
330
1F
100
AcDbEntity
  8
DIMS
100
AcDbDimension
  2
_D_3
 10
44.69991550656908
 20
24.46781095701409
 30
0.0
 11
42.85616906803996
 21
24.46781095701407
 31
0.0
 70
    32
  1
20"                
 71
     2
 42
-1.0
  3
SLDDIMSTYLE0
100
AcDbAlignedDimension
 13
38.09782261134703
 23
26.39151174441587
 33
0.0
 14
44.69991550656915
 24
14.39151174441591
 34
0.0
 50
0.0000000000004316
100
AcDbRotatedDimension
  0
DIMENSION
  5
2AA
330
1F
100
AcDbEntity
  8
DIMS
100
AcDbDimension
  2
_D_4
 10
7.019651430992107
 20
55.30594880020085
 30
0.0
 11
12.44100277612895
 21
59.27346483584621
 31
0.0
 70
    35
  1
<>
 71
     1
 42
-1.0
  3
SLDDIMSTYLE1
100
AcDbDiametricDimension
 15
9.175993791701707
 25
57.47707468863047
 35
0.0
 40
0.0
  0
MTEXT
  5
2B8
330
1F
100
AcDbEntity
  8
NOTES
100
AcDbMText
 10
21.84240192241686
 20
23.70885269334413
 30
0.0
 40
0.5
 41
0.0
 71
     1
 72
     1
  1
Front view
  7
SLDTEXTSTYLE1
 73
     1
 44
1.0
  0
INSERT
  5
2BE
102
{ACAD_REACTORS
330
2C0
102
}
330
1F
100
AcDbEntity
  8
NOTES
100
AcDbBlockReference
  2
SW_NOTE_0_2
 10
11.22178477690289
 20
58.1017060397667
 30
0.0
  0
LEADER
  5
2C0
330
1F
100
AcDbEntity
  8
NOTES
100
AcDbLeader
  3
SLDDIMSTYLE2
 73
     2
 76
     3
 10
9.522003893044847
 20
56.95062503960833
 30
0.0
 10
10.72178477690289
 20
58.1017060397667
 30
0.0
 10
11.22178477690289
 20
58.1017060397667
 30
0.0
340
2BE
1001
ACAD
1000
DSTYLE
1002
{
1070
   176
1070
     0
1070
    77
1070
     0
1070
    40
1040
1.0
1070
   147
1040
0.0
1002
}
  0
MTEXT
  5
2C1
330
1F
100
AcDbEntity
  8
NOTES
100
AcDbMText
 10
7.02396525093817
 20
15.29603222260805
 30
0.0
 40
0.5
 41
0.0
 71
     1
 72
     1
  1
Floor
  7
SLDTEXTSTYLE1
 73
     1
 44
1.0
  0
MTEXT
  5
2C2
330
1F
100
AcDbEntity
  8
NOTES
100
AcDbMText
 10
41.62858400536381
 20
22.19184676412439
 30
0.0
 40
0.5
 41
0.0
 71
     1
 72
     1
  1
Wall
  7
SLDTEXTSTYLE1
 73
     1
 44
1.0
  0
LEADER
  5
2C3
330
1F
100
AcDbEntity
  8
NOTES
100
AcDbLeader
  3
SLDDIMSTYLE2
 76
     3
 10
44.69991550656909
 20
22.9858197336841
 30
0.0
 10
43.50685694899772
 20
21.9494750686381
 30
0.0
 10
43.00685694899772
 20
21.9494750686381
 30
0.0
1001
ACAD
1000
DSTYLE
1002
{
1070
   176
1070
     0
1070
    77
1070
     0
1070
    40
1040
1.0
1070
   147
1040
0.0
1002
}
  0
MTEXT
  5
2C4
330
1F
100
AcDbEntity
  8
NOTES
100
AcDbMText
 10
22.73147814770941
 20
32.89171370823533
 30
0.0
 40
0.5
 41
0.0
 71
     1
 72
     1
  1
peened area
  7
SLDTEXTSTYLE1
 73
     1
 44
1.0
  0
LEADER
  5
2CB
330
1F
100
AcDbEntity
  8
NOTES
100
AcDbLeader
  3
SLDDIMSTYLE3
 76
     3
 10
17.6007038631566
 20
26.72794333112701
 30
0.0
 10
22.20734908136483
 20
32.64763779829689
 30
0.0
 10
22.70734908136483
 20
32.64763779829689
 30
0.0
1001
ACAD
1000
DSTYLE
1002
{
1070
   176
1070
     0
1070
    77
1070
     0
1070
    40
1040
1.0
1070
   147
1040
0.0
1002
}
  0
ARC
  5
2CC
330
1F
100
AcDbEntity
  8
OBJECT
  6
SLD-Solid
370
    25
100
AcDbCircle
 10
52.0457446864186
 20
54.91151174441586
 30
0.0
 40
0.050000000000008
100
AcDbArc
 50
186.0090059574911
 51
270.0000000000008
  0
ARC
  5
2CD
330
1F
100
AcDbEntity
  8
OBJECT
  6
SLD-Solid
370
    25
100
AcDbCircle
 10
52.0457446864186
 20
57.87151174441587
 30
0.0
 40
0.050000000000008
100
AcDbArc
 50
90.0
 51
173.9909940425098
  0
LINE
  5
2CE
330
1F
100
AcDbEntity
  8
OBJECT
  6
SLD-Solid
370
    25
100
AcDbLine
 10
52.38473159911717
 20
57.92151174441587
 30
0.0
 11
52.0457446864186
 21
57.92151174441587
 31
0.0
  0
LINE
  5
2CF
330
1F
100
AcDbEntity
  8
OBJECT
  6
SLD-Solid
370
    25
100
AcDbLine
 10
52.0457446864186
 20
54.86151174441587
 30
0.0
 11
52.38473159911717
 21
54.86151174441587
 31
0.0
  0
LINE
  5
2D0
330
1F
100
AcDbEntity
  8
OBJECT
  6
SLD-Solid
370
    25
100
AcDbLine
 10
51.99601941377252
 20
57.87674598364175
 30
0.0
 11
51.90862633595928
 21
57.04651174441587
 31
0.0
  0
LINE
  5
2D1
330
1F
100
AcDbEntity
  8
OBJECT
  6
SLD-Solid
370
    25
100
AcDbLine
 10
51.90862633595928
 20
55.73651174441586
 30
0.0
 11
51.99601941377252
 21
54.90627750518998
 31
0.0
  0
LINE
  5
2D2
330
1F
100
AcDbEntity
  8
OBJECT
  6
SLD-Solid
370
    25
100
AcDbLine
 10
52.38473159911717
 20
28.36085157263603
 30
0.0
 11
52.0457446864186
 21
28.36085157263603
 31
0.0
  0
ARC
  5
2D3
330
1F
100
AcDbEntity
  8
OBJECT
  6
SLD-Solid
370
    25
100
AcDbCircle
 10
52.0457446864186
 20
28.31085157263603
 30
0.0
 40
0.0500000000000083
100
AcDbArc
 50
90.0
 51
173.9909940425057
  0
LINE
  5
2D4
330
1F
100
AcDbEntity
  8
OBJECT
  6
SLD-Solid
370
    25
100
AcDbLine
 10
51.99601941377252
 20
28.31608581186191
 30
0.0
 11
51.90862633595928
 21
27.48585157263604
 31
0.0
  0
LINE
  5
2D5
330
1F
100
AcDbEntity
  8
OBJECT
  6
SLD-Solid
370
    25
100
AcDbLine
 10
52.38473159911717
 20
27.92151174441586
 30
0.0
 11
52.0457446864186
 21
27.92151174441586
 31
0.0
  0
LINE
  5
2D6
330
1F
100
AcDbEntity
  8
OBJECT
  6
SLD-Solid
370
    25
100
AcDbLine
 10
52.0457446864186
 20
24.86151174441586
 30
0.0
 11
52.38473159911717
 21
24.86151174441586
 31
0.0
  0
ARC
  5
2D7
330
1F
100
AcDbEntity
  8
OBJECT
  6
SLD-Solid
370
    25
100
AcDbCircle
 10
52.0457446864186
 20
24.91151174441586
 30
0.0
 40
0.0500000000000083
100
AcDbArc
 50
186.0090059574951
 51
270.0000000000008
  0
ARC
  5
2D8
330
1F
100
AcDbEntity
  8
OBJECT
  6
SLD-Solid
370
    25
100
AcDbCircle
 10
52.0457446864186
 20
27.87151174441586
 30
0.0
 40
0.0500000000000083
100
AcDbArc
 50
90.0
 51
173.9909940425057
  0
LINE
  5
2D9
330
1F
100
AcDbEntity
  8
OBJECT
  6
SLD-Solid
370
    25
100
AcDbLine
 10
51.99601941377252
 20
27.87674598364174
 30
0.0
 11
51.90862633595928
 21
27.04651174441586
 31
0.0
  0
LINE
  5
2DA
330
1F
100
AcDbEntity
  8
OBJECT
  6
SLD-Solid
370
    25
100
AcDbLine
 10
51.90862633595928
 20
25.73651174441586
 30
0.0
 11
51.99601941377252
 21
24.90627750518998
 31
0.0
  0
LINE
  5
2DB
330
1F
100
AcDbEntity
  8
OBJECT
  6
SLD-Solid
370
    25
100
AcDbLine
 10
51.90862633595928
 20
27.02401174441586
 30
0.0
 11
50.19673159911716
 21
27.02401174441586
 31
0.0
  0
LINE
  5
2DC
330
1F
100
AcDbEntity
  8
OBJECT
  6
SLD-Solid
370
    25
100
AcDbLine
 10
50.19673159911716
 20
25.75901174441586
 30
0.0
 11
51.90862633595928
 21
25.75901174441586
 31
0.0
  0
LINE
  5
2DD
330
1F
100
AcDbEntity
  8
OBJECT
  6
SLD-Solid
370
    25
100
AcDbLine
 10
49.56423159911716
 20
27.89151174441586
 30
0.0
 11
49.56423159911716
 21
26.39151174441585
 31
0.0
  0
LINE
  5
2DE
330
1F
100
AcDbEntity
  8
OBJECT
  6
SLD-Solid
370
    25
100
AcDbLine
 10
50.82923159911717
 20
27.45885157263603
 30
0.0
 11
50.82923159911717
 21
27.89151174441586
 31
0.0
  0
LINE
  5
2DF
330
1F
100
AcDbEntity
  8
OBJECT
  6
SLD-Solid
370
    25
100
AcDbLine
 10
51.90862633595928
 20
27.45885157263603
 30
0.0
 11
50.7195500085297
 21
27.45885157263603
 31
0.0
  0
LINE
  5
2E0
330
1F
100
AcDbEntity
  8
OBJECT
  6
SLD-Solid
370
    25
100
AcDbLine
 10
49.56423159911716
 20
51.39151174441587
 30
0.0
 11
49.56423159911716
 21
31.39151174441587
 31
0.0
  0
LINE
  5
2E1
330
1F
100
AcDbEntity
  8
OBJECT
  6
SLD-Solid
370
    25
100
AcDbLine
 10
50.82923159911717
 20
31.39151174441587
 30
0.0
 11
50.82923159911717
 21
51.39151174441589
 31
0.0
  0
LINE
  5
2E2
330
1F
100
AcDbEntity
  8
OBJECT
  6
SLD-Solid
370
    25
100
AcDbLine
 10
49.56423159911716
 20
31.39151174441587
 30
0.0
 11
49.56423159911716
 21
27.89151174441586
 31
0.0
  0
LINE
  5
2E3
330
1F
100
AcDbEntity
  8
OBJECT
  6
SLD-Solid
370
    25
100
AcDbLine
 10
50.82923159911717
 20
27.89151174441586
 30
0.0
 11
50.82923159911717
 21
31.39151174441587
 31
0.0
  0
LINE
  5
2E4
330
1F
100
AcDbEntity
  8
OBJECT
  6
SLD-Solid
370
    25
100
AcDbLine
 10
49.56423159911716
 20
54.43851174441587
 30
0.0
 11
49.56423159911716
 21
51.39151174441587
 31
0.0
  0
LINE
  5
2E5
330
1F
100
AcDbEntity
  8
OBJECT
  6
SLD-Solid
370
    25
100
AcDbLine
 10
50.82923159911717
 20
51.39151174441587
 30
0.0
 11
50.82923159911717
 21
54.43851174441587
 31
0.0
  0
ARC
  5
2E6
330
1F
100
AcDbEntity
  8
OBJECT
  6
SLD-Solid
370
    25
100
AcDbCircle
 10
52.14973159911717
 20
54.43851174441587
 30
0.0
 40
1.320500000000003
100
AcDbArc
 50
100.5204432310842
 51
179.9999999999999
  0
ARC
  5
2E7
330
1F
100
AcDbEntity
  8
OBJECT
  6
SLD-Solid
370
    25
100
AcDbCircle
 10
52.14973159911717
 20
54.43851174441587
 30
0.0
 40
2.585500000000003
100
AcDbArc
 50
95.35076949171759
 51
179.9999999999997
  0
LINE
  5
2E8
330
1F
100
AcDbEntity
  8
OBJECT
  6
SLD-Solid
370
    25
100
AcDbLine
 10
52.38473159911717
 20
54.86151174441587
 30
0.0
 11
52.38473159911717
 21
57.92151174441587
 31
0.0
  0
LINE
  5
2E9
330
1F
100
AcDbEntity
  8
OBJECT
  6
SLD-Solid
370
    25
100
AcDbLine
 10
51.90862633595928
 20
57.04651174441587
 30
0.0
 11
51.90862633595928
 21
55.73651174441586
 31
0.0
  0
LINE
  5
2EA
330
1F
100
AcDbEntity
  8
OBJECT
  6
SLD-Solid
370
    25
100
AcDbLine
 10
52.38473159911717
 20
27.92151174441607
 30
0.0
 11
52.38473159911717
 21
28.36085157263603
 31
0.0
  0
LINE
  5
2EB
330
1F
100
AcDbEntity
  8
OBJECT
  6
SLD-Solid
370
    25
100
AcDbLine
 10
51.90862633595928
 20
27.48585157263604
 30
0.0
 11
51.90862633595928
 21
27.04651174441702
 31
0.0
  0
LINE
  5
2EC
330
1F
100
AcDbEntity
  8
OBJECT
  6
SLD-Solid
370
    25
100
AcDbLine
 10
52.38473159911717
 20
24.86151174441586
 30
0.0
 11
52.38473159911717
 21
27.92151174441586
 31
0.0
  0
LINE
  5
2ED
330
1F
100
AcDbEntity
  8
OBJECT
  6
SLD-Solid
370
    25
100
AcDbLine
 10
51.90862633595928
 20
27.04651174441586
 30
0.0
 11
51.90862633595928
 21
25.73651174441586
 31
0.0
  0
ARC
  5
2EE
330
1F
100
AcDbEntity
  8
OBJECT
  6
SLD-Solid
370
    25
100
AcDbCircle
 10
50.19673159911716
 20
26.39151174441587
 30
0.0
 40
0.6325000000000038
100
AcDbArc
 50
90.0
 51
270.0000000000008
  0
SPLINE
  5
2EF
330
1F
100
AcDbEntity
  8
OBJECT
  6
SLD-Solid
370
    25
100
AcDbSpline
210
0.0
220
0.0
230
1.0
 70
    12
 71
     3
 72
    20
 73
    16
 74
     0
 42
0.00000001
 43
0.00000001
 40
0.0
 40
0.0
 40
0.0
 40
0.0
 40
0.0728962752007664
 40
0.2043974302213918
 40
0.3394085259113807
 40
0.4815905245234654
 40
0.5314186707167398
 40
0.5673058927301747
 40
0.5975455332464099
 40
0.6126801530462936
 40
0.6279135743028297
 40
0.6485218982682964
 40
0.7203692386350138
 40
0.8622302425094833
 40
1.0
 40
1.0
 40
1.0
 40
1.0
 10
50.7195500085297
 20
27.45799944661927
 30
0.0
 41
1.0
 10
50.7051360896103
 20
27.45759770957106
 30
0.0
 41
1.0
 10
50.66472019759892
 20
27.45647125941908
 30
0.0
 41
1.0
 10
50.58261213638604
 20
27.43637759002101
 30
0.0
 41
1.0
 10
50.47585600403625
 20
27.39976866664364
 30
0.0
 41
1.0
 10
50.38565371545263
 20
27.36069116427841
 30
0.0
 41
1.0
 10
50.32425971155698
 20
27.32775492219722
 30
0.0
 41
1.0
 10
50.29496289788334
 20
27.3086578163707
 30
0.0
 41
1.0
 10
50.2772863368001
 20
27.29255021456729
 30
0.0
 41
1.0
 10
50.27109916835482
 20
27.27761569107503
 30
0.0
 41
1.0
 10
50.27326924841592
 20
27.26416511838687
 30
0.0
 41
1.0
 10
50.29218782394167
 20
27.23853003237672
 30
0.0
 41
1.0
 10
50.3553986821269
 20
27.192835227622
 30
0.0
 41
1.0
 10
50.45211400946411
 20
27.12305101638184
 30
0.0
 41
1.0
 10
50.52517381753685
 20
27.05670124973382
 30
0.0
 41
1.0
 10
50.5611692566343
 20
27.02401174441606
 30
0.0
 41
1.0
  0
LINE
  5
2F0
330
1F
100
AcDbEntity
  8
OBJECT
  6
SLD-Solid
370
    25
100
AcDbLine
 10
51.99601941377252
 20
54.90627750518996
 30
0.0
 11
51.99601941377252
 21
57.87674598364177
 31
0.0
  0
LINE
  5
2F1
330
1F
100
AcDbEntity
  8
OBJECT
  6
SLD-Solid
370
    25
100
AcDbLine
 10
51.99601941377252
 20
27.87674598364289
 30
0.0
 11
51.99601941377252
 21
28.31608581186194
 31
0.0
  0
HATCH
  5
2F2
330
1F
100
AcDbEntity
  8
NOTES
100
AcDbHatch
 10
0.0
 20
0.0
 30
0.0
210
0.0
220
0.0
230
1.0
  2
AR-SAND
 70
     0
 71
     0
 91
        1
 92
        0
 93
        4
 72
     1
 10
50.82923159911727
 20
31.39151174441566
 11
50.82923159911727
 21
51.39151174441567
 72
     1
 10
50.82923159911727
 20
51.39151174441567
 11
49.56423159911728
 21
51.39151174441567
 72
     1
 10
49.56423159911728
 20
51.39151174441567
 11
49.56423159911728
 21
31.39151174441566
 72
     1
 10
49.56423159911728
 20
31.39151174441566
 11
50.82923159911727
 21
31.39151174441566
 97
        0
 75
     0
 76
     1
 52
0.0
 41
5.333333333333333
 77
     0
 78
     4
 53
37.5
 43
0.0
 44
0.0
 45
-0.3359645765845767
 46
10.27639343473685
 79
     6
 49
0.0
 49
-8.106666666666666
 49
0.0
 49
-9.066666666666666
 49
0.0
 49
-8.666666666666666
 53
7.499999999999999
 43
0.0
 44
0.0
 45
9.438809094761211
 46
15.05144568122528
 79
     6
 49
0.0
 49
-4.373333333333333
 49
0.0
 49
-7.306666666666667
 49
0.0
 49
-2.8
 53
327.5
 43
-6.56
 44
0.0
 45
16.60875659600797
 46
0.030181618863812
 79
     6
 49
0.0
 49
-2.666666666666667
 49
0.0
 49
-9.6
 49
0.0
 49
-12.53333333333333
 53
317.5
 43
-6.56
 44
0.0
 45
16.03267522438556
 46
4.680936346315997
 79
     6
 49
0.0
 49
-1.333333333333333
 49
0.0
 49
-6.293333333333333
 49
0.0
 49
-7.2
 98
        1
 10
0.0
 20
0.0
  0
DIMENSION
  5
2F3
330
1F
100
AcDbEntity
  8
DIMS
100
AcDbDimension
  2
_D_5
 10
49.56423159911728
 20
32.43873974857186
 30
0.0
 11
47.75320797706992
 21
32.43873974857186
 31
0.0
 70
    32
  1
%%c<>
 71
     2
 42
-1.0
  3
SLDDIMSTYLE4
100
AcDbAlignedDimension
 13
50.82923159911727
 23
27.89151174441565
 33
0.0
 14
49.56423159911728
 24
27.89151174441565
 34
0.0
100
AcDbRotatedDimension
  0
DIMENSION
  5
302
330
1F
100
AcDbEntity
  8
DIMS
100
AcDbDimension
  2
_D_6
 10
50.82923159911727
 20
31.90503498533662
 30
0.0
 11
54.4319756936055
 21
31.90503498533662
 31
0.0
 70
    32
  1
<>
 71
     2
 42
-1.0
  3
SLDDIMSTYLE5
100
AcDbAlignedDimension
 13
52.38473159911727
 23
27.41285157263583
 33
0.0
 14
50.82923159911727
 24
27.89151174441565
 34
0.0
100
AcDbRotatedDimension
  0
MTEXT
  5
311
330
1F
100
AcDbEntity
  8
NOTES
100
AcDbMText
 10
49.31381065178821
 20
24.25178880383334
 30
0.0
 40
0.5
 41
0.0
 71
     1
 72
     1
  1
Side view
  7
SLDTEXTSTYLE1
 73
     1
 44
1.0
  0
SPLINE
  5
312
330
1F
100
AcDbEntity
  8
OBJECT
  6
SLD-Solid
370
    25
100
AcDbSpline
210
0.0
220
0.0
230
1.0
 70
    12
 71
     3
 72
    20
 73
    16
 74
     0
 42
0.00000001
 43
0.00000001
 40
0.0
 40
0.0
 40
0.0
 40
0.0
 40
0.0388503016919742
 40
0.123619668448659
 40
0.2090025784063831
 40
0.2949800255304559
 40
0.3814277276529852
 40
0.4681858910718366
 40
0.5551108586495435
 40
0.6420969475417668
 40
0.7290642566805513
 40
0.8159856785522143
 40
0.902851909341056
 40
0.9896643686259815
 40
1.0
 40
1.0
 40
1.0
 40
1.0
 10
62.75562416149766
 20
61.08189750458671
 30
0.0
 41
1.0
 10
62.74699450945631
 20
61.07217492813419
 30
0.0
 41
1.0
 10
62.719535399032
 20
61.04123818825875
 30
0.0
 41
1.0
 10
62.6815315535401
 20
60.97905701351413
 30
0.0
 41
1.0
 10
62.64167217798474
 20
60.89639406317482
 30
0.0
 41
1.0
 10
62.61063680578985
 20
60.80483278508902
 30
0.0
 41
1.0
 10
62.58816745159476
 20
60.70577607307585
 30
0.0
 41
1.0
 10
62.57463145402961
 20
60.59988439890827
 30
0.0
 41
1.0
 10
62.57010752122869
 20
60.4881341439272
 30
0.0
 41
1.0
 10
62.57460127326534
 20
60.37148646295838
 30
0.0
 41
1.0
 10
62.58810563582337
 20
60.25094082369697
 30
0.0
 41
1.0
 10
62.61019963746216
 20
60.12748102411872
 30
0.0
 41
1.0
 10
62.64166806356999
 20
60.00215395957626
 30
0.0
 41
1.0
 10
62.66768631264624
 20
59.91285878831302
 30
0.0
 41
1.0
 10
62.68538681598264
 20
59.86584075648263
 30
0.0
 41
1.0
 10
62.68726998091547
 20
59.8608384858087
 30
0.0
 41
1.0
  0
SPLINE
  5
313
330
1F
100
AcDbEntity
  8
OBJECT
  6
SLD-Solid
370
    25
100
AcDbSpline
210
0.0
220
0.0
230
1.0
 70
    12
 71
     3
 72
    16
 73
    12
 74
     0
 42
0.00000001
 43
0.00000001
 40
0.0
 40
0.0
 40
0.0
 40
0.0
 40
0.1070809925387619
 40
0.2238770045635708
 40
0.3407743333775883
 40
0.4577428004249099
 40
0.5746887902564671
 40
0.6914686786142055
 40
0.8078817464128237
 40
0.9236867592704343
 40
1.0
 40
1.0
 40
1.0
 40
1.0
 10
63.4369875934582
 20
58.77358030637114
 30
0.0
 41
1.0
 10
63.46665659715824
 20
58.75048092055444
 30
0.0
 41
1.0
 10
63.52868635163914
 20
58.70218643633933
 30
0.0
 41
1.0
 10
63.62483175599972
 20
58.64041197431773
 30
0.0
 41
1.0
 10
63.72409641669989
 20
58.58622224262822
 30
0.0
 41
1.0
 10
63.82321111850181
 20
58.54286678232265
 30
0.0
 41
1.0
 10
63.92130429204543
 20
58.51056166673082
 30
0.0
 41
1.0
 10
64.01761507347467
 20
58.48958119123209
 30
0.0
 41
1.0
 10
64.1110454270609
 20
58.48075329750354
 30
0.0
 41
1.0
 10
64.19144843019114
 20
58.48185175823529
 30
0.0
 41
1.0
 10
64.23859851419638
 20
58.49095521336984
 30
0.0
 41
1.0
 10
64.2573274774465
 20
58.49457128914703
 30
0.0
 41
1.0
  0
LINE
  5
314
330
1F
100
AcDbEntity
  8
OBJECT
  6
SLD-Solid
370
    25
100
AcDbLine
 10
63.14289115027584
 20
61.3464780260913
 30
0.0
 11
62.90319120557319
 21
61.20810219342689
 31
0.0
  0
LINE
  5
315
330
1F
100
AcDbEntity
  8
OBJECT
  6
SLD-Solid
370
    25
100
AcDbLine
 10
64.43306686650637
 20
58.557992674542
 30
0.0
 11
64.67276681120902
 21
58.69636850720642
 31
0.0
  0
SPLINE
  5
316
330
1F
100
AcDbEntity
  8
OBJECT
  6
SLD-Solid
370
    25
100
AcDbSpline
210
0.0
220
0.0
230
1.0
 70
    12
 71
     3
 72
    10
 73
     6
 74
     0
 42
0.00000001
 43
0.00000001
 40
0.0
 40
0.0
 40
0.0
 40
0.0
 40
0.3130083502543435
 40
0.9959765251496716
 40
1.0
 40
1.0
 40
1.0
 40
1.0
 10
63.06628433327756
 20
36.76507174823995
 30
0.0
 41
1.0
 10
63.05770797990965
 20
36.75529879165682
 30
0.0
 41
1.0
 10
63.03041846313195
 20
36.72420174478827
 30
0.0
 41
1.0
 10
63.00639418023089
 20
36.6886500913404
 30
0.0
 41
1.0
 10
62.99325628764448
 20
36.66102503810246
 30
0.0
 41
1.0
 10
62.99317934350632
 20
36.66086324762512
 30
0.0
 41
1.0
  0
SPLINE
  5
317
330
1F
100
AcDbEntity
  8
OBJECT
  6
SLD-Solid
370
    25
100
AcDbSpline
210
0.0
220
0.0
230
1.0
 70
    12
 71
     3
 72
     9
 73
     5
 74
     0
 42
0.00000001
 43
0.00000001
 40
0.0
 40
0.0
 40
0.0
 40
0.0
 40
0.5688337179393311
 40
1.0
 40
1.0
 40
1.0
 40
1.0
 10
64.43319384572814
 20
34.16593958813512
 30
0.0
 41
1.0
 10
64.45956637267447
 20
34.16572769051884
 30
0.0
 41
1.0
 10
64.50592882643663
 20
34.16535517811388
 30
0.0
 41
1.0
 10
64.54929123901417
 20
34.17401270089211
 30
0.0
 41
1.0
 10
64.56798764922641
 20
34.17774553280026
 30
0.0
 41
1.0
  0
LINE
  5
318
330
1F
100
AcDbEntity
  8
OBJECT
  6
SLD-Solid
370
    25
100
AcDbLine
 10
63.45355132205574
 20
37.02965226974453
 30
0.0
 11
63.21385137735309
 21
36.89127643708011
 31
0.0
  0
LINE
  5
319
330
1F
100
AcDbEntity
  8
OBJECT
  6
SLD-Solid
370
    25
100
AcDbLine
 10
64.74372703828625
 20
34.24116691819523
 30
0.0
 11
64.98342698298892
 21
34.37954275085964
 31
0.0
  0
SPLINE
  5
31A
330
1F
100
AcDbEntity
  8
OBJECT
  6
SLD-Solid
370
    25
100
AcDbSpline
210
0.0
220
0.0
230
1.0
 70
    12
 71
     3
 72
    17
 73
    13
 74
     0
 42
0.00000001
 43
0.00000001
 40
0.0
 40
0.0
 40
0.0
 40
0.0
 40
0.05266949728992
 40
0.1675916404454404
 40
0.2833455663814698
 40
0.3999055085466729
 40
0.517102977147598
 40
0.6347213392730362
 40
0.7525658384118288
 40
0.8704931999421208
 40
0.9883951016914273
 40
1.0
 40
1.0
 40
1.0
 40
1.0
 10
83.96882759709413
 20
24.33955147067368
 30
0.0
 41
1.0
 10
83.96019794001472
 20
24.32982889569782
 30
0.0
 41
1.0
 10
83.93273881355941
 20
24.29889216052092
 30
0.0
 41
1.0
 10
83.89473519968983
 20
24.23671091789074
 30
0.0
 41
1.0
 10
83.85487483513529
 20
24.15404825741483
 30
0.0
 41
1.0
 10
83.82384317084822
 20
24.06248589258717
 30
0.0
 41
1.0
 10
83.80135987490954
 20
23.96343326672644
 30
0.0
 41
1.0
 10
83.78787617733597
 20
23.85752626407892
 30
0.0
 41
1.0
 10
83.78315651402526
 20
23.74583337528669
 30
0.0
 41
1.0
 10
83.78838145330651
 20
23.62897139239027
 30
0.0
 41
1.0
 10
83.79592073332937
 20
23.54519455702649
 30
0.0
 41
1.0
 10
83.80419307768227
 20
23.49998725203991
 30
0.0
 41
1.0
 10
83.80493434929846
 20
23.49593629736464
 30
0.0
 41
1.0
  0
SPLINE
  5
31B
330
1F
100
AcDbEntity
  8
OBJECT
  6
SLD-Solid
370
    25
100
AcDbSpline
210
0.0
220
0.0
230
1.0
 70
    12
 71
     3
 72
    19
 73
    15
 74
     0
 42
0.00000001
 43
0.00000001
 40
0.0
 40
0.0
 40
0.0
 40
0.0
 40
0.0805932536838824
 40
0.1667827866764205
 40
0.2530385283107094
 40
0.3393701913123427
 40
0.425782202295067
 40
0.512269172921921
 40
0.598808775463983
 40
0.6853317481453072
 40
0.7717318299664537
 40
0.8578605180847634
 40
0.943539334248232
 40
1.0
 40
1.0
 40
1.0
 40
1.0
 10
84.37135475743274
 20
22.30242089773374
 30
0.0
 41
1.0
 10
84.3988583658643
 20
22.2713181766995
 30
0.0
 41
1.0
 10
84.4557753936327
 20
22.20695300653703
 30
0.0
 41
1.0
 10
84.54660118512233
 20
22.11848653264053
 30
0.0
 41
1.0
 10
84.64186550151031
 20
22.03574565663374
 30
0.0
 41
1.0
 10
84.73928581927993
 20
21.96208353347441
 30
0.0
 41
1.0
 10
84.83800665205058
 20
21.89793132736638
 30
0.0
 41
1.0
 10
84.93730750751075
 20
21.84391231621729
 30
0.0
 41
1.0
 10
85.03641250267972
 20
21.80051107244403
 30
0.0
 41
1.0
 10
85.13450827649406
 20
21.76821822160046
 30
0.0
 41
1.0
 10
85.23081836248775
 20
21.74723446592706
 30
0.0
 41
1.0
 10
85.32424890200761
 20
21.73840744919511
 30
0.0
 41
1.0
 10
85.40465185976271
 20
21.7395056959047
 30
0.0
 41
1.0
 10
85.45180194808002
 20
21.74860917137788
 30
0.0
 41
1.0
 10
85.47053091304304
 20
21.752225255234
 30
0.0
 41
1.0
  0
LINE
  5
31C
330
1F
100
AcDbEntity
  8
OBJECT
  6
SLD-Solid
370
    25
100
AcDbLine
 10
84.35609458587231
 20
24.60413199217827
 30
0.0
 11
84.11639464116968
 21
24.46575615951385
 31
0.0
  0
LINE
  5
31D
330
1F
100
AcDbEntity
  8
OBJECT
  6
SLD-Solid
370
    25
100
AcDbLine
 10
85.64627030210285
 20
21.81564664062896
 30
0.0
 11
85.88597024680548
 21
21.95402247329338
 31
0.0
  0
SPLINE
  5
31E
330
1F
100
AcDbEntity
  8
OBJECT
  6
SLD-Solid
370
    25
100
AcDbSpline
210
0.0
220
0.0
230
1.0
 70
    12
 71
     3
 72
    26
 73
    22
 74
     0
 42
0.00000001
 43
0.00000001
 40
0.0
 40
0.0
 40
0.0
 40
0.0
 40
0.0040370099043102
 40
0.0581938260216456
 40
0.1129301957923038
 40
0.1682196730393415
 40
0.2240075795182597
 40
0.2802219507561022
 40
0.3367808941644648
 40
0.3935972318539127
 40
0.4505812771217952
 40
0.5076423737488819
 40
0.5646801112533915
 40
0.6215832941291
 40
0.6782623682703849
 40
0.7346297914988773
 40
0.7906019307865638
 40
0.8461024326546621
 40
0.9010677188453177
 40
0.9554554567081772
 40
1.0
 40
1.0
 40
1.0
 40
1.0
 10
84.52324732665208
 20
23.67191055109902
 30
0.0
 41
1.0
 10
84.52119587970702
 20
23.67090094237877
 30
0.0
 41
1.0
 10
84.49162410519021
 20
23.65634735058465
 30
0.0
 41
1.0
 10
84.42589432680653
 20
23.63030919004539
 30
0.0
 41
1.0
 10
84.32620123416761
 20
23.59498887581256
 30
0.0
 41
1.0
 10
84.2176428586111
 20
23.56373902499928
 30
0.0
 41
1.0
 10
84.1025268321454
 20
23.53693194669251
 30
0.0
 41
1.0
 10
83.98166363444706
 20
23.51522141153148
 30
0.0
 41
1.0
 10
83.85638860809365
 20
23.49903842496955
 30
0.0
 41
1.0
 10
83.72798356150163
 20
23.48872573479991
 30
0.0
 41
1.0
 10
83.59780755228857
 20
23.48450042305001
 30
0.0
 41
1.0
 10
83.46724547957743
 20
23.48646349501402
 30
0.0
 41
1.0
 10
83.3377109042743
 20
23.49459417277824
 30
0.0
 41
1.0
 10
83.21060893564486
 20
23.5087470644504
 30
0.0
 41
1.0
 10
83.08731345661413
 20
23.52865222244253
 30
0.0
 41
1.0
 10
82.96913434053981
 20
23.55391638060748
 30
0.0
 41
1.0
 10
82.85734140473079
 20
23.58402144229527
 30
0.0
 41
1.0
 10
82.75303953399488
 20
23.61831277530645
 30
0.0
 41
1.0
 10
82.65751867847047
 20
23.65602994517731
 30
0.0
 41
1.0
 10
82.5757549849666
 20
23.69390886706594
 30
0.0
 41
1.0
 10
82.52981303111025
 20
23.71943291105338
 30
0.0
 41
1.0
 10
82.50912753464156
 20
23.73092518505243
 30
0.0
 41
1.0
  0
SPLINE
  5
31F
330
1F
100
AcDbEntity
  8
OBJECT
  6
SLD-Solid
370
    25
100
AcDbSpline
210
0.0
220
0.0
230
1.0
 70
    12
 71
     3
 72
    28
 73
    24
 74
     0
 42
0.00000001
 43
0.00000001
 40
0.0
 40
0.0
 40
0.0
 40
0.0
 40
0.0282584607210453
 40
0.0791092270023375
 40
0.1299061537890374
 40
0.1806371918424214
 40
0.2312396490326861
 40
0.2816887159302142
 40
0.331986050827154
 40
0.3821506536411418
 40
0.4322123094503968
 40
0.4822072697732058
 40
0.5321755728336832
 40
0.5821594297694266
 40
0.6321899977472879
 40
0.6823089778377627
 40
0.7325599140864253
 40
0.7829846858561287
 40
0.8336212535866379
 40
0.8844998704569421
 40
0.935636989570963
 40
0.9870260784609938
 40
1.0
 40
1.0
 40
1.0
 40
1.0
 10
81.87667893624926
 20
22.63537337414087
 30
0.0
 41
1.0
 10
81.90280454055302
 20
22.62066750610076
 30
0.0
 41
1.0
 10
81.97594286120828
 20
22.5794986022268
 30
0.0
 41
1.0
 10
82.10202972964161
 20
22.51793454032621
 30
0.0
 41
1.0
 10
82.2563473091688
 20
22.45299369432641
 30
0.0
 41
1.0
 10
82.41669835047571
 20
22.39597389491694
 30
0.0
 41
1.0
 10
82.58211768116776
 20
22.34681912460219
 30
0.0
 41
1.0
 10
82.75178498411655
 20
22.30562742178806
 30
0.0
 41
1.0
 10
82.92488438395687
 20
22.27241846781134
 30
0.0
 41
1.0
 10
83.10064985437171
 20
22.24720702738097
 30
0.0
 41
1.0
 10
83.27833584042632
 20
22.22999678958421
 30
0.0
 41
1.0
 10
83.45721239138842
 20
22.22078908132425
 30
0.0
 41
1.0
 10
83.63655845701268
 20
22.21958401521695
 30
0.0
 41
1.0
 10
83.81564496267931
 20
22.22638140258347
 30
0.0
 41
1.0
 10
83.99374578865077
 20
22.24117969140966
 30
0.0
 41
1.0
 10
84.17014243298058
 20
22.2639761202354
 30
0.0
 41
1.0
 10
84.3441326465566
 20
22.29477755520021
 30
0.0
 41
1.0
 10
84.51503387371945
 20
22.33358451454257
 30
0.0
 41
1.0
 10
84.68210503178067
 20
22.38046320172088
 30
0.0
 41
1.0
 10
84.84479646155673
 20
22.4352812264212
 30
0.0
 41
1.0
 10
85.0017529231076
 20
22.49869481116407
 30
0.0
 41
1.0
 10
85.11620216061141
 20
22.55093456555883
 30
0.0
 41
1.0
 10
85.17625633062325
 20
22.58388468830056
 30
0.0
 41
1.0
 10
85.18836170115563
 20
22.59052658252369
 30
0.0
 41
1.0
  0
SPLINE
  5
320
330
1F
100
AcDbEntity
  8
OBJECT
  6
SLD-Solid
370
    25
100
AcDbSpline
210
0.0
220
0.0
230
1.0
 70
    12
 71
     3
 72
    26
 73
    22
 74
     0
 42
0.00000001
 43
0.00000001
 40
0.0
 40
0.0
 40
0.0
 40
0.0
 40
0.0283911189692333
 40
0.0823221357760972
 40
0.136728704462444
 40
0.1917171093715673
 40
0.2472608279656051
 40
0.3033049728911403
 40
0.3597772874375122
 40
0.4165955367151178
 40
0.4736721717820365
 40
0.530917119441377
 40
0.5882393296194903
 40
0.6455379154434262
 40
0.7027012354082693
 40
0.759639349266127
 40
0.8162643441332323
 40
0.8724922441529287
 40
0.9282464009521227
 40
0.9834630201859698
 40
0.9999999999999999
 40
0.9999999999999999
 40
0.9999999999999999
 40
0.9999999999999999
 10
62.99317934350625
 20
57.53356858670197
 30
0.0
 41
1.0
 10
62.99334034060755
 20
57.54845816823443
 30
0.0
 41
1.0
 10
62.99380716353366
 20
57.59163160405046
 30
0.0
 41
1.0
 10
62.99921780912024
 20
57.66919838021078
 30
0.0
 41
1.0
 10
63.01195629077128
 20
57.76767062726513
 30
0.0
 41
1.0
 10
63.03178642740826
 20
57.87228367468932
 30
0.0
 41
1.0
 10
63.0588449815925
 20
57.98176546696407
 30
0.0
 41
1.0
 10
63.09322878797965
 20
58.09491288544199
 30
0.0
 41
1.0
 10
63.13484638117372
 20
58.21043033643556
 30
0.0
 41
1.0
 10
63.18347177381918
 20
58.32701829630245
 30
0.0
 41
1.0
 10
63.23874228116522
 20
58.44337569819384
 30
0.0
 41
1.0
 10
63.3001713494295
 20
58.5582224456675
 30
0.0
 41
1.0
 10
63.36715247594464
 20
58.67030691903693
 30
0.0
 41
1.0
 10
63.43896153338191
 20
58.77841709975634
 30
0.0
 41
1.0
 10
63.51476854756543
 20
58.88140391710171
 30
0.0
 41
1.0
 10
63.59365770247395
 20
58.97823089785741
 30
0.0
 41
1.0
 10
63.6746150847015
 20
59.06789302768401
 30
0.0
 41
1.0
 10
63.75662470159593
 20
59.14979897755069
 30
0.0
 41
1.0
 10
63.83831755319274
 20
59.2224007047771
 30
0.0
 41
1.0
 10
63.90067586524813
 20
59.27317254204159
 30
0.0
 41
1.0
 10
63.93458732790575
 20
59.29660612656019
 30
0.0
 41
1.0
 10
63.94240286860161
 20
59.30200684121836
 30
0.0
 41
1.0
  0
SPLINE
  5
321
330
1F
100
AcDbEntity
  8
OBJECT
  6
SLD-Solid
370
    25
100
AcDbSpline
210
0.0
220
0.0
230
1.0
 70
    12
 71
     3
 72
    27
 73
    23
 74
     0
 42
0.00000001
 43
0.00000001
 40
0.0
 40
0.0
 40
0.0
 40
0.0
 40
0.0488692827285436
 40
0.0997076935564037
 40
0.1504804691711175
 40
0.201124802305202
 40
0.2516157964819757
 40
0.3019550520229629
 40
0.3521615357063215
 40
0.4022650183432976
 40
0.4523017504252277
 40
0.5023117777918498
 40
0.5523373243090727
 40
0.6024095764570796
 40
0.6525702314159835
 40
0.7028628479592807
 40
0.753329317591008
 40
0.8040076088170288
 40
0.8549279776596419
 40
0.9061068744873162
 40
0.9575377597648861
 40
1.0
 40
1.0
 40
1.0
 40
1.0
 10
63.34277291126654
 20
60.42318326348614
 30
0.0
 41
1.0
 10
63.29880860428703
 20
60.39453853612516
 30
0.0
 41
1.0
 10
63.20910850223964
 20
60.336094877077
 30
0.0
 41
1.0
 10
63.07767880830257
 20
60.23552734075628
 30
0.0
 41
1.0
 10
62.9480601174804
 20
60.12538128823611
 30
0.0
 41
1.0
 10
62.82278967836297
 20
60.00665512783684
 30
0.0
 41
1.0
 10
62.70227286603174
 20
59.88033556504542
 30
0.0
 41
1.0
 10
62.58695881696698
 20
59.7470325637869
 30
0.0
 41
1.0
 10
62.47723704832799
 20
59.60742537588631
 30
0.0
 41
1.0
 10
62.37348531988171
 20
59.46215171970793
 30
0.0
 41
1.0
 10
62.27606935592474
 20
59.31184481058443
 30
0.0
 41
1.0
 10
62.18534991518951
 20
59.15712866614592
 30
0.0
 41
1.0
 10
62.1016913972751
 20
58.99863495836514
 30
0.0
 41
1.0
 10
62.02545531050826
 20
58.83699328701388
 30
0.0
 41
1.0
 10
61.95699931573807
 20
58.67282757065817
 30
0.0
 41
1.0
 10
61.89667742622013
 20
58.50674189941957
 30
0.0
 41
1.0
 10
61.8448427470051
 20
58.33933012199743
 30
0.0
 41
1.0
 10
61.8018802279421
 20
58.17119029143782
 30
0.0
 41
1.0
 10
61.76811101280207
 20
58.00290529644368
 30
0.0
 41
1.0
 10
61.7441753820661
 20
57.83516852058767
 30
0.0
 41
1.0
 10
61.73047408315634
 20
57.67832560529985
 30
0.0
 41
1.0
 10
61.72889394528056
 20
57.57864717430071
 30
0.0
 41
1.0
 10
61.72817934350626
 20
57.53356858670196
 30
0.0
 41
1.0
  0
LINE
  5
322
330
1F
100
AcDbEntity
  8
OBJECT
  6
SLD-Solid
370
    25
100
AcDbLine
 10
79.72212457397386
 20
23.87917113250275
 30
0.0
 11
81.87667893624926
 21
22.63537337414087
 31
0.0
  0
LINE
  5
323
330
1F
100
AcDbEntity
  8
OBJECT
  6
SLD-Solid
370
    25
100
AcDbLine
 10
82.50912753464156
 20
23.73092518505243
 30
0.0
 11
80.35457317236616
 21
24.97472294341432
 31
0.0
  0
LINE
  5
324
330
1F
100
AcDbEntity
  8
OBJECT
  6
SLD-Solid
370
    25
100
AcDbLine
 10
61.72817934350627
 20
57.53356858670195
 30
0.0
 11
61.72817934350628
 21
55.04556873288607
 31
0.0
  0
LINE
  5
325
330
1F
100
AcDbEntity
  8
OBJECT
  6
SLD-Solid
370
    25
100
AcDbLine
 10
62.99317934350628
 20
55.04556873288607
 30
0.0
 11
62.99317934350626
 21
57.53356858670195
 31
0.0
  0
LINE
  5
326
330
1F
100
AcDbEntity
  8
OBJECT
  6
SLD-Solid
370
    25
100
AcDbLine
 10
65.57998895024292
 20
32.04325225072974
 30
0.0
 11
79.72212457397386
 21
23.87917113250275
 31
0.0
  0
LINE
  5
327
330
1F
100
AcDbEntity
  8
OBJECT
  6
SLD-Solid
370
    25
100
AcDbLine
 10
80.35457317236616
 20
24.97472294341432
 30
0.0
 11
66.21243754863524
 21
33.1388040616413
 31
0.0
  0
LINE
  5
328
330
1F
100
AcDbEntity
  8
OBJECT
  6
SLD-Solid
370
    25
100
AcDbLine
 10
61.72817934350628
 20
55.04556873288607
 30
0.0
 11
61.72817934350632
 21
38.71475249517104
 31
0.0
  0
LINE
  5
329
330
1F
100
AcDbEntity
  8
OBJECT
  6
SLD-Solid
370
    25
100
AcDbLine
 10
62.99317934350632
 20
38.71475249517104
 30
0.0
 11
62.99317934350628
 21
55.04556873288609
 31
0.0
  0
LINE
  5
32A
330
1F
100
AcDbEntity
  8
OBJECT
  6
SLD-Solid
370
    25
100
AcDbLine
 10
63.10511521609001
 20
33.47196644641947
 30
0.0
 11
65.57998895024292
 21
32.04325225072974
 31
0.0
  0
LINE
  5
32B
330
1F
100
AcDbEntity
  8
OBJECT
  6
SLD-Solid
370
    25
100
AcDbLine
 10
66.21243754863524
 20
33.1388040616413
 30
0.0
 11
63.73756381448231
 21
34.56751825733102
 31
0.0
  0
LINE
  5
32C
330
1F
100
AcDbEntity
  8
OBJECT
  6
SLD-Solid
370
    25
100
AcDbLine
 10
61.72817934350632
 20
38.71475249517104
 30
0.0
 11
61.72817934350633
 21
35.8568596535709
 31
0.0
  0
LINE
  5
32D
330
1F
100
AcDbEntity
  8
OBJECT
  6
SLD-Solid
370
    25
100
AcDbLine
 10
62.99317934350632
 20
35.85685965357091
 30
0.0
 11
62.99317934350632
 21
38.71475249517104
 31
0.0
  0
SPLINE
  5
32E
330
1F
100
AcDbEntity
  8
OBJECT
  6
SLD-Solid
370
    25
100
AcDbSpline
210
0.0
220
0.0
230
1.0
 70
    12
 71
     3
 72
    12
 73
     8
 74
     0
 42
0.00000001
 43
0.00000001
 40
0.0
 40
0.0
 40
0.0
 40
0.0
 40
0.2172786895595108
 40
0.4504787843265066
 40
0.6803130915958979
 40
0.9065979972452893
 40
0.9999999999999999
 40
0.9999999999999999
 40
0.9999999999999999
 40
0.9999999999999999
 10
63.05005436589742
 20
35.51461381658213
 30
0.0
 41
1.0
 10
63.0420216071253
 20
35.54251763116249
 30
0.0
 41
1.0
 10
63.02536747774982
 20
35.60036995204915
 30
0.0
 41
1.0
 10
63.00855133741518
 20
35.68312728111714
 30
0.0
 41
1.0
 10
62.99752302702953
 20
35.76149176719986
 30
0.0
 41
1.0
 10
62.99355773082861
 20
35.8184885041769
 30
0.0
 41
1.0
 10
62.99326489926143
 20
35.84818369518862
 30
0.0
 41
1.0
 10
62.99317934350632
 20
35.85685965357091
 30
0.0
 41
1.0
  0
SPLINE
  5
32F
330
1F
100
AcDbEntity
  8
OBJECT
  6
SLD-Solid
370
    25
100
AcDbSpline
210
0.0
220
0.0
230
1.0
 70
    12
 71
     3
 72
    12
 73
     8
 74
     0
 42
0.00000001
 43
0.00000001
 40
0.0
 40
0.0
 40
0.0
 40
0.0
 40
0.1185845507263242
 40
0.3407011276352964
 40
0.5657889087544219
 40
0.7946686092889721
 40
1.0
 40
1.0
 40
1.0
 40
1.0
 10
63.73756381448231
 20
34.56751825733102
 30
0.0
 41
1.0
 10
63.72804325511702
 20
34.57317147373818
 30
0.0
 41
1.0
 10
63.70069006879043
 20
34.58941353219254
 30
0.0
 41
1.0
 10
63.65154089655401
 20
34.62309808458539
 30
0.0
 41
1.0
 10
63.59019508904186
 20
34.67160356708288
 30
0.0
 41
1.0
 10
63.5288168514417
 20
34.72628715017408
 30
0.0
 41
1.0
 10
63.4885546067128
 20
34.76825730404691
 30
0.0
 41
1.0
 10
63.46951524343992
 20
34.78810430988536
 30
0.0
 41
1.0
  0
SPLINE
  5
330
330
1F
100
AcDbEntity
  8
OBJECT
  6
SLD-Solid
370
    25
100
AcDbSpline
210
0.0
220
0.0
230
1.0
 70
    12
 71
     3
 72
    26
 73
    22
 74
     0
 42
0.00000001
 43
0.00000001
 40
0.0
 40
0.0
 40
0.0
 40
0.0
 40
0.0315487315562904
 40
0.0870667418571111
 40
0.1425642480507465
 40
0.1980042513065106
 40
0.2532835903318928
 40
0.3083657093230318
 40
0.3632598715966434
 40
0.4180042775934
 40
0.4726542814877121
 40
0.5272750077556584
 40
0.5819369470153132
 40
0.6366891536952264
 40
0.6916056198198114
 40
0.7467586372688262
 40
0.8022144828846488
 40
0.8580259256943988
 40
0.9142195943580685
 40
0.970776391258017
 40
1.0
 40
1.0
 40
1.0
 40
1.0
 10
61.72817934350633
 20
35.8568596535709
 30
0.0
 41
1.0
 10
61.72852868062135
 20
35.82860440712596
 30
0.0
 41
1.0
 10
61.7294927651634
 20
35.75062687437028
 30
0.0
 41
1.0
 10
61.73961838135377
 20
35.62112367702039
 30
0.0
 41
1.0
 10
61.76109811122436
 20
35.4684755662877
 30
0.0
 41
1.0
 10
61.79258112500518
 20
35.31505307619643
 30
0.0
 41
1.0
 10
61.83345700524256
 20
35.16175931923792
 30
0.0
 41
1.0
 10
61.88332557231492
 20
35.00944098517471
 30
0.0
 41
1.0
 10
61.94172891221251
 20
34.85886598209907
 30
0.0
 41
1.0
 10
62.00824476636812
 20
34.71073763003486
 30
0.0
 41
1.0
 10
62.08246604638192
 20
34.56572648341724
 30
0.0
 41
1.0
 10
62.16400573197394
 20
34.42448566467022
 30
0.0
 41
1.0
 10
62.25248133246844
 20
34.28768150358367
 30
0.0
 41
1.0
 10
62.34752409280077
 20
34.15597567314633
 30
0.0
 41
1.0
 10
62.44878137621263
 20
34.03003051680005
 30
0.0
 41
1.0
 10
62.55593298440862
 20
33.91049390224757
 30
0.0
 41
1.0
 10
62.66868082390818
 20
33.79805218862396
 30
0.0
 41
1.0
 10
62.78671565626031
 20
33.69336753983701
 30
0.0
 41
1.0
 10
62.90977560056277
 20
33.59740002585252
 30
0.0
 41
1.0
 10
63.01652840462659
 20
33.52447713729912
 30
0.0
 41
1.0
 10
63.08260446868892
 20
33.48530991006513
 30
0.0
 41
1.0
 10
63.10511521609001
 20
33.47196644641947
 30
0.0
 41
1.0
  0
LINE
  5
331
330
1F
100
AcDbEntity
  8
OBJECT
  6
SLD-Solid
370
    25
100
AcDbLine
 10
63.66092543671659
 20
36.10785512443233
 30
0.0
 11
63.00308339307074
 21
35.72809099614233
 31
0.0
  0
LINE
  5
332
330
1F
100
AcDbEntity
  8
OBJECT
  6
SLD-Solid
370
    25
100
AcDbLine
 10
63.63104595740784
 20
34.64034147624459
 30
0.0
 11
64.28887440081203
 21
35.02009775328219
 31
0.0
  0
ARC
  5
333
330
1F
100
AcDbEntity
  8
OBJECT
  6
SLD-Solid
370
    25
100
AcDbCircle
 10
64.17135096739821
 20
59.01131952339574
 30
0.0
 40
0.5232484323110819
100
AcDbArc
 50
280.643798361726
 51
319.0964490803676
  0
ARC
  5
334
330
1F
100
AcDbEntity
  8
OBJECT
  6
SLD-Solid
370
    25
100
AcDbCircle
 10
63.16527777711216
 20
60.75407307283516
 30
0.0
 40
0.5240254925207912
100
AcDbArc
 50
100.1592585590931
 51
140.1040076564576
  0
LWPOLYLINE
  5
335
330
1F
100
AcDbEntity
  8
OBJECT
  6
SLD-Solid
370
    25
100
AcDbPolyline
 90
       27
 70
   128
 43
0.0
 10
63.1494394702063
 20
60.29161934686314
 10
63.15926850950814
 20
60.3094106762461
 10
63.19449255816784
 20
60.35572548517044
 10
63.23774486920329
 20
60.39077303038332
 10
63.28810359469726
 20
60.41380633430634
 10
63.34449542584616
 20
60.42433448205566
 10
63.40571846867374
 20
60.42213308444045
 10
63.47046786031454
 20
60.40724906042892
 10
63.5373635799004
 20
60.37999963715197
 10
63.60497986130935
 20
60.34096558875765
 10
63.67187558089521
 20
60.29097885821854
 10
63.73662497253601
 20
60.23110482591158
 10
63.7978480153636
 20
60.16261960288508
 10
63.85423984651251
 20
60.08698283276724
 10
63.90459857200647
 20
60.0058065819963
 10
63.94785088304192
 20
59.92082098142328
 10
63.98307493170164
 20
59.83383735157664
 10
64.00951997854267
 20
59.7467095975099
 10
64.02662239330418
 20
59.66129469603413
 10
64.0340176677079
 20
59.57941311748119
 10
64.0315481843192
 20
59.5028100255392
 10
64.01926657588913
 20
59.43311808211843
 10
63.99743460357867
 20
59.37182264999723
 10
63.96651757797402
 20
59.32023013489318
 10
63.92717444179934
 20
59.27944014169335
 10
63.88024372569661
 20
59.25032203828525
 10
63.8790117104877
 20
59.24976309930268
  0
LWPOLYLINE
  5
336
330
1F
100
AcDbEntity
  8
OBJECT
  6
SLD-Solid
370
    25
100
AcDbPolyline
 90
       10
 70
   128
 43
0.0
 10
63.90782898074242
 20
61.27073070883406
 10
63.8049903783383
 20
61.32444120950177
 10
63.70308309824251
 20
61.36635137790169
 10
63.60303002856431
 20
61.39608166905883
 10
63.50573726539633
 20
61.41336284085263
 10
63.41208590706797
 20
61.41803839231525
 10
63.32292407478252
 20
61.41006598092866
 10
63.2390592319002
 20
61.38951780608487
 10
63.16125087142496
 20
61.35657995523731
 10
63.14289115027584
 20
61.3464780260913
  0
LWPOLYLINE
  5
337
330
1F
100
AcDbEntity
  8
OBJECT
  6
SLD-Solid
370
    25
100
AcDbPolyline
 90
       26
 70
   128
 43
0.0
 10
64.67276681120902
 20
58.69636850720642
 10
64.7254543235667
 20
58.73129581463399
 10
64.78909701535645
 20
58.78800864519418
 10
64.844758807357
 20
58.85589146956526
 10
64.89193561776057
 20
58.93432953037777
 10
64.9302002060666
 20
59.02261248040659
 10
64.95920604223801
 20
59.11994081558529
 10
64.97869044493075
 20
59.22543311543884
 10
64.98847696037679
 20
59.33813402536386
 10
64.98847696037679
 20
59.45702290846793
 10
64.97869044493075
 20
59.58102308861524
 10
64.95920604223801
 20
59.70901160097247
 10
64.9302002060666
 20
59.83982936175222
 10
64.89193561776055
 20
59.97229166505522
 10
64.84475880735698
 20
60.10519891175046
 10
64.78909701535642
 20
60.23734747323069
 10
64.72545432356667
 20
60.36754059165943
 10
64.65440709005989
 20
60.49459921799526
 10
64.57659872958465
 20
60.61737268964261
 10
64.49273388670233
 20
60.73474915103027
 10
64.40357205441687
 20
60.84566562274773
 10
64.3099206960885
 20
60.94911762805125
 10
64.21262793292051
 20
61.04416828956091
 10
64.11257486324232
 20
61.12995681376709
 10
64.01066758314653
 20
61.20570628650989
 10
63.90782898074242
 20
61.27073070883406
  0
ARC
  5
338
330
1F
100
AcDbEntity
  8
OBJECT
  6
SLD-Solid
370
    25
100
AcDbCircle
 10
63.3942819074347
 20
60.19416961421059
 30
0.0
 40
0.248946412703278
100
AcDbArc
 50
124.148832102815
 51
152.6511355068821
  0
LWPOLYLINE
  5
339
330
1F
100
AcDbEntity
  8
OBJECT
  6
SLD-Solid
370
    25
100
AcDbPolyline
 90
        3
 70
   128
 43
0.0
 10
63.90913664493983
 20
59.26627087733639
 10
63.90157413004309
 20
59.26263581860829
 10
63.89238916498734
 20
59.25868347916293
  0
ARC
  5
33A
330
1F
100
AcDbEntity
  8
OBJECT
  6
SLD-Solid
370
    25
100
AcDbCircle
 10
64.48201113917833
 20
34.69449376704858
 30
0.0
 40
0.5232484323106613
100
AcDbArc
 50
280.6437983617125
 51
319.0964490803946
  0
ARC
  5
33B
330
1F
100
AcDbEntity
  8
OBJECT
  6
SLD-Solid
370
    25
100
AcDbCircle
 10
63.47593794889207
 20
36.43724731648841
 30
0.0
 40
0.5240254925207802
100
AcDbArc
 50
100.1592585590996
 51
140.1040076564588
  0
LWPOLYLINE
  5
33C
330
1F
100
AcDbEntity
  8
OBJECT
  6
SLD-Solid
370
    25
100
AcDbPolyline
 90
       27
 70
   128
 43
0.0
 10
63.47478938395751
 20
36.0004010683984
 10
63.50515272994774
 20
36.03889972882366
 10
63.54840504098318
 20
36.07394727403654
 10
63.59876376647716
 20
36.09698057795956
 10
63.65515559762606
 20
36.10750872570889
 10
63.71637864045363
 20
36.10530732809368
 10
63.78112803209444
 20
36.09042330408214
 10
63.84802375168029
 20
36.06317388080519
 10
63.91564003308925
 20
36.02413983241088
 10
63.9825357526751
 20
35.97415310187176
 10
64.04728514431591
 20
35.91427906956481
 10
64.10850818714349
 20
35.84579384653831
 10
64.1649000182924
 20
35.77015707642046
 10
64.21525874378636
 20
35.68898082564952
 10
64.25851105482181
 20
35.60399522507651
 10
64.29373510348152
 20
35.51701159522987
 10
64.32018015032256
 20
35.42988384116313
 10
64.33728256508407
 20
35.34446893968736
 10
64.34467783948779
 20
35.26258736113441
 10
64.34220835609909
 20
35.18598426919242
 10
64.32992674766903
 20
35.11629232577166
 10
64.30809477535857
 20
35.05499689365045
 10
64.27717774975392
 20
35.0034043785464
 10
64.23783461357924
 20
34.96261438534657
 10
64.1909038974765
 20
34.93349628193847
 10
64.13738584818066
 20
34.91667067014284
 10
64.10273834805295
 20
34.91264369724826
  0
LWPOLYLINE
  5
33D
330
1F
100
AcDbEntity
  8
OBJECT
  6
SLD-Solid
370
    25
100
AcDbPolyline
 90
       10
 70
   128
 43
0.0
 10
64.21848915252232
 20
36.95390495248729
 10
64.1156505501182
 20
37.007615453155
 10
64.0137432700224
 20
37.04952562155492
 10
63.91369020034421
 20
37.07925591271206
 10
63.81639743717623
 20
37.09653708450585
 10
63.72274607884786
 20
37.10121263596849
 10
63.63358424656241
 20
37.09324022458188
 10
63.54971940368009
 20
37.07269204973811
 10
63.47191104320484
 20
37.03975419889053
 10
63.45355132205574
 20
37.02965226974453
  0
LWPOLYLINE
  5
33E
330
1F
100
AcDbEntity
  8
OBJECT
  6
SLD-Solid
370
    25
100
AcDbPolyline
 90
       26
 70
   128
 43
0.0
 10
64.98342698298892
 20
34.37954275085964
 10
65.03611449534658
 20
34.41447005828721
 10
65.09975718713635
 20
34.47118288884742
 10
65.1554189791369
 20
34.53906571321847
 10
65.20259578954045
 20
34.61750377403099
 10
65.2408603778465
 20
34.70578672405981
 10
65.26986621401791
 20
34.80311505923851
 10
65.28935061671064
 20
34.90860735909206
 10
65.29913713215669
 20
35.02130826901709
 10
65.29913713215669
 20
35.14019715212115
 10
65.28935061671064
 20
35.26419733226847
 10
65.2698662140179
 20
35.39218584462569
 10
65.24086037784649
 20
35.52300360540544
 10
65.20259578954044
 20
35.65546590870844
 10
65.15541897913688
 20
35.78837315540369
 10
65.09975718713633
 20
35.92052171688392
 10
65.03611449534657
 20
36.05071483531265
 10
64.96506726183978
 20
36.17777346164849
 10
64.88725890136453
 20
36.30054693329583
 10
64.80339405848221
 20
36.41792339468348
 10
64.71423222619677
 20
36.52883986640095
 10
64.6205808678684
 20
36.63229187170448
 10
64.52328810470041
 20
36.72734253321414
 10
64.42323503502222
 20
36.81313105742031
 10
64.32132775492641
 20
36.88888053016312
 10
64.21848915252232
 20
36.95390495248729
  0
LWPOLYLINE
  5
33F
330
1F
100
AcDbEntity
  8
OBJECT
  6
SLD-Solid
370
    25
100
AcDbPolyline
 90
        3
 70
   128
 43
0.0
 10
63.49611978830399
 20
36.01271484872144
 10
63.52648313429421
 20
36.0512135091467
 10
63.56519737214455
 20
36.08336748088281
  0
ARC
  5
340
330
1F
100
AcDbEntity
  8
OBJECT
  6
SLD-Solid
370
    25
100
AcDbCircle
 10
64.1149327267025
 20
35.16002818022291
 30
0.0
 40
0.2352481715351986
100
AcDbArc
 50
272.2256809912857
 51
296.4719369458269
  0
ARC
  5
341
330
1F
100
AcDbEntity
  8
OBJECT
  6
SLD-Solid
370
    25
100
AcDbCircle
 10
85.38455440299481
 20
22.26897348948251
 30
0.0
 40
0.5232484323108645
100
AcDbArc
 50
280.6437983617226
 51
319.0964490803856
  0
ARC
  5
342
330
1F
100
AcDbEntity
  8
OBJECT
  6
SLD-Solid
370
    25
100
AcDbCircle
 10
84.37848121270859
 20
24.01172703892223
 30
0.0
 40
0.5240254925206815
100
AcDbArc
 50
100.1592585590937
 51
140.1040076564631
  0
LWPOLYLINE
  5
343
330
1F
100
AcDbEntity
  8
OBJECT
  6
SLD-Solid
370
    25
100
AcDbPolyline
 90
       27
 70
   128
 43
0.0
 10
84.43566032441622
 20
23.63802377757979
 10
84.45094830479977
 20
23.64842699647028
 10
84.50130703029373
 20
23.6714603003933
 10
84.55769886144265
 20
23.68198844814263
 10
84.61892190427022
 20
23.67978705052741
 10
84.68367129591101
 20
23.66490302651588
 10
84.75056701549688
 20
23.63765360323893
 10
84.81818329690584
 20
23.59861955484462
 10
84.88507901649169
 20
23.5486328243055
 10
84.94982840813249
 20
23.48875879199854
 10
85.01105145096008
 20
23.42027356897205
 10
85.06744328210897
 20
23.3446367988542
 10
85.11780200760295
 20
23.26346054808326
 10
85.16105431863839
 20
23.17847494751024
 10
85.1962783672981
 20
23.0914913176636
 10
85.22272341413915
 20
23.00436356359686
 10
85.23982582890066
 20
22.9189486621211
 10
85.24722110330437
 20
22.83706708356815
 10
85.24475161991569
 20
22.76046399162616
 10
85.23247001148563
 20
22.6907720482054
 10
85.21063803917515
 20
22.6294766160842
 10
85.1797210135705
 20
22.57788410098014
 10
85.1403778773958
 20
22.53709410778031
 10
85.09344716129307
 20
22.5079760043722
 10
85.03992911199724
 20
22.49115039257658
 10
84.98096437381368
 20
22.48697588109705
 10
84.97841112068575
 20
22.48707860537865
  0
LWPOLYLINE
  5
344
330
1F
100
AcDbEntity
  8
OBJECT
  6
SLD-Solid
370
    25
100
AcDbPolyline
 90
       10
 70
   128
 43
0.0
 10
85.12103241633889
 20
24.52838467492103
 10
85.01819381393479
 20
24.58209517558874
 10
84.916286533839
 20
24.62400534398866
 10
84.8162334641608
 20
24.6537356351458
 10
84.7189407009928
 20
24.67101680693959
 10
84.62528934266444
 20
24.67569235840222
 10
84.53612751037899
 20
24.66771994701562
 10
84.45226266749667
 20
24.64717177217185
 10
84.37445430702142
 20
24.61423392132427
 10
84.35609458587231
 20
24.60413199217827
  0
LWPOLYLINE
  5
345
330
1F
100
AcDbEntity
  8
OBJECT
  6
SLD-Solid
370
    25
100
AcDbPolyline
 90
       26
 70
   128
 43
0.0
 10
85.88597024680548
 20
21.95402247329338
 10
85.93865775916318
 20
21.98894978072095
 10
86.00230045095292
 20
22.04566261128115
 10
86.0579622429535
 20
22.11354543565221
 10
86.10513905335705
 20
22.19198349646473
 10
86.14340364166308
 20
22.28026644649355
 10
86.17240947783449
 20
22.37759478167225
 10
86.19189388052723
 20
22.4830870815258
 10
86.20168039597327
 20
22.59578799145083
 10
86.20168039597327
 20
22.71467687455489
 10
86.19189388052722
 20
22.8386770547022
 10
86.17240947783448
 20
22.96666556705944
 10
86.14340364166307
 20
23.09748332783917
 10
86.10513905335704
 20
23.22994563114218
 10
86.05796224295347
 20
23.36285287783742
 10
86.0023004509529
 20
23.49500143931765
 10
85.93865775916315
 20
23.62519455774639
 10
85.86761052565636
 20
23.75225318408223
 10
85.78980216518113
 20
23.87502665572957
 10
85.7059373222988
 20
23.99240311711723
 10
85.61677549001334
 20
24.10331958883468
 10
85.52312413168497
 20
24.20677159413822
 10
85.425831368517
 20
24.30182225564787
 10
85.3257782988388
 20
24.38761077985405
 10
85.22387101874301
 20
24.46336025259685
 10
85.12103241633889
 20
24.52838467492103
  0
LINE
  5
346
330
1F
100
AcDbEntity
  8
OBJECT
  6
SLD-Solid
370
    25
100
AcDbLine
 10
84.45110052416948
 20
23.6458012375628
 30
0.0
 11
84.46774063598922
 21
23.65784720333493
 31
0.0
  0
ARC
  5
347
330
1F
100
AcDbEntity
  8
OBJECT
  6
SLD-Solid
370
    25
100
AcDbCircle
 10
85.01587657280928
 20
22.73851470508268
 30
0.0
 40
0.2395480895430317
100
AcDbArc
 50
267.5138728800944
 51
296.3871832869624
  0
SPLINE
  5
348
330
1F
100
AcDbEntity
  8
OBJECT
  6
SLD-Solid
370
    25
100
AcDbSpline
210
0.0
220
0.0
230
1.0
 70
    12
 71
     3
 72
    22
 73
    18
 74
     0
 42
0.00000001
 43
0.00000001
 40
0.0
 40
0.0
 40
0.0
 40
0.0
 40
0.0323308616688747
 40
0.1455876052357359
 40
0.2618673218727779
 40
0.3843230535665946
 40
0.4272380650350385
 40
0.4581463099114057
 40
0.4841905162224768
 40
0.4972253656379708
 40
0.5103453088401949
 40
0.5280944431526166
 40
0.5899737156395999
 40
0.7121529872621822
 40
0.8359160592605781
 40
0.9306048932169245
 40
1.0
 40
1.0
 40
1.0
 40
1.0
 10
63.04834717808349
 20
35.51412200018027
 30
0.0
 41
1.0
 10
63.05110753835184
 20
35.50616948332758
 30
0.0
 41
1.0
 10
63.06353758878397
 20
35.47035887314227
 30
0.0
 41
1.0
 10
63.06820835012939
 20
35.39137697613857
 30
0.0
 41
1.0
 10
63.06148167938889
 20
35.2787750629863
 30
0.0
 41
1.0
 10
63.04508997124686
 20
35.18254737124224
 30
0.0
 41
1.0
 10
63.03338484918989
 20
35.11230074689541
 30
0.0
 41
1.0
 10
63.02918388567101
 20
35.07521275077141
 30
0.0
 41
1.0
 10
63.02946707654551
 20
35.0474658130202
 30
0.0
 41
1.0
 10
63.03608043854712
 20
35.0264018851785
 30
0.0
 41
1.0
 10
63.04697819687258
 20
35.01090010550359
 30
0.0
 41
1.0
 10
63.07710644327889
 20
34.98801454779526
 30
0.0
 41
1.0
 10
63.14772067449558
 20
34.96166710833919
 30
0.0
 41
1.0
 10
63.24892529005518
 20
34.92458408908593
 30
0.0
 41
1.0
 10
63.34969906550167
 20
34.87763294513539
 30
0.0
 41
1.0
 10
63.4246542241499
 20
34.83142469292149
 30
0.0
 41
1.0
 10
63.45507904880381
 20
34.79987784006155
 30
0.0
 41
1.0
 10
63.4679464503679
 20
34.78653590536021
 30
0.0
 41
1.0
  0
LWPOLYLINE
  5
349
330
1F
100
AcDbEntity
  8
OBJECT
  6
SLD-Solid
370
    25
100
AcDbPolyline
 90
       24
 70
   128
 43
0.0
 10
63.66812903603977
 20
61.13235487616964
 10
63.77096763844388
 20
61.06733045384545
 10
63.87287491853969
 20
60.99158098110264
 10
63.97292798821787
 20
60.90579245689647
 10
64.07022075138586
 20
60.81074179538682
 10
64.16387210971422
 20
60.70728979008327
 10
64.25303394199967
 20
60.59637331836583
 10
64.336898784882
 20
60.47899685697816
 10
64.41470714535724
 20
60.35622338533082
 10
64.48575437886403
 20
60.22916475899498
 10
64.54939707065378
 20
60.09897164056624
 10
64.60505886265433
 20
59.96682307908602
 10
64.6522356730579
 20
59.83391583239077
 10
64.69050026136394
 20
59.70145352908778
 10
64.71950609753536
 20
59.57063576830802
 10
64.73899050022808
 20
59.4426472559508
 10
64.74877701567414
 20
59.31864707580349
 10
64.74877701567414
 20
59.19975819269943
 10
64.73899050022808
 20
59.0870572827744
 10
64.71950609753536
 20
58.98156498292085
 10
64.69050026136394
 20
58.88423664774215
 10
64.6522356730579
 20
58.79595369771333
 10
64.60505886265435
 20
58.71751563690082
 10
64.56682887720997
 20
58.66870290855208
  0
ARC
  5
34A
330
1F
100
AcDbEntity
  8
OBJECT
  6
SLD-Solid
370
    25
100
AcDbCircle
 10
63.18018947374819
 20
60.37741975898668
 30
0.0
 40
0.8988949035373027
100
AcDbArc
 50
57.12407582708002
 51
96.85836268371463
  0
LWPOLYLINE
  5
34B
330
1F
100
AcDbEntity
  8
OBJECT
  6
SLD-Solid
370
    25
100
AcDbPolyline
 90
       24
 70
   128
 43
0.0
 10
63.97878920781966
 20
36.81552911982286
 10
64.08162781022378
 20
36.75050469749868
 10
64.18353509031958
 20
36.67475522475587
 10
64.28358815999776
 20
36.5889667005497
 10
64.38088092316575
 20
36.49391603904004
 10
64.47453228149412
 20
36.39046403373651
 10
64.56369411377958
 20
36.27954756201905
 10
64.64755895666188
 20
36.16217110063139
 10
64.72536731713714
 20
36.03939762898405
 10
64.79641455064392
 20
35.9123390026482
 10
64.86005724243368
 20
35.78214588421947
 10
64.91571903443423
 20
35.64999732273925
 10
64.9628958448378
 20
35.51709007604399
 10
65.00116043314384
 20
35.38462777274099
 10
65.03016626931525
 20
35.25381001196125
 10
65.04965067200799
 20
35.12582149960402
 10
65.05943718745402
 20
35.00182131945672
 10
65.05943718745404
 20
34.88293243635265
 10
65.04965067200799
 20
34.77023152642762
 10
65.03016626931525
 20
34.66473922657407
 10
65.00116043314384
 20
34.56741089139538
 10
64.9628958448378
 20
34.47912794136656
 10
64.91571903443423
 20
34.40068988055405
 10
64.87748904898993
 20
34.35187715220539
  0
ARC
  5
34C
330
1F
100
AcDbEntity
  8
OBJECT
  6
SLD-Solid
370
    25
100
AcDbCircle
 10
63.49084964552809
 20
36.06059400263997
 30
0.0
 40
0.8988949035372509
100
AcDbArc
 50
57.12407582707881
 51
96.85836268371821
  0
LWPOLYLINE
  5
34D
330
1F
100
AcDbEntity
  8
OBJECT
  6
SLD-Solid
370
    25
100
AcDbPolyline
 90
       24
 70
   128
 43
0.0
 10
84.88133247163626
 20
24.39000884225661
 10
84.98417107404036
 20
24.32498441993242
 10
85.08607835413616
 20
24.24923494718961
 10
85.18613142381436
 20
24.16344642298343
 10
85.28342418698234
 20
24.06839576147378
 10
85.3770755453107
 20
23.96494375617024
 10
85.46623737759616
 20
23.85402728445278
 10
85.55010222047848
 20
23.73665082306513
 10
85.62791058095372
 20
23.61387735141778
 10
85.6989578144605
 20
23.48681872508194
 10
85.76260050625027
 20
23.35662560665321
 10
85.81826229825081
 20
23.22447704517298
 10
85.86543910865437
 20
23.09156979847773
 10
85.90370369696042
 20
22.95910749517473
 10
85.93270953313184
 20
22.82828973439499
 10
85.95219393582457
 20
22.70030122203775
 10
85.96198045127062
 20
22.57630104189045
 10
85.96198045127062
 20
22.45741215878639
 10
85.95219393582457
 20
22.34471124886136
 10
85.93270953313184
 20
22.23921894900781
 10
85.90370369696042
 20
22.14189061382911
 10
85.86543910865437
 20
22.05360766380029
 10
85.81826229825083
 20
21.97516960298778
 10
85.78003231280651
 20
21.92635687463912
  0
ARC
  5
34E
330
1F
100
AcDbEntity
  8
OBJECT
  6
SLD-Solid
370
    25
100
AcDbCircle
 10
84.39339290934468
 20
23.63507372507356
 30
0.0
 40
0.898894903537391
100
AcDbArc
 50
57.12407582708372
 51
96.85836268371668
  0
HATCH
  5
34F
330
1F
100
AcDbEntity
  8
NOTES
100
AcDbHatch
 10
0.0
 20
0.0
 30
0.0
210
0.0
220
0.0
230
1.0
  2
AR-SAND
 70
     0
 71
     0
 91
        1
 92
        0
 93
        4
 72
     3
 10
80.03834887317001
 20
24.42694703795853
 11
0.3162242991961519
 21
0.547775905455783
 40
0.577381545199988
 50
180.0000000000009
 51
360.0
 73
     0
 72
     1
 10
80.35457317236616
 20
24.9747229434143
 11
66.21243754863522
 21
33.13880406164128
 72
     3
 10
65.89621324943907
 20
32.59102815618552
 11
0.3162242991961517
 21
0.5477759054557825
 40
0.5773815451999761
 50
360.0
 51
540.0000000000031
 73
     1
 72
     1
 10
65.57998895024294
 20
32.04325225072973
 11
79.72212457397386
 21
23.87917113250275
 97
        0
 75
     0
 76
     1
 52
0.0
 41
5.333333333333333
 77
     0
 78
     4
 53
37.5
 43
0.0
 44
0.0
 45
-0.3359645765845767
 46
10.27639343473685
 79
     6
 49
0.0
 49
-8.106666666666666
 49
0.0
 49
-9.066666666666666
 49
0.0
 49
-8.666666666666666
 53
7.499999999999999
 43
0.0
 44
0.0
 45
9.438809094761211
 46
15.05144568122528
 79
     6
 49
0.0
 49
-4.373333333333333
 49
0.0
 49
-7.306666666666667
 49
0.0
 49
-2.8
 53
327.5
 43
-6.56
 44
0.0
 45
16.60875659600797
 46
0.030181618863812
 79
     6
 49
0.0
 49
-2.666666666666667
 49
0.0
 49
-9.6
 49
0.0
 49
-12.53333333333333
 53
317.5
 43
-6.56
 44
0.0
 45
16.03267522438556
 46
4.680936346315997
 79
     6
 49
0.0
 49
-1.333333333333333
 49
0.0
 49
-6.293333333333333
 49
0.0
 49
-7.2
 98
        1
 10
0.0
 20
0.0
  0
LINE
  5
356
330
1F
100
AcDbEntity
  8
OBJECT
  6
SLD-Solid
370
    25
100
AcDbLine
 10
6.567822611347125
 20
66.16579913938666
 30
0.0
 11
6.567822611347125
 21
65.82681222668809
 31
0.0
  0
LINE
  5
357
330
1F
100
AcDbEntity
  8
OBJECT
  6
SLD-Solid
370
    25
100
AcDbLine
 10
9.627822611347122
 20
65.82681222668809
 30
0.0
 11
9.627822611347122
 21
66.16579913938666
 31
0.0
  0
ARC
  5
358
330
1F
100
AcDbEntity
  8
OBJECT
  6
SLD-Solid
370
    25
100
AcDbCircle
 10
9.577822611347123
 20
65.82681222668809
 30
0.0
 40
0.0500000000000011
100
AcDbArc
 50
276.009005957494
 51
0.0
  0
ARC
  5
359
330
1F
100
AcDbEntity
  8
OBJECT
  6
SLD-Solid
370
    25
100
AcDbCircle
 10
6.617822611347128
 20
65.82681222668809
 30
0.0
 40
0.0500000000000034
100
AcDbArc
 50
180.0
 51
263.9909940425016
  0
LINE
  5
35A
330
1F
100
AcDbEntity
  8
OBJECT
  6
SLD-Solid
370
    25
100
AcDbLine
 10
6.612588372121247
 20
65.77708695404202
 30
0.0
 11
7.442822611347122
 21
65.68969387622877
 31
0.0
  0
LINE
  5
35B
330
1F
100
AcDbEntity
  8
OBJECT
  6
SLD-Solid
370
    25
100
AcDbLine
 10
8.752822611347124
 20
65.68969387622877
 30
0.0
 11
9.583056850573003
 21
65.77708695404202
 31
0.0
  0
LINE
  5
35C
330
1F
100
AcDbEntity
  8
OBJECT
  6
SLD-Solid
370
    25
100
AcDbLine
 10
10.0671624395672
 20
65.82681222668809
 30
0.0
 11
10.0671624395672
 21
66.16579913938666
 31
0.0
  0
ARC
  5
35D
330
1F
100
AcDbEntity
  8
OBJECT
  6
SLD-Solid
370
    25
100
AcDbCircle
 10
10.0171624395672
 20
65.82681222668809
 30
0.0
 40
0.0500000000000013
100
AcDbArc
 50
276.009005957496
 51
0.0000000000003817
  0
LINE
  5
35E
330
1F
100
AcDbEntity
  8
OBJECT
  6
SLD-Solid
370
    25
100
AcDbLine
 10
9.1921624395672
 20
65.68969387622877
 30
0.0
 11
10.02239667879308
 21
65.77708695404202
 31
0.0
  0
LINE
  5
35F
330
1F
100
AcDbEntity
  8
OBJECT
  6
SLD-Solid
370
    25
100
AcDbLine
 10
36.56782261134704
 20
66.16579913938666
 30
0.0
 11
36.56782261134704
 21
65.82681222668809
 31
0.0
  0
LINE
  5
360
330
1F
100
AcDbEntity
  8
OBJECT
  6
SLD-Solid
370
    25
100
AcDbLine
 10
39.62782261134704
 20
65.82681222668809
 30
0.0
 11
39.62782261134704
 21
66.16579913938666
 31
0.0
  0
ARC
  5
361
330
1F
100
AcDbEntity
  8
OBJECT
  6
SLD-Solid
370
    25
100
AcDbCircle
 10
39.57782261134704
 20
65.82681222668809
 30
0.0
 40
0.0500000000000009
100
AcDbArc
 50
276.0090059574919
 51
0.0000000000004001
  0
ARC
  5
362
330
1F
100
AcDbEntity
  8
OBJECT
  6
SLD-Solid
370
    25
100
AcDbCircle
 10
36.61782261134704
 20
65.82681222668809
 30
0.0
 40
0.0500000000000009
100
AcDbArc
 50
179.9999999999996
 51
263.9909940425097
  0
LINE
  5
363
330
1F
100
AcDbEntity
  8
OBJECT
  6
SLD-Solid
370
    25
100
AcDbLine
 10
36.61258837212116
 20
65.77708695404202
 30
0.0
 11
37.44282261134703
 21
65.68969387622877
 31
0.0
  0
LINE
  5
364
330
1F
100
AcDbEntity
  8
OBJECT
  6
SLD-Solid
370
    25
100
AcDbLine
 10
38.75282261134704
 20
65.68969387622877
 30
0.0
 11
39.58305685057292
 21
65.77708695404202
 31
0.0
  0
LINE
  5
365
330
1F
100
AcDbEntity
  8
OBJECT
  6
SLD-Solid
370
    25
100
AcDbLine
 10
8.730322611347106
 20
63.97779913938665
 30
0.0
 11
8.730322611347106
 21
65.68969387622877
 31
0.0
  0
LINE
  5
366
330
1F
100
AcDbEntity
  8
OBJECT
  6
SLD-Solid
370
    25
100
AcDbLine
 10
7.465322611347111
 20
65.68969387622877
 30
0.0
 11
7.465322611347111
 21
63.97779913938665
 31
0.0
  0
LINE
  5
367
330
1F
100
AcDbEntity
  8
OBJECT
  6
SLD-Solid
370
    25
100
AcDbLine
 10
8.097822611347018
 20
63.34529913938665
 30
0.0
 11
9.59782261134702
 21
63.34529913938665
 31
0.0
  0
LINE
  5
368
330
1F
100
AcDbEntity
  8
OBJECT
  6
SLD-Solid
370
    25
100
AcDbLine
 10
9.59782261134702
 20
64.61029913938665
 30
0.0
 11
9.165162439567192
 21
64.61029913938665
 31
0.0
  0
LINE
  5
369
330
1F
100
AcDbEntity
  8
OBJECT
  6
SLD-Solid
370
    25
100
AcDbLine
 10
9.165162439567197
 20
64.50136600148474
 30
0.0
 11
9.165162439567197
 21
65.68969387622877
 31
0.0
  0
ARC
  5
36A
330
1F
100
AcDbEntity
  8
OBJECT
  6
SLD-Solid
370
    25
100
AcDbCircle
 10
36.14482261134704
 20
65.93079913938665
 30
0.0
 40
1.320499999999997
100
AcDbArc
 50
270.0000000000008
 51
349.4795567689175
  0
ARC
  5
36B
330
1F
100
AcDbEntity
  8
OBJECT
  6
SLD-Solid
370
    25
100
AcDbCircle
 10
36.14482261134704
 20
65.93079913938665
 30
0.0
 40
2.585499999999998
100
AcDbArc
 50
270.0000000000008
 51
354.6492305082837
  0
LINE
  5
36C
330
1F
100
AcDbEntity
  8
OBJECT
  6
SLD-Solid
370
    25
100
AcDbLine
 10
33.09782261134703
 20
63.34529913938665
 30
0.0
 11
36.14482261134704
 21
63.34529913938665
 31
0.0
  0
LINE
  5
36D
330
1F
100
AcDbEntity
  8
OBJECT
  6
SLD-Solid
370
    25
100
AcDbLine
 10
36.14482261134704
 20
64.61029913938665
 30
0.0
 11
33.09782261134703
 21
64.61029913938665
 31
0.0
  0
LINE
  5
36E
330
1F
100
AcDbEntity
  8
OBJECT
  6
SLD-Solid
370
    25
100
AcDbLine
 10
13.09782261134704
 20
63.34529913938665
 30
0.0
 11
33.09782261134703
 21
63.34529913938665
 31
0.0
  0
LINE
  5
36F
330
1F
100
AcDbEntity
  8
OBJECT
  6
SLD-Solid
370
    25
100
AcDbLine
 10
33.09782261134703
 20
64.61029913938665
 30
0.0
 11
13.09782261134704
 21
64.61029913938665
 31
0.0
  0
LINE
  5
370
330
1F
100
AcDbEntity
  8
OBJECT
  6
SLD-Solid
370
    25
100
AcDbLine
 10
9.59782261134702
 20
63.34529913938665
 30
0.0
 11
13.09782261134704
 21
63.34529913938665
 31
0.0
  0
LINE
  5
371
330
1F
100
AcDbEntity
  8
OBJECT
  6
SLD-Solid
370
    25
100
AcDbLine
 10
13.09782261134704
 20
64.61029913938665
 30
0.0
 11
9.59782261134702
 21
64.61029913938665
 31
0.0
  0
LINE
  5
372
330
1F
100
AcDbEntity
  8
OBJECT
  6
SLD-Solid
370
    25
100
AcDbLine
 10
8.097822611347123
 20
66.16579913938666
 30
0.0
 11
6.567822611347125
 21
66.16579913938666
 31
0.0
  0
LINE
  5
373
330
1F
100
AcDbEntity
  8
OBJECT
  6
SLD-Solid
370
    25
100
AcDbLine
 10
9.627822611347122
 20
66.16579913938666
 30
0.0
 11
8.097822611347123
 21
66.16579913938666
 31
0.0
  0
LINE
  5
374
330
1F
100
AcDbEntity
  8
OBJECT
  6
SLD-Solid
370
    25
100
AcDbLine
 10
7.442822611347122
 20
65.68969387622877
 30
0.0
 11
8.752822611347124
 21
65.68969387622877
 31
0.0
  0
LINE
  5
375
330
1F
100
AcDbEntity
  8
OBJECT
  6
SLD-Solid
370
    25
100
AcDbLine
 10
10.0671624395672
 20
66.16579913938666
 30
0.0
 11
9.627822611346925
 21
66.16579913938666
 31
0.0
  0
LINE
  5
376
330
1F
100
AcDbEntity
  8
OBJECT
  6
SLD-Solid
370
    25
100
AcDbLine
 10
8.752822611347886
 20
65.68969387622877
 30
0.0
 11
9.1921624395672
 21
65.68969387622877
 31
0.0
  0
LINE
  5
377
330
1F
100
AcDbEntity
  8
OBJECT
  6
SLD-Solid
370
    25
100
AcDbLine
 10
38.09782261134703
 20
66.16579913938666
 30
0.0
 11
36.56782261134704
 21
66.16579913938666
 31
0.0
  0
LINE
  5
378
330
1F
100
AcDbEntity
  8
OBJECT
  6
SLD-Solid
370
    25
100
AcDbLine
 10
39.62782261134704
 20
66.16579913938666
 30
0.0
 11
38.09782261134703
 21
66.16579913938666
 31
0.0
  0
LINE
  5
379
330
1F
100
AcDbEntity
  8
OBJECT
  6
SLD-Solid
370
    25
100
AcDbLine
 10
37.44282261134703
 20
65.68969387622877
 30
0.0
 11
38.75282261134704
 21
65.68969387622877
 31
0.0
  0
ARC
  5
37A
330
1F
100
AcDbEntity
  8
OBJECT
  6
SLD-Solid
370
    25
100
AcDbCircle
 10
8.097822611347123
 20
63.97779913938665
 30
0.0
 40
0.632500000000003
100
AcDbArc
 50
179.9999999999997
 51
0.0000000000003218
  0
SPLINE
  5
37B
330
1F
100
AcDbEntity
  8
OBJECT
  6
SLD-Solid
370
    25
100
AcDbSpline
210
0.0
220
0.0
230
1.0
 70
    12
 71
     3
 72
    21
 73
    17
 74
     0
 42
0.00000001
 43
0.00000001
 40
0.0
 40
0.0
 40
0.0
 40
0.0
 40
0.106418510601296
 40
0.2487022401669078
 40
0.2985660383053948
 40
0.3344789375589199
 40
0.3647402144812688
 40
0.3798856630732538
 40
0.3951299838141481
 40
0.4157530529967876
 40
0.4876518000008799
 40
0.6296143051577434
 40
0.7734170592048885
 40
0.883437882707168
 40
0.9959666209128558
 40
1.0
 40
1.0
 40
1.0
 40
1.0
 10
8.730322611346908
 20
64.34088695457397
 30
0.0
 41
1.0
 10
8.756135113944234
 20
64.31351101223396
 30
0.0
 41
1.0
 10
8.81645946150366
 20
64.24953287395545
 30
0.0
 41
1.0
 10
8.876725523159992
 20
64.16667109378258
 30
0.0
 41
1.0
 10
8.921651811503525
 20
64.1053324605105
 30
0.0
 41
1.0
 10
8.944997940360144
 20
64.0760294095314
 30
0.0
 41
1.0
 10
8.963076722751142
 20
64.05835403663852
 30
0.0
 41
1.0
 10
8.978616419190141
 20
64.0521666102961
 30
0.0
 41
1.0
 10
8.991858023049625
 20
64.05433713514115
 30
0.0
 41
1.0
 10
9.015548355532514
 20
64.07325166778952
 30
0.0
 41
1.0
 10
9.052177612350864
 20
64.13654415892914
 30
0.0
 41
1.0
 10
9.097147800911802
 20
64.23422351108903
 30
0.0
 41
1.0
 10
9.135710710355733
 20
64.33999296719895
 30
0.0
 41
1.0
 10
9.158044183567165
 20
64.42847483701019
 30
0.0
 41
1.0
 10
9.167065219671132
 20
64.47995021131018
 30
0.0
 41
1.0
 10
9.165017012602759
 20
64.50064973924596
 30
0.0
 41
1.0
 10
9.164946138842508
 20
64.50136600148474
 30
0.0
 41
1.0
  0
LINE
  5
37C
330
1F
100
AcDbEntity
  8
OBJECT
  6
SLD-Solid
370
    25
100
AcDbLine
 10
9.583056850573024
 20
65.77708695404202
 30
0.0
 11
6.612588372121222
 21
65.77708695404202
 31
0.0
  0
LINE
  5
37D
330
1F
100
AcDbEntity
  8
OBJECT
  6
SLD-Solid
370
    25
100
AcDbLine
 10
10.0223966787931
 20
65.77708695404202
 30
0.0
 11
9.583056850573751
 21
65.77708695404202
 31
0.0
  0
LINE
  5
37E
330
1F
100
AcDbEntity
  8
OBJECT
  6
SLD-Solid
370
    25
100
AcDbLine
 10
39.58305685057294
 20
65.77708695404202
 30
0.0
 11
36.61258837212114
 21
65.77708695404202
 31
0.0
  0
HATCH
  5
37F
330
1F
100
AcDbEntity
  8
NOTES
100
AcDbHatch
 10
0.0
 20
0.0
 30
0.0
210
0.0
220
0.0
230
1.0
  2
AR-SAND
 70
     0
 71
     0
 91
        1
 92
        0
 93
        4
 72
     1
 10
33.09782261134703
 20
63.34529913938665
 11
33.09782261134703
 21
64.61029913938665
 72
     1
 10
33.09782261134703
 20
64.61029913938665
 11
13.09782261134703
 21
64.61029913938665
 72
     1
 10
13.09782261134703
 20
64.61029913938665
 11
13.09782261134703
 21
63.34529913938665
 72
     1
 10
13.09782261134703
 20
63.34529913938665
 11
33.09782261134703
 21
63.34529913938665
 97
        0
 75
     0
 76
     1
 52
0.0
 41
5.333333333333333
 77
     0
 78
     4
 53
37.5
 43
0.0
 44
0.0
 45
-0.3359645765845767
 46
10.27639343473685
 79
     6
 49
0.0
 49
-8.106666666666666
 49
0.0
 49
-9.066666666666666
 49
0.0
 49
-8.666666666666666
 53
7.499999999999999
 43
0.0
 44
0.0
 45
9.438809094761211
 46
15.05144568122528
 79
     6
 49
0.0
 49
-4.373333333333333
 49
0.0
 49
-7.306666666666667
 49
0.0
 49
-2.8
 53
327.5
 43
-6.56
 44
0.0
 45
16.60875659600797
 46
0.030181618863812
 79
     6
 49
0.0
 49
-2.666666666666667
 49
0.0
 49
-9.6
 49
0.0
 49
-12.53333333333333
 53
317.5
 43
-6.56
 44
0.0
 45
16.03267522438556
 46
4.680936346315997
 79
     6
 49
0.0
 49
-1.333333333333333
 49
0.0
 49
-6.293333333333333
 49
0.0
 49
-7.2
 98
        1
 10
0.0
 20
0.0
  0
MTEXT
  5
380
330
1F
100
AcDbEntity
  8
NOTES
100
AcDbMText
 10
21.50065187127026
 20
62.71672613448432
 30
0.0
 40
0.5
 41
0.0
 71
     1
 72
     1
  1
Top view
  7
SLDTEXTSTYLE1
 73
     1
 44
1.0
  0
MTEXT
  5
384
330
1F
100
AcDbEntity
  8
NOTES
100
AcDbMText
 10
80.6894830775379
 20
21.55586874357494
 30
0.0
 40
0.5
 41
0.0
 71
     1
 72
     1
  1
3D view
  7
SLDTEXTSTYLE1
 73
     1
 44
1.0
  0
MTEXT
  5
385
330
1F
100
AcDbEntity
  8
NOTES
100
AcDbMText
 10
80.6894830775379
 20
20.55586869149421
 30
0.0
 40
0.5
 41
0.0
 71
     1
 72
     1
  1
1003-W-30x30
  7
SLDTEXTSTYLE1
 73
     1
 44
1.0
  0
ENDSEC
  0
SECTION
  2
OBJECTS
  0
DICTIONARY
  5
C
330
0
100
AcDbDictionary
281
     1
  3
ACAD_COLOR
350
6C
  3
ACAD_GROUP
350
D
  3
ACAD_LAYOUT
350
1A
  3
ACAD_MATERIAL
350
6B
  3
ACAD_MLINESTYLE
350
17
  3
ACAD_PLOTSETTINGS
350
19
  3
ACAD_PLOTSTYLENAME
350
E
  3
ACAD_SCALELIST
350
47
  3
ACAD_TABLESTYLE
350
92
  3
AcDbVariableDictionary
350
59
  0
DICTIONARY
  5
6C
102
{ACAD_REACTORS
330
C
102
}
330
C
100
AcDbDictionary
281
     1
  0
DICTIONARY
  5
D
102
{ACAD_REACTORS
330
C
102
}
330
C
100
AcDbDictionary
281
     1
  0
DICTIONARY
  5
1A
102
{ACAD_REACTORS
330
C
102
}
330
C
100
AcDbDictionary
281
     1
  3
Layout1
350
74
  3
Layout2
350
26
  3
Model
350
22
  0
DICTIONARY
  5
6B
102
{ACAD_REACTORS
330
C
102
}
330
C
100
AcDbDictionary
281
     1
  0
DICTIONARY
  5
17
102
{ACAD_REACTORS
330
C
102
}
330
C
100
AcDbDictionary
281
     1
  3
Standard
350
18
  0
DICTIONARY
  5
19
102
{ACAD_REACTORS
330
C
102
}
330
C
100
AcDbDictionary
281
     1
  0
ACDBDICTIONARYWDFLT
  5
E
102
{ACAD_REACTORS
330
C
102
}
330
C
100
AcDbDictionary
281
     1
  3
Normal
350
F
100
AcDbDictionaryWithDefault
340
F
  0
DICTIONARY
  5
47
102
{ACAD_REACTORS
330
C
102
}
330
C
100
AcDbDictionary
281
     1
  3
A0
350
48
  3
A1
350
49
  3
A2
350
4A
  3
A3
350
4B
  3
A4
350
4C
  3
A5
350
4D
  3
A6
350
4E
  3
A7
350
4F
  3
A8
350
50
  3
A9
350
51
  3
B0
350
52
  3
B1
350
53
  3
B2
350
54
  3
B3
350
55
  3
B4
350
56
  3
B5
350
57
  3
B6
350
58
  3
B7
350
39B
  3
B8
350
39C
  3
B9
350
5B
  3
C0
350
5C
  3
C1
350
5D
  3
C2
350
39D
  3
C3
350
5F
  3
C4
350
60
  3
C5
350
61
  3
C6
350
62
  3
C7
350
63
  3
C8
350
64
  3
C9
350
65
  3
D0
350
66
  3
D1
350
67
  3
D2
350
68
  0
DICTIONARY
  5
92
102
{ACAD_REACTORS
330
C
102
}
330
C
100
AcDbDictionary
281
     1
  3
Standard
350
93
  0
DICTIONARY
  5
59
102
{ACAD_REACTORS
330
C
102
}
330
C
100
AcDbDictionary
281
     1
  3
CTABLESTYLE
350
98
  3
HIDETEXT
350
383
  0
LAYOUT
  5
74
102
{ACAD_REACTORS
330
1A
102
}
330
1A
100
AcDbPlotSettings
  1

  2
none_device
  4

  6

 40
0.0
 41
0.0
 42
0.0
 43
0.0
 44
0.0
 45
0.0
 46
0.0
 47
0.0
 48
0.0
 49
0.0
140
0.0
141
0.0
142
1.0
143
1.0
 70
   688
 72
     0
 73
     0
 74
     5
  7

 75
    16
 76
     0
 77
     2
 78
   300
147
1.0
148
0.0
149
0.0
100
AcDbLayout
  1
Layout1
 70
     1
 71
     1
 10
0.0
 20
0.0
 11
12.0
 21
9.0
 12
0.0
 22
0.0
 32
0.0
 14
1.000000000000000E+20
 24
1.000000000000000E+20
 34
1.000000000000000E+20
 15
-1.000000000000000E+20
 25
-1.000000000000000E+20
 35
-1.000000000000000E+20
146
0.0
 13
0.0
 23
0.0
 33
0.0
 16
1.0
 26
0.0
 36
0.0
 17
0.0
 27
1.0
 37
0.0
 76
     0
330
73
  0
LAYOUT
  5
26
102
{ACAD_REACTORS
330
1A
102
}
330
1A
100
AcDbPlotSettings
  1

  2
none_device
  4

  6

 40
0.0
 41
0.0
 42
0.0
 43
0.0
 44
0.0
 45
0.0
 46
0.0
 47
0.0
 48
0.0
 49
0.0
140
0.0
141
0.0
142
1.0
143
1.0
 70
   688
 72
     0
 73
     0
 74
     5
  7

 75
    16
 76
     0
 77
     2
 78
   300
147
1.0
148
0.0
149
0.0
100
AcDbLayout
  1
Layout2
 70
     1
 71
     2
 10
0.0
 20
0.0
 11
0.0
 21
0.0
 12
0.0
 22
0.0
 32
0.0
 14
0.0
 24
0.0
 34
0.0
 15
0.0
 25
0.0
 35
0.0
146
0.0
 13
0.0
 23
0.0
 33
0.0
 16
1.0
 26
0.0
 36
0.0
 17
0.0
 27
1.0
 37
0.0
 76
     0
330
23
  0
LAYOUT
  5
22
102
{ACAD_REACTORS
330
1A
102
}
330
1A
100
AcDbPlotSettings
  1

  2
none_device
  4
Letter_(8.50_x_11.00_Inches)
  6

 40
6.35
 41
6.35
 42
6.35000508
 43
6.35000508
 44
215.9
 45
279.4
 46
0.0
 47
0.0
 48
0.0
 49
0.0
140
0.0
141
0.0
142
1.0
143
1.0
 70
 11952
 72
     0
 73
     0
 74
     0
  7

 75
     0
 76
     0
 77
     2
 78
   300
147
1.0
148
0.0
149
0.0
100
AcDbLayout
  1
Model
 70
     1
 71
     0
 10
0.0
 20
0.0
 11
90.0
 21
120.0
 12
0.0
 22
0.0
 32
0.0
 14
0.1653543307086614
 24
0.1653543307086614
 34
-1.499999999999997
 15
89.83464566929135
 25
119.8346456692913
 35
9.750000000000005
146
0.0
 13
0.0
 23
0.0
 33
0.0
 16
1.0
 26
0.0
 36
0.0
 17
0.0
 27
1.0
 37
0.0
 76
     0
330
1F
  0
MLINESTYLE
  5
18
102
{ACAD_REACTORS
330
17
102
}
330
17
100
AcDbMlineStyle
  2
Standard
 70
     0
  3

 62
   256
 51
90.0
 52
90.0
 71
     2
 49
0.5
 62
   256
  6
BYLAYER
 49
-0.5
 62
   256
  6
BYLAYER
  0
ACDBPLACEHOLDER
  5
F
102
{ACAD_REACTORS
330
E
102
}
330
E
  0
ACAD_PROXY_OBJECT
  5
48
102
{ACAD_REACTORS
330
47
102
}
330
47
100
AcDbProxyObject
 90
      499
 91
      505
 95
   393239
 70
     0
 93
       41
310
903313A31580
  0
ACAD_PROXY_OBJECT
  5
49
102
{ACAD_REACTORS
330
47
102
}
330
47
100
AcDbProxyObject
 90
      499
 91
      505
 95
   393239
 70
     0
 93
      105
310
903313A324000000000000004000
  0
ACAD_PROXY_OBJECT
  5
4A
102
{ACAD_REACTORS
330
47
102
}
330
47
100
AcDbProxyObject
 90
      499
 91
      505
 95
   393239
 70
     0
 93
      105
310
903313A344000000000000104000
  0
ACAD_PROXY_OBJECT
  5
4B
102
{ACAD_REACTORS
330
47
102
}
330
47
100
AcDbProxyObject
 90
      499
 91
      505
 95
   393239
 70
     0
 93
      105
310
903313A354000000000000144000
  0
ACAD_PROXY_OBJECT
  5
4C
102
{ACAD_REACTORS
330
47
102
}
330
47
100
AcDbProxyObject
 90
      499
 91
      505
 95
   393239
 70
     0
 93
      105
310
903313A384000000000000204000
  0
ACAD_PROXY_OBJECT
  5
4D
102
{ACAD_REACTORS
330
47
102
}
330
47
100
AcDbProxyObject
 90
      499
 91
      505
 95
   393239
 70
     0
 93
      113
310
904313A31304000000000000244000
  0
ACAD_PROXY_OBJECT
  5
4E
102
{ACAD_REACTORS
330
47
102
}
330
47
100
AcDbProxyObject
 90
      499
 91
      505
 95
   393239
 70
     0
 93
      113
310
904313A31364000000000000304000
  0
ACAD_PROXY_OBJECT
  5
4F
102
{ACAD_REACTORS
330
47
102
}
330
47
100
AcDbProxyObject
 90
      499
 91
      505
 95
   393239
 70
     0
 93
      113
310
904313A32304000000000000344000
  0
ACAD_PROXY_OBJECT
  5
50
102
{ACAD_REACTORS
330
47
102
}
330
47
100
AcDbProxyObject
 90
      499
 91
      505
 95
   393239
 70
     0
 93
      113
310
904313A333040000000000003E4000
  0
ACAD_PROXY_OBJECT
  5
51
102
{ACAD_REACTORS
330
47
102
}
330
47
100
AcDbProxyObject
 90
      499
 91
      505
 95
   393239
 70
     0
 93
      113
310
904313A34304000000000000444000
  0
ACAD_PROXY_OBJECT
  5
52
102
{ACAD_REACTORS
330
47
102
}
330
47
100
AcDbProxyObject
 90
      499
 91
      505
 95
   393239
 70
     0
 93
      113
310
904313A35304000000000000494000
  0
ACAD_PROXY_OBJECT
  5
53
102
{ACAD_REACTORS
330
47
102
}
330
47
100
AcDbProxyObject
 90
      499
 91
      505
 95
   393239
 70
     0
 93
      121
310
905313A3130304000000000000594000
  0
ACAD_PROXY_OBJECT
  5
54
102
{ACAD_REACTORS
330
47
102
}
330
47
100
AcDbProxyObject
 90
      499
 91
      505
 95
   393239
 70
     0
 93
      105
310
903323A310000000000000010100
  0
ACAD_PROXY_OBJECT
  5
55
102
{ACAD_REACTORS
330
47
102
}
330
47
100
AcDbProxyObject
 90
      499
 91
      505
 95
   393239
 70
     0
 93
      105
310
903343A310000000000000410100
  0
ACAD_PROXY_OBJECT
  5
56
102
{ACAD_REACTORS
330
47
102
}
330
47
100
AcDbProxyObject
 90
      499
 91
      505
 95
   393239
 70
     0
 93
      105
310
903383A310000000000000810100
  0
ACAD_PROXY_OBJECT
  5
57
102
{ACAD_REACTORS
330
47
102
}
330
47
100
AcDbProxyObject
 90
      499
 91
      505
 95
   393239
 70
     0
 93
      113
310
90431303A310000000000000910100
  0
ACAD_PROXY_OBJECT
  5
58
102
{ACAD_REACTORS
330
47
102
}
330
47
100
AcDbProxyObject
 90
      499
 91
      505
 95
   393239
 70
     0
 93
      121
310
9053130303A310000000000001650100
  0
ACAD_PROXY_OBJECT
  5
39B
102
{ACAD_REACTORS
330
47
102
}
330
47
100
AcDbProxyObject
 90
      499
 91
      505
 95
   393239
 70
     0
 93
      257
310
90E312F31323822203D2031272D3022000000000000200FC000000000000284000
  0
ACAD_PROXY_OBJECT
  5
39C
102
{ACAD_REACTORS
330
47
102
}
330
47
100
AcDbProxyObject
 90
      499
 91
      505
 95
   393239
 70
     0
 93
      249
310
90D312F363422203D2031272D3022000000000000240FC000000000000284000
  0
ACAD_PROXY_OBJECT
  5
5B
102
{ACAD_REACTORS
330
47
102
}
330
47
100
AcDbProxyObject
 90
      499
 91
      505
 95
   393239
 70
     0
 93
      249
310
90D312F333222203D2031272D3022000000000000280FC000000000000284000
  0
ACAD_PROXY_OBJECT
  5
5C
102
{ACAD_REACTORS
330
47
102
}
330
47
100
AcDbProxyObject
 90
      499
 91
      505
 95
   393239
 70
     0
 93
      249
310
90D312F313622203D2031272D30220000000000002C0FC000000000000284000
  0
ACAD_PROXY_OBJECT
  5
5D
102
{ACAD_REACTORS
330
47
102
}
330
47
100
AcDbProxyObject
 90
      499
 91
      505
 95
   393239
 70
     0
 93
      249
310
90D332F333222203D2031272D30220000000000002E0FC000000000000284000
  0
ACAD_PROXY_OBJECT
  5
39D
102
{ACAD_REACTORS
330
47
102
}
330
47
100
AcDbProxyObject
 90
      499
 91
      505
 95
   393239
 70
     0
 93
      241
310
90C312F3822203D2031272D3022000000000000300FC000000000000284000
  0
ACAD_PROXY_OBJECT
  5
5F
102
{ACAD_REACTORS
330
47
102
}
330
47
100
AcDbProxyObject
 90
      499
 91
      505
 95
   393239
 70
     0
 93
      249
310
90D332F313622203D2031272D3022000000000000320FC000000000000284000
  0
ACAD_PROXY_OBJECT
  5
60
102
{ACAD_REACTORS
330
47
102
}
330
47
100
AcDbProxyObject
 90
      499
 91
      505
 95
   393239
 70
     0
 93
      241
310
90C312F3422203D2031272D3022000000000000340FC000000000000284000
  0
ACAD_PROXY_OBJECT
  5
61
102
{ACAD_REACTORS
330
47
102
}
330
47
100
AcDbProxyObject
 90
      499
 91
      505
 95
   393239
 70
     0
 93
      241
310
90C332F3822203D2031272D3022000000000000360FC000000000000284000
  0
ACAD_PROXY_OBJECT
  5
62
102
{ACAD_REACTORS
330
47
102
}
330
47
100
AcDbProxyObject
 90
      499
 91
      505
 95
   393239
 70
     0
 93
      241
310
90C312F3222203D2031272D3022000000000000380FC000000000000284000
  0
ACAD_PROXY_OBJECT
  5
63
102
{ACAD_REACTORS
330
47
102
}
330
47
100
AcDbProxyObject
 90
      499
 91
      505
 95
   393239
 70
     0
 93
      241
310
90C332F3422203D2031272D30220000000000003A0FC000000000000284000
  0
ACAD_PROXY_OBJECT
  5
64
102
{ACAD_REACTORS
330
47
102
}
330
47
100
AcDbProxyObject
 90
      499
 91
      505
 95
   393239
 70
     0
 93
      161
310
90A3122203D2031272D30224000000000000284000
  0
ACAD_PROXY_OBJECT
  5
65
102
{ACAD_REACTORS
330
47
102
}
330
47
100
AcDbProxyObject
 90
      499
 91
      505
 95
   393239
 70
     0
 93
      257
310
90E312D312F3222203D2031272D30220000000000003E0FC000000000000284000
  0
ACAD_PROXY_OBJECT
  5
66
102
{ACAD_REACTORS
330
47
102
}
330
47
100
AcDbProxyObject
 90
      499
 91
      505
 95
   393239
 70
     0
 93
      225
310
90A3322203D2031272D302200000000000002100000000000000284000
  0
ACAD_PROXY_OBJECT
  5
67
102
{ACAD_REACTORS
330
47
102
}
330
47
100
AcDbProxyObject
 90
      499
 91
      505
 95
   393239
 70
     0
 93
      225
310
90A3622203D2031272D302200000000000006100000000000000284000
  0
ACAD_PROXY_OBJECT
  5
68
102
{ACAD_REACTORS
330
47
102
}
330
47
100
AcDbProxyObject
 90
      499
 91
      505
 95
   393239
 70
     0
 93
      249
310
90D31272D3022203D2031272D30220000000000000A100000000000000284000
  0
TABLESTYLE
  5
93
102
{ACAD_REACTORS
330
92
102
}
330
92
100
AcDbTableStyle
  3
Standard
 70
     0
 71
     0
 40
0.06
 41
0.06
280
     0
281
     0
  7
Standard
140
0.18
170
     2
 62
     0
 63
     7
283
     0
274
    -2
284
     1
 64
     0
275
    -2
285
     1
 65
     0
276
    -2
286
     1
 66
     0
277
    -2
287
     1
 67
     0
278
    -2
288
     1
 68
     0
279
    -2
289
     1
 69
     0
  7
Standard
140
0.25
170
     5
 62
     0
 63
     7
283
     0
274
    -2
284
     1
 64
     0
275
    -2
285
     1
 65
     0
276
    -2
286
     1
 66
     0
277
    -2
287
     1
 67
     0
278
    -2
288
     1
 68
     0
279
    -2
289
     1
 69
     0
  7
Standard
140
0.18
170
     5
 62
     0
 63
     7
283
     0
274
    -2
284
     1
 64
     0
275
    -2
285
     1
 65
     0
276
    -2
286
     1
 66
     0
277
    -2
287
     1
 67
     0
278
    -2
288
     1
 68
     0
279
    -2
289
     1
 69
     0
  0
DICTIONARYVAR
  5
98
102
{ACAD_REACTORS
330
59
102
}
330
59
100
DictionaryVariables
280
     0
  1
STANDARD
  0
DICTIONARYVAR
  5
383
102
{ACAD_REACTORS
330
59
102
}
330
59
100
DictionaryVariables
280
     0
  1
2
  0
ENDSEC
  0
EOF
