  0
SECTION
  2
HEADER
  9
$ACADVER
  1
AC1015
  9
$ACADMAINTVER
 70
     6
  9
$DWGCODEPAGE
  3
ANSI_1252
  9
$INSBASE
 10
0.0
 20
0.0
 30
0.0
  9
$EXTMIN
 10
0.0
 20
0.0
 30
0.0
  9
$EXTMAX
 10
90.0
 20
120.0
 30
0.0
  9
$LIMMIN
 10
0.0
 20
0.0
  9
$LIMMAX
 10
90.0
 20
120.0
  9
$ORTHOMODE
 70
     0
  9
$REGENMODE
 70
     1
  9
$FILLMODE
 70
     1
  9
$QTEXTMODE
 70
     0
  9
$MIRRTEXT
 70
     1
  9
$LTSCALE
 40
1.0
  9
$ATTMODE
 70
     1
  9
$TEXTSIZE
 40
0.5
  9
$TRACEWID
 40
0.05
  9
$TEXTSTYLE
  7
STANDARD
  9
$CLAYER
  8
0
  9
$CELTYPE
  6
ByLayer
  9
$CECOLOR
 62
   256
  9
$CELTSCALE
 40
1.0
  9
$DISPSILH
 70
     0
  9
$DIMSCALE
 40
1.0
  9
$DIMASZ
 40
0.3
  9
$DIMEXO
 40
0.1666666667
  9
$DIMDLI
 40
0.38
  9
$DIMRND
 40
0.0
  9
$DIMDLE
 40
0.0
  9
$DIMEXE
 40
0.375
  9
$DIMTP
 40
0.0
  9
$DIMTM
 40
0.0
  9
$DIMTXT
 40
0.5
  9
$DIMCEN
 40
0.09
  9
$DIMTSZ
 40
0.0
  9
$DIMTOL
 70
     0
  9
$DIMLIM
 70
     0
  9
$DIMTIH
 70
     1
  9
$DIMTOH
 70
     1
  9
$DIMSE1
 70
     0
  9
$DIMSE2
 70
     0
  9
$DIMTAD
 70
     0
  9
$DIMZIN
 70
     1
  9
$DIMBLK
  1

  9
$DIMASO
 70
     1
  9
$DIMSHO
 70
     1
  9
$DIMPOST
  1

  9
$DIMAPOST
  1

  9
$DIMALT
 70
     0
  9
$DIMALTD
 70
     2
  9
$DIMALTF
 40
25.4
  9
$DIMLFAC
 40
1.0
  9
$DIMTOFL
 70
     0
  9
$DIMTVP
 40
0.0
  9
$DIMTIX
 70
     0
  9
$DIMSOXD
 70
     0
  9
$DIMSAH
 70
     0
  9
$DIMBLK1
  1

  9
$DIMBLK2
  1

  9
$DIMSTYLE
  2
Standard
  9
$DIMCLRD
 70
     0
  9
$DIMCLRE
 70
     0
  9
$DIMCLRT
 70
     0
  9
$DIMTFAC
 40
1.0
  9
$DIMGAP
 40
0.125
  9
$DIMJUST
 70
     0
  9
$DIMSD1
 70
     0
  9
$DIMSD2
 70
     0
  9
$DIMTOLJ
 70
     1
  9
$DIMTZIN
 70
     1
  9
$DIMALTZ
 70
     0
  9
$DIMALTTZ
 70
     0
  9
$DIMUPT
 70
     0
  9
$DIMDEC
 70
     2
  9
$DIMTDEC
 70
     2
  9
$DIMALTU
 70
     2
  9
$DIMALTTD
 70
     2
  9
$DIMTXSTY
  7
STANDARD
  9
$DIMAUNIT
 70
     0
  9
$DIMADEC
 70
     2
  9
$DIMALTRND
 40
0.0
  9
$DIMAZIN
 70
     0
  9
$DIMDSEP
 70
    46
  9
$DIMATFIT
 70
     3
  9
$DIMFRAC
 70
     0
  9
$DIMLDRBLK
  1

  9
$DIMLUNIT
 70
     2
  9
$DIMLWD
 70
    -2
  9
$DIMLWE
 70
    -2
  9
$DIMTMOVE
 70
     0
  9
$LUNITS
 70
     2
  9
$LUPREC
 70
     4
  9
$SKETCHINC
 40
0.1
  9
$FILLETRAD
 40
0.5
  9
$AUNITS
 70
     0
  9
$AUPREC
 70
     2
  9
$MENU
  1
.
  9
$ELEVATION
 40
0.0
  9
$PELEVATION
 40
0.0
  9
$THICKNESS
 40
0.0
  9
$LIMCHECK
 70
     0
  9
$CHAMFERA
 40
0.0
  9
$CHAMFERB
 40
0.0
  9
$CHAMFERC
 40
0.0
  9
$CHAMFERD
 40
0.0
  9
$SKPOLY
 70
     0
  9
$TDCREATE
 40
2459481.656224942
  9
$TDUCREATE
 40
2459481.822891609
  9
$TDUPDATE
 40
2459481.656231273
  9
$TDUUPDATE
 40
2459481.82289794
  9
$TDINDWG
 40
0.0000000116
  9
$TDUSRTIMER
 40
0.0000000116
  9
$USRTIMER
 70
     1
  9
$ANGBASE
 50
0.0
  9
$ANGDIR
 70
     0
  9
$PDMODE
 70
     0
  9
$PDSIZE
 40
-1.0
  9
$PLINEWID
 40
0.0
  9
$SPLFRAME
 70
     0
  9
$SPLINETYPE
 70
     6
  9
$SPLINESEGS
 70
     8
  9
$HANDSEED
  5
3C0
  9
$SURFTAB1
 70
     6
  9
$SURFTAB2
 70
     6
  9
$SURFTYPE
 70
     6
  9
$SURFU
 70
     6
  9
$SURFV
 70
     6
  9
$UCSBASE
  2

  9
$UCSNAME
  2

  9
$UCSORG
 10
0.0
 20
0.0
 30
0.0
  9
$UCSXDIR
 10
1.0
 20
0.0
 30
0.0
  9
$UCSYDIR
 10
0.0
 20
1.0
 30
0.0
  9
$UCSORTHOREF
  2

  9
$UCSORTHOVIEW
 70
     0
  9
$UCSORGTOP
 10
0.0
 20
0.0
 30
0.0
  9
$UCSORGBOTTOM
 10
0.0
 20
0.0
 30
0.0
  9
$UCSORGLEFT
 10
0.0
 20
0.0
 30
0.0
  9
$UCSORGRIGHT
 10
0.0
 20
0.0
 30
0.0
  9
$UCSORGFRONT
 10
0.0
 20
0.0
 30
0.0
  9
$UCSORGBACK
 10
0.0
 20
0.0
 30
0.0
  9
$PUCSBASE
  2

  9
$PUCSNAME
  2

  9
$PUCSORG
 10
0.0
 20
0.0
 30
0.0
  9
$PUCSXDIR
 10
1.0
 20
0.0
 30
0.0
  9
$PUCSYDIR
 10
0.0
 20
1.0
 30
0.0
  9
$PUCSORTHOREF
  2

  9
$PUCSORTHOVIEW
 70
     0
  9
$PUCSORGTOP
 10
0.0
 20
0.0
 30
0.0
  9
$PUCSORGBOTTOM
 10
0.0
 20
0.0
 30
0.0
  9
$PUCSORGLEFT
 10
0.0
 20
0.0
 30
0.0
  9
$PUCSORGRIGHT
 10
0.0
 20
0.0
 30
0.0
  9
$PUCSORGFRONT
 10
0.0
 20
0.0
 30
0.0
  9
$PUCSORGBACK
 10
0.0
 20
0.0
 30
0.0
  9
$USERI1
 70
     0
  9
$USERI2
 70
     0
  9
$USERI3
 70
     0
  9
$USERI4
 70
     0
  9
$USERI5
 70
     0
  9
$USERR1
 40
0.0
  9
$USERR2
 40
0.0
  9
$USERR3
 40
0.0
  9
$USERR4
 40
0.0
  9
$USERR5
 40
0.0
  9
$WORLDVIEW
 70
     1
  9
$SHADEDGE
 70
     3
  9
$SHADEDIF
 70
    70
  9
$TILEMODE
 70
     1
  9
$MAXACTVP
 70
    64
  9
$PINSBASE
 10
0.0
 20
0.0
 30
0.0
  9
$PLIMCHECK
 70
     0
  9
$PEXTMIN
 10
1.0000000000E+20
 20
1.0000000000E+20
 30
1.0000000000E+20
  9
$PEXTMAX
 10
-1.0000000000E+20
 20
-1.0000000000E+20
 30
-1.0000000000E+20
  9
$PLIMMIN
 10
0.0
 20
0.0
  9
$PLIMMAX
 10
12.0
 20
9.0
  9
$UNITMODE
 70
     0
  9
$VISRETAIN
 70
     1
  9
$PLINEGEN
 70
     0
  9
$PSLTSCALE
 70
     1
  9
$TREEDEPTH
 70
  3020
  9
$CMLSTYLE
  2
Standard
  9
$CMLJUST
 70
     0
  9
$CMLSCALE
 40
1.0
  9
$PROXYGRAPHICS
 70
     1
  9
$MEASUREMENT
 70
     0
  9
$CELWEIGHT
370
    -1
  9
$ENDCAPS
280
     0
  9
$JOINSTYLE
280
     0
  9
$LWDISPLAY
290
     1
  9
$INSUNITS
 70
     1
  9
$HYPERLINKBASE
  1

  9
$STYLESHEET
  1

  9
$XEDIT
290
     1
  9
$CEPSNTYPE
380
     0
  9
$PSTYLEMODE
290
     1
  9
$FINGERPRINTGUID
  2
{51d0d5af-c0b7-4ab3-88b3-aad33bd09227}
  9
$VERSIONGUID
  2
{FAEB1C32-E019-11D5-929B-00C0DF256EC4}
  9
$EXTNAMES
290
     1
  9
$PSVPSCALE
 40
0.0
  9
$OLESTARTUP
290
     0
  0
ENDSEC
  0
SECTION
  2
CLASSES
  0
CLASS
  1
ACDBDICTIONARYWDFLT
  2
AcDbDictionaryWithDefault
  3
ObjectDBX Classes
 90
        0
280
     0
281
     0
  0
CLASS
  1
VISUALSTYLE
  2
AcDbVisualStyle
  3
ObjectDBX Classes
 90
     4095
280
     0
281
     0
  0
CLASS
  1
MATERIAL
  2
AcDbMaterial
  3
ObjectDBX Classes
 90
     1153
280
     0
281
     0
  0
CLASS
  1
SCALE
  2
AcDbScale
  3
ObjectDBX Classes
 90
     1153
280
     0
281
     0
  0
CLASS
  1
TABLESTYLE
  2
AcDbTableStyle
  3
ObjectDBX Classes
 90
     4095
280
     0
281
     0
  0
CLASS
  1
MLEADERSTYLE
  2
AcDbMLeaderStyle
  3
ACDB_MLEADERSTYLE_CLASS
 90
     4095
280
     0
281
     0
  0
CLASS
  1
SUN
  2
AcDbSun
  3
SCENEOE
 90
     1153
280
     0
281
     0
  0
CLASS
  1
ACDBPLACEHOLDER
  2
AcDbPlaceHolder
  3
ObjectDBX Classes
 90
        0
280
     0
281
     0
  0
CLASS
  1
LAYOUT
  2
AcDbLayout
  3
ObjectDBX Classes
 90
        0
280
     0
281
     0
  0
ENDSEC
  0
SECTION
  2
TABLES
  0
TABLE
  2
VPORT
  5
8
330
0
100
AcDbSymbolTable
 70
     1
  0
VPORT
  5
29
330
8
100
AcDbSymbolTableRecord
100
AcDbViewportTableRecord
  2
*Active
 70
     0
 10
0.0
 20
0.0
 11
1.0
 21
1.0
 12
45.0
 22
60.0
 13
0.0
 23
0.0
 14
0.5
 24
0.5
 15
0.5
 25
0.5
 16
0.0
 26
0.0
 36
1.0
 17
0.0
 27
0.0
 37
0.0
 40
120.0
 41
0.75
 42
50.0
 43
0.0
 44
0.0
 50
0.0
 51
0.0
 71
     0
 72
  2000
 73
     1
 74
     3
 75
     0
 76
     0
 77
     0
 78
     0
281
     0
 65
     1
110
0.0
120
0.0
130
0.0
111
1.0
121
0.0
131
0.0
112
0.0
122
1.0
132
0.0
 79
     0
146
0.0
  0
ENDTAB
  0
TABLE
  2
LTYPE
  5
5
330
0
100
AcDbSymbolTable
 70
     8
  0
LTYPE
  5
14
330
5
100
AcDbSymbolTableRecord
100
AcDbLinetypeTableRecord
  2
ByBlock
 70
     0
  3

 72
    65
 73
     0
 40
0.0
  0
LTYPE
  5
15
330
5
100
AcDbSymbolTableRecord
100
AcDbLinetypeTableRecord
  2
ByLayer
 70
     0
  3

 72
    65
 73
     0
 40
0.0
  0
LTYPE
  5
16
330
5
100
AcDbSymbolTableRecord
100
AcDbLinetypeTableRecord
  2
Continuous
 70
     0
  3
Solid line
 72
    65
 73
     0
 40
0.0
  0
LTYPE
  5
6E
330
5
100
AcDbSymbolTableRecord
100
AcDbLinetypeTableRecord
  2
SLD-Solid
 70
     0
  3
SolidWorks Line Style
 72
    65
 73
     0
 40
0.0
  0
LTYPE
  5
6F
330
5
100
AcDbSymbolTableRecord
100
AcDbLinetypeTableRecord
  2
SLD-Dashed
 70
     0
  3
SolidWorks Line Style
 72
    65
 73
     2
 40
0.075
 49
0.05
 74
     0
 49
-0.025
 74
     0
  0
LTYPE
  5
70
330
5
100
AcDbSymbolTableRecord
100
AcDbLinetypeTableRecord
  2
SLD-Phantom
 70
     0
  3
SolidWorks Line Style
 72
    65
 73
     6
 40
0.5
 49
0.25
 74
     0
 49
-0.05
 74
     0
 49
0.05
 74
     0
 49
-0.05
 74
     0
 49
0.05
 74
     0
 49
-0.05
 74
     0
  0
LTYPE
  5
71
330
5
100
AcDbSymbolTableRecord
100
AcDbLinetypeTableRecord
  2
SLD-Chain
 70
     0
  3
SolidWorks Line Style
 72
    65
 73
     4
 40
0.4
 49
0.25
 74
     0
 49
-0.05
 74
     0
 49
0.05
 74
     0
 49
-0.05
 74
     0
  0
LTYPE
  5
72
330
5
100
AcDbSymbolTableRecord
100
AcDbLinetypeTableRecord
  2
SLD-Center
 70
     0
  3
SolidWorks Line Style
 72
    65
 73
     4
 40
0.75
 49
0.6
 74
     0
 49
-0.05
 74
     0
 49
0.05
 74
     0
 49
-0.05
 74
     0
  0
LTYPE
  5
73
330
5
100
AcDbSymbolTableRecord
100
AcDbLinetypeTableRecord
  2
SLD-Stitch
 70
     0
  3
SolidWorks Line Style
 72
    65
 73
     2
 40
0.025
 49
0.0
 74
     0
 49
-0.025
 74
     0
  0
LTYPE
  5
74
330
5
100
AcDbSymbolTableRecord
100
AcDbLinetypeTableRecord
  2
SLD-Thin-Thick-Chain
 70
     0
  3
SolidWorks Line Style
 72
    65
 73
     4
 40
0.4
 49
0.25
 74
     0
 49
-0.05
 74
     0
 49
0.05
 74
     0
 49
-0.05
 74
     0
  0
ENDTAB
  0
TABLE
  2
LAYER
  5
2
330
0
100
AcDbSymbolTable
 70
     6
  0
LAYER
  5
10
330
2
100
AcDbSymbolTableRecord
100
AcDbLayerTableRecord
  2
0
 70
     0
 62
     7
  6
Continuous
370
    -3
390
F
  0
LAYER
  5
75
330
2
100
AcDbSymbolTableRecord
100
AcDbLayerTableRecord
  2
FORMAT
 70
     0
 62
     7
  6
SLD-Solid
370
    -3
390
F
  0
LAYER
  5
76
330
2
100
AcDbSymbolTableRecord
100
AcDbLayerTableRecord
  2
NOTES
 70
     0
 62
     1
  6
SLD-Solid
370
    -3
390
F
  0
LAYER
  5
77
330
2
100
AcDbSymbolTableRecord
100
AcDbLayerTableRecord
  2
OBJECT
 70
     0
 62
     7
  6
SLD-Solid
370
    25
390
F
  0
LAYER
  5
78
330
2
100
AcDbSymbolTableRecord
100
AcDbLayerTableRecord
  2
DIMS
 70
     0
 62
     5
  6
SLD-Solid
370
    -3
390
F
  0
LAYER
  5
79
330
2
100
AcDbSymbolTableRecord
100
AcDbLayerTableRecord
  2
TITLE
 70
     0
 62
     8
  6
SLD-Solid
370
    -3
390
F
  0
ENDTAB
  0
TABLE
  2
STYLE
  5
3
330
0
100
AcDbSymbolTable
 70
     5
  0
STYLE
  5
11
330
3
100
AcDbSymbolTableRecord
100
AcDbTextStyleTableRecord
  2
STANDARD
 70
     0
 40
0.0
 41
1.0
 50
0.0
 71
     0
 42
0.5
  3
GOTHIC.TTF
  4

1001
ACAD
1000
CENTURY GOTHIC
1071
       34
  0
STYLE
  5
15E
330
3
100
AcDbSymbolTableRecord
100
AcDbTextStyleTableRecord
  2
SLDTEXTSTYLE0
 70
     0
 40
0.0
 41
0.948
 50
0.0
 71
     0
 42
0.5
  3
ARIAL.TTF
  4

1001
ACAD
1000
Arial
1071
      290
  0
STYLE
  5
162
330
3
100
AcDbSymbolTableRecord
100
AcDbTextStyleTableRecord
  2
SLDTEXTSTYLE1
 70
     0
 40
0.0
 41
0.913
 50
0.0
 71
     0
 42
0.5
  3
GOTHIC.TTF
  4

1001
ACAD
1000
Century Gothic
1071
      290
  0
STYLE
  5
171
330
3
100
AcDbSymbolTableRecord
100
AcDbTextStyleTableRecord
  2
SLDTEXTSTYLE2
 70
     0
 40
0.0
 41
0.87
 50
0.0
 71
     0
 42
0.5
  3
ARIALNB.TTF
  4

1001
ACAD
1000
Arial Narrow
1071
 33554722
  0
STYLE
  5
173
330
3
100
AcDbSymbolTableRecord
100
AcDbTextStyleTableRecord
  2
SLDTEXTSTYLE3
 70
     0
 40
0.0
 41
0.87
 50
0.0
 71
     0
 42
0.5
  3
ARIALN.TTF
  4

1001
ACAD
1000
Arial Narrow
1071
      290
  0
ENDTAB
  0
TABLE
  2
VIEW
  5
6
330
0
100
AcDbSymbolTable
 70
     0
  0
ENDTAB
  0
TABLE
  2
UCS
  5
7
330
0
100
AcDbSymbolTable
 70
     0
  0
ENDTAB
  0
TABLE
  2
APPID
  5
9
330
0
100
AcDbSymbolTable
 70
     1
  0
APPID
  5
12
330
9
100
AcDbSymbolTableRecord
100
AcDbRegAppTableRecord
  2
ACAD
 70
     0
  0
ENDTAB
  0
TABLE
  2
DIMSTYLE
  5
A
330
0
100
AcDbSymbolTable
 70
     7
100
AcDbDimStyleTable
  0
DIMSTYLE
105
27
330
A
100
AcDbSymbolTableRecord
100
AcDbDimStyleTableRecord
  2
Standard
 70
     0
178
     0
340
11
  0
DIMSTYLE
105
27D
102
{ACAD_REACTORS
330
27C
330
28E
330
299
330
2A3
330
2AC
330
2B7
330
2C2
102
}
330
A
100
AcDbSymbolTableRecord
100
AcDbDimStyleTableRecord
  2
SLDDIMSTYLE0
 70
     0
 41
0.3
 44
0.0
 45
0.000000001
 78
    12
 79
     3
140
0.5
147
0.125
173
     1
178
     0
271
     2
272
     2
276
     2
277
     5
284
    12
340
162
341
27E
343
27E
344
27E
  0
DIMSTYLE
105
2CE
102
{ACAD_REACTORS
330
2CD
102
}
330
A
100
AcDbSymbolTableRecord
100
AcDbDimStyleTableRecord
  2
SLDDIMSTYLE1
 70
     0
 41
0.3
 44
0.0
 45
0.000000001
 78
    12
 79
     3
140
0.5
141
0.0
147
0.125
173
     1
178
     0
271
     2
272
     2
276
     2
277
     5
284
    12
340
162
341
27E
343
27E
344
27E
  0
DIMSTYLE
105
2DC
102
{ACAD_REACTORS
330
2DB
330
32D
330
33B
102
}
330
A
100
AcDbSymbolTableRecord
100
AcDbDimStyleTableRecord
  2
SLDDIMSTYLE2
 70
     0
 41
0.3
 44
0.0
 45
0.000000001
 78
    12
 79
     3
140
0.5
147
0.125
173
     1
178
     0
271
     6
272
     2
276
     2
277
     5
284
    12
340
162
341
27E
343
27E
344
27E
  0
DIMSTYLE
105
2F2
330
A
100
AcDbSymbolTableRecord
100
AcDbDimStyleTableRecord
  2
SLDDIMSTYLE3
 70
     0
 41
0.3
 44
0.0
 45
0.000000001
146
0.3
147
0.0
173
     1
178
     0
271
     0
272
     0
276
     2
277
     5
340
11
341
27E
343
27E
344
27E
  0
DIMSTYLE
105
2F8
330
A
100
AcDbSymbolTableRecord
100
AcDbDimStyleTableRecord
  2
SLDDIMSTYLE4
 70
     0
 41
0.0666666667
 44
0.0
 45
0.000000001
146
0.2
147
0.0
173
     1
178
     0
271
     0
272
     0
276
     2
277
     5
340
11
341
2F9
343
2F9
344
2F9
  0
DIMSTYLE
105
31F
102
{ACAD_REACTORS
330
31E
102
}
330
A
100
AcDbSymbolTableRecord
100
AcDbDimStyleTableRecord
  2
SLDDIMSTYLE5
 70
     0
 41
0.3
 44
0.0
 45
0.000000001
 78
    12
 79
     3
140
0.5
147
0.125
172
     1
173
     1
178
     0
271
     6
272
     2
276
     2
277
     5
284
    12
289
     0
340
162
341
27E
343
27E
344
27E
  0
ENDTAB
  0
TABLE
  2
BLOCK_RECORD
  5
1
330
0
100
AcDbSymbolTable
 70
    19
  0
BLOCK_RECORD
  5
1F
330
1
100
AcDbSymbolTableRecord
100
AcDbBlockTableRecord
  2
*Model_Space
340
22
  0
BLOCK_RECORD
  5
1B
330
1
100
AcDbSymbolTableRecord
100
AcDbBlockTableRecord
  2
*Paper_Space
340
1E
  0
BLOCK_RECORD
  5
23
330
1
100
AcDbSymbolTableRecord
100
AcDbBlockTableRecord
  2
*Paper_Space0
340
26
  0
BLOCK_RECORD
  5
168
330
1
100
AcDbSymbolTableRecord
100
AcDbBlockTableRecord
  2
SW_NOTE_0
340
0
102
{BLKREFS
331
16D
102
}
  0
BLOCK_RECORD
  5
16E
330
1
100
AcDbSymbolTableRecord
100
AcDbBlockTableRecord
  2
SW_NOTE_0_1
340
0
102
{BLKREFS
331
177
102
}
  0
BLOCK_RECORD
  5
27E
330
1
100
AcDbSymbolTableRecord
100
AcDbBlockTableRecord
  2
_Open90
340
0
102
{BLKREFS
331
287
331
288
331
292
331
293
331
29D
331
29E
331
2A7
331
2A8
331
2B0
331
2B1
331
2BB
331
2BC
331
2C6
331
2C7
331
2D2
331
2E0
331
2E1
331
323
331
324
331
331
331
332
331
33F
331
340
102
}
  0
BLOCK_RECORD
  5
284
330
1
100
AcDbSymbolTableRecord
100
AcDbBlockTableRecord
  2
_D
340
0
  0
BLOCK_RECORD
  5
28F
330
1
100
AcDbSymbolTableRecord
100
AcDbBlockTableRecord
  2
_D_1
340
0
  0
BLOCK_RECORD
  5
29A
330
1
100
AcDbSymbolTableRecord
100
AcDbBlockTableRecord
  2
_D_2
340
0
  0
BLOCK_RECORD
  5
2A4
330
1
100
AcDbSymbolTableRecord
100
AcDbBlockTableRecord
  2
_D_3
340
0
  0
BLOCK_RECORD
  5
2AD
330
1
100
AcDbSymbolTableRecord
100
AcDbBlockTableRecord
  2
_D_4
340
0
  0
BLOCK_RECORD
  5
2B8
330
1
100
AcDbSymbolTableRecord
100
AcDbBlockTableRecord
  2
_D_5
340
0
  0
BLOCK_RECORD
  5
2C3
330
1
100
AcDbSymbolTableRecord
100
AcDbBlockTableRecord
  2
_D_6
340
0
  0
BLOCK_RECORD
  5
2CF
330
1
100
AcDbSymbolTableRecord
100
AcDbBlockTableRecord
  2
_D_7
340
0
  0
BLOCK_RECORD
  5
2DD
330
1
100
AcDbSymbolTableRecord
100
AcDbBlockTableRecord
  2
_D_8
340
0
  0
BLOCK_RECORD
  5
2EC
330
1
100
AcDbSymbolTableRecord
100
AcDbBlockTableRecord
  2
SW_NOTE_0_2
340
0
102
{BLKREFS
331
2F1
102
}
  0
BLOCK_RECORD
  5
2F9
330
1
100
AcDbSymbolTableRecord
100
AcDbBlockTableRecord
  2
_Origin
340
0
  0
BLOCK_RECORD
  5
320
330
1
100
AcDbSymbolTableRecord
100
AcDbBlockTableRecord
  2
_D_9
340
0
  0
BLOCK_RECORD
  5
32E
330
1
100
AcDbSymbolTableRecord
100
AcDbBlockTableRecord
  2
_D_10
340
0
  0
BLOCK_RECORD
  5
33C
330
1
100
AcDbSymbolTableRecord
100
AcDbBlockTableRecord
  2
_D_11
340
0
  0
BLOCK_RECORD
  5
388
330
1
100
AcDbSymbolTableRecord
100
AcDbBlockTableRecord
  2
SW_NOTE_0_3
340
0
102
{BLKREFS
331
38D
102
}
  0
ENDTAB
  0
ENDSEC
  0
SECTION
  2
BLOCKS
  0
BLOCK
  5
20
330
1F
100
AcDbEntity
  8
0
100
AcDbBlockBegin
  2
*Model_Space
 70
     0
 10
0.0
 20
0.0
 30
0.0
  3
*Model_Space
  1

  0
ENDBLK
  5
21
330
1F
100
AcDbEntity
  8
0
100
AcDbBlockEnd
  0
BLOCK
  5
1C
330
1B
100
AcDbEntity
 67
     1
  8
0
100
AcDbBlockBegin
  2
*Paper_Space
 70
     0
 10
0.0
 20
0.0
 30
0.0
  3
*Paper_Space
  1

  0
ENDBLK
  5
1D
330
1B
100
AcDbEntity
 67
     1
  8
0
100
AcDbBlockEnd
  0
BLOCK
  5
24
330
23
100
AcDbEntity
  8
0
100
AcDbBlockBegin
  2
*Paper_Space0
 70
     0
 10
0.0
 20
0.0
 30
0.0
  3
*Paper_Space0
  1

  0
ENDBLK
  5
25
330
23
100
AcDbEntity
  8
0
100
AcDbBlockEnd
  0
BLOCK
  5
169
330
168
100
AcDbEntity
  8
0
100
AcDbBlockBegin
  2
SW_NOTE_0
 70
     0
 10
0.0
 20
0.0
 30
0.0
  3
SW_NOTE_0
  1

  0
MTEXT
  5
16B
330
168
100
AcDbEntity
  8
NOTES
 62
     0
100
AcDbMText
 10
0.0
 20
0.3759780908
 30
0.0
 40
0.2916666667
 41
0.0
 71
     1
 72
     1
  1
FROST PRODUCTS LTD.
  7
SLDTEXTSTYLE0
 73
     1
 44
1.0
  0
MTEXT
  5
16C
330
168
100
AcDbEntity
  8
NOTES
 62
     0
100
AcDbMText
 10
0.0
 20
-0.0495142709
 30
0.0
 40
0.2291666667
 41
0.0
 71
     1
 72
     1
  1
5280 JOHN LUCAS DRIVE, BURLINGTON, ON, L7L 5Z9
  7
SLDTEXTSTYLE0
 73
     1
 44
1.0
  0
ENDBLK
  5
16A
330
168
100
AcDbEntity
  8
0
100
AcDbBlockEnd
  0
BLOCK
  5
16F
330
16E
100
AcDbEntity
  8
0
100
AcDbBlockBegin
  2
SW_NOTE_0_1
 70
     0
 10
0.0
 20
0.0
 30
0.0
  3
SW_NOTE_0_1
  1

  0
MTEXT
  5
172
330
16E
100
AcDbEntity
  8
NOTES
 62
     0
100
AcDbMText
 10
0.0
 20
0.2381282771
 30
0.0
 40
0.184729064
 41
0.0
 71
     1
 72
     1
  1
PROPRIETARY AND CONFIDENTIAL
  7
SLDTEXTSTYLE2
 73
     1
 44
1.0
  0
MTEXT
  5
174
330
16E
100
AcDbEntity
  8
NOTES
 62
     0
100
AcDbMText
 10
0.0
 20
-0.0504364796
 30
0.0
 40
0.25
 41
0.0
 71
     1
 72
     1
  1
THE INFORMATION CONTAINED IN THIS DRAWING IS THE SOLE PROPERTY OF 
  7
SLDTEXTSTYLE3
 73
     1
 44
1.0
  0
MTEXT
  5
175
330
16E
100
AcDbEntity
  8
NOTES
 62
     0
100
AcDbMText
 10
0.0
 20
-0.4231398941
 30
0.0
 40
0.25
 41
0.0
 71
     1
 72
     1
  1
FROST PRODUCTS LTD.  ANY REPRODUCTION IN PART OR AS A WHOLE WITHOUT 
  7
SLDTEXTSTYLE3
 73
     1
 44
1.0
  0
MTEXT
  5
176
330
16E
100
AcDbEntity
  8
NOTES
 62
     0
100
AcDbMText
 10
0.0
 20
-0.7958433086
 30
0.0
 40
0.25
 41
0.0
 71
     1
 72
     1
  1
THE WRITTEN PERMISSION OF FROST PRODUCTS LTD. IS PROHIBITED.
  7
SLDTEXTSTYLE3
 73
     1
 44
1.0
  0
ENDBLK
  5
170
330
16E
100
AcDbEntity
  8
0
100
AcDbBlockEnd
  0
BLOCK
  5
27F
330
27E
100
AcDbEntity
  8
0
100
AcDbBlockBegin
  2
_Open90
 70
     0
 10
0.0
 20
0.0
 30
0.0
  3
_Open90
  1

  0
LINE
  5
281
330
27E
100
AcDbEntity
  8
0
  6
ByBlock
 62
     0
370
    -2
100
AcDbLine
 10
-0.5
 20
0.5
 30
0.0
 11
0.0
 21
0.0
 31
0.0
  0
LINE
  5
282
330
27E
100
AcDbEntity
  8
0
  6
ByBlock
 62
     0
370
    -2
100
AcDbLine
 10
0.0
 20
0.0
 30
0.0
 11
-0.5
 21
-0.5
 31
0.0
  0
LINE
  5
283
330
27E
100
AcDbEntity
  8
0
  6
ByBlock
 62
     0
370
    -2
100
AcDbLine
 10
0.0
 20
0.0
 30
0.0
 11
-1.0
 21
0.0
 31
0.0
  0
ENDBLK
  5
280
330
27E
100
AcDbEntity
  8
0
100
AcDbBlockEnd
  0
BLOCK
  5
285
330
284
100
AcDbEntity
  8
0
100
AcDbBlockBegin
  2
_D
 70
     0
 10
0.0
 20
0.0
 30
0.0
  3
_D
  1

  0
INSERT
  5
287
330
284
100
AcDbEntity
  8
DIMS
100
AcDbBlockReference
  2
_Open90
 10
5.4226829664
 20
18.3993153162
 30
0.0
 41
0.3
 42
0.3
 50
180.0
  0
INSERT
  5
288
330
284
100
AcDbEntity
  8
DIMS
100
AcDbBlockReference
  2
_Open90
 10
45.4305881773
 20
18.3993153162
 30
0.0
 41
0.3
 42
0.3
 50
0.0
  0
LINE
  5
289
330
284
100
AcDbEntity
  8
DIMS
100
AcDbLine
 10
5.4226829664
 20
20.1484442261
 30
0.0
 11
5.4226829664
 21
18.0243153162
 31
0.0
  0
LINE
  5
28A
330
284
100
AcDbEntity
  8
DIMS
100
AcDbLine
 10
45.4305881773
 20
20.1563494369
 30
0.0
 11
45.4305881773
 21
18.0243153162
 31
0.0
  0
LINE
  5
28B
330
284
100
AcDbEntity
  8
DIMS
100
AcDbLine
 10
5.4226829664
 20
18.3993153162
 30
0.0
 11
25.4636488713
 21
18.3993153162
 31
0.0
  0
LINE
  5
28C
330
284
100
AcDbEntity
  8
DIMS
100
AcDbLine
 10
45.4305881773
 20
18.3993153162
 30
0.0
 11
26.4087877263
 21
18.3993153162
 31
0.0
  0
MTEXT
  5
28D
330
284
100
AcDbEntity
  8
DIMS
100
AcDbMText
 10
25.4636488713
 20
18.6411122343
 30
0.0
 40
0.5
 41
0.0
 71
     1
 72
     1
  1
40"
  7
SLDTEXTSTYLE1
 73
     1
 44
1.0
  0
ENDBLK
  5
286
330
284
100
AcDbEntity
  8
0
100
AcDbBlockEnd
  0
BLOCK
  5
290
330
28F
100
AcDbEntity
  8
0
100
AcDbBlockBegin
  2
_D_1
 70
     0
 10
0.0
 20
0.0
 30
0.0
  3
_D_1
  1

  0
INSERT
  5
292
330
28F
100
AcDbEntity
  8
DIMS
100
AcDbBlockReference
  2
_Open90
 10
3.5068873899
 20
20.3151108927
 30
0.0
 41
0.3
 42
0.3
 50
270.0
  0
INSERT
  5
293
330
28F
100
AcDbEntity
  8
DIMS
100
AcDbBlockReference
  2
_Open90
 10
3.5068873899
 20
50.3230161036
 30
0.0
 41
0.3
 42
0.3
 50
90.0
  0
LINE
  5
294
330
28F
100
AcDbEntity
  8
DIMS
100
AcDbLine
 10
5.2560162998
 20
20.3151108927
 30
0.0
 11
3.1318873899
 21
20.3151108927
 31
0.0
  0
LINE
  5
295
330
28F
100
AcDbEntity
  8
DIMS
100
AcDbLine
 10
5.2639215107
 20
50.3230161036
 30
0.0
 11
3.1318873899
 21
50.3230161036
 31
0.0
  0
LINE
  5
296
330
28F
100
AcDbEntity
  8
DIMS
100
AcDbLine
 10
3.5068873899
 20
20.3151108927
 30
0.0
 11
3.5068873899
 21
35.6741369003
 31
0.0
  0
LINE
  5
297
330
28F
100
AcDbEntity
  8
DIMS
100
AcDbLine
 10
3.5068873899
 20
50.3230161036
 30
0.0
 11
3.5068873899
 21
36.4678869242
 31
0.0
  0
MTEXT
  5
298
330
28F
100
AcDbEntity
  8
DIMS
100
AcDbMText
 10
3.0343179624
 20
36.3128088303
 30
0.0
 40
0.5
 41
0.0
 71
     1
 72
     1
  1
30"
  7
SLDTEXTSTYLE1
 73
     1
 44
1.0
  0
ENDBLK
  5
291
330
28F
100
AcDbEntity
  8
0
100
AcDbBlockEnd
  0
BLOCK
  5
29B
330
29A
100
AcDbEntity
  8
0
100
AcDbBlockBegin
  2
_D_2
 70
     0
 10
0.0
 20
0.0
 30
0.0
  3
_D_2
  1

  0
INSERT
  5
29D
330
29A
100
AcDbEntity
  8
DIMS
100
AcDbBlockReference
  2
_Open90
 10
3.5068873899
 20
20.3151108927
 30
0.0
 41
0.3
 42
0.3
 50
90.0
  0
INSERT
  5
29E
330
29A
100
AcDbEntity
  8
DIMS
100
AcDbBlockReference
  2
_Open90
 10
3.5068873899
 20
8.3230161036
 30
0.0
 41
0.3
 42
0.3
 50
270.0
  0
LINE
  5
29F
330
29A
100
AcDbEntity
  8
DIMS
100
AcDbLine
 10
5.2560162998
 20
20.3151108927
 30
0.0
 11
3.1318873899
 21
20.3151108927
 31
0.0
  0
LINE
  5
2A0
330
29A
100
AcDbEntity
  8
DIMS
100
AcDbLine
 10
3.5068873899
 20
20.3151108927
 30
0.0
 11
3.5068873899
 21
11.4089474847
 31
0.0
  0
MTEXT
  5
2A1
330
29A
100
AcDbEntity
  8
DIMS
100
AcDbMText
 10
3.0343179624
 20
11.2538693908
 30
0.0
 40
0.5
 41
0.0
 71
     1
 72
     1
  1
24"
  7
SLDTEXTSTYLE1
 73
     1
 44
1.0
  0
MTEXT
  5
2A2
330
29A
100
AcDbEntity
  8
DIMS
100
AcDbMText
 10
3.4145262785
 20
6.4913692476
 30
0.0
 40
0.5
 41
0.0
 71
     1
 72
     1
  1
 
  7
SLDTEXTSTYLE1
 73
     1
 44
1.0
  0
ENDBLK
  5
29C
330
29A
100
AcDbEntity
  8
0
100
AcDbBlockEnd
  0
BLOCK
  5
2A5
330
2A4
100
AcDbEntity
  8
0
100
AcDbBlockBegin
  2
_D_3
 70
     0
 10
0.0
 20
0.0
 30
0.0
  3
_D_3
  1

  0
INSERT
  5
2A7
330
2A4
100
AcDbEntity
  8
DIMS
100
AcDbBlockReference
  2
_Open90
 10
45.4305881773
 20
18.3993153162
 30
0.0
 41
0.3
 42
0.3
 50
180.0
  0
INSERT
  5
2A8
330
2A4
100
AcDbEntity
  8
DIMS
100
AcDbBlockReference
  2
_Open90
 10
52.0326810725
 20
18.3993153162
 30
0.0
 41
0.3
 42
0.3
 50
0.0
  0
LINE
  5
2A9
330
2A4
100
AcDbEntity
  8
DIMS
100
AcDbLine
 10
45.4305881773
 20
20.1563494369
 30
0.0
 11
45.4305881773
 21
18.0243153162
 31
0.0
  0
LINE
  5
2AA
330
2A4
100
AcDbEntity
  8
DIMS
100
AcDbLine
 10
45.4305881773
 20
18.3993153162
 30
0.0
 11
48.2385876446
 21
18.3993153162
 31
0.0
  0
MTEXT
  5
2AB
330
2A4
100
AcDbEntity
  8
DIMS
100
AcDbMText
 10
48.2385876446
 20
18.6411122343
 30
0.0
 40
0.5
 41
0.0
 71
     1
 72
     1
  1
20"                
  7
SLDTEXTSTYLE1
 73
     1
 44
1.0
  0
ENDBLK
  5
2A6
330
2A4
100
AcDbEntity
  8
0
100
AcDbBlockEnd
  0
BLOCK
  5
2AE
330
2AD
100
AcDbEntity
  8
0
100
AcDbBlockBegin
  2
_D_4
 70
     0
 10
0.0
 20
0.0
 30
0.0
  3
_D_4
  1

  0
INSERT
  5
2B0
330
2AD
100
AcDbEntity
  8
DIMS
100
AcDbBlockReference
  2
_Open90
 10
13.4305881773
 20
24.2726211116
 30
0.0
 41
0.3
 42
0.3
 50
180.0
  0
INSERT
  5
2B1
330
2AD
100
AcDbEntity
  8
DIMS
100
AcDbBlockReference
  2
_Open90
 10
41.4305881773
 20
24.2726211116
 30
0.0
 41
0.3
 42
0.3
 50
0.0
  0
LINE
  5
2B2
330
2AD
100
AcDbEntity
  8
DIMS
100
AcDbLine
 10
13.4305881773
 20
21.1221827703
 30
0.0
 11
13.4305881773
 21
24.6476211116
 31
0.0
  0
LINE
  5
2B3
330
2AD
100
AcDbEntity
  8
DIMS
100
AcDbLine
 10
41.4305881773
 20
21.1221827703
 30
0.0
 11
41.4305881773
 21
24.6476211116
 31
0.0
  0
LINE
  5
2B4
330
2AD
100
AcDbEntity
  8
DIMS
100
AcDbLine
 10
13.4305881773
 20
24.2726211116
 30
0.0
 11
26.5667850598
 21
24.2726211116
 31
0.0
  0
LINE
  5
2B5
330
2AD
100
AcDbEntity
  8
DIMS
100
AcDbLine
 10
41.4305881773
 20
24.2726211116
 30
0.0
 11
27.5119239148
 21
24.2726211116
 31
0.0
  0
MTEXT
  5
2B6
330
2AD
100
AcDbEntity
  8
DIMS
100
AcDbMText
 10
26.5667850598
 20
24.5144180297
 30
0.0
 40
0.5
 41
0.0
 71
     1
 72
     1
  1
28"
  7
SLDTEXTSTYLE1
 73
     1
 44
1.0
  0
ENDBLK
  5
2AF
330
2AD
100
AcDbEntity
  8
0
100
AcDbBlockEnd
  0
BLOCK
  5
2B9
330
2B8
100
AcDbEntity
  8
0
100
AcDbBlockBegin
  2
_D_5
 70
     0
 10
0.0
 20
0.0
 30
0.0
  3
_D_5
  1

  0
INSERT
  5
2BB
330
2B8
100
AcDbEntity
  8
DIMS
100
AcDbBlockReference
  2
_Open90
 10
41.4305881773
 20
24.2574472369
 30
0.0
 41
0.3
 42
0.3
 50
180.0
  0
INSERT
  5
2BC
330
2B8
100
AcDbEntity
  8
DIMS
100
AcDbBlockReference
  2
_Open90
 10
45.4305881773
 20
24.2574472369
 30
0.0
 41
0.3
 42
0.3
 50
0.0
  0
LINE
  5
2BD
330
2B8
100
AcDbEntity
  8
DIMS
100
AcDbLine
 10
41.4305881773
 20
21.1221827703
 30
0.0
 11
41.4305881773
 21
24.6324472369
 31
0.0
  0
LINE
  5
2BE
330
2B8
100
AcDbEntity
  8
DIMS
100
AcDbLine
 10
45.4305881773
 20
20.4896827703
 30
0.0
 11
45.4305881773
 21
24.6324472369
 31
0.0
  0
LINE
  5
2BF
330
2B8
100
AcDbEntity
  8
DIMS
100
AcDbLine
 10
41.4305881773
 20
24.2574472369
 30
0.0
 11
43.2870068688
 21
24.2574472369
 31
0.0
  0
LINE
  5
2C0
330
2B8
100
AcDbEntity
  8
DIMS
100
AcDbLine
 10
45.4305881773
 20
24.2574472369
 30
0.0
 11
43.862701315
 21
24.2574472369
 31
0.0
  0
MTEXT
  5
2C1
330
2B8
100
AcDbEntity
  8
DIMS
100
AcDbMText
 10
43.2870068688
 20
24.499244155
 30
0.0
 40
0.5
 41
0.0
 71
     1
 72
     1
  1
4"
  7
SLDTEXTSTYLE1
 73
     1
 44
1.0
  0
ENDBLK
  5
2BA
330
2B8
100
AcDbEntity
  8
0
100
AcDbBlockEnd
  0
BLOCK
  5
2C4
330
2C3
100
AcDbEntity
  8
0
100
AcDbBlockBegin
  2
_D_6
 70
     0
 10
0.0
 20
0.0
 30
0.0
  3
_D_6
  1

  0
INSERT
  5
2C6
330
2C3
100
AcDbEntity
  8
DIMS
100
AcDbBlockReference
  2
_Open90
 10
7.2619396491
 20
46.3230161036
 30
0.0
 41
0.3
 42
0.3
 50
90.0
  0
INSERT
  5
2C7
330
2C3
100
AcDbEntity
  8
DIMS
100
AcDbBlockReference
  2
_Open90
 10
7.2619396491
 20
24.3230161036
 30
0.0
 41
0.3
 42
0.3
 50
270.0
  0
LINE
  5
2C8
330
2C3
100
AcDbEntity
  8
DIMS
100
AcDbLine
 10
6.229754844
 20
46.3230161036
 30
0.0
 11
7.6369396491
 21
46.3230161036
 31
0.0
  0
LINE
  5
2C9
330
2C3
100
AcDbEntity
  8
DIMS
100
AcDbLine
 10
6.229754844
 20
24.3230161036
 30
0.0
 11
7.6369396491
 21
24.3230161036
 31
0.0
  0
LINE
  5
2CA
330
2C3
100
AcDbEntity
  8
DIMS
100
AcDbLine
 10
7.2619396491
 20
46.3230161036
 30
0.0
 11
7.2619396491
 21
36.4678869242
 31
0.0
  0
LINE
  5
2CB
330
2C3
100
AcDbEntity
  8
DIMS
100
AcDbLine
 10
7.2619396491
 20
24.3230161036
 30
0.0
 11
7.2619396491
 21
35.6741369003
 31
0.0
  0
MTEXT
  5
2CC
330
2C3
100
AcDbEntity
  8
DIMS
100
AcDbMText
 10
6.7893702216
 20
36.3128088303
 30
0.0
 40
0.5
 41
0.0
 71
     1
 72
     1
  1
22"
  7
SLDTEXTSTYLE1
 73
     1
 44
1.0
  0
ENDBLK
  5
2C5
330
2C3
100
AcDbEntity
  8
0
100
AcDbBlockEnd
  0
BLOCK
  5
2D0
330
2CF
100
AcDbEntity
  8
0
100
AcDbBlockBegin
  2
_D_7
 70
     0
 10
0.0
 20
0.0
 30
0.0
  3
_D_7
  1

  0
INSERT
  5
2D2
330
2CF
100
AcDbEntity
  8
DIMS
100
AcDbBlockReference
  2
_Open90
 10
6.5087593577
 20
51.4085790478
 30
-1.5
 41
0.3
 42
0.3
 50
225.1957334868
  0
LINE
  5
2D3
330
2CF
100
AcDbEntity
  8
DIMS
100
AcDbLine
 10
9.7896884399
 20
53.2562538934
 30
0.0
 11
10.6751051348
 21
53.2562538934
 31
0.0
  0
LINE
  5
2D4
330
2CF
100
AcDbEntity
  8
DIMS
100
AcDbLine
 10
6.5087593577
 20
51.4085790478
 30
0.0
 11
8.2929176101
 21
53.204969195
 31
0.0
  0
LINE
  5
2D5
330
2CF
100
AcDbEntity
  8
DIMS
100
AcDbLine
 10
8.2929176101
 20
53.204969195
 30
0.0
 11
8.5929176101
 21
53.204969195
 31
0.0
  0
MTEXT
  5
2D6
330
2CF
100
AcDbEntity
  8
DIMS
100
AcDbMText
 10
8.5929176101
 20
53.4780160646
 30
0.0
 40
0.5
 41
0.0
 71
     1
 72
     1
  1
%%c
  7
SLDTEXTSTYLE1
 73
     1
 44
1.0
  0
MTEXT
  5
2D7
330
2CF
100
AcDbEntity
  8
DIMS
100
AcDbMText
 10
9.3469800924
 20
53.4856549539
 30
0.0
 40
0.5
 41
0.0
 71
     1
 72
     1
  1
3
  7
SLDTEXTSTYLE1
 73
     1
 44
1.0
  0
MTEXT
  5
2D8
330
2CF
100
AcDbEntity
  8
DIMS
100
AcDbMText
 10
10.0476745646
 20
53.8509674529
 30
0.0
 40
0.5
 41
0.0
 71
     1
 72
     1
  1
1
  7
SLDTEXTSTYLE1
 73
     1
 44
1.0
  0
MTEXT
  5
2D9
330
2CF
100
AcDbEntity
  8
DIMS
100
AcDbMText
 10
9.8629523418
 20
53.1897868744
 30
0.0
 40
0.5
 41
0.0
 71
     1
 72
     1
  1
16
  7
SLDTEXTSTYLE1
 73
     1
 44
1.0
  0
MTEXT
  5
2DA
330
2CF
100
AcDbEntity
  8
DIMS
100
AcDbMText
 10
10.7483691101
 20
53.4856549539
 30
0.0
 40
0.5
 41
0.0
 71
     1
 72
     1
  1
"
  7
SLDTEXTSTYLE1
 73
     1
 44
1.0
  0
ENDBLK
  5
2D1
330
2CF
100
AcDbEntity
  8
0
100
AcDbBlockEnd
  0
BLOCK
  5
2DE
330
2DD
100
AcDbEntity
  8
0
100
AcDbBlockBegin
  2
_D_8
 70
     0
 10
0.0
 20
0.0
 30
0.0
  3
_D_8
  1

  0
INSERT
  5
2E0
330
2DD
100
AcDbEntity
  8
DIMS
100
AcDbBlockReference
  2
_Open90
 10
11.3680881773
 20
25.424606038
 30
-1.5
 41
0.3
 42
0.3
 50
180.0
  0
INSERT
  5
2E1
330
2DD
100
AcDbEntity
  8
DIMS
100
AcDbBlockReference
  2
_Open90
 10
45.4305881773
 20
25.424606038
 30
-1.5
 41
0.3
 42
0.3
 50
0.0
  0
LINE
  5
2E2
330
2DD
100
AcDbEntity
  8
DIMS
100
AcDbLine
 10
29.4535029295
 20
25.4758907364
 30
0.0
 11
30.3389196244
 21
25.4758907364
 31
0.0
  0
LINE
  5
2E3
330
2DD
100
AcDbEntity
  8
DIMS
100
AcDbLine
 10
11.3680881773
 20
20.4896827703
 30
0.0
 11
11.3680881773
 21
25.799606038
 31
0.0
  0
LINE
  5
2E4
330
2DD
100
AcDbEntity
  8
DIMS
100
AcDbLine
 10
45.4305881773
 20
20.4896827703
 30
0.0
 11
45.4305881773
 21
25.799606038
 31
0.0
  0
LINE
  5
2E5
330
2DD
100
AcDbEntity
  8
DIMS
100
AcDbLine
 10
11.3680881773
 20
25.424606038
 30
0.0
 11
28.6413501365
 21
25.424606038
 31
0.0
  0
LINE
  5
2E6
330
2DD
100
AcDbEntity
  8
DIMS
100
AcDbLine
 10
45.4305881773
 20
25.424606038
 30
0.0
 11
30.6184335637
 21
25.424606038
 31
0.0
  0
MTEXT
  5
2E7
330
2DD
100
AcDbEntity
  8
DIMS
100
AcDbMText
 10
28.6413501365
 20
25.7052917968
 30
0.0
 40
0.5
 41
0.0
 71
     1
 72
     1
  1
34
  7
SLDTEXTSTYLE1
 73
     1
 44
1.0
  0
MTEXT
  5
2E8
330
2DD
100
AcDbEntity
  8
DIMS
100
AcDbMText
 10
29.7114890542
 20
26.0706042959
 30
0.0
 40
0.5
 41
0.0
 71
     1
 72
     1
  1
1
  7
SLDTEXTSTYLE1
 73
     1
 44
1.0
  0
MTEXT
  5
2E9
330
2DD
100
AcDbEntity
  8
DIMS
100
AcDbMText
 10
29.5267668314
 20
25.4094237173
 30
0.0
 40
0.5
 41
0.0
 71
     1
 72
     1
  1
16
  7
SLDTEXTSTYLE1
 73
     1
 44
1.0
  0
MTEXT
  5
2EA
330
2DD
100
AcDbEntity
  8
DIMS
100
AcDbMText
 10
30.4121835997
 20
25.7052917968
 30
0.0
 40
0.5
 41
0.0
 71
     1
 72
     1
  1
"
  7
SLDTEXTSTYLE1
 73
     1
 44
1.0
  0
ENDBLK
  5
2DF
330
2DD
100
AcDbEntity
  8
0
100
AcDbBlockEnd
  0
BLOCK
  5
2ED
330
2EC
100
AcDbEntity
  8
0
100
AcDbBlockBegin
  2
SW_NOTE_0_2
 70
     0
 10
0.0
 20
0.0
 30
0.0
  3
SW_NOTE_0_2
  1

  0
MTEXT
  5
2EF
330
2EC
100
AcDbEntity
  8
NOTES
 62
     0
100
AcDbMText
 10
0.0231286922
 20
0.2430225731
 30
0.0
 40
0.5
 41
0.0
 71
     1
 72
     1
  1
remove flange cover to 
  7
SLDTEXTSTYLE1
 73
     1
 44
1.0
  0
MTEXT
  5
2F0
330
2EC
100
AcDbEntity
  8
NOTES
 62
     0
100
AcDbMText
 10
0.0231286922
 20
-0.4035052249
 30
0.0
 40
0.5
 41
0.0
 71
     1
 72
     1
  1
access mounting holes
  7
SLDTEXTSTYLE1
 73
     1
 44
1.0
  0
ENDBLK
  5
2EE
330
2EC
100
AcDbEntity
  8
0
100
AcDbBlockEnd
  0
BLOCK
  5
2FA
330
2F9
100
AcDbEntity
  8
0
100
AcDbBlockBegin
  2
_Origin
 70
     0
 10
0.0
 20
0.0
 30
0.0
  3
_Origin
  1

  0
CIRCLE
  5
2FC
330
2F9
100
AcDbEntity
  8
0
  6
ByBlock
 62
     0
370
    -2
100
AcDbCircle
 10
0.0
 20
0.0
 30
0.0
 40
0.5
  0
LINE
  5
2FD
330
2F9
100
AcDbEntity
  8
0
  6
ByBlock
 62
     0
370
    -2
100
AcDbLine
 10
0.0
 20
0.0
 30
0.0
 11
-1.0
 21
0.0
 31
0.0
  0
ENDBLK
  5
2FB
330
2F9
100
AcDbEntity
  8
0
100
AcDbBlockEnd
  0
BLOCK
  5
321
330
320
100
AcDbEntity
  8
0
100
AcDbBlockBegin
  2
_D_9
 70
     0
 10
0.0
 20
0.0
 30
0.0
  3
_D_9
  1

  0
INSERT
  5
323
330
320
100
AcDbEntity
  8
DIMS
100
AcDbBlockReference
  2
_Open90
 10
62.5869419032
 20
23.1099752037
 30
9.75
 41
0.3
 42
0.3
 50
180.0
  0
INSERT
  5
324
330
320
100
AcDbEntity
  8
DIMS
100
AcDbBlockReference
  2
_Open90
 10
61.3219419032
 20
23.1099752037
 30
9.75
 41
0.3
 42
0.3
 50
0.0
  0
LINE
  5
325
330
320
100
AcDbEntity
  8
DIMS
100
AcDbLine
 10
59.2102085061
 20
23.161259902
 30
0.0
 11
59.7261807555
 21
23.161259902
 31
0.0
  0
LINE
  5
326
330
320
100
AcDbEntity
  8
DIMS
100
AcDbLine
 10
62.5869419032
 20
23.1099752037
 30
0.0
 11
62.8869419032
 21
23.1099752037
 31
0.0
  0
LINE
  5
327
330
320
100
AcDbEntity
  8
DIMS
100
AcDbLine
 10
61.3219419032
 20
23.1099752037
 30
0.0
 11
60.0056946215
 21
23.1099752037
 31
0.0
  0
MTEXT
  5
328
330
320
100
AcDbEntity
  8
DIMS
100
AcDbMText
 10
58.0134376763
 20
23.3830220732
 30
0.0
 40
0.5
 41
0.0
 71
     1
 72
     1
  1
%%c
  7
SLDTEXTSTYLE1
 73
     1
 44
1.0
  0
MTEXT
  5
329
330
320
100
AcDbEntity
  8
DIMS
100
AcDbMText
 10
58.7675001586
 20
23.3906609625
 30
0.0
 40
0.5
 41
0.0
 71
     1
 72
     1
  1
1
  7
SLDTEXTSTYLE1
 73
     1
 44
1.0
  0
MTEXT
  5
32A
330
320
100
AcDbEntity
  8
DIMS
100
AcDbMText
 10
59.283472408
 20
23.7559734615
 30
0.0
 40
0.5
 41
0.0
 71
     1
 72
     1
  1
1
  7
SLDTEXTSTYLE1
 73
     1
 44
1.0
  0
MTEXT
  5
32B
330
320
100
AcDbEntity
  8
DIMS
100
AcDbMText
 10
59.283472408
 20
23.094792883
 30
0.0
 40
0.5
 41
0.0
 71
     1
 72
     1
  1
4
  7
SLDTEXTSTYLE1
 73
     1
 44
1.0
  0
MTEXT
  5
32C
330
320
100
AcDbEntity
  8
DIMS
100
AcDbMText
 10
59.7994446575
 20
23.3906609625
 30
0.0
 40
0.5
 41
0.0
 71
     1
 72
     1
  1
"
  7
SLDTEXTSTYLE1
 73
     1
 44
1.0
  0
ENDBLK
  5
322
330
320
100
AcDbEntity
  8
0
100
AcDbBlockEnd
  0
BLOCK
  5
32F
330
32E
100
AcDbEntity
  8
0
100
AcDbBlockBegin
  2
_D_10
 70
     0
 10
0.0
 20
0.0
 30
0.0
  3
_D_10
  1

  0
INSERT
  5
331
330
32E
100
AcDbEntity
  8
DIMS
100
AcDbBlockReference
  2
_Open90
 10
64.1424419032
 20
23.1099752037
 30
9.75
 41
0.3
 42
0.3
 50
0.0
  0
INSERT
  5
332
330
32E
100
AcDbEntity
  8
DIMS
100
AcDbBlockReference
  2
_Open90
 10
62.5869419032
 20
23.1099752037
 30
9.75
 41
0.3
 42
0.3
 50
180.0
  0
LINE
  5
333
330
32E
100
AcDbEntity
  8
DIMS
100
AcDbLine
 10
66.0647953634
 20
23.161259902
 30
0.0
 11
66.9502120583
 21
23.161259902
 31
0.0
  0
LINE
  5
334
330
32E
100
AcDbEntity
  8
DIMS
100
AcDbLine
 10
64.1424419032
 20
22.0196827703
 30
0.0
 11
64.1424419032
 21
23.4849752037
 31
0.0
  0
LINE
  5
335
330
32E
100
AcDbEntity
  8
DIMS
100
AcDbLine
 10
64.1424419032
 20
23.1099752037
 30
0.0
 11
65.6220870159
 21
23.1099752037
 31
0.0
  0
LINE
  5
336
330
32E
100
AcDbEntity
  8
DIMS
100
AcDbLine
 10
62.5869419032
 20
23.1099752037
 30
0.0
 11
64.1424419032
 21
23.1099752037
 31
0.0
  0
MTEXT
  5
337
330
32E
100
AcDbEntity
  8
DIMS
100
AcDbMText
 10
65.6220870159
 20
23.3906609625
 30
0.0
 40
0.5
 41
0.0
 71
     1
 72
     1
  1
1
  7
SLDTEXTSTYLE1
 73
     1
 44
1.0
  0
MTEXT
  5
338
330
32E
100
AcDbEntity
  8
DIMS
100
AcDbMText
 10
66.3227814881
 20
23.7559734615
 30
0.0
 40
0.5
 41
0.0
 71
     1
 72
     1
  1
9
  7
SLDTEXTSTYLE1
 73
     1
 44
1.0
  0
MTEXT
  5
339
330
32E
100
AcDbEntity
  8
DIMS
100
AcDbMText
 10
66.1380592653
 20
23.094792883
 30
0.0
 40
0.5
 41
0.0
 71
     1
 72
     1
  1
16
  7
SLDTEXTSTYLE1
 73
     1
 44
1.0
  0
MTEXT
  5
33A
330
32E
100
AcDbEntity
  8
DIMS
100
AcDbMText
 10
67.0234759603
 20
23.3906609625
 30
0.0
 40
0.5
 41
0.0
 71
     1
 72
     1
  1
"
  7
SLDTEXTSTYLE1
 73
     1
 44
1.0
  0
ENDBLK
  5
330
330
32E
100
AcDbEntity
  8
0
100
AcDbBlockEnd
  0
BLOCK
  5
33D
330
33C
100
AcDbEntity
  8
0
100
AcDbBlockBegin
  2
_D_11
 70
     0
 10
0.0
 20
0.0
 30
0.0
  3
_D_11
  1

  0
INSERT
  5
33F
330
33C
100
AcDbEntity
  8
DIMS
100
AcDbBlockReference
  2
_Open90
 10
64.1424419032
 20
18.1630948438
 30
9.75
 41
0.3
 42
0.3
 50
0.0
  0
INSERT
  5
340
330
33C
100
AcDbEntity
  8
DIMS
100
AcDbBlockReference
  2
_Open90
 10
61.3219419032
 20
18.1630948438
 30
9.75
 41
0.3
 42
0.3
 50
180.0
  0
LINE
  5
341
330
33C
100
AcDbEntity
  8
DIMS
100
AcDbLine
 10
62.2256875178
 20
18.2143795422
 30
0.0
 11
63.1111042127
 21
18.2143795422
 31
0.0
  0
LINE
  5
342
330
33C
100
AcDbEntity
  8
DIMS
100
AcDbLine
 10
64.1424419032
 20
20.7843494369
 30
0.0
 11
64.1424419032
 21
17.7880948438
 31
0.0
  0
LINE
  5
343
330
33C
100
AcDbEntity
  8
DIMS
100
AcDbLine
 10
61.3219419032
 20
24.1563494369
 30
0.0
 11
61.3219419032
 21
17.7880948438
 31
0.0
  0
LINE
  5
344
330
33C
100
AcDbEntity
  8
DIMS
100
AcDbLine
 10
64.1424419032
 20
18.1630948438
 30
0.0
 11
63.3906180788
 21
18.1630948438
 31
0.0
  0
LINE
  5
345
330
33C
100
AcDbEntity
  8
DIMS
100
AcDbLine
 10
61.3219419032
 20
18.1630948438
 30
0.0
 11
61.7829791704
 21
18.1630948438
 31
0.0
  0
MTEXT
  5
346
330
33C
100
AcDbEntity
  8
DIMS
100
AcDbMText
 10
61.7829791704
 20
18.4437806026
 30
0.0
 40
0.5
 41
0.0
 71
     1
 72
     1
  1
2
  7
SLDTEXTSTYLE1
 73
     1
 44
1.0
  0
MTEXT
  5
347
330
33C
100
AcDbEntity
  8
DIMS
100
AcDbMText
 10
62.2989514198
 20
18.8090931016
 30
0.0
 40
0.5
 41
0.0
 71
     1
 72
     1
  1
13
  7
SLDTEXTSTYLE1
 73
     1
 44
1.0
  0
MTEXT
  5
348
330
33C
100
AcDbEntity
  8
DIMS
100
AcDbMText
 10
62.2989514198
 20
18.1479125231
 30
0.0
 40
0.5
 41
0.0
 71
     1
 72
     1
  1
16
  7
SLDTEXTSTYLE1
 73
     1
 44
1.0
  0
MTEXT
  5
349
330
33C
100
AcDbEntity
  8
DIMS
100
AcDbMText
 10
63.1843681147
 20
18.4437806026
 30
0.0
 40
0.5
 41
0.0
 71
     1
 72
     1
  1
"
  7
SLDTEXTSTYLE1
 73
     1
 44
1.0
  0
ENDBLK
  5
33E
330
33C
100
AcDbEntity
  8
0
100
AcDbBlockEnd
  0
BLOCK
  5
389
330
388
100
AcDbEntity
  8
0
100
AcDbBlockBegin
  2
SW_NOTE_0_3
 70
     0
 10
0.0
 20
0.0
 30
0.0
  3
SW_NOTE_0_3
  1

  0
MTEXT
  5
38B
330
388
100
AcDbEntity
  8
NOTES
 62
     0
100
AcDbMText
 10
0.0
 20
0.638671875
 30
0.0
 40
0.5
 41
0.0
 71
     1
 72
     1
  1
3D view
  7
SLDTEXTSTYLE1
 73
     1
 44
1.0
  0
MTEXT
  5
38C
330
388
100
AcDbEntity
  8
NOTES
 62
     0
100
AcDbMText
 10
0.0
 20
-0.3613281771
 30
0.0
 40
0.5
 41
0.0
 71
     1
 72
     1
  1
1003-SP 40x30R
  7
SLDTEXTSTYLE1
 73
     1
 44
1.0
  0
ENDBLK
  5
38A
330
388
100
AcDbEntity
  8
0
100
AcDbBlockEnd
  0
ENDSEC
  0
SECTION
  2
ENTITIES
  0
LINE
  5
7A
330
1F
100
AcDbEntity
  8
TITLE
370
    35
100
AcDbLine
 10
72.5182230965
 20
1.4876117645
 30
0.0
 11
89.4999864512
 21
1.4876117645
 31
0.0
  0
LINE
  5
7B
330
1F
100
AcDbEntity
  8
TITLE
370
    35
100
AcDbLine
 10
89.4999317442
 20
5.4753603936
 30
0.0
 11
79.3105350723
 21
5.4753603936
 31
0.0
  0
LINE
  5
7C
330
1F
100
AcDbEntity
  8
TITLE
  6
SLD-Solid
370
    18
100
AcDbLine
 10
0.5
 20
0.5
 30
0.0
 11
0.5
 21
119.5
 31
0.0
  0
LINE
  5
7D
330
1F
100
AcDbEntity
  8
TITLE
  6
SLD-Solid
370
    18
100
AcDbLine
 10
0.5
 20
119.5
 30
0.0
 11
89.5
 21
119.5
 31
0.0
  0
LINE
  5
7E
330
1F
100
AcDbEntity
  8
TITLE
370
    35
100
AcDbLine
 10
72.5182230965
 20
2.5427877231
 30
0.0
 11
65.5059791203
 21
2.5427877231
 31
0.0
  0
LINE
  5
7F
330
1F
100
AcDbEntity
  8
TITLE
370
    35
100
AcDbLine
 10
72.5182230965
 20
1.4876117645
 30
0.0
 11
65.5059791203
 21
1.4876117645
 31
0.0
  0
LINE
  5
80
330
1F
100
AcDbEntity
  8
TITLE
  6
SLD-Solid
370
    18
100
AcDbLine
 10
89.5
 20
119.5
 30
0.0
 11
89.5
 21
0.5
 31
0.0
  0
LINE
  5
81
330
1F
100
AcDbEntity
  8
TITLE
  6
SLD-Solid
370
    18
100
AcDbLine
 10
89.5
 20
0.5
 30
0.0
 11
0.5
 21
0.5
 31
0.0
  0
LINE
  5
82
330
1F
100
AcDbEntity
  8
TITLE
370
    35
100
AcDbLine
 10
72.5182230965
 20
1.4876117645
 30
0.0
 11
72.5182230965
 21
3.5979636817
 31
0.0
  0
LINE
  5
83
330
1F
100
AcDbEntity
  8
TITLE
370
    35
100
AcDbLine
 10
65.5059791203
 20
3.5979636817
 30
0.0
 11
65.5059791203
 21
0.5
 31
0.0
  0
LINE
  5
84
330
1F
100
AcDbEntity
  8
TITLE
370
    35
100
AcDbLine
 10
65.5059791203
 20
0.5
 30
0.0
 11
89.5
 21
0.5
 31
0.0
  0
LINE
  5
85
330
1F
100
AcDbEntity
  8
TITLE
370
    35
100
AcDbLine
 10
89.4999317442
 20
5.4753603936
 30
0.0
 11
89.5
 21
0.5
 31
0.0
  0
LINE
  5
86
330
1F
100
AcDbEntity
  8
TITLE
  6
SLD-Solid
370
    18
100
AcDbLine
 10
0.4999606299
 20
60.0
 30
0.0
 11
0.5000393701
 21
60.0
 31
0.0
  0
LINE
  5
87
330
1F
100
AcDbEntity
  8
TITLE
370
    35
100
AcDbLine
 10
72.5182230965
 20
3.5979636817
 30
0.0
 11
65.5059791203
 21
3.5979636817
 31
0.0
  0
LINE
  5
88
330
1F
100
AcDbEntity
  8
TITLE
370
    35
100
AcDbLine
 10
72.5182230965
 20
3.5979636817
 30
0.0
 11
89.4997615643
 21
3.5979648343
 31
0.0
  0
LINE
  5
89
330
1F
100
AcDbEntity
  8
TITLE
370
    35
100
AcDbLine
 10
79.3105350723
 20
5.4753603936
 30
0.0
 11
79.3105350723
 21
0.4636772425
 31
0.0
  0
LINE
  5
8A
330
1F
100
AcDbEntity
  8
TITLE
  6
SLD-Solid
370
    18
100
AcDbLine
 10
45.0
 20
119.5000393701
 30
0.0
 11
45.0
 21
119.4999606299
 31
0.0
  0
LINE
  5
8B
330
1F
100
AcDbEntity
  8
TITLE
  6
SLD-Solid
370
    18
100
AcDbLine
 10
89.5000393701
 20
60.0
 30
0.0
 11
89.4999606299
 21
60.0
 31
0.0
  0
LINE
  5
8C
330
1F
100
AcDbEntity
  8
TITLE
  6
SLD-Solid
370
    18
100
AcDbLine
 10
45.0
 20
0.4999606299
 30
0.0
 11
45.0
 21
0.5000393701
 31
0.0
  0
LINE
  5
8D
330
1F
100
AcDbEntity
  8
TITLE
  6
SLD-Solid
370
    18
100
AcDbLine
 10
0.5
 20
2.9133858268
 30
0.0
 11
0.1653543307
 21
2.9133858268
 31
0.0
  0
LINE
  5
8E
330
1F
100
AcDbEntity
  8
TITLE
  6
SLD-Solid
370
    18
100
AcDbLine
 10
89.5
 20
2.9133858268
 30
0.0
 11
89.8346456693
 21
2.9133858268
 31
0.0
  0
LINE
  5
8F
330
1F
100
AcDbEntity
  8
TITLE
  6
SLD-Solid
370
    18
100
AcDbLine
 10
0.5
 20
4.8818897638
 30
0.0
 11
0.1653543307
 21
4.8818897638
 31
0.0
  0
LINE
  5
90
330
1F
100
AcDbEntity
  8
TITLE
  6
SLD-Solid
370
    18
100
AcDbLine
 10
89.5
 20
4.8818897638
 30
0.0
 11
89.8346456693
 21
4.8818897638
 31
0.0
  0
LINE
  5
91
330
1F
100
AcDbEntity
  8
TITLE
  6
SLD-Solid
370
    18
100
AcDbLine
 10
0.5
 20
6.8503937008
 30
0.0
 11
0.1653543307
 21
6.8503937008
 31
0.0
  0
LINE
  5
92
330
1F
100
AcDbEntity
  8
TITLE
  6
SLD-Solid
370
    18
100
AcDbLine
 10
89.5
 20
6.8503937008
 30
0.0
 11
89.8346456693
 21
6.8503937008
 31
0.0
  0
LINE
  5
93
330
1F
100
AcDbEntity
  8
TITLE
  6
SLD-Solid
370
    18
100
AcDbLine
 10
0.5
 20
8.8188976378
 30
0.0
 11
0.1653543307
 21
8.8188976378
 31
0.0
  0
LINE
  5
94
330
1F
100
AcDbEntity
  8
TITLE
  6
SLD-Solid
370
    18
100
AcDbLine
 10
89.5
 20
8.8188976378
 30
0.0
 11
89.8346456693
 21
8.8188976378
 31
0.0
  0
LINE
  5
95
330
1F
100
AcDbEntity
  8
TITLE
  6
SLD-Solid
370
    18
100
AcDbLine
 10
0.5
 20
10.7874015748
 30
0.0
 11
0.1653543307
 21
10.7874015748
 31
0.0
  0
LINE
  5
96
330
1F
100
AcDbEntity
  8
TITLE
  6
SLD-Solid
370
    18
100
AcDbLine
 10
89.5
 20
10.7874015748
 30
0.0
 11
89.8346456693
 21
10.7874015748
 31
0.0
  0
LINE
  5
97
330
1F
100
AcDbEntity
  8
TITLE
  6
SLD-Solid
370
    18
100
AcDbLine
 10
0.5
 20
12.7559055118
 30
0.0
 11
0.1653543307
 21
12.7559055118
 31
0.0
  0
LINE
  5
98
330
1F
100
AcDbEntity
  8
TITLE
  6
SLD-Solid
370
    18
100
AcDbLine
 10
89.5
 20
12.7559055118
 30
0.0
 11
89.8346456693
 21
12.7559055118
 31
0.0
  0
LINE
  5
99
330
1F
100
AcDbEntity
  8
TITLE
  6
SLD-Solid
370
    18
100
AcDbLine
 10
0.5
 20
14.7244094488
 30
0.0
 11
0.1653543307
 21
14.7244094488
 31
0.0
  0
LINE
  5
9A
330
1F
100
AcDbEntity
  8
TITLE
  6
SLD-Solid
370
    18
100
AcDbLine
 10
89.5
 20
14.7244094488
 30
0.0
 11
89.8346456693
 21
14.7244094488
 31
0.0
  0
LINE
  5
9B
330
1F
100
AcDbEntity
  8
TITLE
  6
SLD-Solid
370
    18
100
AcDbLine
 10
0.5
 20
16.6929133858
 30
0.0
 11
0.1653543307
 21
16.6929133858
 31
0.0
  0
LINE
  5
9C
330
1F
100
AcDbEntity
  8
TITLE
  6
SLD-Solid
370
    18
100
AcDbLine
 10
89.5
 20
16.6929133858
 30
0.0
 11
89.8346456693
 21
16.6929133858
 31
0.0
  0
LINE
  5
9D
330
1F
100
AcDbEntity
  8
TITLE
  6
SLD-Solid
370
    18
100
AcDbLine
 10
0.5
 20
18.6614173228
 30
0.0
 11
0.1653543307
 21
18.6614173228
 31
0.0
  0
LINE
  5
9E
330
1F
100
AcDbEntity
  8
TITLE
  6
SLD-Solid
370
    18
100
AcDbLine
 10
89.5
 20
18.6614173228
 30
0.0
 11
89.8346456693
 21
18.6614173228
 31
0.0
  0
LINE
  5
9F
330
1F
100
AcDbEntity
  8
TITLE
  6
SLD-Solid
370
    18
100
AcDbLine
 10
0.5
 20
20.6299212598
 30
0.0
 11
0.1653543307
 21
20.6299212598
 31
0.0
  0
LINE
  5
A0
330
1F
100
AcDbEntity
  8
TITLE
  6
SLD-Solid
370
    18
100
AcDbLine
 10
89.5
 20
20.6299212598
 30
0.0
 11
89.8346456693
 21
20.6299212598
 31
0.0
  0
LINE
  5
A1
330
1F
100
AcDbEntity
  8
TITLE
  6
SLD-Solid
370
    18
100
AcDbLine
 10
0.5
 20
22.5984251969
 30
0.0
 11
0.1653543307
 21
22.5984251969
 31
0.0
  0
LINE
  5
A2
330
1F
100
AcDbEntity
  8
TITLE
  6
SLD-Solid
370
    18
100
AcDbLine
 10
89.5
 20
22.5984251969
 30
0.0
 11
89.8346456693
 21
22.5984251969
 31
0.0
  0
LINE
  5
A3
330
1F
100
AcDbEntity
  8
TITLE
  6
SLD-Solid
370
    18
100
AcDbLine
 10
0.5
 20
24.5669291339
 30
0.0
 11
0.1653543307
 21
24.5669291339
 31
0.0
  0
LINE
  5
A4
330
1F
100
AcDbEntity
  8
TITLE
  6
SLD-Solid
370
    18
100
AcDbLine
 10
89.5
 20
24.5669291339
 30
0.0
 11
89.8346456693
 21
24.5669291339
 31
0.0
  0
LINE
  5
A5
330
1F
100
AcDbEntity
  8
TITLE
  6
SLD-Solid
370
    18
100
AcDbLine
 10
0.5
 20
26.5354330709
 30
0.0
 11
0.1653543307
 21
26.5354330709
 31
0.0
  0
LINE
  5
A6
330
1F
100
AcDbEntity
  8
TITLE
  6
SLD-Solid
370
    18
100
AcDbLine
 10
89.5
 20
26.5354330709
 30
0.0
 11
89.8346456693
 21
26.5354330709
 31
0.0
  0
LINE
  5
A7
330
1F
100
AcDbEntity
  8
TITLE
  6
SLD-Solid
370
    18
100
AcDbLine
 10
0.5
 20
28.5039370079
 30
0.0
 11
0.1653543307
 21
28.5039370079
 31
0.0
  0
LINE
  5
A8
330
1F
100
AcDbEntity
  8
TITLE
  6
SLD-Solid
370
    18
100
AcDbLine
 10
89.5
 20
28.5039370079
 30
0.0
 11
89.8346456693
 21
28.5039370079
 31
0.0
  0
LINE
  5
A9
330
1F
100
AcDbEntity
  8
TITLE
  6
SLD-Solid
370
    18
100
AcDbLine
 10
0.5
 20
30.4724409449
 30
0.0
 11
0.1653543307
 21
30.4724409449
 31
0.0
  0
LINE
  5
AA
330
1F
100
AcDbEntity
  8
TITLE
  6
SLD-Solid
370
    18
100
AcDbLine
 10
89.5
 20
30.4724409449
 30
0.0
 11
89.8346456693
 21
30.4724409449
 31
0.0
  0
LINE
  5
AB
330
1F
100
AcDbEntity
  8
TITLE
  6
SLD-Solid
370
    18
100
AcDbLine
 10
0.5
 20
32.4409448819
 30
0.0
 11
0.1653543307
 21
32.4409448819
 31
0.0
  0
LINE
  5
AC
330
1F
100
AcDbEntity
  8
TITLE
  6
SLD-Solid
370
    18
100
AcDbLine
 10
89.5
 20
32.4409448819
 30
0.0
 11
89.8346456693
 21
32.4409448819
 31
0.0
  0
LINE
  5
AD
330
1F
100
AcDbEntity
  8
TITLE
  6
SLD-Solid
370
    18
100
AcDbLine
 10
0.5
 20
34.4094488189
 30
0.0
 11
0.1653543307
 21
34.4094488189
 31
0.0
  0
LINE
  5
AE
330
1F
100
AcDbEntity
  8
TITLE
  6
SLD-Solid
370
    18
100
AcDbLine
 10
89.5
 20
34.4094488189
 30
0.0
 11
89.8346456693
 21
34.4094488189
 31
0.0
  0
LINE
  5
AF
330
1F
100
AcDbEntity
  8
TITLE
  6
SLD-Solid
370
    18
100
AcDbLine
 10
0.5
 20
36.3779527559
 30
0.0
 11
0.1653543307
 21
36.3779527559
 31
0.0
  0
LINE
  5
B0
330
1F
100
AcDbEntity
  8
TITLE
  6
SLD-Solid
370
    18
100
AcDbLine
 10
89.5
 20
36.3779527559
 30
0.0
 11
89.8346456693
 21
36.3779527559
 31
0.0
  0
LINE
  5
B1
330
1F
100
AcDbEntity
  8
TITLE
  6
SLD-Solid
370
    18
100
AcDbLine
 10
0.5
 20
38.3464566929
 30
0.0
 11
0.1653543307
 21
38.3464566929
 31
0.0
  0
LINE
  5
B2
330
1F
100
AcDbEntity
  8
TITLE
  6
SLD-Solid
370
    18
100
AcDbLine
 10
89.5
 20
38.3464566929
 30
0.0
 11
89.8346456693
 21
38.3464566929
 31
0.0
  0
LINE
  5
B3
330
1F
100
AcDbEntity
  8
TITLE
  6
SLD-Solid
370
    18
100
AcDbLine
 10
0.5
 20
40.3149606299
 30
0.0
 11
0.1653543307
 21
40.3149606299
 31
0.0
  0
LINE
  5
B4
330
1F
100
AcDbEntity
  8
TITLE
  6
SLD-Solid
370
    18
100
AcDbLine
 10
89.5
 20
40.3149606299
 30
0.0
 11
89.8346456693
 21
40.3149606299
 31
0.0
  0
LINE
  5
B5
330
1F
100
AcDbEntity
  8
TITLE
  6
SLD-Solid
370
    18
100
AcDbLine
 10
0.5
 20
42.2834645669
 30
0.0
 11
0.1653543307
 21
42.2834645669
 31
0.0
  0
LINE
  5
B6
330
1F
100
AcDbEntity
  8
TITLE
  6
SLD-Solid
370
    18
100
AcDbLine
 10
89.5
 20
42.2834645669
 30
0.0
 11
89.8346456693
 21
42.2834645669
 31
0.0
  0
LINE
  5
B7
330
1F
100
AcDbEntity
  8
TITLE
  6
SLD-Solid
370
    18
100
AcDbLine
 10
0.5
 20
44.2519685039
 30
0.0
 11
0.1653543307
 21
44.2519685039
 31
0.0
  0
LINE
  5
B8
330
1F
100
AcDbEntity
  8
TITLE
  6
SLD-Solid
370
    18
100
AcDbLine
 10
89.5
 20
44.2519685039
 30
0.0
 11
89.8346456693
 21
44.2519685039
 31
0.0
  0
LINE
  5
B9
330
1F
100
AcDbEntity
  8
TITLE
  6
SLD-Solid
370
    18
100
AcDbLine
 10
0.5
 20
46.2204724409
 30
0.0
 11
0.1653543307
 21
46.2204724409
 31
0.0
  0
LINE
  5
BA
330
1F
100
AcDbEntity
  8
TITLE
  6
SLD-Solid
370
    18
100
AcDbLine
 10
89.5
 20
46.2204724409
 30
0.0
 11
89.8346456693
 21
46.2204724409
 31
0.0
  0
LINE
  5
BB
330
1F
100
AcDbEntity
  8
TITLE
  6
SLD-Solid
370
    18
100
AcDbLine
 10
0.5
 20
48.188976378
 30
0.0
 11
0.1653543307
 21
48.188976378
 31
0.0
  0
LINE
  5
BC
330
1F
100
AcDbEntity
  8
TITLE
  6
SLD-Solid
370
    18
100
AcDbLine
 10
89.5
 20
48.188976378
 30
0.0
 11
89.8346456693
 21
48.188976378
 31
0.0
  0
LINE
  5
BD
330
1F
100
AcDbEntity
  8
TITLE
  6
SLD-Solid
370
    18
100
AcDbLine
 10
0.5
 20
50.157480315
 30
0.0
 11
0.1653543307
 21
50.157480315
 31
0.0
  0
LINE
  5
BE
330
1F
100
AcDbEntity
  8
TITLE
  6
SLD-Solid
370
    18
100
AcDbLine
 10
89.5
 20
50.157480315
 30
0.0
 11
89.8346456693
 21
50.157480315
 31
0.0
  0
LINE
  5
BF
330
1F
100
AcDbEntity
  8
TITLE
  6
SLD-Solid
370
    18
100
AcDbLine
 10
0.5
 20
52.125984252
 30
0.0
 11
0.1653543307
 21
52.125984252
 31
0.0
  0
LINE
  5
C0
330
1F
100
AcDbEntity
  8
TITLE
  6
SLD-Solid
370
    18
100
AcDbLine
 10
89.5
 20
52.125984252
 30
0.0
 11
89.8346456693
 21
52.125984252
 31
0.0
  0
LINE
  5
C1
330
1F
100
AcDbEntity
  8
TITLE
  6
SLD-Solid
370
    18
100
AcDbLine
 10
0.5
 20
54.094488189
 30
0.0
 11
0.1653543307
 21
54.094488189
 31
0.0
  0
LINE
  5
C2
330
1F
100
AcDbEntity
  8
TITLE
  6
SLD-Solid
370
    18
100
AcDbLine
 10
89.5
 20
54.094488189
 30
0.0
 11
89.8346456693
 21
54.094488189
 31
0.0
  0
LINE
  5
C3
330
1F
100
AcDbEntity
  8
TITLE
  6
SLD-Solid
370
    18
100
AcDbLine
 10
0.5
 20
56.062992126
 30
0.0
 11
0.1653543307
 21
56.062992126
 31
0.0
  0
LINE
  5
C4
330
1F
100
AcDbEntity
  8
TITLE
  6
SLD-Solid
370
    18
100
AcDbLine
 10
89.5
 20
56.062992126
 30
0.0
 11
89.8346456693
 21
56.062992126
 31
0.0
  0
LINE
  5
C5
330
1F
100
AcDbEntity
  8
TITLE
  6
SLD-Solid
370
    18
100
AcDbLine
 10
0.5
 20
58.031496063
 30
0.0
 11
0.1653543307
 21
58.031496063
 31
0.0
  0
LINE
  5
C6
330
1F
100
AcDbEntity
  8
TITLE
  6
SLD-Solid
370
    18
100
AcDbLine
 10
89.5
 20
58.031496063
 30
0.0
 11
89.8346456693
 21
58.031496063
 31
0.0
  0
LINE
  5
C7
330
1F
100
AcDbEntity
  8
TITLE
  6
SLD-Solid
370
    18
100
AcDbLine
 10
0.5
 20
60.0
 30
0.0
 11
0.1653543307
 21
60.0
 31
0.0
  0
LINE
  5
C8
330
1F
100
AcDbEntity
  8
TITLE
  6
SLD-Solid
370
    18
100
AcDbLine
 10
89.5
 20
60.0
 30
0.0
 11
89.8346456693
 21
60.0
 31
0.0
  0
LINE
  5
C9
330
1F
100
AcDbEntity
  8
TITLE
  6
SLD-Solid
370
    18
100
AcDbLine
 10
0.5
 20
61.968503937
 30
0.0
 11
0.1653543307
 21
61.968503937
 31
0.0
  0
LINE
  5
CA
330
1F
100
AcDbEntity
  8
TITLE
  6
SLD-Solid
370
    18
100
AcDbLine
 10
89.5
 20
61.968503937
 30
0.0
 11
89.8346456693
 21
61.968503937
 31
0.0
  0
LINE
  5
CB
330
1F
100
AcDbEntity
  8
TITLE
  6
SLD-Solid
370
    18
100
AcDbLine
 10
0.5
 20
63.937007874
 30
0.0
 11
0.1653543307
 21
63.937007874
 31
0.0
  0
LINE
  5
CC
330
1F
100
AcDbEntity
  8
TITLE
  6
SLD-Solid
370
    18
100
AcDbLine
 10
89.5
 20
63.937007874
 30
0.0
 11
89.8346456693
 21
63.937007874
 31
0.0
  0
LINE
  5
CD
330
1F
100
AcDbEntity
  8
TITLE
  6
SLD-Solid
370
    18
100
AcDbLine
 10
0.5
 20
65.905511811
 30
0.0
 11
0.1653543307
 21
65.905511811
 31
0.0
  0
LINE
  5
CE
330
1F
100
AcDbEntity
  8
TITLE
  6
SLD-Solid
370
    18
100
AcDbLine
 10
89.5
 20
65.905511811
 30
0.0
 11
89.8346456693
 21
65.905511811
 31
0.0
  0
LINE
  5
CF
330
1F
100
AcDbEntity
  8
TITLE
  6
SLD-Solid
370
    18
100
AcDbLine
 10
0.5
 20
67.874015748
 30
0.0
 11
0.1653543307
 21
67.874015748
 31
0.0
  0
LINE
  5
D0
330
1F
100
AcDbEntity
  8
TITLE
  6
SLD-Solid
370
    18
100
AcDbLine
 10
89.5
 20
67.874015748
 30
0.0
 11
89.8346456693
 21
67.874015748
 31
0.0
  0
LINE
  5
D1
330
1F
100
AcDbEntity
  8
TITLE
  6
SLD-Solid
370
    18
100
AcDbLine
 10
0.5
 20
69.842519685
 30
0.0
 11
0.1653543307
 21
69.842519685
 31
0.0
  0
LINE
  5
D2
330
1F
100
AcDbEntity
  8
TITLE
  6
SLD-Solid
370
    18
100
AcDbLine
 10
89.5
 20
69.842519685
 30
0.0
 11
89.8346456693
 21
69.842519685
 31
0.0
  0
LINE
  5
D3
330
1F
100
AcDbEntity
  8
TITLE
  6
SLD-Solid
370
    18
100
AcDbLine
 10
0.5
 20
71.811023622
 30
0.0
 11
0.1653543307
 21
71.811023622
 31
0.0
  0
LINE
  5
D4
330
1F
100
AcDbEntity
  8
TITLE
  6
SLD-Solid
370
    18
100
AcDbLine
 10
89.5
 20
71.811023622
 30
0.0
 11
89.8346456693
 21
71.811023622
 31
0.0
  0
LINE
  5
D5
330
1F
100
AcDbEntity
  8
TITLE
  6
SLD-Solid
370
    18
100
AcDbLine
 10
0.5
 20
73.7795275591
 30
0.0
 11
0.1653543307
 21
73.7795275591
 31
0.0
  0
LINE
  5
D6
330
1F
100
AcDbEntity
  8
TITLE
  6
SLD-Solid
370
    18
100
AcDbLine
 10
89.5
 20
73.7795275591
 30
0.0
 11
89.8346456693
 21
73.7795275591
 31
0.0
  0
LINE
  5
D7
330
1F
100
AcDbEntity
  8
TITLE
  6
SLD-Solid
370
    18
100
AcDbLine
 10
0.5
 20
75.7480314961
 30
0.0
 11
0.1653543307
 21
75.7480314961
 31
0.0
  0
LINE
  5
D8
330
1F
100
AcDbEntity
  8
TITLE
  6
SLD-Solid
370
    18
100
AcDbLine
 10
89.5
 20
75.7480314961
 30
0.0
 11
89.8346456693
 21
75.7480314961
 31
0.0
  0
LINE
  5
D9
330
1F
100
AcDbEntity
  8
TITLE
  6
SLD-Solid
370
    18
100
AcDbLine
 10
0.5
 20
77.7165354331
 30
0.0
 11
0.1653543307
 21
77.7165354331
 31
0.0
  0
LINE
  5
DA
330
1F
100
AcDbEntity
  8
TITLE
  6
SLD-Solid
370
    18
100
AcDbLine
 10
89.5
 20
77.7165354331
 30
0.0
 11
89.8346456693
 21
77.7165354331
 31
0.0
  0
LINE
  5
DB
330
1F
100
AcDbEntity
  8
TITLE
  6
SLD-Solid
370
    18
100
AcDbLine
 10
0.5
 20
79.6850393701
 30
0.0
 11
0.1653543307
 21
79.6850393701
 31
0.0
  0
LINE
  5
DC
330
1F
100
AcDbEntity
  8
TITLE
  6
SLD-Solid
370
    18
100
AcDbLine
 10
89.5
 20
79.6850393701
 30
0.0
 11
89.8346456693
 21
79.6850393701
 31
0.0
  0
LINE
  5
DD
330
1F
100
AcDbEntity
  8
TITLE
  6
SLD-Solid
370
    18
100
AcDbLine
 10
0.5
 20
81.6535433071
 30
0.0
 11
0.1653543307
 21
81.6535433071
 31
0.0
  0
LINE
  5
DE
330
1F
100
AcDbEntity
  8
TITLE
  6
SLD-Solid
370
    18
100
AcDbLine
 10
89.5
 20
81.6535433071
 30
0.0
 11
89.8346456693
 21
81.6535433071
 31
0.0
  0
LINE
  5
DF
330
1F
100
AcDbEntity
  8
TITLE
  6
SLD-Solid
370
    18
100
AcDbLine
 10
0.5
 20
83.6220472441
 30
0.0
 11
0.1653543307
 21
83.6220472441
 31
0.0
  0
LINE
  5
E0
330
1F
100
AcDbEntity
  8
TITLE
  6
SLD-Solid
370
    18
100
AcDbLine
 10
89.5
 20
83.6220472441
 30
0.0
 11
89.8346456693
 21
83.6220472441
 31
0.0
  0
LINE
  5
E1
330
1F
100
AcDbEntity
  8
TITLE
  6
SLD-Solid
370
    18
100
AcDbLine
 10
0.5
 20
85.5905511811
 30
0.0
 11
0.1653543307
 21
85.5905511811
 31
0.0
  0
LINE
  5
E2
330
1F
100
AcDbEntity
  8
TITLE
  6
SLD-Solid
370
    18
100
AcDbLine
 10
89.5
 20
85.5905511811
 30
0.0
 11
89.8346456693
 21
85.5905511811
 31
0.0
  0
LINE
  5
E3
330
1F
100
AcDbEntity
  8
TITLE
  6
SLD-Solid
370
    18
100
AcDbLine
 10
0.5
 20
87.5590551181
 30
0.0
 11
0.1653543307
 21
87.5590551181
 31
0.0
  0
LINE
  5
E4
330
1F
100
AcDbEntity
  8
TITLE
  6
SLD-Solid
370
    18
100
AcDbLine
 10
89.5
 20
87.5590551181
 30
0.0
 11
89.8346456693
 21
87.5590551181
 31
0.0
  0
LINE
  5
E5
330
1F
100
AcDbEntity
  8
TITLE
  6
SLD-Solid
370
    18
100
AcDbLine
 10
0.5
 20
89.5275590551
 30
0.0
 11
0.1653543307
 21
89.5275590551
 31
0.0
  0
LINE
  5
E6
330
1F
100
AcDbEntity
  8
TITLE
  6
SLD-Solid
370
    18
100
AcDbLine
 10
89.5
 20
89.5275590551
 30
0.0
 11
89.8346456693
 21
89.5275590551
 31
0.0
  0
LINE
  5
E7
330
1F
100
AcDbEntity
  8
TITLE
  6
SLD-Solid
370
    18
100
AcDbLine
 10
0.5
 20
91.4960629921
 30
0.0
 11
0.1653543307
 21
91.4960629921
 31
0.0
  0
LINE
  5
E8
330
1F
100
AcDbEntity
  8
TITLE
  6
SLD-Solid
370
    18
100
AcDbLine
 10
89.5
 20
91.4960629921
 30
0.0
 11
89.8346456693
 21
91.4960629921
 31
0.0
  0
LINE
  5
E9
330
1F
100
AcDbEntity
  8
TITLE
  6
SLD-Solid
370
    18
100
AcDbLine
 10
0.5
 20
93.4645669291
 30
0.0
 11
0.1653543307
 21
93.4645669291
 31
0.0
  0
LINE
  5
EA
330
1F
100
AcDbEntity
  8
TITLE
  6
SLD-Solid
370
    18
100
AcDbLine
 10
89.5
 20
93.4645669291
 30
0.0
 11
89.8346456693
 21
93.4645669291
 31
0.0
  0
LINE
  5
EB
330
1F
100
AcDbEntity
  8
TITLE
  6
SLD-Solid
370
    18
100
AcDbLine
 10
0.5
 20
95.4330708661
 30
0.0
 11
0.1653543307
 21
95.4330708661
 31
0.0
  0
LINE
  5
EC
330
1F
100
AcDbEntity
  8
TITLE
  6
SLD-Solid
370
    18
100
AcDbLine
 10
89.5
 20
95.4330708661
 30
0.0
 11
89.8346456693
 21
95.4330708661
 31
0.0
  0
LINE
  5
ED
330
1F
100
AcDbEntity
  8
TITLE
  6
SLD-Solid
370
    18
100
AcDbLine
 10
0.5
 20
97.4015748031
 30
0.0
 11
0.1653543307
 21
97.4015748031
 31
0.0
  0
LINE
  5
EE
330
1F
100
AcDbEntity
  8
TITLE
  6
SLD-Solid
370
    18
100
AcDbLine
 10
89.5
 20
97.4015748031
 30
0.0
 11
89.8346456693
 21
97.4015748031
 31
0.0
  0
LINE
  5
EF
330
1F
100
AcDbEntity
  8
TITLE
  6
SLD-Solid
370
    18
100
AcDbLine
 10
0.5
 20
99.3700787402
 30
0.0
 11
0.1653543307
 21
99.3700787402
 31
0.0
  0
LINE
  5
F0
330
1F
100
AcDbEntity
  8
TITLE
  6
SLD-Solid
370
    18
100
AcDbLine
 10
89.5
 20
99.3700787402
 30
0.0
 11
89.8346456693
 21
99.3700787402
 31
0.0
  0
LINE
  5
F1
330
1F
100
AcDbEntity
  8
TITLE
  6
SLD-Solid
370
    18
100
AcDbLine
 10
0.5
 20
101.3385826772
 30
0.0
 11
0.1653543307
 21
101.3385826772
 31
0.0
  0
LINE
  5
F2
330
1F
100
AcDbEntity
  8
TITLE
  6
SLD-Solid
370
    18
100
AcDbLine
 10
89.5
 20
101.3385826772
 30
0.0
 11
89.8346456693
 21
101.3385826772
 31
0.0
  0
LINE
  5
F3
330
1F
100
AcDbEntity
  8
TITLE
  6
SLD-Solid
370
    18
100
AcDbLine
 10
0.5
 20
103.3070866142
 30
0.0
 11
0.1653543307
 21
103.3070866142
 31
0.0
  0
LINE
  5
F4
330
1F
100
AcDbEntity
  8
TITLE
  6
SLD-Solid
370
    18
100
AcDbLine
 10
89.5
 20
103.3070866142
 30
0.0
 11
89.8346456693
 21
103.3070866142
 31
0.0
  0
LINE
  5
F5
330
1F
100
AcDbEntity
  8
TITLE
  6
SLD-Solid
370
    18
100
AcDbLine
 10
0.5
 20
105.2755905512
 30
0.0
 11
0.1653543307
 21
105.2755905512
 31
0.0
  0
LINE
  5
F6
330
1F
100
AcDbEntity
  8
TITLE
  6
SLD-Solid
370
    18
100
AcDbLine
 10
89.5
 20
105.2755905512
 30
0.0
 11
89.8346456693
 21
105.2755905512
 31
0.0
  0
LINE
  5
F7
330
1F
100
AcDbEntity
  8
TITLE
  6
SLD-Solid
370
    18
100
AcDbLine
 10
0.5
 20
107.2440944882
 30
0.0
 11
0.1653543307
 21
107.2440944882
 31
0.0
  0
LINE
  5
F8
330
1F
100
AcDbEntity
  8
TITLE
  6
SLD-Solid
370
    18
100
AcDbLine
 10
89.5
 20
107.2440944882
 30
0.0
 11
89.8346456693
 21
107.2440944882
 31
0.0
  0
LINE
  5
F9
330
1F
100
AcDbEntity
  8
TITLE
  6
SLD-Solid
370
    18
100
AcDbLine
 10
0.5
 20
109.2125984252
 30
0.0
 11
0.1653543307
 21
109.2125984252
 31
0.0
  0
LINE
  5
FA
330
1F
100
AcDbEntity
  8
TITLE
  6
SLD-Solid
370
    18
100
AcDbLine
 10
89.5
 20
109.2125984252
 30
0.0
 11
89.8346456693
 21
109.2125984252
 31
0.0
  0
LINE
  5
FB
330
1F
100
AcDbEntity
  8
TITLE
  6
SLD-Solid
370
    18
100
AcDbLine
 10
0.5
 20
111.1811023622
 30
0.0
 11
0.1653543307
 21
111.1811023622
 31
0.0
  0
LINE
  5
FC
330
1F
100
AcDbEntity
  8
TITLE
  6
SLD-Solid
370
    18
100
AcDbLine
 10
89.5
 20
111.1811023622
 30
0.0
 11
89.8346456693
 21
111.1811023622
 31
0.0
  0
LINE
  5
FD
330
1F
100
AcDbEntity
  8
TITLE
  6
SLD-Solid
370
    18
100
AcDbLine
 10
0.5
 20
113.1496062992
 30
0.0
 11
0.1653543307
 21
113.1496062992
 31
0.0
  0
LINE
  5
FE
330
1F
100
AcDbEntity
  8
TITLE
  6
SLD-Solid
370
    18
100
AcDbLine
 10
89.5
 20
113.1496062992
 30
0.0
 11
89.8346456693
 21
113.1496062992
 31
0.0
  0
LINE
  5
FF
330
1F
100
AcDbEntity
  8
TITLE
  6
SLD-Solid
370
    18
100
AcDbLine
 10
0.5
 20
115.1181102362
 30
0.0
 11
0.1653543307
 21
115.1181102362
 31
0.0
  0
LINE
  5
100
330
1F
100
AcDbEntity
  8
TITLE
  6
SLD-Solid
370
    18
100
AcDbLine
 10
89.5
 20
115.1181102362
 30
0.0
 11
89.8346456693
 21
115.1181102362
 31
0.0
  0
LINE
  5
101
330
1F
100
AcDbEntity
  8
TITLE
  6
SLD-Solid
370
    18
100
AcDbLine
 10
0.5
 20
117.0866141732
 30
0.0
 11
0.1653543307
 21
117.0866141732
 31
0.0
  0
LINE
  5
102
330
1F
100
AcDbEntity
  8
TITLE
  6
SLD-Solid
370
    18
100
AcDbLine
 10
89.5
 20
117.0866141732
 30
0.0
 11
89.8346456693
 21
117.0866141732
 31
0.0
  0
LINE
  5
103
330
1F
100
AcDbEntity
  8
TITLE
  6
SLD-Solid
370
    18
100
AcDbLine
 10
1.6929133858
 20
119.5
 30
0.0
 11
1.6929133858
 21
119.8346456693
 31
0.0
  0
LINE
  5
104
330
1F
100
AcDbEntity
  8
TITLE
  6
SLD-Solid
370
    18
100
AcDbLine
 10
1.6929133858
 20
0.5
 30
0.0
 11
1.6929133858
 21
0.1653543307
 31
0.0
  0
LINE
  5
105
330
1F
100
AcDbEntity
  8
TITLE
  6
SLD-Solid
370
    18
100
AcDbLine
 10
3.6614173228
 20
119.5
 30
0.0
 11
3.6614173228
 21
119.8346456693
 31
0.0
  0
LINE
  5
106
330
1F
100
AcDbEntity
  8
TITLE
  6
SLD-Solid
370
    18
100
AcDbLine
 10
3.6614173228
 20
0.5
 30
0.0
 11
3.6614173228
 21
0.1653543307
 31
0.0
  0
LINE
  5
107
330
1F
100
AcDbEntity
  8
TITLE
  6
SLD-Solid
370
    18
100
AcDbLine
 10
5.6299212598
 20
119.5
 30
0.0
 11
5.6299212598
 21
119.8346456693
 31
0.0
  0
LINE
  5
108
330
1F
100
AcDbEntity
  8
TITLE
  6
SLD-Solid
370
    18
100
AcDbLine
 10
5.6299212598
 20
0.5
 30
0.0
 11
5.6299212598
 21
0.1653543307
 31
0.0
  0
LINE
  5
109
330
1F
100
AcDbEntity
  8
TITLE
  6
SLD-Solid
370
    18
100
AcDbLine
 10
7.5984251969
 20
119.5
 30
0.0
 11
7.5984251969
 21
119.8346456693
 31
0.0
  0
LINE
  5
10A
330
1F
100
AcDbEntity
  8
TITLE
  6
SLD-Solid
370
    18
100
AcDbLine
 10
7.5984251969
 20
0.5
 30
0.0
 11
7.5984251969
 21
0.1653543307
 31
0.0
  0
LINE
  5
10B
330
1F
100
AcDbEntity
  8
TITLE
  6
SLD-Solid
370
    18
100
AcDbLine
 10
9.5669291339
 20
119.5
 30
0.0
 11
9.5669291339
 21
119.8346456693
 31
0.0
  0
LINE
  5
10C
330
1F
100
AcDbEntity
  8
TITLE
  6
SLD-Solid
370
    18
100
AcDbLine
 10
9.5669291339
 20
0.5
 30
0.0
 11
9.5669291339
 21
0.1653543307
 31
0.0
  0
LINE
  5
10D
330
1F
100
AcDbEntity
  8
TITLE
  6
SLD-Solid
370
    18
100
AcDbLine
 10
11.5354330709
 20
119.5
 30
0.0
 11
11.5354330709
 21
119.8346456693
 31
0.0
  0
LINE
  5
10E
330
1F
100
AcDbEntity
  8
TITLE
  6
SLD-Solid
370
    18
100
AcDbLine
 10
11.5354330709
 20
0.5
 30
0.0
 11
11.5354330709
 21
0.1653543307
 31
0.0
  0
LINE
  5
10F
330
1F
100
AcDbEntity
  8
TITLE
  6
SLD-Solid
370
    18
100
AcDbLine
 10
13.5039370079
 20
119.5
 30
0.0
 11
13.5039370079
 21
119.8346456693
 31
0.0
  0
LINE
  5
110
330
1F
100
AcDbEntity
  8
TITLE
  6
SLD-Solid
370
    18
100
AcDbLine
 10
13.5039370079
 20
0.5
 30
0.0
 11
13.5039370079
 21
0.1653543307
 31
0.0
  0
LINE
  5
111
330
1F
100
AcDbEntity
  8
TITLE
  6
SLD-Solid
370
    18
100
AcDbLine
 10
15.4724409449
 20
119.5
 30
0.0
 11
15.4724409449
 21
119.8346456693
 31
0.0
  0
LINE
  5
112
330
1F
100
AcDbEntity
  8
TITLE
  6
SLD-Solid
370
    18
100
AcDbLine
 10
15.4724409449
 20
0.5
 30
0.0
 11
15.4724409449
 21
0.1653543307
 31
0.0
  0
LINE
  5
113
330
1F
100
AcDbEntity
  8
TITLE
  6
SLD-Solid
370
    18
100
AcDbLine
 10
17.4409448819
 20
119.5
 30
0.0
 11
17.4409448819
 21
119.8346456693
 31
0.0
  0
LINE
  5
114
330
1F
100
AcDbEntity
  8
TITLE
  6
SLD-Solid
370
    18
100
AcDbLine
 10
17.4409448819
 20
0.5
 30
0.0
 11
17.4409448819
 21
0.1653543307
 31
0.0
  0
LINE
  5
115
330
1F
100
AcDbEntity
  8
TITLE
  6
SLD-Solid
370
    18
100
AcDbLine
 10
19.4094488189
 20
119.5
 30
0.0
 11
19.4094488189
 21
119.8346456693
 31
0.0
  0
LINE
  5
116
330
1F
100
AcDbEntity
  8
TITLE
  6
SLD-Solid
370
    18
100
AcDbLine
 10
19.4094488189
 20
0.5
 30
0.0
 11
19.4094488189
 21
0.1653543307
 31
0.0
  0
LINE
  5
117
330
1F
100
AcDbEntity
  8
TITLE
  6
SLD-Solid
370
    18
100
AcDbLine
 10
21.3779527559
 20
119.5
 30
0.0
 11
21.3779527559
 21
119.8346456693
 31
0.0
  0
LINE
  5
118
330
1F
100
AcDbEntity
  8
TITLE
  6
SLD-Solid
370
    18
100
AcDbLine
 10
21.3779527559
 20
0.5
 30
0.0
 11
21.3779527559
 21
0.1653543307
 31
0.0
  0
LINE
  5
119
330
1F
100
AcDbEntity
  8
TITLE
  6
SLD-Solid
370
    18
100
AcDbLine
 10
23.3464566929
 20
119.5
 30
0.0
 11
23.3464566929
 21
119.8346456693
 31
0.0
  0
LINE
  5
11A
330
1F
100
AcDbEntity
  8
TITLE
  6
SLD-Solid
370
    18
100
AcDbLine
 10
23.3464566929
 20
0.5
 30
0.0
 11
23.3464566929
 21
0.1653543307
 31
0.0
  0
LINE
  5
11B
330
1F
100
AcDbEntity
  8
TITLE
  6
SLD-Solid
370
    18
100
AcDbLine
 10
25.3149606299
 20
119.5
 30
0.0
 11
25.3149606299
 21
119.8346456693
 31
0.0
  0
LINE
  5
11C
330
1F
100
AcDbEntity
  8
TITLE
  6
SLD-Solid
370
    18
100
AcDbLine
 10
25.3149606299
 20
0.5
 30
0.0
 11
25.3149606299
 21
0.1653543307
 31
0.0
  0
LINE
  5
11D
330
1F
100
AcDbEntity
  8
TITLE
  6
SLD-Solid
370
    18
100
AcDbLine
 10
27.2834645669
 20
119.5
 30
0.0
 11
27.2834645669
 21
119.8346456693
 31
0.0
  0
LINE
  5
11E
330
1F
100
AcDbEntity
  8
TITLE
  6
SLD-Solid
370
    18
100
AcDbLine
 10
27.2834645669
 20
0.5
 30
0.0
 11
27.2834645669
 21
0.1653543307
 31
0.0
  0
LINE
  5
11F
330
1F
100
AcDbEntity
  8
TITLE
  6
SLD-Solid
370
    18
100
AcDbLine
 10
29.2519685039
 20
119.5
 30
0.0
 11
29.2519685039
 21
119.8346456693
 31
0.0
  0
LINE
  5
120
330
1F
100
AcDbEntity
  8
TITLE
  6
SLD-Solid
370
    18
100
AcDbLine
 10
29.2519685039
 20
0.5
 30
0.0
 11
29.2519685039
 21
0.1653543307
 31
0.0
  0
LINE
  5
121
330
1F
100
AcDbEntity
  8
TITLE
  6
SLD-Solid
370
    18
100
AcDbLine
 10
31.2204724409
 20
119.5
 30
0.0
 11
31.2204724409
 21
119.8346456693
 31
0.0
  0
LINE
  5
122
330
1F
100
AcDbEntity
  8
TITLE
  6
SLD-Solid
370
    18
100
AcDbLine
 10
31.2204724409
 20
0.5
 30
0.0
 11
31.2204724409
 21
0.1653543307
 31
0.0
  0
LINE
  5
123
330
1F
100
AcDbEntity
  8
TITLE
  6
SLD-Solid
370
    18
100
AcDbLine
 10
33.188976378
 20
119.5
 30
0.0
 11
33.188976378
 21
119.8346456693
 31
0.0
  0
LINE
  5
124
330
1F
100
AcDbEntity
  8
TITLE
  6
SLD-Solid
370
    18
100
AcDbLine
 10
33.188976378
 20
0.5
 30
0.0
 11
33.188976378
 21
0.1653543307
 31
0.0
  0
LINE
  5
125
330
1F
100
AcDbEntity
  8
TITLE
  6
SLD-Solid
370
    18
100
AcDbLine
 10
35.157480315
 20
119.5
 30
0.0
 11
35.157480315
 21
119.8346456693
 31
0.0
  0
LINE
  5
126
330
1F
100
AcDbEntity
  8
TITLE
  6
SLD-Solid
370
    18
100
AcDbLine
 10
35.157480315
 20
0.5
 30
0.0
 11
35.157480315
 21
0.1653543307
 31
0.0
  0
LINE
  5
127
330
1F
100
AcDbEntity
  8
TITLE
  6
SLD-Solid
370
    18
100
AcDbLine
 10
37.125984252
 20
119.5
 30
0.0
 11
37.125984252
 21
119.8346456693
 31
0.0
  0
LINE
  5
128
330
1F
100
AcDbEntity
  8
TITLE
  6
SLD-Solid
370
    18
100
AcDbLine
 10
37.125984252
 20
0.5
 30
0.0
 11
37.125984252
 21
0.1653543307
 31
0.0
  0
LINE
  5
129
330
1F
100
AcDbEntity
  8
TITLE
  6
SLD-Solid
370
    18
100
AcDbLine
 10
39.094488189
 20
119.5
 30
0.0
 11
39.094488189
 21
119.8346456693
 31
0.0
  0
LINE
  5
12A
330
1F
100
AcDbEntity
  8
TITLE
  6
SLD-Solid
370
    18
100
AcDbLine
 10
39.094488189
 20
0.5
 30
0.0
 11
39.094488189
 21
0.1653543307
 31
0.0
  0
LINE
  5
12B
330
1F
100
AcDbEntity
  8
TITLE
  6
SLD-Solid
370
    18
100
AcDbLine
 10
41.062992126
 20
119.5
 30
0.0
 11
41.062992126
 21
119.8346456693
 31
0.0
  0
LINE
  5
12C
330
1F
100
AcDbEntity
  8
TITLE
  6
SLD-Solid
370
    18
100
AcDbLine
 10
41.062992126
 20
0.5
 30
0.0
 11
41.062992126
 21
0.1653543307
 31
0.0
  0
LINE
  5
12D
330
1F
100
AcDbEntity
  8
TITLE
  6
SLD-Solid
370
    18
100
AcDbLine
 10
43.031496063
 20
119.5
 30
0.0
 11
43.031496063
 21
119.8346456693
 31
0.0
  0
LINE
  5
12E
330
1F
100
AcDbEntity
  8
TITLE
  6
SLD-Solid
370
    18
100
AcDbLine
 10
43.031496063
 20
0.5
 30
0.0
 11
43.031496063
 21
0.1653543307
 31
0.0
  0
LINE
  5
12F
330
1F
100
AcDbEntity
  8
TITLE
  6
SLD-Solid
370
    18
100
AcDbLine
 10
45.0
 20
119.5
 30
0.0
 11
45.0
 21
119.8346456693
 31
0.0
  0
LINE
  5
130
330
1F
100
AcDbEntity
  8
TITLE
  6
SLD-Solid
370
    18
100
AcDbLine
 10
45.0
 20
0.5
 30
0.0
 11
45.0
 21
0.1653543307
 31
0.0
  0
LINE
  5
131
330
1F
100
AcDbEntity
  8
TITLE
  6
SLD-Solid
370
    18
100
AcDbLine
 10
46.968503937
 20
119.5
 30
0.0
 11
46.968503937
 21
119.8346456693
 31
0.0
  0
LINE
  5
132
330
1F
100
AcDbEntity
  8
TITLE
  6
SLD-Solid
370
    18
100
AcDbLine
 10
46.968503937
 20
0.5
 30
0.0
 11
46.968503937
 21
0.1653543307
 31
0.0
  0
LINE
  5
133
330
1F
100
AcDbEntity
  8
TITLE
  6
SLD-Solid
370
    18
100
AcDbLine
 10
48.937007874
 20
119.5
 30
0.0
 11
48.937007874
 21
119.8346456693
 31
0.0
  0
LINE
  5
134
330
1F
100
AcDbEntity
  8
TITLE
  6
SLD-Solid
370
    18
100
AcDbLine
 10
48.937007874
 20
0.5
 30
0.0
 11
48.937007874
 21
0.1653543307
 31
0.0
  0
LINE
  5
135
330
1F
100
AcDbEntity
  8
TITLE
  6
SLD-Solid
370
    18
100
AcDbLine
 10
50.905511811
 20
119.5
 30
0.0
 11
50.905511811
 21
119.8346456693
 31
0.0
  0
LINE
  5
136
330
1F
100
AcDbEntity
  8
TITLE
  6
SLD-Solid
370
    18
100
AcDbLine
 10
50.905511811
 20
0.5
 30
0.0
 11
50.905511811
 21
0.1653543307
 31
0.0
  0
LINE
  5
137
330
1F
100
AcDbEntity
  8
TITLE
  6
SLD-Solid
370
    18
100
AcDbLine
 10
52.874015748
 20
119.5
 30
0.0
 11
52.874015748
 21
119.8346456693
 31
0.0
  0
LINE
  5
138
330
1F
100
AcDbEntity
  8
TITLE
  6
SLD-Solid
370
    18
100
AcDbLine
 10
52.874015748
 20
0.5
 30
0.0
 11
52.874015748
 21
0.1653543307
 31
0.0
  0
LINE
  5
139
330
1F
100
AcDbEntity
  8
TITLE
  6
SLD-Solid
370
    18
100
AcDbLine
 10
54.842519685
 20
119.5
 30
0.0
 11
54.842519685
 21
119.8346456693
 31
0.0
  0
LINE
  5
13A
330
1F
100
AcDbEntity
  8
TITLE
  6
SLD-Solid
370
    18
100
AcDbLine
 10
54.842519685
 20
0.5
 30
0.0
 11
54.842519685
 21
0.1653543307
 31
0.0
  0
LINE
  5
13B
330
1F
100
AcDbEntity
  8
TITLE
  6
SLD-Solid
370
    18
100
AcDbLine
 10
56.811023622
 20
119.5
 30
0.0
 11
56.811023622
 21
119.8346456693
 31
0.0
  0
LINE
  5
13C
330
1F
100
AcDbEntity
  8
TITLE
  6
SLD-Solid
370
    18
100
AcDbLine
 10
56.811023622
 20
0.5
 30
0.0
 11
56.811023622
 21
0.1653543307
 31
0.0
  0
LINE
  5
13D
330
1F
100
AcDbEntity
  8
TITLE
  6
SLD-Solid
370
    18
100
AcDbLine
 10
58.7795275591
 20
119.5
 30
0.0
 11
58.7795275591
 21
119.8346456693
 31
0.0
  0
LINE
  5
13E
330
1F
100
AcDbEntity
  8
TITLE
  6
SLD-Solid
370
    18
100
AcDbLine
 10
58.7795275591
 20
0.5
 30
0.0
 11
58.7795275591
 21
0.1653543307
 31
0.0
  0
LINE
  5
13F
330
1F
100
AcDbEntity
  8
TITLE
  6
SLD-Solid
370
    18
100
AcDbLine
 10
60.7480314961
 20
119.5
 30
0.0
 11
60.7480314961
 21
119.8346456693
 31
0.0
  0
LINE
  5
140
330
1F
100
AcDbEntity
  8
TITLE
  6
SLD-Solid
370
    18
100
AcDbLine
 10
60.7480314961
 20
0.5
 30
0.0
 11
60.7480314961
 21
0.1653543307
 31
0.0
  0
LINE
  5
141
330
1F
100
AcDbEntity
  8
TITLE
  6
SLD-Solid
370
    18
100
AcDbLine
 10
62.7165354331
 20
119.5
 30
0.0
 11
62.7165354331
 21
119.8346456693
 31
0.0
  0
LINE
  5
142
330
1F
100
AcDbEntity
  8
TITLE
  6
SLD-Solid
370
    18
100
AcDbLine
 10
62.7165354331
 20
0.5
 30
0.0
 11
62.7165354331
 21
0.1653543307
 31
0.0
  0
LINE
  5
143
330
1F
100
AcDbEntity
  8
TITLE
  6
SLD-Solid
370
    18
100
AcDbLine
 10
64.6850393701
 20
119.5
 30
0.0
 11
64.6850393701
 21
119.8346456693
 31
0.0
  0
LINE
  5
144
330
1F
100
AcDbEntity
  8
TITLE
  6
SLD-Solid
370
    18
100
AcDbLine
 10
64.6850393701
 20
0.5
 30
0.0
 11
64.6850393701
 21
0.1653543307
 31
0.0
  0
LINE
  5
145
330
1F
100
AcDbEntity
  8
TITLE
  6
SLD-Solid
370
    18
100
AcDbLine
 10
66.6535433071
 20
119.5
 30
0.0
 11
66.6535433071
 21
119.8346456693
 31
0.0
  0
LINE
  5
146
330
1F
100
AcDbEntity
  8
TITLE
  6
SLD-Solid
370
    18
100
AcDbLine
 10
66.6535433071
 20
0.5
 30
0.0
 11
66.6535433071
 21
0.1653543307
 31
0.0
  0
LINE
  5
147
330
1F
100
AcDbEntity
  8
TITLE
  6
SLD-Solid
370
    18
100
AcDbLine
 10
68.6220472441
 20
119.5
 30
0.0
 11
68.6220472441
 21
119.8346456693
 31
0.0
  0
LINE
  5
148
330
1F
100
AcDbEntity
  8
TITLE
  6
SLD-Solid
370
    18
100
AcDbLine
 10
68.6220472441
 20
0.5
 30
0.0
 11
68.6220472441
 21
0.1653543307
 31
0.0
  0
LINE
  5
149
330
1F
100
AcDbEntity
  8
TITLE
  6
SLD-Solid
370
    18
100
AcDbLine
 10
70.5905511811
 20
119.5
 30
0.0
 11
70.5905511811
 21
119.8346456693
 31
0.0
  0
LINE
  5
14A
330
1F
100
AcDbEntity
  8
TITLE
  6
SLD-Solid
370
    18
100
AcDbLine
 10
70.5905511811
 20
0.5
 30
0.0
 11
70.5905511811
 21
0.1653543307
 31
0.0
  0
LINE
  5
14B
330
1F
100
AcDbEntity
  8
TITLE
  6
SLD-Solid
370
    18
100
AcDbLine
 10
72.5590551181
 20
119.5
 30
0.0
 11
72.5590551181
 21
119.8346456693
 31
0.0
  0
LINE
  5
14C
330
1F
100
AcDbEntity
  8
TITLE
  6
SLD-Solid
370
    18
100
AcDbLine
 10
72.5590551181
 20
0.5
 30
0.0
 11
72.5590551181
 21
0.1653543307
 31
0.0
  0
LINE
  5
14D
330
1F
100
AcDbEntity
  8
TITLE
  6
SLD-Solid
370
    18
100
AcDbLine
 10
74.5275590551
 20
119.5
 30
0.0
 11
74.5275590551
 21
119.8346456693
 31
0.0
  0
LINE
  5
14E
330
1F
100
AcDbEntity
  8
TITLE
  6
SLD-Solid
370
    18
100
AcDbLine
 10
74.5275590551
 20
0.5
 30
0.0
 11
74.5275590551
 21
0.1653543307
 31
0.0
  0
LINE
  5
14F
330
1F
100
AcDbEntity
  8
TITLE
  6
SLD-Solid
370
    18
100
AcDbLine
 10
76.4960629921
 20
119.5
 30
0.0
 11
76.4960629921
 21
119.8346456693
 31
0.0
  0
LINE
  5
150
330
1F
100
AcDbEntity
  8
TITLE
  6
SLD-Solid
370
    18
100
AcDbLine
 10
76.4960629921
 20
0.5
 30
0.0
 11
76.4960629921
 21
0.1653543307
 31
0.0
  0
LINE
  5
151
330
1F
100
AcDbEntity
  8
TITLE
  6
SLD-Solid
370
    18
100
AcDbLine
 10
78.4645669291
 20
119.5
 30
0.0
 11
78.4645669291
 21
119.8346456693
 31
0.0
  0
LINE
  5
152
330
1F
100
AcDbEntity
  8
TITLE
  6
SLD-Solid
370
    18
100
AcDbLine
 10
78.4645669291
 20
0.5
 30
0.0
 11
78.4645669291
 21
0.1653543307
 31
0.0
  0
LINE
  5
153
330
1F
100
AcDbEntity
  8
TITLE
  6
SLD-Solid
370
    18
100
AcDbLine
 10
80.4330708661
 20
119.5
 30
0.0
 11
80.4330708661
 21
119.8346456693
 31
0.0
  0
LINE
  5
154
330
1F
100
AcDbEntity
  8
TITLE
  6
SLD-Solid
370
    18
100
AcDbLine
 10
80.4330708661
 20
0.5
 30
0.0
 11
80.4330708661
 21
0.1653543307
 31
0.0
  0
LINE
  5
155
330
1F
100
AcDbEntity
  8
TITLE
  6
SLD-Solid
370
    18
100
AcDbLine
 10
82.4015748031
 20
119.5
 30
0.0
 11
82.4015748031
 21
119.8346456693
 31
0.0
  0
LINE
  5
156
330
1F
100
AcDbEntity
  8
TITLE
  6
SLD-Solid
370
    18
100
AcDbLine
 10
82.4015748031
 20
0.5
 30
0.0
 11
82.4015748031
 21
0.1653543307
 31
0.0
  0
LINE
  5
157
330
1F
100
AcDbEntity
  8
TITLE
  6
SLD-Solid
370
    18
100
AcDbLine
 10
84.3700787402
 20
119.5
 30
0.0
 11
84.3700787402
 21
119.8346456693
 31
0.0
  0
LINE
  5
158
330
1F
100
AcDbEntity
  8
TITLE
  6
SLD-Solid
370
    18
100
AcDbLine
 10
84.3700787402
 20
0.5
 30
0.0
 11
84.3700787402
 21
0.1653543307
 31
0.0
  0
LINE
  5
159
330
1F
100
AcDbEntity
  8
TITLE
  6
SLD-Solid
370
    18
100
AcDbLine
 10
86.3385826772
 20
119.5
 30
0.0
 11
86.3385826772
 21
119.8346456693
 31
0.0
  0
LINE
  5
15A
330
1F
100
AcDbEntity
  8
TITLE
  6
SLD-Solid
370
    18
100
AcDbLine
 10
86.3385826772
 20
0.5
 30
0.0
 11
86.3385826772
 21
0.1653543307
 31
0.0
  0
LINE
  5
15B
330
1F
100
AcDbEntity
  8
TITLE
  6
SLD-Solid
370
    18
100
AcDbLine
 10
88.3070866142
 20
119.5
 30
0.0
 11
88.3070866142
 21
119.8346456693
 31
0.0
  0
LINE
  5
15C
330
1F
100
AcDbEntity
  8
TITLE
  6
SLD-Solid
370
    18
100
AcDbLine
 10
88.3070866142
 20
0.5
 30
0.0
 11
88.3070866142
 21
0.1653543307
 31
0.0
  0
HATCH
  5
15D
330
1F
100
AcDbEntity
  8
NOTES
100
AcDbHatch
 10
0.0
 20
0.0
 30
0.0
210
0.0
220
0.0
230
1.0
  2
AR-SAND
 70
     0
 71
     0
 91
        1
 92
        0
 93
        4
 72
     3
 10
54.30289234269657
 20
104.5931933872896
 11
0.6325000000000026
 21
0.0
 40
0.5772877120855404
 50
179.9999985213793
 51
360.0000014786215
 73
     1
 72
     1
 10
54.93539234269657
 20
104.5931934036124
 11
54.93539234269661
 21
86.62929554212592
 72
     3
 10
54.3028923426966
 20
86.62929554212592
 11
-0.6325000000000026
 21
0.0
 40
0.5772877120855404
 50
180.0
 51
360.0
 73
     0
 72
     1
 10
53.67039234269661
 20
86.62929554212592
 11
53.67039234269657
 21
104.5931934036124
 97
        0
 75
     0
 76
     1
 52
0.0
 41
5.3333333333
 77
     0
 78
     4
 53
37.5
 43
0.0
 44
0.0
 45
-0.3359645765845768
 46
10.27639343473685
 79
     6
 49
0.0
 49
-8.106666666666666
 49
0.0
 49
-9.066666666666666
 49
0.0
 49
-8.666666666666666
 53
7.5
 43
0.0
 44
0.0
 45
9.438809094761211
 46
15.05144568122528
 79
     6
 49
0.0
 49
-4.373333333333333
 49
0.0
 49
-7.306666666666667
 49
0.0
 49
-2.8
 53
-32.5
 43
-6.56
 44
0.0
 45
16.60875659600797
 46
0.0301816188638118
 79
     6
 49
0.0
 49
-2.666666666666667
 49
0.0
 49
-9.6
 49
0.0
 49
-12.53333333333333
 53
-42.50000000000001
 43
-6.56
 44
0.0
 45
16.03267522438556
 46
4.680936346315996
 79
     6
 49
0.0
 49
-1.333333333333333
 49
0.0
 49
-6.293333333333333
 49
0.0
 49
-7.2
 98
        1
 10
0.0
 20
0.0
  0
MTEXT
  5
15F
330
1F
100
AcDbEntity
  8
NOTES
100
AcDbMText
 10
66.408297803
 20
1.0702903347
 30
0.0
 40
0.25
 41
0.0
 71
     1
 72
     1
  1
UNLESS OTHERWISE SPECIFIED DIMENSIONS ARE IN INCHES.
  7
SLDTEXTSTYLE0
 73
     1
 44
1.0
  0
MTEXT
  5
160
330
1F
100
AcDbEntity
  8
NOTES
100
AcDbMText
 10
66.4368251132
 20
3.2193045501
 30
0.0
 40
0.25
 41
0.0
 71
     1
 72
     1
  1
DATE:
  7
SLDTEXTSTYLE0
 73
     1
 44
1.0
  0
MTEXT
  5
161
330
1F
100
AcDbEntity
  8
NOTES
100
AcDbMText
 10
68.7130669976
 20
2.1722148141
 30
0.0
 40
0.25
 41
0.0
 71
     2
 72
     1
  1
DO NOT SCALE DRAWING
  7
SLDTEXTSTYLE0
 73
     1
 44
1.0
  0
MTEXT
  5
163
330
1F
100
AcDbEntity
  8
NOTES
100
AcDbMText
 10
72.8307373075
 20
3.2682755553
 30
0.0
 40
0.25
 41
0.0
 71
     1
 72
     1
  1
TITLE:
  7
SLDTEXTSTYLE1
 73
     1
 44
1.0
  0
MTEXT
  5
164
330
1F
100
AcDbEntity
  8
NOTES
100
AcDbMText
 10
80.1561831052
 20
3.2682755553
 30
0.0
 40
0.25
 41
0.0
 71
     1
 72
     1
  1
DWG NO.
  7
SLDTEXTSTYLE1
 73
     1
 44
1.0
  0
MTEXT
  5
165
330
1F
100
AcDbEntity
  8
NOTES
100
AcDbMText
 10
80.1831753203
 20
1.0645815577
 30
0.0
 40
0.25
 41
0.0
 71
     1
 72
     1
  1
SCALE:     1:1
  7
SLDTEXTSTYLE1
 73
     1
 44
1.0
  0
MTEXT
  5
166
330
1F
100
AcDbEntity
  8
NOTES
100
AcDbMText
 10
84.175649402
 20
2.6510344295
 30
0.0
 40
0.25
 41
0.0
 71
     2
 72
     1
  1
1003-SP 40x30R CAD
  7
SLDTEXTSTYLE1
 73
     1
 44
1.0
  0
MTEXT
  5
167
330
1F
100
AcDbEntity
  8
NOTES
100
AcDbMText
 10
75.9463305998
 20
2.6388861441
 30
0.0
 40
0.25
 41
0.0
 71
     2
 72
     1
  1
1003-SP 40x30R
  7
SLDTEXTSTYLE1
 73
     1
 44
1.0
  0
INSERT
  5
16D
330
1F
100
AcDbEntity
  8
NOTES
100
AcDbBlockReference
  2
SW_NOTE_0
 10
80.266131557
 20
4.6105227838
 30
0.0
  0
INSERT
  5
177
330
1F
100
AcDbEntity
  8
NOTES
100
AcDbBlockReference
  2
SW_NOTE_0_1
 10
66.6159726246
 20
5.1481526848
 30
0.0
  0
MTEXT
  5
178
330
1F
100
AcDbEntity
  8
NOTES
100
AcDbMText
 10
69.5189342185
 20
3.2135957731
 30
0.0
 40
0.25
 41
0.0
 71
     2
 72
     1
  1
September 23, 2021
  7
SLDTEXTSTYLE1
 73
     1
 44
1.0
  0
MTEXT
  5
179
330
1F
100
AcDbEntity
  8
TITLE
100
AcDbMText
 10
0.3276279776
 20
1.7865708579
 30
0.0
 40
0.125
 41
0.0
 71
     2
 72
     1
  1
A
  7
SLDTEXTSTYLE1
 73
     1
 44
1.0
  0
MTEXT
  5
17A
330
1F
100
AcDbEntity
  8
TITLE
100
AcDbMText
 10
89.6622736469
 20
1.7865708579
 30
0.0
 40
0.125
 41
0.0
 71
     2
 72
     1
  1
A
  7
SLDTEXTSTYLE1
 73
     1
 44
1.0
  0
MTEXT
  5
17B
330
1F
100
AcDbEntity
  8
TITLE
100
AcDbMText
 10
0.3317512413
 20
3.9775157398
 30
0.0
 40
0.125
 41
0.0
 71
     2
 72
     1
  1
B
  7
SLDTEXTSTYLE1
 73
     1
 44
1.0
  0
MTEXT
  5
17C
330
1F
100
AcDbEntity
  8
TITLE
100
AcDbMText
 10
89.6663969106
 20
3.9775157398
 30
0.0
 40
0.125
 41
0.0
 71
     2
 72
     1
  1
B
  7
SLDTEXTSTYLE1
 73
     1
 44
1.0
  0
MTEXT
  5
17D
330
1F
100
AcDbEntity
  8
TITLE
100
AcDbMText
 10
0.3313750817
 20
5.9460196768
 30
0.0
 40
0.125
 41
0.0
 71
     2
 72
     1
  1
C
  7
SLDTEXTSTYLE1
 73
     1
 44
1.0
  0
MTEXT
  5
17E
330
1F
100
AcDbEntity
  8
TITLE
100
AcDbMText
 10
89.666020751
 20
5.9460196768
 30
0.0
 40
0.125
 41
0.0
 71
     2
 72
     1
  1
C
  7
SLDTEXTSTYLE1
 73
     1
 44
1.0
  0
MTEXT
  5
17F
330
1F
100
AcDbEntity
  8
TITLE
100
AcDbMText
 10
0.3311870028
 20
7.9145236138
 30
0.0
 40
0.125
 41
0.0
 71
     2
 72
     1
  1
D
  7
SLDTEXTSTYLE1
 73
     1
 44
1.0
  0
MTEXT
  5
180
330
1F
100
AcDbEntity
  8
TITLE
100
AcDbMText
 10
89.6658326721
 20
7.9145236138
 30
0.0
 40
0.125
 41
0.0
 71
     2
 72
     1
  1
D
  7
SLDTEXTSTYLE1
 73
     1
 44
1.0
  0
MTEXT
  5
181
330
1F
100
AcDbEntity
  8
TITLE
100
AcDbMText
 10
0.332923116
 20
9.8830275508
 30
0.0
 40
0.125
 41
0.0
 71
     2
 72
     1
  1
E
  7
SLDTEXTSTYLE1
 73
     1
 44
1.0
  0
MTEXT
  5
182
330
1F
100
AcDbEntity
  8
TITLE
100
AcDbMText
 10
89.6675687853
 20
9.8830275508
 30
0.0
 40
0.125
 41
0.0
 71
     2
 72
     1
  1
E
  7
SLDTEXTSTYLE1
 73
     1
 44
1.0
  0
MTEXT
  5
183
330
1F
100
AcDbEntity
  8
TITLE
100
AcDbMText
 10
0.3313461474
 20
11.8515314878
 30
0.0
 40
0.125
 41
0.0
 71
     2
 72
     1
  1
F
  7
SLDTEXTSTYLE1
 73
     1
 44
1.0
  0
MTEXT
  5
184
330
1F
100
AcDbEntity
  8
TITLE
100
AcDbMText
 10
89.6659918167
 20
11.8515314878
 30
0.0
 40
0.125
 41
0.0
 71
     2
 72
     1
  1
F
  7
SLDTEXTSTYLE1
 73
     1
 44
1.0
  0
MTEXT
  5
185
330
1F
100
AcDbEntity
  8
TITLE
100
AcDbMText
 10
0.3322576054
 20
13.8200354248
 30
0.0
 40
0.125
 41
0.0
 71
     2
 72
     1
  1
G
  7
SLDTEXTSTYLE1
 73
     1
 44
1.0
  0
MTEXT
  5
186
330
1F
100
AcDbEntity
  8
TITLE
100
AcDbMText
 10
89.6669032747
 20
13.8200354248
 30
0.0
 40
0.125
 41
0.0
 71
     2
 72
     1
  1
G
  7
SLDTEXTSTYLE1
 73
     1
 44
1.0
  0
MTEXT
  5
187
330
1F
100
AcDbEntity
  8
TITLE
100
AcDbMText
 10
0.3323733457
 20
15.7885393618
 30
0.0
 40
0.125
 41
0.0
 71
     2
 72
     1
  1
H
  7
SLDTEXTSTYLE1
 73
     1
 44
1.0
  0
MTEXT
  5
188
330
1F
100
AcDbEntity
  8
TITLE
100
AcDbMText
 10
89.667019015
 20
15.7885393618
 30
0.0
 40
0.125
 41
0.0
 71
     2
 72
     1
  1
H
  7
SLDTEXTSTYLE1
 73
     1
 44
1.0
  0
MTEXT
  5
189
330
1F
100
AcDbEntity
  8
TITLE
100
AcDbMText
 10
0.3315776306
 20
17.7570432988
 30
0.0
 40
0.125
 41
0.0
 71
     2
 72
     1
  1
J
  7
SLDTEXTSTYLE1
 73
     1
 44
1.0
  0
MTEXT
  5
18A
330
1F
100
AcDbEntity
  8
TITLE
100
AcDbMText
 10
89.6662232999
 20
17.7570432988
 30
0.0
 40
0.125
 41
0.0
 71
     2
 72
     1
  1
J
  7
SLDTEXTSTYLE1
 73
     1
 44
1.0
  0
MTEXT
  5
18B
330
1F
100
AcDbEntity
  8
TITLE
100
AcDbMText
 10
0.3323154765
 20
19.7255472359
 30
0.0
 40
0.125
 41
0.0
 71
     2
 72
     1
  1
K
  7
SLDTEXTSTYLE1
 73
     1
 44
1.0
  0
MTEXT
  5
18C
330
1F
100
AcDbEntity
  8
TITLE
100
AcDbMText
 10
89.6669611458
 20
19.7255472359
 30
0.0
 40
0.125
 41
0.0
 71
     2
 72
     1
  1
K
  7
SLDTEXTSTYLE1
 73
     1
 44
1.0
  0
MTEXT
  5
18D
330
1F
100
AcDbEntity
  8
TITLE
100
AcDbMText
 10
0.3312448739
 20
21.6940511729
 30
0.0
 40
0.125
 41
0.0
 71
     2
 72
     1
  1
L
  7
SLDTEXTSTYLE1
 73
     1
 44
1.0
  0
MTEXT
  5
18E
330
1F
100
AcDbEntity
  8
TITLE
100
AcDbMText
 10
89.6658905432
 20
21.6940511729
 30
0.0
 40
0.125
 41
0.0
 71
     2
 72
     1
  1
L
  7
SLDTEXTSTYLE1
 73
     1
 44
1.0
  0
MTEXT
  5
18F
330
1F
100
AcDbEntity
  8
TITLE
100
AcDbMText
 10
0.3283224192
 20
23.6625551099
 30
0.0
 40
0.125
 41
0.0
 71
     2
 72
     1
  1
M
  7
SLDTEXTSTYLE1
 73
     1
 44
1.0
  0
MTEXT
  5
190
330
1F
100
AcDbEntity
  8
TITLE
100
AcDbMText
 10
89.6629680885
 20
23.6625551099
 30
0.0
 40
0.125
 41
0.0
 71
     2
 72
     1
  1
M
  7
SLDTEXTSTYLE1
 73
     1
 44
1.0
  0
MTEXT
  5
191
330
1F
100
AcDbEntity
  8
TITLE
100
AcDbMText
 10
0.3315342276
 20
25.6310590469
 30
0.0
 40
0.125
 41
0.0
 71
     2
 72
     1
  1
N
  7
SLDTEXTSTYLE1
 73
     1
 44
1.0
  0
MTEXT
  5
192
330
1F
100
AcDbEntity
  8
TITLE
100
AcDbMText
 10
89.6661798969
 20
25.6310590469
 30
0.0
 40
0.125
 41
0.0
 71
     2
 72
     1
  1
N
  7
SLDTEXTSTYLE1
 73
     1
 44
1.0
  0
MTEXT
  5
193
330
1F
100
AcDbEntity
  8
TITLE
100
AcDbMText
 10
0.3321997349
 20
27.5995629839
 30
0.0
 40
0.125
 41
0.0
 71
     2
 72
     1
  1
P
  7
SLDTEXTSTYLE1
 73
     1
 44
1.0
  0
MTEXT
  5
194
330
1F
100
AcDbEntity
  8
TITLE
100
AcDbMText
 10
89.6668454042
 20
27.5995629839
 30
0.0
 40
0.125
 41
0.0
 71
     2
 72
     1
  1
P
  7
SLDTEXTSTYLE1
 73
     1
 44
1.0
  0
MTEXT
  5
195
330
1F
100
AcDbEntity
  8
TITLE
100
AcDbMText
 10
0.3309265867
 20
29.5680669209
 30
0.0
 40
0.125
 41
0.0
 71
     2
 72
     1
  1
R
  7
SLDTEXTSTYLE1
 73
     1
 44
1.0
  0
MTEXT
  5
196
330
1F
100
AcDbEntity
  8
TITLE
100
AcDbMText
 10
89.665572256
 20
29.5680669209
 30
0.0
 40
0.125
 41
0.0
 71
     2
 72
     1
  1
R
  7
SLDTEXTSTYLE1
 73
     1
 44
1.0
  0
MTEXT
  5
197
330
1F
100
AcDbEntity
  8
TITLE
100
AcDbMText
 10
0.3323010071
 20
31.5365708579
 30
0.0
 40
0.125
 41
0.0
 71
     2
 72
     1
  1
T
  7
SLDTEXTSTYLE1
 73
     1
 44
1.0
  0
MTEXT
  5
198
330
1F
100
AcDbEntity
  8
TITLE
100
AcDbMText
 10
89.6669466764
 20
31.5365708579
 30
0.0
 40
0.125
 41
0.0
 71
     2
 72
     1
  1
T
  7
SLDTEXTSTYLE1
 73
     1
 44
1.0
  0
MTEXT
  5
199
330
1F
100
AcDbEntity
  8
TITLE
100
AcDbMText
 10
0.3328507755
 20
33.5050747949
 30
0.0
 40
0.125
 41
0.0
 71
     2
 72
     1
  1
U
  7
SLDTEXTSTYLE1
 73
     1
 44
1.0
  0
MTEXT
  5
19A
330
1F
100
AcDbEntity
  8
TITLE
100
AcDbMText
 10
89.6674964448
 20
33.5050747949
 30
0.0
 40
0.125
 41
0.0
 71
     2
 72
     1
  1
U
  7
SLDTEXTSTYLE1
 73
     1
 44
1.0
  0
MTEXT
  5
19B
330
1F
100
AcDbEntity
  8
TITLE
100
AcDbMText
 10
0.3307529773
 20
35.4735787319
 30
0.0
 40
0.125
 41
0.0
 71
     2
 72
     1
  1
V
  7
SLDTEXTSTYLE1
 73
     1
 44
1.0
  0
MTEXT
  5
19C
330
1F
100
AcDbEntity
  8
TITLE
100
AcDbMText
 10
89.6653986466
 20
35.4735787319
 30
0.0
 40
0.125
 41
0.0
 71
     2
 72
     1
  1
V
  7
SLDTEXTSTYLE1
 73
     1
 44
1.0
  0
MTEXT
  5
19D
330
1F
100
AcDbEntity
  8
TITLE
100
AcDbMText
 10
0.3327784409
 20
37.4420826689
 30
0.0
 40
0.125
 41
0.0
 71
     2
 72
     1
  1
W
  7
SLDTEXTSTYLE1
 73
     1
 44
1.0
  0
MTEXT
  5
19E
330
1F
100
AcDbEntity
  8
TITLE
100
AcDbMText
 10
89.6674241102
 20
37.4420826689
 30
0.0
 40
0.125
 41
0.0
 71
     2
 72
     1
  1
W
  7
SLDTEXTSTYLE1
 73
     1
 44
1.0
  0
MTEXT
  5
19F
330
1F
100
AcDbEntity
  8
TITLE
100
AcDbMText
 10
0.3321997349
 20
39.4105866059
 30
0.0
 40
0.125
 41
0.0
 71
     2
 72
     1
  1
Y
  7
SLDTEXTSTYLE1
 73
     1
 44
1.0
  0
MTEXT
  5
1A0
330
1F
100
AcDbEntity
  8
TITLE
100
AcDbMText
 10
89.6668454042
 20
39.4105866059
 30
0.0
 40
0.125
 41
0.0
 71
     2
 72
     1
  1
Y
  7
SLDTEXTSTYLE1
 73
     1
 44
1.0
  0
MTEXT
  5
1A1
330
1F
100
AcDbEntity
  8
TITLE
100
AcDbMText
 10
0.3225787898
 20
41.3790905429
 30
0.0
 40
0.125
 41
0.0
 71
     2
 72
     1
  1
AA
  7
SLDTEXTSTYLE1
 73
     1
 44
1.0
  0
MTEXT
  5
1A2
330
1F
100
AcDbEntity
  8
TITLE
100
AcDbMText
 10
89.6572244591
 20
41.3790905429
 30
0.0
 40
0.125
 41
0.0
 71
     2
 72
     1
  1
AA
  7
SLDTEXTSTYLE1
 73
     1
 44
1.0
  0
MTEXT
  5
1A3
330
1F
100
AcDbEntity
  8
TITLE
100
AcDbMText
 10
0.3267020535
 20
43.34759448
 30
0.0
 40
0.125
 41
0.0
 71
     2
 72
     1
  1
AB
  7
SLDTEXTSTYLE1
 73
     1
 44
1.0
  0
MTEXT
  5
1A4
330
1F
100
AcDbEntity
  8
TITLE
100
AcDbMText
 10
89.6613477228
 20
43.34759448
 30
0.0
 40
0.125
 41
0.0
 71
     2
 72
     1
  1
AB
  7
SLDTEXTSTYLE1
 73
     1
 44
1.0
  0
MTEXT
  5
1A5
330
1F
100
AcDbEntity
  8
TITLE
100
AcDbMText
 10
0.3263258985
 20
45.316098417
 30
0.0
 40
0.125
 41
0.0
 71
     2
 72
     1
  1
AC
  7
SLDTEXTSTYLE1
 73
     1
 44
1.0
  0
MTEXT
  5
1A6
330
1F
100
AcDbEntity
  8
TITLE
100
AcDbMText
 10
89.6609715678
 20
45.316098417
 30
0.0
 40
0.125
 41
0.0
 71
     2
 72
     1
  1
AC
  7
SLDTEXTSTYLE1
 73
     1
 44
1.0
  0
MTEXT
  5
1A7
330
1F
100
AcDbEntity
  8
TITLE
100
AcDbMText
 10
0.3261378197
 20
47.284602354
 30
0.0
 40
0.125
 41
0.0
 71
     2
 72
     1
  1
AD
  7
SLDTEXTSTYLE1
 73
     1
 44
1.0
  0
MTEXT
  5
1A8
330
1F
100
AcDbEntity
  8
TITLE
100
AcDbMText
 10
89.6607834889
 20
47.284602354
 30
0.0
 40
0.125
 41
0.0
 71
     2
 72
     1
  1
AD
  7
SLDTEXTSTYLE1
 73
     1
 44
1.0
  0
MTEXT
  5
1A9
330
1F
100
AcDbEntity
  8
TITLE
100
AcDbMText
 10
0.3278739283
 20
49.253106291
 30
0.0
 40
0.125
 41
0.0
 71
     2
 72
     1
  1
AE
  7
SLDTEXTSTYLE1
 73
     1
 44
1.0
  0
MTEXT
  5
1AA
330
1F
100
AcDbEntity
  8
TITLE
100
AcDbMText
 10
89.6625195976
 20
49.253106291
 30
0.0
 40
0.125
 41
0.0
 71
     2
 72
     1
  1
AE
  7
SLDTEXTSTYLE1
 73
     1
 44
1.0
  0
MTEXT
  5
1AB
330
1F
100
AcDbEntity
  8
TITLE
100
AcDbMText
 10
0.3262969596
 20
51.221610228
 30
0.0
 40
0.125
 41
0.0
 71
     2
 72
     1
  1
AF
  7
SLDTEXTSTYLE1
 73
     1
 44
1.0
  0
MTEXT
  5
1AC
330
1F
100
AcDbEntity
  8
TITLE
100
AcDbMText
 10
89.6609426289
 20
51.221610228
 30
0.0
 40
0.125
 41
0.0
 71
     2
 72
     1
  1
AF
  7
SLDTEXTSTYLE1
 73
     1
 44
1.0
  0
MTEXT
  5
1AD
330
1F
100
AcDbEntity
  8
TITLE
100
AcDbMText
 10
0.3272084177
 20
53.190114165
 30
0.0
 40
0.125
 41
0.0
 71
     2
 72
     1
  1
AG
  7
SLDTEXTSTYLE1
 73
     1
 44
1.0
  0
MTEXT
  5
1AE
330
1F
100
AcDbEntity
  8
TITLE
100
AcDbMText
 10
89.661854087
 20
53.190114165
 30
0.0
 40
0.125
 41
0.0
 71
     2
 72
     1
  1
AG
  7
SLDTEXTSTYLE1
 73
     1
 44
1.0
  0
MTEXT
  5
1AF
330
1F
100
AcDbEntity
  8
TITLE
100
AcDbMText
 10
0.3273241625
 20
55.158618102
 30
0.0
 40
0.125
 41
0.0
 71
     2
 72
     1
  1
AH
  7
SLDTEXTSTYLE1
 73
     1
 44
1.0
  0
MTEXT
  5
1B0
330
1F
100
AcDbEntity
  8
TITLE
100
AcDbMText
 10
89.6619698318
 20
55.158618102
 30
0.0
 40
0.125
 41
0.0
 71
     2
 72
     1
  1
AH
  7
SLDTEXTSTYLE1
 73
     1
 44
1.0
  0
MTEXT
  5
1B1
330
1F
100
AcDbEntity
  8
TITLE
100
AcDbMText
 10
0.3265284428
 20
57.127122039
 30
0.0
 40
0.125
 41
0.0
 71
     2
 72
     1
  1
AJ
  7
SLDTEXTSTYLE1
 73
     1
 44
1.0
  0
MTEXT
  5
1B2
330
1F
100
AcDbEntity
  8
TITLE
100
AcDbMText
 10
89.6611741121
 20
57.127122039
 30
0.0
 40
0.125
 41
0.0
 71
     2
 72
     1
  1
AJ
  7
SLDTEXTSTYLE1
 73
     1
 44
1.0
  0
MTEXT
  5
1B3
330
1F
100
AcDbEntity
  8
TITLE
100
AcDbMText
 10
0.3272662887
 20
59.095625976
 30
0.0
 40
0.125
 41
0.0
 71
     2
 72
     1
  1
AK
  7
SLDTEXTSTYLE1
 73
     1
 44
1.0
  0
MTEXT
  5
1B4
330
1F
100
AcDbEntity
  8
TITLE
100
AcDbMText
 10
89.661911958
 20
59.095625976
 30
0.0
 40
0.125
 41
0.0
 71
     2
 72
     1
  1
AK
  7
SLDTEXTSTYLE1
 73
     1
 44
1.0
  0
MTEXT
  5
1B5
330
1F
100
AcDbEntity
  8
TITLE
100
AcDbMText
 10
0.3261956816
 20
61.064129913
 30
0.0
 40
0.125
 41
0.0
 71
     2
 72
     1
  1
AL
  7
SLDTEXTSTYLE1
 73
     1
 44
1.0
  0
MTEXT
  5
1B6
330
1F
100
AcDbEntity
  8
TITLE
100
AcDbMText
 10
89.6608413509
 20
61.064129913
 30
0.0
 40
0.125
 41
0.0
 71
     2
 72
     1
  1
AL
  7
SLDTEXTSTYLE1
 73
     1
 44
1.0
  0
MTEXT
  5
1B7
330
1F
100
AcDbEntity
  8
TITLE
100
AcDbMText
 10
0.3232732315
 20
63.03263385
 30
0.0
 40
0.125
 41
0.0
 71
     2
 72
     1
  1
AM
  7
SLDTEXTSTYLE1
 73
     1
 44
1.0
  0
MTEXT
  5
1B8
330
1F
100
AcDbEntity
  8
TITLE
100
AcDbMText
 10
89.6579189008
 20
63.03263385
 30
0.0
 40
0.125
 41
0.0
 71
     2
 72
     1
  1
AM
  7
SLDTEXTSTYLE1
 73
     1
 44
1.0
  0
MTEXT
  5
1B9
330
1F
100
AcDbEntity
  8
TITLE
100
AcDbMText
 10
0.3264850398
 20
65.001137787
 30
0.0
 40
0.125
 41
0.0
 71
     2
 72
     1
  1
AN
  7
SLDTEXTSTYLE1
 73
     1
 44
1.0
  0
MTEXT
  5
1BA
330
1F
100
AcDbEntity
  8
TITLE
100
AcDbMText
 10
89.6611307091
 20
65.001137787
 30
0.0
 40
0.125
 41
0.0
 71
     2
 72
     1
  1
AN
  7
SLDTEXTSTYLE1
 73
     1
 44
1.0
  0
MTEXT
  5
1BB
330
1F
100
AcDbEntity
  8
TITLE
100
AcDbMText
 10
0.3271505426
 20
66.969641724
 30
0.0
 40
0.125
 41
0.0
 71
     2
 72
     1
  1
AP
  7
SLDTEXTSTYLE1
 73
     1
 44
1.0
  0
MTEXT
  5
1BC
330
1F
100
AcDbEntity
  8
TITLE
100
AcDbMText
 10
89.6617962119
 20
66.969641724
 30
0.0
 40
0.125
 41
0.0
 71
     2
 72
     1
  1
AP
  7
SLDTEXTSTYLE1
 73
     1
 44
1.0
  0
MTEXT
  5
1BD
330
1F
100
AcDbEntity
  8
TITLE
100
AcDbMText
 10
0.325877399
 20
68.9381456611
 30
0.0
 40
0.125
 41
0.0
 71
     2
 72
     1
  1
AR
  7
SLDTEXTSTYLE1
 73
     1
 44
1.0
  0
MTEXT
  5
1BE
330
1F
100
AcDbEntity
  8
TITLE
100
AcDbMText
 10
89.6605230682
 20
68.9381456611
 30
0.0
 40
0.125
 41
0.0
 71
     2
 72
     1
  1
AR
  7
SLDTEXTSTYLE1
 73
     1
 44
1.0
  0
MTEXT
  5
1BF
330
1F
100
AcDbEntity
  8
TITLE
100
AcDbMText
 10
0.3272518193
 20
70.9066495981
 30
0.0
 40
0.125
 41
0.0
 71
     2
 72
     1
  1
AT
  7
SLDTEXTSTYLE1
 73
     1
 44
1.0
  0
MTEXT
  5
1C0
330
1F
100
AcDbEntity
  8
TITLE
100
AcDbMText
 10
89.6618974886
 20
70.9066495981
 30
0.0
 40
0.125
 41
0.0
 71
     2
 72
     1
  1
AT
  7
SLDTEXTSTYLE1
 73
     1
 44
1.0
  0
MTEXT
  5
1C1
330
1F
100
AcDbEntity
  8
TITLE
100
AcDbMText
 10
0.3278015877
 20
72.8751535351
 30
0.0
 40
0.125
 41
0.0
 71
     2
 72
     1
  1
AU
  7
SLDTEXTSTYLE1
 73
     1
 44
1.0
  0
MTEXT
  5
1C2
330
1F
100
AcDbEntity
  8
TITLE
100
AcDbMText
 10
89.662447257
 20
72.8751535351
 30
0.0
 40
0.125
 41
0.0
 71
     2
 72
     1
  1
AU
  7
SLDTEXTSTYLE1
 73
     1
 44
1.0
  0
MTEXT
  5
1C3
330
1F
100
AcDbEntity
  8
TITLE
100
AcDbMText
 10
0.3257037895
 20
74.8436574721
 30
0.0
 40
0.125
 41
0.0
 71
     2
 72
     1
  1
AV
  7
SLDTEXTSTYLE1
 73
     1
 44
1.0
  0
MTEXT
  5
1C4
330
1F
100
AcDbEntity
  8
TITLE
100
AcDbMText
 10
89.6603494588
 20
74.8436574721
 30
0.0
 40
0.125
 41
0.0
 71
     2
 72
     1
  1
AV
  7
SLDTEXTSTYLE1
 73
     1
 44
1.0
  0
MTEXT
  5
1C5
330
1F
100
AcDbEntity
  8
TITLE
100
AcDbMText
 10
0.3277292486
 20
76.8121614091
 30
0.0
 40
0.125
 41
0.0
 71
     2
 72
     1
  1
AW
  7
SLDTEXTSTYLE1
 73
     1
 44
1.0
  0
MTEXT
  5
1C6
330
1F
100
AcDbEntity
  8
TITLE
100
AcDbMText
 10
89.6623749179
 20
76.8121614091
 30
0.0
 40
0.125
 41
0.0
 71
     2
 72
     1
  1
AW
  7
SLDTEXTSTYLE1
 73
     1
 44
1.0
  0
MTEXT
  5
1C7
330
1F
100
AcDbEntity
  8
TITLE
100
AcDbMText
 10
0.3271505426
 20
78.7806653461
 30
0.0
 40
0.125
 41
0.0
 71
     2
 72
     1
  1
AY
  7
SLDTEXTSTYLE1
 73
     1
 44
1.0
  0
MTEXT
  5
1C8
330
1F
100
AcDbEntity
  8
TITLE
100
AcDbMText
 10
89.6617962119
 20
78.7806653461
 30
0.0
 40
0.125
 41
0.0
 71
     2
 72
     1
  1
AY
  7
SLDTEXTSTYLE1
 73
     1
 44
1.0
  0
MTEXT
  5
1C9
330
1F
100
AcDbEntity
  8
TITLE
100
AcDbMText
 10
0.3267020535
 20
80.7491692831
 30
0.0
 40
0.125
 41
0.0
 71
     2
 72
     1
  1
BA
  7
SLDTEXTSTYLE1
 73
     1
 44
1.0
  0
MTEXT
  5
1CA
330
1F
100
AcDbEntity
  8
TITLE
100
AcDbMText
 10
89.6613477228
 20
80.7491692831
 30
0.0
 40
0.125
 41
0.0
 71
     2
 72
     1
  1
BA
  7
SLDTEXTSTYLE1
 73
     1
 44
1.0
  0
MTEXT
  5
1CB
330
1F
100
AcDbEntity
  8
TITLE
100
AcDbMText
 10
0.3308253173
 20
82.7176732201
 30
0.0
 40
0.125
 41
0.0
 71
     2
 72
     1
  1
BB
  7
SLDTEXTSTYLE1
 73
     1
 44
1.0
  0
MTEXT
  5
1CC
330
1F
100
AcDbEntity
  8
TITLE
100
AcDbMText
 10
89.6654709865
 20
82.7176732201
 30
0.0
 40
0.125
 41
0.0
 71
     2
 72
     1
  1
BB
  7
SLDTEXTSTYLE1
 73
     1
 44
1.0
  0
MTEXT
  5
1CD
330
1F
100
AcDbEntity
  8
TITLE
100
AcDbMText
 10
0.3304491531
 20
84.6861771571
 30
0.0
 40
0.125
 41
0.0
 71
     2
 72
     1
  1
BC
  7
SLDTEXTSTYLE1
 73
     1
 44
1.0
  0
MTEXT
  5
1CE
330
1F
100
AcDbEntity
  8
TITLE
100
AcDbMText
 10
89.6650948224
 20
84.6861771571
 30
0.0
 40
0.125
 41
0.0
 71
     2
 72
     1
  1
BC
  7
SLDTEXTSTYLE1
 73
     1
 44
1.0
  0
MTEXT
  5
1CF
330
1F
100
AcDbEntity
  8
TITLE
100
AcDbMText
 10
0.3302610742
 20
86.6546810941
 30
0.0
 40
0.125
 41
0.0
 71
     2
 72
     1
  1
BD
  7
SLDTEXTSTYLE1
 73
     1
 44
1.0
  0
MTEXT
  5
1D0
330
1F
100
AcDbEntity
  8
TITLE
100
AcDbMText
 10
89.6649067435
 20
86.6546810941
 30
0.0
 40
0.125
 41
0.0
 71
     2
 72
     1
  1
BD
  7
SLDTEXTSTYLE1
 73
     1
 44
1.0
  0
MTEXT
  5
1D1
330
1F
100
AcDbEntity
  8
TITLE
100
AcDbMText
 10
0.331997192
 20
88.6231850311
 30
0.0
 40
0.125
 41
0.0
 71
     2
 72
     1
  1
BE
  7
SLDTEXTSTYLE1
 73
     1
 44
1.0
  0
MTEXT
  5
1D2
330
1F
100
AcDbEntity
  8
TITLE
100
AcDbMText
 10
89.6666428613
 20
88.6231850311
 30
0.0
 40
0.125
 41
0.0
 71
     2
 72
     1
  1
BE
  7
SLDTEXTSTYLE1
 73
     1
 44
1.0
  0
MTEXT
  5
1D3
330
1F
100
AcDbEntity
  8
TITLE
100
AcDbMText
 10
0.3304202234
 20
90.5916889681
 30
0.0
 40
0.125
 41
0.0
 71
     2
 72
     1
  1
BF
  7
SLDTEXTSTYLE1
 73
     1
 44
1.0
  0
MTEXT
  5
1D4
330
1F
100
AcDbEntity
  8
TITLE
100
AcDbMText
 10
89.6650658926
 20
90.5916889681
 30
0.0
 40
0.125
 41
0.0
 71
     2
 72
     1
  1
BF
  7
SLDTEXTSTYLE1
 73
     1
 44
1.0
  0
MTEXT
  5
1D5
330
1F
100
AcDbEntity
  8
TITLE
100
AcDbMText
 10
0.3313316814
 20
92.5601929051
 30
0.0
 40
0.125
 41
0.0
 71
     2
 72
     1
  1
BG
  7
SLDTEXTSTYLE1
 73
     1
 44
1.0
  0
MTEXT
  5
1D6
330
1F
100
AcDbEntity
  8
TITLE
100
AcDbMText
 10
89.6659773507
 20
92.5601929051
 30
0.0
 40
0.125
 41
0.0
 71
     2
 72
     1
  1
BG
  7
SLDTEXTSTYLE1
 73
     1
 44
1.0
  0
MTEXT
  5
1D7
330
1F
100
AcDbEntity
  8
TITLE
100
AcDbMText
 10
0.331447417
 20
94.5286968422
 30
0.0
 40
0.125
 41
0.0
 71
     2
 72
     1
  1
BH
  7
SLDTEXTSTYLE1
 73
     1
 44
1.0
  0
MTEXT
  5
1D8
330
1F
100
AcDbEntity
  8
TITLE
100
AcDbMText
 10
89.6660930863
 20
94.5286968422
 30
0.0
 40
0.125
 41
0.0
 71
     2
 72
     1
  1
BH
  7
SLDTEXTSTYLE1
 73
     1
 44
1.0
  0
MTEXT
  5
1D9
330
1F
100
AcDbEntity
  8
TITLE
100
AcDbMText
 10
0.3306517065
 20
96.4972007792
 30
0.0
 40
0.125
 41
0.0
 71
     2
 72
     1
  1
BJ
  7
SLDTEXTSTYLE1
 73
     1
 44
1.0
  0
MTEXT
  5
1DA
330
1F
100
AcDbEntity
  8
TITLE
100
AcDbMText
 10
89.6652973758
 20
96.4972007792
 30
0.0
 40
0.125
 41
0.0
 71
     2
 72
     1
  1
BJ
  7
SLDTEXTSTYLE1
 73
     1
 44
1.0
  0
MTEXT
  5
1DB
330
1F
100
AcDbEntity
  8
TITLE
100
AcDbMText
 10
0.3313895525
 20
98.4657047162
 30
0.0
 40
0.125
 41
0.0
 71
     2
 72
     1
  1
BK
  7
SLDTEXTSTYLE1
 73
     1
 44
1.0
  0
MTEXT
  5
1DC
330
1F
100
AcDbEntity
  8
TITLE
100
AcDbMText
 10
89.6660352218
 20
98.4657047162
 30
0.0
 40
0.125
 41
0.0
 71
     2
 72
     1
  1
BK
  7
SLDTEXTSTYLE1
 73
     1
 44
1.0
  0
MTEXT
  5
1DD
330
1F
100
AcDbEntity
  8
TITLE
100
AcDbMText
 10
0.3303189545
 20
100.4342086532
 30
0.0
 40
0.125
 41
0.0
 71
     2
 72
     1
  1
BL
  7
SLDTEXTSTYLE1
 73
     1
 44
1.0
  0
MTEXT
  5
1DE
330
1F
100
AcDbEntity
  8
TITLE
100
AcDbMText
 10
89.6649646237
 20
100.4342086532
 30
0.0
 40
0.125
 41
0.0
 71
     2
 72
     1
  1
BL
  7
SLDTEXTSTYLE1
 73
     1
 44
1.0
  0
MTEXT
  5
1DF
330
1F
100
AcDbEntity
  8
TITLE
100
AcDbMText
 10
0.3273964952
 20
102.4027125902
 30
0.0
 40
0.125
 41
0.0
 71
     2
 72
     1
  1
BM
  7
SLDTEXTSTYLE1
 73
     1
 44
1.0
  0
MTEXT
  5
1E0
330
1F
100
AcDbEntity
  8
TITLE
100
AcDbMText
 10
89.6620421645
 20
102.4027125902
 30
0.0
 40
0.125
 41
0.0
 71
     2
 72
     1
  1
BM
  7
SLDTEXTSTYLE1
 73
     1
 44
1.0
  0
MTEXT
  5
1E1
330
1F
100
AcDbEntity
  8
TITLE
100
AcDbMText
 10
0.3306083035
 20
104.3712165272
 30
0.0
 40
0.125
 41
0.0
 71
     2
 72
     1
  1
BN
  7
SLDTEXTSTYLE1
 73
     1
 44
1.0
  0
MTEXT
  5
1E2
330
1F
100
AcDbEntity
  8
TITLE
100
AcDbMText
 10
89.6652539728
 20
104.3712165272
 30
0.0
 40
0.125
 41
0.0
 71
     2
 72
     1
  1
BN
  7
SLDTEXTSTYLE1
 73
     1
 44
1.0
  0
MTEXT
  5
1E3
330
1F
100
AcDbEntity
  8
TITLE
100
AcDbMText
 10
0.3312738155
 20
106.3397204642
 30
0.0
 40
0.125
 41
0.0
 71
     2
 72
     1
  1
BP
  7
SLDTEXTSTYLE1
 73
     1
 44
1.0
  0
MTEXT
  5
1E4
330
1F
100
AcDbEntity
  8
TITLE
100
AcDbMText
 10
89.6659194848
 20
106.3397204642
 30
0.0
 40
0.125
 41
0.0
 71
     2
 72
     1
  1
BP
  7
SLDTEXTSTYLE1
 73
     1
 44
1.0
  0
MTEXT
  5
1E5
330
1F
100
AcDbEntity
  8
TITLE
100
AcDbMText
 10
0.3300006627
 20
108.3082244012
 30
0.0
 40
0.125
 41
0.0
 71
     2
 72
     1
  1
BR
  7
SLDTEXTSTYLE1
 73
     1
 44
1.0
  0
MTEXT
  5
1E6
330
1F
100
AcDbEntity
  8
TITLE
100
AcDbMText
 10
89.664646332
 20
108.3082244012
 30
0.0
 40
0.125
 41
0.0
 71
     2
 72
     1
  1
BR
  7
SLDTEXTSTYLE1
 73
     1
 44
1.0
  0
MTEXT
  5
1E7
330
1F
100
AcDbEntity
  8
TITLE
100
AcDbMText
 10
0.331375083
 20
110.2767283382
 30
0.0
 40
0.125
 41
0.0
 71
     2
 72
     1
  1
BT
  7
SLDTEXTSTYLE1
 73
     1
 44
1.0
  0
MTEXT
  5
1E8
330
1F
100
AcDbEntity
  8
TITLE
100
AcDbMText
 10
89.6660207523
 20
110.2767283382
 30
0.0
 40
0.125
 41
0.0
 71
     2
 72
     1
  1
BT
  7
SLDTEXTSTYLE1
 73
     1
 44
1.0
  0
MTEXT
  5
1E9
330
1F
100
AcDbEntity
  8
TITLE
100
AcDbMText
 10
0.3319248515
 20
112.2452322752
 30
0.0
 40
0.125
 41
0.0
 71
     2
 72
     1
  1
BU
  7
SLDTEXTSTYLE1
 73
     1
 44
1.0
  0
MTEXT
  5
1EA
330
1F
100
AcDbEntity
  8
TITLE
100
AcDbMText
 10
89.6665705208
 20
112.2452322752
 30
0.0
 40
0.125
 41
0.0
 71
     2
 72
     1
  1
BU
  7
SLDTEXTSTYLE1
 73
     1
 44
1.0
  0
MTEXT
  5
1EB
330
1F
100
AcDbEntity
  8
TITLE
100
AcDbMText
 10
0.3298270533
 20
114.2137362122
 30
0.0
 40
0.125
 41
0.0
 71
     2
 72
     1
  1
BV
  7
SLDTEXTSTYLE1
 73
     1
 44
1.0
  0
MTEXT
  5
1EC
330
1F
100
AcDbEntity
  8
TITLE
100
AcDbMText
 10
89.6644727226
 20
114.2137362122
 30
0.0
 40
0.125
 41
0.0
 71
     2
 72
     1
  1
BV
  7
SLDTEXTSTYLE1
 73
     1
 44
1.0
  0
MTEXT
  5
1ED
330
1F
100
AcDbEntity
  8
TITLE
100
AcDbMText
 10
0.3318525215
 20
116.1822401492
 30
0.0
 40
0.125
 41
0.0
 71
     2
 72
     1
  1
BW
  7
SLDTEXTSTYLE1
 73
     1
 44
1.0
  0
MTEXT
  5
1EE
330
1F
100
AcDbEntity
  8
TITLE
100
AcDbMText
 10
89.6664981907
 20
116.1822401492
 30
0.0
 40
0.125
 41
0.0
 71
     2
 72
     1
  1
BW
  7
SLDTEXTSTYLE1
 73
     1
 44
1.0
  0
MTEXT
  5
1EF
330
1F
100
AcDbEntity
  8
TITLE
100
AcDbMText
 10
0.3312738155
 20
118.3731850311
 30
0.0
 40
0.125
 41
0.0
 71
     2
 72
     1
  1
BY
  7
SLDTEXTSTYLE1
 73
     1
 44
1.0
  0
MTEXT
  5
1F0
330
1F
100
AcDbEntity
  8
TITLE
100
AcDbMText
 10
89.6659194848
 20
118.3731850311
 30
0.0
 40
0.125
 41
0.0
 71
     2
 72
     1
  1
BY
  7
SLDTEXTSTYLE1
 73
     1
 44
1.0
  0
MTEXT
  5
1F1
330
1F
100
AcDbEntity
  8
TITLE
100
AcDbMText
 10
1.0939393315
 20
0.4125551099
 30
0.0
 40
0.125
 41
0.0
 71
     2
 72
     1
  1
46
  7
SLDTEXTSTYLE1
 73
     1
 44
1.0
  0
MTEXT
  5
1F2
330
1F
100
AcDbEntity
  8
TITLE
100
AcDbMText
 10
1.0939393315
 20
119.7472007792
 30
0.0
 40
0.125
 41
0.0
 71
     2
 72
     1
  1
46
  7
SLDTEXTSTYLE1
 73
     1
 44
1.0
  0
MTEXT
  5
1F3
330
1F
100
AcDbEntity
  8
TITLE
100
AcDbMText
 10
2.674647993
 20
0.4125551099
 30
0.0
 40
0.125
 41
0.0
 71
     2
 72
     1
  1
45
  7
SLDTEXTSTYLE1
 73
     1
 44
1.0
  0
MTEXT
  5
1F4
330
1F
100
AcDbEntity
  8
TITLE
100
AcDbMText
 10
2.674647993
 20
119.7472007792
 30
0.0
 40
0.125
 41
0.0
 71
     2
 72
     1
  1
45
  7
SLDTEXTSTYLE1
 73
     1
 44
1.0
  0
MTEXT
  5
1F5
330
1F
100
AcDbEntity
  8
TITLE
100
AcDbMText
 10
4.64315193
 20
0.4125551099
 30
0.0
 40
0.125
 41
0.0
 71
     2
 72
     1
  1
44
  7
SLDTEXTSTYLE1
 73
     1
 44
1.0
  0
MTEXT
  5
1F6
330
1F
100
AcDbEntity
  8
TITLE
100
AcDbMText
 10
4.64315193
 20
119.7472007792
 30
0.0
 40
0.125
 41
0.0
 71
     2
 72
     1
  1
44
  7
SLDTEXTSTYLE1
 73
     1
 44
1.0
  0
MTEXT
  5
1F7
330
1F
100
AcDbEntity
  8
TITLE
100
AcDbMText
 10
6.611655867
 20
0.4125551099
 30
0.0
 40
0.125
 41
0.0
 71
     2
 72
     1
  1
43
  7
SLDTEXTSTYLE1
 73
     1
 44
1.0
  0
MTEXT
  5
1F8
330
1F
100
AcDbEntity
  8
TITLE
100
AcDbMText
 10
6.611655867
 20
119.7472007792
 30
0.0
 40
0.125
 41
0.0
 71
     2
 72
     1
  1
43
  7
SLDTEXTSTYLE1
 73
     1
 44
1.0
  0
MTEXT
  5
1F9
330
1F
100
AcDbEntity
  8
TITLE
100
AcDbMText
 10
8.580159804
 20
0.4125551099
 30
0.0
 40
0.125
 41
0.0
 71
     2
 72
     1
  1
42
  7
SLDTEXTSTYLE1
 73
     1
 44
1.0
  0
MTEXT
  5
1FA
330
1F
100
AcDbEntity
  8
TITLE
100
AcDbMText
 10
8.580159804
 20
119.7472007792
 30
0.0
 40
0.125
 41
0.0
 71
     2
 72
     1
  1
42
  7
SLDTEXTSTYLE1
 73
     1
 44
1.0
  0
MTEXT
  5
1FB
330
1F
100
AcDbEntity
  8
TITLE
100
AcDbMText
 10
10.548663741
 20
0.4125551099
 30
0.0
 40
0.125
 41
0.0
 71
     2
 72
     1
  1
41
  7
SLDTEXTSTYLE1
 73
     1
 44
1.0
  0
MTEXT
  5
1FC
330
1F
100
AcDbEntity
  8
TITLE
100
AcDbMText
 10
10.548663741
 20
119.7472007792
 30
0.0
 40
0.125
 41
0.0
 71
     2
 72
     1
  1
41
  7
SLDTEXTSTYLE1
 73
     1
 44
1.0
  0
MTEXT
  5
1FD
330
1F
100
AcDbEntity
  8
TITLE
100
AcDbMText
 10
12.517167678
 20
0.4125551099
 30
0.0
 40
0.125
 41
0.0
 71
     2
 72
     1
  1
40
  7
SLDTEXTSTYLE1
 73
     1
 44
1.0
  0
MTEXT
  5
1FE
330
1F
100
AcDbEntity
  8
TITLE
100
AcDbMText
 10
12.517167678
 20
119.7472007792
 30
0.0
 40
0.125
 41
0.0
 71
     2
 72
     1
  1
40
  7
SLDTEXTSTYLE1
 73
     1
 44
1.0
  0
MTEXT
  5
1FF
330
1F
100
AcDbEntity
  8
TITLE
100
AcDbMText
 10
14.485671615
 20
0.4125551099
 30
0.0
 40
0.125
 41
0.0
 71
     2
 72
     1
  1
39
  7
SLDTEXTSTYLE1
 73
     1
 44
1.0
  0
MTEXT
  5
200
330
1F
100
AcDbEntity
  8
TITLE
100
AcDbMText
 10
14.485671615
 20
119.7472007792
 30
0.0
 40
0.125
 41
0.0
 71
     2
 72
     1
  1
39
  7
SLDTEXTSTYLE1
 73
     1
 44
1.0
  0
MTEXT
  5
201
330
1F
100
AcDbEntity
  8
TITLE
100
AcDbMText
 10
16.454175552
 20
0.4125551099
 30
0.0
 40
0.125
 41
0.0
 71
     2
 72
     1
  1
38
  7
SLDTEXTSTYLE1
 73
     1
 44
1.0
  0
MTEXT
  5
202
330
1F
100
AcDbEntity
  8
TITLE
100
AcDbMText
 10
16.454175552
 20
119.7472007792
 30
0.0
 40
0.125
 41
0.0
 71
     2
 72
     1
  1
38
  7
SLDTEXTSTYLE1
 73
     1
 44
1.0
  0
MTEXT
  5
203
330
1F
100
AcDbEntity
  8
TITLE
100
AcDbMText
 10
18.422679489
 20
0.4125551099
 30
0.0
 40
0.125
 41
0.0
 71
     2
 72
     1
  1
37
  7
SLDTEXTSTYLE1
 73
     1
 44
1.0
  0
MTEXT
  5
204
330
1F
100
AcDbEntity
  8
TITLE
100
AcDbMText
 10
18.422679489
 20
119.7472007792
 30
0.0
 40
0.125
 41
0.0
 71
     2
 72
     1
  1
37
  7
SLDTEXTSTYLE1
 73
     1
 44
1.0
  0
MTEXT
  5
205
330
1F
100
AcDbEntity
  8
TITLE
100
AcDbMText
 10
20.391183426
 20
0.4125551099
 30
0.0
 40
0.125
 41
0.0
 71
     2
 72
     1
  1
36
  7
SLDTEXTSTYLE1
 73
     1
 44
1.0
  0
MTEXT
  5
206
330
1F
100
AcDbEntity
  8
TITLE
100
AcDbMText
 10
20.391183426
 20
119.7472007792
 30
0.0
 40
0.125
 41
0.0
 71
     2
 72
     1
  1
36
  7
SLDTEXTSTYLE1
 73
     1
 44
1.0
  0
MTEXT
  5
207
330
1F
100
AcDbEntity
  8
TITLE
100
AcDbMText
 10
22.359687363
 20
0.4125551099
 30
0.0
 40
0.125
 41
0.0
 71
     2
 72
     1
  1
35
  7
SLDTEXTSTYLE1
 73
     1
 44
1.0
  0
MTEXT
  5
208
330
1F
100
AcDbEntity
  8
TITLE
100
AcDbMText
 10
22.359687363
 20
119.7472007792
 30
0.0
 40
0.125
 41
0.0
 71
     2
 72
     1
  1
35
  7
SLDTEXTSTYLE1
 73
     1
 44
1.0
  0
MTEXT
  5
209
330
1F
100
AcDbEntity
  8
TITLE
100
AcDbMText
 10
24.3281913
 20
0.4125551099
 30
0.0
 40
0.125
 41
0.0
 71
     2
 72
     1
  1
34
  7
SLDTEXTSTYLE1
 73
     1
 44
1.0
  0
MTEXT
  5
20A
330
1F
100
AcDbEntity
  8
TITLE
100
AcDbMText
 10
24.3281913
 20
119.7472007792
 30
0.0
 40
0.125
 41
0.0
 71
     2
 72
     1
  1
34
  7
SLDTEXTSTYLE1
 73
     1
 44
1.0
  0
MTEXT
  5
20B
330
1F
100
AcDbEntity
  8
TITLE
100
AcDbMText
 10
26.2966952371
 20
0.4125551099
 30
0.0
 40
0.125
 41
0.0
 71
     2
 72
     1
  1
33
  7
SLDTEXTSTYLE1
 73
     1
 44
1.0
  0
MTEXT
  5
20C
330
1F
100
AcDbEntity
  8
TITLE
100
AcDbMText
 10
26.2966952371
 20
119.7472007792
 30
0.0
 40
0.125
 41
0.0
 71
     2
 72
     1
  1
33
  7
SLDTEXTSTYLE1
 73
     1
 44
1.0
  0
MTEXT
  5
20D
330
1F
100
AcDbEntity
  8
TITLE
100
AcDbMText
 10
28.2651991741
 20
0.4125551099
 30
0.0
 40
0.125
 41
0.0
 71
     2
 72
     1
  1
32
  7
SLDTEXTSTYLE1
 73
     1
 44
1.0
  0
MTEXT
  5
20E
330
1F
100
AcDbEntity
  8
TITLE
100
AcDbMText
 10
28.2651991741
 20
119.7472007792
 30
0.0
 40
0.125
 41
0.0
 71
     2
 72
     1
  1
32
  7
SLDTEXTSTYLE1
 73
     1
 44
1.0
  0
MTEXT
  5
20F
330
1F
100
AcDbEntity
  8
TITLE
100
AcDbMText
 10
30.2337031111
 20
0.4125551099
 30
0.0
 40
0.125
 41
0.0
 71
     2
 72
     1
  1
31
  7
SLDTEXTSTYLE1
 73
     1
 44
1.0
  0
MTEXT
  5
210
330
1F
100
AcDbEntity
  8
TITLE
100
AcDbMText
 10
30.2337031111
 20
119.7472007792
 30
0.0
 40
0.125
 41
0.0
 71
     2
 72
     1
  1
31
  7
SLDTEXTSTYLE1
 73
     1
 44
1.0
  0
MTEXT
  5
211
330
1F
100
AcDbEntity
  8
TITLE
100
AcDbMText
 10
32.2022070481
 20
0.4125551099
 30
0.0
 40
0.125
 41
0.0
 71
     2
 72
     1
  1
30
  7
SLDTEXTSTYLE1
 73
     1
 44
1.0
  0
MTEXT
  5
212
330
1F
100
AcDbEntity
  8
TITLE
100
AcDbMText
 10
32.2022070481
 20
119.7472007792
 30
0.0
 40
0.125
 41
0.0
 71
     2
 72
     1
  1
30
  7
SLDTEXTSTYLE1
 73
     1
 44
1.0
  0
MTEXT
  5
213
330
1F
100
AcDbEntity
  8
TITLE
100
AcDbMText
 10
34.1707109851
 20
0.4125551099
 30
0.0
 40
0.125
 41
0.0
 71
     2
 72
     1
  1
29
  7
SLDTEXTSTYLE1
 73
     1
 44
1.0
  0
MTEXT
  5
214
330
1F
100
AcDbEntity
  8
TITLE
100
AcDbMText
 10
34.1707109851
 20
119.7472007792
 30
0.0
 40
0.125
 41
0.0
 71
     2
 72
     1
  1
29
  7
SLDTEXTSTYLE1
 73
     1
 44
1.0
  0
MTEXT
  5
215
330
1F
100
AcDbEntity
  8
TITLE
100
AcDbMText
 10
36.1392149221
 20
0.4125551099
 30
0.0
 40
0.125
 41
0.0
 71
     2
 72
     1
  1
28
  7
SLDTEXTSTYLE1
 73
     1
 44
1.0
  0
MTEXT
  5
216
330
1F
100
AcDbEntity
  8
TITLE
100
AcDbMText
 10
36.1392149221
 20
119.7472007792
 30
0.0
 40
0.125
 41
0.0
 71
     2
 72
     1
  1
28
  7
SLDTEXTSTYLE1
 73
     1
 44
1.0
  0
MTEXT
  5
217
330
1F
100
AcDbEntity
  8
TITLE
100
AcDbMText
 10
38.1077188591
 20
0.4125551099
 30
0.0
 40
0.125
 41
0.0
 71
     2
 72
     1
  1
27
  7
SLDTEXTSTYLE1
 73
     1
 44
1.0
  0
MTEXT
  5
218
330
1F
100
AcDbEntity
  8
TITLE
100
AcDbMText
 10
38.1077188591
 20
119.7472007792
 30
0.0
 40
0.125
 41
0.0
 71
     2
 72
     1
  1
27
  7
SLDTEXTSTYLE1
 73
     1
 44
1.0
  0
MTEXT
  5
219
330
1F
100
AcDbEntity
  8
TITLE
100
AcDbMText
 10
40.0762227961
 20
0.4125551099
 30
0.0
 40
0.125
 41
0.0
 71
     2
 72
     1
  1
26
  7
SLDTEXTSTYLE1
 73
     1
 44
1.0
  0
MTEXT
  5
21A
330
1F
100
AcDbEntity
  8
TITLE
100
AcDbMText
 10
40.0762227961
 20
119.7472007792
 30
0.0
 40
0.125
 41
0.0
 71
     2
 72
     1
  1
26
  7
SLDTEXTSTYLE1
 73
     1
 44
1.0
  0
MTEXT
  5
21B
330
1F
100
AcDbEntity
  8
TITLE
100
AcDbMText
 10
42.0447267331
 20
0.4125551099
 30
0.0
 40
0.125
 41
0.0
 71
     2
 72
     1
  1
25
  7
SLDTEXTSTYLE1
 73
     1
 44
1.0
  0
MTEXT
  5
21C
330
1F
100
AcDbEntity
  8
TITLE
100
AcDbMText
 10
42.0447267331
 20
119.7472007792
 30
0.0
 40
0.125
 41
0.0
 71
     2
 72
     1
  1
25
  7
SLDTEXTSTYLE1
 73
     1
 44
1.0
  0
MTEXT
  5
21D
330
1F
100
AcDbEntity
  8
TITLE
100
AcDbMText
 10
44.0132306701
 20
0.4125551099
 30
0.0
 40
0.125
 41
0.0
 71
     2
 72
     1
  1
24
  7
SLDTEXTSTYLE1
 73
     1
 44
1.0
  0
MTEXT
  5
21E
330
1F
100
AcDbEntity
  8
TITLE
100
AcDbMText
 10
44.0132306701
 20
119.7472007792
 30
0.0
 40
0.125
 41
0.0
 71
     2
 72
     1
  1
24
  7
SLDTEXTSTYLE1
 73
     1
 44
1.0
  0
MTEXT
  5
21F
330
1F
100
AcDbEntity
  8
TITLE
100
AcDbMText
 10
45.9817346071
 20
0.4125551099
 30
0.0
 40
0.125
 41
0.0
 71
     2
 72
     1
  1
23
  7
SLDTEXTSTYLE1
 73
     1
 44
1.0
  0
MTEXT
  5
220
330
1F
100
AcDbEntity
  8
TITLE
100
AcDbMText
 10
45.9817346071
 20
119.7472007792
 30
0.0
 40
0.125
 41
0.0
 71
     2
 72
     1
  1
23
  7
SLDTEXTSTYLE1
 73
     1
 44
1.0
  0
MTEXT
  5
221
330
1F
100
AcDbEntity
  8
TITLE
100
AcDbMText
 10
47.9502385441
 20
0.4125551099
 30
0.0
 40
0.125
 41
0.0
 71
     2
 72
     1
  1
22
  7
SLDTEXTSTYLE1
 73
     1
 44
1.0
  0
MTEXT
  5
222
330
1F
100
AcDbEntity
  8
TITLE
100
AcDbMText
 10
47.9502385441
 20
119.7472007792
 30
0.0
 40
0.125
 41
0.0
 71
     2
 72
     1
  1
22
  7
SLDTEXTSTYLE1
 73
     1
 44
1.0
  0
MTEXT
  5
223
330
1F
100
AcDbEntity
  8
TITLE
100
AcDbMText
 10
49.9187424811
 20
0.4125551099
 30
0.0
 40
0.125
 41
0.0
 71
     2
 72
     1
  1
21
  7
SLDTEXTSTYLE1
 73
     1
 44
1.0
  0
MTEXT
  5
224
330
1F
100
AcDbEntity
  8
TITLE
100
AcDbMText
 10
49.9187424811
 20
119.7472007792
 30
0.0
 40
0.125
 41
0.0
 71
     2
 72
     1
  1
21
  7
SLDTEXTSTYLE1
 73
     1
 44
1.0
  0
MTEXT
  5
225
330
1F
100
AcDbEntity
  8
TITLE
100
AcDbMText
 10
51.8872464182
 20
0.4125551099
 30
0.0
 40
0.125
 41
0.0
 71
     2
 72
     1
  1
20
  7
SLDTEXTSTYLE1
 73
     1
 44
1.0
  0
MTEXT
  5
226
330
1F
100
AcDbEntity
  8
TITLE
100
AcDbMText
 10
51.8872464182
 20
119.7472007792
 30
0.0
 40
0.125
 41
0.0
 71
     2
 72
     1
  1
20
  7
SLDTEXTSTYLE1
 73
     1
 44
1.0
  0
MTEXT
  5
227
330
1F
100
AcDbEntity
  8
TITLE
100
AcDbMText
 10
53.8557503552
 20
0.4125551099
 30
0.0
 40
0.125
 41
0.0
 71
     2
 72
     1
  1
19
  7
SLDTEXTSTYLE1
 73
     1
 44
1.0
  0
MTEXT
  5
228
330
1F
100
AcDbEntity
  8
TITLE
100
AcDbMText
 10
53.8557503552
 20
119.7472007792
 30
0.0
 40
0.125
 41
0.0
 71
     2
 72
     1
  1
19
  7
SLDTEXTSTYLE1
 73
     1
 44
1.0
  0
MTEXT
  5
229
330
1F
100
AcDbEntity
  8
TITLE
100
AcDbMText
 10
55.8242542922
 20
0.4125551099
 30
0.0
 40
0.125
 41
0.0
 71
     2
 72
     1
  1
18
  7
SLDTEXTSTYLE1
 73
     1
 44
1.0
  0
MTEXT
  5
22A
330
1F
100
AcDbEntity
  8
TITLE
100
AcDbMText
 10
55.8242542922
 20
119.7472007792
 30
0.0
 40
0.125
 41
0.0
 71
     2
 72
     1
  1
18
  7
SLDTEXTSTYLE1
 73
     1
 44
1.0
  0
MTEXT
  5
22B
330
1F
100
AcDbEntity
  8
TITLE
100
AcDbMText
 10
57.7927582292
 20
0.4125551099
 30
0.0
 40
0.125
 41
0.0
 71
     2
 72
     1
  1
17
  7
SLDTEXTSTYLE1
 73
     1
 44
1.0
  0
MTEXT
  5
22C
330
1F
100
AcDbEntity
  8
TITLE
100
AcDbMText
 10
57.7927582292
 20
119.7472007792
 30
0.0
 40
0.125
 41
0.0
 71
     2
 72
     1
  1
17
  7
SLDTEXTSTYLE1
 73
     1
 44
1.0
  0
MTEXT
  5
22D
330
1F
100
AcDbEntity
  8
TITLE
100
AcDbMText
 10
59.7612621662
 20
0.4125551099
 30
0.0
 40
0.125
 41
0.0
 71
     2
 72
     1
  1
16
  7
SLDTEXTSTYLE1
 73
     1
 44
1.0
  0
MTEXT
  5
22E
330
1F
100
AcDbEntity
  8
TITLE
100
AcDbMText
 10
59.7612621662
 20
119.7472007792
 30
0.0
 40
0.125
 41
0.0
 71
     2
 72
     1
  1
16
  7
SLDTEXTSTYLE1
 73
     1
 44
1.0
  0
MTEXT
  5
22F
330
1F
100
AcDbEntity
  8
TITLE
100
AcDbMText
 10
61.7297661032
 20
0.4125551099
 30
0.0
 40
0.125
 41
0.0
 71
     2
 72
     1
  1
15
  7
SLDTEXTSTYLE1
 73
     1
 44
1.0
  0
MTEXT
  5
230
330
1F
100
AcDbEntity
  8
TITLE
100
AcDbMText
 10
61.7297661032
 20
119.7472007792
 30
0.0
 40
0.125
 41
0.0
 71
     2
 72
     1
  1
15
  7
SLDTEXTSTYLE1
 73
     1
 44
1.0
  0
MTEXT
  5
231
330
1F
100
AcDbEntity
  8
TITLE
100
AcDbMText
 10
63.6982700402
 20
0.4125551099
 30
0.0
 40
0.125
 41
0.0
 71
     2
 72
     1
  1
14
  7
SLDTEXTSTYLE1
 73
     1
 44
1.0
  0
MTEXT
  5
232
330
1F
100
AcDbEntity
  8
TITLE
100
AcDbMText
 10
63.6982700402
 20
119.7472007792
 30
0.0
 40
0.125
 41
0.0
 71
     2
 72
     1
  1
14
  7
SLDTEXTSTYLE1
 73
     1
 44
1.0
  0
MTEXT
  5
233
330
1F
100
AcDbEntity
  8
TITLE
100
AcDbMText
 10
65.6667739772
 20
0.4125551099
 30
0.0
 40
0.125
 41
0.0
 71
     2
 72
     1
  1
13
  7
SLDTEXTSTYLE1
 73
     1
 44
1.0
  0
MTEXT
  5
234
330
1F
100
AcDbEntity
  8
TITLE
100
AcDbMText
 10
65.6667739772
 20
119.7472007792
 30
0.0
 40
0.125
 41
0.0
 71
     2
 72
     1
  1
13
  7
SLDTEXTSTYLE1
 73
     1
 44
1.0
  0
MTEXT
  5
235
330
1F
100
AcDbEntity
  8
TITLE
100
AcDbMText
 10
67.6352779142
 20
0.4125551099
 30
0.0
 40
0.125
 41
0.0
 71
     2
 72
     1
  1
12
  7
SLDTEXTSTYLE1
 73
     1
 44
1.0
  0
MTEXT
  5
236
330
1F
100
AcDbEntity
  8
TITLE
100
AcDbMText
 10
67.6352779142
 20
119.7472007792
 30
0.0
 40
0.125
 41
0.0
 71
     2
 72
     1
  1
12
  7
SLDTEXTSTYLE1
 73
     1
 44
1.0
  0
MTEXT
  5
237
330
1F
100
AcDbEntity
  8
TITLE
100
AcDbMText
 10
69.6037818512
 20
0.4125551099
 30
0.0
 40
0.125
 41
0.0
 71
     2
 72
     1
  1
11
  7
SLDTEXTSTYLE1
 73
     1
 44
1.0
  0
MTEXT
  5
238
330
1F
100
AcDbEntity
  8
TITLE
100
AcDbMText
 10
69.6037818512
 20
119.7472007792
 30
0.0
 40
0.125
 41
0.0
 71
     2
 72
     1
  1
11
  7
SLDTEXTSTYLE1
 73
     1
 44
1.0
  0
MTEXT
  5
239
330
1F
100
AcDbEntity
  8
TITLE
100
AcDbMText
 10
71.5722857882
 20
0.4125551099
 30
0.0
 40
0.125
 41
0.0
 71
     2
 72
     1
  1
10
  7
SLDTEXTSTYLE1
 73
     1
 44
1.0
  0
MTEXT
  5
23A
330
1F
100
AcDbEntity
  8
TITLE
100
AcDbMText
 10
71.5722857882
 20
119.7472007792
 30
0.0
 40
0.125
 41
0.0
 71
     2
 72
     1
  1
10
  7
SLDTEXTSTYLE1
 73
     1
 44
1.0
  0
MTEXT
  5
23B
330
1F
100
AcDbEntity
  8
TITLE
100
AcDbMText
 10
73.5420484059
 20
0.4125551099
 30
0.0
 40
0.125
 41
0.0
 71
     2
 72
     1
  1
9
  7
SLDTEXTSTYLE1
 73
     1
 44
1.0
  0
MTEXT
  5
23C
330
1F
100
AcDbEntity
  8
TITLE
100
AcDbMText
 10
73.5420484059
 20
119.7472007792
 30
0.0
 40
0.125
 41
0.0
 71
     2
 72
     1
  1
9
  7
SLDTEXTSTYLE1
 73
     1
 44
1.0
  0
MTEXT
  5
23D
330
1F
100
AcDbEntity
  8
TITLE
100
AcDbMText
 10
75.5105523429
 20
0.4125551099
 30
0.0
 40
0.125
 41
0.0
 71
     2
 72
     1
  1
8
  7
SLDTEXTSTYLE1
 73
     1
 44
1.0
  0
MTEXT
  5
23E
330
1F
100
AcDbEntity
  8
TITLE
100
AcDbMText
 10
75.5105523429
 20
119.7472007792
 30
0.0
 40
0.125
 41
0.0
 71
     2
 72
     1
  1
8
  7
SLDTEXTSTYLE1
 73
     1
 44
1.0
  0
MTEXT
  5
23F
330
1F
100
AcDbEntity
  8
TITLE
100
AcDbMText
 10
77.4790562799
 20
0.4125551099
 30
0.0
 40
0.125
 41
0.0
 71
     2
 72
     1
  1
7
  7
SLDTEXTSTYLE1
 73
     1
 44
1.0
  0
MTEXT
  5
240
330
1F
100
AcDbEntity
  8
TITLE
100
AcDbMText
 10
77.4790562799
 20
119.7472007792
 30
0.0
 40
0.125
 41
0.0
 71
     2
 72
     1
  1
7
  7
SLDTEXTSTYLE1
 73
     1
 44
1.0
  0
MTEXT
  5
241
330
1F
100
AcDbEntity
  8
TITLE
100
AcDbMText
 10
79.447560217
 20
0.4125551099
 30
0.0
 40
0.125
 41
0.0
 71
     2
 72
     1
  1
6
  7
SLDTEXTSTYLE1
 73
     1
 44
1.0
  0
MTEXT
  5
242
330
1F
100
AcDbEntity
  8
TITLE
100
AcDbMText
 10
79.447560217
 20
119.7472007792
 30
0.0
 40
0.125
 41
0.0
 71
     2
 72
     1
  1
6
  7
SLDTEXTSTYLE1
 73
     1
 44
1.0
  0
MTEXT
  5
243
330
1F
100
AcDbEntity
  8
TITLE
100
AcDbMText
 10
81.416064154
 20
0.4125551099
 30
0.0
 40
0.125
 41
0.0
 71
     2
 72
     1
  1
5
  7
SLDTEXTSTYLE1
 73
     1
 44
1.0
  0
MTEXT
  5
244
330
1F
100
AcDbEntity
  8
TITLE
100
AcDbMText
 10
81.416064154
 20
119.7472007792
 30
0.0
 40
0.125
 41
0.0
 71
     2
 72
     1
  1
5
  7
SLDTEXTSTYLE1
 73
     1
 44
1.0
  0
MTEXT
  5
245
330
1F
100
AcDbEntity
  8
TITLE
100
AcDbMText
 10
83.384568091
 20
0.4125551099
 30
0.0
 40
0.125
 41
0.0
 71
     2
 72
     1
  1
4
  7
SLDTEXTSTYLE1
 73
     1
 44
1.0
  0
MTEXT
  5
246
330
1F
100
AcDbEntity
  8
TITLE
100
AcDbMText
 10
83.384568091
 20
119.7472007792
 30
0.0
 40
0.125
 41
0.0
 71
     2
 72
     1
  1
4
  7
SLDTEXTSTYLE1
 73
     1
 44
1.0
  0
MTEXT
  5
247
330
1F
100
AcDbEntity
  8
TITLE
100
AcDbMText
 10
85.353072028
 20
0.4125551099
 30
0.0
 40
0.125
 41
0.0
 71
     2
 72
     1
  1
3
  7
SLDTEXTSTYLE1
 73
     1
 44
1.0
  0
MTEXT
  5
248
330
1F
100
AcDbEntity
  8
TITLE
100
AcDbMText
 10
85.353072028
 20
119.7472007792
 30
0.0
 40
0.125
 41
0.0
 71
     2
 72
     1
  1
3
  7
SLDTEXTSTYLE1
 73
     1
 44
1.0
  0
MTEXT
  5
249
330
1F
100
AcDbEntity
  8
TITLE
100
AcDbMText
 10
87.321575965
 20
0.4125551099
 30
0.0
 40
0.125
 41
0.0
 71
     2
 72
     1
  1
2
  7
SLDTEXTSTYLE1
 73
     1
 44
1.0
  0
MTEXT
  5
24A
330
1F
100
AcDbEntity
  8
TITLE
100
AcDbMText
 10
87.321575965
 20
119.7472007792
 30
0.0
 40
0.125
 41
0.0
 71
     2
 72
     1
  1
2
  7
SLDTEXTSTYLE1
 73
     1
 44
1.0
  0
MTEXT
  5
24B
330
1F
100
AcDbEntity
  8
TITLE
100
AcDbMText
 10
88.9022846264
 20
0.4125551099
 30
0.0
 40
0.125
 41
0.0
 71
     2
 72
     1
  1
1
  7
SLDTEXTSTYLE1
 73
     1
 44
1.0
  0
MTEXT
  5
24C
330
1F
100
AcDbEntity
  8
TITLE
100
AcDbMText
 10
88.9022846264
 20
119.7472007792
 30
0.0
 40
0.125
 41
0.0
 71
     2
 72
     1
  1
1
  7
SLDTEXTSTYLE1
 73
     1
 44
1.0
  0
LINE
  5
24D
330
1F
100
AcDbEntity
  8
OBJECT
  6
SLD-Solid
370
    25
100
AcDbLine
 10
13.4305881773
 20
19.6905161036
 30
0.0
 11
41.4305881773
 21
19.6905161036
 31
0.0
  0
LINE
  5
24E
330
1F
100
AcDbEntity
  8
OBJECT
  6
SLD-Solid
370
    25
100
AcDbLine
 10
41.4305881773
 20
20.9555161036
 30
0.0
 11
13.4305881773
 21
20.9555161036
 31
0.0
  0
LINE
  5
24F
330
1F
100
AcDbEntity
  8
OBJECT
  6
SLD-Solid
370
    25
100
AcDbLine
 10
41.4305881773
 20
19.6905161036
 30
0.0
 11
43.4775881773
 21
19.6905161036
 31
0.0
  0
LINE
  5
250
330
1F
100
AcDbEntity
  8
OBJECT
  6
SLD-Solid
370
    25
100
AcDbLine
 10
43.4775881773
 20
20.9555161036
 30
0.0
 11
41.4305881773
 21
20.9555161036
 31
0.0
  0
LINE
  5
251
330
1F
100
AcDbEntity
  8
OBJECT
  6
SLD-Solid
370
    25
100
AcDbLine
 10
45.4305881773
 20
20.9555161036
 30
0.0
 11
43.4775881773
 21
20.9555161036
 31
0.0
  0
LINE
  5
252
330
1F
100
AcDbEntity
  8
OBJECT
  6
SLD-Solid
370
    25
100
AcDbLine
 10
43.4775881773
 20
19.6905161036
 30
0.0
 11
45.4305881773
 21
19.6905161036
 31
0.0
  0
LINE
  5
253
330
1F
100
AcDbEntity
  8
OBJECT
  6
SLD-Solid
370
    25
100
AcDbLine
 10
4.7980881773
 20
48.3700161036
 30
0.0
 11
4.7980881773
 21
46.3230161036
 31
0.0
  0
LINE
  5
254
330
1F
100
AcDbEntity
  8
OBJECT
  6
SLD-Solid
370
    25
100
AcDbLine
 10
6.0630881773
 20
46.3230161036
 30
0.0
 11
6.0630881773
 21
48.3700161036
 31
0.0
  0
LINE
  5
255
330
1F
100
AcDbEntity
  8
OBJECT
  6
SLD-Solid
370
    25
100
AcDbLine
 10
4.7980881773
 20
24.3230161036
 30
0.0
 11
4.7980881773
 21
21.8230161036
 31
0.0
  0
LINE
  5
256
330
1F
100
AcDbEntity
  8
OBJECT
  6
SLD-Solid
370
    25
100
AcDbLine
 10
6.0630881773
 20
21.8230161036
 30
0.0
 11
6.0630881773
 21
24.3230161036
 31
0.0
  0
LINE
  5
257
330
1F
100
AcDbEntity
  8
OBJECT
  6
SLD-Solid
370
    25
100
AcDbLine
 10
4.7980881773
 20
46.3230161036
 30
0.0
 11
4.7980881773
 21
24.3230161036
 31
0.0
  0
LINE
  5
258
330
1F
100
AcDbEntity
  8
OBJECT
  6
SLD-Solid
370
    25
100
AcDbLine
 10
6.0630881773
 20
24.3230161036
 30
0.0
 11
6.0630881773
 21
46.3230161036
 31
0.0
  0
ARC
  5
259
330
1F
100
AcDbEntity
  8
OBJECT
  6
SLD-Solid
370
    25
100
AcDbCircle
 10
6.9305881773
 20
21.8230161036
 30
0.0
 40
0.8675000000000033
100
AcDbArc
 50
180.0
 51
270.0
  0
ARC
  5
25A
330
1F
100
AcDbEntity
  8
OBJECT
  6
SLD-Solid
370
    25
100
AcDbCircle
 10
6.9305881773
 20
21.8230161036
 30
0.0
 40
2.132500000000004
100
AcDbArc
 50
180.0
 51
270.0
  0
LINE
  5
25B
330
1F
100
AcDbEntity
  8
OBJECT
  6
SLD-Solid
370
    25
100
AcDbLine
 10
6.9305881773
 20
19.6905161036
 30
0.0
 11
13.4305881773
 21
19.6905161036
 31
0.0
  0
LINE
  5
25C
330
1F
100
AcDbEntity
  8
OBJECT
  6
SLD-Solid
370
    25
100
AcDbLine
 10
13.4305881773
 20
20.9555161036
 30
0.0
 11
6.9305881773
 21
20.9555161036
 31
0.0
  0
LINE
  5
25D
330
1F
100
AcDbEntity
  8
OBJECT
  6
SLD-Solid
370
    25
100
AcDbLine
 10
6.0630881773
 20
48.3700161036
 30
0.0
 11
6.0630881773
 21
50.3230161036
 31
0.0
  0
LINE
  5
25E
330
1F
100
AcDbEntity
  8
OBJECT
  6
SLD-Solid
370
    25
100
AcDbLine
 10
4.7980881773
 20
50.3230161036
 30
0.0
 11
4.7980881773
 21
48.3700161036
 31
0.0
  0
ARC
  5
25F
330
1F
100
AcDbEntity
  8
OBJECT
  6
SLD-Solid
370
    25
100
AcDbCircle
 10
45.4305881773
 20
20.3230161036
 30
0.0
 40
0.6325000000000038
100
AcDbArc
 50
270.0
 51
90.0
  0
ARC
  5
260
330
1F
100
AcDbEntity
  8
OBJECT
  6
SLD-Solid
370
    25
100
AcDbCircle
 10
5.4305881773
 20
50.3230161036
 30
0.0
 40
0.632500000000003
100
AcDbArc
 50
0.0
 51
180.0
  0
LWPOLYLINE
  5
261
330
1F
100
AcDbEntity
  8
OBJECT
  6
SLD-Solid
370
    25
100
AcDbPolyline
 90
        3
 70
   128
 43
0.0
 10
45.4305881773
 20
19.6680161036
 10
45.3352194125
 20
19.6749961975
 10
45.2603860915
 20
19.6905161036
  0
ARC
  5
262
330
1F
100
AcDbEntity
  8
OBJECT
  6
SLD-Solid
370
    25
100
AcDbCircle
 10
45.4305881773
 20
20.3230161036
 30
0.0
 40
0.6550000000000047
100
AcDbArc
 50
270.0
 51
105.0611922807
  0
ARC
  5
263
330
1F
100
AcDbEntity
  8
OBJECT
  6
SLD-Solid
370
    25
100
AcDbCircle
 10
45.4305881773
 20
20.3230161036
 30
0.0
 40
1.530000000000004
100
AcDbArc
 50
204.4185149509
 51
90.0
  0
ARC
  5
264
330
1F
100
AcDbEntity
  8
OBJECT
  6
SLD-Solid
370
    25
100
AcDbCircle
 10
45.4305881773
 20
20.3230161036
 30
0.0
 40
1.530000000000001
100
AcDbArc
 50
90.0
 51
155.5814850491
  0
LWPOLYLINE
  5
265
330
1F
100
AcDbEntity
  8
OBJECT
  6
SLD-Solid
370
    25
100
AcDbPolyline
 90
        3
 70
   128
 43
0.0
 10
11.3680881773
 20
19.6680161036
 10
11.2727194125
 20
19.6749961975
 10
11.1978860915
 20
19.6905161036
  0
ARC
  5
266
330
1F
100
AcDbEntity
  8
OBJECT
  6
SLD-Solid
370
    25
100
AcDbCircle
 10
11.3680881773
 20
20.3230161036
 30
0.0
 40
0.6549999999999995
100
AcDbArc
 50
74.9388077193
 51
105.0611922807
  0
LWPOLYLINE
  5
267
330
1F
100
AcDbEntity
  8
OBJECT
  6
SLD-Solid
370
    25
100
AcDbPolyline
 90
        3
 70
   128
 43
0.0
 10
11.5382902631
 20
19.6905161036
 10
11.4634569422
 20
19.6749961975
 10
11.3680881773
 20
19.6680161036
  0
ARC
  5
268
330
1F
100
AcDbEntity
  8
OBJECT
  6
SLD-Solid
370
    25
100
AcDbCircle
 10
11.3680881773
 20
20.3230161036
 30
0.0
 40
1.530000000000003
100
AcDbArc
 50
24.4185149509
 51
90.0
  0
ARC
  5
269
330
1F
100
AcDbEntity
  8
OBJECT
  6
SLD-Solid
370
    25
100
AcDbCircle
 10
11.3680881773
 20
20.3230161036
 30
0.0
 40
1.530000000000006
100
AcDbArc
 50
204.4185149509
 51
335.5814850491
  0
ARC
  5
26A
330
1F
100
AcDbEntity
  8
OBJECT
  6
SLD-Solid
370
    25
100
AcDbCircle
 10
11.3680881773
 20
20.3230161036
 30
0.0
 40
1.529999999999998
100
AcDbArc
 50
90.0
 51
155.5814850491
  0
ARC
  5
26B
330
1F
100
AcDbEntity
  8
OBJECT
  6
SLD-Solid
370
    25
100
AcDbCircle
 10
5.4305881773
 20
50.3230161036
 30
0.0
 40
0.6550000000000035
100
AcDbArc
 50
344.9388077193
 51
195.0611922807
  0
ARC
  5
26C
330
1F
100
AcDbEntity
  8
OBJECT
  6
SLD-Solid
370
    25
100
AcDbCircle
 10
5.4305881773
 20
50.3230161036
 30
0.0
 40
1.530000000000002
100
AcDbArc
 50
294.4185149509
 51
90.0
  0
ARC
  5
26D
330
1F
100
AcDbEntity
  8
OBJECT
  6
SLD-Solid
370
    25
100
AcDbCircle
 10
5.4305881773
 20
50.3230161036
 30
0.0
 40
1.530000000000004
100
AcDbArc
 50
90.0
 51
245.5814850491
  0
LINE
  5
26E
330
1F
100
AcDbEntity
  8
OBJECT
100
AcDbLine
 10
2.3956497491
 20
8.3230161036
 30
0.0
 11
52.0326810725
 21
8.3230161036
 31
0.0
  0
LINE
  5
26F
330
1F
100
AcDbEntity
  8
OBJECT
100
AcDbLine
 10
52.0326810725
 20
8.3230161036
 30
0.0
 11
52.0326810725
 21
54.3188591816
 31
0.0
  0
LINE
  5
270
330
1F
100
AcDbEntity
  8
DIMS
100
AcDbLine
 10
52.0326810725
 20
18.4140790408
 30
0.0
 11
51.3935606506
 21
18.4140790408
 31
0.0
  0
LINE
  5
271
330
1F
100
AcDbEntity
  8
DIMS
100
AcDbLine
 10
51.3935606506
 20
18.4140790408
 30
0.0
 11
51.0741765711
 21
19.0042452747
 31
0.0
  0
LINE
  5
272
330
1F
100
AcDbEntity
  8
DIMS
100
AcDbLine
 10
51.0741765711
 20
19.0042452747
 30
0.0
 11
50.7617356238
 21
17.830855939
 31
0.0
  0
LINE
  5
273
330
1F
100
AcDbEntity
  8
DIMS
100
AcDbLine
 10
50.7617356238
 20
17.830855939
 30
0.0
 11
50.2896026366
 21
18.4140790408
 31
0.0
  0
LINE
  5
274
330
1F
100
AcDbEntity
  8
DIMS
100
AcDbLine
 10
50.2896026366
 20
18.4140790408
 30
0.0
 11
49.1787014905
 21
18.4140790408
 31
0.0
  0
LINE
  5
275
330
1F
100
AcDbEntity
  8
DIMS
100
AcDbLine
 10
3.5117849677
 20
8.3230161036
 30
0.0
 11
3.5117849677
 21
8.8850449536
 31
0.0
  0
LINE
  5
276
330
1F
100
AcDbEntity
  8
DIMS
100
AcDbLine
 10
3.5117849677
 20
8.8850449536
 30
0.0
 11
3.8488172814
 21
9.2140526884
 31
0.0
  0
LINE
  5
277
330
1F
100
AcDbEntity
  8
DIMS
100
AcDbLine
 10
3.8488172814
 20
9.2140526884
 30
0.0
 11
3.1658293155
 21
9.5890537643
 31
0.0
  0
LINE
  5
278
330
1F
100
AcDbEntity
  8
DIMS
100
AcDbLine
 10
3.1658293155
 20
9.5890537643
 30
0.0
 11
3.5117849677
 21
9.9267723772
 31
0.0
  0
LINE
  5
279
330
1F
100
AcDbEntity
  8
DIMS
100
AcDbLine
 10
3.5117849677
 20
9.9267723772
 30
0.0
 11
3.5117849677
 21
10.5122562739
 31
0.0
  0
HATCH
  5
27A
330
1F
100
AcDbEntity
  8
NOTES
100
AcDbHatch
 10
0.0
 20
0.0
 30
0.0
210
0.0
220
0.0
230
1.0
  2
AR-SAND
 70
     0
 71
     0
 91
        1
 92
        0
 93
        4
 72
     1
 10
6.06308817731778
 20
24.32301610361218
 11
6.063088177317619
 21
46.32301610361218
 72
     1
 10
6.063088177317619
 20
46.32301610361218
 11
4.798088177317705
 21
46.32301610361217
 72
     1
 10
4.798088177317705
 20
46.32301610361217
 11
4.798088177317867
 21
24.32301610361217
 72
     1
 10
4.798088177317867
 20
24.32301610361217
 11
6.06308817731778
 21
24.32301610361218
 97
        0
 75
     0
 76
     1
 52
0.0
 41
5.3333333333
 77
     0
 78
     4
 53
37.5
 43
0.0
 44
0.0
 45
-0.3359645765845768
 46
10.27639343473685
 79
     6
 49
0.0
 49
-8.106666666666666
 49
0.0
 49
-9.066666666666666
 49
0.0
 49
-8.666666666666666
 53
7.5
 43
0.0
 44
0.0
 45
9.438809094761211
 46
15.05144568122528
 79
     6
 49
0.0
 49
-4.373333333333333
 49
0.0
 49
-7.306666666666667
 49
0.0
 49
-2.8
 53
-32.5
 43
-6.56
 44
0.0
 45
16.60875659600797
 46
0.0301816188638118
 79
     6
 49
0.0
 49
-2.666666666666667
 49
0.0
 49
-9.6
 49
0.0
 49
-12.53333333333333
 53
-42.50000000000001
 43
-6.56
 44
0.0
 45
16.03267522438556
 46
4.680936346315996
 79
     6
 49
0.0
 49
-1.333333333333333
 49
0.0
 49
-6.293333333333333
 49
0.0
 49
-7.2
 98
        1
 10
0.0
 20
0.0
  0
HATCH
  5
27B
330
1F
100
AcDbEntity
  8
NOTES
100
AcDbHatch
 10
0.0
 20
0.0
 30
0.0
210
0.0
220
0.0
230
1.0
  2
AR-SAND
 70
     0
 71
     0
 91
        1
 92
        0
 93
        4
 72
     1
 10
41.43058817731783
 20
19.72051610361241
 11
41.43058817731783
 21
20.95551610361242
 72
     1
 10
41.43058817731783
 20
20.95551610361242
 11
13.43058817731783
 21
20.95551610361222
 72
     1
 10
13.43058817731783
 20
20.95551610361222
 11
13.43058817731784
 21
19.72051610361222
 72
     1
 10
13.43058817731784
 20
19.72051610361222
 11
41.43058817731783
 21
19.72051610361241
 97
        0
 75
     0
 76
     1
 52
0.0
 41
5.3333333333
 77
     0
 78
     4
 53
37.5
 43
0.0
 44
0.0
 45
-0.3359645765845768
 46
10.27639343473685
 79
     6
 49
0.0
 49
-8.106666666666666
 49
0.0
 49
-9.066666666666666
 49
0.0
 49
-8.666666666666666
 53
7.5
 43
0.0
 44
0.0
 45
9.438809094761211
 46
15.05144568122528
 79
     6
 49
0.0
 49
-4.373333333333333
 49
0.0
 49
-7.306666666666667
 49
0.0
 49
-2.8
 53
-32.5
 43
-6.56
 44
0.0
 45
16.60875659600797
 46
0.0301816188638118
 79
     6
 49
0.0
 49
-2.666666666666667
 49
0.0
 49
-9.6
 49
0.0
 49
-12.53333333333333
 53
-42.50000000000001
 43
-6.56
 44
0.0
 45
16.03267522438556
 46
4.680936346315996
 79
     6
 49
0.0
 49
-1.333333333333333
 49
0.0
 49
-6.293333333333333
 49
0.0
 49
-7.2
 98
        1
 10
0.0
 20
0.0
  0
DIMENSION
  5
27C
330
1F
100
AcDbEntity
  8
DIMS
100
AcDbDimension
  2
_D
 10
45.4305881773
 20
18.3993153162
 30
0.0
 11
25.9362182988
 21
18.3993153162
 31
0.0
 70
   160
  1
<>
 71
     2
 42
-1.0
  3
SLDDIMSTYLE0
100
AcDbAlignedDimension
 13
5.4226829664
 23
20.3151108927
 33
0.0
 14
45.4305881773
 24
20.3230161036
 34
0.0
 50
0.0
100
AcDbRotatedDimension
  0
DIMENSION
  5
28E
330
1F
100
AcDbEntity
  8
DIMS
100
AcDbDimension
  2
_D_1
 10
3.5068873899
 20
50.3230161036
 30
0.0
 11
3.5068873899
 21
36.0710119123
 31
0.0
 70
   160
  1
<>
 71
     2
 42
-1.0
  3
SLDDIMSTYLE0
100
AcDbAlignedDimension
 13
5.4226829664
 23
20.3151108927
 33
0.0
 14
5.4305881773
 24
50.3230161036
 34
0.0
 50
90.0
100
AcDbRotatedDimension
  0
DIMENSION
  5
299
330
1F
100
AcDbEntity
  8
DIMS
100
AcDbDimension
  2
_D_2
 10
3.5068873899
 20
8.3230161036
 30
0.0
 11
3.5068873899
 21
8.6308225111
 31
0.0
 70
   160
  1
24"\P\P\P\P^M\P 
 71
     2
 42
-1.0
  3
SLDDIMSTYLE0
100
AcDbAlignedDimension
 13
5.4226829664
 23
20.3151108927
 33
0.0
 14
2.3956497491
 24
8.3230161036
 34
0.0
 50
90.0
100
AcDbRotatedDimension
  0
DIMENSION
  5
2A3
330
1F
100
AcDbEntity
  8
DIMS
100
AcDbDimension
  2
_D_3
 10
52.0326810725
 20
18.3993153162
 30
0.0
 11
50.188934634
 21
18.3993153162
 31
0.0
 70
   160
  1
20"                
 71
     2
 42
-1.0
  3
SLDDIMSTYLE0
100
AcDbAlignedDimension
 13
45.4305881773
 23
20.3230161036
 33
0.0
 14
52.0326810725
 24
8.3230161036
 34
0.0
 50
0.0
100
AcDbRotatedDimension
  0
DIMENSION
  5
2AC
330
1F
100
AcDbEntity
  8
DIMS
100
AcDbDimension
  2
_D_4
 10
41.4305881773
 20
24.2726211116
 30
0.0
 11
27.0393544873
 21
24.2726211116
 31
0.0
 70
   160
  1
<>
 71
     2
 42
-1.0
  3
SLDDIMSTYLE0
100
AcDbAlignedDimension
 13
13.4305881773
 23
20.9555161036
 33
0.0
 14
41.4305881773
 24
20.9555161036
 34
0.0
 50
0.0
100
AcDbRotatedDimension
  0
DIMENSION
  5
2B7
330
1F
100
AcDbEntity
  8
DIMS
100
AcDbDimension
  2
_D_5
 10
45.4305881773
 20
24.2574472369
 30
0.0
 11
43.5748540919
 21
24.2574472369
 31
0.0
 70
   160
  1
<>
 71
     2
 42
-1.0
  3
SLDDIMSTYLE0
100
AcDbAlignedDimension
 13
41.4305881773
 23
20.9555161036
 33
0.0
 14
45.4305881773
 24
20.3230161036
 34
0.0
 50
0.0
100
AcDbRotatedDimension
  0
DIMENSION
  5
2C2
330
1F
100
AcDbEntity
  8
DIMS
100
AcDbDimension
  2
_D_6
 10
7.2619396491
 20
24.3230161036
 30
0.0
 11
7.2619396491
 21
36.0710119123
 31
0.0
 70
   160
  1
<>
 71
     2
 42
-1.0
  3
SLDDIMSTYLE0
100
AcDbAlignedDimension
 13
6.0630881773
 23
46.3230161036
 33
0.0
 14
6.0630881773
 24
24.3230161036
 34
0.0
 50
90.0
100
AcDbRotatedDimension
  0
DIMENSION
  5
2CD
330
1F
100
AcDbEntity
  8
DIMS
100
AcDbDimension
  2
_D_7
 10
4.352416997
 20
49.2374531594
 30
0.0
 11
9.7737683421
 21
53.204969195
 31
0.0
 70
   163
  1
<>
 71
     1
 42
-1.0
  3
SLDDIMSTYLE1
100
AcDbDiametricDimension
 15
6.5087593577
 25
51.4085790478
 35
0.0
 40
0.0
  0
DIMENSION
  5
2DB
330
1F
100
AcDbEntity
  8
DIMS
100
AcDbDimension
  2
_D_8
 10
45.4305881773
 20
25.424606038
 30
0.0
 11
29.6298918501
 21
25.424606038
 31
0.0
 70
   160
  1
<>
 71
     2
 42
-1.0
  3
SLDDIMSTYLE2
100
AcDbAlignedDimension
 13
11.3680881773
 23
20.3230161036
 33
0.0
 14
45.4305881773
 24
20.3230161036
 34
0.0
 50
0.0
100
AcDbRotatedDimension
  0
MTEXT
  5
2EB
330
1F
100
AcDbEntity
  8
NOTES
100
AcDbMText
 10
24.3025379978
 20
17.4701792592
 30
0.0
 40
0.5
 41
0.0
 71
     1
 72
     1
  1
Front view
  7
SLDTEXTSTYLE1
 73
     1
 44
1.0
  0
INSERT
  5
2F1
102
{ACAD_REACTORS
330
2F3
102
}
330
1F
100
AcDbEntity
  8
NOTES
100
AcDbBlockReference
  2
SW_NOTE_0_2
 10
8.5524181544
 20
52.034696489
 30
0.0
  0
LEADER
  5
2F3
330
1F
100
AcDbEntity
  8
NOTES
100
AcDbLeader
  3
SLDDIMSTYLE3
 73
     2
 76
     3
 10
6.854769459
 20
50.8821293988
 30
0.0
 10
8.0524181544
 20
52.034696489
 30
0.0
 10
8.5524181544
 20
52.034696489
 30
0.0
340
2F1
  0
MTEXT
  5
2F4
330
1F
100
AcDbEntity
  8
NOTES
100
AcDbMText
 10
4.5084788879
 20
9.1229666097
 30
0.0
 40
0.5
 41
0.0
 71
     1
 72
     1
  1
Floor
  7
SLDTEXTSTYLE1
 73
     1
 44
1.0
  0
MTEXT
  5
2F5
330
1F
100
AcDbEntity
  8
NOTES
100
AcDbMText
 10
48.9613495713
 20
16.1233511233
 30
0.0
 40
0.5
 41
0.0
 71
     1
 72
     1
  1
Wall
  7
SLDTEXTSTYLE1
 73
     1
 44
1.0
  0
LEADER
  5
2F6
330
1F
100
AcDbEntity
  8
NOTES
100
AcDbLeader
  3
SLDDIMSTYLE3
 76
     3
 10
52.0326810725
 20
16.9173240929
 30
0.0
 10
50.8407001599
 20
15.8778731975
 30
0.0
 10
50.3407001599
 20
15.8778731975
 30
0.0
  0
MTEXT
  5
2F7
330
1F
100
AcDbEntity
  8
NOTES
100
AcDbMText
 10
21.0806682509
 20
22.4294534201
 30
0.0
 40
0.5
 41
0.0
 71
     1
 72
     1
  1
peened area
  7
SLDTEXTSTYLE1
 73
     1
 44
1.0
  0
LEADER
  5
2FE
330
1F
100
AcDbEntity
  8
NOTES
100
AcDbLeader
  3
SLDDIMSTYLE4
 76
     3
 10
19.7346219299
 20
20.6594476903
 30
0.0
 10
20.5563962262
 20
22.1863251886
 30
0.0
 10
21.0563962262
 20
22.1863251886
 30
0.0
  0
ARC
  5
2FF
330
1F
100
AcDbEntity
  8
OBJECT
  6
SLD-Solid
370
    25
100
AcDbCircle
 10
63.8034549905
 20
48.8430161036
 30
0.0
 40
0.0500000000000009
100
AcDbArc
 50
186.0090059575
 51
270.0
  0
ARC
  5
300
330
1F
100
AcDbEntity
  8
OBJECT
  6
SLD-Solid
370
    25
100
AcDbCircle
 10
63.8034549905
 20
51.8030161036
 30
0.0
 40
0.0500000000000009
100
AcDbArc
 50
90.0
 51
173.9909940425
  0
LINE
  5
301
330
1F
100
AcDbEntity
  8
OBJECT
  6
SLD-Solid
370
    25
100
AcDbLine
 10
64.1424419032
 20
51.8530161036
 30
0.0
 11
63.8034549905
 21
51.8530161036
 31
0.0
  0
LINE
  5
302
330
1F
100
AcDbEntity
  8
OBJECT
  6
SLD-Solid
370
    25
100
AcDbLine
 10
63.8034549905
 20
48.7930161036
 30
0.0
 11
64.1424419032
 21
48.7930161036
 31
0.0
  0
LINE
  5
303
330
1F
100
AcDbEntity
  8
OBJECT
  6
SLD-Solid
370
    25
100
AcDbLine
 10
63.7537297178
 20
51.8082503428
 30
0.0
 11
63.66633664
 21
50.9780161036
 31
0.0
  0
LINE
  5
304
330
1F
100
AcDbEntity
  8
OBJECT
  6
SLD-Solid
370
    25
100
AcDbLine
 10
63.66633664
 20
49.6680161036
 30
0.0
 11
63.7537297178
 21
48.8377818644
 31
0.0
  0
LINE
  5
305
330
1F
100
AcDbEntity
  8
OBJECT
  6
SLD-Solid
370
    25
100
AcDbLine
 10
64.1424419032
 20
21.8530161036
 30
0.0
 11
63.8034549905
 21
21.8530161036
 31
0.0
  0
LINE
  5
306
330
1F
100
AcDbEntity
  8
OBJECT
  6
SLD-Solid
370
    25
100
AcDbLine
 10
63.8034549905
 20
18.7930161036
 30
0.0
 11
64.1424419032
 21
18.7930161036
 31
0.0
  0
ARC
  5
307
330
1F
100
AcDbEntity
  8
OBJECT
  6
SLD-Solid
370
    25
100
AcDbCircle
 10
63.8034549905
 20
18.8430161036
 30
0.0
 40
0.0500000000000009
100
AcDbArc
 50
186.0090059575
 51
270.0
  0
ARC
  5
308
330
1F
100
AcDbEntity
  8
OBJECT
  6
SLD-Solid
370
    25
100
AcDbCircle
 10
63.8034549905
 20
21.8030161036
 30
0.0
 40
0.0500000000000013
100
AcDbArc
 50
90.0
 51
173.9909940425
  0
LINE
  5
309
330
1F
100
AcDbEntity
  8
OBJECT
  6
SLD-Solid
370
    25
100
AcDbLine
 10
63.7537297178
 20
21.8082503428
 30
0.0
 11
63.66633664
 21
20.9780161036
 31
0.0
  0
LINE
  5
30A
330
1F
100
AcDbEntity
  8
OBJECT
  6
SLD-Solid
370
    25
100
AcDbLine
 10
63.66633664
 20
19.6680161036
 30
0.0
 11
63.7537297178
 21
18.8377818644
 31
0.0
  0
LINE
  5
30B
330
1F
100
AcDbEntity
  8
OBJECT
  6
SLD-Solid
370
    25
100
AcDbLine
 10
63.66633664
 20
20.9555161036
 30
0.0
 11
61.9544419032
 21
20.9555161036
 31
0.0
  0
LINE
  5
30C
330
1F
100
AcDbEntity
  8
OBJECT
  6
SLD-Solid
370
    25
100
AcDbLine
 10
61.9544419032
 20
19.6905161036
 30
0.0
 11
63.66633664
 21
19.6905161036
 31
0.0
  0
LINE
  5
30D
330
1F
100
AcDbEntity
  8
OBJECT
  6
SLD-Solid
370
    25
100
AcDbLine
 10
61.3219419032
 20
21.8230161036
 30
0.0
 11
61.3219419032
 21
20.3230161036
 31
0.0
  0
LINE
  5
30E
330
1F
100
AcDbEntity
  8
OBJECT
  6
SLD-Solid
370
    25
100
AcDbLine
 10
62.5869419032
 20
20.9510161036
 30
0.0
 11
62.5869419032
 21
21.8230161036
 31
0.0
  0
LINE
  5
30F
330
1F
100
AcDbEntity
  8
OBJECT
  6
SLD-Solid
370
    25
100
AcDbLine
 10
61.3219419032
 20
46.3230161036
 30
0.0
 11
61.3219419032
 21
24.3230161036
 31
0.0
  0
LINE
  5
310
330
1F
100
AcDbEntity
  8
OBJECT
  6
SLD-Solid
370
    25
100
AcDbLine
 10
62.5869419032
 20
24.3230161036
 30
0.0
 11
62.5869419032
 21
46.3230161036
 31
0.0
  0
LINE
  5
311
330
1F
100
AcDbEntity
  8
OBJECT
  6
SLD-Solid
370
    25
100
AcDbLine
 10
61.3219419032
 20
24.3230161036
 30
0.0
 11
61.3219419032
 21
21.8230161036
 31
0.0
  0
LINE
  5
312
330
1F
100
AcDbEntity
  8
OBJECT
  6
SLD-Solid
370
    25
100
AcDbLine
 10
62.5869419032
 20
21.8230161036
 30
0.0
 11
62.5869419032
 21
24.3230161036
 31
0.0
  0
LINE
  5
313
330
1F
100
AcDbEntity
  8
OBJECT
  6
SLD-Solid
370
    25
100
AcDbLine
 10
61.3219419032
 20
48.3700161036
 30
0.0
 11
61.3219419032
 21
46.3230161036
 31
0.0
  0
LINE
  5
314
330
1F
100
AcDbEntity
  8
OBJECT
  6
SLD-Solid
370
    25
100
AcDbLine
 10
62.5869419032
 20
46.3230161036
 30
0.0
 11
62.5869419032
 21
48.3700161036
 31
0.0
  0
ARC
  5
315
330
1F
100
AcDbEntity
  8
OBJECT
  6
SLD-Solid
370
    25
100
AcDbCircle
 10
63.9074419032
 20
48.3700161036
 30
0.0
 40
1.320499999999996
100
AcDbArc
 50
100.5204432311
 51
180.0
  0
ARC
  5
316
330
1F
100
AcDbEntity
  8
OBJECT
  6
SLD-Solid
370
    25
100
AcDbCircle
 10
63.9074419032
 20
48.3700161036
 30
0.0
 40
2.585499999999999
100
AcDbArc
 50
95.3507694917
 51
180.0
  0
LINE
  5
317
330
1F
100
AcDbEntity
  8
OBJECT
  6
SLD-Solid
370
    25
100
AcDbLine
 10
64.1424419032
 20
48.7930161036
 30
0.0
 11
64.1424419032
 21
51.8530161036
 31
0.0
  0
LINE
  5
318
330
1F
100
AcDbEntity
  8
OBJECT
  6
SLD-Solid
370
    25
100
AcDbLine
 10
63.66633664
 20
50.9780161036
 30
0.0
 11
63.66633664
 21
49.6680161036
 31
0.0
  0
LINE
  5
319
330
1F
100
AcDbEntity
  8
OBJECT
  6
SLD-Solid
370
    25
100
AcDbLine
 10
64.1424419032
 20
18.7930161036
 30
0.0
 11
64.1424419032
 21
21.8530161036
 31
0.0
  0
LINE
  5
31A
330
1F
100
AcDbEntity
  8
OBJECT
  6
SLD-Solid
370
    25
100
AcDbLine
 10
63.66633664
 20
20.9780161036
 30
0.0
 11
63.66633664
 21
19.6680161036
 31
0.0
  0
ARC
  5
31B
330
1F
100
AcDbEntity
  8
OBJECT
  6
SLD-Solid
370
    25
100
AcDbCircle
 10
61.9544419032
 20
20.3230161036
 30
0.0
 40
0.6325000000000038
100
AcDbArc
 50
90.0
 51
270.0
  0
LINE
  5
31C
330
1F
100
AcDbEntity
  8
OBJECT
  6
SLD-Solid
370
    25
100
AcDbLine
 10
63.7537297178
 20
48.8377818644
 30
0.0
 11
63.7537297178
 21
51.8082503428
 31
0.0
  0
HATCH
  5
31D
330
1F
100
AcDbEntity
  8
NOTES
100
AcDbHatch
 10
0.0
 20
0.0
 30
0.0
210
0.0
220
0.0
230
1.0
  2
AR-SAND
 70
     0
 71
     0
 91
        1
 92
        0
 93
        4
 72
     1
 10
62.58694190317392
 20
24.32301610361217
 11
62.58694190317392
 21
46.32301610361218
 72
     1
 10
62.58694190317392
 20
46.32301610361218
 11
61.32194190317393
 21
46.32301610361218
 72
     1
 10
61.32194190317393
 20
46.32301610361218
 11
61.32194190317393
 21
24.32301610361217
 72
     1
 10
61.32194190317393
 20
24.32301610361217
 11
62.58694190317392
 21
24.32301610361217
 97
        0
 75
     0
 76
     1
 52
0.0
 41
5.3333333333
 77
     0
 78
     4
 53
37.5
 43
0.0
 44
0.0
 45
-0.3359645765845768
 46
10.27639343473685
 79
     6
 49
0.0
 49
-8.106666666666666
 49
0.0
 49
-9.066666666666666
 49
0.0
 49
-8.666666666666666
 53
7.5
 43
0.0
 44
0.0
 45
9.438809094761211
 46
15.05144568122528
 79
     6
 49
0.0
 49
-4.373333333333333
 49
0.0
 49
-7.306666666666667
 49
0.0
 49
-2.8
 53
-32.5
 43
-6.56
 44
0.0
 45
16.60875659600797
 46
0.0301816188638118
 79
     6
 49
0.0
 49
-2.666666666666667
 49
0.0
 49
-9.6
 49
0.0
 49
-12.53333333333333
 53
-42.50000000000001
 43
-6.56
 44
0.0
 45
16.03267522438556
 46
4.680936346315996
 79
     6
 49
0.0
 49
-1.333333333333333
 49
0.0
 49
-6.293333333333333
 49
0.0
 49
-7.2
 98
        1
 10
0.0
 20
0.0
  0
DIMENSION
  5
31E
330
1F
100
AcDbEntity
  8
DIMS
100
AcDbDimension
  2
_D_9
 10
61.3219419032
 20
23.1099752037
 30
0.0
 11
59.0095661489
 21
23.1099752037
 31
0.0
 70
   160
  1
%%c<>
 71
     2
 42
-1.0
  3
SLDDIMSTYLE5
100
AcDbAlignedDimension
 13
62.5869419032
 23
20.3230161036
 33
0.0
 14
61.3219419032
 24
20.3230161036
 34
0.0
100
AcDbRotatedDimension
  0
DIMENSION
  5
32D
330
1F
100
AcDbEntity
  8
DIMS
100
AcDbDimension
  2
_D_10
 10
62.5869419032
 20
23.1099752037
 30
0.0
 11
66.4259064701
 21
23.1099752037
 31
0.0
 70
   160
  1
<>
 71
     2
 42
-1.0
  3
SLDDIMSTYLE2
100
AcDbAlignedDimension
 13
64.1424419032
 23
21.8530161036
 33
0.0
 14
62.5869419032
 24
21.8230161036
 34
0.0
100
AcDbRotatedDimension
  0
DIMENSION
  5
33B
330
1F
100
AcDbEntity
  8
DIMS
100
AcDbDimension
  2
_D_11
 10
61.3219419032
 20
18.1630948438
 30
0.0
 11
62.5867986246
 21
18.1630948438
 31
0.0
 70
   160
  1
<>
 71
     2
 42
-1.0
  3
SLDDIMSTYLE2
100
AcDbAlignedDimension
 13
64.1424419032
 23
20.9510161036
 33
0.0
 14
61.3219419032
 24
24.3230161036
 34
0.0
100
AcDbRotatedDimension
  0
MTEXT
  5
34A
330
1F
100
AcDbEntity
  8
NOTES
100
AcDbMText
 10
61.1946057796
 20
17.0509127844
 30
0.0
 40
0.5
 41
0.0
 71
     1
 72
     1
  1
Side view
  7
SLDTEXTSTYLE1
 73
     1
 44
1.0
  0
SPLINE
  5
34B
330
1F
100
AcDbEntity
  8
OBJECT
  6
SLD-Solid
370
    25
100
AcDbSpline
210
0.0
220
0.0
230
1.0
 70
     8
 71
     3
 72
    20
 73
    16
 74
     0
 42
0.00000001
 43
0.00000001
 40
0.0
 40
0.0
 40
0.0
 40
0.0
 40
0.0388503016919429
 40
0.123619668448639
 40
0.2090025784062884
 40
0.2949800255303517
 40
0.381427727652865
 40
0.4681858910717333
 40
0.5551108586494933
 40
0.6420969475416756
 40
0.7290642566804793
 40
0.8159856785521833
 40
0.9028519093409776
 40
0.9896643686258703
 40
1.0
 40
1.0
 40
1.0
 40
1.0
 10
54.697837160688
 20
109.8129813634274
 30
0.0
 10
54.68920750864666
 20
109.8032587869749
 30
0.0
 10
54.66174839822235
 20
109.7723220470994
 30
0.0
 10
54.62374455273044
 20
109.7101408723549
 30
0.0
 10
54.58388517717509
 20
109.6274779220156
 30
0.0
 10
54.5528498049802
 20
109.5359166439298
 30
0.0
 10
54.53038045078509
 20
109.4368599319167
 30
0.0
 10
54.51684445321994
 20
109.330968257749
 30
0.0
 10
54.51232052041895
 20
109.219218002768
 30
0.0
 10
54.51681427245564
 20
109.1025703217991
 30
0.0
 10
54.53031863501365
 20
108.9820246825377
 30
0.0
 10
54.55241263665245
 20
108.8585648829594
 30
0.0
 10
54.58388106276025
 20
108.733237818417
 30
0.0
 10
54.6098993118365
 20
108.6439426471538
 30
0.0
 10
54.62759981517294
 20
108.5969246153233
 30
0.0
 10
54.62948298010577
 20
108.5919223446493
 30
0.0
  0
SPLINE
  5
34C
330
1F
100
AcDbEntity
  8
OBJECT
  6
SLD-Solid
370
    25
100
AcDbSpline
210
0.0
220
0.0
230
1.0
 70
     8
 71
     3
 72
    16
 73
    12
 74
     0
 42
0.00000001
 43
0.00000001
 40
0.0
 40
0.0
 40
0.0
 40
0.0
 40
0.1070809925385903
 40
0.223877004563431
 40
0.3407743333774531
 40
0.457742800424857
 40
0.5746887902564567
 40
0.6914686786142501
 40
0.807881746412858
 40
0.9236867592704467
 40
1.0
 40
1.0
 40
1.0
 40
1.0
 10
55.37920059264851
 20
107.5046641652118
 30
0.0
 10
55.4088695963485
 20
107.4815647793951
 30
0.0
 10
55.47089935082935
 20
107.43327029518
 30
0.0
 10
55.5670447551899
 20
107.3714958331584
 30
0.0
 10
55.66630941589008
 20
107.3173061014689
 30
0.0
 10
55.76542411769206
 20
107.2739506411633
 30
0.0
 10
55.86351729123572
 20
107.2416455255715
 30
0.0
 10
55.95982807266499
 20
107.2206650500727
 30
0.0
 10
56.05325842625123
 20
107.2118371563442
 30
0.0
 10
56.13366142938146
 20
107.2129356170759
 30
0.0
 10
56.18081151338668
 20
107.2220390722105
 30
0.0
 10
56.19954047663679
 20
107.2256551479877
 30
0.0
  0
LINE
  5
34D
330
1F
100
AcDbEntity
  8
OBJECT
  6
SLD-Solid
370
    25
100
AcDbLine
 10
55.0851041495
 20
110.0775618849
 30
0.0
 11
54.8454042048
 21
109.9391860523
 31
0.0
  0
LINE
  5
34E
330
1F
100
AcDbEntity
  8
OBJECT
  6
SLD-Solid
370
    25
100
AcDbLine
 10
56.3752798657
 20
107.2890765334
 30
0.0
 11
56.6149798104
 21
107.427452366
 31
0.0
  0
SPLINE
  5
34F
330
1F
100
AcDbEntity
  8
OBJECT
  6
SLD-Solid
370
    25
100
AcDbSpline
210
0.0
220
0.0
230
1.0
 70
     8
 71
     3
 72
    18
 73
    14
 74
     0
 42
0.00000001
 43
0.00000001
 40
0.0
 40
0.0
 40
0.0
 40
0.0
 40
0.0434457640258803
 40
0.1382421940239646
 40
0.2337247410397102
 40
0.3298721508830254
 40
0.4265454404956648
 40
0.523565914753879
 40
0.6207729238343701
 40
0.7180482840496817
 40
0.8153026431220904
 40
0.9125056870878002
 40
1.0
 40
1.0
 40
1.0
 40
1.0
 10
58.89628367398318
 20
82.89304542488117
 30
0.0
 10
58.8876540221566
 20
82.88332284838368
 30
0.0
 10
58.8601949124156
 20
82.85238610836512
 30
0.0
 10
58.82219105705156
 20
82.79020493568919
 30
0.0
 10
58.78233172364893
 20
82.70754197651708
 30
0.0
 10
58.75129619341708
 20
82.61598073154684
 30
0.0
 10
58.72882743344138
 20
82.51692389501913
 30
0.0
 10
58.71528920676683
 20
82.41103268794602
 30
0.0
 10
58.71077361631367
 20
82.29928068488366
 30
0.0
 10
58.7152362039789
 20
82.18263953419343
 30
0.0
 10
58.72885684359618
 20
82.06206952987812
 30
0.0
 10
58.74980063517736
 20
81.94278202760687
 30
0.0
 10
58.77040928179554
 20
81.86321309824102
 30
0.0
 10
58.78017195196248
 20
81.82551992860554
 30
0.0
  0
LINE
  5
350
330
1F
100
AcDbEntity
  8
OBJECT
  6
SLD-Solid
370
    25
100
AcDbLine
 10
59.2835506628
 20
83.1576259464
 30
0.0
 11
59.0438507181
 21
83.0192501137
 31
0.0
  0
LINE
  5
351
330
1F
100
AcDbEntity
  8
OBJECT
  6
SLD-Solid
370
    25
100
AcDbLine
 10
60.6640146109
 20
80.4212628817
 30
0.0
 11
60.8134263237
 21
80.5075164275
 31
0.0
  0
SPLINE
  5
352
330
1F
100
AcDbEntity
  8
OBJECT
  6
SLD-Solid
370
    25
100
AcDbSpline
210
0.0
220
0.0
230
1.0
 70
     8
 71
     3
 72
    17
 73
    13
 74
     0
 42
0.00000001
 43
0.00000001
 40
0.0
 40
0.0
 40
0.0
 40
0.0
 40
0.05266949728992
 40
0.1675916404454404
 40
0.2833455663814698
 40
0.3999055085466729
 40
0.517102977147598
 40
0.6347213392730362
 40
0.7525658384118288
 40
0.8704931999421208
 40
0.9883951016914273
 40
1.0
 40
1.0
 40
1.0
 40
1.0
 10
82.98210840814991
 20
68.98859477040082
 30
0.0
 10
82.97347875107049
 20
68.97887219542496
 30
0.0
 10
82.94601962461519
 20
68.94793546024806
 30
0.0
 10
82.90801601074558
 20
68.88575421761787
 30
0.0
 10
82.86815564619107
 20
68.80309155714195
 30
0.0
 10
82.83712398190401
 20
68.7115291923143
 30
0.0
 10
82.81464068596529
 20
68.61247656645358
 30
0.0
 10
82.80115698839175
 20
68.50656956380605
 30
0.0
 10
82.79643732508104
 20
68.39487667501382
 30
0.0
 10
82.80166226436229
 20
68.27801469211741
 30
0.0
 10
82.80920154438515
 20
68.19423785675363
 30
0.0
 10
82.81747388873804
 20
68.14903055176704
 30
0.0
 10
82.81821516035424
 20
68.14497959709176
 30
0.0
  0
SPLINE
  5
353
330
1F
100
AcDbEntity
  8
OBJECT
  6
SLD-Solid
370
    25
100
AcDbSpline
210
0.0
220
0.0
230
1.0
 70
     8
 71
     3
 72
    19
 73
    15
 74
     0
 42
0.00000001
 43
0.00000001
 40
0.0
 40
0.0
 40
0.0
 40
0.0
 40
0.0805932536838824
 40
0.1667827866764205
 40
0.2530385283107094
 40
0.3393701913123427
 40
0.425782202295067
 40
0.512269172921921
 40
0.598808775463983
 40
0.6853317481453072
 40
0.7717318299664537
 40
0.8578605180847634
 40
0.943539334248232
 40
1.0
 40
1.0
 40
1.0
 40
1.0
 10
83.3846355684885
 20
66.95146419746088
 30
0.0
 10
83.41213917692006
 20
66.92036147642663
 30
0.0
 10
83.46905620468848
 20
66.85599630626416
 30
0.0
 10
83.55988199617809
 20
66.76752983236767
 30
0.0
 10
83.65514631256606
 20
66.68478895636088
 30
0.0
 10
83.75256663033569
 20
66.61112683320154
 30
0.0
 10
83.85128746310636
 20
66.54697462709352
 30
0.0
 10
83.95058831856652
 20
66.49295561594442
 30
0.0
 10
84.0496933137355
 20
66.44955437217116
 30
0.0
 10
84.14778908754984
 20
66.4172615213276
 30
0.0
 10
84.24409917354353
 20
66.3962777656542
 30
0.0
 10
84.33752971306338
 20
66.38745074892225
 30
0.0
 10
84.41793267081847
 20
66.38854899563184
 30
0.0
 10
84.4650827591358
 20
66.39765247110502
 30
0.0
 10
84.4838117240988
 20
66.40126855496113
 30
0.0
  0
LINE
  5
354
330
1F
100
AcDbEntity
  8
OBJECT
  6
SLD-Solid
370
    25
100
AcDbLine
 10
83.3693753969
 20
69.2531752919
 30
0.0
 11
83.1296754522
 21
69.1147994592
 31
0.0
  0
LINE
  5
355
330
1F
100
AcDbEntity
  8
OBJECT
  6
SLD-Solid
370
    25
100
AcDbLine
 10
84.6595511132
 20
66.4646899404
 30
0.0
 11
84.8992510579
 21
66.603065773
 31
0.0
  0
SPLINE
  5
356
330
1F
100
AcDbEntity
  8
OBJECT
  6
SLD-Solid
370
    25
100
AcDbSpline
210
0.0
220
0.0
230
1.0
 70
     8
 71
     3
 72
    26
 73
    22
 74
     0
 42
0.00000001
 43
0.00000001
 40
0.0
 40
0.0
 40
0.0
 40
0.0
 40
0.0040370099043102
 40
0.0581938260216456
 40
0.1129301957923038
 40
0.1682196730393415
 40
0.2240075795182597
 40
0.2802219507561022
 40
0.3367808941644648
 40
0.3935972318539127
 40
0.4505812771217952
 40
0.5076423737488819
 40
0.5646801112533915
 40
0.6215832941291
 40
0.6782623682703849
 40
0.7346297914988773
 40
0.7906019307865638
 40
0.8461024326546621
 40
0.9010677188453177
 40
0.9554554567081772
 40
1.0
 40
1.0
 40
1.0
 40
1.0
 10
83.53652813770785
 20
68.32095385082616
 30
0.0
 10
83.5344766907628
 20
68.3199442421059
 30
0.0
 10
83.50490491624598
 20
68.3053906503118
 30
0.0
 10
83.43917513786229
 20
68.27935248977253
 30
0.0
 10
83.33948204522339
 20
68.2440321755397
 30
0.0
 10
83.23092366966688
 20
68.2127823247264
 30
0.0
 10
83.11580764320118
 20
68.18597524641964
 30
0.0
 10
82.99494444550284
 20
68.16426471125861
 30
0.0
 10
82.86966941914942
 20
68.14808172469668
 30
0.0
 10
82.74126437255741
 20
68.13776903452704
 30
0.0
 10
82.61108836334434
 20
68.13354372277715
 30
0.0
 10
82.4805262906332
 20
68.13550679474116
 30
0.0
 10
82.35099171533007
 20
68.14363747250538
 30
0.0
 10
82.22388974670064
 20
68.15779036417753
 30
0.0
 10
82.10059426766992
 20
68.17769552216967
 30
0.0
 10
81.98241515159557
 20
68.20295968033462
 30
0.0
 10
81.87062221578654
 20
68.2330647420224
 30
0.0
 10
81.76632034505064
 20
68.26735607503358
 30
0.0
 10
81.67079948952625
 20
68.30507324490443
 30
0.0
 10
81.58903579602236
 20
68.34295216679307
 30
0.0
 10
81.54309384216603
 20
68.36847621078051
 30
0.0
 10
81.52240834569734
 20
68.37996848477957
 30
0.0
  0
SPLINE
  5
357
330
1F
100
AcDbEntity
  8
OBJECT
  6
SLD-Solid
370
    25
100
AcDbSpline
210
0.0
220
0.0
230
1.0
 70
     8
 71
     3
 72
    28
 73
    24
 74
     0
 42
0.00000001
 43
0.00000001
 40
0.0
 40
0.0
 40
0.0
 40
0.0
 40
0.0282584607210453
 40
0.0791092270023375
 40
0.1299061537890374
 40
0.1806371918424214
 40
0.2312396490326861
 40
0.2816887159302142
 40
0.331986050827154
 40
0.3821506536411418
 40
0.4322123094503968
 40
0.4822072697732058
 40
0.5321755728336832
 40
0.5821594297694266
 40
0.6321899977472879
 40
0.6823089778377627
 40
0.7325599140864253
 40
0.7829846858561287
 40
0.8336212535866379
 40
0.8844998704569421
 40
0.935636989570963
 40
0.9870260784609938
 40
1.0
 40
1.0
 40
1.0
 40
1.0
 10
80.88995974730503
 20
67.284416673868
 30
0.0
 10
80.9160853516088
 20
67.2697108058279
 30
0.0
 10
80.98922367226405
 20
67.22854190195393
 30
0.0
 10
81.1153105406974
 20
67.16697784005335
 30
0.0
 10
81.26962812022458
 20
67.10203699405355
 30
0.0
 10
81.42997916153149
 20
67.04501719464407
 30
0.0
 10
81.59539849222352
 20
66.99586242432933
 30
0.0
 10
81.76506579517232
 20
66.9546707215152
 30
0.0
 10
81.93816519501264
 20
66.92146176753847
 30
0.0
 10
82.11393066542749
 20
66.8962503271081
 30
0.0
 10
82.2916166514821
 20
66.87904008931135
 30
0.0
 10
82.47049320244419
 20
66.86983238105138
 30
0.0
 10
82.64983926806846
 20
66.86862731494408
 30
0.0
 10
82.8289257737351
 20
66.8754247023106
 30
0.0
 10
83.00702659970655
 20
66.8902229911368
 30
0.0
 10
83.18342324403635
 20
66.91301941996254
 30
0.0
 10
83.35741345761237
 20
66.94382085492734
 30
0.0
 10
83.52831468477521
 20
66.98262781426969
 30
0.0
 10
83.69538584283643
 20
67.02950650144801
 30
0.0
 10
83.85807727261249
 20
67.08432452614834
 30
0.0
 10
84.01503373416338
 20
67.14773811089121
 30
0.0
 10
84.12948297166717
 20
67.19997786528597
 30
0.0
 10
84.189537141679
 20
67.2329279880277
 30
0.0
 10
84.20164251221141
 20
67.23956988225083
 30
0.0
  0
LINE
  5
358
330
1F
100
AcDbEntity
  8
OBJECT
  6
SLD-Solid
370
    25
100
AcDbLine
 10
79.4425121662
 20
68.1200103763
 30
0.0
 11
80.8899597473
 21
67.2844166739
 31
0.0
  0
LINE
  5
359
330
1F
100
AcDbEntity
  8
OBJECT
  6
SLD-Solid
370
    25
100
AcDbLine
 10
81.5224083457
 20
68.3799684848
 30
0.0
 11
80.0749607646
 21
69.2155621872
 31
0.0
  0
LINE
  5
35A
330
1F
100
AcDbEntity
  8
OBJECT
  6
SLD-Solid
370
    25
100
AcDbLine
 10
59.643522293
 20
79.5497239418
 30
0.0
 11
79.4425121662
 21
68.1200103763
 31
0.0
  0
LINE
  5
35B
330
1F
100
AcDbEntity
  8
OBJECT
  6
SLD-Solid
370
    25
100
AcDbLine
 10
80.0749607646
 20
69.2155621872
 30
0.0
 11
60.2759708914
 21
80.6452757527
 31
0.0
  0
SPLINE
  5
35C
330
1F
100
AcDbEntity
  8
OBJECT
  6
SLD-Solid
370
    25
100
AcDbSpline
210
0.0
220
0.0
230
1.0
 70
     8
 71
     3
 72
    26
 73
    22
 74
     0
 42
0.00000001
 43
0.00000001
 40
0.0
 40
0.0
 40
0.0
 40
0.0
 40
0.0283911189692323
 40
0.0823221357760719
 40
0.1367287044624248
 40
0.1917171093715424
 40
0.2472608279655823
 40
0.3033049728911172
 40
0.3597772874374892
 40
0.4165955367150929
 40
0.473672171782002
 40
0.5309171194413391
 40
0.5882393296194507
 40
0.6455379154433827
 40
0.7027012354082254
 40
0.7596393492660772
 40
0.8162643441331966
 40
0.8724922441529039
 40
0.9282464009520884
 40
0.9834630201859513
 40
1.0
 40
1.0
 40
1.0
 40
1.0
 10
54.93539234269657
 20
106.2646524455426
 30
0.0
 10
54.93555333979785
 20
106.279542027075
 30
0.0
 10
54.93602016272396
 20
106.3227154628911
 30
0.0
 10
54.94143080831054
 20
106.4002822390514
 30
0.0
 10
54.95416928996157
 20
106.4987544861057
 30
0.0
 10
54.97399942659854
 20
106.6033675335299
 30
0.0
 10
55.00105798078281
 20
106.7128493258047
 30
0.0
 10
55.03544178716995
 20
106.8259967442826
 30
0.0
 10
55.07705938036401
 20
106.9415141952762
 30
0.0
 10
55.12568477300947
 20
107.058102155143
 30
0.0
 10
55.18095528035551
 20
107.1744595570344
 30
0.0
 10
55.24238434861977
 20
107.2893063045081
 30
0.0
 10
55.30936547513492
 20
107.4013907778775
 30
0.0
 10
55.38117453257217
 20
107.5095009585969
 30
0.0
 10
55.45698154675571
 20
107.6124877759423
 30
0.0
 10
55.53587070166421
 20
107.709314756698
 30
0.0
 10
55.61682808389178
 20
107.7989768865246
 30
0.0
 10
55.69883770078622
 20
107.8808828363913
 30
0.0
 10
55.78053055238303
 20
107.9534845636177
 30
0.0
 10
55.84288886443846
 20
108.0042564008822
 30
0.0
 10
55.87680032709608
 20
108.0276899854008
 30
0.0
 10
55.88461586779194
 20
108.033090700059
 30
0.0
  0
SPLINE
  5
35D
330
1F
100
AcDbEntity
  8
OBJECT
  6
SLD-Solid
370
    25
100
AcDbSpline
210
0.0
220
0.0
230
1.0
 70
     8
 71
     3
 72
    27
 73
    23
 74
     0
 42
0.00000001
 43
0.00000001
 40
0.0
 40
0.0
 40
0.0
 40
0.0
 40
0.0488692827285635
 40
0.0997076935564223
 40
0.1504804691711369
 40
0.2011248023052029
 40
0.2516157964819954
 40
0.3019550520229795
 40
0.3521615357063158
 40
0.4022650183432977
 40
0.452301750425233
 40
0.5023117777918618
 40
0.552337324309073
 40
0.6024095764570775
 40
0.6525702314159979
 40
0.7028628479592769
 40
0.7533293175910174
 40
0.8040076088170368
 40
0.8549279776596446
 40
0.9061068744873212
 40
0.9575377597648834
 40
1.0
 40
1.0
 40
1.0
 40
1.0
 10
55.28498591045682
 20
109.1542671223268
 30
0.0
 10
55.24102160347731
 20
109.1256223949658
 30
0.0
 10
55.15132150142991
 20
109.0671787359176
 30
0.0
 10
55.01989180749283
 20
108.9666111995968
 30
0.0
 10
54.89027311667064
 20
108.8564651470768
 30
0.0
 10
54.76500267755324
 20
108.7377389866774
 30
0.0
 10
54.64448586522202
 20
108.611419423886
 30
0.0
 10
54.52917181615725
 20
108.4781164226275
 30
0.0
 10
54.41945004751827
 20
108.3385092347269
 30
0.0
 10
54.31569831907202
 20
108.1932355785486
 30
0.0
 10
54.21828235511503
 20
108.042928669425
 30
0.0
 10
54.1275629143798
 20
107.8882125249865
 30
0.0
 10
54.0439043964654
 20
107.7297188172058
 30
0.0
 10
53.96766830969855
 20
107.5680771458545
 30
0.0
 10
53.89921231492837
 20
107.4039114294988
 30
0.0
 10
53.8388904254104
 20
107.2378257582602
 30
0.0
 10
53.78705574619539
 20
107.070413980838
 30
0.0
 10
53.74409322713238
 20
106.9022741502784
 30
0.0
 10
53.71032401199236
 20
106.7339891552843
 30
0.0
 10
53.68638838125639
 20
106.5662523794283
 30
0.0
 10
53.67268708234664
 20
106.4094094641405
 30
0.0
 10
53.67110694447086
 20
106.3097310331413
 30
0.0
 10
53.67039234269656
 20
106.2646524455426
 30
0.0
  0
LINE
  5
35E
330
1F
100
AcDbEntity
  8
OBJECT
  6
SLD-Solid
370
    25
100
AcDbLine
 10
53.6703923427
 20
106.2646524455
 30
0.0
 11
53.6703923427
 21
104.5931934036
 31
0.0
  0
LINE
  5
35F
330
1F
100
AcDbEntity
  8
OBJECT
  6
SLD-Solid
370
    25
100
AcDbLine
 10
54.9353923427
 20
104.5931934036
 30
0.0
 11
54.9353923427
 21
106.2646524455
 31
0.0
  0
LINE
  5
360
330
1F
100
AcDbEntity
  8
OBJECT
  6
SLD-Solid
370
    25
100
AcDbLine
 10
53.6703923427
 20
104.5931934036
 30
0.0
 11
53.6703923427
 21
86.6292955421
 31
0.0
  0
LINE
  5
361
330
1F
100
AcDbEntity
  8
OBJECT
  6
SLD-Solid
370
    25
100
AcDbLine
 10
54.9353923427
 20
86.6292955421
 30
0.0
 11
54.9353923427
 21
104.5931934036
 31
0.0
  0
LINE
  5
362
330
1F
100
AcDbEntity
  8
OBJECT
  6
SLD-Solid
370
    25
100
AcDbLine
 10
55.0473282153
 20
82.2030503053
 30
0.0
 11
59.643522293
 21
79.5497239418
 31
0.0
  0
LINE
  5
363
330
1F
100
AcDbEntity
  8
OBJECT
  6
SLD-Solid
370
    25
100
AcDbLine
 10
58.5061621329
 20
81.6669646018
 30
0.0
 11
55.6797768137
 21
83.2986021162
 31
0.0
  0
LINE
  5
364
330
1F
100
AcDbEntity
  8
OBJECT
  6
SLD-Solid
370
    25
100
AcDbLine
 10
60.2759708914
 20
80.6452757527
 30
0.0
 11
59.1292001972
 21
81.3072923831
 31
0.0
  0
LINE
  5
365
330
1F
100
AcDbEntity
  8
OBJECT
  6
SLD-Solid
370
    25
100
AcDbLine
 10
59.4909247774
 20
82.2358288011
 30
0.0
 11
58.5055285587
 21
81.6669716725
 31
0.0
  0
LINE
  5
366
330
1F
100
AcDbEntity
  8
OBJECT
  6
SLD-Solid
370
    25
100
AcDbLine
 10
59.7619413018
 20
80.9420187184
 30
0.0
 11
60.1188737415
 21
81.1480714299
 31
0.0
  0
LINE
  5
367
330
1F
100
AcDbEntity
  8
OBJECT
  6
SLD-Solid
370
    25
100
AcDbLine
 10
53.6703923427
 20
86.6292955421
 30
0.0
 11
53.6703923427
 21
84.5879435124
 31
0.0
  0
LINE
  5
368
330
1F
100
AcDbEntity
  8
OBJECT
  6
SLD-Solid
370
    25
100
AcDbLine
 10
54.9353923427
 20
84.5879435124
 30
0.0
 11
54.9353923427
 21
86.6292955421
 31
0.0
  0
SPLINE
  5
369
330
1F
100
AcDbEntity
  8
OBJECT
  6
SLD-Solid
370
    25
100
AcDbSpline
210
0.0
220
0.0
230
1.0
 70
     8
 71
     3
 72
    25
 73
    21
 74
     0
 42
0.00000001
 43
0.00000001
 40
0.0
 40
0.0
 40
0.0
 40
0.0
 40
0.0299307797613861
 40
0.0859930771188076
 40
0.1428053073999997
 40
0.2005746193937828
 40
0.2592426696401615
 40
0.3186965799856413
 40
0.3787904457631274
 40
0.4393602199373082
 40
0.5002329459252108
 40
0.5612321886035494
 40
0.6221515589538477
 40
0.6827873891161481
 40
0.7429712913494307
 40
0.8025460623315898
 40
0.8613745065839558
 40
0.9193538772441682
 40
0.9764378547204514
 40
1.0
 40
1.0
 40
1.0
 40
1.0
 10
55.6797768136726
 20
83.29860211617165
 30
0.0
 10
55.67025613908545
 20
83.3042544576211
 30
0.0
 10
55.64290262171892
 20
83.32049400226505
 30
0.0
 10
55.59375763809649
 20
83.3542103616409
 30
0.0
 10
55.53239403602125
 20
83.40258071796899
 30
0.0
 10
55.46855979240407
 20
83.46002722817222
 30
0.0
 10
55.40369967378957
 20
83.52601921085727
 30
0.0
 10
55.33916248925951
 20
83.5999102620096
 30
0.0
 10
55.27627331747933
 20
83.68076498973451
 30
0.0
 10
55.21625723489238
 20
83.7674621975006
 30
0.0
 10
55.16022740889946
 20
83.85870814918971
 30
0.0
 10
55.1091689297201
 20
83.95305631190426
 30
0.0
 10
55.06391513977441
 20
84.04893248672023
 30
0.0
 10
55.02511552127996
 20
84.14467863870647
 30
0.0
 10
54.9932075984595
 20
84.23860593226144
 30
0.0
 10
54.96840916995248
 20
84.32900831043379
 30
0.0
 10
54.95066918993601
 20
84.41425025819255
 30
0.0
 10
54.93976152112451
 20
84.49256514416372
 30
0.0
 10
54.93576847962833
 20
84.54957328823448
 30
0.0
 10
54.93547738962426
 20
84.57926776322662
 30
0.0
 10
54.93539234269662
 20
84.58794351241154
 30
0.0
  0
SPLINE
  5
36A
330
1F
100
AcDbEntity
  8
OBJECT
  6
SLD-Solid
370
    25
100
AcDbSpline
210
0.0
220
0.0
230
1.0
 70
     8
 71
     3
 72
    26
 73
    22
 74
     0
 42
0.00000001
 43
0.00000001
 40
0.0
 40
0.0
 40
0.0
 40
0.0
 40
0.0315487315562903
 40
0.0870667418570547
 40
0.1425642480506959
 40
0.1980042513064465
 40
0.2532835903318384
 40
0.3083657093229685
 40
0.363259871596572
 40
0.4180042775933407
 40
0.4726542814876653
 40
0.5272750077555631
 40
0.5819369470151957
 40
0.6366891536951103
 40
0.6916056198197181
 40
0.7467586372687125
 40
0.8022144828845482
 40
0.8580259256942976
 40
0.91421959435796
 40
0.9707763912579006
 40
1.0
 40
1.0
 40
1.0
 40
1.0
 10
53.67039234269663
 20
84.58794351241154
 30
0.0
 10
53.67074167981165
 20
84.5596882659666
 30
0.0
 10
53.6717057643537
 20
84.48171073321097
 30
0.0
 10
53.68183138054406
 20
84.35220753586113
 30
0.0
 10
53.70331111041462
 20
84.19955942512848
 30
0.0
 10
53.73479412419543
 20
84.04613693503724
 30
0.0
 10
53.77567000443283
 20
83.8928431780787
 30
0.0
 10
53.82553857150514
 20
83.74052484401551
 30
0.0
 10
53.88394191140273
 20
83.58994984093988
 30
0.0
 10
53.95045776555834
 20
83.44182148887563
 30
0.0
 10
54.0246790455721
 20
83.29681034225806
 30
0.0
 10
54.10621873116411
 20
83.15556952351108
 30
0.0
 10
54.19469433165855
 20
83.01876536242457
 30
0.0
 10
54.28973709199086
 20
82.88705953198722
 30
0.0
 10
54.39099437540273
 20
82.76111437564093
 30
0.0
 10
54.49814598359873
 20
82.64157776108841
 30
0.0
 10
54.61089382309826
 20
82.5291360474648
 30
0.0
 10
54.72892865545038
 20
82.42445139867782
 30
0.0
 10
54.85198859975281
 20
82.32848388469333
 30
0.0
 10
54.95874140381672
 20
82.25556099613985
 30
0.0
 10
55.02481746787913
 20
82.21639376890583
 30
0.0
 10
55.0473282152803
 20
82.20305030526009
 30
0.0
  0
ARC
  5
36B
330
1F
100
AcDbEntity
  8
OBJECT
  6
SLD-Solid
370
    25
100
AcDbCircle
 10
56.1135639666
 20
107.7424033822
 30
0.0
 40
0.523248432310964
100
AcDbArc
 50
280.6437983617
 51
319.0964490804
  0
ARC
  5
36C
330
1F
100
AcDbEntity
  8
OBJECT
  6
SLD-Solid
370
    25
100
AcDbCircle
 10
55.1074907763
 20
109.4851569317
 30
0.0
 40
0.5240254925208399
100
AcDbArc
 50
100.1592585591
 51
140.1040076565
  0
LWPOLYLINE
  5
36D
330
1F
100
AcDbEntity
  8
OBJECT
  6
SLD-Solid
370
    25
100
AcDbPolyline
 90
       27
 70
   128
 43
0.0
 10
55.0916524694
 20
109.0227032057
 10
55.1014815087
 20
109.0404945351
 10
55.1367055574
 20
109.086809344
 10
55.1799578684
 20
109.1218568892
 10
55.2303165939
 20
109.1448901931
 10
55.286708425
 20
109.1554183409
 10
55.3479314679
 20
109.1532169433
 10
55.4126808595
 20
109.1383329193
 10
55.4795765791
 20
109.111083496
 10
55.5471928605
 20
109.0720494476
 10
55.6140885801
 20
109.0220627171
 10
55.6788379717
 20
108.9621886848
 10
55.7400610146
 20
108.8937034617
 10
55.7964528457
 20
108.8180666916
 10
55.8468115712
 20
108.7368904408
 10
55.8900638822
 20
108.6519048403
 10
55.9252879309
 20
108.5649212104
 10
55.9517329777
 20
108.4777934564
 10
55.9688353925
 20
108.3923785549
 10
55.9762306669
 20
108.3104969763
 10
55.9737611835
 20
108.2338938844
 10
55.9614795751
 20
108.164201941
 10
55.9396476028
 20
108.1029065088
 10
55.9087305772
 20
108.0513139937
 10
55.869387441
 20
108.0105240005
 10
55.8224567249
 20
107.9814058971
 10
55.8212247097
 20
107.9808469581
  0
LWPOLYLINE
  5
36E
330
1F
100
AcDbEntity
  8
OBJECT
  6
SLD-Solid
370
    25
100
AcDbPolyline
 90
       10
 70
   128
 43
0.0
 10
55.8500419799
 20
110.0018145677
 10
55.7472033775
 20
110.0555250683
 10
55.6452960974
 20
110.0974352367
 10
55.5452430278
 20
110.1271655279
 10
55.4479502646
 20
110.1444466997
 10
55.3542989063
 20
110.1491222512
 10
55.265137074
 20
110.1411498398
 10
55.1812722311
 20
110.1206016649
 10
55.1034638706
 20
110.0876638141
 10
55.0851041495
 20
110.0775618849
  0
LWPOLYLINE
  5
36F
330
1F
100
AcDbEntity
  8
OBJECT
  6
SLD-Solid
370
    25
100
AcDbPolyline
 90
       26
 70
   128
 43
0.0
 10
56.6149798104
 20
107.427452366
 10
56.6676673228
 20
107.4623796735
 10
56.7313100145
 20
107.519092504
 10
56.7869718065
 20
107.5869753284
 10
56.834148617
 20
107.6654133892
 10
56.8724132053
 20
107.7536963392
 10
56.9014190414
 20
107.8510246744
 10
56.9209034441
 20
107.9565169743
 10
56.9306899596
 20
108.0692178842
 10
56.9306899596
 20
108.1881067673
 10
56.9209034441
 20
108.3121069475
 10
56.9014190414
 20
108.4400954598
 10
56.8724132053
 20
108.5709132206
 10
56.834148617
 20
108.7033755239
 10
56.7869718065
 20
108.8362827706
 10
56.7313100145
 20
108.9684313321
 10
56.6676673228
 20
109.0986244505
 10
56.5966200893
 20
109.2256830768
 10
56.5188117288
 20
109.3484565485
 10
56.4349468859
 20
109.4658330099
 10
56.3457850536
 20
109.5767494816
 10
56.2521336953
 20
109.6802014869
 10
56.1548409321
 20
109.7752521484
 10
56.0547878624
 20
109.8610406726
 10
55.9528805823
 20
109.9367901454
 10
55.8500419799
 20
110.0018145677
  0
ARC
  5
370
330
1F
100
AcDbEntity
  8
OBJECT
  6
SLD-Solid
370
    25
100
AcDbCircle
 10
55.3364949065
 20
108.9252534731
 30
0.0
 40
0.2489464125295069
100
AcDbArc
 50
124.1488318846
 51
152.6511355102
  0
LWPOLYLINE
  5
371
330
1F
100
AcDbEntity
  8
OBJECT
  6
SLD-Solid
370
    25
100
AcDbPolyline
 90
        3
 70
   128
 43
0.0
 10
55.8513496449
 20
107.9973547366
 10
55.8437871292
 20
107.9937196774
 10
55.8346021642
 20
107.989767338
  0
LWPOLYLINE
  5
372
330
1F
100
AcDbEntity
  8
OBJECT
  6
SLD-Solid
370
    25
100
AcDbPolyline
 90
        3
 70
   128
 43
0.0
 10
60.7074883897
 20
80.4798508288
 10
60.6900565831
 20
80.4607807328
 10
60.6544305163
 20
80.4267956618
  0
ARC
  5
373
330
1F
100
AcDbEntity
  8
OBJECT
  6
SLD-Solid
370
    25
100
AcDbCircle
 10
59.3059372896
 20
82.5652209931
 30
0.0
 40
0.5240254925207751
100
AcDbArc
 50
100.1592585591
 51
140.1040076565
  0
LWPOLYLINE
  5
374
330
1F
100
AcDbEntity
  8
OBJECT
  6
SLD-Solid
370
    25
100
AcDbPolyline
 90
       27
 70
   128
 43
0.0
 10
59.3047887247
 20
82.128374745
 10
59.3351520707
 20
82.1668734055
 10
59.3784043817
 20
82.2019209507
 10
59.4287631072
 20
82.2249542546
 10
59.4851549383
 20
82.2354824024
 10
59.5463779812
 20
82.2332810047
 10
59.6111273728
 20
82.2183969807
 10
59.6780230924
 20
82.1911475574
 10
59.7456393738
 20
82.1521135091
 10
59.8125350934
 20
82.1021267785
 10
59.877284485
 20
82.0422527462
 10
59.9385075278
 20
81.9737675232
 10
59.994899359
 20
81.8981307531
 10
60.0452580845
 20
81.8169545023
 10
60.0885103955
 20
81.7319689017
 10
60.1237344442
 20
81.6449852719
 10
60.150179491
 20
81.5578575178
 10
60.1672819058
 20
81.4724426163
 10
60.1746771802
 20
81.3905610378
 10
60.1722076968
 20
81.3139579458
 10
60.1599260884
 20
81.2442660024
 10
60.1380941161
 20
81.1829705703
 10
60.1071770905
 20
81.1313780552
 10
60.0678339543
 20
81.090588062
 10
60.0209032382
 20
81.0614699586
 10
59.9673851889
 20
81.0446443468
 10
59.9327376888
 20
81.0406173739
  0
LWPOLYLINE
  5
375
330
1F
100
AcDbEntity
  8
OBJECT
  6
SLD-Solid
370
    25
100
AcDbPolyline
 90
       10
 70
   128
 43
0.0
 10
60.0484884932
 20
83.0818786291
 10
59.9456498908
 20
83.1355891298
 10
59.8437426107
 20
83.1774992982
 10
59.743689541
 20
83.2072295894
 10
59.6463967779
 20
83.2245107611
 10
59.5527454196
 20
83.2291863126
 10
59.4635835873
 20
83.2212139012
 10
59.3797187444
 20
83.2006657264
 10
59.3019103839
 20
83.1677278755
 10
59.2835506628
 20
83.1576259464
  0
LWPOLYLINE
  5
376
330
1F
100
AcDbEntity
  8
OBJECT
  6
SLD-Solid
370
    25
100
AcDbPolyline
 90
       26
 70
   128
 43
0.0
 10
60.8134263237
 20
80.5075164275
 10
60.8661138361
 20
80.5424437349
 10
60.9297565278
 20
80.5991565655
 10
60.9854183198
 20
80.6670393899
 10
61.0325951302
 20
80.7454774507
 10
61.0708597186
 20
80.8337604007
 10
61.0998655547
 20
80.9310887359
 10
61.1193499574
 20
81.0365810357
 10
61.1291364729
 20
81.1492819457
 10
61.1291364729
 20
81.2681708288
 10
61.1193499574
 20
81.3921710089
 10
61.0998655547
 20
81.5201595213
 10
61.0708597186
 20
81.650977282
 10
61.0325951302
 20
81.7834395853
 10
60.9854183198
 20
81.916346832
 10
60.9297565278
 20
82.0484953935
 10
60.8661138361
 20
82.178688512
 10
60.7950666025
 20
82.3057471383
 10
60.7172582421
 20
82.4285206099
 10
60.6333933992
 20
82.5458970713
 10
60.5442315669
 20
82.656813543
 10
60.4505802086
 20
82.7602655483
 10
60.3532874454
 20
82.8553162099
 10
60.2532343757
 20
82.9411047341
 10
60.1513270956
 20
83.0168542068
 10
60.0484884932
 20
83.0818786291
  0
LWPOLYLINE
  5
377
330
1F
100
AcDbEntity
  8
OBJECT
  6
SLD-Solid
370
    25
100
AcDbPolyline
 90
        3
 70
   128
 43
0.0
 10
59.326119129
 20
82.1406885254
 10
59.356482475
 20
82.1791871858
 10
59.3951967129
 20
82.2113411575
  0
ARC
  5
378
330
1F
100
AcDbEntity
  8
OBJECT
  6
SLD-Solid
370
    25
100
AcDbCircle
 10
59.9449320674
 20
81.2880018569
 30
0.0
 40
0.2352481715274559
100
AcDbArc
 50
272.225680991
 51
296.471936957
  0
ARC
  5
379
330
1F
100
AcDbEntity
  8
OBJECT
  6
SLD-Solid
370
    25
100
AcDbCircle
 10
84.3978352141
 20
66.9180167892
 30
0.0
 40
0.523248432310936
100
AcDbArc
 50
280.6437983617
 51
319.0964490804
  0
ARC
  5
37A
330
1F
100
AcDbEntity
  8
OBJECT
  6
SLD-Solid
370
    25
100
AcDbCircle
 10
83.3917620238
 20
68.6607703386
 30
0.0
 40
0.5240254925208057
100
AcDbArc
 50
100.1592585591
 51
140.1040076565
  0
LWPOLYLINE
  5
37B
330
1F
100
AcDbEntity
  8
OBJECT
  6
SLD-Solid
370
    25
100
AcDbPolyline
 90
       27
 70
   128
 43
0.0
 10
83.4489411355
 20
68.2870670773
 10
83.4642291159
 20
68.2974702962
 10
83.5145878413
 20
68.3205036001
 10
83.5709796725
 20
68.3310317479
 10
83.6322027153
 20
68.3288303503
 10
83.696952107
 20
68.3139463262
 10
83.7638478266
 20
68.286696903
 10
83.831464108
 20
68.2476628546
 10
83.8983598275
 20
68.197676124
 10
83.9631092192
 20
68.1378020917
 10
84.024332262
 20
68.0693168687
 10
84.0807240932
 20
67.9936800986
 10
84.1310828187
 20
67.9125038478
 10
84.1743351297
 20
67.8275182472
 10
84.2095591784
 20
67.7405346174
 10
84.2360042252
 20
67.6534068633
 10
84.25310664
 20
67.5679919618
 10
84.2605019144
 20
67.4861103833
 10
84.258032431
 20
67.4095072914
 10
84.2457508225
 20
67.3398153479
 10
84.2239188502
 20
67.2785199158
 10
84.1930018246
 20
67.2269274007
 10
84.1536586885
 20
67.1861374075
 10
84.1067279723
 20
67.1570193041
 10
84.0532099231
 20
67.1401936923
 10
83.9942451849
 20
67.1360191808
 10
83.9916919317
 20
67.1361219051
  0
LWPOLYLINE
  5
37C
330
1F
100
AcDbEntity
  8
OBJECT
  6
SLD-Solid
370
    25
100
AcDbPolyline
 90
       10
 70
   128
 43
0.0
 10
84.1343132274
 20
69.1774279746
 10
84.031474625
 20
69.2311384753
 10
83.9295673449
 20
69.2730486437
 10
83.8295142752
 20
69.3027789349
 10
83.732221512
 20
69.3200601067
 10
83.6385701537
 20
69.3247356581
 10
83.5494083214
 20
69.3167632467
 10
83.4655434786
 20
69.2962150719
 10
83.3877351181
 20
69.2632772211
 10
83.3693753969
 20
69.2531752919
  0
LWPOLYLINE
  5
37D
330
1F
100
AcDbEntity
  8
OBJECT
  6
SLD-Solid
370
    25
100
AcDbPolyline
 90
       26
 70
   128
 43
0.0
 10
84.8992510579
 20
66.603065773
 10
84.9519385702
 20
66.6379930804
 10
85.015581262
 20
66.694705911
 10
85.071243054
 20
66.7625887354
 10
85.1184198644
 20
66.8410267962
 10
85.1566844527
 20
66.9293097462
 10
85.1856902889
 20
67.0266380814
 10
85.2051746916
 20
67.1321303813
 10
85.214961207
 20
67.2448312912
 10
85.214961207
 20
67.3637201743
 10
85.2051746916
 20
67.4877203544
 10
85.1856902889
 20
67.6157088668
 10
85.1566844527
 20
67.7465266276
 10
85.1184198644
 20
67.8789889309
 10
85.071243054
 20
68.0118961776
 10
85.015581262
 20
68.144044739
 10
84.9519385702
 20
68.2742378575
 10
84.8808913367
 20
68.4012964838
 10
84.8030829762
 20
68.5240699555
 10
84.7192181334
 20
68.6414464168
 10
84.6300563011
 20
68.7523628886
 10
84.5364049427
 20
68.8558148939
 10
84.4391121796
 20
68.9508655554
 10
84.3390591099
 20
69.0366540796
 10
84.2371518298
 20
69.1124035523
 10
84.1343132274
 20
69.1774279746
  0
LINE
  5
37E
330
1F
100
AcDbEntity
  8
OBJECT
  6
SLD-Solid
370
    25
100
AcDbLine
 10
83.4643813352
 20
68.2948445373
 30
0.0
 11
83.481021447
 21
68.3068905031
 31
0.0
  0
ARC
  5
37F
330
1F
100
AcDbEntity
  8
OBJECT
  6
SLD-Solid
370
    25
100
AcDbCircle
 10
84.0291573839
 20
67.3875580048
 30
0.0
 40
0.2395480895436189
100
AcDbArc
 50
267.5138728801
 51
296.3871832869
  0
SPLINE
  5
380
330
1F
100
AcDbEntity
  8
OBJECT
  6
SLD-Solid
370
    25
100
AcDbSpline
210
0.0
220
0.0
230
1.0
 70
     8
 71
     3
 72
    28
 73
    24
 74
     0
 42
0.00000001
 43
0.00000001
 40
0.0
 40
0.0
 40
0.0
 40
0.0
 40
0.022588946812341
 40
0.0785169330787748
 40
0.1347711003813242
 40
0.2072410250379445
 40
0.2802399053206204
 40
0.3547922343458592
 40
0.3923329551194712
 40
0.4300014372022755
 40
0.4677455078442129
 40
0.4920164281505017
 40
0.5165465069099922
 40
0.5491372345313004
 40
0.58207936507265
 40
0.632197079499669
 40
0.682573762616546
 40
0.7483560756056126
 40
0.8144955423185921
 40
0.8818595534992262
 40
0.9497133182420384
 40
0.9962449393016494
 40
1.0
 40
1.0
 40
1.0
 40
1.0
 10
58.50586814725725
 20
81.66646050142916
 30
0.0
 10
58.50592033672726
 20
81.66659159466683
 30
0.0
 10
58.5061017421358
 20
81.66704726172621
 30
0.0
 10
58.50651986087328
 20
81.66190349354855
 30
0.0
 10
58.50723628479445
 20
81.65061655880581
 30
0.0
 10
58.50832342720766
 20
81.6313190643441
 30
0.0
 10
58.51017699044736
 20
81.60311914222117
 30
0.0
 10
58.51283735917661
 20
81.57367101196486
 30
0.0
 10
58.51692150066813
 20
81.54664960096994
 30
0.0
 10
58.52205856832463
 20
81.52475865916901
 30
0.0
 10
58.53045786261878
 20
81.50423386505545
 30
0.0
 10
58.54647872462346
 20
81.48659990871634
 30
0.0
 10
58.57278846000423
 20
81.4734380309983
 30
0.0
 10
58.60860912282357
 20
81.46493992632044
 30
0.0
 10
58.65538861780107
 20
81.45671216653389
 30
0.0
 10
58.70976140494598
 20
81.4478206559494
 30
0.0
 10
58.77695275980979
 20
81.43521395198815
 30
0.0
 10
58.84971360733723
 20
81.41856675116287
 30
0.0
 10
58.92751416418445
 20
81.39611026643078
 30
0.0
 10
59.00392720117534
 20
81.36885017378438
 30
0.0
 10
59.0697301927775
 20
81.33920442365776
 30
0.0
 10
59.11132634753299
 20
81.31817639330136
 30
0.0
 10
59.12789502422438
 20
81.30794360687342
 30
0.0
 10
59.12913225811003
 20
81.30717949333865
 30
0.0
  0
LWPOLYLINE
  5
381
330
1F
100
AcDbEntity
  8
OBJECT
  6
SLD-Solid
370
    25
100
AcDbPolyline
 90
       24
 70
   128
 43
0.0
 10
55.6103420352
 20
109.863438735
 10
55.7131806376
 20
109.7984143127
 10
55.8150879177
 20
109.7226648399
 10
55.9151409874
 20
109.6368763157
 10
56.0124337506
 20
109.5418256542
 10
56.1060851089
 20
109.4383736489
 10
56.1952469412
 20
109.3274571772
 10
56.2791117841
 20
109.2100807158
 10
56.3569201445
 20
109.0873072442
 10
56.4279673781
 20
108.9602486178
 10
56.4916100698
 20
108.8300554994
 10
56.5472718618
 20
108.6979069379
 10
56.5944486722
 20
108.5649996912
 10
56.6327132606
 20
108.4325373879
 10
56.6617190967
 20
108.3017196271
 10
56.6812034994
 20
108.1737311148
 10
56.6909900149
 20
108.0497309346
 10
56.6909900149
 20
107.9308420515
 10
56.6812034994
 20
107.8181411416
 10
56.6617190967
 20
107.7126488418
 10
56.6327132606
 20
107.6153205066
 10
56.5944486722
 20
107.5270375566
 10
56.5472718618
 20
107.4485994957
 10
56.5090418764
 20
107.3997867674
  0
ARC
  5
382
330
1F
100
AcDbEntity
  8
OBJECT
  6
SLD-Solid
370
    25
100
AcDbCircle
 10
55.1224024729
 20
109.1085036178
 30
0.0
 40
0.8988949035371889
100
AcDbArc
 50
57.1240758271
 51
96.8583626837
  0
LWPOLYLINE
  5
383
330
1F
100
AcDbEntity
  8
OBJECT
  6
SLD-Solid
370
    25
100
AcDbPolyline
 90
       24
 70
   128
 43
0.0
 10
59.8087885485
 20
82.9435027965
 10
59.9116271509
 20
82.8784783741
 10
60.013534431
 20
82.8027289014
 10
60.1135875007
 20
82.7169403772
 10
60.2108802639
 20
82.6218897157
 10
60.3045316222
 20
82.5184377104
 10
60.3936934545
 20
82.4075212387
 10
60.4775582974
 20
82.2901447773
 10
60.5553666578
 20
82.1673713056
 10
60.6264138913
 20
82.0403126793
 10
60.6900565831
 20
81.9101195609
 10
60.7457183751
 20
81.7779709994
 10
60.7928951855
 20
81.6450637527
 10
60.8311597738
 20
81.5126014494
 10
60.86016561
 20
81.3817836886
 10
60.8796500127
 20
81.2537951762
 10
60.8894365282
 20
81.1297949961
 10
60.8894365282
 20
81.010906113
 10
60.8796500127
 20
80.8982052031
 10
60.86016561
 20
80.7927129032
 10
60.8311597738
 20
80.695384568
 10
60.7928951855
 20
80.607101618
 10
60.7457183751
 20
80.5286635572
 10
60.7074883897
 20
80.4798508288
  0
ARC
  5
384
330
1F
100
AcDbEntity
  8
OBJECT
  6
SLD-Solid
370
    25
100
AcDbCircle
 10
59.3208489862
 20
82.1885676793
 30
0.0
 40
0.8988949035369832
100
AcDbArc
 50
57.1240758271
 51
96.8583626837
  0
LWPOLYLINE
  5
385
330
1F
100
AcDbEntity
  8
OBJECT
  6
SLD-Solid
370
    25
100
AcDbPolyline
 90
       24
 70
   128
 43
0.0
 10
83.8946132827
 20
69.039052142
 10
83.9974518851
 20
68.9740277197
 10
84.0993591652
 20
68.8982782469
 10
84.1994122349
 20
68.8124897227
 10
84.296704998
 20
68.7174390612
 10
84.3903563564
 20
68.6139870559
 10
84.4795181887
 20
68.5030705842
 10
84.5633830315
 20
68.3856941228
 10
84.641191392
 20
68.2629206511
 10
84.7122386255
 20
68.1358620248
 10
84.7758813173
 20
68.0056689064
 10
84.8315431093
 20
67.8735203449
 10
84.8787199197
 20
67.7406130982
 10
84.916984508
 20
67.6081507949
 10
84.9459903442
 20
67.4773330341
 10
84.9654747469
 20
67.3493445218
 10
84.9752612623
 20
67.2253443416
 10
84.9752612623
 20
67.1064554585
 10
84.9654747469
 20
66.9937545486
 10
84.9459903442
 20
66.8882622487
 10
84.916984508
 20
66.7909339136
 10
84.8787199197
 20
66.7026509635
 10
84.8315431093
 20
66.6242129027
 10
84.7933131239
 20
66.5754001744
  0
ARC
  5
386
330
1F
100
AcDbEntity
  8
OBJECT
  6
SLD-Solid
370
    25
100
AcDbCircle
 10
83.4066737204
 20
68.2841170248
 30
0.0
 40
0.8988949035371642
100
AcDbArc
 50
57.1240758271
 51
96.8583626837
  0
HATCH
  5
387
330
1F
100
AcDbEntity
  8
NOTES
100
AcDbHatch
 10
0.0
 20
0.0
 30
0.0
210
0.0
220
0.0
230
1.0
  2
AR-SAND
 70
     0
 71
     0
 91
        1
 92
        0
 93
        4
 72
     3
 10
79.75873646541233
 20
68.66778628177431
 11
0.3162242991961524
 21
0.5477759054557821
 40
0.5773815451999865
 50
180.0
 51
360.0
 73
     0
 72
     1
 10
80.0749607646085
 20
69.21556218723009
 11
60.27597089138519
 21
80.64527575274786
 72
     3
 10
60.03389648910873
 20
80.05469402294794
 11
0.2420744022764596
 21
0.5905817297999425
 40
0.5721632425470665
 50
360.0
 51
540.0000000000007
 73
     1
 72
     1
 10
59.79182208683227
 20
79.464112293148
 11
79.44251216621618
 21
68.12001037631853
 97
        0
 75
     0
 76
     1
 52
0.0
 41
5.3333333333
 77
     0
 78
     4
 53
37.5
 43
0.0
 44
0.0
 45
-0.3359645765845768
 46
10.27639343473685
 79
     6
 49
0.0
 49
-8.106666666666666
 49
0.0
 49
-9.066666666666666
 49
0.0
 49
-8.666666666666666
 53
7.5
 43
0.0
 44
0.0
 45
9.438809094761211
 46
15.05144568122528
 79
     6
 49
0.0
 49
-4.373333333333333
 49
0.0
 49
-7.306666666666667
 49
0.0
 49
-2.8
 53
-32.5
 43
-6.56
 44
0.0
 45
16.60875659600797
 46
0.0301816188638118
 79
     6
 49
0.0
 49
-2.666666666666667
 49
0.0
 49
-9.6
 49
0.0
 49
-12.53333333333333
 53
-42.50000000000001
 43
-6.56
 44
0.0
 45
16.03267522438556
 46
4.680936346315996
 79
     6
 49
0.0
 49
-1.333333333333333
 49
0.0
 49
-6.293333333333333
 49
0.0
 49
-7.2
 98
        1
 10
0.0
 20
0.0
  0
INSERT
  5
38D
330
1F
100
AcDbEntity
  8
NOTES
100
AcDbBlockReference
  2
SW_NOTE_0_3
 10
79.7027638886
 20
65.5662401683
 30
0.0
  0
LINE
  5
38E
330
1F
100
AcDbEntity
  8
OBJECT
  6
SLD-Solid
370
    25
100
AcDbLine
 10
3.9005881773
 20
61.438855611
 30
0.0
 11
3.9005881773
 21
61.0998686983
 31
0.0
  0
LINE
  5
38F
330
1F
100
AcDbEntity
  8
OBJECT
  6
SLD-Solid
370
    25
100
AcDbLine
 10
6.9605881773
 20
61.0998686983
 30
0.0
 11
6.9605881773
 21
61.438855611
 31
0.0
  0
ARC
  5
390
330
1F
100
AcDbEntity
  8
OBJECT
  6
SLD-Solid
370
    25
100
AcDbCircle
 10
6.9105881773
 20
61.0998686983
 30
0.0
 40
0.0500000000000078
100
AcDbArc
 50
276.0090059575
 51
0.0
  0
ARC
  5
391
330
1F
100
AcDbEntity
  8
OBJECT
  6
SLD-Solid
370
    25
100
AcDbCircle
 10
3.9505881773
 20
61.0998686983
 30
0.0
 40
0.0500000000000079
100
AcDbArc
 50
180.0
 51
263.9909940425
  0
LINE
  5
392
330
1F
100
AcDbEntity
  8
OBJECT
  6
SLD-Solid
370
    25
100
AcDbLine
 10
3.9453539381
 20
61.0501434256
 30
0.0
 11
4.7755881773
 21
60.9627503478
 31
0.0
  0
LINE
  5
393
330
1F
100
AcDbEntity
  8
OBJECT
  6
SLD-Solid
370
    25
100
AcDbLine
 10
6.0855881773
 20
60.9627503478
 30
0.0
 11
6.9158224165
 21
61.0501434256
 31
0.0
  0
LINE
  5
394
330
1F
100
AcDbEntity
  8
OBJECT
  6
SLD-Solid
370
    25
100
AcDbLine
 10
9.8380881773
 20
61.438855611
 30
0.0
 11
9.8380881773
 21
61.0998686983
 31
0.0
  0
LINE
  5
395
330
1F
100
AcDbEntity
  8
OBJECT
  6
SLD-Solid
370
    25
100
AcDbLine
 10
12.8980881773
 20
61.0998686983
 30
0.0
 11
12.8980881773
 21
61.438855611
 31
0.0
  0
ARC
  5
396
330
1F
100
AcDbEntity
  8
OBJECT
  6
SLD-Solid
370
    25
100
AcDbCircle
 10
12.8480881773
 20
61.0998686983
 30
0.0
 40
0.0500000000000078
100
AcDbArc
 50
276.0090059575
 51
0.0
  0
ARC
  5
397
330
1F
100
AcDbEntity
  8
OBJECT
  6
SLD-Solid
370
    25
100
AcDbCircle
 10
9.8880881773
 20
61.0998686983
 30
0.0
 40
0.0500000000000087
100
AcDbArc
 50
180.0
 51
263.9909940425
  0
LINE
  5
398
330
1F
100
AcDbEntity
  8
OBJECT
  6
SLD-Solid
370
    25
100
AcDbLine
 10
9.8828539381
 20
61.0501434256
 30
0.0
 11
10.7130881773
 21
60.9627503478
 31
0.0
  0
LINE
  5
399
330
1F
100
AcDbEntity
  8
OBJECT
  6
SLD-Solid
370
    25
100
AcDbLine
 10
12.0230881773
 20
60.9627503478
 30
0.0
 11
12.8533224165
 21
61.0501434256
 31
0.0
  0
LINE
  5
39A
330
1F
100
AcDbEntity
  8
OBJECT
  6
SLD-Solid
370
    25
100
AcDbLine
 10
43.9005881773
 20
61.438855611
 30
0.0
 11
43.9005881773
 21
61.0998686983
 31
0.0
  0
LINE
  5
39B
330
1F
100
AcDbEntity
  8
OBJECT
  6
SLD-Solid
370
    25
100
AcDbLine
 10
46.9605881773
 20
61.0998686983
 30
0.0
 11
46.9605881773
 21
61.438855611
 31
0.0
  0
ARC
  5
39C
330
1F
100
AcDbEntity
  8
OBJECT
  6
SLD-Solid
370
    25
100
AcDbCircle
 10
46.9105881773
 20
61.0998686983
 30
0.0
 40
0.0500000000000087
100
AcDbArc
 50
276.0090059575
 51
0.0
  0
ARC
  5
39D
330
1F
100
AcDbEntity
  8
OBJECT
  6
SLD-Solid
370
    25
100
AcDbCircle
 10
43.9505881773
 20
61.0998686983
 30
0.0
 40
0.050000000000008
100
AcDbArc
 50
180.0
 51
263.9909940425
  0
LINE
  5
39E
330
1F
100
AcDbEntity
  8
OBJECT
  6
SLD-Solid
370
    25
100
AcDbLine
 10
43.9453539381
 20
61.0501434256
 30
0.0
 11
44.7755881773
 21
60.9627503478
 31
0.0
  0
LINE
  5
39F
330
1F
100
AcDbEntity
  8
OBJECT
  6
SLD-Solid
370
    25
100
AcDbLine
 10
46.0855881773
 20
60.9627503478
 30
0.0
 11
46.9158224165
 21
61.0501434256
 31
0.0
  0
LINE
  5
3A0
330
1F
100
AcDbEntity
  8
OBJECT
  6
SLD-Solid
370
    25
100
AcDbLine
 10
6.0630881773
 20
59.250855611
 30
0.0
 11
6.0630881773
 21
60.9627503478
 31
0.0
  0
LINE
  5
3A1
330
1F
100
AcDbEntity
  8
OBJECT
  6
SLD-Solid
370
    25
100
AcDbLine
 10
4.7980881773
 20
60.9627503478
 30
0.0
 11
4.7980881773
 21
59.250855611
 31
0.0
  0
LINE
  5
3A2
330
1F
100
AcDbEntity
  8
OBJECT
  6
SLD-Solid
370
    25
100
AcDbLine
 10
5.4305881773
 20
58.618355611
 30
0.0
 11
6.9305881773
 21
58.618355611
 31
0.0
  0
LINE
  5
3A3
330
1F
100
AcDbEntity
  8
OBJECT
  6
SLD-Solid
370
    25
100
AcDbLine
 10
6.9305881773
 20
59.883355611
 30
0.0
 11
6.0630881773
 21
59.883355611
 31
0.0
  0
ARC
  5
3A4
330
1F
100
AcDbEntity
  8
OBJECT
  6
SLD-Solid
370
    25
100
AcDbCircle
 10
43.4775881773
 20
61.203855611
 30
0.0
 40
1.320500000000005
100
AcDbArc
 50
270.0
 51
349.4795567689
  0
ARC
  5
3A5
330
1F
100
AcDbEntity
  8
OBJECT
  6
SLD-Solid
370
    25
100
AcDbCircle
 10
43.4775881773
 20
61.203855611
 30
0.0
 40
2.585500000000013
100
AcDbArc
 50
270.0
 51
354.6492305083
  0
LINE
  5
3A6
330
1F
100
AcDbEntity
  8
OBJECT
  6
SLD-Solid
370
    25
100
AcDbLine
 10
41.4305881773
 20
58.618355611
 30
0.0
 11
43.4775881773
 21
58.618355611
 31
0.0
  0
LINE
  5
3A7
330
1F
100
AcDbEntity
  8
OBJECT
  6
SLD-Solid
370
    25
100
AcDbLine
 10
43.4775881773
 20
59.883355611
 30
0.0
 11
41.4305881773
 21
59.883355611
 31
0.0
  0
LINE
  5
3A8
330
1F
100
AcDbEntity
  8
OBJECT
  6
SLD-Solid
370
    25
100
AcDbLine
 10
13.4305881773
 20
58.618355611
 30
0.0
 11
41.4305881773
 21
58.618355611
 31
0.0
  0
LINE
  5
3A9
330
1F
100
AcDbEntity
  8
OBJECT
  6
SLD-Solid
370
    25
100
AcDbLine
 10
41.4305881773
 20
59.883355611
 30
0.0
 11
13.4305881773
 21
59.883355611
 31
0.0
  0
LINE
  5
3AA
330
1F
100
AcDbEntity
  8
OBJECT
  6
SLD-Solid
370
    25
100
AcDbLine
 10
6.9305881773
 20
58.618355611
 30
0.0
 11
13.4305881773
 21
58.618355611
 31
0.0
  0
LINE
  5
3AB
330
1F
100
AcDbEntity
  8
OBJECT
  6
SLD-Solid
370
    25
100
AcDbLine
 10
10.7401595816
 20
59.883355611
 30
0.0
 11
6.9305881773
 21
59.883355611
 31
0.0
  0
LINE
  5
3AC
330
1F
100
AcDbEntity
  8
OBJECT
  6
SLD-Solid
370
    25
100
AcDbLine
 10
13.4305881773
 20
59.883355611
 30
0.0
 11
11.9958559033
 21
59.883355611
 31
0.0
  0
LINE
  5
3AD
330
1F
100
AcDbEntity
  8
OBJECT
  6
SLD-Solid
370
    25
100
AcDbLine
 10
10.7400881773
 20
60.9627503478
 30
0.0
 11
10.7400881773
 21
59.8832847165
 31
0.0
  0
LINE
  5
3AE
330
1F
100
AcDbEntity
  8
OBJECT
  6
SLD-Solid
370
    25
100
AcDbLine
 10
11.9960881773
 20
59.8831249914
 30
0.0
 11
11.9960881773
 21
60.9627503478
 31
0.0
  0
LINE
  5
3AF
330
1F
100
AcDbEntity
  8
OBJECT
  6
SLD-Solid
370
    25
100
AcDbLine
 10
5.4305881773
 20
61.438855611
 30
0.0
 11
3.9005881773
 21
61.438855611
 31
0.0
  0
LINE
  5
3B0
330
1F
100
AcDbEntity
  8
OBJECT
  6
SLD-Solid
370
    25
100
AcDbLine
 10
6.9605881773
 20
61.438855611
 30
0.0
 11
5.4305881773
 21
61.438855611
 31
0.0
  0
LINE
  5
3B1
330
1F
100
AcDbEntity
  8
OBJECT
  6
SLD-Solid
370
    25
100
AcDbLine
 10
4.7755881773
 20
60.9627503478
 30
0.0
 11
6.0855881773
 21
60.9627503478
 31
0.0
  0
LINE
  5
3B2
330
1F
100
AcDbEntity
  8
OBJECT
  6
SLD-Solid
370
    25
100
AcDbLine
 10
11.3680881773
 20
61.438855611
 30
0.0
 11
9.8380881773
 21
61.438855611
 31
0.0
  0
LINE
  5
3B3
330
1F
100
AcDbEntity
  8
OBJECT
  6
SLD-Solid
370
    25
100
AcDbLine
 10
12.8980881773
 20
61.438855611
 30
0.0
 11
11.3680881773
 21
61.438855611
 31
0.0
  0
LINE
  5
3B4
330
1F
100
AcDbEntity
  8
OBJECT
  6
SLD-Solid
370
    25
100
AcDbLine
 10
10.7130881773
 20
60.9627503478
 30
0.0
 11
12.0230881773
 21
60.9627503478
 31
0.0
  0
LINE
  5
3B5
330
1F
100
AcDbEntity
  8
OBJECT
  6
SLD-Solid
370
    25
100
AcDbLine
 10
45.4305881773
 20
61.438855611
 30
0.0
 11
43.9005881773
 21
61.438855611
 31
0.0
  0
LINE
  5
3B6
330
1F
100
AcDbEntity
  8
OBJECT
  6
SLD-Solid
370
    25
100
AcDbLine
 10
46.9605881773
 20
61.438855611
 30
0.0
 11
45.4305881773
 21
61.438855611
 31
0.0
  0
LINE
  5
3B7
330
1F
100
AcDbEntity
  8
OBJECT
  6
SLD-Solid
370
    25
100
AcDbLine
 10
44.7755881773
 20
60.9627503478
 30
0.0
 11
46.0855881773
 21
60.9627503478
 31
0.0
  0
ARC
  5
3B8
330
1F
100
AcDbEntity
  8
OBJECT
  6
SLD-Solid
370
    25
100
AcDbCircle
 10
5.4305881773
 20
59.250855611
 30
0.0
 40
0.632500000000003
100
AcDbArc
 50
180.0
 51
0.0
  0
SPLINE
  5
3B9
330
1F
100
AcDbEntity
  8
OBJECT
  6
SLD-Solid
370
    25
100
AcDbSpline
210
0.0
220
0.0
230
1.0
 70
     8
 71
     3
 72
    48
 73
    44
 74
     0
 42
0.00000001
 43
0.00000001
 40
0.0
 40
0.0
 40
0.0
 40
0.0
 40
0.0168280271041857
 40
0.0349587355207904
 40
0.0551256654169672
 40
0.0754951517512403
 40
0.1002403520030106
 40
0.1215171270590674
 40
0.1429594914989733
 40
0.1648634338915479
 40
0.1869020634926928
 40
0.2159218650531348
 40
0.2451676118075378
 40
0.2750266097071251
 40
0.3050597500981988
 40
0.3437502067471622
 40
0.3827230637824389
 40
0.4225252806040724
 40
0.4425676310900762
 40
0.4626781911598231
 40
0.482829106671971
 40
0.4957869370325015
 40
0.5088831276707102
 40
0.5262827612451216
 40
0.5438700028446359
 40
0.5706269957154235
 40
0.597522247552477
 40
0.6326423024032516
 40
0.6679530355352244
 40
0.7039175320713265
 40
0.7401434996805105
 40
0.7649859384707156
 40
0.7899471290991018
 40
0.8153323644696255
 40
0.8408919520020437
 40
0.8604352874696621
 40
0.8800869524563747
 40
0.9001192634673651
 40
0.9203033217254523
 40
0.9369544018521225
 40
0.9706755340725471
 40
0.987797154343781
 40
0.9999999999999999
 40
0.9999999999999999
 40
0.9999999999999999
 40
0.9999999999999999
 10
10.74015958157046
 20
59.88328471566598
 30
0.0
 10
10.74036431952244
 20
59.88308143085212
 30
0.0
 10
10.74078964448001
 20
59.88265912466022
 30
0.0
 10
10.74501746800031
 20
59.87846154578116
 30
0.0
 10
10.75234986960982
 20
59.87118254532973
 30
0.0
 10
10.76400628064986
 20
59.85961356978934
 30
0.0
 10
10.7794169823177
 20
59.84432364072937
 30
0.0
 10
10.79835501544218
 20
59.82554335874752
 30
0.0
 10
10.81907672224822
 20
59.80500618985785
 30
0.0
 10
10.84236747265762
 20
59.78193987256584
 30
0.0
 10
10.87063921098364
 20
59.75396676660932
 30
0.0
 10
10.90428790996297
 20
59.72071806457485
 30
0.0
 10
10.94381392985164
 20
59.68174327078803
 30
0.0
 10
10.98600146551917
 20
59.64026426897109
 30
0.0
 10
11.03470465902398
 20
59.59258116871693
 30
0.0
 10
11.09007617469818
 20
59.53874474682441
 30
0.0
 10
11.15271435394522
 20
59.47872859637224
 30
0.0
 10
11.20727615273658
 20
59.42792895547126
 30
0.0
 10
11.25316878272673
 20
59.38781219669579
 30
0.0
 10
11.28928143373398
 20
59.35896445168703
 30
0.0
 10
11.32371525663412
 20
59.33640902617982
 30
0.0
 10
11.3580522011739
 20
59.32472900094926
 30
0.0
 10
11.39246146618656
 20
59.32752732364567
 30
0.0
 10
11.42598231078025
 20
59.34466453088782
 30
0.0
 10
11.46450531751411
 20
59.37229779183192
 30
0.0
 10
11.50608701236664
 20
59.40761042219405
 30
0.0
 10
11.5558640056812
 20
59.45285816374892
 30
0.0
 10
11.60875544772499
 20
59.50285729656695
 30
0.0
 10
11.66479828726062
 20
59.55687593863682
 30
0.0
 10
11.71945741891682
 20
59.61014849870919
 30
0.0
 10
11.7666589355985
 20
59.65645429371859
 30
0.0
 10
11.80649349251294
 20
59.69567088681358
 30
0.0
 10
11.83963451344069
 20
59.72836958261043
 30
0.0
 10
11.87107437376914
 20
59.75944249490112
 30
0.0
 10
11.8980295643804
 20
59.78611835268706
 30
0.0
 10
11.92062749338369
 20
59.80850211523462
 30
0.0
 10
11.93935264803573
 20
59.82706178909351
 30
0.0
 10
11.9560391010837
 20
59.84360956229234
 30
0.0
 10
11.96946605526019
 20
59.85693060455801
 30
0.0
 10
11.98311005902957
 20
59.87047101732027
 30
0.0
 10
11.99175103405892
 20
59.87904941546111
 30
0.0
 10
11.99574844301027
 20
59.88301828924553
 30
0.0
 10
11.9958243259711
 20
59.88309363641675
 30
0.0
 10
11.9958559032916
 20
59.88312499077811
 30
0.0
  0
LINE
  5
3BA
330
1F
100
AcDbEntity
  8
OBJECT
  6
SLD-Solid
370
    25
100
AcDbLine
 10
6.9158224165
 20
61.0501434256
 30
0.0
 11
3.9453539381
 21
61.0501434256
 31
0.0
  0
LINE
  5
3BB
330
1F
100
AcDbEntity
  8
OBJECT
  6
SLD-Solid
370
    25
100
AcDbLine
 10
12.8533224165
 20
61.0501434256
 30
0.0
 11
9.8828539381
 21
61.0501434256
 31
0.0
  0
LINE
  5
3BC
330
1F
100
AcDbEntity
  8
OBJECT
  6
SLD-Solid
370
    25
100
AcDbLine
 10
46.9158224165
 20
61.0501434256
 30
0.0
 11
43.9453539381
 21
61.0501434256
 31
0.0
  0
HATCH
  5
3BD
330
1F
100
AcDbEntity
  8
NOTES
100
AcDbHatch
 10
0.0
 20
0.0
 30
0.0
210
0.0
220
0.0
230
1.0
  2
AR-SAND
 70
     0
 71
     0
 91
        1
 92
        0
 93
        4
 72
     1
 10
41.43058817731783
 20
58.61835561098918
 11
41.43058817731783
 21
59.88335561098918
 72
     1
 10
41.43058817731783
 20
59.88335561098918
 11
13.43058817731783
 21
59.88335561098918
 72
     1
 10
13.43058817731783
 20
59.88335561098918
 11
13.43058817731783
 21
58.61835561098918
 72
     1
 10
13.43058817731783
 20
58.61835561098918
 11
41.43058817731783
 21
58.61835561098918
 97
        0
 75
     0
 76
     1
 52
0.0
 41
5.3333333333
 77
     0
 78
     4
 53
37.5
 43
0.0
 44
0.0
 45
-0.3359645765845768
 46
10.27639343473685
 79
     6
 49
0.0
 49
-8.106666666666666
 49
0.0
 49
-9.066666666666666
 49
0.0
 49
-8.666666666666666
 53
7.5
 43
0.0
 44
0.0
 45
9.438809094761211
 46
15.05144568122528
 79
     6
 49
0.0
 49
-4.373333333333333
 49
0.0
 49
-7.306666666666667
 49
0.0
 49
-2.8
 53
-32.5
 43
-6.56
 44
0.0
 45
16.60875659600797
 46
0.0301816188638118
 79
     6
 49
0.0
 49
-2.666666666666667
 49
0.0
 49
-9.6
 49
0.0
 49
-12.53333333333333
 53
-42.50000000000001
 43
-6.56
 44
0.0
 45
16.03267522438556
 46
4.680936346315996
 79
     6
 49
0.0
 49
-1.333333333333333
 49
0.0
 49
-6.293333333333333
 49
0.0
 49
-7.2
 98
        1
 10
0.0
 20
0.0
  0
MTEXT
  5
3BE
330
1F
100
AcDbEntity
  8
NOTES
100
AcDbMText
 10
28.8334174372
 20
57.9897826061
 30
0.0
 40
0.5
 41
0.0
 71
     1
 72
     1
  1
Top view
  7
SLDTEXTSTYLE1
 73
     1
 44
1.0
  0
ENDSEC
  0
SECTION
  2
OBJECTS
  0
DICTIONARY
  5
C
330
0
100
AcDbDictionary
281
     1
  3
ACAD_GROUP
350
D
  3
ACAD_LAYOUT
350
1A
  3
ACAD_MLINESTYLE
350
17
  3
ACAD_PLOTSETTINGS
350
19
  3
ACAD_PLOTSTYLENAME
350
E
  3
ACAD_SCALELIST
350
47
  3
DWGPROPS
350
3BF
  0
DICTIONARY
  5
D
102
{ACAD_REACTORS
330
C
102
}
330
C
100
AcDbDictionary
281
     1
  0
DICTIONARY
  5
1A
102
{ACAD_REACTORS
330
C
102
}
330
C
100
AcDbDictionary
281
     1
  3
Layout1
350
1E
  3
Layout2
350
26
  3
Model
350
22
  0
DICTIONARY
  5
17
102
{ACAD_REACTORS
330
C
102
}
330
C
100
AcDbDictionary
281
     1
  3
Standard
350
18
  0
DICTIONARY
  5
19
102
{ACAD_REACTORS
330
C
102
}
330
C
100
AcDbDictionary
281
     1
  0
ACDBDICTIONARYWDFLT
  5
E
102
{ACAD_REACTORS
330
C
102
}
330
C
100
AcDbDictionary
281
     1
  3
Normal
350
F
100
AcDbDictionaryWithDefault
340
F
  0
DICTIONARY
  5
47
102
{ACAD_REACTORS
330
C
102
}
330
C
100
AcDbDictionary
281
     1
  3
A0
350
48
  3
A1
350
49
  3
A2
350
4A
  3
A3
350
4B
  3
A4
350
4C
  3
A5
350
4D
  3
A6
350
4E
  3
A7
350
4F
  3
A8
350
50
  3
A9
350
51
  3
B0
350
52
  3
B1
350
53
  3
B2
350
54
  3
B3
350
55
  3
B4
350
56
  3
B5
350
57
  3
B6
350
58
  3
B7
350
59
  3
B8
350
5A
  3
B9
350
5B
  3
C0
350
5C
  3
C1
350
5D
  3
C2
350
5E
  3
C3
350
5F
  3
C4
350
60
  3
C5
350
61
  3
C6
350
62
  3
C7
350
63
  3
C8
350
64
  3
C9
350
65
  3
D0
350
66
  3
D1
350
67
  3
D2
350
68
  0
XRECORD
  5
3BF
102
{ACAD_REACTORS
330
C
102
}
330
C
100
AcDbXrecord
280
     1
  1
DWGPROPS COOKIE
  2

  3

  4

  6

  7

  8
carl
  9

300
=
301
=
302
=
303
=
304
=
305
=
306
=
307
=
308
=
309
=
 40
0.0
 41
2459481.822891609
 42
2459481.82289794
  1

 90
        0
  0
LAYOUT
  5
1E
102
{ACAD_REACTORS
330
1A
102
}
330
1A
100
AcDbPlotSettings
  1

  2
none_device
  4

  6

 40
0.0
 41
0.0
 42
0.0
 43
0.0
 44
0.0
 45
0.0
 46
0.0
 47
0.0
 48
0.0
 49
0.0
140
0.0
141
0.0
142
1.0
143
1.0
 70
   688
 72
     0
 73
     0
 74
     5
  7

 75
    16
147
1.0
148
0.0
149
0.0
100
AcDbLayout
  1
Layout1
 70
     1
 71
     1
 10
0.0
 20
0.0
 11
12.0
 21
9.0
 12
0.0
 22
0.0
 32
0.0
 14
1.0000000000E+20
 24
1.0000000000E+20
 34
1.0000000000E+20
 15
-1.0000000000E+20
 25
-1.0000000000E+20
 35
-1.0000000000E+20
146
0.0
 13
0.0
 23
0.0
 33
0.0
 16
1.0
 26
0.0
 36
0.0
 17
0.0
 27
1.0
 37
0.0
 76
     0
330
1B
  0
LAYOUT
  5
26
102
{ACAD_REACTORS
330
1A
102
}
330
1A
100
AcDbPlotSettings
  1

  2
none_device
  4

  6

 40
0.0
 41
0.0
 42
0.0
 43
0.0
 44
0.0
 45
0.0
 46
0.0
 47
0.0
 48
0.0
 49
0.0
140
0.0
141
0.0
142
1.0
143
1.0
 70
   688
 72
     0
 73
     0
 74
     5
  7

 75
    16
147
1.0
148
0.0
149
0.0
100
AcDbLayout
  1
Layout2
 70
     1
 71
     2
 10
0.0
 20
0.0
 11
0.0
 21
0.0
 12
0.0
 22
0.0
 32
0.0
 14
0.0
 24
0.0
 34
0.0
 15
0.0
 25
0.0
 35
0.0
146
0.0
 13
0.0
 23
0.0
 33
0.0
 16
1.0
 26
0.0
 36
0.0
 17
0.0
 27
1.0
 37
0.0
 76
     0
330
23
  0
LAYOUT
  5
22
102
{ACAD_REACTORS
330
1A
102
}
330
1A
100
AcDbPlotSettings
  1

  2
none_device
  4
Letter_(8.50_x_11.00_Inches)
  6

 40
6.35
 41
6.35
 42
6.35000508
 43
6.35000508
 44
215.9
 45
279.4
 46
0.0
 47
0.0
 48
0.0
 49
0.0
140
0.0
141
0.0
142
1.0
143
1.0
 70
  1712
 72
     0
 73
     0
 74
     0
  7

 75
     0
147
1.0
148
0.0
149
0.0
100
AcDbLayout
  1
Model
 70
     1
 71
     0
 10
0.0
 20
0.0
 11
90.0
 21
120.0
 12
0.0
 22
0.0
 32
0.0
 14
0.0
 24
0.0
 34
0.0
 15
90.0
 25
120.0
 35
0.0
146
0.0
 13
0.0
 23
0.0
 33
0.0
 16
1.0
 26
0.0
 36
0.0
 17
0.0
 27
1.0
 37
0.0
 76
     0
330
1F
331
29
  0
MLINESTYLE
  5
18
102
{ACAD_REACTORS
330
17
102
}
330
17
100
AcDbMlineStyle
  2
Standard
 70
     0
  3

 62
   256
 51
90.0
 52
90.0
 71
     2
 49
0.5
 62
   256
  6
BYLAYER
 49
-0.5
 62
   256
  6
BYLAYER
  0
ACDBPLACEHOLDER
  5
F
102
{ACAD_REACTORS
330
E
102
}
330
E
  0
SCALE
  5
48
102
{ACAD_REACTORS
330
47
102
}
330
47
100
AcDbScale
 70
     0
300
1:1
140
1.0
141
1.0
290
     1
  0
SCALE
  5
49
102
{ACAD_REACTORS
330
47
102
}
330
47
100
AcDbScale
 70
     0
300
1:2
140
1.0
141
2.0
290
     0
  0
SCALE
  5
4A
102
{ACAD_REACTORS
330
47
102
}
330
47
100
AcDbScale
 70
     0
300
1:4
140
1.0
141
4.0
290
     0
  0
SCALE
  5
4B
102
{ACAD_REACTORS
330
47
102
}
330
47
100
AcDbScale
 70
     0
300
1:5
140
1.0
141
5.0
290
     0
  0
SCALE
  5
4C
102
{ACAD_REACTORS
330
47
102
}
330
47
100
AcDbScale
 70
     0
300
1:8
140
1.0
141
8.0
290
     0
  0
SCALE
  5
4D
102
{ACAD_REACTORS
330
47
102
}
330
47
100
AcDbScale
 70
     0
300
1:10
140
1.0
141
10.0
290
     0
  0
SCALE
  5
4E
102
{ACAD_REACTORS
330
47
102
}
330
47
100
AcDbScale
 70
     0
300
1:16
140
1.0
141
16.0
290
     0
  0
SCALE
  5
4F
102
{ACAD_REACTORS
330
47
102
}
330
47
100
AcDbScale
 70
     0
300
1:20
140
1.0
141
20.0
290
     0
  0
SCALE
  5
50
102
{ACAD_REACTORS
330
47
102
}
330
47
100
AcDbScale
 70
     0
300
1:30
140
1.0
141
30.0
290
     0
  0
SCALE
  5
51
102
{ACAD_REACTORS
330
47
102
}
330
47
100
AcDbScale
 70
     0
300
1:40
140
1.0
141
40.0
290
     0
  0
SCALE
  5
52
102
{ACAD_REACTORS
330
47
102
}
330
47
100
AcDbScale
 70
     0
300
1:50
140
1.0
141
50.0
290
     0
  0
SCALE
  5
53
102
{ACAD_REACTORS
330
47
102
}
330
47
100
AcDbScale
 70
     0
300
1:100
140
1.0
141
100.0
290
     0
  0
SCALE
  5
54
102
{ACAD_REACTORS
330
47
102
}
330
47
100
AcDbScale
 70
     0
300
2:1
140
2.0
141
1.0
290
     0
  0
SCALE
  5
55
102
{ACAD_REACTORS
330
47
102
}
330
47
100
AcDbScale
 70
     0
300
4:1
140
4.0
141
1.0
290
     0
  0
SCALE
  5
56
102
{ACAD_REACTORS
330
47
102
}
330
47
100
AcDbScale
 70
     0
300
8:1
140
8.0
141
1.0
290
     0
  0
SCALE
  5
57
102
{ACAD_REACTORS
330
47
102
}
330
47
100
AcDbScale
 70
     0
300
10:1
140
10.0
141
1.0
290
     0
  0
SCALE
  5
58
102
{ACAD_REACTORS
330
47
102
}
330
47
100
AcDbScale
 70
     0
300
100:1
140
100.0
141
1.0
290
     0
  0
SCALE
  5
59
102
{ACAD_REACTORS
330
47
102
}
330
47
100
AcDbScale
 70
     0
300
1/128" = 1'-0"
140
0.0078125
141
12.0
290
     0
  0
SCALE
  5
5A
102
{ACAD_REACTORS
330
47
102
}
330
47
100
AcDbScale
 70
     0
300
1/64" = 1'-0"
140
0.015625
141
12.0
290
     0
  0
SCALE
  5
5B
102
{ACAD_REACTORS
330
47
102
}
330
47
100
AcDbScale
 70
     0
300
1/32" = 1'-0"
140
0.03125
141
12.0
290
     0
  0
SCALE
  5
5C
102
{ACAD_REACTORS
330
47
102
}
330
47
100
AcDbScale
 70
     0
300
1/16" = 1'-0"
140
0.0625
141
12.0
290
     0
  0
SCALE
  5
5D
102
{ACAD_REACTORS
330
47
102
}
330
47
100
AcDbScale
 70
     0
300
3/32" = 1'-0"
140
0.09375
141
12.0
290
     0
  0
SCALE
  5
5E
102
{ACAD_REACTORS
330
47
102
}
330
47
100
AcDbScale
 70
     0
300
1/8" = 1'-0"
140
0.125
141
12.0
290
     0
  0
SCALE
  5
5F
102
{ACAD_REACTORS
330
47
102
}
330
47
100
AcDbScale
 70
     0
300
3/16" = 1'-0"
140
0.1875
141
12.0
290
     0
  0
SCALE
  5
60
102
{ACAD_REACTORS
330
47
102
}
330
47
100
AcDbScale
 70
     0
300
1/4" = 1'-0"
140
0.25
141
12.0
290
     0
  0
SCALE
  5
61
102
{ACAD_REACTORS
330
47
102
}
330
47
100
AcDbScale
 70
     0
300
3/8" = 1'-0"
140
0.375
141
12.0
290
     0
  0
SCALE
  5
62
102
{ACAD_REACTORS
330
47
102
}
330
47
100
AcDbScale
 70
     0
300
1/2" = 1'-0"
140
0.5
141
12.0
290
     0
  0
SCALE
  5
63
102
{ACAD_REACTORS
330
47
102
}
330
47
100
AcDbScale
 70
     0
300
3/4" = 1'-0"
140
0.75
141
12.0
290
     0
  0
SCALE
  5
64
102
{ACAD_REACTORS
330
47
102
}
330
47
100
AcDbScale
 70
     0
300
1" = 1'-0"
140
1.0
141
12.0
290
     0
  0
SCALE
  5
65
102
{ACAD_REACTORS
330
47
102
}
330
47
100
AcDbScale
 70
     0
300
1-1/2" = 1'-0"
140
1.5
141
12.0
290
     0
  0
SCALE
  5
66
102
{ACAD_REACTORS
330
47
102
}
330
47
100
AcDbScale
 70
     0
300
3" = 1'-0"
140
3.0
141
12.0
290
     0
  0
SCALE
  5
67
102
{ACAD_REACTORS
330
47
102
}
330
47
100
AcDbScale
 70
     0
300
6" = 1'-0"
140
6.0
141
12.0
290
     0
  0
SCALE
  5
68
102
{ACAD_REACTORS
330
47
102
}
330
47
100
AcDbScale
 70
     0
300
1'-0" = 1'-0"
140
12.0
141
12.0
290
     0
  0
ENDSEC
  0
EOF
