  0
SECTION
  2
HEADER
  9
$ACADVER
  1
AC1015
  9
$ACADMAINTVER
 70
     6
  9
$DWGCODEPAGE
  3
ANSI_1252
  9
$INSBASE
 10
0.0
 20
0.0
 30
0.0
  9
$EXTMIN
 10
0.0
 20
0.0
 30
0.0
  9
$EXTMAX
 10
90.0
 20
120.0
 30
0.0
  9
$LIMMIN
 10
0.0
 20
0.0
  9
$LIMMAX
 10
90.0
 20
120.0
  9
$ORTHOMODE
 70
     0
  9
$REGENMODE
 70
     1
  9
$FILLMODE
 70
     1
  9
$QTEXTMODE
 70
     0
  9
$MIRRTEXT
 70
     1
  9
$LTSCALE
 40
1.0
  9
$ATTMODE
 70
     1
  9
$TEXTSIZE
 40
0.5
  9
$TRACEWID
 40
0.05
  9
$TEXTSTYLE
  7
STANDARD
  9
$CLAYER
  8
0
  9
$CELTYPE
  6
ByLayer
  9
$CECOLOR
 62
   256
  9
$CELTSCALE
 40
1.0
  9
$DISPSILH
 70
     0
  9
$DIMSCALE
 40
1.0
  9
$DIMASZ
 40
0.3
  9
$DIMEXO
 40
0.1666666667
  9
$DIMDLI
 40
0.38
  9
$DIMRND
 40
0.0
  9
$DIMDLE
 40
0.0
  9
$DIMEXE
 40
0.375
  9
$DIMTP
 40
0.0
  9
$DIMTM
 40
0.0
  9
$DIMTXT
 40
0.5
  9
$DIMCEN
 40
0.09
  9
$DIMTSZ
 40
0.0
  9
$DIMTOL
 70
     0
  9
$DIMLIM
 70
     0
  9
$DIMTIH
 70
     1
  9
$DIMTOH
 70
     1
  9
$DIMSE1
 70
     0
  9
$DIMSE2
 70
     0
  9
$DIMTAD
 70
     0
  9
$DIMZIN
 70
     1
  9
$DIMBLK
  1

  9
$DIMASO
 70
     1
  9
$DIMSHO
 70
     1
  9
$DIMPOST
  1

  9
$DIMAPOST
  1

  9
$DIMALT
 70
     0
  9
$DIMALTD
 70
     2
  9
$DIMALTF
 40
25.4
  9
$DIMLFAC
 40
1.0
  9
$DIMTOFL
 70
     0
  9
$DIMTVP
 40
0.0
  9
$DIMTIX
 70
     0
  9
$DIMSOXD
 70
     0
  9
$DIMSAH
 70
     0
  9
$DIMBLK1
  1

  9
$DIMBLK2
  1

  9
$DIMSTYLE
  2
Standard
  9
$DIMCLRD
 70
     0
  9
$DIMCLRE
 70
     0
  9
$DIMCLRT
 70
     0
  9
$DIMTFAC
 40
1.0
  9
$DIMGAP
 40
0.125
  9
$DIMJUST
 70
     0
  9
$DIMSD1
 70
     0
  9
$DIMSD2
 70
     0
  9
$DIMTOLJ
 70
     1
  9
$DIMTZIN
 70
     1
  9
$DIMALTZ
 70
     0
  9
$DIMALTTZ
 70
     0
  9
$DIMUPT
 70
     0
  9
$DIMDEC
 70
     2
  9
$DIMTDEC
 70
     2
  9
$DIMALTU
 70
     2
  9
$DIMALTTD
 70
     2
  9
$DIMTXSTY
  7
STANDARD
  9
$DIMAUNIT
 70
     0
  9
$DIMADEC
 70
     2
  9
$DIMALTRND
 40
0.0
  9
$DIMAZIN
 70
     0
  9
$DIMDSEP
 70
    46
  9
$DIMATFIT
 70
     3
  9
$DIMFRAC
 70
     0
  9
$DIMLDRBLK
  1

  9
$DIMLUNIT
 70
     2
  9
$DIMLWD
 70
    -2
  9
$DIMLWE
 70
    -2
  9
$DIMTMOVE
 70
     0
  9
$LUNITS
 70
     2
  9
$LUPREC
 70
     4
  9
$SKETCHINC
 40
0.1
  9
$FILLETRAD
 40
0.5
  9
$AUNITS
 70
     0
  9
$AUPREC
 70
     2
  9
$MENU
  1
.
  9
$ELEVATION
 40
0.0
  9
$PELEVATION
 40
0.0
  9
$THICKNESS
 40
0.0
  9
$LIMCHECK
 70
     0
  9
$CHAMFERA
 40
0.0
  9
$CHAMFERB
 40
0.0
  9
$CHAMFERC
 40
0.0
  9
$CHAMFERD
 40
0.0
  9
$SKPOLY
 70
     0
  9
$TDCREATE
 40
2459481.652665718
  9
$TDUCREATE
 40
2459481.819332384
  9
$TDUPDATE
 40
2459481.652671736
  9
$TDUUPDATE
 40
2459481.819338403
  9
$TDINDWG
 40
0.0000000116
  9
$TDUSRTIMER
 40
0.0000000116
  9
$USRTIMER
 70
     1
  9
$ANGBASE
 50
0.0
  9
$ANGDIR
 70
     0
  9
$PDMODE
 70
     0
  9
$PDSIZE
 40
-1.0
  9
$PLINEWID
 40
0.0
  9
$SPLFRAME
 70
     0
  9
$SPLINETYPE
 70
     6
  9
$SPLINESEGS
 70
     8
  9
$HANDSEED
  5
3C4
  9
$SURFTAB1
 70
     6
  9
$SURFTAB2
 70
     6
  9
$SURFTYPE
 70
     6
  9
$SURFU
 70
     6
  9
$SURFV
 70
     6
  9
$UCSBASE
  2

  9
$UCSNAME
  2

  9
$UCSORG
 10
0.0
 20
0.0
 30
0.0
  9
$UCSXDIR
 10
1.0
 20
0.0
 30
0.0
  9
$UCSYDIR
 10
0.0
 20
1.0
 30
0.0
  9
$UCSORTHOREF
  2

  9
$UCSORTHOVIEW
 70
     0
  9
$UCSORGTOP
 10
0.0
 20
0.0
 30
0.0
  9
$UCSORGBOTTOM
 10
0.0
 20
0.0
 30
0.0
  9
$UCSORGLEFT
 10
0.0
 20
0.0
 30
0.0
  9
$UCSORGRIGHT
 10
0.0
 20
0.0
 30
0.0
  9
$UCSORGFRONT
 10
0.0
 20
0.0
 30
0.0
  9
$UCSORGBACK
 10
0.0
 20
0.0
 30
0.0
  9
$PUCSBASE
  2

  9
$PUCSNAME
  2

  9
$PUCSORG
 10
0.0
 20
0.0
 30
0.0
  9
$PUCSXDIR
 10
1.0
 20
0.0
 30
0.0
  9
$PUCSYDIR
 10
0.0
 20
1.0
 30
0.0
  9
$PUCSORTHOREF
  2

  9
$PUCSORTHOVIEW
 70
     0
  9
$PUCSORGTOP
 10
0.0
 20
0.0
 30
0.0
  9
$PUCSORGBOTTOM
 10
0.0
 20
0.0
 30
0.0
  9
$PUCSORGLEFT
 10
0.0
 20
0.0
 30
0.0
  9
$PUCSORGRIGHT
 10
0.0
 20
0.0
 30
0.0
  9
$PUCSORGFRONT
 10
0.0
 20
0.0
 30
0.0
  9
$PUCSORGBACK
 10
0.0
 20
0.0
 30
0.0
  9
$USERI1
 70
     0
  9
$USERI2
 70
     0
  9
$USERI3
 70
     0
  9
$USERI4
 70
     0
  9
$USERI5
 70
     0
  9
$USERR1
 40
0.0
  9
$USERR2
 40
0.0
  9
$USERR3
 40
0.0
  9
$USERR4
 40
0.0
  9
$USERR5
 40
0.0
  9
$WORLDVIEW
 70
     1
  9
$SHADEDGE
 70
     3
  9
$SHADEDIF
 70
    70
  9
$TILEMODE
 70
     1
  9
$MAXACTVP
 70
    64
  9
$PINSBASE
 10
0.0
 20
0.0
 30
0.0
  9
$PLIMCHECK
 70
     0
  9
$PEXTMIN
 10
1.0000000000E+20
 20
1.0000000000E+20
 30
1.0000000000E+20
  9
$PEXTMAX
 10
-1.0000000000E+20
 20
-1.0000000000E+20
 30
-1.0000000000E+20
  9
$PLIMMIN
 10
0.0
 20
0.0
  9
$PLIMMAX
 10
12.0
 20
9.0
  9
$UNITMODE
 70
     0
  9
$VISRETAIN
 70
     1
  9
$PLINEGEN
 70
     0
  9
$PSLTSCALE
 70
     1
  9
$TREEDEPTH
 70
  3020
  9
$CMLSTYLE
  2
Standard
  9
$CMLJUST
 70
     0
  9
$CMLSCALE
 40
1.0
  9
$PROXYGRAPHICS
 70
     1
  9
$MEASUREMENT
 70
     0
  9
$CELWEIGHT
370
    -1
  9
$ENDCAPS
280
     0
  9
$JOINSTYLE
280
     0
  9
$LWDISPLAY
290
     1
  9
$INSUNITS
 70
     1
  9
$HYPERLINKBASE
  1

  9
$STYLESHEET
  1

  9
$XEDIT
290
     1
  9
$CEPSNTYPE
380
     0
  9
$PSTYLEMODE
290
     1
  9
$FINGERPRINTGUID
  2
{f2bbed19-0e09-4df6-b9cc-5311ff915efc}
  9
$VERSIONGUID
  2
{FAEB1C32-E019-11D5-929B-00C0DF256EC4}
  9
$EXTNAMES
290
     1
  9
$PSVPSCALE
 40
0.0
  9
$OLESTARTUP
290
     0
  0
ENDSEC
  0
SECTION
  2
CLASSES
  0
CLASS
  1
ACDBDICTIONARYWDFLT
  2
AcDbDictionaryWithDefault
  3
ObjectDBX Classes
 90
        0
280
     0
281
     0
  0
CLASS
  1
VISUALSTYLE
  2
AcDbVisualStyle
  3
ObjectDBX Classes
 90
     4095
280
     0
281
     0
  0
CLASS
  1
MATERIAL
  2
AcDbMaterial
  3
ObjectDBX Classes
 90
     1153
280
     0
281
     0
  0
CLASS
  1
SCALE
  2
AcDbScale
  3
ObjectDBX Classes
 90
     1153
280
     0
281
     0
  0
CLASS
  1
TABLESTYLE
  2
AcDbTableStyle
  3
ObjectDBX Classes
 90
     4095
280
     0
281
     0
  0
CLASS
  1
MLEADERSTYLE
  2
AcDbMLeaderStyle
  3
ACDB_MLEADERSTYLE_CLASS
 90
     4095
280
     0
281
     0
  0
CLASS
  1
SUN
  2
AcDbSun
  3
SCENEOE
 90
     1153
280
     0
281
     0
  0
CLASS
  1
ACDBPLACEHOLDER
  2
AcDbPlaceHolder
  3
ObjectDBX Classes
 90
        0
280
     0
281
     0
  0
CLASS
  1
LAYOUT
  2
AcDbLayout
  3
ObjectDBX Classes
 90
        0
280
     0
281
     0
  0
ENDSEC
  0
SECTION
  2
TABLES
  0
TABLE
  2
VPORT
  5
8
330
0
100
AcDbSymbolTable
 70
     1
  0
VPORT
  5
29
330
8
100
AcDbSymbolTableRecord
100
AcDbViewportTableRecord
  2
*Active
 70
     0
 10
0.0
 20
0.0
 11
1.0
 21
1.0
 12
45.0
 22
60.0
 13
0.0
 23
0.0
 14
0.5
 24
0.5
 15
0.5
 25
0.5
 16
0.0
 26
0.0
 36
1.0
 17
0.0
 27
0.0
 37
0.0
 40
120.0
 41
0.75
 42
50.0
 43
0.0
 44
0.0
 50
0.0
 51
0.0
 71
     0
 72
  2000
 73
     1
 74
     3
 75
     0
 76
     0
 77
     0
 78
     0
281
     0
 65
     1
110
0.0
120
0.0
130
0.0
111
1.0
121
0.0
131
0.0
112
0.0
122
1.0
132
0.0
 79
     0
146
0.0
  0
ENDTAB
  0
TABLE
  2
LTYPE
  5
5
330
0
100
AcDbSymbolTable
 70
     8
  0
LTYPE
  5
14
330
5
100
AcDbSymbolTableRecord
100
AcDbLinetypeTableRecord
  2
ByBlock
 70
     0
  3

 72
    65
 73
     0
 40
0.0
  0
LTYPE
  5
15
330
5
100
AcDbSymbolTableRecord
100
AcDbLinetypeTableRecord
  2
ByLayer
 70
     0
  3

 72
    65
 73
     0
 40
0.0
  0
LTYPE
  5
16
330
5
100
AcDbSymbolTableRecord
100
AcDbLinetypeTableRecord
  2
Continuous
 70
     0
  3
Solid line
 72
    65
 73
     0
 40
0.0
  0
LTYPE
  5
6E
330
5
100
AcDbSymbolTableRecord
100
AcDbLinetypeTableRecord
  2
SLD-Solid
 70
     0
  3
SolidWorks Line Style
 72
    65
 73
     0
 40
0.0
  0
LTYPE
  5
6F
330
5
100
AcDbSymbolTableRecord
100
AcDbLinetypeTableRecord
  2
SLD-Dashed
 70
     0
  3
SolidWorks Line Style
 72
    65
 73
     2
 40
0.075
 49
0.05
 74
     0
 49
-0.025
 74
     0
  0
LTYPE
  5
70
330
5
100
AcDbSymbolTableRecord
100
AcDbLinetypeTableRecord
  2
SLD-Phantom
 70
     0
  3
SolidWorks Line Style
 72
    65
 73
     6
 40
0.5
 49
0.25
 74
     0
 49
-0.05
 74
     0
 49
0.05
 74
     0
 49
-0.05
 74
     0
 49
0.05
 74
     0
 49
-0.05
 74
     0
  0
LTYPE
  5
71
330
5
100
AcDbSymbolTableRecord
100
AcDbLinetypeTableRecord
  2
SLD-Chain
 70
     0
  3
SolidWorks Line Style
 72
    65
 73
     4
 40
0.4
 49
0.25
 74
     0
 49
-0.05
 74
     0
 49
0.05
 74
     0
 49
-0.05
 74
     0
  0
LTYPE
  5
72
330
5
100
AcDbSymbolTableRecord
100
AcDbLinetypeTableRecord
  2
SLD-Center
 70
     0
  3
SolidWorks Line Style
 72
    65
 73
     4
 40
0.75
 49
0.6
 74
     0
 49
-0.05
 74
     0
 49
0.05
 74
     0
 49
-0.05
 74
     0
  0
LTYPE
  5
73
330
5
100
AcDbSymbolTableRecord
100
AcDbLinetypeTableRecord
  2
SLD-Stitch
 70
     0
  3
SolidWorks Line Style
 72
    65
 73
     2
 40
0.025
 49
0.0
 74
     0
 49
-0.025
 74
     0
  0
LTYPE
  5
74
330
5
100
AcDbSymbolTableRecord
100
AcDbLinetypeTableRecord
  2
SLD-Thin-Thick-Chain
 70
     0
  3
SolidWorks Line Style
 72
    65
 73
     4
 40
0.4
 49
0.25
 74
     0
 49
-0.05
 74
     0
 49
0.05
 74
     0
 49
-0.05
 74
     0
  0
ENDTAB
  0
TABLE
  2
LAYER
  5
2
330
0
100
AcDbSymbolTable
 70
     6
  0
LAYER
  5
10
330
2
100
AcDbSymbolTableRecord
100
AcDbLayerTableRecord
  2
0
 70
     0
 62
     7
  6
Continuous
370
    -3
390
F
  0
LAYER
  5
75
330
2
100
AcDbSymbolTableRecord
100
AcDbLayerTableRecord
  2
FORMAT
 70
     0
 62
     7
  6
SLD-Solid
370
    -3
390
F
  0
LAYER
  5
76
330
2
100
AcDbSymbolTableRecord
100
AcDbLayerTableRecord
  2
NOTES
 70
     0
 62
     1
  6
SLD-Solid
370
    -3
390
F
  0
LAYER
  5
77
330
2
100
AcDbSymbolTableRecord
100
AcDbLayerTableRecord
  2
OBJECT
 70
     0
 62
     7
  6
SLD-Solid
370
    25
390
F
  0
LAYER
  5
78
330
2
100
AcDbSymbolTableRecord
100
AcDbLayerTableRecord
  2
DIMS
 70
     0
 62
     5
  6
SLD-Solid
370
    -3
390
F
  0
LAYER
  5
79
330
2
100
AcDbSymbolTableRecord
100
AcDbLayerTableRecord
  2
TITLE
 70
     0
 62
     8
  6
SLD-Solid
370
    -3
390
F
  0
ENDTAB
  0
TABLE
  2
STYLE
  5
3
330
0
100
AcDbSymbolTable
 70
     5
  0
STYLE
  5
11
330
3
100
AcDbSymbolTableRecord
100
AcDbTextStyleTableRecord
  2
STANDARD
 70
     0
 40
0.0
 41
1.0
 50
0.0
 71
     0
 42
0.5
  3
GOTHIC.TTF
  4

1001
ACAD
1000
CENTURY GOTHIC
1071
       34
  0
STYLE
  5
15D
330
3
100
AcDbSymbolTableRecord
100
AcDbTextStyleTableRecord
  2
SLDTEXTSTYLE0
 70
     0
 40
0.0
 41
0.948
 50
0.0
 71
     0
 42
0.5
  3
ARIAL.TTF
  4

1001
ACAD
1000
Arial
1071
      290
  0
STYLE
  5
161
330
3
100
AcDbSymbolTableRecord
100
AcDbTextStyleTableRecord
  2
SLDTEXTSTYLE1
 70
     0
 40
0.0
 41
0.913
 50
0.0
 71
     0
 42
0.5
  3
GOTHIC.TTF
  4

1001
ACAD
1000
Century Gothic
1071
      290
  0
STYLE
  5
170
330
3
100
AcDbSymbolTableRecord
100
AcDbTextStyleTableRecord
  2
SLDTEXTSTYLE2
 70
     0
 40
0.0
 41
0.87
 50
0.0
 71
     0
 42
0.5
  3
ARIALNB.TTF
  4

1001
ACAD
1000
Arial Narrow
1071
 33554722
  0
STYLE
  5
172
330
3
100
AcDbSymbolTableRecord
100
AcDbTextStyleTableRecord
  2
SLDTEXTSTYLE3
 70
     0
 40
0.0
 41
0.87
 50
0.0
 71
     0
 42
0.5
  3
ARIALN.TTF
  4

1001
ACAD
1000
Arial Narrow
1071
      290
  0
ENDTAB
  0
TABLE
  2
VIEW
  5
6
330
0
100
AcDbSymbolTable
 70
     0
  0
ENDTAB
  0
TABLE
  2
UCS
  5
7
330
0
100
AcDbSymbolTable
 70
     0
  0
ENDTAB
  0
TABLE
  2
APPID
  5
9
330
0
100
AcDbSymbolTable
 70
     1
  0
APPID
  5
12
330
9
100
AcDbSymbolTableRecord
100
AcDbRegAppTableRecord
  2
ACAD
 70
     0
  0
ENDTAB
  0
TABLE
  2
DIMSTYLE
  5
A
330
0
100
AcDbSymbolTable
 70
     6
100
AcDbDimStyleTable
  0
DIMSTYLE
105
27
330
A
100
AcDbSymbolTableRecord
100
AcDbDimStyleTableRecord
  2
Standard
 70
     0
178
     0
340
11
  0
DIMSTYLE
105
27F
102
{ACAD_REACTORS
330
27E
330
28F
330
299
330
2A4
330
2AF
330
2BA
330
2E3
102
}
330
A
100
AcDbSymbolTableRecord
100
AcDbDimStyleTableRecord
  2
SLDDIMSTYLE0
 70
     0
 41
0.3
 44
0.0
 45
0.000000001
 78
    12
 79
     3
140
0.5
147
0.125
173
     1
178
     0
271
     2
272
     2
276
     2
277
     5
284
    12
340
161
341
280
343
280
344
280
  0
DIMSTYLE
105
2C6
102
{ACAD_REACTORS
330
2C5
102
}
330
A
100
AcDbSymbolTableRecord
100
AcDbDimStyleTableRecord
  2
SLDDIMSTYLE1
 70
     0
 41
0.3
 44
0.0
 45
0.000000001
 78
    12
 79
     3
140
0.5
141
0.0
147
0.125
173
     1
178
     0
271
     2
272
     2
276
     2
277
     5
284
    12
340
161
341
280
343
280
344
280
  0
DIMSTYLE
105
2D4
102
{ACAD_REACTORS
330
2D3
330
326
330
335
330
344
102
}
330
A
100
AcDbSymbolTableRecord
100
AcDbDimStyleTableRecord
  2
SLDDIMSTYLE2
 70
     0
 41
0.3
 44
0.0
 45
0.000000001
 78
    12
 79
     3
140
0.5
147
0.125
173
     1
178
     0
271
     6
272
     2
276
     2
277
     5
284
    12
340
161
341
280
343
280
344
280
  0
DIMSTYLE
105
2F5
330
A
100
AcDbSymbolTableRecord
100
AcDbDimStyleTableRecord
  2
SLDDIMSTYLE3
 70
     0
 41
0.3
 44
0.0
 45
0.000000001
146
0.3
147
0.0
173
     1
178
     0
271
     0
272
     0
276
     2
277
     5
340
11
341
280
343
280
344
280
  0
DIMSTYLE
105
2FB
330
A
100
AcDbSymbolTableRecord
100
AcDbDimStyleTableRecord
  2
SLDDIMSTYLE4
 70
     0
 41
0.0666666667
 44
0.0
 45
0.000000001
146
0.2
147
0.0
173
     1
178
     0
271
     0
272
     0
276
     2
277
     5
340
11
341
2FC
343
2FC
344
2FC
  0
ENDTAB
  0
TABLE
  2
BLOCK_RECORD
  5
1
330
0
100
AcDbSymbolTable
 70
    19
  0
BLOCK_RECORD
  5
1F
330
1
100
AcDbSymbolTableRecord
100
AcDbBlockTableRecord
  2
*Model_Space
340
22
  0
BLOCK_RECORD
  5
1B
330
1
100
AcDbSymbolTableRecord
100
AcDbBlockTableRecord
  2
*Paper_Space
340
1E
  0
BLOCK_RECORD
  5
23
330
1
100
AcDbSymbolTableRecord
100
AcDbBlockTableRecord
  2
*Paper_Space0
340
26
  0
BLOCK_RECORD
  5
167
330
1
100
AcDbSymbolTableRecord
100
AcDbBlockTableRecord
  2
SW_NOTE_0
340
0
102
{BLKREFS
331
16C
102
}
  0
BLOCK_RECORD
  5
16D
330
1
100
AcDbSymbolTableRecord
100
AcDbBlockTableRecord
  2
SW_NOTE_0_1
340
0
102
{BLKREFS
331
176
102
}
  0
BLOCK_RECORD
  5
280
330
1
100
AcDbSymbolTableRecord
100
AcDbBlockTableRecord
  2
_Open90
340
0
102
{BLKREFS
331
289
331
28A
331
293
331
294
331
29D
331
29E
331
2A8
331
2A9
331
2B3
331
2B4
331
2BE
331
2BF
331
2CA
331
2D8
331
2D9
331
2E7
331
2E8
331
32A
331
32B
331
339
331
33A
331
348
331
349
102
}
  0
BLOCK_RECORD
  5
286
330
1
100
AcDbSymbolTableRecord
100
AcDbBlockTableRecord
  2
_D
340
0
  0
BLOCK_RECORD
  5
290
330
1
100
AcDbSymbolTableRecord
100
AcDbBlockTableRecord
  2
_D_1
340
0
  0
BLOCK_RECORD
  5
29A
330
1
100
AcDbSymbolTableRecord
100
AcDbBlockTableRecord
  2
_D_2
340
0
  0
BLOCK_RECORD
  5
2A5
330
1
100
AcDbSymbolTableRecord
100
AcDbBlockTableRecord
  2
_D_3
340
0
  0
BLOCK_RECORD
  5
2B0
330
1
100
AcDbSymbolTableRecord
100
AcDbBlockTableRecord
  2
_D_4
340
0
  0
BLOCK_RECORD
  5
2BB
330
1
100
AcDbSymbolTableRecord
100
AcDbBlockTableRecord
  2
_D_5
340
0
  0
BLOCK_RECORD
  5
2C7
330
1
100
AcDbSymbolTableRecord
100
AcDbBlockTableRecord
  2
_D_6
340
0
  0
BLOCK_RECORD
  5
2D5
330
1
100
AcDbSymbolTableRecord
100
AcDbBlockTableRecord
  2
_D_7
340
0
  0
BLOCK_RECORD
  5
2E4
330
1
100
AcDbSymbolTableRecord
100
AcDbBlockTableRecord
  2
_D_8
340
0
  0
BLOCK_RECORD
  5
2EF
330
1
100
AcDbSymbolTableRecord
100
AcDbBlockTableRecord
  2
SW_NOTE_0_2
340
0
102
{BLKREFS
331
2F4
102
}
  0
BLOCK_RECORD
  5
2FC
330
1
100
AcDbSymbolTableRecord
100
AcDbBlockTableRecord
  2
_Origin
340
0
  0
BLOCK_RECORD
  5
327
330
1
100
AcDbSymbolTableRecord
100
AcDbBlockTableRecord
  2
_D_9
340
0
  0
BLOCK_RECORD
  5
336
330
1
100
AcDbSymbolTableRecord
100
AcDbBlockTableRecord
  2
_D_10
340
0
  0
BLOCK_RECORD
  5
345
330
1
100
AcDbSymbolTableRecord
100
AcDbBlockTableRecord
  2
_D_11
340
0
  0
BLOCK_RECORD
  5
38F
330
1
100
AcDbSymbolTableRecord
100
AcDbBlockTableRecord
  2
SW_NOTE_0_3
340
0
102
{BLKREFS
331
394
102
}
  0
ENDTAB
  0
ENDSEC
  0
SECTION
  2
BLOCKS
  0
BLOCK
  5
20
330
1F
100
AcDbEntity
  8
0
100
AcDbBlockBegin
  2
*Model_Space
 70
     0
 10
0.0
 20
0.0
 30
0.0
  3
*Model_Space
  1

  0
ENDBLK
  5
21
330
1F
100
AcDbEntity
  8
0
100
AcDbBlockEnd
  0
BLOCK
  5
1C
330
1B
100
AcDbEntity
 67
     1
  8
0
100
AcDbBlockBegin
  2
*Paper_Space
 70
     0
 10
0.0
 20
0.0
 30
0.0
  3
*Paper_Space
  1

  0
ENDBLK
  5
1D
330
1B
100
AcDbEntity
 67
     1
  8
0
100
AcDbBlockEnd
  0
BLOCK
  5
24
330
23
100
AcDbEntity
  8
0
100
AcDbBlockBegin
  2
*Paper_Space0
 70
     0
 10
0.0
 20
0.0
 30
0.0
  3
*Paper_Space0
  1

  0
ENDBLK
  5
25
330
23
100
AcDbEntity
  8
0
100
AcDbBlockEnd
  0
BLOCK
  5
168
330
167
100
AcDbEntity
  8
0
100
AcDbBlockBegin
  2
SW_NOTE_0
 70
     0
 10
0.0
 20
0.0
 30
0.0
  3
SW_NOTE_0
  1

  0
MTEXT
  5
16A
330
167
100
AcDbEntity
  8
NOTES
 62
     0
100
AcDbMText
 10
0.0
 20
0.3759780908
 30
0.0
 40
0.2916666667
 41
0.0
 71
     1
 72
     1
  1
FROST PRODUCTS LTD.
  7
SLDTEXTSTYLE0
 73
     1
 44
1.0
  0
MTEXT
  5
16B
330
167
100
AcDbEntity
  8
NOTES
 62
     0
100
AcDbMText
 10
0.0
 20
-0.0495142709
 30
0.0
 40
0.2291666667
 41
0.0
 71
     1
 72
     1
  1
5280 JOHN LUCAS DRIVE, BURLINGTON, ON, L7L 5Z9
  7
SLDTEXTSTYLE0
 73
     1
 44
1.0
  0
ENDBLK
  5
169
330
167
100
AcDbEntity
  8
0
100
AcDbBlockEnd
  0
BLOCK
  5
16E
330
16D
100
AcDbEntity
  8
0
100
AcDbBlockBegin
  2
SW_NOTE_0_1
 70
     0
 10
0.0
 20
0.0
 30
0.0
  3
SW_NOTE_0_1
  1

  0
MTEXT
  5
171
330
16D
100
AcDbEntity
  8
NOTES
 62
     0
100
AcDbMText
 10
0.0
 20
0.2381282771
 30
0.0
 40
0.184729064
 41
0.0
 71
     1
 72
     1
  1
PROPRIETARY AND CONFIDENTIAL
  7
SLDTEXTSTYLE2
 73
     1
 44
1.0
  0
MTEXT
  5
173
330
16D
100
AcDbEntity
  8
NOTES
 62
     0
100
AcDbMText
 10
0.0
 20
-0.0504364796
 30
0.0
 40
0.25
 41
0.0
 71
     1
 72
     1
  1
THE INFORMATION CONTAINED IN THIS DRAWING IS THE SOLE PROPERTY OF 
  7
SLDTEXTSTYLE3
 73
     1
 44
1.0
  0
MTEXT
  5
174
330
16D
100
AcDbEntity
  8
NOTES
 62
     0
100
AcDbMText
 10
0.0
 20
-0.4231398941
 30
0.0
 40
0.25
 41
0.0
 71
     1
 72
     1
  1
FROST PRODUCTS LTD.  ANY REPRODUCTION IN PART OR AS A WHOLE WITHOUT 
  7
SLDTEXTSTYLE3
 73
     1
 44
1.0
  0
MTEXT
  5
175
330
16D
100
AcDbEntity
  8
NOTES
 62
     0
100
AcDbMText
 10
0.0
 20
-0.7958433086
 30
0.0
 40
0.25
 41
0.0
 71
     1
 72
     1
  1
THE WRITTEN PERMISSION OF FROST PRODUCTS LTD. IS PROHIBITED.
  7
SLDTEXTSTYLE3
 73
     1
 44
1.0
  0
ENDBLK
  5
16F
330
16D
100
AcDbEntity
  8
0
100
AcDbBlockEnd
  0
BLOCK
  5
281
330
280
100
AcDbEntity
  8
0
100
AcDbBlockBegin
  2
_Open90
 70
     0
 10
0.0
 20
0.0
 30
0.0
  3
_Open90
  1

  0
LINE
  5
283
330
280
100
AcDbEntity
  8
0
  6
ByBlock
 62
     0
370
    -2
100
AcDbLine
 10
-0.5
 20
0.5
 30
0.0
 11
0.0
 21
0.0
 31
0.0
  0
LINE
  5
284
330
280
100
AcDbEntity
  8
0
  6
ByBlock
 62
     0
370
    -2
100
AcDbLine
 10
0.0
 20
0.0
 30
0.0
 11
-0.5
 21
-0.5
 31
0.0
  0
LINE
  5
285
330
280
100
AcDbEntity
  8
0
  6
ByBlock
 62
     0
370
    -2
100
AcDbLine
 10
0.0
 20
0.0
 30
0.0
 11
-1.0
 21
0.0
 31
0.0
  0
ENDBLK
  5
282
330
280
100
AcDbEntity
  8
0
100
AcDbBlockEnd
  0
BLOCK
  5
287
330
286
100
AcDbEntity
  8
0
100
AcDbBlockBegin
  2
_D
 70
     0
 10
0.0
 20
0.0
 30
0.0
  3
_D
  1

  0
INSERT
  5
289
330
286
100
AcDbEntity
  8
DIMS
100
AcDbBlockReference
  2
_Open90
 10
59.0685338735
 20
25.2543845307
 30
0.0
 41
0.3
 42
0.3
 50
90.0
  0
INSERT
  5
28A
330
286
100
AcDbEntity
  8
DIMS
100
AcDbBlockReference
  2
_Open90
 10
59.0685338735
 20
13.2622897416
 30
0.0
 41
0.3
 42
0.3
 50
270.0
  0
LINE
  5
28B
330
286
100
AcDbEntity
  8
DIMS
100
AcDbLine
 10
54.7830119845
 20
25.2543845307
 30
0.0
 11
59.4435338735
 21
25.2543845307
 31
0.0
  0
LINE
  5
28C
330
286
100
AcDbEntity
  8
DIMS
100
AcDbLine
 10
59.0685338735
 20
25.2543845307
 30
0.0
 11
59.0685338735
 21
16.4061678085
 31
0.0
  0
MTEXT
  5
28D
330
286
100
AcDbEntity
  8
DIMS
100
AcDbMText
 10
58.595964446
 20
16.2510897146
 30
0.0
 40
0.5
 41
0.0
 71
     1
 72
     1
  1
24"
  7
SLDTEXTSTYLE1
 73
     1
 44
1.0
  0
MTEXT
  5
28E
330
286
100
AcDbEntity
  8
DIMS
100
AcDbMText
 10
58.9761727621
 20
11.4885895714
 30
0.0
 40
0.5
 41
0.0
 71
     1
 72
     1
  1
 
  7
SLDTEXTSTYLE1
 73
     1
 44
1.0
  0
ENDBLK
  5
288
330
286
100
AcDbEntity
  8
0
100
AcDbBlockEnd
  0
BLOCK
  5
291
330
290
100
AcDbEntity
  8
0
100
AcDbBlockBegin
  2
_D_1
 70
     0
 10
0.0
 20
0.0
 30
0.0
  3
_D_1
  1

  0
INSERT
  5
293
330
290
100
AcDbEntity
  8
DIMS
100
AcDbBlockReference
  2
_Open90
 10
14.9417734403
 20
21.8935765869
 30
0.0
 41
0.3
 42
0.3
 50
0.0
  0
INSERT
  5
294
330
290
100
AcDbEntity
  8
DIMS
100
AcDbBlockReference
  2
_Open90
 10
4.9417734403
 20
21.8935765869
 30
0.0
 41
0.3
 42
0.3
 50
180.0
  0
LINE
  5
295
330
290
100
AcDbEntity
  8
DIMS
100
AcDbLine
 10
14.9417734403
 20
25.0956230749
 30
0.0
 11
14.9417734403
 21
21.5185765869
 31
0.0
  0
LINE
  5
296
330
290
100
AcDbEntity
  8
DIMS
100
AcDbLine
 10
14.9417734403
 20
21.8935765869
 30
0.0
 11
10.2965904945
 21
21.8935765869
 31
0.0
  0
LINE
  5
297
330
290
100
AcDbEntity
  8
DIMS
100
AcDbLine
 10
4.9417734403
 20
21.8935765869
 30
0.0
 11
5.6570077714
 21
21.8935765869
 31
0.0
  0
MTEXT
  5
298
330
290
100
AcDbEntity
  8
DIMS
100
AcDbMText
 10
5.6570077714
 20
22.135373505
 30
0.0
 40
0.5
 41
0.0
 71
     1
 72
     1
  1
                    20"
  7
SLDTEXTSTYLE1
 73
     1
 44
1.0
  0
ENDBLK
  5
292
330
290
100
AcDbEntity
  8
0
100
AcDbBlockEnd
  0
BLOCK
  5
29B
330
29A
100
AcDbEntity
  8
0
100
AcDbBlockBegin
  2
_D_2
 70
     0
 10
0.0
 20
0.0
 30
0.0
  3
_D_2
  1

  0
INSERT
  5
29D
330
29A
100
AcDbEntity
  8
DIMS
100
AcDbBlockReference
  2
_Open90
 10
54.9496786511
 20
21.8935765869
 30
0.0
 41
0.3
 42
0.3
 50
0.0
  0
INSERT
  5
29E
330
29A
100
AcDbEntity
  8
DIMS
100
AcDbBlockReference
  2
_Open90
 10
14.9417734403
 20
21.8935765869
 30
0.0
 41
0.3
 42
0.3
 50
180.0
  0
LINE
  5
29F
330
29A
100
AcDbEntity
  8
DIMS
100
AcDbLine
 10
54.9496786511
 20
25.087717864
 30
0.0
 11
54.9496786511
 21
21.5185765869
 31
0.0
  0
LINE
  5
2A0
330
29A
100
AcDbEntity
  8
DIMS
100
AcDbLine
 10
14.9417734403
 20
25.0956230749
 30
0.0
 11
14.9417734403
 21
21.5185765869
 31
0.0
  0
LINE
  5
2A1
330
29A
100
AcDbEntity
  8
DIMS
100
AcDbLine
 10
54.9496786511
 20
21.8935765869
 30
0.0
 11
33.8940265977
 21
21.8935765869
 31
0.0
  0
LINE
  5
2A2
330
29A
100
AcDbEntity
  8
DIMS
100
AcDbLine
 10
14.9417734403
 20
21.8935765869
 30
0.0
 11
32.9488877427
 21
21.8935765869
 31
0.0
  0
MTEXT
  5
2A3
330
29A
100
AcDbEntity
  8
DIMS
100
AcDbMText
 10
32.9488877427
 20
22.135373505
 30
0.0
 40
0.5
 41
0.0
 71
     1
 72
     1
  1
40"
  7
SLDTEXTSTYLE1
 73
     1
 44
1.0
  0
ENDBLK
  5
29C
330
29A
100
AcDbEntity
  8
0
100
AcDbBlockEnd
  0
BLOCK
  5
2A6
330
2A5
100
AcDbEntity
  8
0
100
AcDbBlockBegin
  2
_D_3
 70
     0
 10
0.0
 20
0.0
 30
0.0
  3
_D_3
  1

  0
INSERT
  5
2A8
330
2A5
100
AcDbEntity
  8
DIMS
100
AcDbBlockReference
  2
_Open90
 10
18.9417734403
 20
22.9195130413
 30
0.0
 41
0.3
 42
0.3
 50
0.0
  0
INSERT
  5
2A9
330
2A5
100
AcDbEntity
  8
DIMS
100
AcDbBlockReference
  2
_Open90
 10
14.9417734403
 20
22.9195130413
 30
0.0
 41
0.3
 42
0.3
 50
180.0
  0
LINE
  5
2AA
330
2A5
100
AcDbEntity
  8
DIMS
100
AcDbLine
 10
18.9417734403
 20
24.4631230749
 30
0.0
 11
18.9417734403
 21
22.5445130413
 31
0.0
  0
LINE
  5
2AB
330
2A5
100
AcDbEntity
  8
DIMS
100
AcDbLine
 10
14.9417734403
 20
25.0956230749
 30
0.0
 11
14.9417734403
 21
22.5445130413
 31
0.0
  0
LINE
  5
2AC
330
2A5
100
AcDbEntity
  8
DIMS
100
AcDbLine
 10
18.9417734403
 20
22.9195130413
 30
0.0
 11
17.4957903197
 21
22.9195130413
 31
0.0
  0
LINE
  5
2AD
330
2A5
100
AcDbEntity
  8
DIMS
100
AcDbLine
 10
14.9417734403
 20
22.9195130413
 30
0.0
 11
16.9200958735
 21
22.9195130413
 31
0.0
  0
MTEXT
  5
2AE
330
2A5
100
AcDbEntity
  8
DIMS
100
AcDbMText
 10
16.9200958735
 20
23.1613099594
 30
0.0
 40
0.5
 41
0.0
 71
     1
 72
     1
  1
4"
  7
SLDTEXTSTYLE1
 73
     1
 44
1.0
  0
ENDBLK
  5
2A7
330
2A5
100
AcDbEntity
  8
0
100
AcDbBlockEnd
  0
BLOCK
  5
2B1
330
2B0
100
AcDbEntity
  8
0
100
AcDbBlockBegin
  2
_D_4
 70
     0
 10
0.0
 20
0.0
 30
0.0
  3
_D_4
  1

  0
INSERT
  5
2B3
330
2B0
100
AcDbEntity
  8
DIMS
100
AcDbBlockReference
  2
_Open90
 10
18.9417734403
 20
22.9195130413
 30
0.0
 41
0.3
 42
0.3
 50
180.0
  0
INSERT
  5
2B4
330
2B0
100
AcDbEntity
  8
DIMS
100
AcDbBlockReference
  2
_Open90
 10
46.9417734403
 20
22.9195130413
 30
0.0
 41
0.3
 42
0.3
 50
0.0
  0
LINE
  5
2B5
330
2B0
100
AcDbEntity
  8
DIMS
100
AcDbLine
 10
18.9417734403
 20
24.4631230749
 30
0.0
 11
18.9417734403
 21
22.5445130413
 31
0.0
  0
LINE
  5
2B6
330
2B0
100
AcDbEntity
  8
DIMS
100
AcDbLine
 10
46.9417734403
 20
24.4631230749
 30
0.0
 11
46.9417734403
 21
22.5445130413
 31
0.0
  0
LINE
  5
2B7
330
2B0
100
AcDbEntity
  8
DIMS
100
AcDbLine
 10
18.9417734403
 20
22.9195130413
 30
0.0
 11
35.2194547488
 21
22.9195130413
 31
0.0
  0
LINE
  5
2B8
330
2B0
100
AcDbEntity
  8
DIMS
100
AcDbLine
 10
46.9417734403
 20
22.9195130413
 30
0.0
 11
36.1645936038
 21
22.9195130413
 31
0.0
  0
MTEXT
  5
2B9
330
2B0
100
AcDbEntity
  8
DIMS
100
AcDbMText
 10
35.2194547488
 20
23.1613099594
 30
0.0
 40
0.5
 41
0.0
 71
     1
 72
     1
  1
28"
  7
SLDTEXTSTYLE1
 73
     1
 44
1.0
  0
ENDBLK
  5
2B2
330
2B0
100
AcDbEntity
  8
0
100
AcDbBlockEnd
  0
BLOCK
  5
2BC
330
2BB
100
AcDbEntity
  8
0
100
AcDbBlockBegin
  2
_D_5
 70
     0
 10
0.0
 20
0.0
 30
0.0
  3
_D_5
  1

  0
INSERT
  5
2BE
330
2BB
100
AcDbEntity
  8
DIMS
100
AcDbBlockReference
  2
_Open90
 10
57.5632305925
 20
51.2622897416
 30
0.0
 41
0.3
 42
0.3
 50
90.0
  0
INSERT
  5
2BF
330
2BB
100
AcDbEntity
  8
DIMS
100
AcDbBlockReference
  2
_Open90
 10
57.5632305925
 20
29.2622897416
 30
0.0
 41
0.3
 42
0.3
 50
270.0
  0
LINE
  5
2C0
330
2BB
100
AcDbEntity
  8
DIMS
100
AcDbLine
 10
55.7109401069
 20
51.2622897416
 30
0.0
 11
57.9382305925
 21
51.2622897416
 31
0.0
  0
LINE
  5
2C1
330
2BB
100
AcDbEntity
  8
DIMS
100
AcDbLine
 10
55.7109401069
 20
29.2622897416
 30
0.0
 11
57.9382305925
 21
29.2622897416
 31
0.0
  0
LINE
  5
2C2
330
2BB
100
AcDbEntity
  8
DIMS
100
AcDbLine
 10
57.5632305925
 20
51.2622897416
 30
0.0
 11
57.5632305925
 21
41.5311383874
 31
0.0
  0
LINE
  5
2C3
330
2BB
100
AcDbEntity
  8
DIMS
100
AcDbLine
 10
57.5632305925
 20
29.2622897416
 30
0.0
 11
57.5632305925
 21
40.7373883635
 31
0.0
  0
MTEXT
  5
2C4
330
2BB
100
AcDbEntity
  8
DIMS
100
AcDbMText
 10
57.090661165
 20
41.3760602935
 30
0.0
 40
0.5
 41
0.0
 71
     1
 72
     1
  1
22"
  7
SLDTEXTSTYLE1
 73
     1
 44
1.0
  0
ENDBLK
  5
2BD
330
2BB
100
AcDbEntity
  8
0
100
AcDbBlockEnd
  0
BLOCK
  5
2C8
330
2C7
100
AcDbEntity
  8
0
100
AcDbBlockBegin
  2
_D_6
 70
     0
 10
0.0
 20
0.0
 30
0.0
  3
_D_6
  1

  0
INSERT
  5
2CA
330
2C7
100
AcDbEntity
  8
DIMS
100
AcDbBlockReference
  2
_Open90
 10
16.0199446206
 20
26.3478526858
 30
-1.5
 41
0.3
 42
0.3
 50
225.1957334868
  0
LINE
  5
2CB
330
2C7
100
AcDbEntity
  8
DIMS
100
AcDbLine
 10
19.3008737028
 20
28.1955275314
 30
0.0
 11
20.1862903977
 21
28.1955275314
 31
0.0
  0
LINE
  5
2CC
330
2C7
100
AcDbEntity
  8
DIMS
100
AcDbLine
 10
16.0199446206
 20
26.3478526858
 30
0.0
 11
17.804102873
 21
28.144242833
 31
0.0
  0
LINE
  5
2CD
330
2C7
100
AcDbEntity
  8
DIMS
100
AcDbLine
 10
17.804102873
 20
28.144242833
 30
0.0
 11
18.104102873
 21
28.144242833
 31
0.0
  0
MTEXT
  5
2CE
330
2C7
100
AcDbEntity
  8
DIMS
100
AcDbMText
 10
18.104102873
 20
28.4172897025
 30
0.0
 40
0.5
 41
0.0
 71
     1
 72
     1
  1
%%c
  7
SLDTEXTSTYLE1
 73
     1
 44
1.0
  0
MTEXT
  5
2CF
330
2C7
100
AcDbEntity
  8
DIMS
100
AcDbMText
 10
18.8581653553
 20
28.4249285918
 30
0.0
 40
0.5
 41
0.0
 71
     1
 72
     1
  1
3
  7
SLDTEXTSTYLE1
 73
     1
 44
1.0
  0
MTEXT
  5
2D0
330
2C7
100
AcDbEntity
  8
DIMS
100
AcDbMText
 10
19.5588598275
 20
28.7902410908
 30
0.0
 40
0.5
 41
0.0
 71
     1
 72
     1
  1
1
  7
SLDTEXTSTYLE1
 73
     1
 44
1.0
  0
MTEXT
  5
2D1
330
2C7
100
AcDbEntity
  8
DIMS
100
AcDbMText
 10
19.3741376048
 20
28.1290605123
 30
0.0
 40
0.5
 41
0.0
 71
     1
 72
     1
  1
16
  7
SLDTEXTSTYLE1
 73
     1
 44
1.0
  0
MTEXT
  5
2D2
330
2C7
100
AcDbEntity
  8
DIMS
100
AcDbMText
 10
20.259554373
 20
28.4249285918
 30
0.0
 40
0.5
 41
0.0
 71
     1
 72
     1
  1
"
  7
SLDTEXTSTYLE1
 73
     1
 44
1.0
  0
ENDBLK
  5
2C9
330
2C7
100
AcDbEntity
  8
0
100
AcDbBlockEnd
  0
BLOCK
  5
2D6
330
2D5
100
AcDbEntity
  8
0
100
AcDbBlockBegin
  2
_D_7
 70
     0
 10
0.0
 20
0.0
 30
0.0
  3
_D_7
  1

  0
INSERT
  5
2D8
330
2D5
100
AcDbEntity
  8
DIMS
100
AcDbBlockReference
  2
_Open90
 10
49.0042734403
 20
30.9478569383
 30
-1.5
 41
0.3
 42
0.3
 50
0.0
  0
INSERT
  5
2D9
330
2D5
100
AcDbEntity
  8
DIMS
100
AcDbBlockReference
  2
_Open90
 10
14.9417734403
 20
30.9478569383
 30
-1.5
 41
0.3
 42
0.3
 50
180.0
  0
LINE
  5
2DA
330
2D5
100
AcDbEntity
  8
DIMS
100
AcDbLine
 10
31.2487888221
 20
30.9991416367
 30
0.0
 11
32.134205517
 21
30.9991416367
 31
0.0
  0
LINE
  5
2DB
330
2D5
100
AcDbEntity
  8
DIMS
100
AcDbLine
 10
49.0042734403
 20
25.4289564082
 30
0.0
 11
49.0042734403
 21
31.3228569383
 31
0.0
  0
LINE
  5
2DC
330
2D5
100
AcDbEntity
  8
DIMS
100
AcDbLine
 10
14.9417734403
 20
25.4289564082
 30
0.0
 11
14.9417734403
 21
31.3228569383
 31
0.0
  0
LINE
  5
2DD
330
2D5
100
AcDbEntity
  8
DIMS
100
AcDbLine
 10
49.0042734403
 20
30.9478569383
 30
0.0
 11
32.4137194563
 21
30.9478569383
 31
0.0
  0
LINE
  5
2DE
330
2D5
100
AcDbEntity
  8
DIMS
100
AcDbLine
 10
14.9417734403
 20
30.9478569383
 30
0.0
 11
30.4366360291
 21
30.9478569383
 31
0.0
  0
MTEXT
  5
2DF
330
2D5
100
AcDbEntity
  8
DIMS
100
AcDbMText
 10
30.4366360291
 20
31.2285426971
 30
0.0
 40
0.5
 41
0.0
 71
     1
 72
     1
  1
34
  7
SLDTEXTSTYLE1
 73
     1
 44
1.0
  0
MTEXT
  5
2E0
330
2D5
100
AcDbEntity
  8
DIMS
100
AcDbMText
 10
31.5067749468
 20
31.5938551962
 30
0.0
 40
0.5
 41
0.0
 71
     1
 72
     1
  1
1
  7
SLDTEXTSTYLE1
 73
     1
 44
1.0
  0
MTEXT
  5
2E1
330
2D5
100
AcDbEntity
  8
DIMS
100
AcDbMText
 10
31.322052724
 20
30.9326746176
 30
0.0
 40
0.5
 41
0.0
 71
     1
 72
     1
  1
16
  7
SLDTEXTSTYLE1
 73
     1
 44
1.0
  0
MTEXT
  5
2E2
330
2D5
100
AcDbEntity
  8
DIMS
100
AcDbMText
 10
32.2074694923
 20
31.2285426971
 30
0.0
 40
0.5
 41
0.0
 71
     1
 72
     1
  1
"
  7
SLDTEXTSTYLE1
 73
     1
 44
1.0
  0
ENDBLK
  5
2D7
330
2D5
100
AcDbEntity
  8
0
100
AcDbBlockEnd
  0
BLOCK
  5
2E5
330
2E4
100
AcDbEntity
  8
0
100
AcDbBlockBegin
  2
_D_8
 70
     0
 10
0.0
 20
0.0
 30
0.0
  3
_D_8
  1

  0
INSERT
  5
2E7
330
2E4
100
AcDbEntity
  8
DIMS
100
AcDbBlockReference
  2
_Open90
 10
59.0685338735
 20
25.2622897416
 30
-1.5
 41
0.3
 42
0.3
 50
270.0
  0
INSERT
  5
2E8
330
2E4
100
AcDbEntity
  8
DIMS
100
AcDbBlockReference
  2
_Open90
 10
59.0685338735
 20
55.2622897416
 30
-1.5
 41
0.3
 42
0.3
 50
90.0
  0
LINE
  5
2E9
330
2E4
100
AcDbEntity
  8
DIMS
100
AcDbLine
 10
49.1709401069
 20
25.2622897416
 30
0.0
 11
59.4435338735
 21
25.2622897416
 31
0.0
  0
LINE
  5
2EA
330
2E4
100
AcDbEntity
  8
DIMS
100
AcDbLine
 10
55.1084401069
 20
55.2622897416
 30
0.0
 11
59.4435338735
 21
55.2622897416
 31
0.0
  0
LINE
  5
2EB
330
2E4
100
AcDbEntity
  8
DIMS
100
AcDbLine
 10
59.0685338735
 20
25.2622897416
 30
0.0
 11
59.0685338735
 21
38.1047420883
 31
0.0
  0
LINE
  5
2EC
330
2E4
100
AcDbEntity
  8
DIMS
100
AcDbLine
 10
59.0685338735
 20
55.2622897416
 30
0.0
 11
59.0685338735
 21
38.8984921122
 31
0.0
  0
MTEXT
  5
2ED
330
2E4
100
AcDbEntity
  8
DIMS
100
AcDbMText
 10
58.595964446
 20
38.7434140183
 30
0.0
 40
0.5
 41
0.0
 71
     1
 72
     1
  1
30"
  7
SLDTEXTSTYLE1
 73
     1
 44
1.0
  0
ENDBLK
  5
2E6
330
2E4
100
AcDbEntity
  8
0
100
AcDbBlockEnd
  0
BLOCK
  5
2F0
330
2EF
100
AcDbEntity
  8
0
100
AcDbBlockBegin
  2
SW_NOTE_0_2
 70
     0
 10
0.0
 20
0.0
 30
0.0
  3
SW_NOTE_0_2
  1

  0
MTEXT
  5
2F2
330
2EF
100
AcDbEntity
  8
NOTES
 62
     0
100
AcDbMText
 10
0.0244606221
 20
0.2426386091
 30
0.0
 40
0.5
 41
0.0
 71
     1
 72
     1
  1
remove flange cover to 
  7
SLDTEXTSTYLE1
 73
     1
 44
1.0
  0
MTEXT
  5
2F3
330
2EF
100
AcDbEntity
  8
NOTES
 62
     0
100
AcDbMText
 10
0.0244606221
 20
-0.4038891888
 30
0.0
 40
0.5
 41
0.0
 71
     1
 72
     1
  1
access mounting holes
  7
SLDTEXTSTYLE1
 73
     1
 44
1.0
  0
ENDBLK
  5
2F1
330
2EF
100
AcDbEntity
  8
0
100
AcDbBlockEnd
  0
BLOCK
  5
2FD
330
2FC
100
AcDbEntity
  8
0
100
AcDbBlockBegin
  2
_Origin
 70
     0
 10
0.0
 20
0.0
 30
0.0
  3
_Origin
  1

  0
CIRCLE
  5
2FF
330
2FC
100
AcDbEntity
  8
0
  6
ByBlock
 62
     0
370
    -2
100
AcDbCircle
 10
0.0
 20
0.0
 30
0.0
 40
0.5
  0
LINE
  5
300
330
2FC
100
AcDbEntity
  8
0
  6
ByBlock
 62
     0
370
    -2
100
AcDbLine
 10
0.0
 20
0.0
 30
0.0
 11
-1.0
 21
0.0
 31
0.0
  0
ENDBLK
  5
2FE
330
2FC
100
AcDbEntity
  8
0
100
AcDbBlockEnd
  0
BLOCK
  5
328
330
327
100
AcDbEntity
  8
0
100
AcDbBlockBegin
  2
_D_9
 70
     0
 10
0.0
 20
0.0
 30
0.0
  3
_D_9
  1

  0
INSERT
  5
32A
330
327
100
AcDbEntity
  8
DIMS
100
AcDbBlockReference
  2
_Open90
 10
78.3334470546
 20
29.2060057449
 30
9.75
 41
0.3
 42
0.3
 50
180.0
  0
INSERT
  5
32B
330
327
100
AcDbEntity
  8
DIMS
100
AcDbBlockReference
  2
_Open90
 10
79.8889470546
 20
29.2060057449
 30
9.75
 41
0.3
 42
0.3
 50
0.0
  0
LINE
  5
32C
330
327
100
AcDbEntity
  8
DIMS
100
AcDbLine
 10
80.8664186251
 20
29.2572904433
 30
0.0
 11
81.75183532
 21
29.2572904433
 31
0.0
  0
LINE
  5
32D
330
327
100
AcDbEntity
  8
DIMS
100
AcDbLine
 10
78.3334470546
 20
26.9289564082
 30
0.0
 11
78.3334470546
 21
29.5810057449
 31
0.0
  0
LINE
  5
32E
330
327
100
AcDbEntity
  8
DIMS
100
AcDbLine
 10
79.8889470546
 20
26.9589564082
 30
0.0
 11
79.8889470546
 21
29.5810057449
 31
0.0
  0
LINE
  5
32F
330
327
100
AcDbEntity
  8
DIMS
100
AcDbLine
 10
78.3334470546
 20
29.2060057449
 30
0.0
 11
79.8889470546
 21
29.2060057449
 31
0.0
  0
LINE
  5
330
330
327
100
AcDbEntity
  8
DIMS
100
AcDbLine
 10
79.8889470546
 20
29.2060057449
 30
0.0
 11
80.4237102776
 21
29.2060057449
 31
0.0
  0
MTEXT
  5
331
330
327
100
AcDbEntity
  8
DIMS
100
AcDbMText
 10
80.4237102776
 20
29.4866915037
 30
0.0
 40
0.5
 41
0.0
 71
     1
 72
     1
  1
1
  7
SLDTEXTSTYLE1
 73
     1
 44
1.0
  0
MTEXT
  5
332
330
327
100
AcDbEntity
  8
DIMS
100
AcDbMText
 10
81.1244047498
 20
29.8520040027
 30
0.0
 40
0.5
 41
0.0
 71
     1
 72
     1
  1
9
  7
SLDTEXTSTYLE1
 73
     1
 44
1.0
  0
MTEXT
  5
333
330
327
100
AcDbEntity
  8
DIMS
100
AcDbMText
 10
80.939682527
 20
29.1908234242
 30
0.0
 40
0.5
 41
0.0
 71
     1
 72
     1
  1
16
  7
SLDTEXTSTYLE1
 73
     1
 44
1.0
  0
MTEXT
  5
334
330
327
100
AcDbEntity
  8
DIMS
100
AcDbMText
 10
81.825099222
 20
29.4866915037
 30
0.0
 40
0.5
 41
0.0
 71
     1
 72
     1
  1
"
  7
SLDTEXTSTYLE1
 73
     1
 44
1.0
  0
ENDBLK
  5
329
330
327
100
AcDbEntity
  8
0
100
AcDbBlockEnd
  0
BLOCK
  5
337
330
336
100
AcDbEntity
  8
0
100
AcDbBlockBegin
  2
_D_10
 70
     0
 10
0.0
 20
0.0
 30
0.0
  3
_D_10
  1

  0
INSERT
  5
339
330
336
100
AcDbEntity
  8
DIMS
100
AcDbBlockReference
  2
_Open90
 10
77.0684470546
 20
29.2060057449
 30
9.75
 41
0.3
 42
0.3
 50
180.0
  0
INSERT
  5
33A
330
336
100
AcDbEntity
  8
DIMS
100
AcDbBlockReference
  2
_Open90
 10
78.3334470546
 20
29.2060057449
 30
9.75
 41
0.3
 42
0.3
 50
0.0
  0
LINE
  5
33B
330
336
100
AcDbEntity
  8
DIMS
100
AcDbLine
 10
75.7896959292
 20
29.2572904433
 30
0.0
 11
76.3056681787
 21
29.2572904433
 31
0.0
  0
LINE
  5
33C
330
336
100
AcDbEntity
  8
DIMS
100
AcDbLine
 10
77.0684470546
 20
26.9289564082
 30
0.0
 11
77.0684470546
 21
29.5810057449
 31
0.0
  0
LINE
  5
33D
330
336
100
AcDbEntity
  8
DIMS
100
AcDbLine
 10
78.3334470546
 20
26.9289564082
 30
0.0
 11
78.3334470546
 21
29.5810057449
 31
0.0
  0
LINE
  5
33E
330
336
100
AcDbEntity
  8
DIMS
100
AcDbLine
 10
77.0684470546
 20
29.2060057449
 30
0.0
 11
76.5851821181
 21
29.2060057449
 31
0.0
  0
LINE
  5
33F
330
336
100
AcDbEntity
  8
DIMS
100
AcDbLine
 10
78.3334470546
 20
29.2060057449
 30
0.0
 11
77.0684470546
 21
29.2060057449
 31
0.0
  0
MTEXT
  5
340
330
336
100
AcDbEntity
  8
DIMS
100
AcDbMText
 10
75.3469875818
 20
29.4866915037
 30
0.0
 40
0.5
 41
0.0
 71
     1
 72
     1
  1
1
  7
SLDTEXTSTYLE1
 73
     1
 44
1.0
  0
MTEXT
  5
341
330
336
100
AcDbEntity
  8
DIMS
100
AcDbMText
 10
75.8629598312
 20
29.8520040027
 30
0.0
 40
0.5
 41
0.0
 71
     1
 72
     1
  1
1
  7
SLDTEXTSTYLE1
 73
     1
 44
1.0
  0
MTEXT
  5
342
330
336
100
AcDbEntity
  8
DIMS
100
AcDbMText
 10
75.8629598312
 20
29.1908234242
 30
0.0
 40
0.5
 41
0.0
 71
     1
 72
     1
  1
4
  7
SLDTEXTSTYLE1
 73
     1
 44
1.0
  0
MTEXT
  5
343
330
336
100
AcDbEntity
  8
DIMS
100
AcDbMText
 10
76.3789320807
 20
29.4866915037
 30
0.0
 40
0.5
 41
0.0
 71
     1
 72
     1
  1
"
  7
SLDTEXTSTYLE1
 73
     1
 44
1.0
  0
ENDBLK
  5
338
330
336
100
AcDbEntity
  8
0
100
AcDbBlockEnd
  0
BLOCK
  5
346
330
345
100
AcDbEntity
  8
0
100
AcDbBlockBegin
  2
_D_11
 70
     0
 10
0.0
 20
0.0
 30
0.0
  3
_D_11
  1

  0
INSERT
  5
348
330
345
100
AcDbEntity
  8
DIMS
100
AcDbBlockReference
  2
_Open90
 10
77.0684470546
 20
22.8661480093
 30
9.75
 41
0.3
 42
0.3
 50
180.0
  0
INSERT
  5
349
330
345
100
AcDbEntity
  8
DIMS
100
AcDbBlockReference
  2
_Open90
 10
79.8889470546
 20
22.8661480093
 30
9.75
 41
0.3
 42
0.3
 50
0.0
  0
LINE
  5
34A
330
345
100
AcDbEntity
  8
DIMS
100
AcDbLine
 10
78.1175859479
 20
22.9174327077
 30
0.0
 11
79.0030026428
 21
22.9174327077
 31
0.0
  0
LINE
  5
34B
330
345
100
AcDbEntity
  8
DIMS
100
AcDbLine
 10
77.0684470546
 20
25.0956230749
 30
0.0
 11
77.0684470546
 21
22.4911480093
 31
0.0
  0
LINE
  5
34C
330
345
100
AcDbEntity
  8
DIMS
100
AcDbLine
 10
79.8889470546
 20
23.5656230749
 30
0.0
 11
79.8889470546
 21
22.4911480093
 31
0.0
  0
LINE
  5
34D
330
345
100
AcDbEntity
  8
DIMS
100
AcDbLine
 10
77.0684470546
 20
22.8661480093
 30
0.0
 11
77.6748776004
 21
22.8661480093
 31
0.0
  0
LINE
  5
34E
330
345
100
AcDbEntity
  8
DIMS
100
AcDbLine
 10
79.8889470546
 20
22.8661480093
 30
0.0
 11
79.2825165089
 21
22.8661480093
 31
0.0
  0
MTEXT
  5
34F
330
345
100
AcDbEntity
  8
DIMS
100
AcDbMText
 10
77.6748776004
 20
23.1468337681
 30
0.0
 40
0.5
 41
0.0
 71
     1
 72
     1
  1
2
  7
SLDTEXTSTYLE1
 73
     1
 44
1.0
  0
MTEXT
  5
350
330
345
100
AcDbEntity
  8
DIMS
100
AcDbMText
 10
78.1908498499
 20
23.5121462671
 30
0.0
 40
0.5
 41
0.0
 71
     1
 72
     1
  1
13
  7
SLDTEXTSTYLE1
 73
     1
 44
1.0
  0
MTEXT
  5
351
330
345
100
AcDbEntity
  8
DIMS
100
AcDbMText
 10
78.1908498499
 20
22.8509656886
 30
0.0
 40
0.5
 41
0.0
 71
     1
 72
     1
  1
16
  7
SLDTEXTSTYLE1
 73
     1
 44
1.0
  0
MTEXT
  5
352
330
345
100
AcDbEntity
  8
DIMS
100
AcDbMText
 10
79.0762665448
 20
23.1468337681
 30
0.0
 40
0.5
 41
0.0
 71
     1
 72
     1
  1
"
  7
SLDTEXTSTYLE1
 73
     1
 44
1.0
  0
ENDBLK
  5
347
330
345
100
AcDbEntity
  8
0
100
AcDbBlockEnd
  0
BLOCK
  5
390
330
38F
100
AcDbEntity
  8
0
100
AcDbBlockBegin
  2
SW_NOTE_0_3
 70
     0
 10
0.0
 20
0.0
 30
0.0
  3
SW_NOTE_0_3
  1

  0
MTEXT
  5
392
330
38F
100
AcDbEntity
  8
NOTES
 62
     0
100
AcDbMText
 10
0.0
 20
0.638671875
 30
0.0
 40
0.5
 41
0.0
 71
     1
 72
     1
  1
3D view
  7
SLDTEXTSTYLE1
 73
     1
 44
1.0
  0
MTEXT
  5
393
330
38F
100
AcDbEntity
  8
NOTES
 62
     0
100
AcDbMText
 10
0.0
 20
-0.3613281771
 30
0.0
 40
0.5
 41
0.0
 71
     1
 72
     1
  1
1003-SP 40x30L
  7
SLDTEXTSTYLE1
 73
     1
 44
1.0
  0
ENDBLK
  5
391
330
38F
100
AcDbEntity
  8
0
100
AcDbBlockEnd
  0
ENDSEC
  0
SECTION
  2
ENTITIES
  0
LINE
  5
7A
330
1F
100
AcDbEntity
  8
TITLE
370
    35
100
AcDbLine
 10
72.5182230965
 20
1.4876117645
 30
0.0
 11
89.4999864512
 21
1.4876117645
 31
0.0
  0
LINE
  5
7B
330
1F
100
AcDbEntity
  8
TITLE
370
    35
100
AcDbLine
 10
89.4999317442
 20
5.4753603936
 30
0.0
 11
79.3105350723
 21
5.4753603936
 31
0.0
  0
LINE
  5
7C
330
1F
100
AcDbEntity
  8
TITLE
  6
SLD-Solid
370
    18
100
AcDbLine
 10
0.5
 20
0.5
 30
0.0
 11
0.5
 21
119.5
 31
0.0
  0
LINE
  5
7D
330
1F
100
AcDbEntity
  8
TITLE
  6
SLD-Solid
370
    18
100
AcDbLine
 10
0.5
 20
119.5
 30
0.0
 11
89.5
 21
119.5
 31
0.0
  0
LINE
  5
7E
330
1F
100
AcDbEntity
  8
TITLE
370
    35
100
AcDbLine
 10
72.5182230965
 20
2.5427877231
 30
0.0
 11
65.5059791203
 21
2.5427877231
 31
0.0
  0
LINE
  5
7F
330
1F
100
AcDbEntity
  8
TITLE
370
    35
100
AcDbLine
 10
72.5182230965
 20
1.4876117645
 30
0.0
 11
65.5059791203
 21
1.4876117645
 31
0.0
  0
LINE
  5
80
330
1F
100
AcDbEntity
  8
TITLE
  6
SLD-Solid
370
    18
100
AcDbLine
 10
89.5
 20
119.5
 30
0.0
 11
89.5
 21
0.5
 31
0.0
  0
LINE
  5
81
330
1F
100
AcDbEntity
  8
TITLE
  6
SLD-Solid
370
    18
100
AcDbLine
 10
89.5
 20
0.5
 30
0.0
 11
0.5
 21
0.5
 31
0.0
  0
LINE
  5
82
330
1F
100
AcDbEntity
  8
TITLE
370
    35
100
AcDbLine
 10
72.5182230965
 20
1.4876117645
 30
0.0
 11
72.5182230965
 21
3.5979636817
 31
0.0
  0
LINE
  5
83
330
1F
100
AcDbEntity
  8
TITLE
370
    35
100
AcDbLine
 10
65.5059791203
 20
3.5979636817
 30
0.0
 11
65.5059791203
 21
0.5
 31
0.0
  0
LINE
  5
84
330
1F
100
AcDbEntity
  8
TITLE
370
    35
100
AcDbLine
 10
65.5059791203
 20
0.5
 30
0.0
 11
89.5
 21
0.5
 31
0.0
  0
LINE
  5
85
330
1F
100
AcDbEntity
  8
TITLE
370
    35
100
AcDbLine
 10
89.4999317442
 20
5.4753603936
 30
0.0
 11
89.5
 21
0.5
 31
0.0
  0
LINE
  5
86
330
1F
100
AcDbEntity
  8
TITLE
  6
SLD-Solid
370
    18
100
AcDbLine
 10
0.4999606299
 20
60.0
 30
0.0
 11
0.5000393701
 21
60.0
 31
0.0
  0
LINE
  5
87
330
1F
100
AcDbEntity
  8
TITLE
370
    35
100
AcDbLine
 10
72.5182230965
 20
3.5979636817
 30
0.0
 11
65.5059791203
 21
3.5979636817
 31
0.0
  0
LINE
  5
88
330
1F
100
AcDbEntity
  8
TITLE
370
    35
100
AcDbLine
 10
72.5182230965
 20
3.5979636817
 30
0.0
 11
89.4997615643
 21
3.5979648343
 31
0.0
  0
LINE
  5
89
330
1F
100
AcDbEntity
  8
TITLE
370
    35
100
AcDbLine
 10
79.3105350723
 20
5.4753603936
 30
0.0
 11
79.3105350723
 21
0.4636772425
 31
0.0
  0
LINE
  5
8A
330
1F
100
AcDbEntity
  8
TITLE
  6
SLD-Solid
370
    18
100
AcDbLine
 10
45.0
 20
119.5000393701
 30
0.0
 11
45.0
 21
119.4999606299
 31
0.0
  0
LINE
  5
8B
330
1F
100
AcDbEntity
  8
TITLE
  6
SLD-Solid
370
    18
100
AcDbLine
 10
89.5000393701
 20
60.0
 30
0.0
 11
89.4999606299
 21
60.0
 31
0.0
  0
LINE
  5
8C
330
1F
100
AcDbEntity
  8
TITLE
  6
SLD-Solid
370
    18
100
AcDbLine
 10
45.0
 20
0.4999606299
 30
0.0
 11
45.0
 21
0.5000393701
 31
0.0
  0
LINE
  5
8D
330
1F
100
AcDbEntity
  8
TITLE
  6
SLD-Solid
370
    18
100
AcDbLine
 10
0.5
 20
2.9133858268
 30
0.0
 11
0.1653543307
 21
2.9133858268
 31
0.0
  0
LINE
  5
8E
330
1F
100
AcDbEntity
  8
TITLE
  6
SLD-Solid
370
    18
100
AcDbLine
 10
89.5
 20
2.9133858268
 30
0.0
 11
89.8346456693
 21
2.9133858268
 31
0.0
  0
LINE
  5
8F
330
1F
100
AcDbEntity
  8
TITLE
  6
SLD-Solid
370
    18
100
AcDbLine
 10
0.5
 20
4.8818897638
 30
0.0
 11
0.1653543307
 21
4.8818897638
 31
0.0
  0
LINE
  5
90
330
1F
100
AcDbEntity
  8
TITLE
  6
SLD-Solid
370
    18
100
AcDbLine
 10
89.5
 20
4.8818897638
 30
0.0
 11
89.8346456693
 21
4.8818897638
 31
0.0
  0
LINE
  5
91
330
1F
100
AcDbEntity
  8
TITLE
  6
SLD-Solid
370
    18
100
AcDbLine
 10
0.5
 20
6.8503937008
 30
0.0
 11
0.1653543307
 21
6.8503937008
 31
0.0
  0
LINE
  5
92
330
1F
100
AcDbEntity
  8
TITLE
  6
SLD-Solid
370
    18
100
AcDbLine
 10
89.5
 20
6.8503937008
 30
0.0
 11
89.8346456693
 21
6.8503937008
 31
0.0
  0
LINE
  5
93
330
1F
100
AcDbEntity
  8
TITLE
  6
SLD-Solid
370
    18
100
AcDbLine
 10
0.5
 20
8.8188976378
 30
0.0
 11
0.1653543307
 21
8.8188976378
 31
0.0
  0
LINE
  5
94
330
1F
100
AcDbEntity
  8
TITLE
  6
SLD-Solid
370
    18
100
AcDbLine
 10
89.5
 20
8.8188976378
 30
0.0
 11
89.8346456693
 21
8.8188976378
 31
0.0
  0
LINE
  5
95
330
1F
100
AcDbEntity
  8
TITLE
  6
SLD-Solid
370
    18
100
AcDbLine
 10
0.5
 20
10.7874015748
 30
0.0
 11
0.1653543307
 21
10.7874015748
 31
0.0
  0
LINE
  5
96
330
1F
100
AcDbEntity
  8
TITLE
  6
SLD-Solid
370
    18
100
AcDbLine
 10
89.5
 20
10.7874015748
 30
0.0
 11
89.8346456693
 21
10.7874015748
 31
0.0
  0
LINE
  5
97
330
1F
100
AcDbEntity
  8
TITLE
  6
SLD-Solid
370
    18
100
AcDbLine
 10
0.5
 20
12.7559055118
 30
0.0
 11
0.1653543307
 21
12.7559055118
 31
0.0
  0
LINE
  5
98
330
1F
100
AcDbEntity
  8
TITLE
  6
SLD-Solid
370
    18
100
AcDbLine
 10
89.5
 20
12.7559055118
 30
0.0
 11
89.8346456693
 21
12.7559055118
 31
0.0
  0
LINE
  5
99
330
1F
100
AcDbEntity
  8
TITLE
  6
SLD-Solid
370
    18
100
AcDbLine
 10
0.5
 20
14.7244094488
 30
0.0
 11
0.1653543307
 21
14.7244094488
 31
0.0
  0
LINE
  5
9A
330
1F
100
AcDbEntity
  8
TITLE
  6
SLD-Solid
370
    18
100
AcDbLine
 10
89.5
 20
14.7244094488
 30
0.0
 11
89.8346456693
 21
14.7244094488
 31
0.0
  0
LINE
  5
9B
330
1F
100
AcDbEntity
  8
TITLE
  6
SLD-Solid
370
    18
100
AcDbLine
 10
0.5
 20
16.6929133858
 30
0.0
 11
0.1653543307
 21
16.6929133858
 31
0.0
  0
LINE
  5
9C
330
1F
100
AcDbEntity
  8
TITLE
  6
SLD-Solid
370
    18
100
AcDbLine
 10
89.5
 20
16.6929133858
 30
0.0
 11
89.8346456693
 21
16.6929133858
 31
0.0
  0
LINE
  5
9D
330
1F
100
AcDbEntity
  8
TITLE
  6
SLD-Solid
370
    18
100
AcDbLine
 10
0.5
 20
18.6614173228
 30
0.0
 11
0.1653543307
 21
18.6614173228
 31
0.0
  0
LINE
  5
9E
330
1F
100
AcDbEntity
  8
TITLE
  6
SLD-Solid
370
    18
100
AcDbLine
 10
89.5
 20
18.6614173228
 30
0.0
 11
89.8346456693
 21
18.6614173228
 31
0.0
  0
LINE
  5
9F
330
1F
100
AcDbEntity
  8
TITLE
  6
SLD-Solid
370
    18
100
AcDbLine
 10
0.5
 20
20.6299212598
 30
0.0
 11
0.1653543307
 21
20.6299212598
 31
0.0
  0
LINE
  5
A0
330
1F
100
AcDbEntity
  8
TITLE
  6
SLD-Solid
370
    18
100
AcDbLine
 10
89.5
 20
20.6299212598
 30
0.0
 11
89.8346456693
 21
20.6299212598
 31
0.0
  0
LINE
  5
A1
330
1F
100
AcDbEntity
  8
TITLE
  6
SLD-Solid
370
    18
100
AcDbLine
 10
0.5
 20
22.5984251969
 30
0.0
 11
0.1653543307
 21
22.5984251969
 31
0.0
  0
LINE
  5
A2
330
1F
100
AcDbEntity
  8
TITLE
  6
SLD-Solid
370
    18
100
AcDbLine
 10
89.5
 20
22.5984251969
 30
0.0
 11
89.8346456693
 21
22.5984251969
 31
0.0
  0
LINE
  5
A3
330
1F
100
AcDbEntity
  8
TITLE
  6
SLD-Solid
370
    18
100
AcDbLine
 10
0.5
 20
24.5669291339
 30
0.0
 11
0.1653543307
 21
24.5669291339
 31
0.0
  0
LINE
  5
A4
330
1F
100
AcDbEntity
  8
TITLE
  6
SLD-Solid
370
    18
100
AcDbLine
 10
89.5
 20
24.5669291339
 30
0.0
 11
89.8346456693
 21
24.5669291339
 31
0.0
  0
LINE
  5
A5
330
1F
100
AcDbEntity
  8
TITLE
  6
SLD-Solid
370
    18
100
AcDbLine
 10
0.5
 20
26.5354330709
 30
0.0
 11
0.1653543307
 21
26.5354330709
 31
0.0
  0
LINE
  5
A6
330
1F
100
AcDbEntity
  8
TITLE
  6
SLD-Solid
370
    18
100
AcDbLine
 10
89.5
 20
26.5354330709
 30
0.0
 11
89.8346456693
 21
26.5354330709
 31
0.0
  0
LINE
  5
A7
330
1F
100
AcDbEntity
  8
TITLE
  6
SLD-Solid
370
    18
100
AcDbLine
 10
0.5
 20
28.5039370079
 30
0.0
 11
0.1653543307
 21
28.5039370079
 31
0.0
  0
LINE
  5
A8
330
1F
100
AcDbEntity
  8
TITLE
  6
SLD-Solid
370
    18
100
AcDbLine
 10
89.5
 20
28.5039370079
 30
0.0
 11
89.8346456693
 21
28.5039370079
 31
0.0
  0
LINE
  5
A9
330
1F
100
AcDbEntity
  8
TITLE
  6
SLD-Solid
370
    18
100
AcDbLine
 10
0.5
 20
30.4724409449
 30
0.0
 11
0.1653543307
 21
30.4724409449
 31
0.0
  0
LINE
  5
AA
330
1F
100
AcDbEntity
  8
TITLE
  6
SLD-Solid
370
    18
100
AcDbLine
 10
89.5
 20
30.4724409449
 30
0.0
 11
89.8346456693
 21
30.4724409449
 31
0.0
  0
LINE
  5
AB
330
1F
100
AcDbEntity
  8
TITLE
  6
SLD-Solid
370
    18
100
AcDbLine
 10
0.5
 20
32.4409448819
 30
0.0
 11
0.1653543307
 21
32.4409448819
 31
0.0
  0
LINE
  5
AC
330
1F
100
AcDbEntity
  8
TITLE
  6
SLD-Solid
370
    18
100
AcDbLine
 10
89.5
 20
32.4409448819
 30
0.0
 11
89.8346456693
 21
32.4409448819
 31
0.0
  0
LINE
  5
AD
330
1F
100
AcDbEntity
  8
TITLE
  6
SLD-Solid
370
    18
100
AcDbLine
 10
0.5
 20
34.4094488189
 30
0.0
 11
0.1653543307
 21
34.4094488189
 31
0.0
  0
LINE
  5
AE
330
1F
100
AcDbEntity
  8
TITLE
  6
SLD-Solid
370
    18
100
AcDbLine
 10
89.5
 20
34.4094488189
 30
0.0
 11
89.8346456693
 21
34.4094488189
 31
0.0
  0
LINE
  5
AF
330
1F
100
AcDbEntity
  8
TITLE
  6
SLD-Solid
370
    18
100
AcDbLine
 10
0.5
 20
36.3779527559
 30
0.0
 11
0.1653543307
 21
36.3779527559
 31
0.0
  0
LINE
  5
B0
330
1F
100
AcDbEntity
  8
TITLE
  6
SLD-Solid
370
    18
100
AcDbLine
 10
89.5
 20
36.3779527559
 30
0.0
 11
89.8346456693
 21
36.3779527559
 31
0.0
  0
LINE
  5
B1
330
1F
100
AcDbEntity
  8
TITLE
  6
SLD-Solid
370
    18
100
AcDbLine
 10
0.5
 20
38.3464566929
 30
0.0
 11
0.1653543307
 21
38.3464566929
 31
0.0
  0
LINE
  5
B2
330
1F
100
AcDbEntity
  8
TITLE
  6
SLD-Solid
370
    18
100
AcDbLine
 10
89.5
 20
38.3464566929
 30
0.0
 11
89.8346456693
 21
38.3464566929
 31
0.0
  0
LINE
  5
B3
330
1F
100
AcDbEntity
  8
TITLE
  6
SLD-Solid
370
    18
100
AcDbLine
 10
0.5
 20
40.3149606299
 30
0.0
 11
0.1653543307
 21
40.3149606299
 31
0.0
  0
LINE
  5
B4
330
1F
100
AcDbEntity
  8
TITLE
  6
SLD-Solid
370
    18
100
AcDbLine
 10
89.5
 20
40.3149606299
 30
0.0
 11
89.8346456693
 21
40.3149606299
 31
0.0
  0
LINE
  5
B5
330
1F
100
AcDbEntity
  8
TITLE
  6
SLD-Solid
370
    18
100
AcDbLine
 10
0.5
 20
42.2834645669
 30
0.0
 11
0.1653543307
 21
42.2834645669
 31
0.0
  0
LINE
  5
B6
330
1F
100
AcDbEntity
  8
TITLE
  6
SLD-Solid
370
    18
100
AcDbLine
 10
89.5
 20
42.2834645669
 30
0.0
 11
89.8346456693
 21
42.2834645669
 31
0.0
  0
LINE
  5
B7
330
1F
100
AcDbEntity
  8
TITLE
  6
SLD-Solid
370
    18
100
AcDbLine
 10
0.5
 20
44.2519685039
 30
0.0
 11
0.1653543307
 21
44.2519685039
 31
0.0
  0
LINE
  5
B8
330
1F
100
AcDbEntity
  8
TITLE
  6
SLD-Solid
370
    18
100
AcDbLine
 10
89.5
 20
44.2519685039
 30
0.0
 11
89.8346456693
 21
44.2519685039
 31
0.0
  0
LINE
  5
B9
330
1F
100
AcDbEntity
  8
TITLE
  6
SLD-Solid
370
    18
100
AcDbLine
 10
0.5
 20
46.2204724409
 30
0.0
 11
0.1653543307
 21
46.2204724409
 31
0.0
  0
LINE
  5
BA
330
1F
100
AcDbEntity
  8
TITLE
  6
SLD-Solid
370
    18
100
AcDbLine
 10
89.5
 20
46.2204724409
 30
0.0
 11
89.8346456693
 21
46.2204724409
 31
0.0
  0
LINE
  5
BB
330
1F
100
AcDbEntity
  8
TITLE
  6
SLD-Solid
370
    18
100
AcDbLine
 10
0.5
 20
48.188976378
 30
0.0
 11
0.1653543307
 21
48.188976378
 31
0.0
  0
LINE
  5
BC
330
1F
100
AcDbEntity
  8
TITLE
  6
SLD-Solid
370
    18
100
AcDbLine
 10
89.5
 20
48.188976378
 30
0.0
 11
89.8346456693
 21
48.188976378
 31
0.0
  0
LINE
  5
BD
330
1F
100
AcDbEntity
  8
TITLE
  6
SLD-Solid
370
    18
100
AcDbLine
 10
0.5
 20
50.157480315
 30
0.0
 11
0.1653543307
 21
50.157480315
 31
0.0
  0
LINE
  5
BE
330
1F
100
AcDbEntity
  8
TITLE
  6
SLD-Solid
370
    18
100
AcDbLine
 10
89.5
 20
50.157480315
 30
0.0
 11
89.8346456693
 21
50.157480315
 31
0.0
  0
LINE
  5
BF
330
1F
100
AcDbEntity
  8
TITLE
  6
SLD-Solid
370
    18
100
AcDbLine
 10
0.5
 20
52.125984252
 30
0.0
 11
0.1653543307
 21
52.125984252
 31
0.0
  0
LINE
  5
C0
330
1F
100
AcDbEntity
  8
TITLE
  6
SLD-Solid
370
    18
100
AcDbLine
 10
89.5
 20
52.125984252
 30
0.0
 11
89.8346456693
 21
52.125984252
 31
0.0
  0
LINE
  5
C1
330
1F
100
AcDbEntity
  8
TITLE
  6
SLD-Solid
370
    18
100
AcDbLine
 10
0.5
 20
54.094488189
 30
0.0
 11
0.1653543307
 21
54.094488189
 31
0.0
  0
LINE
  5
C2
330
1F
100
AcDbEntity
  8
TITLE
  6
SLD-Solid
370
    18
100
AcDbLine
 10
89.5
 20
54.094488189
 30
0.0
 11
89.8346456693
 21
54.094488189
 31
0.0
  0
LINE
  5
C3
330
1F
100
AcDbEntity
  8
TITLE
  6
SLD-Solid
370
    18
100
AcDbLine
 10
0.5
 20
56.062992126
 30
0.0
 11
0.1653543307
 21
56.062992126
 31
0.0
  0
LINE
  5
C4
330
1F
100
AcDbEntity
  8
TITLE
  6
SLD-Solid
370
    18
100
AcDbLine
 10
89.5
 20
56.062992126
 30
0.0
 11
89.8346456693
 21
56.062992126
 31
0.0
  0
LINE
  5
C5
330
1F
100
AcDbEntity
  8
TITLE
  6
SLD-Solid
370
    18
100
AcDbLine
 10
0.5
 20
58.031496063
 30
0.0
 11
0.1653543307
 21
58.031496063
 31
0.0
  0
LINE
  5
C6
330
1F
100
AcDbEntity
  8
TITLE
  6
SLD-Solid
370
    18
100
AcDbLine
 10
89.5
 20
58.031496063
 30
0.0
 11
89.8346456693
 21
58.031496063
 31
0.0
  0
LINE
  5
C7
330
1F
100
AcDbEntity
  8
TITLE
  6
SLD-Solid
370
    18
100
AcDbLine
 10
0.5
 20
60.0
 30
0.0
 11
0.1653543307
 21
60.0
 31
0.0
  0
LINE
  5
C8
330
1F
100
AcDbEntity
  8
TITLE
  6
SLD-Solid
370
    18
100
AcDbLine
 10
89.5
 20
60.0
 30
0.0
 11
89.8346456693
 21
60.0
 31
0.0
  0
LINE
  5
C9
330
1F
100
AcDbEntity
  8
TITLE
  6
SLD-Solid
370
    18
100
AcDbLine
 10
0.5
 20
61.968503937
 30
0.0
 11
0.1653543307
 21
61.968503937
 31
0.0
  0
LINE
  5
CA
330
1F
100
AcDbEntity
  8
TITLE
  6
SLD-Solid
370
    18
100
AcDbLine
 10
89.5
 20
61.968503937
 30
0.0
 11
89.8346456693
 21
61.968503937
 31
0.0
  0
LINE
  5
CB
330
1F
100
AcDbEntity
  8
TITLE
  6
SLD-Solid
370
    18
100
AcDbLine
 10
0.5
 20
63.937007874
 30
0.0
 11
0.1653543307
 21
63.937007874
 31
0.0
  0
LINE
  5
CC
330
1F
100
AcDbEntity
  8
TITLE
  6
SLD-Solid
370
    18
100
AcDbLine
 10
89.5
 20
63.937007874
 30
0.0
 11
89.8346456693
 21
63.937007874
 31
0.0
  0
LINE
  5
CD
330
1F
100
AcDbEntity
  8
TITLE
  6
SLD-Solid
370
    18
100
AcDbLine
 10
0.5
 20
65.905511811
 30
0.0
 11
0.1653543307
 21
65.905511811
 31
0.0
  0
LINE
  5
CE
330
1F
100
AcDbEntity
  8
TITLE
  6
SLD-Solid
370
    18
100
AcDbLine
 10
89.5
 20
65.905511811
 30
0.0
 11
89.8346456693
 21
65.905511811
 31
0.0
  0
LINE
  5
CF
330
1F
100
AcDbEntity
  8
TITLE
  6
SLD-Solid
370
    18
100
AcDbLine
 10
0.5
 20
67.874015748
 30
0.0
 11
0.1653543307
 21
67.874015748
 31
0.0
  0
LINE
  5
D0
330
1F
100
AcDbEntity
  8
TITLE
  6
SLD-Solid
370
    18
100
AcDbLine
 10
89.5
 20
67.874015748
 30
0.0
 11
89.8346456693
 21
67.874015748
 31
0.0
  0
LINE
  5
D1
330
1F
100
AcDbEntity
  8
TITLE
  6
SLD-Solid
370
    18
100
AcDbLine
 10
0.5
 20
69.842519685
 30
0.0
 11
0.1653543307
 21
69.842519685
 31
0.0
  0
LINE
  5
D2
330
1F
100
AcDbEntity
  8
TITLE
  6
SLD-Solid
370
    18
100
AcDbLine
 10
89.5
 20
69.842519685
 30
0.0
 11
89.8346456693
 21
69.842519685
 31
0.0
  0
LINE
  5
D3
330
1F
100
AcDbEntity
  8
TITLE
  6
SLD-Solid
370
    18
100
AcDbLine
 10
0.5
 20
71.811023622
 30
0.0
 11
0.1653543307
 21
71.811023622
 31
0.0
  0
LINE
  5
D4
330
1F
100
AcDbEntity
  8
TITLE
  6
SLD-Solid
370
    18
100
AcDbLine
 10
89.5
 20
71.811023622
 30
0.0
 11
89.8346456693
 21
71.811023622
 31
0.0
  0
LINE
  5
D5
330
1F
100
AcDbEntity
  8
TITLE
  6
SLD-Solid
370
    18
100
AcDbLine
 10
0.5
 20
73.7795275591
 30
0.0
 11
0.1653543307
 21
73.7795275591
 31
0.0
  0
LINE
  5
D6
330
1F
100
AcDbEntity
  8
TITLE
  6
SLD-Solid
370
    18
100
AcDbLine
 10
89.5
 20
73.7795275591
 30
0.0
 11
89.8346456693
 21
73.7795275591
 31
0.0
  0
LINE
  5
D7
330
1F
100
AcDbEntity
  8
TITLE
  6
SLD-Solid
370
    18
100
AcDbLine
 10
0.5
 20
75.7480314961
 30
0.0
 11
0.1653543307
 21
75.7480314961
 31
0.0
  0
LINE
  5
D8
330
1F
100
AcDbEntity
  8
TITLE
  6
SLD-Solid
370
    18
100
AcDbLine
 10
89.5
 20
75.7480314961
 30
0.0
 11
89.8346456693
 21
75.7480314961
 31
0.0
  0
LINE
  5
D9
330
1F
100
AcDbEntity
  8
TITLE
  6
SLD-Solid
370
    18
100
AcDbLine
 10
0.5
 20
77.7165354331
 30
0.0
 11
0.1653543307
 21
77.7165354331
 31
0.0
  0
LINE
  5
DA
330
1F
100
AcDbEntity
  8
TITLE
  6
SLD-Solid
370
    18
100
AcDbLine
 10
89.5
 20
77.7165354331
 30
0.0
 11
89.8346456693
 21
77.7165354331
 31
0.0
  0
LINE
  5
DB
330
1F
100
AcDbEntity
  8
TITLE
  6
SLD-Solid
370
    18
100
AcDbLine
 10
0.5
 20
79.6850393701
 30
0.0
 11
0.1653543307
 21
79.6850393701
 31
0.0
  0
LINE
  5
DC
330
1F
100
AcDbEntity
  8
TITLE
  6
SLD-Solid
370
    18
100
AcDbLine
 10
89.5
 20
79.6850393701
 30
0.0
 11
89.8346456693
 21
79.6850393701
 31
0.0
  0
LINE
  5
DD
330
1F
100
AcDbEntity
  8
TITLE
  6
SLD-Solid
370
    18
100
AcDbLine
 10
0.5
 20
81.6535433071
 30
0.0
 11
0.1653543307
 21
81.6535433071
 31
0.0
  0
LINE
  5
DE
330
1F
100
AcDbEntity
  8
TITLE
  6
SLD-Solid
370
    18
100
AcDbLine
 10
89.5
 20
81.6535433071
 30
0.0
 11
89.8346456693
 21
81.6535433071
 31
0.0
  0
LINE
  5
DF
330
1F
100
AcDbEntity
  8
TITLE
  6
SLD-Solid
370
    18
100
AcDbLine
 10
0.5
 20
83.6220472441
 30
0.0
 11
0.1653543307
 21
83.6220472441
 31
0.0
  0
LINE
  5
E0
330
1F
100
AcDbEntity
  8
TITLE
  6
SLD-Solid
370
    18
100
AcDbLine
 10
89.5
 20
83.6220472441
 30
0.0
 11
89.8346456693
 21
83.6220472441
 31
0.0
  0
LINE
  5
E1
330
1F
100
AcDbEntity
  8
TITLE
  6
SLD-Solid
370
    18
100
AcDbLine
 10
0.5
 20
85.5905511811
 30
0.0
 11
0.1653543307
 21
85.5905511811
 31
0.0
  0
LINE
  5
E2
330
1F
100
AcDbEntity
  8
TITLE
  6
SLD-Solid
370
    18
100
AcDbLine
 10
89.5
 20
85.5905511811
 30
0.0
 11
89.8346456693
 21
85.5905511811
 31
0.0
  0
LINE
  5
E3
330
1F
100
AcDbEntity
  8
TITLE
  6
SLD-Solid
370
    18
100
AcDbLine
 10
0.5
 20
87.5590551181
 30
0.0
 11
0.1653543307
 21
87.5590551181
 31
0.0
  0
LINE
  5
E4
330
1F
100
AcDbEntity
  8
TITLE
  6
SLD-Solid
370
    18
100
AcDbLine
 10
89.5
 20
87.5590551181
 30
0.0
 11
89.8346456693
 21
87.5590551181
 31
0.0
  0
LINE
  5
E5
330
1F
100
AcDbEntity
  8
TITLE
  6
SLD-Solid
370
    18
100
AcDbLine
 10
0.5
 20
89.5275590551
 30
0.0
 11
0.1653543307
 21
89.5275590551
 31
0.0
  0
LINE
  5
E6
330
1F
100
AcDbEntity
  8
TITLE
  6
SLD-Solid
370
    18
100
AcDbLine
 10
89.5
 20
89.5275590551
 30
0.0
 11
89.8346456693
 21
89.5275590551
 31
0.0
  0
LINE
  5
E7
330
1F
100
AcDbEntity
  8
TITLE
  6
SLD-Solid
370
    18
100
AcDbLine
 10
0.5
 20
91.4960629921
 30
0.0
 11
0.1653543307
 21
91.4960629921
 31
0.0
  0
LINE
  5
E8
330
1F
100
AcDbEntity
  8
TITLE
  6
SLD-Solid
370
    18
100
AcDbLine
 10
89.5
 20
91.4960629921
 30
0.0
 11
89.8346456693
 21
91.4960629921
 31
0.0
  0
LINE
  5
E9
330
1F
100
AcDbEntity
  8
TITLE
  6
SLD-Solid
370
    18
100
AcDbLine
 10
0.5
 20
93.4645669291
 30
0.0
 11
0.1653543307
 21
93.4645669291
 31
0.0
  0
LINE
  5
EA
330
1F
100
AcDbEntity
  8
TITLE
  6
SLD-Solid
370
    18
100
AcDbLine
 10
89.5
 20
93.4645669291
 30
0.0
 11
89.8346456693
 21
93.4645669291
 31
0.0
  0
LINE
  5
EB
330
1F
100
AcDbEntity
  8
TITLE
  6
SLD-Solid
370
    18
100
AcDbLine
 10
0.5
 20
95.4330708661
 30
0.0
 11
0.1653543307
 21
95.4330708661
 31
0.0
  0
LINE
  5
EC
330
1F
100
AcDbEntity
  8
TITLE
  6
SLD-Solid
370
    18
100
AcDbLine
 10
89.5
 20
95.4330708661
 30
0.0
 11
89.8346456693
 21
95.4330708661
 31
0.0
  0
LINE
  5
ED
330
1F
100
AcDbEntity
  8
TITLE
  6
SLD-Solid
370
    18
100
AcDbLine
 10
0.5
 20
97.4015748031
 30
0.0
 11
0.1653543307
 21
97.4015748031
 31
0.0
  0
LINE
  5
EE
330
1F
100
AcDbEntity
  8
TITLE
  6
SLD-Solid
370
    18
100
AcDbLine
 10
89.5
 20
97.4015748031
 30
0.0
 11
89.8346456693
 21
97.4015748031
 31
0.0
  0
LINE
  5
EF
330
1F
100
AcDbEntity
  8
TITLE
  6
SLD-Solid
370
    18
100
AcDbLine
 10
0.5
 20
99.3700787402
 30
0.0
 11
0.1653543307
 21
99.3700787402
 31
0.0
  0
LINE
  5
F0
330
1F
100
AcDbEntity
  8
TITLE
  6
SLD-Solid
370
    18
100
AcDbLine
 10
89.5
 20
99.3700787402
 30
0.0
 11
89.8346456693
 21
99.3700787402
 31
0.0
  0
LINE
  5
F1
330
1F
100
AcDbEntity
  8
TITLE
  6
SLD-Solid
370
    18
100
AcDbLine
 10
0.5
 20
101.3385826772
 30
0.0
 11
0.1653543307
 21
101.3385826772
 31
0.0
  0
LINE
  5
F2
330
1F
100
AcDbEntity
  8
TITLE
  6
SLD-Solid
370
    18
100
AcDbLine
 10
89.5
 20
101.3385826772
 30
0.0
 11
89.8346456693
 21
101.3385826772
 31
0.0
  0
LINE
  5
F3
330
1F
100
AcDbEntity
  8
TITLE
  6
SLD-Solid
370
    18
100
AcDbLine
 10
0.5
 20
103.3070866142
 30
0.0
 11
0.1653543307
 21
103.3070866142
 31
0.0
  0
LINE
  5
F4
330
1F
100
AcDbEntity
  8
TITLE
  6
SLD-Solid
370
    18
100
AcDbLine
 10
89.5
 20
103.3070866142
 30
0.0
 11
89.8346456693
 21
103.3070866142
 31
0.0
  0
LINE
  5
F5
330
1F
100
AcDbEntity
  8
TITLE
  6
SLD-Solid
370
    18
100
AcDbLine
 10
0.5
 20
105.2755905512
 30
0.0
 11
0.1653543307
 21
105.2755905512
 31
0.0
  0
LINE
  5
F6
330
1F
100
AcDbEntity
  8
TITLE
  6
SLD-Solid
370
    18
100
AcDbLine
 10
89.5
 20
105.2755905512
 30
0.0
 11
89.8346456693
 21
105.2755905512
 31
0.0
  0
LINE
  5
F7
330
1F
100
AcDbEntity
  8
TITLE
  6
SLD-Solid
370
    18
100
AcDbLine
 10
0.5
 20
107.2440944882
 30
0.0
 11
0.1653543307
 21
107.2440944882
 31
0.0
  0
LINE
  5
F8
330
1F
100
AcDbEntity
  8
TITLE
  6
SLD-Solid
370
    18
100
AcDbLine
 10
89.5
 20
107.2440944882
 30
0.0
 11
89.8346456693
 21
107.2440944882
 31
0.0
  0
LINE
  5
F9
330
1F
100
AcDbEntity
  8
TITLE
  6
SLD-Solid
370
    18
100
AcDbLine
 10
0.5
 20
109.2125984252
 30
0.0
 11
0.1653543307
 21
109.2125984252
 31
0.0
  0
LINE
  5
FA
330
1F
100
AcDbEntity
  8
TITLE
  6
SLD-Solid
370
    18
100
AcDbLine
 10
89.5
 20
109.2125984252
 30
0.0
 11
89.8346456693
 21
109.2125984252
 31
0.0
  0
LINE
  5
FB
330
1F
100
AcDbEntity
  8
TITLE
  6
SLD-Solid
370
    18
100
AcDbLine
 10
0.5
 20
111.1811023622
 30
0.0
 11
0.1653543307
 21
111.1811023622
 31
0.0
  0
LINE
  5
FC
330
1F
100
AcDbEntity
  8
TITLE
  6
SLD-Solid
370
    18
100
AcDbLine
 10
89.5
 20
111.1811023622
 30
0.0
 11
89.8346456693
 21
111.1811023622
 31
0.0
  0
LINE
  5
FD
330
1F
100
AcDbEntity
  8
TITLE
  6
SLD-Solid
370
    18
100
AcDbLine
 10
0.5
 20
113.1496062992
 30
0.0
 11
0.1653543307
 21
113.1496062992
 31
0.0
  0
LINE
  5
FE
330
1F
100
AcDbEntity
  8
TITLE
  6
SLD-Solid
370
    18
100
AcDbLine
 10
89.5
 20
113.1496062992
 30
0.0
 11
89.8346456693
 21
113.1496062992
 31
0.0
  0
LINE
  5
FF
330
1F
100
AcDbEntity
  8
TITLE
  6
SLD-Solid
370
    18
100
AcDbLine
 10
0.5
 20
115.1181102362
 30
0.0
 11
0.1653543307
 21
115.1181102362
 31
0.0
  0
LINE
  5
100
330
1F
100
AcDbEntity
  8
TITLE
  6
SLD-Solid
370
    18
100
AcDbLine
 10
89.5
 20
115.1181102362
 30
0.0
 11
89.8346456693
 21
115.1181102362
 31
0.0
  0
LINE
  5
101
330
1F
100
AcDbEntity
  8
TITLE
  6
SLD-Solid
370
    18
100
AcDbLine
 10
0.5
 20
117.0866141732
 30
0.0
 11
0.1653543307
 21
117.0866141732
 31
0.0
  0
LINE
  5
102
330
1F
100
AcDbEntity
  8
TITLE
  6
SLD-Solid
370
    18
100
AcDbLine
 10
89.5
 20
117.0866141732
 30
0.0
 11
89.8346456693
 21
117.0866141732
 31
0.0
  0
LINE
  5
103
330
1F
100
AcDbEntity
  8
TITLE
  6
SLD-Solid
370
    18
100
AcDbLine
 10
1.6929133858
 20
119.5
 30
0.0
 11
1.6929133858
 21
119.8346456693
 31
0.0
  0
LINE
  5
104
330
1F
100
AcDbEntity
  8
TITLE
  6
SLD-Solid
370
    18
100
AcDbLine
 10
1.6929133858
 20
0.5
 30
0.0
 11
1.6929133858
 21
0.1653543307
 31
0.0
  0
LINE
  5
105
330
1F
100
AcDbEntity
  8
TITLE
  6
SLD-Solid
370
    18
100
AcDbLine
 10
3.6614173228
 20
119.5
 30
0.0
 11
3.6614173228
 21
119.8346456693
 31
0.0
  0
LINE
  5
106
330
1F
100
AcDbEntity
  8
TITLE
  6
SLD-Solid
370
    18
100
AcDbLine
 10
3.6614173228
 20
0.5
 30
0.0
 11
3.6614173228
 21
0.1653543307
 31
0.0
  0
LINE
  5
107
330
1F
100
AcDbEntity
  8
TITLE
  6
SLD-Solid
370
    18
100
AcDbLine
 10
5.6299212598
 20
119.5
 30
0.0
 11
5.6299212598
 21
119.8346456693
 31
0.0
  0
LINE
  5
108
330
1F
100
AcDbEntity
  8
TITLE
  6
SLD-Solid
370
    18
100
AcDbLine
 10
5.6299212598
 20
0.5
 30
0.0
 11
5.6299212598
 21
0.1653543307
 31
0.0
  0
LINE
  5
109
330
1F
100
AcDbEntity
  8
TITLE
  6
SLD-Solid
370
    18
100
AcDbLine
 10
7.5984251969
 20
119.5
 30
0.0
 11
7.5984251969
 21
119.8346456693
 31
0.0
  0
LINE
  5
10A
330
1F
100
AcDbEntity
  8
TITLE
  6
SLD-Solid
370
    18
100
AcDbLine
 10
7.5984251969
 20
0.5
 30
0.0
 11
7.5984251969
 21
0.1653543307
 31
0.0
  0
LINE
  5
10B
330
1F
100
AcDbEntity
  8
TITLE
  6
SLD-Solid
370
    18
100
AcDbLine
 10
9.5669291339
 20
119.5
 30
0.0
 11
9.5669291339
 21
119.8346456693
 31
0.0
  0
LINE
  5
10C
330
1F
100
AcDbEntity
  8
TITLE
  6
SLD-Solid
370
    18
100
AcDbLine
 10
9.5669291339
 20
0.5
 30
0.0
 11
9.5669291339
 21
0.1653543307
 31
0.0
  0
LINE
  5
10D
330
1F
100
AcDbEntity
  8
TITLE
  6
SLD-Solid
370
    18
100
AcDbLine
 10
11.5354330709
 20
119.5
 30
0.0
 11
11.5354330709
 21
119.8346456693
 31
0.0
  0
LINE
  5
10E
330
1F
100
AcDbEntity
  8
TITLE
  6
SLD-Solid
370
    18
100
AcDbLine
 10
11.5354330709
 20
0.5
 30
0.0
 11
11.5354330709
 21
0.1653543307
 31
0.0
  0
LINE
  5
10F
330
1F
100
AcDbEntity
  8
TITLE
  6
SLD-Solid
370
    18
100
AcDbLine
 10
13.5039370079
 20
119.5
 30
0.0
 11
13.5039370079
 21
119.8346456693
 31
0.0
  0
LINE
  5
110
330
1F
100
AcDbEntity
  8
TITLE
  6
SLD-Solid
370
    18
100
AcDbLine
 10
13.5039370079
 20
0.5
 30
0.0
 11
13.5039370079
 21
0.1653543307
 31
0.0
  0
LINE
  5
111
330
1F
100
AcDbEntity
  8
TITLE
  6
SLD-Solid
370
    18
100
AcDbLine
 10
15.4724409449
 20
119.5
 30
0.0
 11
15.4724409449
 21
119.8346456693
 31
0.0
  0
LINE
  5
112
330
1F
100
AcDbEntity
  8
TITLE
  6
SLD-Solid
370
    18
100
AcDbLine
 10
15.4724409449
 20
0.5
 30
0.0
 11
15.4724409449
 21
0.1653543307
 31
0.0
  0
LINE
  5
113
330
1F
100
AcDbEntity
  8
TITLE
  6
SLD-Solid
370
    18
100
AcDbLine
 10
17.4409448819
 20
119.5
 30
0.0
 11
17.4409448819
 21
119.8346456693
 31
0.0
  0
LINE
  5
114
330
1F
100
AcDbEntity
  8
TITLE
  6
SLD-Solid
370
    18
100
AcDbLine
 10
17.4409448819
 20
0.5
 30
0.0
 11
17.4409448819
 21
0.1653543307
 31
0.0
  0
LINE
  5
115
330
1F
100
AcDbEntity
  8
TITLE
  6
SLD-Solid
370
    18
100
AcDbLine
 10
19.4094488189
 20
119.5
 30
0.0
 11
19.4094488189
 21
119.8346456693
 31
0.0
  0
LINE
  5
116
330
1F
100
AcDbEntity
  8
TITLE
  6
SLD-Solid
370
    18
100
AcDbLine
 10
19.4094488189
 20
0.5
 30
0.0
 11
19.4094488189
 21
0.1653543307
 31
0.0
  0
LINE
  5
117
330
1F
100
AcDbEntity
  8
TITLE
  6
SLD-Solid
370
    18
100
AcDbLine
 10
21.3779527559
 20
119.5
 30
0.0
 11
21.3779527559
 21
119.8346456693
 31
0.0
  0
LINE
  5
118
330
1F
100
AcDbEntity
  8
TITLE
  6
SLD-Solid
370
    18
100
AcDbLine
 10
21.3779527559
 20
0.5
 30
0.0
 11
21.3779527559
 21
0.1653543307
 31
0.0
  0
LINE
  5
119
330
1F
100
AcDbEntity
  8
TITLE
  6
SLD-Solid
370
    18
100
AcDbLine
 10
23.3464566929
 20
119.5
 30
0.0
 11
23.3464566929
 21
119.8346456693
 31
0.0
  0
LINE
  5
11A
330
1F
100
AcDbEntity
  8
TITLE
  6
SLD-Solid
370
    18
100
AcDbLine
 10
23.3464566929
 20
0.5
 30
0.0
 11
23.3464566929
 21
0.1653543307
 31
0.0
  0
LINE
  5
11B
330
1F
100
AcDbEntity
  8
TITLE
  6
SLD-Solid
370
    18
100
AcDbLine
 10
25.3149606299
 20
119.5
 30
0.0
 11
25.3149606299
 21
119.8346456693
 31
0.0
  0
LINE
  5
11C
330
1F
100
AcDbEntity
  8
TITLE
  6
SLD-Solid
370
    18
100
AcDbLine
 10
25.3149606299
 20
0.5
 30
0.0
 11
25.3149606299
 21
0.1653543307
 31
0.0
  0
LINE
  5
11D
330
1F
100
AcDbEntity
  8
TITLE
  6
SLD-Solid
370
    18
100
AcDbLine
 10
27.2834645669
 20
119.5
 30
0.0
 11
27.2834645669
 21
119.8346456693
 31
0.0
  0
LINE
  5
11E
330
1F
100
AcDbEntity
  8
TITLE
  6
SLD-Solid
370
    18
100
AcDbLine
 10
27.2834645669
 20
0.5
 30
0.0
 11
27.2834645669
 21
0.1653543307
 31
0.0
  0
LINE
  5
11F
330
1F
100
AcDbEntity
  8
TITLE
  6
SLD-Solid
370
    18
100
AcDbLine
 10
29.2519685039
 20
119.5
 30
0.0
 11
29.2519685039
 21
119.8346456693
 31
0.0
  0
LINE
  5
120
330
1F
100
AcDbEntity
  8
TITLE
  6
SLD-Solid
370
    18
100
AcDbLine
 10
29.2519685039
 20
0.5
 30
0.0
 11
29.2519685039
 21
0.1653543307
 31
0.0
  0
LINE
  5
121
330
1F
100
AcDbEntity
  8
TITLE
  6
SLD-Solid
370
    18
100
AcDbLine
 10
31.2204724409
 20
119.5
 30
0.0
 11
31.2204724409
 21
119.8346456693
 31
0.0
  0
LINE
  5
122
330
1F
100
AcDbEntity
  8
TITLE
  6
SLD-Solid
370
    18
100
AcDbLine
 10
31.2204724409
 20
0.5
 30
0.0
 11
31.2204724409
 21
0.1653543307
 31
0.0
  0
LINE
  5
123
330
1F
100
AcDbEntity
  8
TITLE
  6
SLD-Solid
370
    18
100
AcDbLine
 10
33.188976378
 20
119.5
 30
0.0
 11
33.188976378
 21
119.8346456693
 31
0.0
  0
LINE
  5
124
330
1F
100
AcDbEntity
  8
TITLE
  6
SLD-Solid
370
    18
100
AcDbLine
 10
33.188976378
 20
0.5
 30
0.0
 11
33.188976378
 21
0.1653543307
 31
0.0
  0
LINE
  5
125
330
1F
100
AcDbEntity
  8
TITLE
  6
SLD-Solid
370
    18
100
AcDbLine
 10
35.157480315
 20
119.5
 30
0.0
 11
35.157480315
 21
119.8346456693
 31
0.0
  0
LINE
  5
126
330
1F
100
AcDbEntity
  8
TITLE
  6
SLD-Solid
370
    18
100
AcDbLine
 10
35.157480315
 20
0.5
 30
0.0
 11
35.157480315
 21
0.1653543307
 31
0.0
  0
LINE
  5
127
330
1F
100
AcDbEntity
  8
TITLE
  6
SLD-Solid
370
    18
100
AcDbLine
 10
37.125984252
 20
119.5
 30
0.0
 11
37.125984252
 21
119.8346456693
 31
0.0
  0
LINE
  5
128
330
1F
100
AcDbEntity
  8
TITLE
  6
SLD-Solid
370
    18
100
AcDbLine
 10
37.125984252
 20
0.5
 30
0.0
 11
37.125984252
 21
0.1653543307
 31
0.0
  0
LINE
  5
129
330
1F
100
AcDbEntity
  8
TITLE
  6
SLD-Solid
370
    18
100
AcDbLine
 10
39.094488189
 20
119.5
 30
0.0
 11
39.094488189
 21
119.8346456693
 31
0.0
  0
LINE
  5
12A
330
1F
100
AcDbEntity
  8
TITLE
  6
SLD-Solid
370
    18
100
AcDbLine
 10
39.094488189
 20
0.5
 30
0.0
 11
39.094488189
 21
0.1653543307
 31
0.0
  0
LINE
  5
12B
330
1F
100
AcDbEntity
  8
TITLE
  6
SLD-Solid
370
    18
100
AcDbLine
 10
41.062992126
 20
119.5
 30
0.0
 11
41.062992126
 21
119.8346456693
 31
0.0
  0
LINE
  5
12C
330
1F
100
AcDbEntity
  8
TITLE
  6
SLD-Solid
370
    18
100
AcDbLine
 10
41.062992126
 20
0.5
 30
0.0
 11
41.062992126
 21
0.1653543307
 31
0.0
  0
LINE
  5
12D
330
1F
100
AcDbEntity
  8
TITLE
  6
SLD-Solid
370
    18
100
AcDbLine
 10
43.031496063
 20
119.5
 30
0.0
 11
43.031496063
 21
119.8346456693
 31
0.0
  0
LINE
  5
12E
330
1F
100
AcDbEntity
  8
TITLE
  6
SLD-Solid
370
    18
100
AcDbLine
 10
43.031496063
 20
0.5
 30
0.0
 11
43.031496063
 21
0.1653543307
 31
0.0
  0
LINE
  5
12F
330
1F
100
AcDbEntity
  8
TITLE
  6
SLD-Solid
370
    18
100
AcDbLine
 10
45.0
 20
119.5
 30
0.0
 11
45.0
 21
119.8346456693
 31
0.0
  0
LINE
  5
130
330
1F
100
AcDbEntity
  8
TITLE
  6
SLD-Solid
370
    18
100
AcDbLine
 10
45.0
 20
0.5
 30
0.0
 11
45.0
 21
0.1653543307
 31
0.0
  0
LINE
  5
131
330
1F
100
AcDbEntity
  8
TITLE
  6
SLD-Solid
370
    18
100
AcDbLine
 10
46.968503937
 20
119.5
 30
0.0
 11
46.968503937
 21
119.8346456693
 31
0.0
  0
LINE
  5
132
330
1F
100
AcDbEntity
  8
TITLE
  6
SLD-Solid
370
    18
100
AcDbLine
 10
46.968503937
 20
0.5
 30
0.0
 11
46.968503937
 21
0.1653543307
 31
0.0
  0
LINE
  5
133
330
1F
100
AcDbEntity
  8
TITLE
  6
SLD-Solid
370
    18
100
AcDbLine
 10
48.937007874
 20
119.5
 30
0.0
 11
48.937007874
 21
119.8346456693
 31
0.0
  0
LINE
  5
134
330
1F
100
AcDbEntity
  8
TITLE
  6
SLD-Solid
370
    18
100
AcDbLine
 10
48.937007874
 20
0.5
 30
0.0
 11
48.937007874
 21
0.1653543307
 31
0.0
  0
LINE
  5
135
330
1F
100
AcDbEntity
  8
TITLE
  6
SLD-Solid
370
    18
100
AcDbLine
 10
50.905511811
 20
119.5
 30
0.0
 11
50.905511811
 21
119.8346456693
 31
0.0
  0
LINE
  5
136
330
1F
100
AcDbEntity
  8
TITLE
  6
SLD-Solid
370
    18
100
AcDbLine
 10
50.905511811
 20
0.5
 30
0.0
 11
50.905511811
 21
0.1653543307
 31
0.0
  0
LINE
  5
137
330
1F
100
AcDbEntity
  8
TITLE
  6
SLD-Solid
370
    18
100
AcDbLine
 10
52.874015748
 20
119.5
 30
0.0
 11
52.874015748
 21
119.8346456693
 31
0.0
  0
LINE
  5
138
330
1F
100
AcDbEntity
  8
TITLE
  6
SLD-Solid
370
    18
100
AcDbLine
 10
52.874015748
 20
0.5
 30
0.0
 11
52.874015748
 21
0.1653543307
 31
0.0
  0
LINE
  5
139
330
1F
100
AcDbEntity
  8
TITLE
  6
SLD-Solid
370
    18
100
AcDbLine
 10
54.842519685
 20
119.5
 30
0.0
 11
54.842519685
 21
119.8346456693
 31
0.0
  0
LINE
  5
13A
330
1F
100
AcDbEntity
  8
TITLE
  6
SLD-Solid
370
    18
100
AcDbLine
 10
54.842519685
 20
0.5
 30
0.0
 11
54.842519685
 21
0.1653543307
 31
0.0
  0
LINE
  5
13B
330
1F
100
AcDbEntity
  8
TITLE
  6
SLD-Solid
370
    18
100
AcDbLine
 10
56.811023622
 20
119.5
 30
0.0
 11
56.811023622
 21
119.8346456693
 31
0.0
  0
LINE
  5
13C
330
1F
100
AcDbEntity
  8
TITLE
  6
SLD-Solid
370
    18
100
AcDbLine
 10
56.811023622
 20
0.5
 30
0.0
 11
56.811023622
 21
0.1653543307
 31
0.0
  0
LINE
  5
13D
330
1F
100
AcDbEntity
  8
TITLE
  6
SLD-Solid
370
    18
100
AcDbLine
 10
58.7795275591
 20
119.5
 30
0.0
 11
58.7795275591
 21
119.8346456693
 31
0.0
  0
LINE
  5
13E
330
1F
100
AcDbEntity
  8
TITLE
  6
SLD-Solid
370
    18
100
AcDbLine
 10
58.7795275591
 20
0.5
 30
0.0
 11
58.7795275591
 21
0.1653543307
 31
0.0
  0
LINE
  5
13F
330
1F
100
AcDbEntity
  8
TITLE
  6
SLD-Solid
370
    18
100
AcDbLine
 10
60.7480314961
 20
119.5
 30
0.0
 11
60.7480314961
 21
119.8346456693
 31
0.0
  0
LINE
  5
140
330
1F
100
AcDbEntity
  8
TITLE
  6
SLD-Solid
370
    18
100
AcDbLine
 10
60.7480314961
 20
0.5
 30
0.0
 11
60.7480314961
 21
0.1653543307
 31
0.0
  0
LINE
  5
141
330
1F
100
AcDbEntity
  8
TITLE
  6
SLD-Solid
370
    18
100
AcDbLine
 10
62.7165354331
 20
119.5
 30
0.0
 11
62.7165354331
 21
119.8346456693
 31
0.0
  0
LINE
  5
142
330
1F
100
AcDbEntity
  8
TITLE
  6
SLD-Solid
370
    18
100
AcDbLine
 10
62.7165354331
 20
0.5
 30
0.0
 11
62.7165354331
 21
0.1653543307
 31
0.0
  0
LINE
  5
143
330
1F
100
AcDbEntity
  8
TITLE
  6
SLD-Solid
370
    18
100
AcDbLine
 10
64.6850393701
 20
119.5
 30
0.0
 11
64.6850393701
 21
119.8346456693
 31
0.0
  0
LINE
  5
144
330
1F
100
AcDbEntity
  8
TITLE
  6
SLD-Solid
370
    18
100
AcDbLine
 10
64.6850393701
 20
0.5
 30
0.0
 11
64.6850393701
 21
0.1653543307
 31
0.0
  0
LINE
  5
145
330
1F
100
AcDbEntity
  8
TITLE
  6
SLD-Solid
370
    18
100
AcDbLine
 10
66.6535433071
 20
119.5
 30
0.0
 11
66.6535433071
 21
119.8346456693
 31
0.0
  0
LINE
  5
146
330
1F
100
AcDbEntity
  8
TITLE
  6
SLD-Solid
370
    18
100
AcDbLine
 10
66.6535433071
 20
0.5
 30
0.0
 11
66.6535433071
 21
0.1653543307
 31
0.0
  0
LINE
  5
147
330
1F
100
AcDbEntity
  8
TITLE
  6
SLD-Solid
370
    18
100
AcDbLine
 10
68.6220472441
 20
119.5
 30
0.0
 11
68.6220472441
 21
119.8346456693
 31
0.0
  0
LINE
  5
148
330
1F
100
AcDbEntity
  8
TITLE
  6
SLD-Solid
370
    18
100
AcDbLine
 10
68.6220472441
 20
0.5
 30
0.0
 11
68.6220472441
 21
0.1653543307
 31
0.0
  0
LINE
  5
149
330
1F
100
AcDbEntity
  8
TITLE
  6
SLD-Solid
370
    18
100
AcDbLine
 10
70.5905511811
 20
119.5
 30
0.0
 11
70.5905511811
 21
119.8346456693
 31
0.0
  0
LINE
  5
14A
330
1F
100
AcDbEntity
  8
TITLE
  6
SLD-Solid
370
    18
100
AcDbLine
 10
70.5905511811
 20
0.5
 30
0.0
 11
70.5905511811
 21
0.1653543307
 31
0.0
  0
LINE
  5
14B
330
1F
100
AcDbEntity
  8
TITLE
  6
SLD-Solid
370
    18
100
AcDbLine
 10
72.5590551181
 20
119.5
 30
0.0
 11
72.5590551181
 21
119.8346456693
 31
0.0
  0
LINE
  5
14C
330
1F
100
AcDbEntity
  8
TITLE
  6
SLD-Solid
370
    18
100
AcDbLine
 10
72.5590551181
 20
0.5
 30
0.0
 11
72.5590551181
 21
0.1653543307
 31
0.0
  0
LINE
  5
14D
330
1F
100
AcDbEntity
  8
TITLE
  6
SLD-Solid
370
    18
100
AcDbLine
 10
74.5275590551
 20
119.5
 30
0.0
 11
74.5275590551
 21
119.8346456693
 31
0.0
  0
LINE
  5
14E
330
1F
100
AcDbEntity
  8
TITLE
  6
SLD-Solid
370
    18
100
AcDbLine
 10
74.5275590551
 20
0.5
 30
0.0
 11
74.5275590551
 21
0.1653543307
 31
0.0
  0
LINE
  5
14F
330
1F
100
AcDbEntity
  8
TITLE
  6
SLD-Solid
370
    18
100
AcDbLine
 10
76.4960629921
 20
119.5
 30
0.0
 11
76.4960629921
 21
119.8346456693
 31
0.0
  0
LINE
  5
150
330
1F
100
AcDbEntity
  8
TITLE
  6
SLD-Solid
370
    18
100
AcDbLine
 10
76.4960629921
 20
0.5
 30
0.0
 11
76.4960629921
 21
0.1653543307
 31
0.0
  0
LINE
  5
151
330
1F
100
AcDbEntity
  8
TITLE
  6
SLD-Solid
370
    18
100
AcDbLine
 10
78.4645669291
 20
119.5
 30
0.0
 11
78.4645669291
 21
119.8346456693
 31
0.0
  0
LINE
  5
152
330
1F
100
AcDbEntity
  8
TITLE
  6
SLD-Solid
370
    18
100
AcDbLine
 10
78.4645669291
 20
0.5
 30
0.0
 11
78.4645669291
 21
0.1653543307
 31
0.0
  0
LINE
  5
153
330
1F
100
AcDbEntity
  8
TITLE
  6
SLD-Solid
370
    18
100
AcDbLine
 10
80.4330708661
 20
119.5
 30
0.0
 11
80.4330708661
 21
119.8346456693
 31
0.0
  0
LINE
  5
154
330
1F
100
AcDbEntity
  8
TITLE
  6
SLD-Solid
370
    18
100
AcDbLine
 10
80.4330708661
 20
0.5
 30
0.0
 11
80.4330708661
 21
0.1653543307
 31
0.0
  0
LINE
  5
155
330
1F
100
AcDbEntity
  8
TITLE
  6
SLD-Solid
370
    18
100
AcDbLine
 10
82.4015748031
 20
119.5
 30
0.0
 11
82.4015748031
 21
119.8346456693
 31
0.0
  0
LINE
  5
156
330
1F
100
AcDbEntity
  8
TITLE
  6
SLD-Solid
370
    18
100
AcDbLine
 10
82.4015748031
 20
0.5
 30
0.0
 11
82.4015748031
 21
0.1653543307
 31
0.0
  0
LINE
  5
157
330
1F
100
AcDbEntity
  8
TITLE
  6
SLD-Solid
370
    18
100
AcDbLine
 10
84.3700787402
 20
119.5
 30
0.0
 11
84.3700787402
 21
119.8346456693
 31
0.0
  0
LINE
  5
158
330
1F
100
AcDbEntity
  8
TITLE
  6
SLD-Solid
370
    18
100
AcDbLine
 10
84.3700787402
 20
0.5
 30
0.0
 11
84.3700787402
 21
0.1653543307
 31
0.0
  0
LINE
  5
159
330
1F
100
AcDbEntity
  8
TITLE
  6
SLD-Solid
370
    18
100
AcDbLine
 10
86.3385826772
 20
119.5
 30
0.0
 11
86.3385826772
 21
119.8346456693
 31
0.0
  0
LINE
  5
15A
330
1F
100
AcDbEntity
  8
TITLE
  6
SLD-Solid
370
    18
100
AcDbLine
 10
86.3385826772
 20
0.5
 30
0.0
 11
86.3385826772
 21
0.1653543307
 31
0.0
  0
LINE
  5
15B
330
1F
100
AcDbEntity
  8
TITLE
  6
SLD-Solid
370
    18
100
AcDbLine
 10
88.3070866142
 20
119.5
 30
0.0
 11
88.3070866142
 21
119.8346456693
 31
0.0
  0
LINE
  5
15C
330
1F
100
AcDbEntity
  8
TITLE
  6
SLD-Solid
370
    18
100
AcDbLine
 10
88.3070866142
 20
0.5
 30
0.0
 11
88.3070866142
 21
0.1653543307
 31
0.0
  0
MTEXT
  5
15E
330
1F
100
AcDbEntity
  8
NOTES
100
AcDbMText
 10
66.408297803
 20
1.0702903347
 30
0.0
 40
0.25
 41
0.0
 71
     1
 72
     1
  1
UNLESS OTHERWISE SPECIFIED DIMENSIONS ARE IN INCHES.
  7
SLDTEXTSTYLE0
 73
     1
 44
1.0
  0
MTEXT
  5
15F
330
1F
100
AcDbEntity
  8
NOTES
100
AcDbMText
 10
66.4368251132
 20
3.2193045501
 30
0.0
 40
0.25
 41
0.0
 71
     1
 72
     1
  1
DATE:
  7
SLDTEXTSTYLE0
 73
     1
 44
1.0
  0
MTEXT
  5
160
330
1F
100
AcDbEntity
  8
NOTES
100
AcDbMText
 10
68.7130669976
 20
2.1722148141
 30
0.0
 40
0.25
 41
0.0
 71
     2
 72
     1
  1
DO NOT SCALE DRAWING
  7
SLDTEXTSTYLE0
 73
     1
 44
1.0
  0
MTEXT
  5
162
330
1F
100
AcDbEntity
  8
NOTES
100
AcDbMText
 10
72.8307373075
 20
3.2682755553
 30
0.0
 40
0.25
 41
0.0
 71
     1
 72
     1
  1
TITLE:
  7
SLDTEXTSTYLE1
 73
     1
 44
1.0
  0
MTEXT
  5
163
330
1F
100
AcDbEntity
  8
NOTES
100
AcDbMText
 10
80.1561831052
 20
3.2682755553
 30
0.0
 40
0.25
 41
0.0
 71
     1
 72
     1
  1
DWG NO.
  7
SLDTEXTSTYLE1
 73
     1
 44
1.0
  0
MTEXT
  5
164
330
1F
100
AcDbEntity
  8
NOTES
100
AcDbMText
 10
80.1831753203
 20
1.0645815577
 30
0.0
 40
0.25
 41
0.0
 71
     1
 72
     1
  1
SCALE:     1:1
  7
SLDTEXTSTYLE1
 73
     1
 44
1.0
  0
MTEXT
  5
165
330
1F
100
AcDbEntity
  8
NOTES
100
AcDbMText
 10
84.175591472
 20
2.6510344295
 30
0.0
 40
0.25
 41
0.0
 71
     2
 72
     1
  1
1003-SP 40x30L CAD
  7
SLDTEXTSTYLE1
 73
     1
 44
1.0
  0
MTEXT
  5
166
330
1F
100
AcDbEntity
  8
NOTES
100
AcDbMText
 10
75.9462727431
 20
2.6388861441
 30
0.0
 40
0.25
 41
0.0
 71
     2
 72
     1
  1
1003-SP 40x30L
  7
SLDTEXTSTYLE1
 73
     1
 44
1.0
  0
INSERT
  5
16C
330
1F
100
AcDbEntity
  8
NOTES
100
AcDbBlockReference
  2
SW_NOTE_0
 10
80.266131557
 20
4.6105227838
 30
0.0
  0
INSERT
  5
176
330
1F
100
AcDbEntity
  8
NOTES
100
AcDbBlockReference
  2
SW_NOTE_0_1
 10
66.6159726246
 20
5.1481526848
 30
0.0
  0
MTEXT
  5
177
330
1F
100
AcDbEntity
  8
NOTES
100
AcDbMText
 10
69.5189342185
 20
3.2135957731
 30
0.0
 40
0.25
 41
0.0
 71
     2
 72
     1
  1
September 23, 2021
  7
SLDTEXTSTYLE1
 73
     1
 44
1.0
  0
MTEXT
  5
178
330
1F
100
AcDbEntity
  8
TITLE
100
AcDbMText
 10
0.3276279776
 20
1.7865708579
 30
0.0
 40
0.125
 41
0.0
 71
     2
 72
     1
  1
A
  7
SLDTEXTSTYLE1
 73
     1
 44
1.0
  0
MTEXT
  5
179
330
1F
100
AcDbEntity
  8
TITLE
100
AcDbMText
 10
89.6622736469
 20
1.7865708579
 30
0.0
 40
0.125
 41
0.0
 71
     2
 72
     1
  1
A
  7
SLDTEXTSTYLE1
 73
     1
 44
1.0
  0
MTEXT
  5
17A
330
1F
100
AcDbEntity
  8
TITLE
100
AcDbMText
 10
0.3317512413
 20
3.9775157398
 30
0.0
 40
0.125
 41
0.0
 71
     2
 72
     1
  1
B
  7
SLDTEXTSTYLE1
 73
     1
 44
1.0
  0
MTEXT
  5
17B
330
1F
100
AcDbEntity
  8
TITLE
100
AcDbMText
 10
89.6663969106
 20
3.9775157398
 30
0.0
 40
0.125
 41
0.0
 71
     2
 72
     1
  1
B
  7
SLDTEXTSTYLE1
 73
     1
 44
1.0
  0
MTEXT
  5
17C
330
1F
100
AcDbEntity
  8
TITLE
100
AcDbMText
 10
0.3313750817
 20
5.9460196768
 30
0.0
 40
0.125
 41
0.0
 71
     2
 72
     1
  1
C
  7
SLDTEXTSTYLE1
 73
     1
 44
1.0
  0
MTEXT
  5
17D
330
1F
100
AcDbEntity
  8
TITLE
100
AcDbMText
 10
89.666020751
 20
5.9460196768
 30
0.0
 40
0.125
 41
0.0
 71
     2
 72
     1
  1
C
  7
SLDTEXTSTYLE1
 73
     1
 44
1.0
  0
MTEXT
  5
17E
330
1F
100
AcDbEntity
  8
TITLE
100
AcDbMText
 10
0.3311870028
 20
7.9145236138
 30
0.0
 40
0.125
 41
0.0
 71
     2
 72
     1
  1
D
  7
SLDTEXTSTYLE1
 73
     1
 44
1.0
  0
MTEXT
  5
17F
330
1F
100
AcDbEntity
  8
TITLE
100
AcDbMText
 10
89.6658326721
 20
7.9145236138
 30
0.0
 40
0.125
 41
0.0
 71
     2
 72
     1
  1
D
  7
SLDTEXTSTYLE1
 73
     1
 44
1.0
  0
MTEXT
  5
180
330
1F
100
AcDbEntity
  8
TITLE
100
AcDbMText
 10
0.332923116
 20
9.8830275508
 30
0.0
 40
0.125
 41
0.0
 71
     2
 72
     1
  1
E
  7
SLDTEXTSTYLE1
 73
     1
 44
1.0
  0
MTEXT
  5
181
330
1F
100
AcDbEntity
  8
TITLE
100
AcDbMText
 10
89.6675687853
 20
9.8830275508
 30
0.0
 40
0.125
 41
0.0
 71
     2
 72
     1
  1
E
  7
SLDTEXTSTYLE1
 73
     1
 44
1.0
  0
MTEXT
  5
182
330
1F
100
AcDbEntity
  8
TITLE
100
AcDbMText
 10
0.3313461474
 20
11.8515314878
 30
0.0
 40
0.125
 41
0.0
 71
     2
 72
     1
  1
F
  7
SLDTEXTSTYLE1
 73
     1
 44
1.0
  0
MTEXT
  5
183
330
1F
100
AcDbEntity
  8
TITLE
100
AcDbMText
 10
89.6659918167
 20
11.8515314878
 30
0.0
 40
0.125
 41
0.0
 71
     2
 72
     1
  1
F
  7
SLDTEXTSTYLE1
 73
     1
 44
1.0
  0
MTEXT
  5
184
330
1F
100
AcDbEntity
  8
TITLE
100
AcDbMText
 10
0.3322576054
 20
13.8200354248
 30
0.0
 40
0.125
 41
0.0
 71
     2
 72
     1
  1
G
  7
SLDTEXTSTYLE1
 73
     1
 44
1.0
  0
MTEXT
  5
185
330
1F
100
AcDbEntity
  8
TITLE
100
AcDbMText
 10
89.6669032747
 20
13.8200354248
 30
0.0
 40
0.125
 41
0.0
 71
     2
 72
     1
  1
G
  7
SLDTEXTSTYLE1
 73
     1
 44
1.0
  0
MTEXT
  5
186
330
1F
100
AcDbEntity
  8
TITLE
100
AcDbMText
 10
0.3323733457
 20
15.7885393618
 30
0.0
 40
0.125
 41
0.0
 71
     2
 72
     1
  1
H
  7
SLDTEXTSTYLE1
 73
     1
 44
1.0
  0
MTEXT
  5
187
330
1F
100
AcDbEntity
  8
TITLE
100
AcDbMText
 10
89.667019015
 20
15.7885393618
 30
0.0
 40
0.125
 41
0.0
 71
     2
 72
     1
  1
H
  7
SLDTEXTSTYLE1
 73
     1
 44
1.0
  0
MTEXT
  5
188
330
1F
100
AcDbEntity
  8
TITLE
100
AcDbMText
 10
0.3315776306
 20
17.7570432988
 30
0.0
 40
0.125
 41
0.0
 71
     2
 72
     1
  1
J
  7
SLDTEXTSTYLE1
 73
     1
 44
1.0
  0
MTEXT
  5
189
330
1F
100
AcDbEntity
  8
TITLE
100
AcDbMText
 10
89.6662232999
 20
17.7570432988
 30
0.0
 40
0.125
 41
0.0
 71
     2
 72
     1
  1
J
  7
SLDTEXTSTYLE1
 73
     1
 44
1.0
  0
MTEXT
  5
18A
330
1F
100
AcDbEntity
  8
TITLE
100
AcDbMText
 10
0.3323154765
 20
19.7255472359
 30
0.0
 40
0.125
 41
0.0
 71
     2
 72
     1
  1
K
  7
SLDTEXTSTYLE1
 73
     1
 44
1.0
  0
MTEXT
  5
18B
330
1F
100
AcDbEntity
  8
TITLE
100
AcDbMText
 10
89.6669611458
 20
19.7255472359
 30
0.0
 40
0.125
 41
0.0
 71
     2
 72
     1
  1
K
  7
SLDTEXTSTYLE1
 73
     1
 44
1.0
  0
MTEXT
  5
18C
330
1F
100
AcDbEntity
  8
TITLE
100
AcDbMText
 10
0.3312448739
 20
21.6940511729
 30
0.0
 40
0.125
 41
0.0
 71
     2
 72
     1
  1
L
  7
SLDTEXTSTYLE1
 73
     1
 44
1.0
  0
MTEXT
  5
18D
330
1F
100
AcDbEntity
  8
TITLE
100
AcDbMText
 10
89.6658905432
 20
21.6940511729
 30
0.0
 40
0.125
 41
0.0
 71
     2
 72
     1
  1
L
  7
SLDTEXTSTYLE1
 73
     1
 44
1.0
  0
MTEXT
  5
18E
330
1F
100
AcDbEntity
  8
TITLE
100
AcDbMText
 10
0.3283224192
 20
23.6625551099
 30
0.0
 40
0.125
 41
0.0
 71
     2
 72
     1
  1
M
  7
SLDTEXTSTYLE1
 73
     1
 44
1.0
  0
MTEXT
  5
18F
330
1F
100
AcDbEntity
  8
TITLE
100
AcDbMText
 10
89.6629680885
 20
23.6625551099
 30
0.0
 40
0.125
 41
0.0
 71
     2
 72
     1
  1
M
  7
SLDTEXTSTYLE1
 73
     1
 44
1.0
  0
MTEXT
  5
190
330
1F
100
AcDbEntity
  8
TITLE
100
AcDbMText
 10
0.3315342276
 20
25.6310590469
 30
0.0
 40
0.125
 41
0.0
 71
     2
 72
     1
  1
N
  7
SLDTEXTSTYLE1
 73
     1
 44
1.0
  0
MTEXT
  5
191
330
1F
100
AcDbEntity
  8
TITLE
100
AcDbMText
 10
89.6661798969
 20
25.6310590469
 30
0.0
 40
0.125
 41
0.0
 71
     2
 72
     1
  1
N
  7
SLDTEXTSTYLE1
 73
     1
 44
1.0
  0
MTEXT
  5
192
330
1F
100
AcDbEntity
  8
TITLE
100
AcDbMText
 10
0.3321997349
 20
27.5995629839
 30
0.0
 40
0.125
 41
0.0
 71
     2
 72
     1
  1
P
  7
SLDTEXTSTYLE1
 73
     1
 44
1.0
  0
MTEXT
  5
193
330
1F
100
AcDbEntity
  8
TITLE
100
AcDbMText
 10
89.6668454042
 20
27.5995629839
 30
0.0
 40
0.125
 41
0.0
 71
     2
 72
     1
  1
P
  7
SLDTEXTSTYLE1
 73
     1
 44
1.0
  0
MTEXT
  5
194
330
1F
100
AcDbEntity
  8
TITLE
100
AcDbMText
 10
0.3309265867
 20
29.5680669209
 30
0.0
 40
0.125
 41
0.0
 71
     2
 72
     1
  1
R
  7
SLDTEXTSTYLE1
 73
     1
 44
1.0
  0
MTEXT
  5
195
330
1F
100
AcDbEntity
  8
TITLE
100
AcDbMText
 10
89.665572256
 20
29.5680669209
 30
0.0
 40
0.125
 41
0.0
 71
     2
 72
     1
  1
R
  7
SLDTEXTSTYLE1
 73
     1
 44
1.0
  0
MTEXT
  5
196
330
1F
100
AcDbEntity
  8
TITLE
100
AcDbMText
 10
0.3323010071
 20
31.5365708579
 30
0.0
 40
0.125
 41
0.0
 71
     2
 72
     1
  1
T
  7
SLDTEXTSTYLE1
 73
     1
 44
1.0
  0
MTEXT
  5
197
330
1F
100
AcDbEntity
  8
TITLE
100
AcDbMText
 10
89.6669466764
 20
31.5365708579
 30
0.0
 40
0.125
 41
0.0
 71
     2
 72
     1
  1
T
  7
SLDTEXTSTYLE1
 73
     1
 44
1.0
  0
MTEXT
  5
198
330
1F
100
AcDbEntity
  8
TITLE
100
AcDbMText
 10
0.3328507755
 20
33.5050747949
 30
0.0
 40
0.125
 41
0.0
 71
     2
 72
     1
  1
U
  7
SLDTEXTSTYLE1
 73
     1
 44
1.0
  0
MTEXT
  5
199
330
1F
100
AcDbEntity
  8
TITLE
100
AcDbMText
 10
89.6674964448
 20
33.5050747949
 30
0.0
 40
0.125
 41
0.0
 71
     2
 72
     1
  1
U
  7
SLDTEXTSTYLE1
 73
     1
 44
1.0
  0
MTEXT
  5
19A
330
1F
100
AcDbEntity
  8
TITLE
100
AcDbMText
 10
0.3307529773
 20
35.4735787319
 30
0.0
 40
0.125
 41
0.0
 71
     2
 72
     1
  1
V
  7
SLDTEXTSTYLE1
 73
     1
 44
1.0
  0
MTEXT
  5
19B
330
1F
100
AcDbEntity
  8
TITLE
100
AcDbMText
 10
89.6653986466
 20
35.4735787319
 30
0.0
 40
0.125
 41
0.0
 71
     2
 72
     1
  1
V
  7
SLDTEXTSTYLE1
 73
     1
 44
1.0
  0
MTEXT
  5
19C
330
1F
100
AcDbEntity
  8
TITLE
100
AcDbMText
 10
0.3327784409
 20
37.4420826689
 30
0.0
 40
0.125
 41
0.0
 71
     2
 72
     1
  1
W
  7
SLDTEXTSTYLE1
 73
     1
 44
1.0
  0
MTEXT
  5
19D
330
1F
100
AcDbEntity
  8
TITLE
100
AcDbMText
 10
89.6674241102
 20
37.4420826689
 30
0.0
 40
0.125
 41
0.0
 71
     2
 72
     1
  1
W
  7
SLDTEXTSTYLE1
 73
     1
 44
1.0
  0
MTEXT
  5
19E
330
1F
100
AcDbEntity
  8
TITLE
100
AcDbMText
 10
0.3321997349
 20
39.4105866059
 30
0.0
 40
0.125
 41
0.0
 71
     2
 72
     1
  1
Y
  7
SLDTEXTSTYLE1
 73
     1
 44
1.0
  0
MTEXT
  5
19F
330
1F
100
AcDbEntity
  8
TITLE
100
AcDbMText
 10
89.6668454042
 20
39.4105866059
 30
0.0
 40
0.125
 41
0.0
 71
     2
 72
     1
  1
Y
  7
SLDTEXTSTYLE1
 73
     1
 44
1.0
  0
MTEXT
  5
1A0
330
1F
100
AcDbEntity
  8
TITLE
100
AcDbMText
 10
0.3225787898
 20
41.3790905429
 30
0.0
 40
0.125
 41
0.0
 71
     2
 72
     1
  1
AA
  7
SLDTEXTSTYLE1
 73
     1
 44
1.0
  0
MTEXT
  5
1A1
330
1F
100
AcDbEntity
  8
TITLE
100
AcDbMText
 10
89.6572244591
 20
41.3790905429
 30
0.0
 40
0.125
 41
0.0
 71
     2
 72
     1
  1
AA
  7
SLDTEXTSTYLE1
 73
     1
 44
1.0
  0
MTEXT
  5
1A2
330
1F
100
AcDbEntity
  8
TITLE
100
AcDbMText
 10
0.3267020535
 20
43.34759448
 30
0.0
 40
0.125
 41
0.0
 71
     2
 72
     1
  1
AB
  7
SLDTEXTSTYLE1
 73
     1
 44
1.0
  0
MTEXT
  5
1A3
330
1F
100
AcDbEntity
  8
TITLE
100
AcDbMText
 10
89.6613477228
 20
43.34759448
 30
0.0
 40
0.125
 41
0.0
 71
     2
 72
     1
  1
AB
  7
SLDTEXTSTYLE1
 73
     1
 44
1.0
  0
MTEXT
  5
1A4
330
1F
100
AcDbEntity
  8
TITLE
100
AcDbMText
 10
0.3263258985
 20
45.316098417
 30
0.0
 40
0.125
 41
0.0
 71
     2
 72
     1
  1
AC
  7
SLDTEXTSTYLE1
 73
     1
 44
1.0
  0
MTEXT
  5
1A5
330
1F
100
AcDbEntity
  8
TITLE
100
AcDbMText
 10
89.6609715678
 20
45.316098417
 30
0.0
 40
0.125
 41
0.0
 71
     2
 72
     1
  1
AC
  7
SLDTEXTSTYLE1
 73
     1
 44
1.0
  0
MTEXT
  5
1A6
330
1F
100
AcDbEntity
  8
TITLE
100
AcDbMText
 10
0.3261378197
 20
47.284602354
 30
0.0
 40
0.125
 41
0.0
 71
     2
 72
     1
  1
AD
  7
SLDTEXTSTYLE1
 73
     1
 44
1.0
  0
MTEXT
  5
1A7
330
1F
100
AcDbEntity
  8
TITLE
100
AcDbMText
 10
89.6607834889
 20
47.284602354
 30
0.0
 40
0.125
 41
0.0
 71
     2
 72
     1
  1
AD
  7
SLDTEXTSTYLE1
 73
     1
 44
1.0
  0
MTEXT
  5
1A8
330
1F
100
AcDbEntity
  8
TITLE
100
AcDbMText
 10
0.3278739283
 20
49.253106291
 30
0.0
 40
0.125
 41
0.0
 71
     2
 72
     1
  1
AE
  7
SLDTEXTSTYLE1
 73
     1
 44
1.0
  0
MTEXT
  5
1A9
330
1F
100
AcDbEntity
  8
TITLE
100
AcDbMText
 10
89.6625195976
 20
49.253106291
 30
0.0
 40
0.125
 41
0.0
 71
     2
 72
     1
  1
AE
  7
SLDTEXTSTYLE1
 73
     1
 44
1.0
  0
MTEXT
  5
1AA
330
1F
100
AcDbEntity
  8
TITLE
100
AcDbMText
 10
0.3262969596
 20
51.221610228
 30
0.0
 40
0.125
 41
0.0
 71
     2
 72
     1
  1
AF
  7
SLDTEXTSTYLE1
 73
     1
 44
1.0
  0
MTEXT
  5
1AB
330
1F
100
AcDbEntity
  8
TITLE
100
AcDbMText
 10
89.6609426289
 20
51.221610228
 30
0.0
 40
0.125
 41
0.0
 71
     2
 72
     1
  1
AF
  7
SLDTEXTSTYLE1
 73
     1
 44
1.0
  0
MTEXT
  5
1AC
330
1F
100
AcDbEntity
  8
TITLE
100
AcDbMText
 10
0.3272084177
 20
53.190114165
 30
0.0
 40
0.125
 41
0.0
 71
     2
 72
     1
  1
AG
  7
SLDTEXTSTYLE1
 73
     1
 44
1.0
  0
MTEXT
  5
1AD
330
1F
100
AcDbEntity
  8
TITLE
100
AcDbMText
 10
89.661854087
 20
53.190114165
 30
0.0
 40
0.125
 41
0.0
 71
     2
 72
     1
  1
AG
  7
SLDTEXTSTYLE1
 73
     1
 44
1.0
  0
MTEXT
  5
1AE
330
1F
100
AcDbEntity
  8
TITLE
100
AcDbMText
 10
0.3273241625
 20
55.158618102
 30
0.0
 40
0.125
 41
0.0
 71
     2
 72
     1
  1
AH
  7
SLDTEXTSTYLE1
 73
     1
 44
1.0
  0
MTEXT
  5
1AF
330
1F
100
AcDbEntity
  8
TITLE
100
AcDbMText
 10
89.6619698318
 20
55.158618102
 30
0.0
 40
0.125
 41
0.0
 71
     2
 72
     1
  1
AH
  7
SLDTEXTSTYLE1
 73
     1
 44
1.0
  0
MTEXT
  5
1B0
330
1F
100
AcDbEntity
  8
TITLE
100
AcDbMText
 10
0.3265284428
 20
57.127122039
 30
0.0
 40
0.125
 41
0.0
 71
     2
 72
     1
  1
AJ
  7
SLDTEXTSTYLE1
 73
     1
 44
1.0
  0
MTEXT
  5
1B1
330
1F
100
AcDbEntity
  8
TITLE
100
AcDbMText
 10
89.6611741121
 20
57.127122039
 30
0.0
 40
0.125
 41
0.0
 71
     2
 72
     1
  1
AJ
  7
SLDTEXTSTYLE1
 73
     1
 44
1.0
  0
MTEXT
  5
1B2
330
1F
100
AcDbEntity
  8
TITLE
100
AcDbMText
 10
0.3272662887
 20
59.095625976
 30
0.0
 40
0.125
 41
0.0
 71
     2
 72
     1
  1
AK
  7
SLDTEXTSTYLE1
 73
     1
 44
1.0
  0
MTEXT
  5
1B3
330
1F
100
AcDbEntity
  8
TITLE
100
AcDbMText
 10
89.661911958
 20
59.095625976
 30
0.0
 40
0.125
 41
0.0
 71
     2
 72
     1
  1
AK
  7
SLDTEXTSTYLE1
 73
     1
 44
1.0
  0
MTEXT
  5
1B4
330
1F
100
AcDbEntity
  8
TITLE
100
AcDbMText
 10
0.3261956816
 20
61.064129913
 30
0.0
 40
0.125
 41
0.0
 71
     2
 72
     1
  1
AL
  7
SLDTEXTSTYLE1
 73
     1
 44
1.0
  0
MTEXT
  5
1B5
330
1F
100
AcDbEntity
  8
TITLE
100
AcDbMText
 10
89.6608413509
 20
61.064129913
 30
0.0
 40
0.125
 41
0.0
 71
     2
 72
     1
  1
AL
  7
SLDTEXTSTYLE1
 73
     1
 44
1.0
  0
MTEXT
  5
1B6
330
1F
100
AcDbEntity
  8
TITLE
100
AcDbMText
 10
0.3232732315
 20
63.03263385
 30
0.0
 40
0.125
 41
0.0
 71
     2
 72
     1
  1
AM
  7
SLDTEXTSTYLE1
 73
     1
 44
1.0
  0
MTEXT
  5
1B7
330
1F
100
AcDbEntity
  8
TITLE
100
AcDbMText
 10
89.6579189008
 20
63.03263385
 30
0.0
 40
0.125
 41
0.0
 71
     2
 72
     1
  1
AM
  7
SLDTEXTSTYLE1
 73
     1
 44
1.0
  0
MTEXT
  5
1B8
330
1F
100
AcDbEntity
  8
TITLE
100
AcDbMText
 10
0.3264850398
 20
65.001137787
 30
0.0
 40
0.125
 41
0.0
 71
     2
 72
     1
  1
AN
  7
SLDTEXTSTYLE1
 73
     1
 44
1.0
  0
MTEXT
  5
1B9
330
1F
100
AcDbEntity
  8
TITLE
100
AcDbMText
 10
89.6611307091
 20
65.001137787
 30
0.0
 40
0.125
 41
0.0
 71
     2
 72
     1
  1
AN
  7
SLDTEXTSTYLE1
 73
     1
 44
1.0
  0
MTEXT
  5
1BA
330
1F
100
AcDbEntity
  8
TITLE
100
AcDbMText
 10
0.3271505426
 20
66.969641724
 30
0.0
 40
0.125
 41
0.0
 71
     2
 72
     1
  1
AP
  7
SLDTEXTSTYLE1
 73
     1
 44
1.0
  0
MTEXT
  5
1BB
330
1F
100
AcDbEntity
  8
TITLE
100
AcDbMText
 10
89.6617962119
 20
66.969641724
 30
0.0
 40
0.125
 41
0.0
 71
     2
 72
     1
  1
AP
  7
SLDTEXTSTYLE1
 73
     1
 44
1.0
  0
MTEXT
  5
1BC
330
1F
100
AcDbEntity
  8
TITLE
100
AcDbMText
 10
0.325877399
 20
68.9381456611
 30
0.0
 40
0.125
 41
0.0
 71
     2
 72
     1
  1
AR
  7
SLDTEXTSTYLE1
 73
     1
 44
1.0
  0
MTEXT
  5
1BD
330
1F
100
AcDbEntity
  8
TITLE
100
AcDbMText
 10
89.6605230682
 20
68.9381456611
 30
0.0
 40
0.125
 41
0.0
 71
     2
 72
     1
  1
AR
  7
SLDTEXTSTYLE1
 73
     1
 44
1.0
  0
MTEXT
  5
1BE
330
1F
100
AcDbEntity
  8
TITLE
100
AcDbMText
 10
0.3272518193
 20
70.9066495981
 30
0.0
 40
0.125
 41
0.0
 71
     2
 72
     1
  1
AT
  7
SLDTEXTSTYLE1
 73
     1
 44
1.0
  0
MTEXT
  5
1BF
330
1F
100
AcDbEntity
  8
TITLE
100
AcDbMText
 10
89.6618974886
 20
70.9066495981
 30
0.0
 40
0.125
 41
0.0
 71
     2
 72
     1
  1
AT
  7
SLDTEXTSTYLE1
 73
     1
 44
1.0
  0
MTEXT
  5
1C0
330
1F
100
AcDbEntity
  8
TITLE
100
AcDbMText
 10
0.3278015877
 20
72.8751535351
 30
0.0
 40
0.125
 41
0.0
 71
     2
 72
     1
  1
AU
  7
SLDTEXTSTYLE1
 73
     1
 44
1.0
  0
MTEXT
  5
1C1
330
1F
100
AcDbEntity
  8
TITLE
100
AcDbMText
 10
89.662447257
 20
72.8751535351
 30
0.0
 40
0.125
 41
0.0
 71
     2
 72
     1
  1
AU
  7
SLDTEXTSTYLE1
 73
     1
 44
1.0
  0
MTEXT
  5
1C2
330
1F
100
AcDbEntity
  8
TITLE
100
AcDbMText
 10
0.3257037895
 20
74.8436574721
 30
0.0
 40
0.125
 41
0.0
 71
     2
 72
     1
  1
AV
  7
SLDTEXTSTYLE1
 73
     1
 44
1.0
  0
MTEXT
  5
1C3
330
1F
100
AcDbEntity
  8
TITLE
100
AcDbMText
 10
89.6603494588
 20
74.8436574721
 30
0.0
 40
0.125
 41
0.0
 71
     2
 72
     1
  1
AV
  7
SLDTEXTSTYLE1
 73
     1
 44
1.0
  0
MTEXT
  5
1C4
330
1F
100
AcDbEntity
  8
TITLE
100
AcDbMText
 10
0.3277292486
 20
76.8121614091
 30
0.0
 40
0.125
 41
0.0
 71
     2
 72
     1
  1
AW
  7
SLDTEXTSTYLE1
 73
     1
 44
1.0
  0
MTEXT
  5
1C5
330
1F
100
AcDbEntity
  8
TITLE
100
AcDbMText
 10
89.6623749179
 20
76.8121614091
 30
0.0
 40
0.125
 41
0.0
 71
     2
 72
     1
  1
AW
  7
SLDTEXTSTYLE1
 73
     1
 44
1.0
  0
MTEXT
  5
1C6
330
1F
100
AcDbEntity
  8
TITLE
100
AcDbMText
 10
0.3271505426
 20
78.7806653461
 30
0.0
 40
0.125
 41
0.0
 71
     2
 72
     1
  1
AY
  7
SLDTEXTSTYLE1
 73
     1
 44
1.0
  0
MTEXT
  5
1C7
330
1F
100
AcDbEntity
  8
TITLE
100
AcDbMText
 10
89.6617962119
 20
78.7806653461
 30
0.0
 40
0.125
 41
0.0
 71
     2
 72
     1
  1
AY
  7
SLDTEXTSTYLE1
 73
     1
 44
1.0
  0
MTEXT
  5
1C8
330
1F
100
AcDbEntity
  8
TITLE
100
AcDbMText
 10
0.3267020535
 20
80.7491692831
 30
0.0
 40
0.125
 41
0.0
 71
     2
 72
     1
  1
BA
  7
SLDTEXTSTYLE1
 73
     1
 44
1.0
  0
MTEXT
  5
1C9
330
1F
100
AcDbEntity
  8
TITLE
100
AcDbMText
 10
89.6613477228
 20
80.7491692831
 30
0.0
 40
0.125
 41
0.0
 71
     2
 72
     1
  1
BA
  7
SLDTEXTSTYLE1
 73
     1
 44
1.0
  0
MTEXT
  5
1CA
330
1F
100
AcDbEntity
  8
TITLE
100
AcDbMText
 10
0.3308253173
 20
82.7176732201
 30
0.0
 40
0.125
 41
0.0
 71
     2
 72
     1
  1
BB
  7
SLDTEXTSTYLE1
 73
     1
 44
1.0
  0
MTEXT
  5
1CB
330
1F
100
AcDbEntity
  8
TITLE
100
AcDbMText
 10
89.6654709865
 20
82.7176732201
 30
0.0
 40
0.125
 41
0.0
 71
     2
 72
     1
  1
BB
  7
SLDTEXTSTYLE1
 73
     1
 44
1.0
  0
MTEXT
  5
1CC
330
1F
100
AcDbEntity
  8
TITLE
100
AcDbMText
 10
0.3304491531
 20
84.6861771571
 30
0.0
 40
0.125
 41
0.0
 71
     2
 72
     1
  1
BC
  7
SLDTEXTSTYLE1
 73
     1
 44
1.0
  0
MTEXT
  5
1CD
330
1F
100
AcDbEntity
  8
TITLE
100
AcDbMText
 10
89.6650948224
 20
84.6861771571
 30
0.0
 40
0.125
 41
0.0
 71
     2
 72
     1
  1
BC
  7
SLDTEXTSTYLE1
 73
     1
 44
1.0
  0
MTEXT
  5
1CE
330
1F
100
AcDbEntity
  8
TITLE
100
AcDbMText
 10
0.3302610742
 20
86.6546810941
 30
0.0
 40
0.125
 41
0.0
 71
     2
 72
     1
  1
BD
  7
SLDTEXTSTYLE1
 73
     1
 44
1.0
  0
MTEXT
  5
1CF
330
1F
100
AcDbEntity
  8
TITLE
100
AcDbMText
 10
89.6649067435
 20
86.6546810941
 30
0.0
 40
0.125
 41
0.0
 71
     2
 72
     1
  1
BD
  7
SLDTEXTSTYLE1
 73
     1
 44
1.0
  0
MTEXT
  5
1D0
330
1F
100
AcDbEntity
  8
TITLE
100
AcDbMText
 10
0.331997192
 20
88.6231850311
 30
0.0
 40
0.125
 41
0.0
 71
     2
 72
     1
  1
BE
  7
SLDTEXTSTYLE1
 73
     1
 44
1.0
  0
MTEXT
  5
1D1
330
1F
100
AcDbEntity
  8
TITLE
100
AcDbMText
 10
89.6666428613
 20
88.6231850311
 30
0.0
 40
0.125
 41
0.0
 71
     2
 72
     1
  1
BE
  7
SLDTEXTSTYLE1
 73
     1
 44
1.0
  0
MTEXT
  5
1D2
330
1F
100
AcDbEntity
  8
TITLE
100
AcDbMText
 10
0.3304202234
 20
90.5916889681
 30
0.0
 40
0.125
 41
0.0
 71
     2
 72
     1
  1
BF
  7
SLDTEXTSTYLE1
 73
     1
 44
1.0
  0
MTEXT
  5
1D3
330
1F
100
AcDbEntity
  8
TITLE
100
AcDbMText
 10
89.6650658926
 20
90.5916889681
 30
0.0
 40
0.125
 41
0.0
 71
     2
 72
     1
  1
BF
  7
SLDTEXTSTYLE1
 73
     1
 44
1.0
  0
MTEXT
  5
1D4
330
1F
100
AcDbEntity
  8
TITLE
100
AcDbMText
 10
0.3313316814
 20
92.5601929051
 30
0.0
 40
0.125
 41
0.0
 71
     2
 72
     1
  1
BG
  7
SLDTEXTSTYLE1
 73
     1
 44
1.0
  0
MTEXT
  5
1D5
330
1F
100
AcDbEntity
  8
TITLE
100
AcDbMText
 10
89.6659773507
 20
92.5601929051
 30
0.0
 40
0.125
 41
0.0
 71
     2
 72
     1
  1
BG
  7
SLDTEXTSTYLE1
 73
     1
 44
1.0
  0
MTEXT
  5
1D6
330
1F
100
AcDbEntity
  8
TITLE
100
AcDbMText
 10
0.331447417
 20
94.5286968422
 30
0.0
 40
0.125
 41
0.0
 71
     2
 72
     1
  1
BH
  7
SLDTEXTSTYLE1
 73
     1
 44
1.0
  0
MTEXT
  5
1D7
330
1F
100
AcDbEntity
  8
TITLE
100
AcDbMText
 10
89.6660930863
 20
94.5286968422
 30
0.0
 40
0.125
 41
0.0
 71
     2
 72
     1
  1
BH
  7
SLDTEXTSTYLE1
 73
     1
 44
1.0
  0
MTEXT
  5
1D8
330
1F
100
AcDbEntity
  8
TITLE
100
AcDbMText
 10
0.3306517065
 20
96.4972007792
 30
0.0
 40
0.125
 41
0.0
 71
     2
 72
     1
  1
BJ
  7
SLDTEXTSTYLE1
 73
     1
 44
1.0
  0
MTEXT
  5
1D9
330
1F
100
AcDbEntity
  8
TITLE
100
AcDbMText
 10
89.6652973758
 20
96.4972007792
 30
0.0
 40
0.125
 41
0.0
 71
     2
 72
     1
  1
BJ
  7
SLDTEXTSTYLE1
 73
     1
 44
1.0
  0
MTEXT
  5
1DA
330
1F
100
AcDbEntity
  8
TITLE
100
AcDbMText
 10
0.3313895525
 20
98.4657047162
 30
0.0
 40
0.125
 41
0.0
 71
     2
 72
     1
  1
BK
  7
SLDTEXTSTYLE1
 73
     1
 44
1.0
  0
MTEXT
  5
1DB
330
1F
100
AcDbEntity
  8
TITLE
100
AcDbMText
 10
89.6660352218
 20
98.4657047162
 30
0.0
 40
0.125
 41
0.0
 71
     2
 72
     1
  1
BK
  7
SLDTEXTSTYLE1
 73
     1
 44
1.0
  0
MTEXT
  5
1DC
330
1F
100
AcDbEntity
  8
TITLE
100
AcDbMText
 10
0.3303189545
 20
100.4342086532
 30
0.0
 40
0.125
 41
0.0
 71
     2
 72
     1
  1
BL
  7
SLDTEXTSTYLE1
 73
     1
 44
1.0
  0
MTEXT
  5
1DD
330
1F
100
AcDbEntity
  8
TITLE
100
AcDbMText
 10
89.6649646237
 20
100.4342086532
 30
0.0
 40
0.125
 41
0.0
 71
     2
 72
     1
  1
BL
  7
SLDTEXTSTYLE1
 73
     1
 44
1.0
  0
MTEXT
  5
1DE
330
1F
100
AcDbEntity
  8
TITLE
100
AcDbMText
 10
0.3273964952
 20
102.4027125902
 30
0.0
 40
0.125
 41
0.0
 71
     2
 72
     1
  1
BM
  7
SLDTEXTSTYLE1
 73
     1
 44
1.0
  0
MTEXT
  5
1DF
330
1F
100
AcDbEntity
  8
TITLE
100
AcDbMText
 10
89.6620421645
 20
102.4027125902
 30
0.0
 40
0.125
 41
0.0
 71
     2
 72
     1
  1
BM
  7
SLDTEXTSTYLE1
 73
     1
 44
1.0
  0
MTEXT
  5
1E0
330
1F
100
AcDbEntity
  8
TITLE
100
AcDbMText
 10
0.3306083035
 20
104.3712165272
 30
0.0
 40
0.125
 41
0.0
 71
     2
 72
     1
  1
BN
  7
SLDTEXTSTYLE1
 73
     1
 44
1.0
  0
MTEXT
  5
1E1
330
1F
100
AcDbEntity
  8
TITLE
100
AcDbMText
 10
89.6652539728
 20
104.3712165272
 30
0.0
 40
0.125
 41
0.0
 71
     2
 72
     1
  1
BN
  7
SLDTEXTSTYLE1
 73
     1
 44
1.0
  0
MTEXT
  5
1E2
330
1F
100
AcDbEntity
  8
TITLE
100
AcDbMText
 10
0.3312738155
 20
106.3397204642
 30
0.0
 40
0.125
 41
0.0
 71
     2
 72
     1
  1
BP
  7
SLDTEXTSTYLE1
 73
     1
 44
1.0
  0
MTEXT
  5
1E3
330
1F
100
AcDbEntity
  8
TITLE
100
AcDbMText
 10
89.6659194848
 20
106.3397204642
 30
0.0
 40
0.125
 41
0.0
 71
     2
 72
     1
  1
BP
  7
SLDTEXTSTYLE1
 73
     1
 44
1.0
  0
MTEXT
  5
1E4
330
1F
100
AcDbEntity
  8
TITLE
100
AcDbMText
 10
0.3300006627
 20
108.3082244012
 30
0.0
 40
0.125
 41
0.0
 71
     2
 72
     1
  1
BR
  7
SLDTEXTSTYLE1
 73
     1
 44
1.0
  0
MTEXT
  5
1E5
330
1F
100
AcDbEntity
  8
TITLE
100
AcDbMText
 10
89.664646332
 20
108.3082244012
 30
0.0
 40
0.125
 41
0.0
 71
     2
 72
     1
  1
BR
  7
SLDTEXTSTYLE1
 73
     1
 44
1.0
  0
MTEXT
  5
1E6
330
1F
100
AcDbEntity
  8
TITLE
100
AcDbMText
 10
0.331375083
 20
110.2767283382
 30
0.0
 40
0.125
 41
0.0
 71
     2
 72
     1
  1
BT
  7
SLDTEXTSTYLE1
 73
     1
 44
1.0
  0
MTEXT
  5
1E7
330
1F
100
AcDbEntity
  8
TITLE
100
AcDbMText
 10
89.6660207523
 20
110.2767283382
 30
0.0
 40
0.125
 41
0.0
 71
     2
 72
     1
  1
BT
  7
SLDTEXTSTYLE1
 73
     1
 44
1.0
  0
MTEXT
  5
1E8
330
1F
100
AcDbEntity
  8
TITLE
100
AcDbMText
 10
0.3319248515
 20
112.2452322752
 30
0.0
 40
0.125
 41
0.0
 71
     2
 72
     1
  1
BU
  7
SLDTEXTSTYLE1
 73
     1
 44
1.0
  0
MTEXT
  5
1E9
330
1F
100
AcDbEntity
  8
TITLE
100
AcDbMText
 10
89.6665705208
 20
112.2452322752
 30
0.0
 40
0.125
 41
0.0
 71
     2
 72
     1
  1
BU
  7
SLDTEXTSTYLE1
 73
     1
 44
1.0
  0
MTEXT
  5
1EA
330
1F
100
AcDbEntity
  8
TITLE
100
AcDbMText
 10
0.3298270533
 20
114.2137362122
 30
0.0
 40
0.125
 41
0.0
 71
     2
 72
     1
  1
BV
  7
SLDTEXTSTYLE1
 73
     1
 44
1.0
  0
MTEXT
  5
1EB
330
1F
100
AcDbEntity
  8
TITLE
100
AcDbMText
 10
89.6644727226
 20
114.2137362122
 30
0.0
 40
0.125
 41
0.0
 71
     2
 72
     1
  1
BV
  7
SLDTEXTSTYLE1
 73
     1
 44
1.0
  0
MTEXT
  5
1EC
330
1F
100
AcDbEntity
  8
TITLE
100
AcDbMText
 10
0.3318525215
 20
116.1822401492
 30
0.0
 40
0.125
 41
0.0
 71
     2
 72
     1
  1
BW
  7
SLDTEXTSTYLE1
 73
     1
 44
1.0
  0
MTEXT
  5
1ED
330
1F
100
AcDbEntity
  8
TITLE
100
AcDbMText
 10
89.6664981907
 20
116.1822401492
 30
0.0
 40
0.125
 41
0.0
 71
     2
 72
     1
  1
BW
  7
SLDTEXTSTYLE1
 73
     1
 44
1.0
  0
MTEXT
  5
1EE
330
1F
100
AcDbEntity
  8
TITLE
100
AcDbMText
 10
0.3312738155
 20
118.3731850311
 30
0.0
 40
0.125
 41
0.0
 71
     2
 72
     1
  1
BY
  7
SLDTEXTSTYLE1
 73
     1
 44
1.0
  0
MTEXT
  5
1EF
330
1F
100
AcDbEntity
  8
TITLE
100
AcDbMText
 10
89.6659194848
 20
118.3731850311
 30
0.0
 40
0.125
 41
0.0
 71
     2
 72
     1
  1
BY
  7
SLDTEXTSTYLE1
 73
     1
 44
1.0
  0
MTEXT
  5
1F0
330
1F
100
AcDbEntity
  8
TITLE
100
AcDbMText
 10
1.0939393315
 20
0.4125551099
 30
0.0
 40
0.125
 41
0.0
 71
     2
 72
     1
  1
46
  7
SLDTEXTSTYLE1
 73
     1
 44
1.0
  0
MTEXT
  5
1F1
330
1F
100
AcDbEntity
  8
TITLE
100
AcDbMText
 10
1.0939393315
 20
119.7472007792
 30
0.0
 40
0.125
 41
0.0
 71
     2
 72
     1
  1
46
  7
SLDTEXTSTYLE1
 73
     1
 44
1.0
  0
MTEXT
  5
1F2
330
1F
100
AcDbEntity
  8
TITLE
100
AcDbMText
 10
2.674647993
 20
0.4125551099
 30
0.0
 40
0.125
 41
0.0
 71
     2
 72
     1
  1
45
  7
SLDTEXTSTYLE1
 73
     1
 44
1.0
  0
MTEXT
  5
1F3
330
1F
100
AcDbEntity
  8
TITLE
100
AcDbMText
 10
2.674647993
 20
119.7472007792
 30
0.0
 40
0.125
 41
0.0
 71
     2
 72
     1
  1
45
  7
SLDTEXTSTYLE1
 73
     1
 44
1.0
  0
MTEXT
  5
1F4
330
1F
100
AcDbEntity
  8
TITLE
100
AcDbMText
 10
4.64315193
 20
0.4125551099
 30
0.0
 40
0.125
 41
0.0
 71
     2
 72
     1
  1
44
  7
SLDTEXTSTYLE1
 73
     1
 44
1.0
  0
MTEXT
  5
1F5
330
1F
100
AcDbEntity
  8
TITLE
100
AcDbMText
 10
4.64315193
 20
119.7472007792
 30
0.0
 40
0.125
 41
0.0
 71
     2
 72
     1
  1
44
  7
SLDTEXTSTYLE1
 73
     1
 44
1.0
  0
MTEXT
  5
1F6
330
1F
100
AcDbEntity
  8
TITLE
100
AcDbMText
 10
6.611655867
 20
0.4125551099
 30
0.0
 40
0.125
 41
0.0
 71
     2
 72
     1
  1
43
  7
SLDTEXTSTYLE1
 73
     1
 44
1.0
  0
MTEXT
  5
1F7
330
1F
100
AcDbEntity
  8
TITLE
100
AcDbMText
 10
6.611655867
 20
119.7472007792
 30
0.0
 40
0.125
 41
0.0
 71
     2
 72
     1
  1
43
  7
SLDTEXTSTYLE1
 73
     1
 44
1.0
  0
MTEXT
  5
1F8
330
1F
100
AcDbEntity
  8
TITLE
100
AcDbMText
 10
8.580159804
 20
0.4125551099
 30
0.0
 40
0.125
 41
0.0
 71
     2
 72
     1
  1
42
  7
SLDTEXTSTYLE1
 73
     1
 44
1.0
  0
MTEXT
  5
1F9
330
1F
100
AcDbEntity
  8
TITLE
100
AcDbMText
 10
8.580159804
 20
119.7472007792
 30
0.0
 40
0.125
 41
0.0
 71
     2
 72
     1
  1
42
  7
SLDTEXTSTYLE1
 73
     1
 44
1.0
  0
MTEXT
  5
1FA
330
1F
100
AcDbEntity
  8
TITLE
100
AcDbMText
 10
10.548663741
 20
0.4125551099
 30
0.0
 40
0.125
 41
0.0
 71
     2
 72
     1
  1
41
  7
SLDTEXTSTYLE1
 73
     1
 44
1.0
  0
MTEXT
  5
1FB
330
1F
100
AcDbEntity
  8
TITLE
100
AcDbMText
 10
10.548663741
 20
119.7472007792
 30
0.0
 40
0.125
 41
0.0
 71
     2
 72
     1
  1
41
  7
SLDTEXTSTYLE1
 73
     1
 44
1.0
  0
MTEXT
  5
1FC
330
1F
100
AcDbEntity
  8
TITLE
100
AcDbMText
 10
12.517167678
 20
0.4125551099
 30
0.0
 40
0.125
 41
0.0
 71
     2
 72
     1
  1
40
  7
SLDTEXTSTYLE1
 73
     1
 44
1.0
  0
MTEXT
  5
1FD
330
1F
100
AcDbEntity
  8
TITLE
100
AcDbMText
 10
12.517167678
 20
119.7472007792
 30
0.0
 40
0.125
 41
0.0
 71
     2
 72
     1
  1
40
  7
SLDTEXTSTYLE1
 73
     1
 44
1.0
  0
MTEXT
  5
1FE
330
1F
100
AcDbEntity
  8
TITLE
100
AcDbMText
 10
14.485671615
 20
0.4125551099
 30
0.0
 40
0.125
 41
0.0
 71
     2
 72
     1
  1
39
  7
SLDTEXTSTYLE1
 73
     1
 44
1.0
  0
MTEXT
  5
1FF
330
1F
100
AcDbEntity
  8
TITLE
100
AcDbMText
 10
14.485671615
 20
119.7472007792
 30
0.0
 40
0.125
 41
0.0
 71
     2
 72
     1
  1
39
  7
SLDTEXTSTYLE1
 73
     1
 44
1.0
  0
MTEXT
  5
200
330
1F
100
AcDbEntity
  8
TITLE
100
AcDbMText
 10
16.454175552
 20
0.4125551099
 30
0.0
 40
0.125
 41
0.0
 71
     2
 72
     1
  1
38
  7
SLDTEXTSTYLE1
 73
     1
 44
1.0
  0
MTEXT
  5
201
330
1F
100
AcDbEntity
  8
TITLE
100
AcDbMText
 10
16.454175552
 20
119.7472007792
 30
0.0
 40
0.125
 41
0.0
 71
     2
 72
     1
  1
38
  7
SLDTEXTSTYLE1
 73
     1
 44
1.0
  0
MTEXT
  5
202
330
1F
100
AcDbEntity
  8
TITLE
100
AcDbMText
 10
18.422679489
 20
0.4125551099
 30
0.0
 40
0.125
 41
0.0
 71
     2
 72
     1
  1
37
  7
SLDTEXTSTYLE1
 73
     1
 44
1.0
  0
MTEXT
  5
203
330
1F
100
AcDbEntity
  8
TITLE
100
AcDbMText
 10
18.422679489
 20
119.7472007792
 30
0.0
 40
0.125
 41
0.0
 71
     2
 72
     1
  1
37
  7
SLDTEXTSTYLE1
 73
     1
 44
1.0
  0
MTEXT
  5
204
330
1F
100
AcDbEntity
  8
TITLE
100
AcDbMText
 10
20.391183426
 20
0.4125551099
 30
0.0
 40
0.125
 41
0.0
 71
     2
 72
     1
  1
36
  7
SLDTEXTSTYLE1
 73
     1
 44
1.0
  0
MTEXT
  5
205
330
1F
100
AcDbEntity
  8
TITLE
100
AcDbMText
 10
20.391183426
 20
119.7472007792
 30
0.0
 40
0.125
 41
0.0
 71
     2
 72
     1
  1
36
  7
SLDTEXTSTYLE1
 73
     1
 44
1.0
  0
MTEXT
  5
206
330
1F
100
AcDbEntity
  8
TITLE
100
AcDbMText
 10
22.359687363
 20
0.4125551099
 30
0.0
 40
0.125
 41
0.0
 71
     2
 72
     1
  1
35
  7
SLDTEXTSTYLE1
 73
     1
 44
1.0
  0
MTEXT
  5
207
330
1F
100
AcDbEntity
  8
TITLE
100
AcDbMText
 10
22.359687363
 20
119.7472007792
 30
0.0
 40
0.125
 41
0.0
 71
     2
 72
     1
  1
35
  7
SLDTEXTSTYLE1
 73
     1
 44
1.0
  0
MTEXT
  5
208
330
1F
100
AcDbEntity
  8
TITLE
100
AcDbMText
 10
24.3281913
 20
0.4125551099
 30
0.0
 40
0.125
 41
0.0
 71
     2
 72
     1
  1
34
  7
SLDTEXTSTYLE1
 73
     1
 44
1.0
  0
MTEXT
  5
209
330
1F
100
AcDbEntity
  8
TITLE
100
AcDbMText
 10
24.3281913
 20
119.7472007792
 30
0.0
 40
0.125
 41
0.0
 71
     2
 72
     1
  1
34
  7
SLDTEXTSTYLE1
 73
     1
 44
1.0
  0
MTEXT
  5
20A
330
1F
100
AcDbEntity
  8
TITLE
100
AcDbMText
 10
26.2966952371
 20
0.4125551099
 30
0.0
 40
0.125
 41
0.0
 71
     2
 72
     1
  1
33
  7
SLDTEXTSTYLE1
 73
     1
 44
1.0
  0
MTEXT
  5
20B
330
1F
100
AcDbEntity
  8
TITLE
100
AcDbMText
 10
26.2966952371
 20
119.7472007792
 30
0.0
 40
0.125
 41
0.0
 71
     2
 72
     1
  1
33
  7
SLDTEXTSTYLE1
 73
     1
 44
1.0
  0
MTEXT
  5
20C
330
1F
100
AcDbEntity
  8
TITLE
100
AcDbMText
 10
28.2651991741
 20
0.4125551099
 30
0.0
 40
0.125
 41
0.0
 71
     2
 72
     1
  1
32
  7
SLDTEXTSTYLE1
 73
     1
 44
1.0
  0
MTEXT
  5
20D
330
1F
100
AcDbEntity
  8
TITLE
100
AcDbMText
 10
28.2651991741
 20
119.7472007792
 30
0.0
 40
0.125
 41
0.0
 71
     2
 72
     1
  1
32
  7
SLDTEXTSTYLE1
 73
     1
 44
1.0
  0
MTEXT
  5
20E
330
1F
100
AcDbEntity
  8
TITLE
100
AcDbMText
 10
30.2337031111
 20
0.4125551099
 30
0.0
 40
0.125
 41
0.0
 71
     2
 72
     1
  1
31
  7
SLDTEXTSTYLE1
 73
     1
 44
1.0
  0
MTEXT
  5
20F
330
1F
100
AcDbEntity
  8
TITLE
100
AcDbMText
 10
30.2337031111
 20
119.7472007792
 30
0.0
 40
0.125
 41
0.0
 71
     2
 72
     1
  1
31
  7
SLDTEXTSTYLE1
 73
     1
 44
1.0
  0
MTEXT
  5
210
330
1F
100
AcDbEntity
  8
TITLE
100
AcDbMText
 10
32.2022070481
 20
0.4125551099
 30
0.0
 40
0.125
 41
0.0
 71
     2
 72
     1
  1
30
  7
SLDTEXTSTYLE1
 73
     1
 44
1.0
  0
MTEXT
  5
211
330
1F
100
AcDbEntity
  8
TITLE
100
AcDbMText
 10
32.2022070481
 20
119.7472007792
 30
0.0
 40
0.125
 41
0.0
 71
     2
 72
     1
  1
30
  7
SLDTEXTSTYLE1
 73
     1
 44
1.0
  0
MTEXT
  5
212
330
1F
100
AcDbEntity
  8
TITLE
100
AcDbMText
 10
34.1707109851
 20
0.4125551099
 30
0.0
 40
0.125
 41
0.0
 71
     2
 72
     1
  1
29
  7
SLDTEXTSTYLE1
 73
     1
 44
1.0
  0
MTEXT
  5
213
330
1F
100
AcDbEntity
  8
TITLE
100
AcDbMText
 10
34.1707109851
 20
119.7472007792
 30
0.0
 40
0.125
 41
0.0
 71
     2
 72
     1
  1
29
  7
SLDTEXTSTYLE1
 73
     1
 44
1.0
  0
MTEXT
  5
214
330
1F
100
AcDbEntity
  8
TITLE
100
AcDbMText
 10
36.1392149221
 20
0.4125551099
 30
0.0
 40
0.125
 41
0.0
 71
     2
 72
     1
  1
28
  7
SLDTEXTSTYLE1
 73
     1
 44
1.0
  0
MTEXT
  5
215
330
1F
100
AcDbEntity
  8
TITLE
100
AcDbMText
 10
36.1392149221
 20
119.7472007792
 30
0.0
 40
0.125
 41
0.0
 71
     2
 72
     1
  1
28
  7
SLDTEXTSTYLE1
 73
     1
 44
1.0
  0
MTEXT
  5
216
330
1F
100
AcDbEntity
  8
TITLE
100
AcDbMText
 10
38.1077188591
 20
0.4125551099
 30
0.0
 40
0.125
 41
0.0
 71
     2
 72
     1
  1
27
  7
SLDTEXTSTYLE1
 73
     1
 44
1.0
  0
MTEXT
  5
217
330
1F
100
AcDbEntity
  8
TITLE
100
AcDbMText
 10
38.1077188591
 20
119.7472007792
 30
0.0
 40
0.125
 41
0.0
 71
     2
 72
     1
  1
27
  7
SLDTEXTSTYLE1
 73
     1
 44
1.0
  0
MTEXT
  5
218
330
1F
100
AcDbEntity
  8
TITLE
100
AcDbMText
 10
40.0762227961
 20
0.4125551099
 30
0.0
 40
0.125
 41
0.0
 71
     2
 72
     1
  1
26
  7
SLDTEXTSTYLE1
 73
     1
 44
1.0
  0
MTEXT
  5
219
330
1F
100
AcDbEntity
  8
TITLE
100
AcDbMText
 10
40.0762227961
 20
119.7472007792
 30
0.0
 40
0.125
 41
0.0
 71
     2
 72
     1
  1
26
  7
SLDTEXTSTYLE1
 73
     1
 44
1.0
  0
MTEXT
  5
21A
330
1F
100
AcDbEntity
  8
TITLE
100
AcDbMText
 10
42.0447267331
 20
0.4125551099
 30
0.0
 40
0.125
 41
0.0
 71
     2
 72
     1
  1
25
  7
SLDTEXTSTYLE1
 73
     1
 44
1.0
  0
MTEXT
  5
21B
330
1F
100
AcDbEntity
  8
TITLE
100
AcDbMText
 10
42.0447267331
 20
119.7472007792
 30
0.0
 40
0.125
 41
0.0
 71
     2
 72
     1
  1
25
  7
SLDTEXTSTYLE1
 73
     1
 44
1.0
  0
MTEXT
  5
21C
330
1F
100
AcDbEntity
  8
TITLE
100
AcDbMText
 10
44.0132306701
 20
0.4125551099
 30
0.0
 40
0.125
 41
0.0
 71
     2
 72
     1
  1
24
  7
SLDTEXTSTYLE1
 73
     1
 44
1.0
  0
MTEXT
  5
21D
330
1F
100
AcDbEntity
  8
TITLE
100
AcDbMText
 10
44.0132306701
 20
119.7472007792
 30
0.0
 40
0.125
 41
0.0
 71
     2
 72
     1
  1
24
  7
SLDTEXTSTYLE1
 73
     1
 44
1.0
  0
MTEXT
  5
21E
330
1F
100
AcDbEntity
  8
TITLE
100
AcDbMText
 10
45.9817346071
 20
0.4125551099
 30
0.0
 40
0.125
 41
0.0
 71
     2
 72
     1
  1
23
  7
SLDTEXTSTYLE1
 73
     1
 44
1.0
  0
MTEXT
  5
21F
330
1F
100
AcDbEntity
  8
TITLE
100
AcDbMText
 10
45.9817346071
 20
119.7472007792
 30
0.0
 40
0.125
 41
0.0
 71
     2
 72
     1
  1
23
  7
SLDTEXTSTYLE1
 73
     1
 44
1.0
  0
MTEXT
  5
220
330
1F
100
AcDbEntity
  8
TITLE
100
AcDbMText
 10
47.9502385441
 20
0.4125551099
 30
0.0
 40
0.125
 41
0.0
 71
     2
 72
     1
  1
22
  7
SLDTEXTSTYLE1
 73
     1
 44
1.0
  0
MTEXT
  5
221
330
1F
100
AcDbEntity
  8
TITLE
100
AcDbMText
 10
47.9502385441
 20
119.7472007792
 30
0.0
 40
0.125
 41
0.0
 71
     2
 72
     1
  1
22
  7
SLDTEXTSTYLE1
 73
     1
 44
1.0
  0
MTEXT
  5
222
330
1F
100
AcDbEntity
  8
TITLE
100
AcDbMText
 10
49.9187424811
 20
0.4125551099
 30
0.0
 40
0.125
 41
0.0
 71
     2
 72
     1
  1
21
  7
SLDTEXTSTYLE1
 73
     1
 44
1.0
  0
MTEXT
  5
223
330
1F
100
AcDbEntity
  8
TITLE
100
AcDbMText
 10
49.9187424811
 20
119.7472007792
 30
0.0
 40
0.125
 41
0.0
 71
     2
 72
     1
  1
21
  7
SLDTEXTSTYLE1
 73
     1
 44
1.0
  0
MTEXT
  5
224
330
1F
100
AcDbEntity
  8
TITLE
100
AcDbMText
 10
51.8872464182
 20
0.4125551099
 30
0.0
 40
0.125
 41
0.0
 71
     2
 72
     1
  1
20
  7
SLDTEXTSTYLE1
 73
     1
 44
1.0
  0
MTEXT
  5
225
330
1F
100
AcDbEntity
  8
TITLE
100
AcDbMText
 10
51.8872464182
 20
119.7472007792
 30
0.0
 40
0.125
 41
0.0
 71
     2
 72
     1
  1
20
  7
SLDTEXTSTYLE1
 73
     1
 44
1.0
  0
MTEXT
  5
226
330
1F
100
AcDbEntity
  8
TITLE
100
AcDbMText
 10
53.8557503552
 20
0.4125551099
 30
0.0
 40
0.125
 41
0.0
 71
     2
 72
     1
  1
19
  7
SLDTEXTSTYLE1
 73
     1
 44
1.0
  0
MTEXT
  5
227
330
1F
100
AcDbEntity
  8
TITLE
100
AcDbMText
 10
53.8557503552
 20
119.7472007792
 30
0.0
 40
0.125
 41
0.0
 71
     2
 72
     1
  1
19
  7
SLDTEXTSTYLE1
 73
     1
 44
1.0
  0
MTEXT
  5
228
330
1F
100
AcDbEntity
  8
TITLE
100
AcDbMText
 10
55.8242542922
 20
0.4125551099
 30
0.0
 40
0.125
 41
0.0
 71
     2
 72
     1
  1
18
  7
SLDTEXTSTYLE1
 73
     1
 44
1.0
  0
MTEXT
  5
229
330
1F
100
AcDbEntity
  8
TITLE
100
AcDbMText
 10
55.8242542922
 20
119.7472007792
 30
0.0
 40
0.125
 41
0.0
 71
     2
 72
     1
  1
18
  7
SLDTEXTSTYLE1
 73
     1
 44
1.0
  0
MTEXT
  5
22A
330
1F
100
AcDbEntity
  8
TITLE
100
AcDbMText
 10
57.7927582292
 20
0.4125551099
 30
0.0
 40
0.125
 41
0.0
 71
     2
 72
     1
  1
17
  7
SLDTEXTSTYLE1
 73
     1
 44
1.0
  0
MTEXT
  5
22B
330
1F
100
AcDbEntity
  8
TITLE
100
AcDbMText
 10
57.7927582292
 20
119.7472007792
 30
0.0
 40
0.125
 41
0.0
 71
     2
 72
     1
  1
17
  7
SLDTEXTSTYLE1
 73
     1
 44
1.0
  0
MTEXT
  5
22C
330
1F
100
AcDbEntity
  8
TITLE
100
AcDbMText
 10
59.7612621662
 20
0.4125551099
 30
0.0
 40
0.125
 41
0.0
 71
     2
 72
     1
  1
16
  7
SLDTEXTSTYLE1
 73
     1
 44
1.0
  0
MTEXT
  5
22D
330
1F
100
AcDbEntity
  8
TITLE
100
AcDbMText
 10
59.7612621662
 20
119.7472007792
 30
0.0
 40
0.125
 41
0.0
 71
     2
 72
     1
  1
16
  7
SLDTEXTSTYLE1
 73
     1
 44
1.0
  0
MTEXT
  5
22E
330
1F
100
AcDbEntity
  8
TITLE
100
AcDbMText
 10
61.7297661032
 20
0.4125551099
 30
0.0
 40
0.125
 41
0.0
 71
     2
 72
     1
  1
15
  7
SLDTEXTSTYLE1
 73
     1
 44
1.0
  0
MTEXT
  5
22F
330
1F
100
AcDbEntity
  8
TITLE
100
AcDbMText
 10
61.7297661032
 20
119.7472007792
 30
0.0
 40
0.125
 41
0.0
 71
     2
 72
     1
  1
15
  7
SLDTEXTSTYLE1
 73
     1
 44
1.0
  0
MTEXT
  5
230
330
1F
100
AcDbEntity
  8
TITLE
100
AcDbMText
 10
63.6982700402
 20
0.4125551099
 30
0.0
 40
0.125
 41
0.0
 71
     2
 72
     1
  1
14
  7
SLDTEXTSTYLE1
 73
     1
 44
1.0
  0
MTEXT
  5
231
330
1F
100
AcDbEntity
  8
TITLE
100
AcDbMText
 10
63.6982700402
 20
119.7472007792
 30
0.0
 40
0.125
 41
0.0
 71
     2
 72
     1
  1
14
  7
SLDTEXTSTYLE1
 73
     1
 44
1.0
  0
MTEXT
  5
232
330
1F
100
AcDbEntity
  8
TITLE
100
AcDbMText
 10
65.6667739772
 20
0.4125551099
 30
0.0
 40
0.125
 41
0.0
 71
     2
 72
     1
  1
13
  7
SLDTEXTSTYLE1
 73
     1
 44
1.0
  0
MTEXT
  5
233
330
1F
100
AcDbEntity
  8
TITLE
100
AcDbMText
 10
65.6667739772
 20
119.7472007792
 30
0.0
 40
0.125
 41
0.0
 71
     2
 72
     1
  1
13
  7
SLDTEXTSTYLE1
 73
     1
 44
1.0
  0
MTEXT
  5
234
330
1F
100
AcDbEntity
  8
TITLE
100
AcDbMText
 10
67.6352779142
 20
0.4125551099
 30
0.0
 40
0.125
 41
0.0
 71
     2
 72
     1
  1
12
  7
SLDTEXTSTYLE1
 73
     1
 44
1.0
  0
MTEXT
  5
235
330
1F
100
AcDbEntity
  8
TITLE
100
AcDbMText
 10
67.6352779142
 20
119.7472007792
 30
0.0
 40
0.125
 41
0.0
 71
     2
 72
     1
  1
12
  7
SLDTEXTSTYLE1
 73
     1
 44
1.0
  0
MTEXT
  5
236
330
1F
100
AcDbEntity
  8
TITLE
100
AcDbMText
 10
69.6037818512
 20
0.4125551099
 30
0.0
 40
0.125
 41
0.0
 71
     2
 72
     1
  1
11
  7
SLDTEXTSTYLE1
 73
     1
 44
1.0
  0
MTEXT
  5
237
330
1F
100
AcDbEntity
  8
TITLE
100
AcDbMText
 10
69.6037818512
 20
119.7472007792
 30
0.0
 40
0.125
 41
0.0
 71
     2
 72
     1
  1
11
  7
SLDTEXTSTYLE1
 73
     1
 44
1.0
  0
MTEXT
  5
238
330
1F
100
AcDbEntity
  8
TITLE
100
AcDbMText
 10
71.5722857882
 20
0.4125551099
 30
0.0
 40
0.125
 41
0.0
 71
     2
 72
     1
  1
10
  7
SLDTEXTSTYLE1
 73
     1
 44
1.0
  0
MTEXT
  5
239
330
1F
100
AcDbEntity
  8
TITLE
100
AcDbMText
 10
71.5722857882
 20
119.7472007792
 30
0.0
 40
0.125
 41
0.0
 71
     2
 72
     1
  1
10
  7
SLDTEXTSTYLE1
 73
     1
 44
1.0
  0
MTEXT
  5
23A
330
1F
100
AcDbEntity
  8
TITLE
100
AcDbMText
 10
73.5420484059
 20
0.4125551099
 30
0.0
 40
0.125
 41
0.0
 71
     2
 72
     1
  1
9
  7
SLDTEXTSTYLE1
 73
     1
 44
1.0
  0
MTEXT
  5
23B
330
1F
100
AcDbEntity
  8
TITLE
100
AcDbMText
 10
73.5420484059
 20
119.7472007792
 30
0.0
 40
0.125
 41
0.0
 71
     2
 72
     1
  1
9
  7
SLDTEXTSTYLE1
 73
     1
 44
1.0
  0
MTEXT
  5
23C
330
1F
100
AcDbEntity
  8
TITLE
100
AcDbMText
 10
75.5105523429
 20
0.4125551099
 30
0.0
 40
0.125
 41
0.0
 71
     2
 72
     1
  1
8
  7
SLDTEXTSTYLE1
 73
     1
 44
1.0
  0
MTEXT
  5
23D
330
1F
100
AcDbEntity
  8
TITLE
100
AcDbMText
 10
75.5105523429
 20
119.7472007792
 30
0.0
 40
0.125
 41
0.0
 71
     2
 72
     1
  1
8
  7
SLDTEXTSTYLE1
 73
     1
 44
1.0
  0
MTEXT
  5
23E
330
1F
100
AcDbEntity
  8
TITLE
100
AcDbMText
 10
77.4790562799
 20
0.4125551099
 30
0.0
 40
0.125
 41
0.0
 71
     2
 72
     1
  1
7
  7
SLDTEXTSTYLE1
 73
     1
 44
1.0
  0
MTEXT
  5
23F
330
1F
100
AcDbEntity
  8
TITLE
100
AcDbMText
 10
77.4790562799
 20
119.7472007792
 30
0.0
 40
0.125
 41
0.0
 71
     2
 72
     1
  1
7
  7
SLDTEXTSTYLE1
 73
     1
 44
1.0
  0
MTEXT
  5
240
330
1F
100
AcDbEntity
  8
TITLE
100
AcDbMText
 10
79.447560217
 20
0.4125551099
 30
0.0
 40
0.125
 41
0.0
 71
     2
 72
     1
  1
6
  7
SLDTEXTSTYLE1
 73
     1
 44
1.0
  0
MTEXT
  5
241
330
1F
100
AcDbEntity
  8
TITLE
100
AcDbMText
 10
79.447560217
 20
119.7472007792
 30
0.0
 40
0.125
 41
0.0
 71
     2
 72
     1
  1
6
  7
SLDTEXTSTYLE1
 73
     1
 44
1.0
  0
MTEXT
  5
242
330
1F
100
AcDbEntity
  8
TITLE
100
AcDbMText
 10
81.416064154
 20
0.4125551099
 30
0.0
 40
0.125
 41
0.0
 71
     2
 72
     1
  1
5
  7
SLDTEXTSTYLE1
 73
     1
 44
1.0
  0
MTEXT
  5
243
330
1F
100
AcDbEntity
  8
TITLE
100
AcDbMText
 10
81.416064154
 20
119.7472007792
 30
0.0
 40
0.125
 41
0.0
 71
     2
 72
     1
  1
5
  7
SLDTEXTSTYLE1
 73
     1
 44
1.0
  0
MTEXT
  5
244
330
1F
100
AcDbEntity
  8
TITLE
100
AcDbMText
 10
83.384568091
 20
0.4125551099
 30
0.0
 40
0.125
 41
0.0
 71
     2
 72
     1
  1
4
  7
SLDTEXTSTYLE1
 73
     1
 44
1.0
  0
MTEXT
  5
245
330
1F
100
AcDbEntity
  8
TITLE
100
AcDbMText
 10
83.384568091
 20
119.7472007792
 30
0.0
 40
0.125
 41
0.0
 71
     2
 72
     1
  1
4
  7
SLDTEXTSTYLE1
 73
     1
 44
1.0
  0
MTEXT
  5
246
330
1F
100
AcDbEntity
  8
TITLE
100
AcDbMText
 10
85.353072028
 20
0.4125551099
 30
0.0
 40
0.125
 41
0.0
 71
     2
 72
     1
  1
3
  7
SLDTEXTSTYLE1
 73
     1
 44
1.0
  0
MTEXT
  5
247
330
1F
100
AcDbEntity
  8
TITLE
100
AcDbMText
 10
85.353072028
 20
119.7472007792
 30
0.0
 40
0.125
 41
0.0
 71
     2
 72
     1
  1
3
  7
SLDTEXTSTYLE1
 73
     1
 44
1.0
  0
MTEXT
  5
248
330
1F
100
AcDbEntity
  8
TITLE
100
AcDbMText
 10
87.321575965
 20
0.4125551099
 30
0.0
 40
0.125
 41
0.0
 71
     2
 72
     1
  1
2
  7
SLDTEXTSTYLE1
 73
     1
 44
1.0
  0
MTEXT
  5
249
330
1F
100
AcDbEntity
  8
TITLE
100
AcDbMText
 10
87.321575965
 20
119.7472007792
 30
0.0
 40
0.125
 41
0.0
 71
     2
 72
     1
  1
2
  7
SLDTEXTSTYLE1
 73
     1
 44
1.0
  0
MTEXT
  5
24A
330
1F
100
AcDbEntity
  8
TITLE
100
AcDbMText
 10
88.9022846264
 20
0.4125551099
 30
0.0
 40
0.125
 41
0.0
 71
     2
 72
     1
  1
1
  7
SLDTEXTSTYLE1
 73
     1
 44
1.0
  0
MTEXT
  5
24B
330
1F
100
AcDbEntity
  8
TITLE
100
AcDbMText
 10
88.9022846264
 20
119.7472007792
 30
0.0
 40
0.125
 41
0.0
 71
     2
 72
     1
  1
1
  7
SLDTEXTSTYLE1
 73
     1
 44
1.0
  0
LINE
  5
24C
330
1F
100
AcDbEntity
  8
OBJECT
  6
SLD-Solid
370
    25
100
AcDbLine
 10
46.9417734403
 20
24.6297897416
 30
0.0
 11
53.4417734403
 21
24.6297897416
 31
0.0
  0
LINE
  5
24D
330
1F
100
AcDbEntity
  8
OBJECT
  6
SLD-Solid
370
    25
100
AcDbLine
 10
53.4417734403
 20
25.8947897416
 30
0.0
 11
46.9417734403
 21
25.8947897416
 31
0.0
  0
LINE
  5
24E
330
1F
100
AcDbEntity
  8
OBJECT
  6
SLD-Solid
370
    25
100
AcDbLine
 10
55.5742734402
 20
51.2622897416
 30
0.0
 11
55.5742734402
 21
53.3092897416
 31
0.0
  0
LINE
  5
24F
330
1F
100
AcDbEntity
  8
OBJECT
  6
SLD-Solid
370
    25
100
AcDbLine
 10
54.3092734402
 20
53.3092897416
 30
0.0
 11
54.3092734402
 21
51.2622897416
 31
0.0
  0
LINE
  5
250
330
1F
100
AcDbEntity
  8
OBJECT
  6
SLD-Solid
370
    25
100
AcDbLine
 10
55.5742734403
 20
26.7622897416
 30
0.0
 11
55.5742734403
 21
29.2622897416
 31
0.0
  0
LINE
  5
251
330
1F
100
AcDbEntity
  8
OBJECT
  6
SLD-Solid
370
    25
100
AcDbLine
 10
54.3092734403
 20
29.2622897416
 30
0.0
 11
54.3092734403
 21
26.7622897416
 31
0.0
  0
LINE
  5
252
330
1F
100
AcDbEntity
  8
OBJECT
  6
SLD-Solid
370
    25
100
AcDbLine
 10
18.9417734403
 20
24.6297897416
 30
0.0
 11
46.9417734403
 21
24.6297897416
 31
0.0
  0
LINE
  5
253
330
1F
100
AcDbEntity
  8
OBJECT
  6
SLD-Solid
370
    25
100
AcDbLine
 10
46.9417734403
 20
25.8947897416
 30
0.0
 11
18.9417734403
 21
25.8947897416
 31
0.0
  0
ARC
  5
254
330
1F
100
AcDbEntity
  8
OBJECT
  6
SLD-Solid
370
    25
100
AcDbCircle
 10
53.4417734403
 20
26.7622897416
 30
0.0
 40
0.8675000000000068
100
AcDbArc
 50
270.0
 51
0.0
  0
ARC
  5
255
330
1F
100
AcDbEntity
  8
OBJECT
  6
SLD-Solid
370
    25
100
AcDbCircle
 10
53.4417734403
 20
26.7622897416
 30
0.0
 40
2.132500000000004
100
AcDbArc
 50
270.0
 51
0.0
  0
LINE
  5
256
330
1F
100
AcDbEntity
  8
OBJECT
  6
SLD-Solid
370
    25
100
AcDbLine
 10
54.3092734402
 20
55.2622897416
 30
0.0
 11
54.3092734402
 21
53.3092897416
 31
0.0
  0
LINE
  5
257
330
1F
100
AcDbEntity
  8
OBJECT
  6
SLD-Solid
370
    25
100
AcDbLine
 10
55.5742734402
 20
53.3092897416
 30
0.0
 11
55.5742734402
 21
55.2622897416
 31
0.0
  0
LINE
  5
258
330
1F
100
AcDbEntity
  8
OBJECT
  6
SLD-Solid
370
    25
100
AcDbLine
 10
55.5742734403
 20
29.2622897416
 30
0.0
 11
55.5742734402
 21
51.2622897416
 31
0.0
  0
LINE
  5
259
330
1F
100
AcDbEntity
  8
OBJECT
  6
SLD-Solid
370
    25
100
AcDbLine
 10
54.3092734402
 20
51.2622897416
 30
0.0
 11
54.3092734403
 21
29.2622897416
 31
0.0
  0
LINE
  5
25A
330
1F
100
AcDbEntity
  8
OBJECT
  6
SLD-Solid
370
    25
100
AcDbLine
 10
16.8947734403
 20
24.6297897415
 30
0.0
 11
18.9417734403
 21
24.6297897416
 31
0.0
  0
LINE
  5
25B
330
1F
100
AcDbEntity
  8
OBJECT
  6
SLD-Solid
370
    25
100
AcDbLine
 10
18.9417734403
 20
25.8947897416
 30
0.0
 11
16.8947734403
 21
25.8947897415
 31
0.0
  0
LINE
  5
25C
330
1F
100
AcDbEntity
  8
OBJECT
  6
SLD-Solid
370
    25
100
AcDbLine
 10
16.8947734403
 20
25.8947897415
 30
0.0
 11
14.9417734403
 21
25.8947897415
 31
0.0
  0
LINE
  5
25D
330
1F
100
AcDbEntity
  8
OBJECT
  6
SLD-Solid
370
    25
100
AcDbLine
 10
14.9417734403
 20
24.6297897415
 30
0.0
 11
16.8947734403
 21
24.6297897415
 31
0.0
  0
ARC
  5
25E
330
1F
100
AcDbEntity
  8
OBJECT
  6
SLD-Solid
370
    25
100
AcDbCircle
 10
54.9417734402
 20
55.2622897416
 30
0.0
 40
0.6325000000000074
100
AcDbArc
 50
0.0
 51
180.0
  0
ARC
  5
25F
330
1F
100
AcDbEntity
  8
OBJECT
  6
SLD-Solid
370
    25
100
AcDbCircle
 10
14.9417734403
 20
25.2622897415
 30
0.0
 40
0.6325000000000038
100
AcDbArc
 50
90.0
 51
270.0
  0
ARC
  5
260
330
1F
100
AcDbEntity
  8
OBJECT
  6
SLD-Solid
370
    25
100
AcDbCircle
 10
14.9417734403
 20
25.2622897415
 30
0.0
 40
0.6550000000000032
100
AcDbArc
 50
74.9388077193
 51
285.0611922807
  0
ARC
  5
261
330
1F
100
AcDbEntity
  8
OBJECT
  6
SLD-Solid
370
    25
100
AcDbCircle
 10
14.9417734403
 20
25.2622897415
 30
0.0
 40
1.529999999999999
100
AcDbArc
 50
24.4185149509
 51
180.0
  0
ARC
  5
262
330
1F
100
AcDbEntity
  8
OBJECT
  6
SLD-Solid
370
    25
100
AcDbCircle
 10
14.9417734403
 20
25.2622897415
 30
0.0
 40
1.530000000000005
100
AcDbArc
 50
180.0
 51
335.5814850491
  0
ARC
  5
263
330
1F
100
AcDbEntity
  8
OBJECT
  6
SLD-Solid
370
    25
100
AcDbCircle
 10
49.0042734403
 20
25.2622897416
 30
0.0
 40
0.6550000000000002
100
AcDbArc
 50
254.9388077193
 51
285.0611922808
  0
ARC
  5
264
330
1F
100
AcDbEntity
  8
OBJECT
  6
SLD-Solid
370
    25
100
AcDbCircle
 10
49.0042734403
 20
25.2622897416
 30
0.0
 40
0.6550000000000044
100
AcDbArc
 50
74.9388077193
 51
105.0611922807
  0
ARC
  5
265
330
1F
100
AcDbEntity
  8
OBJECT
  6
SLD-Solid
370
    25
100
AcDbCircle
 10
49.0042734403
 20
25.2622897416
 30
0.0
 40
1.530000000000005
100
AcDbArc
 50
24.4185149509
 51
155.5814850491
  0
ARC
  5
266
330
1F
100
AcDbEntity
  8
OBJECT
  6
SLD-Solid
370
    25
100
AcDbCircle
 10
49.0042734403
 20
25.2622897416
 30
0.0
 40
1.530000000000007
100
AcDbArc
 50
204.4185149509
 51
335.5814850491
  0
LWPOLYLINE
  5
267
330
1F
100
AcDbEntity
  8
OBJECT
  6
SLD-Solid
370
    25
100
AcDbPolyline
 90
        3
 70
   128
 43
0.0
 10
55.5967734402
 20
55.2622897416
 10
55.5897933463
 20
55.1669209767
 10
55.5742734402
 20
55.0920876558
  0
ARC
  5
268
330
1F
100
AcDbEntity
  8
OBJECT
  6
SLD-Solid
370
    25
100
AcDbCircle
 10
54.9417734402
 20
55.2622897416
 30
0.0
 40
0.6550000000000098
100
AcDbArc
 50
0.0
 51
195.0611922807
  0
ARC
  5
269
330
1F
100
AcDbEntity
  8
OBJECT
  6
SLD-Solid
370
    25
100
AcDbCircle
 10
54.9417734402
 20
55.2622897416
 30
0.0
 40
1.530000000000008
100
AcDbArc
 50
294.4185149509
 51
180.0
  0
ARC
  5
26A
330
1F
100
AcDbEntity
  8
OBJECT
  6
SLD-Solid
370
    25
100
AcDbCircle
 10
54.9417734402
 20
55.2622897416
 30
0.0
 40
1.530000000000008
100
AcDbArc
 50
180.0
 51
245.5814850491
  0
ARC
  5
26B
330
1F
100
AcDbEntity
  8
OBJECT
  6
SLD-Solid
370
    25
100
AcDbCircle
 10
14.9417734403
 20
25.2622897415
 30
0.0
 40
1.485234239225901
100
AcDbArc
 50
25.2050317453
 51
334.7949682548
  0
ARC
  5
26C
330
1F
100
AcDbEntity
  8
OBJECT
  6
SLD-Solid
370
    25
100
AcDbCircle
 10
49.0042734403
 20
25.2622897416
 30
0.0
 40
1.4852342392259
100
AcDbArc
 50
25.2050317453
 51
154.7949682548
  0
ARC
  5
26D
330
1F
100
AcDbEntity
  8
OBJECT
  6
SLD-Solid
370
    25
100
AcDbCircle
 10
49.0042734403
 20
25.2622897416
 30
0.0
 40
1.485234239225912
100
AcDbArc
 50
205.2050317453
 51
334.7949682548
  0
ARC
  5
26E
330
1F
100
AcDbEntity
  8
OBJECT
  6
SLD-Solid
370
    25
100
AcDbCircle
 10
54.9417734402
 20
55.2622897416
 30
0.0
 40
1.485234239225907
100
AcDbArc
 50
0.0
 51
244.7949682548
  0
ARC
  5
26F
330
1F
100
AcDbEntity
  8
OBJECT
  6
SLD-Solid
370
    25
100
AcDbCircle
 10
54.9417734402
 20
55.2622897416
 30
0.0
 40
1.485234239225899
100
AcDbArc
 50
295.2050317453
 51
0.0
  0
LINE
  5
270
330
1F
100
AcDbEntity
  8
DIMS
100
AcDbLine
 10
59.0695222522
 20
13.2622897416
 30
0.0
 11
59.0695222522
 21
13.8243185915
 31
0.0
  0
LINE
  5
271
330
1F
100
AcDbEntity
  8
OBJECT
100
AcDbLine
 10
61.993458182
 20
13.2622897416
 30
0.0
 11
4.9417734403
 21
13.2622897416
 31
0.0
  0
LINE
  5
272
330
1F
100
AcDbEntity
  8
DIMS
100
AcDbLine
 10
59.0695222522
 20
13.8243185915
 30
0.0
 11
59.4065545659
 21
14.1533263263
 31
0.0
  0
LINE
  5
273
330
1F
100
AcDbEntity
  8
OBJECT
100
AcDbLine
 10
4.9417734403
 20
13.2622897416
 30
0.0
 11
4.9417734403
 21
57.5161184438
 31
0.0
  0
LINE
  5
274
330
1F
100
AcDbEntity
  8
DIMS
100
AcDbLine
 10
4.9417734403
 20
21.8961857793
 30
0.0
 11
6.6996886931
 21
21.8961857793
 31
0.0
  0
LINE
  5
275
330
1F
100
AcDbEntity
  8
DIMS
100
AcDbLine
 10
6.6996886931
 20
21.8961857793
 30
0.0
 11
7.1607680077
 21
21.4715706101
 31
0.0
  0
LINE
  5
276
330
1F
100
AcDbEntity
  8
DIMS
100
AcDbLine
 10
7.1607680077
 20
21.4715706101
 30
0.0
 11
7.8627640792
 21
22.3208009486
 31
0.0
  0
LINE
  5
277
330
1F
100
AcDbEntity
  8
DIMS
100
AcDbLine
 10
7.8627640792
 20
22.3208009486
 30
0.0
 11
8.3238433938
 21
21.8961857793
 31
0.0
  0
LINE
  5
278
330
1F
100
AcDbEntity
  8
DIMS
100
AcDbLine
 10
8.3238433938
 20
21.8961857793
 30
0.0
 11
8.9592232839
 21
21.8961857793
 31
0.0
  0
LINE
  5
279
330
1F
100
AcDbEntity
  8
DIMS
100
AcDbLine
 10
59.4065545659
 20
14.1533263263
 30
0.0
 11
58.7235666
 21
14.5283274023
 31
0.0
  0
LINE
  5
27A
330
1F
100
AcDbEntity
  8
DIMS
100
AcDbLine
 10
58.7235666
 20
14.5283274023
 30
0.0
 11
59.0695222522
 21
14.8660460152
 31
0.0
  0
LINE
  5
27B
330
1F
100
AcDbEntity
  8
DIMS
100
AcDbLine
 10
59.0695222522
 20
14.8660460152
 30
0.0
 11
59.0695222522
 21
15.4515299119
 31
0.0
  0
HATCH
  5
27C
330
1F
100
AcDbEntity
  8
NOTES
100
AcDbHatch
 10
0.0
 20
0.0
 30
0.0
210
0.0
220
0.0
230
1.0
  2
AR-SAND
 70
     0
 71
     0
 91
        1
 92
        0
 93
        4
 72
     1
 10
54.30927344025696
 20
29.26228974156584
 11
55.54427344025805
 21
29.26228974156584
 72
     1
 10
55.54427344025805
 20
29.26228974156584
 11
55.5442734402579
 21
51.26228974156584
 72
     1
 10
55.5442734402579
 20
51.26228974156584
 11
54.3092734402568
 21
51.26228974156584
 72
     1
 10
54.3092734402568
 20
51.26228974156584
 11
54.30927344025696
 21
29.26228974156584
 97
        0
 75
     0
 76
     1
 52
0.0
 41
5.3333333333
 77
     0
 78
     4
 53
37.5
 43
0.0
 44
0.0
 45
-0.3359645765845768
 46
10.27639343473685
 79
     6
 49
0.0
 49
-8.106666666666666
 49
0.0
 49
-9.066666666666666
 49
0.0
 49
-8.666666666666666
 53
7.5
 43
0.0
 44
0.0
 45
9.438809094761211
 46
15.05144568122528
 79
     6
 49
0.0
 49
-4.373333333333333
 49
0.0
 49
-7.306666666666667
 49
0.0
 49
-2.8
 53
-32.5
 43
-6.56
 44
0.0
 45
16.60875659600797
 46
0.0301816188638118
 79
     6
 49
0.0
 49
-2.666666666666667
 49
0.0
 49
-9.6
 49
0.0
 49
-12.53333333333333
 53
-42.50000000000001
 43
-6.56
 44
0.0
 45
16.03267522438556
 46
4.680936346315996
 79
     6
 49
0.0
 49
-1.333333333333333
 49
0.0
 49
-6.293333333333333
 49
0.0
 49
-7.2
 98
        1
 10
0.0
 20
0.0
  0
HATCH
  5
27D
330
1F
100
AcDbEntity
  8
NOTES
100
AcDbHatch
 10
0.0
 20
0.0
 30
0.0
210
0.0
220
0.0
230
1.0
  2
AR-SAND
 70
     0
 71
     0
 91
        1
 92
        0
 93
        4
 72
     1
 10
46.94177344025901
 20
24.62978974156263
 11
46.941773440259
 21
25.89478974156547
 72
     1
 10
46.941773440259
 20
25.89478974156547
 11
18.94177344025845
 21
25.89478974156527
 72
     1
 10
18.94177344025845
 20
25.89478974156527
 11
18.94177344025846
 21
24.62978974156243
 72
     1
 10
18.94177344025846
 20
24.62978974156243
 11
46.94177344025901
 21
24.62978974156263
 97
        0
 75
     0
 76
     1
 52
0.0
 41
5.3333333333
 77
     0
 78
     4
 53
37.5
 43
0.0
 44
0.0
 45
-0.3359645765845768
 46
10.27639343473685
 79
     6
 49
0.0
 49
-8.106666666666666
 49
0.0
 49
-9.066666666666666
 49
0.0
 49
-8.666666666666666
 53
7.5
 43
0.0
 44
0.0
 45
9.438809094761211
 46
15.05144568122528
 79
     6
 49
0.0
 49
-4.373333333333333
 49
0.0
 49
-7.306666666666667
 49
0.0
 49
-2.8
 53
-32.5
 43
-6.56
 44
0.0
 45
16.60875659600797
 46
0.0301816188638118
 79
     6
 49
0.0
 49
-2.666666666666667
 49
0.0
 49
-9.6
 49
0.0
 49
-12.53333333333333
 53
-42.50000000000001
 43
-6.56
 44
0.0
 45
16.03267522438556
 46
4.680936346315996
 79
     6
 49
0.0
 49
-1.333333333333333
 49
0.0
 49
-6.293333333333333
 49
0.0
 49
-7.2
 98
        1
 10
0.0
 20
0.0
  0
DIMENSION
  5
27E
330
1F
100
AcDbEntity
  8
DIMS
100
AcDbDimension
  2
_D
 10
59.0685338735
 20
13.2622897416
 30
0.0
 11
59.0685338735
 21
13.6280428349
 31
0.0
 70
   160
  1
24"\P\P\P\P^M\P 
 71
     2
 42
-1.0
  3
SLDDIMSTYLE0
100
AcDbAlignedDimension
 13
54.9496786511
 23
25.2543845307
 33
0.0
 14
61.993458182
 24
13.2622897416
 34
0.0
 50
90.0
100
AcDbRotatedDimension
  0
DIMENSION
  5
28F
330
1F
100
AcDbEntity
  8
DIMS
100
AcDbDimension
  2
_D_1
 10
4.9417734403
 20
21.8935765869
 30
0.0
 11
7.9767991329
 21
21.8935765869
 31
0.0
 70
   160
  1
                    20"
 71
     2
 42
-1.0
  3
SLDDIMSTYLE0
100
AcDbAlignedDimension
 13
14.9417734403
 23
25.2622897415
 33
0.0
 14
4.9417734403
 24
13.2622897416
 34
0.0
 50
0.0
100
AcDbRotatedDimension
  0
DIMENSION
  5
299
330
1F
100
AcDbEntity
  8
DIMS
100
AcDbDimension
  2
_D_2
 10
14.9417734403
 20
21.8935765869
 30
0.0
 11
33.4214571702
 21
21.8935765869
 31
0.0
 70
   160
  1
<>
 71
     2
 42
-1.0
  3
SLDDIMSTYLE0
100
AcDbAlignedDimension
 13
54.9496786511
 23
25.2543845307
 33
0.0
 14
14.9417734403
 24
25.2622897415
 34
0.0
 50
0.0
100
AcDbRotatedDimension
  0
DIMENSION
  5
2A4
330
1F
100
AcDbEntity
  8
DIMS
100
AcDbDimension
  2
_D_3
 10
14.9417734403
 20
22.9195130413
 30
0.0
 11
17.2079430966
 21
22.9195130413
 31
0.0
 70
   160
  1
<>
 71
     2
 42
-1.0
  3
SLDDIMSTYLE0
100
AcDbAlignedDimension
 13
18.9417734403
 23
24.6297897416
 33
0.0
 14
14.9417734403
 24
25.2622897415
 34
0.0
 50
0.0
100
AcDbRotatedDimension
  0
DIMENSION
  5
2AF
330
1F
100
AcDbEntity
  8
DIMS
100
AcDbDimension
  2
_D_4
 10
46.9417734403
 20
22.9195130413
 30
0.0
 11
35.6920241763
 21
22.9195130413
 31
0.0
 70
   160
  1
<>
 71
     2
 42
-1.0
  3
SLDDIMSTYLE0
100
AcDbAlignedDimension
 13
18.9417734403
 23
24.6297897416
 33
0.0
 14
46.9417734403
 24
24.6297897416
 34
0.0
 50
0.0
100
AcDbRotatedDimension
  0
DIMENSION
  5
2BA
330
1F
100
AcDbEntity
  8
DIMS
100
AcDbDimension
  2
_D_5
 10
57.5632305925
 20
29.2622897416
 30
0.0
 11
57.5632305925
 21
41.1342633754
 31
0.0
 70
   160
  1
<>
 71
     2
 42
-1.0
  3
SLDDIMSTYLE0
100
AcDbAlignedDimension
 13
55.5442734403
 23
51.2622897416
 33
0.0
 14
55.5442734403
 24
29.2622897416
 34
0.0
 50
90.0
100
AcDbRotatedDimension
  0
DIMENSION
  5
2C5
330
1F
100
AcDbEntity
  8
DIMS
100
AcDbDimension
  2
_D_6
 10
13.8636022599
 20
24.1767267973
 30
0.0
 11
19.284953605
 21
28.144242833
 31
0.0
 70
   163
  1
<>
 71
     1
 42
-1.0
  3
SLDDIMSTYLE1
100
AcDbDiametricDimension
 15
16.0199446206
 25
26.3478526858
 35
0.0
 40
0.0
  0
DIMENSION
  5
2D3
330
1F
100
AcDbEntity
  8
DIMS
100
AcDbDimension
  2
_D_7
 10
14.9417734403
 20
30.9478569383
 30
0.0
 11
31.4251777427
 21
30.9478569383
 31
0.0
 70
   160
  1
<>
 71
     2
 42
-1.0
  3
SLDDIMSTYLE2
100
AcDbAlignedDimension
 13
49.0042734403
 23
25.2622897416
 33
0.0
 14
14.9417734403
 24
25.2622897415
 34
0.0
 50
0.0
100
AcDbRotatedDimension
  0
DIMENSION
  5
2E3
330
1F
100
AcDbEntity
  8
DIMS
100
AcDbDimension
  2
_D_8
 10
59.0685338735
 20
55.2622897416
 30
0.0
 11
59.0685338735
 21
38.5016171003
 31
0.0
 70
   160
  1
<>
 71
     2
 42
-1.0
  3
SLDDIMSTYLE0
100
AcDbAlignedDimension
 13
49.0042734403
 23
25.2622897416
 33
0.0
 14
54.9417734402
 24
55.2622897416
 34
0.0
 50
90.0
100
AcDbRotatedDimension
  0
MTEXT
  5
2EE
330
1F
100
AcDbEntity
  8
NOTES
100
AcDbMText
 10
31.7877768692
 20
24.0013711663
 30
0.0
 40
0.5
 41
0.0
 71
     1
 72
     1
  1
Front view
  7
SLDTEXTSTYLE1
 73
     1
 44
1.0
  0
INSERT
  5
2F4
102
{ACAD_REACTORS
330
2F6
102
}
330
1F
100
AcDbEntity
  8
NOTES
100
AcDbBlockReference
  2
SW_NOTE_0_2
 10
14.4170199879
 20
33.5083282889
 30
0.0
  0
LEADER
  5
2F6
330
1F
100
AcDbEntity
  8
NOTES
100
AcDbLeader
  3
SLDDIMSTYLE3
 73
     2
 76
     3
 10
14.3826601451
 20
26.6864710232
 30
0.0
 10
13.9170199879
 20
33.5083282889
 30
0.0
 10
14.4170199879
 20
33.5083282889
 30
0.0
340
2F4
  0
MTEXT
  5
2F7
330
1F
100
AcDbEntity
  8
NOTES
100
AcDbMText
 10
56.0545829058
 20
14.1201869335
 30
0.0
 40
0.5
 41
0.0
 71
     1
 72
     1
  1
Floor
  7
SLDTEXTSTYLE1
 73
     1
 44
1.0
  0
MTEXT
  5
2F8
330
1F
100
AcDbEntity
  8
NOTES
100
AcDbMText
 10
6.2602184815
 20
20.3900315663
 30
0.0
 40
0.5
 41
0.0
 71
     1
 72
     1
  1
Wall
  7
SLDTEXTSTYLE1
 73
     1
 44
1.0
  0
LEADER
  5
2F9
330
1F
100
AcDbEntity
  8
NOTES
100
AcDbLeader
  3
SLDDIMSTYLE3
 76
     3
 10
4.9417734403
 20
20.1524802395
 30
0.0
 10
5.7401574803
 20
20.146729258
 30
0.0
 10
6.2401574803
 20
20.146729258
 30
0.0
  0
MTEXT
  5
2FA
330
1F
100
AcDbEntity
  8
NOTES
100
AcDbMText
 10
36.1338904566
 20
27.5859084145
 30
0.0
 40
0.5
 41
0.0
 71
     1
 72
     1
  1
peened area
  7
SLDTEXTSTYLE1
 73
     1
 44
1.0
  0
LEADER
  5
301
330
1F
100
AcDbEntity
  8
NOTES
100
AcDbLeader
  3
SLDDIMSTYLE4
 76
     3
 10
43.3162056375
 20
25.5122806607
 30
0.0
 10
41.0002484659
 20
27.3423682647
 30
0.0
 10
40.5002484659
 20
27.3423682647
 30
0.0
  0
LINE
  5
302
330
1F
100
AcDbEntity
  8
OBJECT
  6
SLD-Solid
370
    25
100
AcDbLine
 10
77.0684470546
 20
26.7622897416
 30
0.0
 11
77.0684470546
 21
25.2622897416
 31
0.0
  0
LINE
  5
303
330
1F
100
AcDbEntity
  8
OBJECT
  6
SLD-Solid
370
    25
100
AcDbLine
 10
78.3334470546
 20
25.2622897416
 30
0.0
 11
78.3334470546
 21
26.7622897416
 31
0.0
  0
LINE
  5
304
330
1F
100
AcDbEntity
  8
OBJECT
  6
SLD-Solid
370
    25
100
AcDbLine
 10
78.3334470546
 20
26.7622897416
 30
0.0
 11
78.3334470546
 21
29.2622897416
 31
0.0
  0
LINE
  5
305
330
1F
100
AcDbEntity
  8
OBJECT
  6
SLD-Solid
370
    25
100
AcDbLine
 10
77.0684470546
 20
29.2622897416
 30
0.0
 11
77.0684470546
 21
26.7622897416
 31
0.0
  0
LINE
  5
306
330
1F
100
AcDbEntity
  8
OBJECT
  6
SLD-Solid
370
    25
100
AcDbLine
 10
78.3334470546
 20
29.2622897416
 30
0.0
 11
78.3334470546
 21
51.2622897416
 31
0.0
  0
LINE
  5
307
330
1F
100
AcDbEntity
  8
OBJECT
  6
SLD-Solid
370
    25
100
AcDbLine
 10
77.0684470546
 20
51.2622897416
 30
0.0
 11
77.0684470546
 21
29.2622897416
 31
0.0
  0
LINE
  5
308
330
1F
100
AcDbEntity
  8
OBJECT
  6
SLD-Solid
370
    25
100
AcDbLine
 10
78.3334470546
 20
51.2622897416
 30
0.0
 11
78.3334470546
 21
53.3092897416
 31
0.0
  0
LINE
  5
309
330
1F
100
AcDbEntity
  8
OBJECT
  6
SLD-Solid
370
    25
100
AcDbLine
 10
77.0684470546
 20
53.3092897416
 30
0.0
 11
77.0684470546
 21
51.2622897416
 31
0.0
  0
ARC
  5
30A
330
1F
100
AcDbEntity
  8
OBJECT
  6
SLD-Solid
370
    25
100
AcDbCircle
 10
79.6539470546
 20
53.3092897416
 30
0.0
 40
1.320500000000006
100
AcDbArc
 50
100.5204432311
 51
180.0
  0
ARC
  5
30B
330
1F
100
AcDbEntity
  8
OBJECT
  6
SLD-Solid
370
    25
100
AcDbCircle
 10
79.6539470546
 20
53.3092897416
 30
0.0
 40
2.58550000000001
100
AcDbArc
 50
95.3507694917
 51
180.0
  0
LINE
  5
30C
330
1F
100
AcDbEntity
  8
OBJECT
  6
SLD-Solid
370
    25
100
AcDbLine
 10
79.4128417915
 20
25.8902897416
 30
0.0
 11
78.3334470546
 21
25.8902897416
 31
0.0
  0
LINE
  5
30D
330
1F
100
AcDbEntity
  8
OBJECT
  6
SLD-Solid
370
    25
100
AcDbLine
 10
77.7765718459
 20
24.6342897416
 30
0.0
 11
79.4128417915
 21
24.6342897416
 31
0.0
  0
LINE
  5
30E
330
1F
100
AcDbEntity
  8
OBJECT
  6
SLD-Solid
370
    25
100
AcDbLine
 10
79.4128417915
 20
25.8947897415
 30
0.0
 11
78.3334470546
 21
25.8947897415
 31
0.0
  0
LINE
  5
30F
330
1F
100
AcDbEntity
  8
OBJECT
  6
SLD-Solid
370
    25
100
AcDbLine
 10
77.7009470546
 20
24.6297897415
 30
0.0
 11
79.4128417915
 21
24.6297897415
 31
0.0
  0
LINE
  5
310
330
1F
100
AcDbEntity
  8
OBJECT
  6
SLD-Solid
370
    25
100
AcDbLine
 10
79.8889470546
 20
26.7922897416
 30
0.0
 11
79.5499601419
 21
26.7922897416
 31
0.0
  0
LINE
  5
311
330
1F
100
AcDbEntity
  8
OBJECT
  6
SLD-Solid
370
    25
100
AcDbLine
 10
79.5499601419
 20
23.7322897416
 30
0.0
 11
79.8889470546
 21
23.7322897416
 31
0.0
  0
ARC
  5
312
330
1F
100
AcDbEntity
  8
OBJECT
  6
SLD-Solid
370
    25
100
AcDbCircle
 10
79.5499601419
 20
23.7822897416
 30
0.0
 40
0.0500000000000009
100
AcDbArc
 50
186.0090059575
 51
270.0
  0
ARC
  5
313
330
1F
100
AcDbEntity
  8
OBJECT
  6
SLD-Solid
370
    25
100
AcDbCircle
 10
79.5499601419
 20
26.7422897416
 30
0.0
 40
0.0500000000000009
100
AcDbArc
 50
90.0
 51
173.9909940425
  0
LINE
  5
314
330
1F
100
AcDbEntity
  8
OBJECT
  6
SLD-Solid
370
    25
100
AcDbLine
 10
79.5002348693
 20
26.7475239808
 30
0.0
 11
79.4128417915
 21
25.9172897416
 31
0.0
  0
LINE
  5
315
330
1F
100
AcDbEntity
  8
OBJECT
  6
SLD-Solid
370
    25
100
AcDbLine
 10
79.4128417915
 20
24.6072897416
 30
0.0
 11
79.5002348693
 21
23.7770555023
 31
0.0
  0
LINE
  5
316
330
1F
100
AcDbEntity
  8
OBJECT
  6
SLD-Solid
370
    25
100
AcDbLine
 10
79.8889470546
 20
56.7922897416
 30
0.0
 11
79.5499601419
 21
56.7922897416
 31
0.0
  0
LINE
  5
317
330
1F
100
AcDbEntity
  8
OBJECT
  6
SLD-Solid
370
    25
100
AcDbLine
 10
79.5499601419
 20
53.7322897416
 30
0.0
 11
79.8889470546
 21
53.7322897416
 31
0.0
  0
ARC
  5
318
330
1F
100
AcDbEntity
  8
OBJECT
  6
SLD-Solid
370
    25
100
AcDbCircle
 10
79.5499601419
 20
53.7822897416
 30
0.0
 40
0.0500000000000043
100
AcDbArc
 50
186.0090059575
 51
270.0
  0
ARC
  5
319
330
1F
100
AcDbEntity
  8
OBJECT
  6
SLD-Solid
370
    25
100
AcDbCircle
 10
79.5499601419
 20
56.7422897416
 30
0.0
 40
0.0500000000000043
100
AcDbArc
 50
90.0
 51
173.9909940425
  0
LINE
  5
31A
330
1F
100
AcDbEntity
  8
OBJECT
  6
SLD-Solid
370
    25
100
AcDbLine
 10
79.5002348693
 20
56.7475239808
 30
0.0
 11
79.4128417915
 21
55.9172897416
 31
0.0
  0
LINE
  5
31B
330
1F
100
AcDbEntity
  8
OBJECT
  6
SLD-Solid
370
    25
100
AcDbLine
 10
79.4128417915
 20
54.6072897416
 30
0.0
 11
79.5002348693
 21
53.7770555023
 31
0.0
  0
ARC
  5
31C
330
1F
100
AcDbEntity
  8
OBJECT
  6
SLD-Solid
370
    25
100
AcDbCircle
 10
77.7009470546
 20
25.2622897416
 30
0.0
 40
0.6325000000000074
100
AcDbArc
 50
180.0
 51
0.0
  0
LINE
  5
31D
330
1F
100
AcDbEntity
  8
OBJECT
  6
SLD-Solid
370
    25
100
AcDbLine
 10
79.8889470546
 20
23.7322897416
 30
0.0
 11
79.8889470546
 21
26.7922897416
 31
0.0
  0
LINE
  5
31E
330
1F
100
AcDbEntity
  8
OBJECT
  6
SLD-Solid
370
    25
100
AcDbLine
 10
79.4128417915
 20
25.2622897416
 30
0.0
 11
79.4128417915
 21
24.6072897416
 31
0.0
  0
LINE
  5
31F
330
1F
100
AcDbEntity
  8
OBJECT
  6
SLD-Solid
370
    25
100
AcDbLine
 10
79.4128417915
 20
25.9172897416
 30
0.0
 11
79.4128417915
 21
25.2622897416
 31
0.0
  0
LINE
  5
320
330
1F
100
AcDbEntity
  8
OBJECT
  6
SLD-Solid
370
    25
100
AcDbLine
 10
79.8889470546
 20
53.7322897416
 30
0.0
 11
79.8889470546
 21
56.7922897416
 31
0.0
  0
LINE
  5
321
330
1F
100
AcDbEntity
  8
OBJECT
  6
SLD-Solid
370
    25
100
AcDbLine
 10
79.4128417915
 20
55.2622897416
 30
0.0
 11
79.4128417915
 21
54.6072897416
 31
0.0
  0
LINE
  5
322
330
1F
100
AcDbEntity
  8
OBJECT
  6
SLD-Solid
370
    25
100
AcDbLine
 10
79.4128417915
 20
55.9172897416
 30
0.0
 11
79.4128417915
 21
55.2622897416
 31
0.0
  0
LINE
  5
323
330
1F
100
AcDbEntity
  8
OBJECT
  6
SLD-Solid
370
    25
100
AcDbLine
 10
79.5002348693
 20
25.2622897416
 30
0.0
 11
79.5002348693
 21
26.7475239808
 31
0.0
  0
LINE
  5
324
330
1F
100
AcDbEntity
  8
OBJECT
  6
SLD-Solid
370
    25
100
AcDbLine
 10
79.5002348693
 20
23.7770555023
 30
0.0
 11
79.5002348693
 21
25.2622897416
 31
0.0
  0
HATCH
  5
325
330
1F
100
AcDbEntity
  8
NOTES
100
AcDbHatch
 10
0.0
 20
0.0
 30
0.0
210
0.0
220
0.0
230
1.0
  2
AR-SAND
 70
     0
 71
     0
 91
        1
 92
        0
 93
        4
 72
     1
 10
78.33344705464472
 20
29.26228974156612
 11
78.33344705464485
 21
51.26228974156612
 72
     1
 10
78.33344705464485
 20
51.26228974156612
 11
77.06844705464472
 21
51.26228974156612
 72
     1
 10
77.06844705464472
 20
51.26228974156612
 11
77.06844705464472
 21
29.26228974156612
 72
     1
 10
77.06844705464472
 20
29.26228974156612
 11
78.33344705464472
 21
29.26228974156612
 97
        0
 75
     0
 76
     1
 52
0.0
 41
5.3333333333
 77
     0
 78
     4
 53
37.5
 43
0.0
 44
0.0
 45
-0.3359645765845768
 46
10.27639343473685
 79
     6
 49
0.0
 49
-8.106666666666666
 49
0.0
 49
-9.066666666666666
 49
0.0
 49
-8.666666666666666
 53
7.5
 43
0.0
 44
0.0
 45
9.438809094761211
 46
15.05144568122528
 79
     6
 49
0.0
 49
-4.373333333333333
 49
0.0
 49
-7.306666666666667
 49
0.0
 49
-2.8
 53
-32.5
 43
-6.56
 44
0.0
 45
16.60875659600797
 46
0.0301816188638118
 79
     6
 49
0.0
 49
-2.666666666666667
 49
0.0
 49
-9.6
 49
0.0
 49
-12.53333333333333
 53
-42.50000000000001
 43
-6.56
 44
0.0
 45
16.03267522438556
 46
4.680936346315996
 79
     6
 49
0.0
 49
-1.333333333333333
 49
0.0
 49
-6.293333333333333
 49
0.0
 49
-7.2
 98
        1
 10
0.0
 20
0.0
  0
DIMENSION
  5
326
330
1F
100
AcDbEntity
  8
DIMS
100
AcDbDimension
  2
_D_9
 10
79.8889470546
 20
29.2060057449
 30
0.0
 11
81.2275297318
 21
29.2060057449
 31
0.0
 70
   160
  1
<>
 71
     2
 42
-1.0
  3
SLDDIMSTYLE2
100
AcDbAlignedDimension
 13
78.3334470546
 23
26.7622897416
 33
0.0
 14
79.8889470546
 24
26.7922897416
 34
0.0
100
AcDbRotatedDimension
  0
DIMENSION
  5
335
330
1F
100
AcDbEntity
  8
DIMS
100
AcDbDimension
  2
_D_10
 10
78.3334470546
 20
29.2060057449
 30
0.0
 11
75.9660848499
 21
29.2060057449
 31
0.0
 70
   160
  1
<>
 71
     2
 42
-1.0
  3
SLDDIMSTYLE2
100
AcDbAlignedDimension
 13
77.0684470546
 23
26.7622897416
 33
0.0
 14
78.3334470546
 24
26.7622897416
 34
0.0
 50
0.0
100
AcDbRotatedDimension
  0
DIMENSION
  5
344
330
1F
100
AcDbEntity
  8
DIMS
100
AcDbDimension
  2
_D_11
 10
79.8889470546
 20
22.8661480093
 30
0.0
 11
78.4786970546
 21
22.8661480093
 31
0.0
 70
   160
  1
<>
 71
     2
 42
-1.0
  3
SLDDIMSTYLE2
100
AcDbAlignedDimension
 13
77.0684470546
 23
25.2622897416
 33
0.0
 14
79.8889470546
 24
23.7322897416
 34
0.0
100
AcDbRotatedDimension
  0
MTEXT
  5
353
330
1F
100
AcDbEntity
  8
NOTES
100
AcDbMText
 10
77.0304299596
 20
16.6864884705
 30
0.0
 40
0.5
 41
0.0
 71
     1
 72
     1
  1
Side view
  7
SLDTEXTSTYLE1
 73
     1
 44
1.0
  0
SPLINE
  5
354
330
1F
100
AcDbEntity
  8
OBJECT
  6
SLD-Solid
370
    25
100
AcDbSpline
210
0.0
220
0.0
230
1.0
 70
     8
 71
     3
 72
    27
 73
    23
 74
     0
 42
0.00000001
 43
0.00000001
 40
0.0
 40
0.0
 40
0.0
 40
0.0
 40
0.0457704814556112
 40
0.0967745247558014
 40
0.1477127190020794
 40
0.1985220522997738
 40
0.2491775470590681
 40
0.299680808815302
 40
0.3500508661407653
 40
0.4003175868405575
 40
0.4505173395107748
 40
0.5006903004612304
 40
0.5508788311239615
 40
0.6011142195852974
 40
0.6514382988754963
 40
0.7018947696833144
 40
0.7525256599961329
 40
0.8033690620218659
 40
0.8544553303575039
 40
0.9058009689670845
 40
0.9573994170095559
 40
1.0
 40
1.0
 40
1.0
 40
1.0
 10
81.22455666327154
 20
98.99971570583305
 30
0.0
 10
81.18352023127592
 20
98.97295448047497
 30
0.0
 10
81.0967551137208
 20
98.91637205478162
 30
0.0
 10
80.96819188656968
 20
98.81788036534488
 30
0.0
 10
80.8385648445666
 20
98.70776047068243
 30
0.0
 10
80.7132966353556
 20
98.58902732569328
 30
0.0
 10
80.59277922813557
 20
98.4627096262332
 30
0.0
 10
80.47746533776203
 20
98.32940612791664
 30
0.0
 10
80.36774352677065
 20
98.18979907267374
 30
0.0
 10
80.26399180963713
 20
98.04452538106132
 30
0.0
 10
80.1665758426553
 20
97.89421848141251
 30
0.0
 10
80.0758564027299
 20
97.73950233443756
 30
0.0
 10
79.99219788459848
 20
97.5810086273366
 30
0.0
 10
79.91596179788992
 20
97.41936695580289
 30
0.0
 10
79.84750580310414
 20
97.25520123949615
 30
0.0
 10
79.78718391359047
 20
97.08911556824435
 30
0.0
 10
79.73534923437435
 20
96.92170379082575
 30
0.0
 10
79.69238671531171
 20
96.75356396026517
 30
0.0
 10
79.65861750017166
 20
96.58527896527124
 30
0.0
 10
79.63468186943577
 20
96.41754218941514
 30
0.0
 10
79.62098057052606
 20
96.26069927412733
 30
0.0
 10
79.61940043265032
 20
96.16102084312816
 30
0.0
 10
79.61868583087605
 20
96.11594225552936
 30
0.0
  0
SPLINE
  5
355
330
1F
100
AcDbEntity
  8
OBJECT
  6
SLD-Solid
370
    25
100
AcDbSpline
210
0.0
220
0.0
230
1.0
 70
     8
 71
     3
 72
    26
 73
    22
 74
     0
 42
0.00000001
 43
0.00000001
 40
0.0
 40
0.0
 40
0.0
 40
0.0
 40
0.0280247111424857
 40
0.081259709356909
 40
0.1349641221115156
 40
0.1892428620736243
 40
0.244069748997823
 40
0.2993906038914899
 40
0.3551341025688352
 40
0.4112190714406937
 40
0.4675590914472639
 40
0.5240652518510974
 40
0.5806476776452855
 40
0.637206783974568
 40
0.6936323701480654
 40
0.7498356566614911
 40
0.8057298652101494
 40
0.8612321037062222
 40
0.9162667129790437
 40
0.9707707219957524
 40
0.9999999999999999
 40
0.9999999999999999
 40
0.9999999999999999
 40
0.9999999999999999
 10
80.88368583087605
 20
96.11594225552987
 30
0.0
 10
80.88384682797734
 20
96.13083183706235
 30
0.0
 10
80.88431365090344
 20
96.17400527287843
 30
0.0
 10
80.88972429648987
 20
96.25157204903837
 30
0.0
 10
80.90246277814128
 20
96.35004429609438
 30
0.0
 10
80.92229291477676
 20
96.45465734351228
 30
0.0
 10
80.94935146896653
 20
96.56413913581116
 30
0.0
 10
80.98373527533268
 20
96.6772865541978
 30
0.0
 10
81.02535286860586
 20
96.79280400553598
 30
0.0
 10
81.07397826095328
 20
96.9093919641054
 30
0.0
 10
81.12924876941875
 20
97.02574937087097
 30
0.0
 10
81.19067783348757
 20
97.14059610007779
 30
0.0
 10
81.2576589756874
 20
97.25268064173862
 30
0.0
 10
81.32946797464304
 20
97.36079056782884
 30
0.0
 10
81.40527520627701
 20
97.46377833195447
 30
0.0
 10
81.4841635546182
 20
97.56060180091295
 30
0.0
 10
81.56512392159601
 20
97.65027692635367
 30
0.0
 10
81.647122518133
 20
97.73213489354167
 30
0.0
 10
81.72885597455044
 20
97.80491341431372
 30
0.0
 10
81.7974816360495
 20
97.8603393244287
 30
0.0
 10
81.83751987420477
 20
97.8878149222948
 30
0.0
 10
81.85149626084237
 20
97.89740599314528
 30
0.0
  0
LINE
  5
356
330
1F
100
AcDbEntity
  8
OBJECT
  6
SLD-Solid
370
    25
100
AcDbLine
 10
80.8836858309
 20
94.4444832136
 30
0.0
 11
80.8836858309
 21
96.1159422555
 31
0.0
  0
LINE
  5
357
330
1F
100
AcDbEntity
  8
OBJECT
  6
SLD-Solid
370
    25
100
AcDbLine
 10
79.6186858309
 20
96.1159422555
 30
0.0
 11
79.6186858309
 21
94.4444832136
 31
0.0
  0
LINE
  5
358
330
1F
100
AcDbEntity
  8
OBJECT
  6
SLD-Solid
370
    25
100
AcDbLine
 10
80.8836858309
 20
76.4805853521
 30
0.0
 11
80.8836858309
 21
94.4444832136
 31
0.0
  0
LINE
  5
359
330
1F
100
AcDbEntity
  8
OBJECT
  6
SLD-Solid
370
    25
100
AcDbLine
 10
79.6186858309
 20
94.4444832136
 30
0.0
 11
79.6186858309
 21
76.4805853521
 31
0.0
  0
LINE
  5
35A
330
1F
100
AcDbEntity
  8
OBJECT
  6
SLD-Solid
370
    25
100
AcDbLine
 10
80.8836858309
 20
74.4392333224
 30
0.0
 11
80.8836858309
 21
76.4805853521
 31
0.0
  0
LINE
  5
35B
330
1F
100
AcDbEntity
  8
OBJECT
  6
SLD-Solid
370
    25
100
AcDbLine
 10
79.6186858309
 20
76.4805853521
 30
0.0
 11
79.6186858309
 21
74.4392333224
 31
0.0
  0
SPLINE
  5
35C
330
1F
100
AcDbEntity
  8
OBJECT
  6
SLD-Solid
370
    25
100
AcDbSpline
210
0.0
220
0.0
230
1.0
 70
     8
 71
     3
 72
    14
 73
    10
 74
     0
 42
0.00000001
 43
0.00000001
 40
0.0
 40
0.0
 40
0.0
 40
0.0
 40
0.0960426041796938
 40
0.2742366992951649
 40
0.4516863022325207
 40
0.6297581043912445
 40
0.8104832498546064
 40
0.9976676143992333
 40
1.0
 40
1.0
 40
1.0
 40
1.0
 10
79.61868583088439
 20
74.43923332239359
 30
0.0
 10
79.61855134623259
 20
74.4286992603331
 30
0.0
 10
79.61816734345248
 20
74.39862066725131
 30
0.0
 10
79.61429905900034
 20
74.35653594319449
 30
0.0
 10
79.60738170889121
 20
74.31755955587634
 30
0.0
 10
79.59943046027061
 20
74.2902472430983
 30
0.0
 10
79.59352063804621
 20
74.27551016306897
 30
0.0
 10
79.59020276443054
 20
74.27065095320373
 30
0.0
 10
79.59121774086897
 20
74.27197669041863
 30
0.0
 10
79.59123023219985
 20
74.27199300628722
 30
0.0
  0
SPLINE
  5
35D
330
1F
100
AcDbEntity
  8
OBJECT
  6
SLD-Solid
370
    25
100
AcDbSpline
210
0.0
220
0.0
230
1.0
 70
     8
 71
     3
 72
    11
 73
     7
 74
     0
 42
0.00000001
 43
0.00000001
 40
0.0
 40
0.0
 40
0.0
 40
0.0
 40
0.0514868597794761
 40
0.4758262171001957
 40
0.8818082287039486
 40
1.0
 40
1.0
 40
1.0
 40
1.0
 10
79.608547866925
 20
74.32723480483854
 30
0.0
 10
79.60734879522744
 20
74.32758406399105
 30
0.0
 10
79.59626733187302
 20
74.33081181301357
 30
0.0
 10
79.56674171462025
 20
74.34304065000784
 30
0.0
 10
79.53244645399516
 20
74.35989424420605
 30
0.0
 10
79.5114779738715
 20
74.3718159609373
 30
0.0
 10
79.50674995830097
 20
74.37450409388734
 30
0.0
  0
SPLINE
  5
35E
330
1F
100
AcDbEntity
  8
OBJECT
  6
SLD-Solid
370
    25
100
AcDbSpline
210
0.0
220
0.0
230
1.0
 70
     8
 71
     3
 72
    30
 73
    26
 74
     0
 42
0.00000001
 43
0.00000001
 40
0.0
 40
0.0
 40
0.0
 40
0.0
 40
0.0280394361314766
 40
0.0779438025834492
 40
0.1277267978489765
 40
0.1768420632241371
 40
0.2249704332917051
 40
0.2719033697237051
 40
0.3175747234030844
 40
0.3620445942364625
 40
0.4054585523154379
 40
0.4480087610282029
 40
0.4899083316421893
 40
0.5313784081729164
 40
0.5726250275261076
 40
0.6138235541431272
 40
0.6552045594839319
 40
0.6969965848265594
 40
0.7394203854231458
 40
0.782677023845436
 40
0.826928040095135
 40
0.8722683710967483
 40
0.918698111000236
 40
0.9661064460093524
 40
0.9999999999999999
 40
0.9999999999999999
 40
0.9999999999999999
 40
0.9999999999999999
 10
78.87430135990908
 20
73.27895228297552
 30
0.0
 10
78.89899995869959
 20
73.26510417946227
 30
0.0
 10
78.96765692809039
 20
73.22660933094491
 30
0.0
 10
79.0827720480141
 20
73.17255348080413
 30
0.0
 10
79.21956524151855
 20
73.12105298935803
 30
0.0
 10
79.3572171893518
 20
73.08292932766093
 30
0.0
 10
79.49403139970845
 20
73.05851625341018
 30
0.0
 10
79.62863091119448
 20
73.04795574772125
 30
0.0
 10
79.75979276790761
 20
73.05100360864706
 30
0.0
 10
79.88650594872706
 20
73.06720621697306
 30
0.0
 10
80.00793489741098
 20
73.09597431731359
 30
0.0
 10
80.12337430959471
 20
73.13665373142412
 30
0.0
 10
80.23221546895633
 20
73.18856330606174
 30
0.0
 10
80.33391733804716
 20
73.2510136599632
 30
0.0
 10
80.42798361279729
 20
73.32330577251032
 30
0.0
 10
80.51401602687447
 20
73.40477454519987
 30
0.0
 10
80.5917158921979
 20
73.49483771483004
 30
0.0
 10
80.66087018782302
 20
73.59305365222903
 30
0.0
 10
80.72127830452901
 20
73.69909138988821
 30
0.0
 10
80.77272429623471
 20
73.8127063938502
 30
0.0
 10
80.8149282681942
 20
73.93368897056844
 30
0.0
 10
80.84762024764585
 20
74.06175653250239
 30
0.0
 10
80.87024805272286
 20
74.19651517442213
 30
0.0
 10
80.88195107353745
 20
74.32296611916365
 30
0.0
 10
80.88317541927198
 20
74.40502442812071
 30
0.0
 10
80.88368583088437
 20
74.43923332239407
 30
0.0
  0
LINE
  5
35F
330
1F
100
AcDbEntity
  8
OBJECT
  6
SLD-Solid
370
    25
100
AcDbLine
 10
74.2781072822
 20
75.9322786464
 30
0.0
 11
78.8743013599
 21
73.278952283
 31
0.0
  0
LINE
  5
360
330
1F
100
AcDbEntity
  8
OBJECT
  6
SLD-Solid
370
    25
100
AcDbLine
 10
76.0573047575
 20
76.3658264218
 30
0.0
 11
74.9105558806
 21
77.0278304573
 31
0.0
  0
LINE
  5
361
330
1F
100
AcDbEntity
  8
OBJECT
  6
SLD-Solid
370
    25
100
AcDbLine
 10
79.5067499583
 20
74.3745040939
 30
0.0
 11
76.6806052924
 21
76.0060026821
 31
0.0
  0
LINE
  5
362
330
1F
100
AcDbEntity
  8
OBJECT
  6
SLD-Solid
370
    25
100
AcDbLine
 10
77.042325239
 20
76.934541775
 30
0.0
 11
76.057186636
 21
76.3658333648
 31
0.0
  0
LINE
  5
363
330
1F
100
AcDbEntity
  8
OBJECT
  6
SLD-Solid
370
    25
100
AcDbLine
 10
77.3133417634
 20
75.6407316924
 30
0.0
 11
77.6702742031
 21
75.8467844039
 31
0.0
  0
LINE
  5
364
330
1F
100
AcDbEntity
  8
OBJECT
  6
SLD-Solid
370
    25
100
AcDbLine
 10
54.479117409
 20
87.3619922119
 30
0.0
 11
74.2781072822
 21
75.9322786464
 31
0.0
  0
LINE
  5
365
330
1F
100
AcDbEntity
  8
OBJECT
  6
SLD-Solid
370
    25
100
AcDbLine
 10
74.9105558806
 20
77.0278304573
 30
0.0
 11
55.1115660074
 21
88.4575440228
 31
0.0
  0
LINE
  5
366
330
1F
100
AcDbEntity
  8
OBJECT
  6
SLD-Solid
370
    25
100
AcDbLine
 10
53.0316698279
 20
88.1975859144
 30
0.0
 11
54.479117409
 21
87.3619922119
 31
0.0
  0
LINE
  5
367
330
1F
100
AcDbEntity
  8
OBJECT
  6
SLD-Solid
370
    25
100
AcDbLine
 10
55.1115660074
 20
88.4575440228
 30
0.0
 11
53.6641184263
 21
89.2931377253
 31
0.0
  0
SPLINE
  5
368
330
1F
100
AcDbEntity
  8
OBJECT
  6
SLD-Solid
370
    25
100
AcDbSpline
210
0.0
220
0.0
230
1.0
 70
     8
 71
     3
 72
    24
 73
    20
 74
     0
 42
0.00000001
 43
0.00000001
 40
0.0
 40
0.0
 40
0.0
 40
0.0
 40
0.0295825736066501
 40
0.0852438523513507
 40
0.1405757828264387
 40
0.1958306927000616
 40
0.2513476836160504
 40
0.3077712063782608
 40
0.3661632181765269
 40
0.4282890229120355
 40
0.4974801423664874
 40
0.5820632233835357
 40
0.6579881528576386
 40
0.7241416825202027
 40
0.7839398980973823
 40
0.8398108613314488
 40
0.8986247769287845
 40
0.9551648496279
 40
0.9999999999999999
 40
0.9999999999999999
 40
0.9999999999999999
 40
0.9999999999999999
 10
53.66411842627628
 20
89.29313772526642
 30
0.0
 10
53.65172950562712
 20
89.300474502035
 30
0.0
 10
53.61603013285951
 20
89.32161583760349
 30
0.0
 10
53.56486995187302
 20
89.35676543225198
 30
0.0
 10
53.51454860621846
 20
89.39713253358858
 30
0.0
 10
53.47523460461592
 20
89.4347695596411
 30
0.0
 10
53.44626024659645
 20
89.46828341046314
 30
0.0
 10
53.42671229437639
 20
89.49641187398552
 30
0.0
 10
53.41516253380212
 20
89.51813347852077
 30
0.0
 10
53.40976695344126
 20
89.53284104074297
 30
0.0
 10
53.40831924484176
 20
89.54068444824841
 30
0.0
 10
53.40832148323514
 20
89.54307993283479
 30
0.0
 10
53.40874444146406
 20
89.54790671307721
 30
0.0
 10
53.41211747786297
 20
89.55963721142767
 30
0.0
 10
53.4207934445642
 20
89.57841088895384
 30
0.0
 10
53.43670256039069
 20
89.60405038331062
 30
0.0
 10
53.46220085352926
 20
89.63604352248713
 30
0.0
 10
53.49520307468524
 20
89.6707228192661
 30
0.0
 10
53.52459924638491
 20
89.69502457049417
 30
0.0
 10
53.53760027107901
 20
89.7057724893407
 30
0.0
  0
SPLINE
  5
369
330
1F
100
AcDbEntity
  8
OBJECT
  6
SLD-Solid
370
    25
100
AcDbSpline
210
0.0
220
0.0
230
1.0
 70
     8
 71
     3
 72
    31
 73
    27
 74
     0
 42
0.00000001
 43
0.00000001
 40
0.0
 40
0.0
 40
0.0
 40
0.0
 40
0.0418382634483417
 40
0.088657449897114
 40
0.1350768007289299
 40
0.1808496177796282
 40
0.2257641195199758
 40
0.2696857150364563
 40
0.3125762523241808
 40
0.354486518066322
 40
0.3955334510241987
 40
0.4358755669925394
 40
0.47569412287616
 40
0.5151814124204137
 40
0.5545168915840468
 40
0.5938539218971441
 40
0.6333914330040737
 40
0.6733221171466804
 40
0.7138258360927996
 40
0.7550590754810966
 40
0.7971400169706123
 40
0.8401308068484014
 40
0.884021766470581
 40
0.9287252829405143
 40
0.9740866254520941
 40
1.0
 40
1.0
 40
1.0
 40
1.0
 10
52.94060175080139
 20
90.83167169231982
 30
0.0
 10
52.90053675295795
 20
90.80534357472857
 30
0.0
 10
52.81563694483568
 20
90.74955292822831
 30
0.0
 10
52.69717957911743
 20
90.65491046202868
 30
0.0
 10
52.58411963522367
 20
90.55043139752806
 30
0.0
 10
52.48299957642581
 20
90.43958779825492
 30
0.0
 10
52.39438735144807
 20
90.32355977578243
 30
0.0
 10
52.3189064095133
 20
90.2032957846507
 30
0.0
 10
52.25681945919556
 20
90.07981550795358
 30
0.0
 10
52.20818735033044
 20
89.95405771072983
 30
0.0
 10
52.17291010009956
 20
89.82688987959119
 30
0.0
 10
52.1507948253515
 20
89.69910554364604
 30
0.0
 10
52.14159629581349
 20
89.57143339629307
 30
0.0
 10
52.14504512468402
 20
89.44455743880467
 30
0.0
 10
52.16085559967468
 20
89.31914178280874
 30
0.0
 10
52.18873272200321
 20
89.19577045805225
 30
0.0
 10
52.22840541328274
 20
89.07492485366824
 30
0.0
 10
52.27967223676642
 20
88.95696960255589
 30
0.0
 10
52.34240211855792
 20
88.84222633449022
 30
0.0
 10
52.41652533716781
 20
88.73100868498081
 30
0.0
 10
52.50199573695186
 20
88.62365905607443
 30
0.0
 10
52.59874407621008
 20
88.5205998845732
 30
0.0
 10
52.70654654794145
 20
88.4222996549744
 30
0.0
 10
52.82515499206167
 20
88.3294709336677
 30
0.0
 10
52.93467078143038
 20
88.25501481746937
 30
0.0
 10
53.00580685866684
 20
88.21289824996771
 30
0.0
 10
53.03166982788439
 20
88.1975859143546
 30
0.0
  0
SPLINE
  5
36A
330
1F
100
AcDbEntity
  8
OBJECT
  6
SLD-Solid
370
    25
100
AcDbSpline
210
0.0
220
0.0
230
1.0
 70
     8
 71
     3
 72
    21
 73
    17
 74
     0
 42
0.00000001
 43
0.00000001
 40
0.0
 40
0.0
 40
0.0
 40
0.0
 40
0.0470405718435276
 40
0.127667897648576
 40
0.2088830482778346
 40
0.2906542432755441
 40
0.3728566764265397
 40
0.4553382584571893
 40
0.5292576322503821
 40
0.5728934004779749
 40
0.6555605075965355
 40
0.7381968362629887
 40
0.8207832517899507
 40
0.9033169848729776
 40
0.9858028603148953
 40
1.0
 40
1.0
 40
1.0
 40
1.0
 10
52.36288763436907
 20
91.49747891425797
 30
0.0
 10
52.35201976913925
 20
91.48493530088925
 30
0.0
 10
52.32252443242361
 20
91.45089199136004
 30
0.0
 10
52.28310019711001
 20
91.38497086462814
 30
0.0
 10
52.24418817936157
 20
91.3013001147786
 30
0.0
 10
52.21404981473121
 20
91.20890790770466
 30
0.0
 10
52.19252813411278
 20
91.10907642184002
 30
0.0
 10
52.18039479169444
 20
91.00626620512104
 30
0.0
 10
52.17713530732273
 20
90.9158255302215
 30
0.0
 10
52.17906083985683
 20
90.82257550010132
 30
0.0
 10
52.18685192653465
 20
90.72243049006755
 30
0.0
 10
52.20503172015619
 20
90.60023330270283
 30
0.0
 10
52.23171747862374
 20
90.47562861213235
 30
0.0
 10
52.26754811596457
 20
90.34973456532029
 30
0.0
 10
52.29749346028068
 20
90.25805290359871
 30
0.0
 10
52.31766608117304
 20
90.20900318885248
 30
0.0
 10
52.32062827175271
 20
90.20180062436015
 30
0.0
  0
LINE
  5
36B
330
1F
100
AcDbEntity
  8
OBJECT
  6
SLD-Solid
370
    25
100
AcDbLine
 10
52.7491263902
 20
91.7607895748
 30
0.0
 11
52.5094264455
 21
91.6224137421
 31
0.0
  0
LINE
  5
36C
330
1F
100
AcDbEntity
  8
OBJECT
  6
SLD-Solid
370
    25
100
AcDbLine
 10
54.1295903384
 20
89.0244265101
 30
0.0
 11
54.2790020511
 21
89.1106800559
 31
0.0
  0
SPLINE
  5
36D
330
1F
100
AcDbEntity
  8
OBJECT
  6
SLD-Solid
370
    25
100
AcDbSpline
210
0.0
220
0.0
230
1.0
 70
     8
 71
     3
 72
    19
 73
    15
 74
     0
 42
0.00000001
 43
0.00000001
 40
0.0
 40
0.0
 40
0.0
 40
0.0
 40
0.0552619737213131
 40
0.1499807448855675
 40
0.245390076532345
 40
0.341452633853709
 40
0.4380217979309484
 40
0.5349188984564175
 40
0.621757351561983
 40
0.6730194553718052
 40
0.7701345056822734
 40
0.8672133983115979
 40
0.9642336543535064
 40
1.0
 40
1.0
 40
1.0
 40
1.0
 10
76.44871236853582
 20
77.5930282597897
 30
0.0
 10
76.43784450304031
 20
77.58048464645985
 30
0.0
 10
76.40834916560354
 20
77.54644133703599
 30
0.0
 10
76.3689249387171
 20
77.48052020907433
 30
0.0
 10
76.33001288581599
 20
77.39684946435507
 30
0.0
 10
76.29987465322026
 20
77.30445723801178
 30
0.0
 10
76.27835247621753
 20
77.20462582459034
 30
0.0
 10
76.26622092984765
 20
77.10181534575271
 30
0.0
 10
76.26295619831689
 20
77.0113754366328
 30
0.0
 10
76.26489645559165
 20
76.91812325755771
 30
0.0
 10
76.27259187777771
 20
76.81799220897057
 30
0.0
 10
76.29116663177993
 20
76.69573738038352
 30
0.0
 10
76.31108490161039
 20
76.59749848225555
 30
0.0
 10
76.3276178341092
 20
76.54000636016555
 30
0.0
 10
76.33207101365281
 20
76.52452073823927
 30
0.0
  0
LINE
  5
36E
330
1F
100
AcDbEntity
  8
OBJECT
  6
SLD-Solid
370
    25
100
AcDbLine
 10
76.8349511244
 20
77.8563389203
 30
0.0
 11
76.5952511797
 21
77.7179630876
 31
0.0
  0
LINE
  5
36F
330
1F
100
AcDbEntity
  8
OBJECT
  6
SLD-Solid
370
    25
100
AcDbLine
 10
78.2154150725
 20
75.1199758556
 30
0.0
 11
78.3648267853
 21
75.2062294014
 31
0.0
  0
SPLINE
  5
370
330
1F
100
AcDbEntity
  8
OBJECT
  6
SLD-Solid
370
    25
100
AcDbSpline
210
0.0
220
0.0
230
1.0
 70
     8
 71
     3
 72
    20
 73
    16
 74
     0
 42
0.00000001
 43
0.00000001
 40
0.0
 40
0.0
 40
0.0
 40
0.0
 40
0.0494287913367661
 40
0.1341495144720746
 40
0.2194879059188669
 40
0.3054105717480277
 40
0.3917863694133944
 40
0.4784554881670404
 40
0.5561277008934958
 40
0.6019788289309871
 40
0.6888428917613745
 40
0.7756746135377303
 40
0.8624538881166786
 40
0.949177805597999
 40
1.0
 40
1.0
 40
1.0
 40
1.0
 10
80.64715888182151
 20
99.66554103439613
 30
0.0
 10
80.63629101667014
 20
99.65299742103159
 30
0.0
 10
80.60679568016731
 20
99.61895411151356
 30
0.0
 10
80.56737144236752
 20
99.55303298465228
 30
0.0
 10
80.52845943499008
 20
99.46936223534296
 30
0.0
 10
80.49832103140581
 20
99.37697002624009
 30
0.0
 10
80.47679949723437
 20
99.27713854800332
 30
0.0
 10
80.46466562493217
 20
99.17432830368459
 30
0.0
 10
80.46140768861699
 20
99.08388770941728
 30
0.0
 10
80.46332887694676
 20
98.99063745302401
 30
0.0
 10
80.47114818728612
 20
98.89049391305353
 30
0.0
 10
80.4892114567105
 20
98.76829065638634
 30
0.0
 10
80.51632945621641
 20
98.64370847960868
 30
0.0
 10
80.54583371776829
 20
98.5350898323415
 30
0.0
 10
80.56944461971216
 20
98.46833196142859
 30
0.0
 10
80.57816866019697
 20
98.44366545906846
 30
0.0
  0
SPLINE
  5
371
330
1F
100
AcDbEntity
  8
OBJECT
  6
SLD-Solid
370
    25
100
AcDbSpline
210
0.0
220
0.0
230
1.0
 70
     8
 71
     3
 72
    17
 73
    13
 74
     0
 42
0.00000001
 43
0.00000001
 40
0.0
 40
0.0
 40
0.0
 40
0.0
 40
0.0520071859060619
 40
0.1690848551356907
 40
0.2862697467713921
 40
0.4035438681191937
 40
0.5208499089190768
 40
0.6380625586092791
 40
0.7550094275271969
 40
0.8714623860089196
 40
0.9871821300287268
 40
1.0
 40
1.0
 40
1.0
 40
1.0
 10
81.32788650386246
 20
97.35654482692301
 30
0.0
 10
81.34213801803877
 20
97.34482186642681
 30
0.0
 10
81.38847229219688
 20
97.30670838186253
 30
0.0
 10
81.46877442264336
 20
97.25195503076453
 30
0.0
 10
81.56781028074894
 20
97.19268614038538
 30
0.0
 10
81.66712539734637
 20
97.1443431893079
 30
0.0
 10
81.76580307515671
 20
97.10671032224612
 30
0.0
 10
81.86301996146155
 20
97.08047915116629
 30
0.0
 10
81.95807411555515
 20
97.06549758778986
 30
0.0
 10
82.04947272279412
 20
97.06349127776699
 30
0.0
 10
82.11237565767043
 20
97.06724729374162
 30
0.0
 10
82.14312300716423
 20
97.07507018877087
 30
0.0
 10
82.14618915656233
 20
97.07585029389475
 30
0.0
  0
LINE
  5
372
330
1F
100
AcDbEntity
  8
OBJECT
  6
SLD-Solid
370
    25
100
AcDbLine
 10
81.0333976376
 20
99.9288516949
 30
0.0
 11
80.7936976929
 21
99.7904758623
 31
0.0
  0
LINE
  5
373
330
1F
100
AcDbEntity
  8
OBJECT
  6
SLD-Solid
370
    25
100
AcDbLine
 10
82.3235733539
 20
97.1403663434
 30
0.0
 11
82.5632732986
 21
97.278742176
 31
0.0
  0
SPLINE
  5
374
330
1F
100
AcDbEntity
  8
OBJECT
  6
SLD-Solid
370
    25
100
AcDbSpline
210
0.0
220
0.0
230
1.0
 70
     8
 71
     3
 72
    33
 73
    29
 74
     0
 42
0.00000001
 43
0.00000001
 40
0.0
 40
0.0
 40
0.0
 40
0.0
 40
0.0474342220947466
 40
0.0808737333110131
 40
0.1144229073534561
 40
0.1664146078506612
 40
0.206247033378939
 40
0.2507247593888463
 40
0.3199206268890252
 40
0.3588887424327892
 40
0.3979438764706074
 40
0.4369363042647415
 40
0.4767116858639164
 40
0.4991317222050006
 40
0.5216422867934498
 40
0.544700923773819
 40
0.568405343666767
 40
0.6020852792183733
 40
0.6359103034935661
 40
0.669941525460944
 40
0.7270110664864825
 40
0.7728997320123373
 40
0.8163262046289257
 40
0.8590591053885198
 40
0.8990563527034928
 40
0.9539391613393378
 40
0.9960393061220517
 40
1.0
 40
1.0
 40
1.0
 40
1.0
 10
76.05725825648479
 20
76.36574195181868
 30
0.0
 10
76.05737904909408
 20
76.36533041789208
 30
0.0
 10
76.05758499637938
 20
76.36462876656192
 30
0.0
 10
76.05795563397794
 20
76.35994003886418
 30
0.0
 10
76.0584025713592
 20
76.35312200884812
 30
0.0
 10
76.0589840331072
 20
76.34308205843678
 30
0.0
 10
76.05980128190076
 20
76.32917475180575
 30
0.0
 10
76.06099907221571
 20
76.31054831070405
 30
0.0
 10
76.0627133965573
 20
76.28827076877434
 30
0.0
 10
76.06549908203398
 20
76.26362902619375
 30
0.0
 10
76.0688724190816
 20
76.24228692241428
 30
0.0
 10
76.0747477892784
 20
76.21924070879751
 30
0.0
 10
76.08460177078514
 20
76.19806643980709
 30
0.0
 10
76.10395877864036
 20
76.18150857336737
 30
0.0
 10
76.12757076838177
 20
76.17164553973456
 30
0.0
 10
76.15469169058541
 20
76.16491863477825
 30
0.0
 10
76.18711862515786
 20
76.15877649675717
 30
0.0
 10
76.22424349834148
 20
76.15262927509634
 30
0.0
 10
76.26551058537612
 20
76.14562785604683
 30
0.0
 10
76.31604898409539
 20
76.1362553436708
 30
0.0
 10
76.37096636430988
 20
76.1244076182258
 30
0.0
 10
76.42876234420041
 20
76.10942766929993
 30
0.0
 10
76.48004963851167
 20
76.09396167839587
 30
0.0
 10
76.52808719182627
 20
76.07726375104164
 30
0.0
 10
76.57936055123058
 20
76.05703214397379
 30
0.0
 10
76.62858205469247
 20
76.03414126337854
 30
0.0
 10
76.66400912650734
 20
76.0160291723361
 30
0.0
 10
76.67923278326874
 20
76.00669898531197
 30
0.0
 10
76.68054183985322
 20
76.0058966982564
 30
0.0
  0
ARC
  5
375
330
1F
100
AcDbEntity
  8
OBJECT
  6
SLD-Solid
370
    25
100
AcDbCircle
 10
52.7716943965
 20
91.1681062183
 30
0.0
 40
0.5243354710791441
100
AcDbArc
 50
100.0696118469
 51
139.8976982984
  0
LWPOLYLINE
  5
376
330
1F
100
AcDbEntity
  8
OBJECT
  6
SLD-Solid
370
    25
100
AcDbPolyline
 90
        3
 70
   128
 43
0.0
 10
54.1756190224
 20
89.0859619142
 10
54.1247741907
 20
89.0341571667
 10
54.1200062437
 20
89.0299592902
  0
LWPOLYLINE
  5
377
330
1F
100
AcDbEntity
  8
OBJECT
  6
SLD-Solid
370
    25
100
AcDbPolyline
 90
        7
 70
   128
 43
0.0
 10
53.6405619022
 20
89.9740130593
 10
53.6356262305
 20
89.8989898732
 10
53.6209244105
 20
89.8312642814
 10
53.5967697861
 20
89.7722797373
 10
53.5636771712
 20
89.7232933939
 10
53.5223518774
 20
89.6853493103
 10
53.5048803455
 20
89.674124711
  0
LWPOLYLINE
  5
378
330
1F
100
AcDbEntity
  8
OBJECT
  6
SLD-Solid
370
    25
100
AcDbPolyline
 90
       20
 70
   128
 43
0.0
 10
52.7554951298
 20
90.7055771956
 10
52.7735129678
 20
90.7363071735
 10
52.8108214506
 20
90.7798886501
 10
52.8559430671
 20
90.8119928928
 10
52.9079161284
 20
90.8319356555
 10
52.9656329189
 20
90.8392918928
 10
53.0278633055
 20
90.8339048194
 10
53.0932809554
 20
90.8158892512
 10
53.1604916051
 20
90.785629159
 10
53.2280627762
 20
90.743769484
 10
53.2945543065
 20
90.6912023924
 10
53.3585490445
 20
90.6290482607
 10
53.4186830535
 20
90.5586317962
 10
53.4736746815
 20
90.4814538036
 10
53.5223518774
 20
90.3991591978
 10
53.5636771712
 20
90.3135019455
 10
53.5967697861
 20
90.2263076822
 10
53.6209244105
 20
90.1394348024
 10
53.6356262305
 20
90.0547348506
 10
53.6405619022
 20
89.9740130593
  0
LWPOLYLINE
  5
379
330
1F
100
AcDbEntity
  8
OBJECT
  6
SLD-Solid
370
    25
100
AcDbPolyline
 90
       35
 70
   128
 43
0.0
 10
54.2790020511
 20
89.1106800559
 10
54.2970528072
 20
89.1216042809
 10
54.3644741354
 20
89.1725329994
 10
54.4241940196
 20
89.2349014692
 10
54.4756716275
 20
89.3081448717
 10
54.5184407698
 20
89.3915999034
 10
54.5521141225
 20
89.4845107825
 10
54.5763867346
 20
89.5860360938
 10
54.5910387895
 20
89.6952564082
 10
54.5959375959
 20
89.8111826098
 10
54.5910387895
 20
89.9327648529
 10
54.5763867346
 20
90.0589020698
 10
54.5521141225
 20
90.1884519424
 10
54.5184407698
 20
90.3202412471
 10
54.4756716275
 20
90.4530764793
 10
54.4241940196
 20
90.5857546628
 10
54.3644741354
 20
90.7170742433
 10
54.2970528072
 20
90.8458459704
 10
54.2225406132
 20
90.9709036673
 10
54.1416123472
 20
91.0911147922
 10
54.0550009083
 20
91.2053906946
 10
53.9634906629
 20
91.3126964742
 10
53.8679103421
 20
91.4120603532
 10
53.769125536
 20
91.5025824769
 10
53.6680308551
 20
91.583443063
 10
53.5655418285
 20
91.6539098255
 10
53.4625866128
 20
91.7133446064
 10
53.3600975862
 20
91.7612091552
 10
53.2590029054
 20
91.7970700032
 10
53.1602180993
 20
91.8206023889
 10
53.0646377784
 20
91.8315931994
 10
52.9731275331
 20
91.8299429002
 10
52.8865160941
 20
91.8156664367
 10
52.8055878281
 20
91.7888930987
 10
52.7491263902
 20
91.7607895748
  0
LINE
  5
37A
330
1F
100
AcDbEntity
  8
OBJECT
  6
SLD-Solid
370
    25
100
AcDbLine
 10
53.5153718851
 20
89.6805824261
 30
0.0
 11
53.5070988737
 21
89.6766239178
 31
0.0
  0
ARC
  5
37B
330
1F
100
AcDbEntity
  8
OBJECT
  6
SLD-Solid
370
    25
100
AcDbCircle
 10
52.9972353308
 20
90.6115889048
 30
0.0
 40
0.2445342006521603
100
AcDbArc
 50
123.9212129707
 51
151.6884213042
  0
ARC
  5
37C
330
1F
100
AcDbEntity
  8
OBJECT
  6
SLD-Solid
370
    25
100
AcDbCircle
 10
76.8575191307
 20
77.2636555638
 30
0.0
 40
0.5243354710789753
100
AcDbArc
 50
100.0696118469
 51
139.8976982984
  0
LWPOLYLINE
  5
37D
330
1F
100
AcDbEntity
  8
OBJECT
  6
SLD-Solid
370
    25
100
AcDbPolyline
 90
        3
 70
   128
 43
0.0
 10
78.2614437566
 20
75.1815112597
 10
78.2105989248
 20
75.1297065123
 10
78.2058309779
 20
75.1255086357
  0
LWPOLYLINE
  5
37E
330
1F
100
AcDbEntity
  8
OBJECT
  6
SLD-Solid
370
    25
100
AcDbPolyline
 90
        9
 70
   128
 43
0.0
 10
77.7263866364
 20
76.0695624048
 10
77.7214509646
 20
75.9945392187
 10
77.7067491447
 20
75.9268136269
 10
77.6825945203
 20
75.8678290828
 10
77.6495019054
 20
75.8188427395
 10
77.6081766115
 20
75.7808986558
 10
77.5594994157
 20
75.7548055441
 10
77.5045077877
 20
75.7411195337
 10
77.4841381504
 20
75.7393303478
  0
LWPOLYLINE
  5
37F
330
1F
100
AcDbEntity
  8
OBJECT
  6
SLD-Solid
370
    25
100
AcDbPolyline
 90
       20
 70
   128
 43
0.0
 10
76.8561891863
 20
76.827087719
 10
76.8593377019
 20
76.8318565191
 10
76.8966461848
 20
76.8754379956
 10
76.9417678013
 20
76.9075422383
 10
76.9937408626
 20
76.927485001
 10
77.0514576531
 20
76.9348412383
 10
77.1136880396
 20
76.9294541649
 10
77.1791056896
 20
76.9114385968
 10
77.2463163392
 20
76.8811785045
 10
77.3138875103
 20
76.8393188295
 10
77.3803790407
 20
76.786751738
 10
77.4443737787
 20
76.7245976062
 10
77.5045077877
 20
76.6541811417
 10
77.5594994157
 20
76.5770031491
 10
77.6081766115
 20
76.4947085433
 10
77.6495019054
 20
76.409051291
 10
77.6825945203
 20
76.3218570277
 10
77.7067491447
 20
76.2349841479
 10
77.7214509646
 20
76.1502841961
 10
77.7263866364
 20
76.0695624048
  0
LWPOLYLINE
  5
380
330
1F
100
AcDbEntity
  8
OBJECT
  6
SLD-Solid
370
    25
100
AcDbPolyline
 90
       35
 70
   128
 43
0.0
 10
78.3648267853
 20
75.2062294014
 10
78.3828775414
 20
75.2171536264
 10
78.4502988695
 20
75.2680823449
 10
78.5100187538
 20
75.3304508147
 10
78.5614963617
 20
75.4036942172
 10
78.604265504
 20
75.4871492489
 10
78.6379388567
 20
75.580060128
 10
78.6622114688
 20
75.6815854393
 10
78.6768635236
 20
75.7908057537
 10
78.68176233
 20
75.9067319553
 10
78.6768635236
 20
76.0283141984
 10
78.6622114688
 20
76.1544514153
 10
78.6379388567
 20
76.284001288
 10
78.604265504
 20
76.4157905926
 10
78.5614963617
 20
76.5486258248
 10
78.5100187538
 20
76.6813040083
 10
78.4502988695
 20
76.8126235888
 10
78.3828775414
 20
76.9413953159
 10
78.3083653474
 20
77.0664530128
 10
78.2274370814
 20
77.1866641378
 10
78.1408256424
 20
77.3009400402
 10
78.0493153971
 20
77.4082458197
 10
77.9537350762
 20
77.5076096987
 10
77.8549502701
 20
77.5981318224
 10
77.7538555893
 20
77.6789924085
 10
77.6513665627
 20
77.749459171
 10
77.548411347
 20
77.8088939519
 10
77.4459223204
 20
77.8567585008
 10
77.3448276395
 20
77.8926193487
 10
77.2460428334
 20
77.9161517344
 10
77.1504625126
 20
77.9271425449
 10
77.0589522672
 20
77.9254922457
 10
76.9723408283
 20
77.9112157822
 10
76.8914125623
 20
77.8844424442
 10
76.8349511244
 20
77.8563389203
  0
ARC
  5
381
330
1F
100
AcDbEntity
  8
OBJECT
  6
SLD-Solid
370
    25
100
AcDbCircle
 10
77.4957230537
 20
75.9890974159
 30
0.0
 40
0.2376531899192247
100
AcDbArc
 50
272.3502006924
 51
296.3474172457
  0
ARC
  5
382
330
1F
100
AcDbEntity
  8
OBJECT
  6
SLD-Solid
370
    25
100
AcDbCircle
 10
77.0802449769
 20
76.710290579
 30
0.0
 40
0.2403481059011388
100
AcDbArc
 50
123.7837086196
 51
147.5079203788
  0
ARC
  5
383
330
1F
100
AcDbEntity
  8
OBJECT
  6
SLD-Solid
370
    25
100
AcDbCircle
 10
81.055965644
 20
99.3361683384
 30
0.0
 40
0.5243354710793393
100
AcDbArc
 50
100.0696118469
 51
139.8976982984
  0
ARC
  5
384
330
1F
100
AcDbEntity
  8
OBJECT
  6
SLD-Solid
370
    25
100
AcDbCircle
 10
82.06151623
 20
97.5943085283
 30
0.0
 40
0.5239230978686428
100
AcDbArc
 50
280.4675549977
 51
319.4965971162
  0
LWPOLYLINE
  5
385
330
1F
100
AcDbEntity
  8
OBJECT
  6
SLD-Solid
370
    25
100
AcDbPolyline
 90
        7
 70
   128
 43
0.0
 10
81.9248331497
 20
98.1420751794
 10
81.9198974779
 20
98.0670519933
 10
81.905195658
 20
97.9993264015
 10
81.8810410336
 20
97.9403418574
 10
81.8479484187
 20
97.8913555141
 10
81.8066231248
 20
97.8534114304
 10
81.7593380152
 20
97.827857818
  0
LWPOLYLINE
  5
386
330
1F
100
AcDbEntity
  8
OBJECT
  6
SLD-Solid
370
    25
100
AcDbPolyline
 90
       20
 70
   128
 43
0.0
 10
81.0435946015
 20
98.8809421672
 10
81.0577842152
 20
98.9043692937
 10
81.095092698
 20
98.9479507702
 10
81.1402143146
 20
98.9800550129
 10
81.1921873759
 20
98.9999977756
 10
81.2499041664
 20
99.007354013
 10
81.3121345529
 20
99.0019669395
 10
81.3775522029
 20
98.9839513714
 10
81.4447628525
 20
98.9536912791
 10
81.5123340236
 20
98.9118316041
 10
81.5788255539
 20
98.8592645126
 10
81.642820292
 20
98.7971103808
 10
81.702954301
 20
98.7266939163
 10
81.757945929
 20
98.6495159237
 10
81.8066231248
 20
98.5672213179
 10
81.8479484187
 20
98.4815640656
 10
81.8810410336
 20
98.3943698023
 10
81.905195658
 20
98.3074969225
 10
81.9198974779
 20
98.2227969707
 10
81.9248331497
 20
98.1420751794
  0
LWPOLYLINE
  5
387
330
1F
100
AcDbEntity
  8
OBJECT
  6
SLD-Solid
370
    25
100
AcDbPolyline
 90
       35
 70
   128
 43
0.0
 10
82.5632732986
 20
97.278742176
 10
82.5813240547
 20
97.289666401
 10
82.6487453828
 20
97.3405951195
 10
82.7084652671
 20
97.4029635893
 10
82.759942875
 20
97.4762069919
 10
82.8027120172
 20
97.5596620235
 10
82.83638537
 20
97.6525729026
 10
82.860657982
 20
97.7540982139
 10
82.8753100369
 20
97.8633185284
 10
82.8802088433
 20
97.9792447299
 10
82.8753100369
 20
98.100826973
 10
82.860657982
 20
98.2269641899
 10
82.83638537
 20
98.3565140626
 10
82.8027120172
 20
98.4883033672
 10
82.759942875
 20
98.6211385995
 10
82.7084652671
 20
98.7538167829
 10
82.6487453828
 20
98.8851363634
 10
82.5813240547
 20
99.0139080905
 10
82.5068118606
 20
99.1389657874
 10
82.4258835947
 20
99.2591769124
 10
82.3392721557
 20
99.3734528148
 10
82.2477619103
 20
99.4807585943
 10
82.1521815895
 20
99.5801224733
 10
82.0533967834
 20
99.670644597
 10
81.9523021025
 20
99.7515051831
 10
81.849813076
 20
99.8219719456
 10
81.7468578602
 20
99.8814067265
 10
81.6443688337
 20
99.9292712754
 10
81.5432741528
 20
99.9651321233
 10
81.4444893467
 20
99.988664509
 10
81.3489090259
 20
99.9996553195
 10
81.2573987805
 20
99.9980050203
 10
81.1707873415
 20
99.9837285568
 10
81.0898590756
 20
99.9569552189
 10
81.0333976376
 20
99.9288516949
  0
LWPOLYLINE
  5
388
330
1F
100
AcDbEntity
  8
OBJECT
  6
SLD-Solid
370
    25
100
AcDbPolyline
 90
        3
 70
   128
 43
0.0
 10
81.7996431331
 20
97.8486445466
 10
81.7792763333
 20
97.839632099
 10
81.7742106131
 20
97.8377579384
  0
ARC
  5
389
330
1F
100
AcDbEntity
  8
OBJECT
  6
SLD-Solid
370
    25
100
AcDbCircle
 10
81.280568176
 20
98.7807022624
 30
0.0
 40
0.2431382759884644
100
AcDbArc
 50
123.875956956
 51
150.3484515745
  0
LWPOLYLINE
  5
38A
330
1F
100
AcDbEntity
  8
OBJECT
  6
SLD-Solid
370
    25
100
AcDbPolyline
 90
       31
 70
   128
 43
0.0
 10
52.6800171985
 20
91.6843648527
 10
52.7334275883
 20
91.6915670675
 10
52.8249378337
 20
91.6932173667
 10
52.9205181546
 20
91.6822265562
 10
53.0193029607
 20
91.6586941705
 10
53.1203976415
 20
91.6228333226
 10
53.2228866681
 20
91.5749687737
 10
53.3258418838
 20
91.5155339928
 10
53.4283309104
 20
91.4450672303
 10
53.5294255913
 20
91.3642066442
 10
53.6282103974
 20
91.2736845205
 10
53.7237907182
 20
91.1743206415
 10
53.8153009636
 20
91.067014862
 10
53.9019124025
 20
90.9527389596
 10
53.9828406685
 20
90.8325278346
 10
54.0573528625
 20
90.7074701377
 10
54.1247741907
 20
90.5786984106
 10
54.1844940749
 20
90.4473788301
 10
54.2359716828
 20
90.3147006467
 10
54.2787408251
 20
90.1818654144
 10
54.3124141778
 20
90.0500761098
 10
54.3366867899
 20
89.9205262371
 10
54.3513388448
 20
89.7943890202
 10
54.3562376512
 20
89.6728067771
 10
54.3513388448
 20
89.5568805755
 10
54.3366867899
 20
89.4476602611
 10
54.3124141778
 20
89.3461349498
 10
54.2787408251
 20
89.2532240707
 10
54.2359716828
 20
89.1697690391
 10
54.1844940749
 20
89.0965256365
 10
54.1756190224
 20
89.0859619142
  0
LWPOLYLINE
  5
38B
330
1F
100
AcDbEntity
  8
OBJECT
  6
SLD-Solid
370
    25
100
AcDbPolyline
 90
       31
 70
   128
 43
0.0
 10
76.7658419327
 20
77.7799141982
 10
76.8192523225
 20
77.787116413
 10
76.9107625679
 20
77.7887667122
 10
77.0063428887
 20
77.7777759018
 10
77.1051276948
 20
77.7542435161
 10
77.2062223757
 20
77.7183826681
 10
77.3087114023
 20
77.6705181193
 10
77.411666618
 20
77.6110833383
 10
77.5141556445
 20
77.5406165759
 10
77.6152503254
 20
77.4597559898
 10
77.7140351315
 20
77.369233866
 10
77.8096154524
 20
77.2698699871
 10
77.9011256977
 20
77.1625642075
 10
77.9877371367
 20
77.0482883051
 10
78.0686654027
 20
76.9280771802
 10
78.1431775967
 20
76.8030194832
 10
78.2105989248
 20
76.6742477561
 10
78.2703188091
 20
76.5429281757
 10
78.321796417
 20
76.4102499922
 10
78.3645655593
 20
76.2774147599
 10
78.398238912
 20
76.1456254553
 10
78.4225115241
 20
76.0160755827
 10
78.4371635789
 20
75.8899383657
 10
78.4420623853
 20
75.7683561227
 10
78.4371635789
 20
75.6524299211
 10
78.4225115241
 20
75.5432096066
 10
78.398238912
 20
75.4416842954
 10
78.3645655593
 20
75.3487734162
 10
78.321796417
 20
75.2653183846
 10
78.2703188091
 20
75.1920749821
 10
78.2614437566
 20
75.1815112597
  0
LWPOLYLINE
  5
38C
330
1F
100
AcDbEntity
  8
OBJECT
  6
SLD-Solid
370
    25
100
AcDbPolyline
 90
       31
 70
   128
 43
0.0
 10
80.964288446
 20
99.8524269728
 10
81.0176988358
 20
99.8596291877
 10
81.1092090812
 20
99.8612794868
 10
81.204789402
 20
99.8502886764
 10
81.3035742081
 20
99.8267562907
 10
81.404668889
 20
99.7908954427
 10
81.5071579155
 20
99.7430308939
 10
81.6101131313
 20
99.6835961129
 10
81.7126021578
 20
99.6131293505
 10
81.8136968387
 20
99.5322687644
 10
81.9124816448
 20
99.4417466407
 10
82.0080619656
 20
99.3423827617
 10
82.099572211
 20
99.2350769821
 10
82.18618365
 20
99.1208010797
 10
82.2671119159
 20
99.0005899548
 10
82.34162411
 20
98.8755322578
 10
82.4090454381
 20
98.7467605308
 10
82.4687653224
 20
98.6154409503
 10
82.5202429303
 20
98.4827627668
 10
82.5630120725
 20
98.3499275345
 10
82.5966854253
 20
98.2181382299
 10
82.6209580373
 20
98.0885883573
 10
82.6356100922
 20
97.9624511403
 10
82.6405088986
 20
97.8408688973
 10
82.6356100922
 20
97.7249426957
 10
82.6209580373
 20
97.6157223812
 10
82.5966854253
 20
97.51419707
 10
82.5630120725
 20
97.4212861909
 10
82.5202429303
 20
97.3378311592
 10
82.4687653224
 20
97.2645877567
 10
82.4598902699
 20
97.2540240343
  0
HATCH
  5
38D
330
1F
100
AcDbEntity
  8
NOTES
100
AcDbHatch
 10
0.0
 20
0.0
 30
0.0
210
0.0
220
0.0
230
1.0
  2
AR-SAND
 70
     0
 71
     0
 91
        1
 92
        0
 93
        4
 72
     1
 10
74.27810728219654
 20
75.93227864639697
 11
74.91055588058842
 21
77.02783045730878
 72
     1
 10
74.91055588058842
 20
77.02783045730878
 11
55.11156600736514
 21
88.45754402281663
 72
     1
 10
55.11156600736514
 20
88.45754402281663
 11
54.47911740897325
 21
87.36199221190478
 72
     1
 10
54.47911740897325
 20
87.36199221190478
 11
74.27810728219654
 21
75.93227864639697
 97
        0
 75
     0
 76
     1
 52
0.0
 41
5.3333333333
 77
     0
 78
     4
 53
37.5
 43
0.0
 44
0.0
 45
-0.3359645765845768
 46
10.27639343473685
 79
     6
 49
0.0
 49
-8.106666666666666
 49
0.0
 49
-9.066666666666666
 49
0.0
 49
-8.666666666666666
 53
7.5
 43
0.0
 44
0.0
 45
9.438809094761211
 46
15.05144568122528
 79
     6
 49
0.0
 49
-4.373333333333333
 49
0.0
 49
-7.306666666666667
 49
0.0
 49
-2.8
 53
-32.5
 43
-6.56
 44
0.0
 45
16.60875659600797
 46
0.0301816188638118
 79
     6
 49
0.0
 49
-2.666666666666667
 49
0.0
 49
-9.6
 49
0.0
 49
-12.53333333333333
 53
-42.50000000000001
 43
-6.56
 44
0.0
 45
16.03267522438556
 46
4.680936346315996
 79
     6
 49
0.0
 49
-1.333333333333333
 49
0.0
 49
-6.293333333333333
 49
0.0
 49
-7.2
 98
        1
 10
0.0
 20
0.0
  0
HATCH
  5
38E
330
1F
100
AcDbEntity
  8
NOTES
100
AcDbHatch
 10
0.0
 20
0.0
 30
0.0
210
0.0
220
0.0
230
1.0
  2
AR-SAND
 70
     0
 71
     0
 91
        1
 92
        0
 93
        4
 72
     1
 10
80.88368583087669
 20
94.44448321359934
 11
79.6186858308767
 21
94.44448321359934
 72
     1
 10
79.6186858308767
 20
94.44448321359934
 11
79.6186858308836
 21
76.48058535210838
 72
     1
 10
79.6186858308836
 20
76.48058535210838
 11
80.8836858308836
 21
76.48058535210886
 72
     1
 10
80.8836858308836
 20
76.48058535210886
 11
80.88368583087669
 21
94.44448321359934
 97
        0
 75
     0
 76
     1
 52
0.0
 41
5.3333333333
 77
     0
 78
     4
 53
37.5
 43
0.0
 44
0.0
 45
-0.3359645765845768
 46
10.27639343473685
 79
     6
 49
0.0
 49
-8.106666666666666
 49
0.0
 49
-9.066666666666666
 49
0.0
 49
-8.666666666666666
 53
7.5
 43
0.0
 44
0.0
 45
9.438809094761211
 46
15.05144568122528
 79
     6
 49
0.0
 49
-4.373333333333333
 49
0.0
 49
-7.306666666666667
 49
0.0
 49
-2.8
 53
-32.5
 43
-6.56
 44
0.0
 45
16.60875659600797
 46
0.0301816188638118
 79
     6
 49
0.0
 49
-2.666666666666667
 49
0.0
 49
-9.6
 49
0.0
 49
-12.53333333333333
 53
-42.50000000000001
 43
-6.56
 44
0.0
 45
16.03267522438556
 46
4.680936346315996
 79
     6
 49
0.0
 49
-1.333333333333333
 49
0.0
 49
-6.293333333333333
 49
0.0
 49
-7.2
 98
        1
 10
0.0
 20
0.0
  0
INSERT
  5
394
330
1F
100
AcDbEntity
  8
NOTES
100
AcDbBlockReference
  2
SW_NOTE_0_3
 10
73.3751945013
 20
72.9550385175
 30
0.0
  0
LINE
  5
395
330
1F
100
AcDbEntity
  8
OBJECT
  6
SLD-Solid
370
    25
100
AcDbLine
 10
54.3092734402
 20
65.7755579042
 30
0.0
 11
54.3092734402
 21
64.0636631674
 31
0.0
  0
LINE
  5
396
330
1F
100
AcDbEntity
  8
OBJECT
  6
SLD-Solid
370
    25
100
AcDbLine
 10
55.5742734402
 20
64.0636631674
 30
0.0
 11
55.5742734402
 21
65.7755579042
 31
0.0
  0
LINE
  5
397
330
1F
100
AcDbEntity
  8
OBJECT
  6
SLD-Solid
370
    25
100
AcDbLine
 10
53.4417734403
 20
63.4311631674
 30
0.0
 11
54.9417734403
 21
63.4311631674
 31
0.0
  0
LINE
  5
398
330
1F
100
AcDbEntity
  8
OBJECT
  6
SLD-Solid
370
    25
100
AcDbLine
 10
54.3092734402
 20
64.6961631674
 30
0.0
 11
53.4417734403
 21
64.6961631674
 31
0.0
  0
LINE
  5
399
330
1F
100
AcDbEntity
  8
OBJECT
  6
SLD-Solid
370
    25
100
AcDbLine
 10
46.9417734403
 20
63.4311631674
 30
0.0
 11
53.4417734403
 21
63.4311631674
 31
0.0
  0
LINE
  5
39A
330
1F
100
AcDbEntity
  8
OBJECT
  6
SLD-Solid
370
    25
100
AcDbLine
 10
48.3763543685
 20
64.6961631674
 30
0.0
 11
46.9417734403
 21
64.6961631674
 31
0.0
  0
LINE
  5
39B
330
1F
100
AcDbEntity
  8
OBJECT
  6
SLD-Solid
370
    25
100
AcDbLine
 10
53.4417734403
 20
64.6961631674
 30
0.0
 11
49.6322734403
 21
64.6961631674
 31
0.0
  0
LINE
  5
39C
330
1F
100
AcDbEntity
  8
OBJECT
  6
SLD-Solid
370
    25
100
AcDbLine
 10
18.9417734403
 20
63.4311631674
 30
0.0
 11
46.9417734403
 21
63.4311631674
 31
0.0
  0
LINE
  5
39D
330
1F
100
AcDbEntity
  8
OBJECT
  6
SLD-Solid
370
    25
100
AcDbLine
 10
46.9417734403
 20
64.6961631674
 30
0.0
 11
18.9417734403
 21
64.6961631674
 31
0.0
  0
LINE
  5
39E
330
1F
100
AcDbEntity
  8
OBJECT
  6
SLD-Solid
370
    25
100
AcDbLine
 10
16.8947734403
 20
63.4311631674
 30
0.0
 11
18.9417734403
 21
63.4311631674
 31
0.0
  0
LINE
  5
39F
330
1F
100
AcDbEntity
  8
OBJECT
  6
SLD-Solid
370
    25
100
AcDbLine
 10
18.9417734403
 20
64.6961631674
 30
0.0
 11
16.8947734403
 21
64.6961631674
 31
0.0
  0
ARC
  5
3A0
330
1F
100
AcDbEntity
  8
OBJECT
  6
SLD-Solid
370
    25
100
AcDbCircle
 10
16.8947734403
 20
66.0166631674
 30
0.0
 40
1.320499999999998
100
AcDbArc
 50
190.5204432311
 51
270.0
  0
ARC
  5
3A1
330
1F
100
AcDbEntity
  8
OBJECT
  6
SLD-Solid
370
    25
100
AcDbCircle
 10
16.8947734403
 20
66.0166631674
 30
0.0
 40
2.585499999999997
100
AcDbArc
 50
185.3507694917
 51
270.0
  0
LINE
  5
3A2
330
1F
100
AcDbEntity
  8
OBJECT
  6
SLD-Solid
370
    25
100
AcDbLine
 10
48.3762734403
 20
65.7755579042
 30
0.0
 11
48.3762734403
 21
64.6960828168
 31
0.0
  0
LINE
  5
3A3
330
1F
100
AcDbEntity
  8
OBJECT
  6
SLD-Solid
370
    25
100
AcDbLine
 10
49.6322734403
 20
64.6961631674
 30
0.0
 11
49.6322734403
 21
65.7755579042
 31
0.0
  0
LINE
  5
3A4
330
1F
100
AcDbEntity
  8
OBJECT
  6
SLD-Solid
370
    25
100
AcDbLine
 10
13.4117734403
 20
66.2516631674
 30
0.0
 11
13.4117734403
 21
65.9126762547
 31
0.0
  0
LINE
  5
3A5
330
1F
100
AcDbEntity
  8
OBJECT
  6
SLD-Solid
370
    25
100
AcDbLine
 10
16.4717734403
 20
65.9126762547
 30
0.0
 11
16.4717734403
 21
66.2516631674
 31
0.0
  0
ARC
  5
3A6
330
1F
100
AcDbEntity
  8
OBJECT
  6
SLD-Solid
370
    25
100
AcDbCircle
 10
16.4217734403
 20
65.9126762547
 30
0.0
 40
0.050000000000015
100
AcDbArc
 50
276.0090059575
 51
0.0
  0
ARC
  5
3A7
330
1F
100
AcDbEntity
  8
OBJECT
  6
SLD-Solid
370
    25
100
AcDbCircle
 10
13.4617734403
 20
65.9126762547
 30
0.0
 40
0.0500000000000149
100
AcDbArc
 50
180.0
 51
263.9909940425
  0
LINE
  5
3A8
330
1F
100
AcDbEntity
  8
OBJECT
  6
SLD-Solid
370
    25
100
AcDbLine
 10
13.456539201
 20
65.862950982
 30
0.0
 11
14.2867734403
 21
65.7755579042
 31
0.0
  0
LINE
  5
3A9
330
1F
100
AcDbEntity
  8
OBJECT
  6
SLD-Solid
370
    25
100
AcDbLine
 10
15.5967734403
 20
65.7755579042
 30
0.0
 11
16.4270076795
 21
65.862950982
 31
0.0
  0
LINE
  5
3AA
330
1F
100
AcDbEntity
  8
OBJECT
  6
SLD-Solid
370
    25
100
AcDbLine
 10
47.4742734403
 20
66.2516631674
 30
0.0
 11
47.4742734403
 21
65.9126762547
 31
0.0
  0
LINE
  5
3AB
330
1F
100
AcDbEntity
  8
OBJECT
  6
SLD-Solid
370
    25
100
AcDbLine
 10
50.5342734403
 20
65.9126762547
 30
0.0
 11
50.5342734403
 21
66.2516631674
 31
0.0
  0
ARC
  5
3AC
330
1F
100
AcDbEntity
  8
OBJECT
  6
SLD-Solid
370
    25
100
AcDbCircle
 10
50.4842734403
 20
65.9126762547
 30
0.0
 40
0.050000000000015
100
AcDbArc
 50
276.0090059575
 51
0.0
  0
ARC
  5
3AD
330
1F
100
AcDbEntity
  8
OBJECT
  6
SLD-Solid
370
    25
100
AcDbCircle
 10
47.5242734403
 20
65.9126762547
 30
0.0
 40
0.0500000000000158
100
AcDbArc
 50
180.0
 51
263.9909940425
  0
LINE
  5
3AE
330
1F
100
AcDbEntity
  8
OBJECT
  6
SLD-Solid
370
    25
100
AcDbLine
 10
47.519039201
 20
65.862950982
 30
0.0
 11
48.3492734403
 21
65.7755579042
 31
0.0
  0
LINE
  5
3AF
330
1F
100
AcDbEntity
  8
OBJECT
  6
SLD-Solid
370
    25
100
AcDbLine
 10
49.6592734403
 20
65.7755579042
 30
0.0
 11
50.4895076795
 21
65.862950982
 31
0.0
  0
LINE
  5
3B0
330
1F
100
AcDbEntity
  8
OBJECT
  6
SLD-Solid
370
    25
100
AcDbLine
 10
53.4117734402
 20
66.2516631674
 30
0.0
 11
53.4117734402
 21
65.9126762547
 31
0.0
  0
LINE
  5
3B1
330
1F
100
AcDbEntity
  8
OBJECT
  6
SLD-Solid
370
    25
100
AcDbLine
 10
56.4717734402
 20
65.9126762547
 30
0.0
 11
56.4717734402
 21
66.2516631674
 31
0.0
  0
ARC
  5
3B2
330
1F
100
AcDbEntity
  8
OBJECT
  6
SLD-Solid
370
    25
100
AcDbCircle
 10
56.4217734402
 20
65.9126762547
 30
0.0
 40
0.0500000000000158
100
AcDbArc
 50
276.0090059575
 51
0.0
  0
ARC
  5
3B3
330
1F
100
AcDbEntity
  8
OBJECT
  6
SLD-Solid
370
    25
100
AcDbCircle
 10
53.4617734402
 20
65.9126762547
 30
0.0
 40
0.050000000000015
100
AcDbArc
 50
180.0
 51
263.9909940425
  0
LINE
  5
3B4
330
1F
100
AcDbEntity
  8
OBJECT
  6
SLD-Solid
370
    25
100
AcDbLine
 10
53.456539201
 20
65.862950982
 30
0.0
 11
54.2867734402
 21
65.7755579042
 31
0.0
  0
LINE
  5
3B5
330
1F
100
AcDbEntity
  8
OBJECT
  6
SLD-Solid
370
    25
100
AcDbLine
 10
55.5967734402
 20
65.7755579042
 30
0.0
 11
56.4270076795
 21
65.862950982
 31
0.0
  0
ARC
  5
3B6
330
1F
100
AcDbEntity
  8
OBJECT
  6
SLD-Solid
370
    25
100
AcDbCircle
 10
54.9417734402
 20
64.0636631674
 30
0.0
 40
0.6325000000000003
100
AcDbArc
 50
180.0
 51
0.0
  0
SPLINE
  5
3B7
330
1F
100
AcDbEntity
  8
OBJECT
  6
SLD-Solid
370
    25
100
AcDbSpline
210
0.0
220
0.0
230
1.0
 70
     8
 71
     3
 72
    53
 73
    49
 74
     0
 42
0.00000001
 43
0.00000001
 40
0.0
 40
0.0
 40
0.0
 40
0.0
 40
0.0011516199169097
 40
0.0189188652260633
 40
0.0513435785375898
 40
0.0847402040891701
 40
0.1100943472758279
 40
0.1271895957301891
 40
0.1530637240715479
 40
0.1702819706929095
 40
0.1876164063844004
 40
0.2050989005475024
 40
0.2315761131464092
 40
0.2583006484468366
 40
0.2761585928059249
 40
0.2940751011983046
 40
0.3218406055625497
 40
0.3431126042520967
 40
0.3668653664012433
 40
0.4038185366705485
 40
0.4246289616393366
 40
0.4454858577247322
 40
0.4663092663406658
 40
0.4875508014476157
 40
0.4995239358310231
 40
0.5115454156700179
 40
0.5238595865778612
 40
0.5365186296115648
 40
0.5545049695197178
 40
0.5725687922097268
 40
0.5907427321466714
 40
0.6212199924643107
 40
0.6457262488618294
 40
0.668917602547683
 40
0.6917385630315808
 40
0.7130985826935915
 40
0.7424080464758445
 40
0.7648910917027002
 40
0.7874621441763499
 40
0.8154274510578835
 40
0.8351862813438665
 40
0.8550392209642901
 40
0.876107650090273
 40
0.90078317342228
 40
0.9248898105792555
 40
0.9493028411266595
 40
0.971345259763812
 40
0.9999999999999999
 40
0.9999999999999999
 40
0.9999999999999999
 40
0.9999999999999999
 10
48.37635436848056
 20
64.69608281590972
 30
0.0
 10
48.37632772687245
 20
64.6961092676365
 30
0.0
 10
48.37589005730276
 20
64.69654381782681
 30
0.0
 10
48.37811634007647
 20
64.69433337845396
 30
0.0
 10
48.38598381391535
 20
64.68652225824444
 30
0.0
 10
48.40310901463454
 20
64.66952521889182
 30
0.0
 10
48.42229567021575
 20
64.65049242601269
 30
0.0
 10
48.44249799505711
 20
64.63046258310446
 30
0.0
 10
48.46263747789745
 20
64.61050712791297
 30
0.0
 10
48.48484916990017
 20
64.58851664578023
 30
0.0
 10
48.50521456682054
 20
64.56836975943973
 30
0.0
 10
48.53051067313588
 20
64.54336846115591
 30
0.0
 10
48.56138463693403
 20
64.51289677970433
 30
0.0
 10
48.59415118198218
 20
64.4806299172811
 30
0.0
 10
48.62403897139892
 20
64.45127382867425
 30
0.0
 10
48.65520970519884
 20
64.42073630088541
 30
0.0
 10
48.68901145426487
 20
64.38775643326161
 30
0.0
 10
48.72671245365816
 20
64.35121130131243
 30
0.0
 10
48.77009312309301
 20
64.30952453153483
 30
0.0
 10
48.81441386671097
 20
64.26762822035668
 30
0.0
 10
48.85843327971498
 20
64.22754835950708
 30
0.0
 10
48.89446957623953
 20
64.1962826824178
 30
0.0
 10
48.93244687593363
 20
64.16661441082493
 30
0.0
 10
48.9684020008357
 20
64.14459492023629
 30
0.0
 10
49.0032402130255
 20
64.13713165109122
 30
0.0
 10
49.03141033623024
 20
64.1423539239714
 30
0.0
 10
49.05715405905251
 20
64.15496497731986
 30
0.0
 10
49.08472318733563
 20
64.17325445896277
 30
0.0
 10
49.11406091727377
 20
64.19641923209575
 30
0.0
 10
49.1454155600896
 20
64.22342504781736
 30
0.0
 10
49.18296622158206
 20
64.25734654698287
 30
0.0
 10
49.22306327658928
 20
64.29491397652082
 30
0.0
 10
49.26486309945475
 20
64.33485138801507
 30
0.0
 10
49.30175320827102
 20
64.37048788833867
 30
0.0
 10
49.33619607479002
 20
64.40399667764402
 30
0.0
 10
49.3728298681057
 20
64.439810546918
 30
0.0
 10
49.40810523635811
 20
64.47444029523538
 30
0.0
 10
49.44246748143085
 20
64.50827240046175
 30
0.0
 10
49.47473557162092
 20
64.54010609759169
 30
0.0
 10
49.50396430781521
 20
64.56899209800405
 30
0.0
 10
49.53003759603091
 20
64.5947911469559
 30
0.0
 10
49.55173843501922
 20
64.61628188179773
 30
0.0
 10
49.5730256389008
 20
64.63737805141515
 30
0.0
 10
49.59274422901439
 20
64.65693228040924
 30
0.0
 10
49.6096445153575
 20
64.67370031048978
 30
0.0
 10
49.6217451814333
 20
64.68571069644524
 30
0.0
 10
49.63042452019812
 20
64.69432732237848
 30
0.0
 10
49.63160577729607
 20
64.6955002259445
 30
0.0
 10
49.63227344025877
 20
64.6961631673746
 30
0.0
  0
LINE
  5
3B8
330
1F
100
AcDbEntity
  8
OBJECT
  6
SLD-Solid
370
    25
100
AcDbLine
 10
16.4717734403
 20
66.2516631674
 30
0.0
 11
13.4117734403
 21
66.2516631674
 31
0.0
  0
LINE
  5
3B9
330
1F
100
AcDbEntity
  8
OBJECT
  6
SLD-Solid
370
    25
100
AcDbLine
 10
14.2867734403
 20
65.7755579042
 30
0.0
 11
15.5967734403
 21
65.7755579042
 31
0.0
  0
LINE
  5
3BA
330
1F
100
AcDbEntity
  8
OBJECT
  6
SLD-Solid
370
    25
100
AcDbLine
 10
50.5342734403
 20
66.2516631674
 30
0.0
 11
47.4742734403
 21
66.2516631674
 31
0.0
  0
LINE
  5
3BB
330
1F
100
AcDbEntity
  8
OBJECT
  6
SLD-Solid
370
    25
100
AcDbLine
 10
48.3492734403
 20
65.7755579042
 30
0.0
 11
49.6592734403
 21
65.7755579042
 31
0.0
  0
LINE
  5
3BC
330
1F
100
AcDbEntity
  8
OBJECT
  6
SLD-Solid
370
    25
100
AcDbLine
 10
56.4717734402
 20
66.2516631674
 30
0.0
 11
53.4117734402
 21
66.2516631674
 31
0.0
  0
LINE
  5
3BD
330
1F
100
AcDbEntity
  8
OBJECT
  6
SLD-Solid
370
    25
100
AcDbLine
 10
54.2867734402
 20
65.7755579042
 30
0.0
 11
55.5967734402
 21
65.7755579042
 31
0.0
  0
LINE
  5
3BE
330
1F
100
AcDbEntity
  8
OBJECT
  6
SLD-Solid
370
    25
100
AcDbLine
 10
16.4270076795
 20
65.862950982
 30
0.0
 11
13.456539201
 21
65.862950982
 31
0.0
  0
LINE
  5
3BF
330
1F
100
AcDbEntity
  8
OBJECT
  6
SLD-Solid
370
    25
100
AcDbLine
 10
50.4895076795
 20
65.862950982
 30
0.0
 11
47.519039201
 21
65.862950982
 31
0.0
  0
LINE
  5
3C0
330
1F
100
AcDbEntity
  8
OBJECT
  6
SLD-Solid
370
    25
100
AcDbLine
 10
56.4270076795
 20
65.862950982
 30
0.0
 11
53.456539201
 21
65.862950982
 31
0.0
  0
HATCH
  5
3C1
330
1F
100
AcDbEntity
  8
NOTES
100
AcDbHatch
 10
0.0
 20
0.0
 30
0.0
210
0.0
220
0.0
230
1.0
  2
AR-SAND
 70
     0
 71
     0
 91
        1
 92
        0
 93
        4
 72
     1
 10
46.94177344025873
 20
63.43116316737459
 11
46.94177344025873
 21
64.69616316737459
 72
     1
 10
46.94177344025873
 20
64.69616316737459
 11
18.94177344025873
 21
64.69616316737459
 72
     1
 10
18.94177344025873
 20
64.69616316737459
 11
18.94177344025873
 21
63.43116316737459
 72
     1
 10
18.94177344025873
 20
63.43116316737459
 11
46.94177344025873
 21
63.43116316737459
 97
        0
 75
     0
 76
     1
 52
0.0
 41
5.3333333333
 77
     0
 78
     4
 53
37.5
 43
0.0
 44
0.0
 45
-0.3359645765845768
 46
10.27639343473685
 79
     6
 49
0.0
 49
-8.106666666666666
 49
0.0
 49
-9.066666666666666
 49
0.0
 49
-8.666666666666666
 53
7.5
 43
0.0
 44
0.0
 45
9.438809094761211
 46
15.05144568122528
 79
     6
 49
0.0
 49
-4.373333333333333
 49
0.0
 49
-7.306666666666667
 49
0.0
 49
-2.8
 53
-32.5
 43
-6.56
 44
0.0
 45
16.60875659600797
 46
0.0301816188638118
 79
     6
 49
0.0
 49
-2.666666666666667
 49
0.0
 49
-9.6
 49
0.0
 49
-12.53333333333333
 53
-42.50000000000001
 43
-6.56
 44
0.0
 45
16.03267522438556
 46
4.680936346315996
 79
     6
 49
0.0
 49
-1.333333333333333
 49
0.0
 49
-6.293333333333333
 49
0.0
 49
-7.2
 98
        1
 10
0.0
 20
0.0
  0
MTEXT
  5
3C2
330
1F
100
AcDbEntity
  8
NOTES
100
AcDbMText
 10
34.3224350851
 20
62.5871272494
 30
0.0
 40
0.5
 41
0.0
 71
     1
 72
     1
  1
Top view
  7
SLDTEXTSTYLE1
 73
     1
 44
1.0
  0
ENDSEC
  0
SECTION
  2
OBJECTS
  0
DICTIONARY
  5
C
330
0
100
AcDbDictionary
281
     1
  3
ACAD_GROUP
350
D
  3
ACAD_LAYOUT
350
1A
  3
ACAD_MLINESTYLE
350
17
  3
ACAD_PLOTSETTINGS
350
19
  3
ACAD_PLOTSTYLENAME
350
E
  3
ACAD_SCALELIST
350
47
  3
DWGPROPS
350
3C3
  0
DICTIONARY
  5
D
102
{ACAD_REACTORS
330
C
102
}
330
C
100
AcDbDictionary
281
     1
  0
DICTIONARY
  5
1A
102
{ACAD_REACTORS
330
C
102
}
330
C
100
AcDbDictionary
281
     1
  3
Layout1
350
1E
  3
Layout2
350
26
  3
Model
350
22
  0
DICTIONARY
  5
17
102
{ACAD_REACTORS
330
C
102
}
330
C
100
AcDbDictionary
281
     1
  3
Standard
350
18
  0
DICTIONARY
  5
19
102
{ACAD_REACTORS
330
C
102
}
330
C
100
AcDbDictionary
281
     1
  0
ACDBDICTIONARYWDFLT
  5
E
102
{ACAD_REACTORS
330
C
102
}
330
C
100
AcDbDictionary
281
     1
  3
Normal
350
F
100
AcDbDictionaryWithDefault
340
F
  0
DICTIONARY
  5
47
102
{ACAD_REACTORS
330
C
102
}
330
C
100
AcDbDictionary
281
     1
  3
A0
350
48
  3
A1
350
49
  3
A2
350
4A
  3
A3
350
4B
  3
A4
350
4C
  3
A5
350
4D
  3
A6
350
4E
  3
A7
350
4F
  3
A8
350
50
  3
A9
350
51
  3
B0
350
52
  3
B1
350
53
  3
B2
350
54
  3
B3
350
55
  3
B4
350
56
  3
B5
350
57
  3
B6
350
58
  3
B7
350
59
  3
B8
350
5A
  3
B9
350
5B
  3
C0
350
5C
  3
C1
350
5D
  3
C2
350
5E
  3
C3
350
5F
  3
C4
350
60
  3
C5
350
61
  3
C6
350
62
  3
C7
350
63
  3
C8
350
64
  3
C9
350
65
  3
D0
350
66
  3
D1
350
67
  3
D2
350
68
  0
XRECORD
  5
3C3
102
{ACAD_REACTORS
330
C
102
}
330
C
100
AcDbXrecord
280
     1
  1
DWGPROPS COOKIE
  2

  3

  4

  6

  7

  8
carl
  9

300
=
301
=
302
=
303
=
304
=
305
=
306
=
307
=
308
=
309
=
 40
0.0
 41
2459481.819332384
 42
2459481.819338403
  1

 90
        0
  0
LAYOUT
  5
1E
102
{ACAD_REACTORS
330
1A
102
}
330
1A
100
AcDbPlotSettings
  1

  2
none_device
  4

  6

 40
0.0
 41
0.0
 42
0.0
 43
0.0
 44
0.0
 45
0.0
 46
0.0
 47
0.0
 48
0.0
 49
0.0
140
0.0
141
0.0
142
1.0
143
1.0
 70
   688
 72
     0
 73
     0
 74
     5
  7

 75
    16
147
1.0
148
0.0
149
0.0
100
AcDbLayout
  1
Layout1
 70
     1
 71
     1
 10
0.0
 20
0.0
 11
12.0
 21
9.0
 12
0.0
 22
0.0
 32
0.0
 14
1.0000000000E+20
 24
1.0000000000E+20
 34
1.0000000000E+20
 15
-1.0000000000E+20
 25
-1.0000000000E+20
 35
-1.0000000000E+20
146
0.0
 13
0.0
 23
0.0
 33
0.0
 16
1.0
 26
0.0
 36
0.0
 17
0.0
 27
1.0
 37
0.0
 76
     0
330
1B
  0
LAYOUT
  5
26
102
{ACAD_REACTORS
330
1A
102
}
330
1A
100
AcDbPlotSettings
  1

  2
none_device
  4

  6

 40
0.0
 41
0.0
 42
0.0
 43
0.0
 44
0.0
 45
0.0
 46
0.0
 47
0.0
 48
0.0
 49
0.0
140
0.0
141
0.0
142
1.0
143
1.0
 70
   688
 72
     0
 73
     0
 74
     5
  7

 75
    16
147
1.0
148
0.0
149
0.0
100
AcDbLayout
  1
Layout2
 70
     1
 71
     2
 10
0.0
 20
0.0
 11
0.0
 21
0.0
 12
0.0
 22
0.0
 32
0.0
 14
0.0
 24
0.0
 34
0.0
 15
0.0
 25
0.0
 35
0.0
146
0.0
 13
0.0
 23
0.0
 33
0.0
 16
1.0
 26
0.0
 36
0.0
 17
0.0
 27
1.0
 37
0.0
 76
     0
330
23
  0
LAYOUT
  5
22
102
{ACAD_REACTORS
330
1A
102
}
330
1A
100
AcDbPlotSettings
  1

  2
none_device
  4
Letter_(8.50_x_11.00_Inches)
  6

 40
6.35
 41
6.35
 42
6.35000508
 43
6.35000508
 44
215.9
 45
279.4
 46
0.0
 47
0.0
 48
0.0
 49
0.0
140
0.0
141
0.0
142
1.0
143
1.0
 70
  1712
 72
     0
 73
     0
 74
     0
  7

 75
     0
147
1.0
148
0.0
149
0.0
100
AcDbLayout
  1
Model
 70
     1
 71
     0
 10
0.0
 20
0.0
 11
90.0
 21
120.0
 12
0.0
 22
0.0
 32
0.0
 14
0.0
 24
0.0
 34
0.0
 15
90.0
 25
120.0
 35
0.0
146
0.0
 13
0.0
 23
0.0
 33
0.0
 16
1.0
 26
0.0
 36
0.0
 17
0.0
 27
1.0
 37
0.0
 76
     0
330
1F
331
29
  0
MLINESTYLE
  5
18
102
{ACAD_REACTORS
330
17
102
}
330
17
100
AcDbMlineStyle
  2
Standard
 70
     0
  3

 62
   256
 51
90.0
 52
90.0
 71
     2
 49
0.5
 62
   256
  6
BYLAYER
 49
-0.5
 62
   256
  6
BYLAYER
  0
ACDBPLACEHOLDER
  5
F
102
{ACAD_REACTORS
330
E
102
}
330
E
  0
SCALE
  5
48
102
{ACAD_REACTORS
330
47
102
}
330
47
100
AcDbScale
 70
     0
300
1:1
140
1.0
141
1.0
290
     1
  0
SCALE
  5
49
102
{ACAD_REACTORS
330
47
102
}
330
47
100
AcDbScale
 70
     0
300
1:2
140
1.0
141
2.0
290
     0
  0
SCALE
  5
4A
102
{ACAD_REACTORS
330
47
102
}
330
47
100
AcDbScale
 70
     0
300
1:4
140
1.0
141
4.0
290
     0
  0
SCALE
  5
4B
102
{ACAD_REACTORS
330
47
102
}
330
47
100
AcDbScale
 70
     0
300
1:5
140
1.0
141
5.0
290
     0
  0
SCALE
  5
4C
102
{ACAD_REACTORS
330
47
102
}
330
47
100
AcDbScale
 70
     0
300
1:8
140
1.0
141
8.0
290
     0
  0
SCALE
  5
4D
102
{ACAD_REACTORS
330
47
102
}
330
47
100
AcDbScale
 70
     0
300
1:10
140
1.0
141
10.0
290
     0
  0
SCALE
  5
4E
102
{ACAD_REACTORS
330
47
102
}
330
47
100
AcDbScale
 70
     0
300
1:16
140
1.0
141
16.0
290
     0
  0
SCALE
  5
4F
102
{ACAD_REACTORS
330
47
102
}
330
47
100
AcDbScale
 70
     0
300
1:20
140
1.0
141
20.0
290
     0
  0
SCALE
  5
50
102
{ACAD_REACTORS
330
47
102
}
330
47
100
AcDbScale
 70
     0
300
1:30
140
1.0
141
30.0
290
     0
  0
SCALE
  5
51
102
{ACAD_REACTORS
330
47
102
}
330
47
100
AcDbScale
 70
     0
300
1:40
140
1.0
141
40.0
290
     0
  0
SCALE
  5
52
102
{ACAD_REACTORS
330
47
102
}
330
47
100
AcDbScale
 70
     0
300
1:50
140
1.0
141
50.0
290
     0
  0
SCALE
  5
53
102
{ACAD_REACTORS
330
47
102
}
330
47
100
AcDbScale
 70
     0
300
1:100
140
1.0
141
100.0
290
     0
  0
SCALE
  5
54
102
{ACAD_REACTORS
330
47
102
}
330
47
100
AcDbScale
 70
     0
300
2:1
140
2.0
141
1.0
290
     0
  0
SCALE
  5
55
102
{ACAD_REACTORS
330
47
102
}
330
47
100
AcDbScale
 70
     0
300
4:1
140
4.0
141
1.0
290
     0
  0
SCALE
  5
56
102
{ACAD_REACTORS
330
47
102
}
330
47
100
AcDbScale
 70
     0
300
8:1
140
8.0
141
1.0
290
     0
  0
SCALE
  5
57
102
{ACAD_REACTORS
330
47
102
}
330
47
100
AcDbScale
 70
     0
300
10:1
140
10.0
141
1.0
290
     0
  0
SCALE
  5
58
102
{ACAD_REACTORS
330
47
102
}
330
47
100
AcDbScale
 70
     0
300
100:1
140
100.0
141
1.0
290
     0
  0
SCALE
  5
59
102
{ACAD_REACTORS
330
47
102
}
330
47
100
AcDbScale
 70
     0
300
1/128" = 1'-0"
140
0.0078125
141
12.0
290
     0
  0
SCALE
  5
5A
102
{ACAD_REACTORS
330
47
102
}
330
47
100
AcDbScale
 70
     0
300
1/64" = 1'-0"
140
0.015625
141
12.0
290
     0
  0
SCALE
  5
5B
102
{ACAD_REACTORS
330
47
102
}
330
47
100
AcDbScale
 70
     0
300
1/32" = 1'-0"
140
0.03125
141
12.0
290
     0
  0
SCALE
  5
5C
102
{ACAD_REACTORS
330
47
102
}
330
47
100
AcDbScale
 70
     0
300
1/16" = 1'-0"
140
0.0625
141
12.0
290
     0
  0
SCALE
  5
5D
102
{ACAD_REACTORS
330
47
102
}
330
47
100
AcDbScale
 70
     0
300
3/32" = 1'-0"
140
0.09375
141
12.0
290
     0
  0
SCALE
  5
5E
102
{ACAD_REACTORS
330
47
102
}
330
47
100
AcDbScale
 70
     0
300
1/8" = 1'-0"
140
0.125
141
12.0
290
     0
  0
SCALE
  5
5F
102
{ACAD_REACTORS
330
47
102
}
330
47
100
AcDbScale
 70
     0
300
3/16" = 1'-0"
140
0.1875
141
12.0
290
     0
  0
SCALE
  5
60
102
{ACAD_REACTORS
330
47
102
}
330
47
100
AcDbScale
 70
     0
300
1/4" = 1'-0"
140
0.25
141
12.0
290
     0
  0
SCALE
  5
61
102
{ACAD_REACTORS
330
47
102
}
330
47
100
AcDbScale
 70
     0
300
3/8" = 1'-0"
140
0.375
141
12.0
290
     0
  0
SCALE
  5
62
102
{ACAD_REACTORS
330
47
102
}
330
47
100
AcDbScale
 70
     0
300
1/2" = 1'-0"
140
0.5
141
12.0
290
     0
  0
SCALE
  5
63
102
{ACAD_REACTORS
330
47
102
}
330
47
100
AcDbScale
 70
     0
300
3/4" = 1'-0"
140
0.75
141
12.0
290
     0
  0
SCALE
  5
64
102
{ACAD_REACTORS
330
47
102
}
330
47
100
AcDbScale
 70
     0
300
1" = 1'-0"
140
1.0
141
12.0
290
     0
  0
SCALE
  5
65
102
{ACAD_REACTORS
330
47
102
}
330
47
100
AcDbScale
 70
     0
300
1-1/2" = 1'-0"
140
1.5
141
12.0
290
     0
  0
SCALE
  5
66
102
{ACAD_REACTORS
330
47
102
}
330
47
100
AcDbScale
 70
     0
300
3" = 1'-0"
140
3.0
141
12.0
290
     0
  0
SCALE
  5
67
102
{ACAD_REACTORS
330
47
102
}
330
47
100
AcDbScale
 70
     0
300
6" = 1'-0"
140
6.0
141
12.0
290
     0
  0
SCALE
  5
68
102
{ACAD_REACTORS
330
47
102
}
330
47
100
AcDbScale
 70
     0
300
1'-0" = 1'-0"
140
12.0
141
12.0
290
     0
  0
ENDSEC
  0
EOF
