  0
SECTION
  2
HEADER
  9
$ACADVER
  1
AC1015
  9
$ACADMAINTVER
 70
     6
  9
$DWGCODEPAGE
  3
ANSI_1252
  9
$INSBASE
 10
0.0
 20
0.0
 30
0.0
  9
$EXTMIN
 10
0.0
 20
0.0
 30
0.0
  9
$EXTMAX
 10
90.0
 20
60.0
 30
0.0
  9
$LIMMIN
 10
0.0
 20
0.0
  9
$LIMMAX
 10
90.0
 20
60.0
  9
$ORTHOMODE
 70
     0
  9
$REGENMODE
 70
     1
  9
$FILLMODE
 70
     1
  9
$QTEXTMODE
 70
     0
  9
$MIRRTEXT
 70
     1
  9
$LTSCALE
 40
1.0
  9
$ATTMODE
 70
     1
  9
$TEXTSIZE
 40
0.5
  9
$TRACEWID
 40
0.05
  9
$TEXTSTYLE
  7
STANDARD
  9
$CLAYER
  8
0
  9
$CELTYPE
  6
ByLayer
  9
$CECOLOR
 62
   256
  9
$CELTSCALE
 40
1.0
  9
$DISPSILH
 70
     0
  9
$DIMSCALE
 40
1.0
  9
$DIMASZ
 40
0.3
  9
$DIMEXO
 40
0.1666666667
  9
$DIMDLI
 40
0.38
  9
$DIMRND
 40
0.0
  9
$DIMDLE
 40
0.0
  9
$DIMEXE
 40
0.375
  9
$DIMTP
 40
0.0
  9
$DIMTM
 40
0.0
  9
$DIMTXT
 40
0.5
  9
$DIMCEN
 40
0.09
  9
$DIMTSZ
 40
0.0
  9
$DIMTOL
 70
     0
  9
$DIMLIM
 70
     0
  9
$DIMTIH
 70
     1
  9
$DIMTOH
 70
     1
  9
$DIMSE1
 70
     0
  9
$DIMSE2
 70
     0
  9
$DIMTAD
 70
     0
  9
$DIMZIN
 70
     1
  9
$DIMBLK
  1

  9
$DIMASO
 70
     1
  9
$DIMSHO
 70
     1
  9
$DIMPOST
  1

  9
$DIMAPOST
  1

  9
$DIMALT
 70
     0
  9
$DIMALTD
 70
     2
  9
$DIMALTF
 40
25.4
  9
$DIMLFAC
 40
1.0
  9
$DIMTOFL
 70
     0
  9
$DIMTVP
 40
0.0
  9
$DIMTIX
 70
     0
  9
$DIMSOXD
 70
     0
  9
$DIMSAH
 70
     0
  9
$DIMBLK1
  1

  9
$DIMBLK2
  1

  9
$DIMSTYLE
  2
Standard
  9
$DIMCLRD
 70
     0
  9
$DIMCLRE
 70
     0
  9
$DIMCLRT
 70
     0
  9
$DIMTFAC
 40
1.0
  9
$DIMGAP
 40
0.125
  9
$DIMJUST
 70
     0
  9
$DIMSD1
 70
     0
  9
$DIMSD2
 70
     0
  9
$DIMTOLJ
 70
     1
  9
$DIMTZIN
 70
     1
  9
$DIMALTZ
 70
     0
  9
$DIMALTTZ
 70
     0
  9
$DIMUPT
 70
     0
  9
$DIMDEC
 70
     2
  9
$DIMTDEC
 70
     2
  9
$DIMALTU
 70
     2
  9
$DIMALTTD
 70
     2
  9
$DIMTXSTY
  7
STANDARD
  9
$DIMAUNIT
 70
     0
  9
$DIMADEC
 70
     2
  9
$DIMALTRND
 40
0.0
  9
$DIMAZIN
 70
     0
  9
$DIMDSEP
 70
    46
  9
$DIMATFIT
 70
     3
  9
$DIMFRAC
 70
     0
  9
$DIMLDRBLK
  1

  9
$DIMLUNIT
 70
     2
  9
$DIMLWD
 70
    -2
  9
$DIMLWE
 70
    -2
  9
$DIMTMOVE
 70
     0
  9
$LUNITS
 70
     2
  9
$LUPREC
 70
     4
  9
$SKETCHINC
 40
0.1
  9
$FILLETRAD
 40
0.5
  9
$AUNITS
 70
     0
  9
$AUPREC
 70
     2
  9
$MENU
  1
.
  9
$ELEVATION
 40
0.0
  9
$PELEVATION
 40
0.0
  9
$THICKNESS
 40
0.0
  9
$LIMCHECK
 70
     0
  9
$CHAMFERA
 40
0.0
  9
$CHAMFERB
 40
0.0
  9
$CHAMFERC
 40
0.0
  9
$CHAMFERD
 40
0.0
  9
$SKPOLY
 70
     0
  9
$TDCREATE
 40
2459507.587591516
  9
$TDUCREATE
 40
2459507.754258183
  9
$TDUPDATE
 40
2459507.587595486
  9
$TDUUPDATE
 40
2459507.754262153
  9
$TDINDWG
 40
0.0000000116
  9
$TDUSRTIMER
 40
0.0000000116
  9
$USRTIMER
 70
     1
  9
$ANGBASE
 50
0.0
  9
$ANGDIR
 70
     0
  9
$PDMODE
 70
     0
  9
$PDSIZE
 40
-1.0
  9
$PLINEWID
 40
0.0
  9
$SPLFRAME
 70
     0
  9
$SPLINETYPE
 70
     6
  9
$SPLINESEGS
 70
     8
  9
$HANDSEED
  5
2D1
  9
$SURFTAB1
 70
     6
  9
$SURFTAB2
 70
     6
  9
$SURFTYPE
 70
     6
  9
$SURFU
 70
     6
  9
$SURFV
 70
     6
  9
$UCSBASE
  2

  9
$UCSNAME
  2

  9
$UCSORG
 10
0.0
 20
0.0
 30
0.0
  9
$UCSXDIR
 10
1.0
 20
0.0
 30
0.0
  9
$UCSYDIR
 10
0.0
 20
1.0
 30
0.0
  9
$UCSORTHOREF
  2

  9
$UCSORTHOVIEW
 70
     0
  9
$UCSORGTOP
 10
0.0
 20
0.0
 30
0.0
  9
$UCSORGBOTTOM
 10
0.0
 20
0.0
 30
0.0
  9
$UCSORGLEFT
 10
0.0
 20
0.0
 30
0.0
  9
$UCSORGRIGHT
 10
0.0
 20
0.0
 30
0.0
  9
$UCSORGFRONT
 10
0.0
 20
0.0
 30
0.0
  9
$UCSORGBACK
 10
0.0
 20
0.0
 30
0.0
  9
$PUCSBASE
  2

  9
$PUCSNAME
  2

  9
$PUCSORG
 10
0.0
 20
0.0
 30
0.0
  9
$PUCSXDIR
 10
1.0
 20
0.0
 30
0.0
  9
$PUCSYDIR
 10
0.0
 20
1.0
 30
0.0
  9
$PUCSORTHOREF
  2

  9
$PUCSORTHOVIEW
 70
     0
  9
$PUCSORGTOP
 10
0.0
 20
0.0
 30
0.0
  9
$PUCSORGBOTTOM
 10
0.0
 20
0.0
 30
0.0
  9
$PUCSORGLEFT
 10
0.0
 20
0.0
 30
0.0
  9
$PUCSORGRIGHT
 10
0.0
 20
0.0
 30
0.0
  9
$PUCSORGFRONT
 10
0.0
 20
0.0
 30
0.0
  9
$PUCSORGBACK
 10
0.0
 20
0.0
 30
0.0
  9
$USERI1
 70
     0
  9
$USERI2
 70
     0
  9
$USERI3
 70
     0
  9
$USERI4
 70
     0
  9
$USERI5
 70
     0
  9
$USERR1
 40
0.0
  9
$USERR2
 40
0.0
  9
$USERR3
 40
0.0
  9
$USERR4
 40
0.0
  9
$USERR5
 40
0.0
  9
$WORLDVIEW
 70
     1
  9
$SHADEDGE
 70
     3
  9
$SHADEDIF
 70
    70
  9
$TILEMODE
 70
     1
  9
$MAXACTVP
 70
    64
  9
$PINSBASE
 10
0.0
 20
0.0
 30
0.0
  9
$PLIMCHECK
 70
     0
  9
$PEXTMIN
 10
1.0000000000E+20
 20
1.0000000000E+20
 30
1.0000000000E+20
  9
$PEXTMAX
 10
-1.0000000000E+20
 20
-1.0000000000E+20
 30
-1.0000000000E+20
  9
$PLIMMIN
 10
0.0
 20
0.0
  9
$PLIMMAX
 10
12.0
 20
9.0
  9
$UNITMODE
 70
     0
  9
$VISRETAIN
 70
     1
  9
$PLINEGEN
 70
     0
  9
$PSLTSCALE
 70
     1
  9
$TREEDEPTH
 70
  3020
  9
$CMLSTYLE
  2
Standard
  9
$CMLJUST
 70
     0
  9
$CMLSCALE
 40
1.0
  9
$PROXYGRAPHICS
 70
     1
  9
$MEASUREMENT
 70
     0
  9
$CELWEIGHT
370
    -1
  9
$ENDCAPS
280
     0
  9
$JOINSTYLE
280
     0
  9
$LWDISPLAY
290
     1
  9
$INSUNITS
 70
     1
  9
$HYPERLINKBASE
  1

  9
$STYLESHEET
  1

  9
$XEDIT
290
     1
  9
$CEPSNTYPE
380
     0
  9
$PSTYLEMODE
290
     1
  9
$FINGERPRINTGUID
  2
{27ef2087-2fc6-41c3-90aa-1d5bf8c2427a}
  9
$VERSIONGUID
  2
{FAEB1C32-E019-11D5-929B-00C0DF256EC4}
  9
$EXTNAMES
290
     1
  9
$PSVPSCALE
 40
0.0
  9
$OLESTARTUP
290
     0
  0
ENDSEC
  0
SECTION
  2
CLASSES
  0
CLASS
  1
ACDBDICTIONARYWDFLT
  2
AcDbDictionaryWithDefault
  3
ObjectDBX Classes
 90
        0
280
     0
281
     0
  0
CLASS
  1
VISUALSTYLE
  2
AcDbVisualStyle
  3
ObjectDBX Classes
 90
     4095
280
     0
281
     0
  0
CLASS
  1
MATERIAL
  2
AcDbMaterial
  3
ObjectDBX Classes
 90
     1153
280
     0
281
     0
  0
CLASS
  1
SCALE
  2
AcDbScale
  3
ObjectDBX Classes
 90
     1153
280
     0
281
     0
  0
CLASS
  1
TABLESTYLE
  2
AcDbTableStyle
  3
ObjectDBX Classes
 90
     4095
280
     0
281
     0
  0
CLASS
  1
MLEADERSTYLE
  2
AcDbMLeaderStyle
  3
ACDB_MLEADERSTYLE_CLASS
 90
     4095
280
     0
281
     0
  0
CLASS
  1
SUN
  2
AcDbSun
  3
SCENEOE
 90
     1153
280
     0
281
     0
  0
CLASS
  1
ACDBPLACEHOLDER
  2
AcDbPlaceHolder
  3
ObjectDBX Classes
 90
        0
280
     0
281
     0
  0
CLASS
  1
LAYOUT
  2
AcDbLayout
  3
ObjectDBX Classes
 90
        0
280
     0
281
     0
  0
ENDSEC
  0
SECTION
  2
TABLES
  0
TABLE
  2
VPORT
  5
8
330
0
100
AcDbSymbolTable
 70
     1
  0
VPORT
  5
29
330
8
100
AcDbSymbolTableRecord
100
AcDbViewportTableRecord
  2
*Active
 70
     0
 10
0.0
 20
0.0
 11
1.0
 21
1.0
 12
45.0
 22
30.0
 13
0.0
 23
0.0
 14
0.5
 24
0.5
 15
0.5
 25
0.5
 16
0.0
 26
0.0
 36
1.0
 17
0.0
 27
0.0
 37
0.0
 40
60.0
 41
1.5
 42
50.0
 43
0.0
 44
0.0
 50
0.0
 51
0.0
 71
     0
 72
  2000
 73
     1
 74
     3
 75
     0
 76
     0
 77
     0
 78
     0
281
     0
 65
     1
110
0.0
120
0.0
130
0.0
111
1.0
121
0.0
131
0.0
112
0.0
122
1.0
132
0.0
 79
     0
146
0.0
  0
ENDTAB
  0
TABLE
  2
LTYPE
  5
5
330
0
100
AcDbSymbolTable
 70
     8
  0
LTYPE
  5
14
330
5
100
AcDbSymbolTableRecord
100
AcDbLinetypeTableRecord
  2
ByBlock
 70
     0
  3

 72
    65
 73
     0
 40
0.0
  0
LTYPE
  5
15
330
5
100
AcDbSymbolTableRecord
100
AcDbLinetypeTableRecord
  2
ByLayer
 70
     0
  3

 72
    65
 73
     0
 40
0.0
  0
LTYPE
  5
16
330
5
100
AcDbSymbolTableRecord
100
AcDbLinetypeTableRecord
  2
Continuous
 70
     0
  3
Solid line
 72
    65
 73
     0
 40
0.0
  0
LTYPE
  5
6E
330
5
100
AcDbSymbolTableRecord
100
AcDbLinetypeTableRecord
  2
SLD-Solid
 70
     0
  3
SolidWorks Line Style
 72
    65
 73
     0
 40
0.0
  0
LTYPE
  5
6F
330
5
100
AcDbSymbolTableRecord
100
AcDbLinetypeTableRecord
  2
SLD-Dashed
 70
     0
  3
SolidWorks Line Style
 72
    65
 73
     2
 40
0.075
 49
0.05
 74
     0
 49
-0.025
 74
     0
  0
LTYPE
  5
70
330
5
100
AcDbSymbolTableRecord
100
AcDbLinetypeTableRecord
  2
SLD-Phantom
 70
     0
  3
SolidWorks Line Style
 72
    65
 73
     6
 40
0.5
 49
0.25
 74
     0
 49
-0.05
 74
     0
 49
0.05
 74
     0
 49
-0.05
 74
     0
 49
0.05
 74
     0
 49
-0.05
 74
     0
  0
LTYPE
  5
71
330
5
100
AcDbSymbolTableRecord
100
AcDbLinetypeTableRecord
  2
SLD-Chain
 70
     0
  3
SolidWorks Line Style
 72
    65
 73
     4
 40
0.4
 49
0.25
 74
     0
 49
-0.05
 74
     0
 49
0.05
 74
     0
 49
-0.05
 74
     0
  0
LTYPE
  5
72
330
5
100
AcDbSymbolTableRecord
100
AcDbLinetypeTableRecord
  2
SLD-Center
 70
     0
  3
SolidWorks Line Style
 72
    65
 73
     4
 40
0.75
 49
0.6
 74
     0
 49
-0.05
 74
     0
 49
0.05
 74
     0
 49
-0.05
 74
     0
  0
LTYPE
  5
73
330
5
100
AcDbSymbolTableRecord
100
AcDbLinetypeTableRecord
  2
SLD-Stitch
 70
     0
  3
SolidWorks Line Style
 72
    65
 73
     2
 40
0.025
 49
0.0
 74
     0
 49
-0.025
 74
     0
  0
LTYPE
  5
74
330
5
100
AcDbSymbolTableRecord
100
AcDbLinetypeTableRecord
  2
SLD-Thin-Thick-Chain
 70
     0
  3
SolidWorks Line Style
 72
    65
 73
     4
 40
0.4
 49
0.25
 74
     0
 49
-0.05
 74
     0
 49
0.05
 74
     0
 49
-0.05
 74
     0
  0
ENDTAB
  0
TABLE
  2
LAYER
  5
2
330
0
100
AcDbSymbolTable
 70
     6
  0
LAYER
  5
10
330
2
100
AcDbSymbolTableRecord
100
AcDbLayerTableRecord
  2
0
 70
     0
 62
     7
  6
Continuous
370
    -3
390
F
  0
LAYER
  5
75
330
2
100
AcDbSymbolTableRecord
100
AcDbLayerTableRecord
  2
FORMAT
 70
     0
 62
     7
  6
SLD-Solid
370
    -3
390
F
  0
LAYER
  5
76
330
2
100
AcDbSymbolTableRecord
100
AcDbLayerTableRecord
  2
NOTES
 70
     0
 62
     1
  6
SLD-Solid
370
    -3
390
F
  0
LAYER
  5
77
330
2
100
AcDbSymbolTableRecord
100
AcDbLayerTableRecord
  2
OBJECT
 70
     0
 62
     7
  6
SLD-Solid
370
    25
390
F
  0
LAYER
  5
78
330
2
100
AcDbSymbolTableRecord
100
AcDbLayerTableRecord
  2
DIMS
 70
     0
 62
     5
  6
SLD-Solid
370
    -3
390
F
  0
LAYER
  5
79
330
2
100
AcDbSymbolTableRecord
100
AcDbLayerTableRecord
  2
TITLE
 70
     0
 62
     7
  6
SLD-Solid
370
    -3
390
F
  0
ENDTAB
  0
TABLE
  2
STYLE
  5
3
330
0
100
AcDbSymbolTable
 70
     5
  0
STYLE
  5
11
330
3
100
AcDbSymbolTableRecord
100
AcDbTextStyleTableRecord
  2
STANDARD
 70
     0
 40
0.0
 41
1.0
 50
0.0
 71
     0
 42
0.5
  3
GOTHIC.TTF
  4

1001
ACAD
1000
CENTURY GOTHIC
1071
       34
  0
STYLE
  5
121
330
3
100
AcDbSymbolTableRecord
100
AcDbTextStyleTableRecord
  2
SLDTEXTSTYLE0
 70
     0
 40
0.0
 41
0.948
 50
0.0
 71
     0
 42
0.5
  3
ARIAL.TTF
  4

1001
ACAD
1000
Arial
1071
      290
  0
STYLE
  5
125
330
3
100
AcDbSymbolTableRecord
100
AcDbTextStyleTableRecord
  2
SLDTEXTSTYLE1
 70
     0
 40
0.0
 41
0.913
 50
0.0
 71
     0
 42
0.5
  3
GOTHIC.TTF
  4

1001
ACAD
1000
Century Gothic
1071
      290
  0
STYLE
  5
134
330
3
100
AcDbSymbolTableRecord
100
AcDbTextStyleTableRecord
  2
SLDTEXTSTYLE2
 70
     0
 40
0.0
 41
0.87
 50
0.0
 71
     0
 42
0.5
  3
ARIALNB.TTF
  4

1001
ACAD
1000
Arial Narrow
1071
 33554722
  0
STYLE
  5
136
330
3
100
AcDbSymbolTableRecord
100
AcDbTextStyleTableRecord
  2
SLDTEXTSTYLE3
 70
     0
 40
0.0
 41
0.87
 50
0.0
 71
     0
 42
0.5
  3
ARIALN.TTF
  4

1001
ACAD
1000
Arial Narrow
1071
      290
  0
ENDTAB
  0
TABLE
  2
VIEW
  5
6
330
0
100
AcDbSymbolTable
 70
     0
  0
ENDTAB
  0
TABLE
  2
UCS
  5
7
330
0
100
AcDbSymbolTable
 70
     0
  0
ENDTAB
  0
TABLE
  2
APPID
  5
9
330
0
100
AcDbSymbolTable
 70
     1
  0
APPID
  5
12
330
9
100
AcDbSymbolTableRecord
100
AcDbRegAppTableRecord
  2
ACAD
 70
     0
  0
ENDTAB
  0
TABLE
  2
DIMSTYLE
  5
A
330
0
100
AcDbSymbolTable
 70
     6
100
AcDbDimStyleTable
  0
DIMSTYLE
105
27
330
A
100
AcDbSymbolTableRecord
100
AcDbDimStyleTableRecord
  2
Standard
 70
     0
178
     0
340
11
  0
DIMSTYLE
105
1FA
102
{ACAD_REACTORS
330
1F9
330
20A
330
214
330
21F
102
}
330
A
100
AcDbSymbolTableRecord
100
AcDbDimStyleTableRecord
  2
SLDDIMSTYLE0
 70
     0
 41
0.3
 44
0.0
 45
0.000000001
 78
    12
 79
     3
140
0.5
147
0.125
173
     1
178
     0
271
     2
272
     2
276
     2
277
     5
284
    12
340
125
341
1FB
343
1FB
344
1FB
  0
DIMSTYLE
105
22B
102
{ACAD_REACTORS
330
22A
102
}
330
A
100
AcDbSymbolTableRecord
100
AcDbDimStyleTableRecord
  2
SLDDIMSTYLE1
 70
     0
 41
0.3
 44
0.0
 45
0.000000001
 78
    12
 79
     3
140
0.5
141
0.0
147
0.125
173
     1
178
     0
271
     2
272
     2
276
     2
277
     5
284
    12
340
125
341
1FB
343
1FB
344
1FB
  0
DIMSTYLE
105
237
330
A
100
AcDbSymbolTableRecord
100
AcDbDimStyleTableRecord
  2
SLDDIMSTYLE2
 70
     0
 41
0.3
 44
0.0
 45
0.000000001
146
0.3
147
0.0
173
     1
178
     0
271
     0
272
     0
276
     2
277
     5
340
11
341
1FB
343
1FB
344
1FB
  0
DIMSTYLE
105
26E
102
{ACAD_REACTORS
330
26D
102
}
330
A
100
AcDbSymbolTableRecord
100
AcDbDimStyleTableRecord
  2
SLDDIMSTYLE3
 70
     0
 41
0.3
 44
0.0
 45
0.000000001
 78
    12
 79
     3
140
0.5
147
0.125
173
     1
178
     0
271
     6
272
     2
276
     2
277
     5
284
    12
340
125
341
1FB
343
1FB
344
1FB
  0
DIMSTYLE
105
27D
102
{ACAD_REACTORS
330
27C
102
}
330
A
100
AcDbSymbolTableRecord
100
AcDbDimStyleTableRecord
  2
SLDDIMSTYLE4
 70
     0
 41
0.3
 44
0.0
 45
0.000000001
 78
    12
 79
     3
140
0.5
147
0.125
172
     1
173
     1
178
     0
271
     6
272
     2
276
     2
277
     5
284
    12
289
     0
340
125
341
1FB
343
1FB
344
1FB
  0
ENDTAB
  0
TABLE
  2
BLOCK_RECORD
  5
1
330
0
100
AcDbSymbolTable
 70
    13
  0
BLOCK_RECORD
  5
1F
330
1
100
AcDbSymbolTableRecord
100
AcDbBlockTableRecord
  2
*Model_Space
340
22
  0
BLOCK_RECORD
  5
1B
330
1
100
AcDbSymbolTableRecord
100
AcDbBlockTableRecord
  2
*Paper_Space
340
1E
  0
BLOCK_RECORD
  5
23
330
1
100
AcDbSymbolTableRecord
100
AcDbBlockTableRecord
  2
*Paper_Space0
340
26
  0
BLOCK_RECORD
  5
12B
330
1
100
AcDbSymbolTableRecord
100
AcDbBlockTableRecord
  2
SW_NOTE_0
340
0
102
{BLKREFS
331
130
102
}
  0
BLOCK_RECORD
  5
131
330
1
100
AcDbSymbolTableRecord
100
AcDbBlockTableRecord
  2
SW_NOTE_0_1
340
0
102
{BLKREFS
331
13A
102
}
  0
BLOCK_RECORD
  5
1FB
330
1
100
AcDbSymbolTableRecord
100
AcDbBlockTableRecord
  2
_Open90
340
0
102
{BLKREFS
331
204
331
205
331
20E
331
20F
331
218
331
219
331
223
331
224
331
22F
331
272
331
273
331
281
331
282
102
}
  0
BLOCK_RECORD
  5
201
330
1
100
AcDbSymbolTableRecord
100
AcDbBlockTableRecord
  2
_D
340
0
  0
BLOCK_RECORD
  5
20B
330
1
100
AcDbSymbolTableRecord
100
AcDbBlockTableRecord
  2
_D_1
340
0
  0
BLOCK_RECORD
  5
215
330
1
100
AcDbSymbolTableRecord
100
AcDbBlockTableRecord
  2
_D_2
340
0
  0
BLOCK_RECORD
  5
220
330
1
100
AcDbSymbolTableRecord
100
AcDbBlockTableRecord
  2
_D_3
340
0
  0
BLOCK_RECORD
  5
22C
330
1
100
AcDbSymbolTableRecord
100
AcDbBlockTableRecord
  2
_D_4
340
0
  0
BLOCK_RECORD
  5
23B
330
1
100
AcDbSymbolTableRecord
100
AcDbBlockTableRecord
  2
SW_NOTE_0_2
340
0
102
{BLKREFS
331
240
102
}
  0
BLOCK_RECORD
  5
26F
330
1
100
AcDbSymbolTableRecord
100
AcDbBlockTableRecord
  2
_D_5
340
0
  0
BLOCK_RECORD
  5
27E
330
1
100
AcDbSymbolTableRecord
100
AcDbBlockTableRecord
  2
_D_6
340
0
  0
BLOCK_RECORD
  5
2CA
330
1
100
AcDbSymbolTableRecord
100
AcDbBlockTableRecord
  2
SW_NOTE_0_3
340
0
102
{BLKREFS
331
2CF
102
}
  0
ENDTAB
  0
ENDSEC
  0
SECTION
  2
BLOCKS
  0
BLOCK
  5
20
330
1F
100
AcDbEntity
  8
0
100
AcDbBlockBegin
  2
*Model_Space
 70
     0
 10
0.0
 20
0.0
 30
0.0
  3
*Model_Space
  1

  0
ENDBLK
  5
21
330
1F
100
AcDbEntity
  8
0
100
AcDbBlockEnd
  0
BLOCK
  5
1C
330
1B
100
AcDbEntity
 67
     1
  8
0
100
AcDbBlockBegin
  2
*Paper_Space
 70
     0
 10
0.0
 20
0.0
 30
0.0
  3
*Paper_Space
  1

  0
ENDBLK
  5
1D
330
1B
100
AcDbEntity
 67
     1
  8
0
100
AcDbBlockEnd
  0
BLOCK
  5
24
330
23
100
AcDbEntity
  8
0
100
AcDbBlockBegin
  2
*Paper_Space0
 70
     0
 10
0.0
 20
0.0
 30
0.0
  3
*Paper_Space0
  1

  0
ENDBLK
  5
25
330
23
100
AcDbEntity
  8
0
100
AcDbBlockEnd
  0
BLOCK
  5
12C
330
12B
100
AcDbEntity
  8
0
100
AcDbBlockBegin
  2
SW_NOTE_0
 70
     0
 10
0.0
 20
0.0
 30
0.0
  3
SW_NOTE_0
  1

  0
MTEXT
  5
12E
330
12B
100
AcDbEntity
  8
NOTES
 62
     0
100
AcDbMText
 10
0.0
 20
0.3759780908
 30
0.0
 40
0.2916666667
 41
0.0
 71
     1
 72
     1
  1
FROST PRODUCTS LTD.
  7
SLDTEXTSTYLE0
 73
     1
 44
1.0
  0
MTEXT
  5
12F
330
12B
100
AcDbEntity
  8
NOTES
 62
     0
100
AcDbMText
 10
0.0
 20
-0.0495142709
 30
0.0
 40
0.2291666667
 41
0.0
 71
     1
 72
     1
  1
5280 JOHN LUCAS DRIVE, BURLINGTON, ON, L7L 5Z9
  7
SLDTEXTSTYLE0
 73
     1
 44
1.0
  0
ENDBLK
  5
12D
330
12B
100
AcDbEntity
  8
0
100
AcDbBlockEnd
  0
BLOCK
  5
132
330
131
100
AcDbEntity
  8
0
100
AcDbBlockBegin
  2
SW_NOTE_0_1
 70
     0
 10
0.0
 20
0.0
 30
0.0
  3
SW_NOTE_0_1
  1

  0
MTEXT
  5
135
330
131
100
AcDbEntity
  8
NOTES
 62
     0
100
AcDbMText
 10
0.0
 20
0.2381282771
 30
0.0
 40
0.184729064
 41
0.0
 71
     1
 72
     1
  1
PROPRIETARY AND CONFIDENTIAL
  7
SLDTEXTSTYLE2
 73
     1
 44
1.0
  0
MTEXT
  5
137
330
131
100
AcDbEntity
  8
NOTES
 62
     0
100
AcDbMText
 10
0.0
 20
-0.0504364796
 30
0.0
 40
0.25
 41
0.0
 71
     1
 72
     1
  1
THE INFORMATION CONTAINED IN THIS DRAWING IS THE SOLE PROPERTY OF 
  7
SLDTEXTSTYLE3
 73
     1
 44
1.0
  0
MTEXT
  5
138
330
131
100
AcDbEntity
  8
NOTES
 62
     0
100
AcDbMText
 10
0.0
 20
-0.4231398941
 30
0.0
 40
0.25
 41
0.0
 71
     1
 72
     1
  1
FROST PRODUCTS LTD.  ANY REPRODUCTION IN PART OR AS A WHOLE WITHOUT 
  7
SLDTEXTSTYLE3
 73
     1
 44
1.0
  0
MTEXT
  5
139
330
131
100
AcDbEntity
  8
NOTES
 62
     0
100
AcDbMText
 10
0.0
 20
-0.7958433086
 30
0.0
 40
0.25
 41
0.0
 71
     1
 72
     1
  1
THE WRITTEN PERMISSION OF FROST PRODUCTS LTD. IS PROHIBITED.
  7
SLDTEXTSTYLE3
 73
     1
 44
1.0
  0
ENDBLK
  5
133
330
131
100
AcDbEntity
  8
0
100
AcDbBlockEnd
  0
BLOCK
  5
1FC
330
1FB
100
AcDbEntity
  8
0
100
AcDbBlockBegin
  2
_Open90
 70
     0
 10
0.0
 20
0.0
 30
0.0
  3
_Open90
  1

  0
LINE
  5
1FE
330
1FB
100
AcDbEntity
  8
0
  6
ByBlock
 62
     0
370
    -2
100
AcDbLine
 10
-0.5
 20
0.5
 30
0.0
 11
0.0
 21
0.0
 31
0.0
  0
LINE
  5
1FF
330
1FB
100
AcDbEntity
  8
0
  6
ByBlock
 62
     0
370
    -2
100
AcDbLine
 10
0.0
 20
0.0
 30
0.0
 11
-0.5
 21
-0.5
 31
0.0
  0
LINE
  5
200
330
1FB
100
AcDbEntity
  8
0
  6
ByBlock
 62
     0
370
    -2
100
AcDbLine
 10
0.0
 20
0.0
 30
0.0
 11
-1.0
 21
0.0
 31
0.0
  0
ENDBLK
  5
1FD
330
1FB
100
AcDbEntity
  8
0
100
AcDbBlockEnd
  0
BLOCK
  5
202
330
201
100
AcDbEntity
  8
0
100
AcDbBlockBegin
  2
_D
 70
     0
 10
0.0
 20
0.0
 30
0.0
  3
_D
  1

  0
INSERT
  5
204
330
201
100
AcDbEntity
  8
DIMS
100
AcDbBlockReference
  2
_Open90
 10
33.3831138294
 20
17.5754197563
 30
0.0
 41
0.3
 42
0.3
 50
90.0
  0
INSERT
  5
205
330
201
100
AcDbEntity
  8
DIMS
100
AcDbBlockReference
  2
_Open90
 10
33.3831138294
 20
5.5754197563
 30
0.0
 41
0.3
 42
0.3
 50
270.0
  0
LINE
  5
206
330
201
100
AcDbEntity
  8
DIMS
100
AcDbLine
 10
30.208756874
 20
17.5754197563
 30
0.0
 11
33.7581138294
 21
17.5754197563
 31
0.0
  0
LINE
  5
207
330
201
100
AcDbEntity
  8
DIMS
100
AcDbLine
 10
33.3831138294
 20
17.5754197563
 30
0.0
 11
33.3831138294
 21
11.7966254769
 31
0.0
  0
LINE
  5
208
330
201
100
AcDbEntity
  8
DIMS
100
AcDbLine
 10
33.3831138294
 20
5.5754197563
 30
0.0
 11
33.3831138294
 21
11.0028754531
 31
0.0
  0
MTEXT
  5
209
330
201
100
AcDbEntity
  8
DIMS
100
AcDbMText
 10
31.2911002099
 20
11.6415473831
 30
0.0
 40
0.5
 41
0.0
 71
     1
 72
     1
  1
         24"[610]
  7
SLDTEXTSTYLE1
 73
     1
 44
1.0
  0
ENDBLK
  5
203
330
201
100
AcDbEntity
  8
0
100
AcDbBlockEnd
  0
BLOCK
  5
20C
330
20B
100
AcDbEntity
  8
0
100
AcDbBlockBegin
  2
_D_1
 70
     0
 10
0.0
 20
0.0
 30
0.0
  3
_D_1
  1

  0
INSERT
  5
20E
330
20B
100
AcDbEntity
  8
DIMS
100
AcDbBlockReference
  2
_Open90
 10
30.0420902074
 20
21.8935765869
 30
0.0
 41
0.3
 42
0.3
 50
180.0
  0
INSERT
  5
20F
330
20B
100
AcDbEntity
  8
DIMS
100
AcDbBlockReference
  2
_Open90
 10
42.0420902074
 20
21.8935765869
 30
0.0
 41
0.3
 42
0.3
 50
0.0
  0
LINE
  5
210
330
20B
100
AcDbEntity
  8
DIMS
100
AcDbLine
 10
30.0420902074
 20
17.742086423
 30
0.0
 11
30.0420902074
 21
22.2685765869
 31
0.0
  0
LINE
  5
211
330
20B
100
AcDbEntity
  8
DIMS
100
AcDbLine
 10
30.0420902074
 20
21.8935765869
 30
0.0
 11
34.7207752441
 21
21.8935765869
 31
0.0
  0
LINE
  5
212
330
20B
100
AcDbEntity
  8
DIMS
100
AcDbLine
 10
42.0420902074
 20
21.8935765869
 30
0.0
 11
37.2423028085
 21
21.8935765869
 31
0.0
  0
MTEXT
  5
213
330
20B
100
AcDbEntity
  8
DIMS
100
AcDbMText
 10
34.7207752441
 20
22.135373505
 30
0.0
 40
0.5
 41
0.0
 71
     1
 72
     1
  1
20"[508]
  7
SLDTEXTSTYLE1
 73
     1
 44
1.0
  0
ENDBLK
  5
20D
330
20B
100
AcDbEntity
  8
0
100
AcDbBlockEnd
  0
BLOCK
  5
216
330
215
100
AcDbEntity
  8
0
100
AcDbBlockBegin
  2
_D_2
 70
     0
 10
0.0
 20
0.0
 30
0.0
  3
_D_2
  1

  0
INSERT
  5
218
330
215
100
AcDbEntity
  8
DIMS
100
AcDbBlockReference
  2
_Open90
 10
11.1735075302
 20
41.5754197563
 30
0.0
 41
0.3
 42
0.3
 50
90.0
  0
INSERT
  5
219
330
215
100
AcDbEntity
  8
DIMS
100
AcDbBlockReference
  2
_Open90
 10
11.1735075302
 20
17.5754197563
 30
0.0
 41
0.3
 42
0.3
 50
270.0
  0
LINE
  5
21A
330
215
100
AcDbEntity
  8
DIMS
100
AcDbLine
 10
13.8754235407
 20
41.5754197563
 30
0.0
 11
10.7985075302
 21
41.5754197563
 31
0.0
  0
LINE
  5
21B
330
215
100
AcDbEntity
  8
DIMS
100
AcDbLine
 10
13.5383774973
 20
17.5754197563
 30
0.0
 11
10.7985075302
 21
17.5754197563
 31
0.0
  0
LINE
  5
21C
330
215
100
AcDbEntity
  8
DIMS
100
AcDbLine
 10
11.1735075302
 20
41.5754197563
 30
0.0
 11
11.1735075302
 21
30.1604056398
 31
0.0
  0
LINE
  5
21D
330
215
100
AcDbEntity
  8
DIMS
100
AcDbLine
 10
11.1735075302
 20
17.5754197563
 30
0.0
 11
11.1735075302
 21
29.3666556159
 31
0.0
  0
MTEXT
  5
21E
330
215
100
AcDbEntity
  8
DIMS
100
AcDbMText
 10
10.7009381027
 20
30.0053275459
 30
0.0
 40
0.5
 41
0.0
 71
     1
 72
     1
  1
24"
  7
SLDTEXTSTYLE1
 73
     1
 44
1.0
  0
ENDBLK
  5
217
330
215
100
AcDbEntity
  8
0
100
AcDbBlockEnd
  0
BLOCK
  5
221
330
220
100
AcDbEntity
  8
0
100
AcDbBlockBegin
  2
_D_3
 70
     0
 10
0.0
 20
0.0
 30
0.0
  3
_D_3
  1

  0
INSERT
  5
223
330
220
100
AcDbEntity
  8
DIMS
100
AcDbBlockReference
  2
_Open90
 10
14.0420902074
 20
14.7068370792
 30
0.0
 41
0.3
 42
0.3
 50
180.0
  0
INSERT
  5
224
330
220
100
AcDbEntity
  8
DIMS
100
AcDbBlockReference
  2
_Open90
 10
30.0420902074
 20
14.7068370792
 30
0.0
 41
0.3
 42
0.3
 50
0.0
  0
LINE
  5
225
330
220
100
AcDbEntity
  8
DIMS
100
AcDbLine
 10
14.0420902074
 20
17.0689289487
 30
0.0
 11
14.0420902074
 21
14.3318370792
 31
0.0
  0
LINE
  5
226
330
220
100
AcDbEntity
  8
DIMS
100
AcDbLine
 10
30.0420902074
 20
17.4087530897
 30
0.0
 11
30.0420902074
 21
14.3318370792
 31
0.0
  0
LINE
  5
227
330
220
100
AcDbEntity
  8
DIMS
100
AcDbLine
 10
14.0420902074
 20
14.7068370792
 30
0.0
 11
21.1766642885
 21
14.7068370792
 31
0.0
  0
LINE
  5
228
330
220
100
AcDbEntity
  8
DIMS
100
AcDbLine
 10
30.0420902074
 20
14.7068370792
 30
0.0
 11
22.1218031435
 21
14.7068370792
 31
0.0
  0
MTEXT
  5
229
330
220
100
AcDbEntity
  8
DIMS
100
AcDbMText
 10
21.1766642885
 20
14.9486339972
 30
0.0
 40
0.5
 41
0.0
 71
     1
 72
     1
  1
16"
  7
SLDTEXTSTYLE1
 73
     1
 44
1.0
  0
ENDBLK
  5
222
330
220
100
AcDbEntity
  8
0
100
AcDbBlockEnd
  0
BLOCK
  5
22D
330
22C
100
AcDbEntity
  8
0
100
AcDbBlockBegin
  2
_D_4
 70
     0
 10
0.0
 20
0.0
 30
0.0
  3
_D_4
  1

  0
INSERT
  5
22F
330
22C
100
AcDbEntity
  8
DIMS
100
AcDbBlockReference
  2
_Open90
 10
15.3283407891
 20
40.8328026367
 30
-1.5
 41
0.3
 42
0.3
 50
150.0
  0
LINE
  5
230
330
22C
100
AcDbEntity
  8
DIMS
100
AcDbLine
 10
15.3283407891
 20
40.8328026367
 30
0.0
 11
16.3877696374
 21
40.221141106
 31
0.0
  0
LINE
  5
231
330
22C
100
AcDbEntity
  8
DIMS
100
AcDbLine
 10
16.3877696374
 20
40.221141106
 30
0.0
 11
16.6877696374
 21
40.221141106
 31
0.0
  0
MTEXT
  5
232
330
22C
100
AcDbEntity
  8
DIMS
100
AcDbMText
 10
16.6877696374
 20
40.4591185473
 30
0.0
 40
0.5
 41
0.0
 71
     1
 72
     1
  1
%%c
  7
SLDTEXTSTYLE1
 73
     1
 44
1.0
  0
MTEXT
  5
233
330
22C
100
AcDbEntity
  8
DIMS
100
AcDbMText
 10
17.4418321197
 20
40.4667574366
 30
0.0
 40
0.5
 41
0.0
 71
     1
 72
     1
  1
3"
  7
SLDTEXTSTYLE1
 73
     1
 44
1.0
  0
ENDBLK
  5
22E
330
22C
100
AcDbEntity
  8
0
100
AcDbBlockEnd
  0
BLOCK
  5
23C
330
23B
100
AcDbEntity
  8
0
100
AcDbBlockBegin
  2
SW_NOTE_0_2
 70
     0
 10
0.0
 20
0.0
 30
0.0
  3
SW_NOTE_0_2
  1

  0
MTEXT
  5
23E
330
23B
100
AcDbEntity
  8
NOTES
 62
     0
100
AcDbMText
 10
0.0206603272
 20
0.2455426878
 30
0.0
 40
0.5
 41
0.0
 71
     1
 72
     1
  1
remove flange cover to 
  7
SLDTEXTSTYLE1
 73
     1
 44
1.0
  0
MTEXT
  5
23F
330
23B
100
AcDbEntity
  8
NOTES
 62
     0
100
AcDbMText
 10
0.0206603272
 20
-0.4009851101
 30
0.0
 40
0.5
 41
0.0
 71
     1
 72
     1
  1
access mounting holes
  7
SLDTEXTSTYLE1
 73
     1
 44
1.0
  0
ENDBLK
  5
23D
330
23B
100
AcDbEntity
  8
0
100
AcDbBlockEnd
  0
BLOCK
  5
270
330
26F
100
AcDbEntity
  8
0
100
AcDbBlockBegin
  2
_D_5
 70
     0
 10
0.0
 20
0.0
 30
0.0
  3
_D_5
  1

  0
INSERT
  5
272
330
26F
100
AcDbEntity
  8
DIMS
100
AcDbBlockReference
  2
_Open90
 10
53.2401192457
 20
39.2271170386
 30
9.75
 41
0.3
 42
0.3
 50
0.0
  0
INSERT
  5
273
330
26F
100
AcDbEntity
  8
DIMS
100
AcDbBlockReference
  2
_Open90
 10
51.7401192457
 20
39.2271170386
 30
9.75
 41
0.3
 42
0.3
 50
180.0
  0
LINE
  5
274
330
26F
100
AcDbEntity
  8
DIMS
100
AcDbLine
 10
54.3263823549
 20
39.278401737
 30
0.0
 11
54.8423546043
 21
39.278401737
 31
0.0
  0
LINE
  5
275
330
26F
100
AcDbEntity
  8
DIMS
100
AcDbLine
 10
53.2401192457
 20
39.9723982415
 30
0.0
 11
53.2401192457
 21
38.8521170386
 31
0.0
  0
LINE
  5
276
330
26F
100
AcDbEntity
  8
DIMS
100
AcDbLine
 10
53.2401192457
 20
39.2271170386
 30
0.0
 11
53.8836740074
 21
39.2271170386
 31
0.0
  0
LINE
  5
277
330
26F
100
AcDbEntity
  8
DIMS
100
AcDbLine
 10
51.7401192457
 20
39.2271170386
 30
0.0
 11
53.2401192457
 21
39.2271170386
 31
0.0
  0
MTEXT
  5
278
330
26F
100
AcDbEntity
  8
DIMS
100
AcDbMText
 10
53.8836740074
 20
39.5078027974
 30
0.0
 40
0.5
 41
0.0
 71
     1
 72
     1
  1
1
  7
SLDTEXTSTYLE1
 73
     1
 44
1.0
  0
MTEXT
  5
279
330
26F
100
AcDbEntity
  8
DIMS
100
AcDbMText
 10
54.3996462568
 20
39.8731152965
 30
0.0
 40
0.5
 41
0.0
 71
     1
 72
     1
  1
1
  7
SLDTEXTSTYLE1
 73
     1
 44
1.0
  0
MTEXT
  5
27A
330
26F
100
AcDbEntity
  8
DIMS
100
AcDbMText
 10
54.3996462568
 20
39.2119347179
 30
0.0
 40
0.5
 41
0.0
 71
     1
 72
     1
  1
2
  7
SLDTEXTSTYLE1
 73
     1
 44
1.0
  0
MTEXT
  5
27B
330
26F
100
AcDbEntity
  8
DIMS
100
AcDbMText
 10
54.9156185063
 20
39.5078027974
 30
0.0
 40
0.5
 41
0.0
 71
     1
 72
     1
  1
"
  7
SLDTEXTSTYLE1
 73
     1
 44
1.0
  0
ENDBLK
  5
271
330
26F
100
AcDbEntity
  8
0
100
AcDbBlockEnd
  0
BLOCK
  5
27F
330
27E
100
AcDbEntity
  8
0
100
AcDbBlockBegin
  2
_D_6
 70
     0
 10
0.0
 20
0.0
 30
0.0
  3
_D_6
  1

  0
INSERT
  5
281
330
27E
100
AcDbEntity
  8
DIMS
100
AcDbBlockReference
  2
_Open90
 10
52.7941797296
 20
43.4991205437
 30
9.75
 41
0.3
 42
0.3
 50
0.0
  0
INSERT
  5
282
330
27E
100
AcDbEntity
  8
DIMS
100
AcDbBlockReference
  2
_Open90
 10
53.2401192457
 20
43.4991205437
 30
9.75
 41
0.3
 42
0.3
 50
180.0
  0
LINE
  5
283
330
27E
100
AcDbEntity
  8
DIMS
100
AcDbLine
 10
53.9569379094
 20
43.5504052421
 30
0.0
 11
54.8423546043
 21
43.5504052421
 31
0.0
  0
LINE
  5
284
330
27E
100
AcDbEntity
  8
DIMS
100
AcDbLine
 10
52.7941797296
 20
42.397086423
 30
0.0
 11
52.7941797296
 21
43.8741205437
 31
0.0
  0
LINE
  5
285
330
27E
100
AcDbEntity
  8
DIMS
100
AcDbLine
 10
53.2401192457
 20
43.272086423
 30
0.0
 11
53.2401192457
 21
43.8741205437
 31
0.0
  0
LINE
  5
286
330
27E
100
AcDbEntity
  8
DIMS
100
AcDbLine
 10
52.7941797296
 20
43.4991205437
 30
0.0
 11
52.3941797296
 21
43.4991205437
 31
0.0
  0
LINE
  5
287
330
27E
100
AcDbEntity
  8
DIMS
100
AcDbLine
 10
53.2401192457
 20
43.4991205437
 30
0.0
 11
53.8836740074
 21
43.4991205437
 31
0.0
  0
MTEXT
  5
288
330
27E
100
AcDbEntity
  8
DIMS
100
AcDbMText
 10
54.2149240341
 20
44.1451188016
 30
0.0
 40
0.5
 41
0.0
 71
     1
 72
     1
  1
7
  7
SLDTEXTSTYLE1
 73
     1
 44
1.0
  0
MTEXT
  5
289
330
27E
100
AcDbEntity
  8
DIMS
100
AcDbMText
 10
54.0302018114
 20
43.4839382231
 30
0.0
 40
0.5
 41
0.0
 71
     1
 72
     1
  1
16
  7
SLDTEXTSTYLE1
 73
     1
 44
1.0
  0
MTEXT
  5
28A
330
27E
100
AcDbEntity
  8
DIMS
100
AcDbMText
 10
54.9156185063
 20
43.7798063026
 30
0.0
 40
0.5
 41
0.0
 71
     1
 72
     1
  1
"
  7
SLDTEXTSTYLE1
 73
     1
 44
1.0
  0
ENDBLK
  5
280
330
27E
100
AcDbEntity
  8
0
100
AcDbBlockEnd
  0
BLOCK
  5
2CB
330
2CA
100
AcDbEntity
  8
0
100
AcDbBlockBegin
  2
SW_NOTE_0_3
 70
     0
 10
0.0
 20
0.0
 30
0.0
  3
SW_NOTE_0_3
  1

  0
MTEXT
  5
2CD
330
2CA
100
AcDbEntity
  8
NOTES
 62
     0
100
AcDbMText
 10
0.0
 20
0.638671875
 30
0.0
 40
0.5
 41
0.0
 71
     1
 72
     1
  1
3D view
  7
SLDTEXTSTYLE1
 73
     1
 44
1.0
  0
MTEXT
  5
2CE
330
2CA
100
AcDbEntity
  8
NOTES
 62
     0
100
AcDbMText
 10
0.0
 20
-0.0078559504
 30
0.0
 40
0.5
 41
0.0
 71
     1
 72
     1
  1
1003 -SP 16x24R
  7
SLDTEXTSTYLE1
 73
     1
 44
1.0
  0
ENDBLK
  5
2CC
330
2CA
100
AcDbEntity
  8
0
100
AcDbBlockEnd
  0
ENDSEC
  0
SECTION
  2
ENTITIES
  0
LINE
  5
7A
330
1F
100
AcDbEntity
  8
TITLE
370
    35
100
AcDbLine
 10
72.5182230965
 20
1.4876117645
 30
0.0
 11
89.4999864512
 21
1.4876117645
 31
0.0
  0
LINE
  5
7B
330
1F
100
AcDbEntity
  8
TITLE
370
    35
100
AcDbLine
 10
89.4999317442
 20
5.4753603936
 30
0.0
 11
79.3105350723
 21
5.4753603936
 31
0.0
  0
LINE
  5
7C
330
1F
100
AcDbEntity
  8
TITLE
  6
SLD-Solid
370
    18
100
AcDbLine
 10
0.5
 20
0.5
 30
0.0
 11
0.5
 21
59.5
 31
0.0
  0
LINE
  5
7D
330
1F
100
AcDbEntity
  8
TITLE
  6
SLD-Solid
370
    18
100
AcDbLine
 10
0.5
 20
59.5
 30
0.0
 11
89.5
 21
59.5
 31
0.0
  0
LINE
  5
7E
330
1F
100
AcDbEntity
  8
TITLE
370
    35
100
AcDbLine
 10
72.5182230965
 20
2.5427877231
 30
0.0
 11
65.5059791203
 21
2.5427877231
 31
0.0
  0
LINE
  5
7F
330
1F
100
AcDbEntity
  8
TITLE
370
    35
100
AcDbLine
 10
72.5182230965
 20
1.4876117645
 30
0.0
 11
65.5059791203
 21
1.4876117645
 31
0.0
  0
LINE
  5
80
330
1F
100
AcDbEntity
  8
TITLE
  6
SLD-Solid
370
    18
100
AcDbLine
 10
89.5
 20
59.5
 30
0.0
 11
89.5
 21
0.5
 31
0.0
  0
LINE
  5
81
330
1F
100
AcDbEntity
  8
TITLE
  6
SLD-Solid
370
    18
100
AcDbLine
 10
89.5
 20
0.5
 30
0.0
 11
0.5
 21
0.5
 31
0.0
  0
LINE
  5
82
330
1F
100
AcDbEntity
  8
TITLE
370
    35
100
AcDbLine
 10
72.5182230965
 20
1.4876117645
 30
0.0
 11
72.5182230965
 21
3.5979636817
 31
0.0
  0
LINE
  5
83
330
1F
100
AcDbEntity
  8
TITLE
370
    35
100
AcDbLine
 10
65.5059791203
 20
3.5979636817
 30
0.0
 11
65.5059791203
 21
0.5
 31
0.0
  0
LINE
  5
84
330
1F
100
AcDbEntity
  8
TITLE
370
    35
100
AcDbLine
 10
65.5059791203
 20
0.5
 30
0.0
 11
89.5
 21
0.5
 31
0.0
  0
LINE
  5
85
330
1F
100
AcDbEntity
  8
TITLE
370
    35
100
AcDbLine
 10
89.4999317442
 20
5.4753603936
 30
0.0
 11
89.5
 21
0.5
 31
0.0
  0
LINE
  5
86
330
1F
100
AcDbEntity
  8
TITLE
  6
SLD-Solid
370
    18
100
AcDbLine
 10
0.4999606299
 20
30.0
 30
0.0
 11
0.5000393701
 21
30.0
 31
0.0
  0
LINE
  5
87
330
1F
100
AcDbEntity
  8
TITLE
370
    35
100
AcDbLine
 10
72.5182230965
 20
3.5979636817
 30
0.0
 11
65.5059791203
 21
3.5979636817
 31
0.0
  0
LINE
  5
88
330
1F
100
AcDbEntity
  8
TITLE
370
    35
100
AcDbLine
 10
72.5182230965
 20
3.5979636817
 30
0.0
 11
89.4997615643
 21
3.5979648343
 31
0.0
  0
LINE
  5
89
330
1F
100
AcDbEntity
  8
TITLE
370
    35
100
AcDbLine
 10
79.3105350723
 20
5.4753603936
 30
0.0
 11
79.3105350723
 21
0.4636772425
 31
0.0
  0
LINE
  5
8A
330
1F
100
AcDbEntity
  8
TITLE
  6
SLD-Solid
370
    18
100
AcDbLine
 10
45.0
 20
59.5000393701
 30
0.0
 11
45.0
 21
59.4999606299
 31
0.0
  0
LINE
  5
8B
330
1F
100
AcDbEntity
  8
TITLE
  6
SLD-Solid
370
    18
100
AcDbLine
 10
89.5000393701
 20
30.0
 30
0.0
 11
89.4999606299
 21
30.0
 31
0.0
  0
LINE
  5
8C
330
1F
100
AcDbEntity
  8
TITLE
  6
SLD-Solid
370
    18
100
AcDbLine
 10
45.0
 20
0.4999606299
 30
0.0
 11
45.0
 21
0.5000393701
 31
0.0
  0
LINE
  5
8D
330
1F
100
AcDbEntity
  8
TITLE
  6
SLD-Solid
370
    18
100
AcDbLine
 10
0.5
 20
2.4409448819
 30
0.0
 11
0.1653543307
 21
2.4409448819
 31
0.0
  0
LINE
  5
8E
330
1F
100
AcDbEntity
  8
TITLE
  6
SLD-Solid
370
    18
100
AcDbLine
 10
89.5
 20
2.4409448819
 30
0.0
 11
89.8346456693
 21
2.4409448819
 31
0.0
  0
LINE
  5
8F
330
1F
100
AcDbEntity
  8
TITLE
  6
SLD-Solid
370
    18
100
AcDbLine
 10
0.5
 20
4.4094488189
 30
0.0
 11
0.1653543307
 21
4.4094488189
 31
0.0
  0
LINE
  5
90
330
1F
100
AcDbEntity
  8
TITLE
  6
SLD-Solid
370
    18
100
AcDbLine
 10
89.5
 20
4.4094488189
 30
0.0
 11
89.8346456693
 21
4.4094488189
 31
0.0
  0
LINE
  5
91
330
1F
100
AcDbEntity
  8
TITLE
  6
SLD-Solid
370
    18
100
AcDbLine
 10
0.5
 20
6.3779527559
 30
0.0
 11
0.1653543307
 21
6.3779527559
 31
0.0
  0
LINE
  5
92
330
1F
100
AcDbEntity
  8
TITLE
  6
SLD-Solid
370
    18
100
AcDbLine
 10
89.5
 20
6.3779527559
 30
0.0
 11
89.8346456693
 21
6.3779527559
 31
0.0
  0
LINE
  5
93
330
1F
100
AcDbEntity
  8
TITLE
  6
SLD-Solid
370
    18
100
AcDbLine
 10
0.5
 20
8.3464566929
 30
0.0
 11
0.1653543307
 21
8.3464566929
 31
0.0
  0
LINE
  5
94
330
1F
100
AcDbEntity
  8
TITLE
  6
SLD-Solid
370
    18
100
AcDbLine
 10
89.5
 20
8.3464566929
 30
0.0
 11
89.8346456693
 21
8.3464566929
 31
0.0
  0
LINE
  5
95
330
1F
100
AcDbEntity
  8
TITLE
  6
SLD-Solid
370
    18
100
AcDbLine
 10
0.5
 20
10.3149606299
 30
0.0
 11
0.1653543307
 21
10.3149606299
 31
0.0
  0
LINE
  5
96
330
1F
100
AcDbEntity
  8
TITLE
  6
SLD-Solid
370
    18
100
AcDbLine
 10
89.5
 20
10.3149606299
 30
0.0
 11
89.8346456693
 21
10.3149606299
 31
0.0
  0
LINE
  5
97
330
1F
100
AcDbEntity
  8
TITLE
  6
SLD-Solid
370
    18
100
AcDbLine
 10
0.5
 20
12.2834645669
 30
0.0
 11
0.1653543307
 21
12.2834645669
 31
0.0
  0
LINE
  5
98
330
1F
100
AcDbEntity
  8
TITLE
  6
SLD-Solid
370
    18
100
AcDbLine
 10
89.5
 20
12.2834645669
 30
0.0
 11
89.8346456693
 21
12.2834645669
 31
0.0
  0
LINE
  5
99
330
1F
100
AcDbEntity
  8
TITLE
  6
SLD-Solid
370
    18
100
AcDbLine
 10
0.5
 20
14.2519685039
 30
0.0
 11
0.1653543307
 21
14.2519685039
 31
0.0
  0
LINE
  5
9A
330
1F
100
AcDbEntity
  8
TITLE
  6
SLD-Solid
370
    18
100
AcDbLine
 10
89.5
 20
14.2519685039
 30
0.0
 11
89.8346456693
 21
14.2519685039
 31
0.0
  0
LINE
  5
9B
330
1F
100
AcDbEntity
  8
TITLE
  6
SLD-Solid
370
    18
100
AcDbLine
 10
0.5
 20
16.2204724409
 30
0.0
 11
0.1653543307
 21
16.2204724409
 31
0.0
  0
LINE
  5
9C
330
1F
100
AcDbEntity
  8
TITLE
  6
SLD-Solid
370
    18
100
AcDbLine
 10
89.5
 20
16.2204724409
 30
0.0
 11
89.8346456693
 21
16.2204724409
 31
0.0
  0
LINE
  5
9D
330
1F
100
AcDbEntity
  8
TITLE
  6
SLD-Solid
370
    18
100
AcDbLine
 10
0.5
 20
18.188976378
 30
0.0
 11
0.1653543307
 21
18.188976378
 31
0.0
  0
LINE
  5
9E
330
1F
100
AcDbEntity
  8
TITLE
  6
SLD-Solid
370
    18
100
AcDbLine
 10
89.5
 20
18.188976378
 30
0.0
 11
89.8346456693
 21
18.188976378
 31
0.0
  0
LINE
  5
9F
330
1F
100
AcDbEntity
  8
TITLE
  6
SLD-Solid
370
    18
100
AcDbLine
 10
0.5
 20
20.157480315
 30
0.0
 11
0.1653543307
 21
20.157480315
 31
0.0
  0
LINE
  5
A0
330
1F
100
AcDbEntity
  8
TITLE
  6
SLD-Solid
370
    18
100
AcDbLine
 10
89.5
 20
20.157480315
 30
0.0
 11
89.8346456693
 21
20.157480315
 31
0.0
  0
LINE
  5
A1
330
1F
100
AcDbEntity
  8
TITLE
  6
SLD-Solid
370
    18
100
AcDbLine
 10
0.5
 20
22.125984252
 30
0.0
 11
0.1653543307
 21
22.125984252
 31
0.0
  0
LINE
  5
A2
330
1F
100
AcDbEntity
  8
TITLE
  6
SLD-Solid
370
    18
100
AcDbLine
 10
89.5
 20
22.125984252
 30
0.0
 11
89.8346456693
 21
22.125984252
 31
0.0
  0
LINE
  5
A3
330
1F
100
AcDbEntity
  8
TITLE
  6
SLD-Solid
370
    18
100
AcDbLine
 10
0.5
 20
24.094488189
 30
0.0
 11
0.1653543307
 21
24.094488189
 31
0.0
  0
LINE
  5
A4
330
1F
100
AcDbEntity
  8
TITLE
  6
SLD-Solid
370
    18
100
AcDbLine
 10
89.5
 20
24.094488189
 30
0.0
 11
89.8346456693
 21
24.094488189
 31
0.0
  0
LINE
  5
A5
330
1F
100
AcDbEntity
  8
TITLE
  6
SLD-Solid
370
    18
100
AcDbLine
 10
0.5
 20
26.062992126
 30
0.0
 11
0.1653543307
 21
26.062992126
 31
0.0
  0
LINE
  5
A6
330
1F
100
AcDbEntity
  8
TITLE
  6
SLD-Solid
370
    18
100
AcDbLine
 10
89.5
 20
26.062992126
 30
0.0
 11
89.8346456693
 21
26.062992126
 31
0.0
  0
LINE
  5
A7
330
1F
100
AcDbEntity
  8
TITLE
  6
SLD-Solid
370
    18
100
AcDbLine
 10
0.5
 20
28.031496063
 30
0.0
 11
0.1653543307
 21
28.031496063
 31
0.0
  0
LINE
  5
A8
330
1F
100
AcDbEntity
  8
TITLE
  6
SLD-Solid
370
    18
100
AcDbLine
 10
89.5
 20
28.031496063
 30
0.0
 11
89.8346456693
 21
28.031496063
 31
0.0
  0
LINE
  5
A9
330
1F
100
AcDbEntity
  8
TITLE
  6
SLD-Solid
370
    18
100
AcDbLine
 10
0.5
 20
30.0
 30
0.0
 11
0.1653543307
 21
30.0
 31
0.0
  0
LINE
  5
AA
330
1F
100
AcDbEntity
  8
TITLE
  6
SLD-Solid
370
    18
100
AcDbLine
 10
89.5
 20
30.0
 30
0.0
 11
89.8346456693
 21
30.0
 31
0.0
  0
LINE
  5
AB
330
1F
100
AcDbEntity
  8
TITLE
  6
SLD-Solid
370
    18
100
AcDbLine
 10
0.5
 20
31.968503937
 30
0.0
 11
0.1653543307
 21
31.968503937
 31
0.0
  0
LINE
  5
AC
330
1F
100
AcDbEntity
  8
TITLE
  6
SLD-Solid
370
    18
100
AcDbLine
 10
89.5
 20
31.968503937
 30
0.0
 11
89.8346456693
 21
31.968503937
 31
0.0
  0
LINE
  5
AD
330
1F
100
AcDbEntity
  8
TITLE
  6
SLD-Solid
370
    18
100
AcDbLine
 10
0.5
 20
33.937007874
 30
0.0
 11
0.1653543307
 21
33.937007874
 31
0.0
  0
LINE
  5
AE
330
1F
100
AcDbEntity
  8
TITLE
  6
SLD-Solid
370
    18
100
AcDbLine
 10
89.5
 20
33.937007874
 30
0.0
 11
89.8346456693
 21
33.937007874
 31
0.0
  0
LINE
  5
AF
330
1F
100
AcDbEntity
  8
TITLE
  6
SLD-Solid
370
    18
100
AcDbLine
 10
0.5
 20
35.905511811
 30
0.0
 11
0.1653543307
 21
35.905511811
 31
0.0
  0
LINE
  5
B0
330
1F
100
AcDbEntity
  8
TITLE
  6
SLD-Solid
370
    18
100
AcDbLine
 10
89.5
 20
35.905511811
 30
0.0
 11
89.8346456693
 21
35.905511811
 31
0.0
  0
LINE
  5
B1
330
1F
100
AcDbEntity
  8
TITLE
  6
SLD-Solid
370
    18
100
AcDbLine
 10
0.5
 20
37.874015748
 30
0.0
 11
0.1653543307
 21
37.874015748
 31
0.0
  0
LINE
  5
B2
330
1F
100
AcDbEntity
  8
TITLE
  6
SLD-Solid
370
    18
100
AcDbLine
 10
89.5
 20
37.874015748
 30
0.0
 11
89.8346456693
 21
37.874015748
 31
0.0
  0
LINE
  5
B3
330
1F
100
AcDbEntity
  8
TITLE
  6
SLD-Solid
370
    18
100
AcDbLine
 10
0.5
 20
39.842519685
 30
0.0
 11
0.1653543307
 21
39.842519685
 31
0.0
  0
LINE
  5
B4
330
1F
100
AcDbEntity
  8
TITLE
  6
SLD-Solid
370
    18
100
AcDbLine
 10
89.5
 20
39.842519685
 30
0.0
 11
89.8346456693
 21
39.842519685
 31
0.0
  0
LINE
  5
B5
330
1F
100
AcDbEntity
  8
TITLE
  6
SLD-Solid
370
    18
100
AcDbLine
 10
0.5
 20
41.811023622
 30
0.0
 11
0.1653543307
 21
41.811023622
 31
0.0
  0
LINE
  5
B6
330
1F
100
AcDbEntity
  8
TITLE
  6
SLD-Solid
370
    18
100
AcDbLine
 10
89.5
 20
41.811023622
 30
0.0
 11
89.8346456693
 21
41.811023622
 31
0.0
  0
LINE
  5
B7
330
1F
100
AcDbEntity
  8
TITLE
  6
SLD-Solid
370
    18
100
AcDbLine
 10
0.5
 20
43.7795275591
 30
0.0
 11
0.1653543307
 21
43.7795275591
 31
0.0
  0
LINE
  5
B8
330
1F
100
AcDbEntity
  8
TITLE
  6
SLD-Solid
370
    18
100
AcDbLine
 10
89.5
 20
43.7795275591
 30
0.0
 11
89.8346456693
 21
43.7795275591
 31
0.0
  0
LINE
  5
B9
330
1F
100
AcDbEntity
  8
TITLE
  6
SLD-Solid
370
    18
100
AcDbLine
 10
0.5
 20
45.7480314961
 30
0.0
 11
0.1653543307
 21
45.7480314961
 31
0.0
  0
LINE
  5
BA
330
1F
100
AcDbEntity
  8
TITLE
  6
SLD-Solid
370
    18
100
AcDbLine
 10
89.5
 20
45.7480314961
 30
0.0
 11
89.8346456693
 21
45.7480314961
 31
0.0
  0
LINE
  5
BB
330
1F
100
AcDbEntity
  8
TITLE
  6
SLD-Solid
370
    18
100
AcDbLine
 10
0.5
 20
47.7165354331
 30
0.0
 11
0.1653543307
 21
47.7165354331
 31
0.0
  0
LINE
  5
BC
330
1F
100
AcDbEntity
  8
TITLE
  6
SLD-Solid
370
    18
100
AcDbLine
 10
89.5
 20
47.7165354331
 30
0.0
 11
89.8346456693
 21
47.7165354331
 31
0.0
  0
LINE
  5
BD
330
1F
100
AcDbEntity
  8
TITLE
  6
SLD-Solid
370
    18
100
AcDbLine
 10
0.5
 20
49.6850393701
 30
0.0
 11
0.1653543307
 21
49.6850393701
 31
0.0
  0
LINE
  5
BE
330
1F
100
AcDbEntity
  8
TITLE
  6
SLD-Solid
370
    18
100
AcDbLine
 10
89.5
 20
49.6850393701
 30
0.0
 11
89.8346456693
 21
49.6850393701
 31
0.0
  0
LINE
  5
BF
330
1F
100
AcDbEntity
  8
TITLE
  6
SLD-Solid
370
    18
100
AcDbLine
 10
0.5
 20
51.6535433071
 30
0.0
 11
0.1653543307
 21
51.6535433071
 31
0.0
  0
LINE
  5
C0
330
1F
100
AcDbEntity
  8
TITLE
  6
SLD-Solid
370
    18
100
AcDbLine
 10
89.5
 20
51.6535433071
 30
0.0
 11
89.8346456693
 21
51.6535433071
 31
0.0
  0
LINE
  5
C1
330
1F
100
AcDbEntity
  8
TITLE
  6
SLD-Solid
370
    18
100
AcDbLine
 10
0.5
 20
53.6220472441
 30
0.0
 11
0.1653543307
 21
53.6220472441
 31
0.0
  0
LINE
  5
C2
330
1F
100
AcDbEntity
  8
TITLE
  6
SLD-Solid
370
    18
100
AcDbLine
 10
89.5
 20
53.6220472441
 30
0.0
 11
89.8346456693
 21
53.6220472441
 31
0.0
  0
LINE
  5
C3
330
1F
100
AcDbEntity
  8
TITLE
  6
SLD-Solid
370
    18
100
AcDbLine
 10
0.5
 20
55.5905511811
 30
0.0
 11
0.1653543307
 21
55.5905511811
 31
0.0
  0
LINE
  5
C4
330
1F
100
AcDbEntity
  8
TITLE
  6
SLD-Solid
370
    18
100
AcDbLine
 10
89.5
 20
55.5905511811
 30
0.0
 11
89.8346456693
 21
55.5905511811
 31
0.0
  0
LINE
  5
C5
330
1F
100
AcDbEntity
  8
TITLE
  6
SLD-Solid
370
    18
100
AcDbLine
 10
0.5
 20
57.5590551181
 30
0.0
 11
0.1653543307
 21
57.5590551181
 31
0.0
  0
LINE
  5
C6
330
1F
100
AcDbEntity
  8
TITLE
  6
SLD-Solid
370
    18
100
AcDbLine
 10
89.5
 20
57.5590551181
 30
0.0
 11
89.8346456693
 21
57.5590551181
 31
0.0
  0
LINE
  5
C7
330
1F
100
AcDbEntity
  8
TITLE
  6
SLD-Solid
370
    18
100
AcDbLine
 10
1.6929133858
 20
59.5
 30
0.0
 11
1.6929133858
 21
59.8346456693
 31
0.0
  0
LINE
  5
C8
330
1F
100
AcDbEntity
  8
TITLE
  6
SLD-Solid
370
    18
100
AcDbLine
 10
1.6929133858
 20
0.5
 30
0.0
 11
1.6929133858
 21
0.1653543307
 31
0.0
  0
LINE
  5
C9
330
1F
100
AcDbEntity
  8
TITLE
  6
SLD-Solid
370
    18
100
AcDbLine
 10
3.6614173228
 20
59.5
 30
0.0
 11
3.6614173228
 21
59.8346456693
 31
0.0
  0
LINE
  5
CA
330
1F
100
AcDbEntity
  8
TITLE
  6
SLD-Solid
370
    18
100
AcDbLine
 10
3.6614173228
 20
0.5
 30
0.0
 11
3.6614173228
 21
0.1653543307
 31
0.0
  0
LINE
  5
CB
330
1F
100
AcDbEntity
  8
TITLE
  6
SLD-Solid
370
    18
100
AcDbLine
 10
5.6299212598
 20
59.5
 30
0.0
 11
5.6299212598
 21
59.8346456693
 31
0.0
  0
LINE
  5
CC
330
1F
100
AcDbEntity
  8
TITLE
  6
SLD-Solid
370
    18
100
AcDbLine
 10
5.6299212598
 20
0.5
 30
0.0
 11
5.6299212598
 21
0.1653543307
 31
0.0
  0
LINE
  5
CD
330
1F
100
AcDbEntity
  8
TITLE
  6
SLD-Solid
370
    18
100
AcDbLine
 10
7.5984251969
 20
59.5
 30
0.0
 11
7.5984251969
 21
59.8346456693
 31
0.0
  0
LINE
  5
CE
330
1F
100
AcDbEntity
  8
TITLE
  6
SLD-Solid
370
    18
100
AcDbLine
 10
7.5984251969
 20
0.5
 30
0.0
 11
7.5984251969
 21
0.1653543307
 31
0.0
  0
LINE
  5
CF
330
1F
100
AcDbEntity
  8
TITLE
  6
SLD-Solid
370
    18
100
AcDbLine
 10
9.5669291339
 20
59.5
 30
0.0
 11
9.5669291339
 21
59.8346456693
 31
0.0
  0
LINE
  5
D0
330
1F
100
AcDbEntity
  8
TITLE
  6
SLD-Solid
370
    18
100
AcDbLine
 10
9.5669291339
 20
0.5
 30
0.0
 11
9.5669291339
 21
0.1653543307
 31
0.0
  0
LINE
  5
D1
330
1F
100
AcDbEntity
  8
TITLE
  6
SLD-Solid
370
    18
100
AcDbLine
 10
11.5354330709
 20
59.5
 30
0.0
 11
11.5354330709
 21
59.8346456693
 31
0.0
  0
LINE
  5
D2
330
1F
100
AcDbEntity
  8
TITLE
  6
SLD-Solid
370
    18
100
AcDbLine
 10
11.5354330709
 20
0.5
 30
0.0
 11
11.5354330709
 21
0.1653543307
 31
0.0
  0
LINE
  5
D3
330
1F
100
AcDbEntity
  8
TITLE
  6
SLD-Solid
370
    18
100
AcDbLine
 10
13.5039370079
 20
59.5
 30
0.0
 11
13.5039370079
 21
59.8346456693
 31
0.0
  0
LINE
  5
D4
330
1F
100
AcDbEntity
  8
TITLE
  6
SLD-Solid
370
    18
100
AcDbLine
 10
13.5039370079
 20
0.5
 30
0.0
 11
13.5039370079
 21
0.1653543307
 31
0.0
  0
LINE
  5
D5
330
1F
100
AcDbEntity
  8
TITLE
  6
SLD-Solid
370
    18
100
AcDbLine
 10
15.4724409449
 20
59.5
 30
0.0
 11
15.4724409449
 21
59.8346456693
 31
0.0
  0
LINE
  5
D6
330
1F
100
AcDbEntity
  8
TITLE
  6
SLD-Solid
370
    18
100
AcDbLine
 10
15.4724409449
 20
0.5
 30
0.0
 11
15.4724409449
 21
0.1653543307
 31
0.0
  0
LINE
  5
D7
330
1F
100
AcDbEntity
  8
TITLE
  6
SLD-Solid
370
    18
100
AcDbLine
 10
17.4409448819
 20
59.5
 30
0.0
 11
17.4409448819
 21
59.8346456693
 31
0.0
  0
LINE
  5
D8
330
1F
100
AcDbEntity
  8
TITLE
  6
SLD-Solid
370
    18
100
AcDbLine
 10
17.4409448819
 20
0.5
 30
0.0
 11
17.4409448819
 21
0.1653543307
 31
0.0
  0
LINE
  5
D9
330
1F
100
AcDbEntity
  8
TITLE
  6
SLD-Solid
370
    18
100
AcDbLine
 10
19.4094488189
 20
59.5
 30
0.0
 11
19.4094488189
 21
59.8346456693
 31
0.0
  0
LINE
  5
DA
330
1F
100
AcDbEntity
  8
TITLE
  6
SLD-Solid
370
    18
100
AcDbLine
 10
19.4094488189
 20
0.5
 30
0.0
 11
19.4094488189
 21
0.1653543307
 31
0.0
  0
LINE
  5
DB
330
1F
100
AcDbEntity
  8
TITLE
  6
SLD-Solid
370
    18
100
AcDbLine
 10
21.3779527559
 20
59.5
 30
0.0
 11
21.3779527559
 21
59.8346456693
 31
0.0
  0
LINE
  5
DC
330
1F
100
AcDbEntity
  8
TITLE
  6
SLD-Solid
370
    18
100
AcDbLine
 10
21.3779527559
 20
0.5
 30
0.0
 11
21.3779527559
 21
0.1653543307
 31
0.0
  0
LINE
  5
DD
330
1F
100
AcDbEntity
  8
TITLE
  6
SLD-Solid
370
    18
100
AcDbLine
 10
23.3464566929
 20
59.5
 30
0.0
 11
23.3464566929
 21
59.8346456693
 31
0.0
  0
LINE
  5
DE
330
1F
100
AcDbEntity
  8
TITLE
  6
SLD-Solid
370
    18
100
AcDbLine
 10
23.3464566929
 20
0.5
 30
0.0
 11
23.3464566929
 21
0.1653543307
 31
0.0
  0
LINE
  5
DF
330
1F
100
AcDbEntity
  8
TITLE
  6
SLD-Solid
370
    18
100
AcDbLine
 10
25.3149606299
 20
59.5
 30
0.0
 11
25.3149606299
 21
59.8346456693
 31
0.0
  0
LINE
  5
E0
330
1F
100
AcDbEntity
  8
TITLE
  6
SLD-Solid
370
    18
100
AcDbLine
 10
25.3149606299
 20
0.5
 30
0.0
 11
25.3149606299
 21
0.1653543307
 31
0.0
  0
LINE
  5
E1
330
1F
100
AcDbEntity
  8
TITLE
  6
SLD-Solid
370
    18
100
AcDbLine
 10
27.2834645669
 20
59.5
 30
0.0
 11
27.2834645669
 21
59.8346456693
 31
0.0
  0
LINE
  5
E2
330
1F
100
AcDbEntity
  8
TITLE
  6
SLD-Solid
370
    18
100
AcDbLine
 10
27.2834645669
 20
0.5
 30
0.0
 11
27.2834645669
 21
0.1653543307
 31
0.0
  0
LINE
  5
E3
330
1F
100
AcDbEntity
  8
TITLE
  6
SLD-Solid
370
    18
100
AcDbLine
 10
29.2519685039
 20
59.5
 30
0.0
 11
29.2519685039
 21
59.8346456693
 31
0.0
  0
LINE
  5
E4
330
1F
100
AcDbEntity
  8
TITLE
  6
SLD-Solid
370
    18
100
AcDbLine
 10
29.2519685039
 20
0.5
 30
0.0
 11
29.2519685039
 21
0.1653543307
 31
0.0
  0
LINE
  5
E5
330
1F
100
AcDbEntity
  8
TITLE
  6
SLD-Solid
370
    18
100
AcDbLine
 10
31.2204724409
 20
59.5
 30
0.0
 11
31.2204724409
 21
59.8346456693
 31
0.0
  0
LINE
  5
E6
330
1F
100
AcDbEntity
  8
TITLE
  6
SLD-Solid
370
    18
100
AcDbLine
 10
31.2204724409
 20
0.5
 30
0.0
 11
31.2204724409
 21
0.1653543307
 31
0.0
  0
LINE
  5
E7
330
1F
100
AcDbEntity
  8
TITLE
  6
SLD-Solid
370
    18
100
AcDbLine
 10
33.188976378
 20
59.5
 30
0.0
 11
33.188976378
 21
59.8346456693
 31
0.0
  0
LINE
  5
E8
330
1F
100
AcDbEntity
  8
TITLE
  6
SLD-Solid
370
    18
100
AcDbLine
 10
33.188976378
 20
0.5
 30
0.0
 11
33.188976378
 21
0.1653543307
 31
0.0
  0
LINE
  5
E9
330
1F
100
AcDbEntity
  8
TITLE
  6
SLD-Solid
370
    18
100
AcDbLine
 10
35.157480315
 20
59.5
 30
0.0
 11
35.157480315
 21
59.8346456693
 31
0.0
  0
LINE
  5
EA
330
1F
100
AcDbEntity
  8
TITLE
  6
SLD-Solid
370
    18
100
AcDbLine
 10
35.157480315
 20
0.5
 30
0.0
 11
35.157480315
 21
0.1653543307
 31
0.0
  0
LINE
  5
EB
330
1F
100
AcDbEntity
  8
TITLE
  6
SLD-Solid
370
    18
100
AcDbLine
 10
37.125984252
 20
59.5
 30
0.0
 11
37.125984252
 21
59.8346456693
 31
0.0
  0
LINE
  5
EC
330
1F
100
AcDbEntity
  8
TITLE
  6
SLD-Solid
370
    18
100
AcDbLine
 10
37.125984252
 20
0.5
 30
0.0
 11
37.125984252
 21
0.1653543307
 31
0.0
  0
LINE
  5
ED
330
1F
100
AcDbEntity
  8
TITLE
  6
SLD-Solid
370
    18
100
AcDbLine
 10
39.094488189
 20
59.5
 30
0.0
 11
39.094488189
 21
59.8346456693
 31
0.0
  0
LINE
  5
EE
330
1F
100
AcDbEntity
  8
TITLE
  6
SLD-Solid
370
    18
100
AcDbLine
 10
39.094488189
 20
0.5
 30
0.0
 11
39.094488189
 21
0.1653543307
 31
0.0
  0
LINE
  5
EF
330
1F
100
AcDbEntity
  8
TITLE
  6
SLD-Solid
370
    18
100
AcDbLine
 10
41.062992126
 20
59.5
 30
0.0
 11
41.062992126
 21
59.8346456693
 31
0.0
  0
LINE
  5
F0
330
1F
100
AcDbEntity
  8
TITLE
  6
SLD-Solid
370
    18
100
AcDbLine
 10
41.062992126
 20
0.5
 30
0.0
 11
41.062992126
 21
0.1653543307
 31
0.0
  0
LINE
  5
F1
330
1F
100
AcDbEntity
  8
TITLE
  6
SLD-Solid
370
    18
100
AcDbLine
 10
43.031496063
 20
59.5
 30
0.0
 11
43.031496063
 21
59.8346456693
 31
0.0
  0
LINE
  5
F2
330
1F
100
AcDbEntity
  8
TITLE
  6
SLD-Solid
370
    18
100
AcDbLine
 10
43.031496063
 20
0.5
 30
0.0
 11
43.031496063
 21
0.1653543307
 31
0.0
  0
LINE
  5
F3
330
1F
100
AcDbEntity
  8
TITLE
  6
SLD-Solid
370
    18
100
AcDbLine
 10
45.0
 20
59.5
 30
0.0
 11
45.0
 21
59.8346456693
 31
0.0
  0
LINE
  5
F4
330
1F
100
AcDbEntity
  8
TITLE
  6
SLD-Solid
370
    18
100
AcDbLine
 10
45.0
 20
0.5
 30
0.0
 11
45.0
 21
0.1653543307
 31
0.0
  0
LINE
  5
F5
330
1F
100
AcDbEntity
  8
TITLE
  6
SLD-Solid
370
    18
100
AcDbLine
 10
46.968503937
 20
59.5
 30
0.0
 11
46.968503937
 21
59.8346456693
 31
0.0
  0
LINE
  5
F6
330
1F
100
AcDbEntity
  8
TITLE
  6
SLD-Solid
370
    18
100
AcDbLine
 10
46.968503937
 20
0.5
 30
0.0
 11
46.968503937
 21
0.1653543307
 31
0.0
  0
LINE
  5
F7
330
1F
100
AcDbEntity
  8
TITLE
  6
SLD-Solid
370
    18
100
AcDbLine
 10
48.937007874
 20
59.5
 30
0.0
 11
48.937007874
 21
59.8346456693
 31
0.0
  0
LINE
  5
F8
330
1F
100
AcDbEntity
  8
TITLE
  6
SLD-Solid
370
    18
100
AcDbLine
 10
48.937007874
 20
0.5
 30
0.0
 11
48.937007874
 21
0.1653543307
 31
0.0
  0
LINE
  5
F9
330
1F
100
AcDbEntity
  8
TITLE
  6
SLD-Solid
370
    18
100
AcDbLine
 10
50.905511811
 20
59.5
 30
0.0
 11
50.905511811
 21
59.8346456693
 31
0.0
  0
LINE
  5
FA
330
1F
100
AcDbEntity
  8
TITLE
  6
SLD-Solid
370
    18
100
AcDbLine
 10
50.905511811
 20
0.5
 30
0.0
 11
50.905511811
 21
0.1653543307
 31
0.0
  0
LINE
  5
FB
330
1F
100
AcDbEntity
  8
TITLE
  6
SLD-Solid
370
    18
100
AcDbLine
 10
52.874015748
 20
59.5
 30
0.0
 11
52.874015748
 21
59.8346456693
 31
0.0
  0
LINE
  5
FC
330
1F
100
AcDbEntity
  8
TITLE
  6
SLD-Solid
370
    18
100
AcDbLine
 10
52.874015748
 20
0.5
 30
0.0
 11
52.874015748
 21
0.1653543307
 31
0.0
  0
LINE
  5
FD
330
1F
100
AcDbEntity
  8
TITLE
  6
SLD-Solid
370
    18
100
AcDbLine
 10
54.842519685
 20
59.5
 30
0.0
 11
54.842519685
 21
59.8346456693
 31
0.0
  0
LINE
  5
FE
330
1F
100
AcDbEntity
  8
TITLE
  6
SLD-Solid
370
    18
100
AcDbLine
 10
54.842519685
 20
0.5
 30
0.0
 11
54.842519685
 21
0.1653543307
 31
0.0
  0
LINE
  5
FF
330
1F
100
AcDbEntity
  8
TITLE
  6
SLD-Solid
370
    18
100
AcDbLine
 10
56.811023622
 20
59.5
 30
0.0
 11
56.811023622
 21
59.8346456693
 31
0.0
  0
LINE
  5
100
330
1F
100
AcDbEntity
  8
TITLE
  6
SLD-Solid
370
    18
100
AcDbLine
 10
56.811023622
 20
0.5
 30
0.0
 11
56.811023622
 21
0.1653543307
 31
0.0
  0
LINE
  5
101
330
1F
100
AcDbEntity
  8
TITLE
  6
SLD-Solid
370
    18
100
AcDbLine
 10
58.7795275591
 20
59.5
 30
0.0
 11
58.7795275591
 21
59.8346456693
 31
0.0
  0
LINE
  5
102
330
1F
100
AcDbEntity
  8
TITLE
  6
SLD-Solid
370
    18
100
AcDbLine
 10
58.7795275591
 20
0.5
 30
0.0
 11
58.7795275591
 21
0.1653543307
 31
0.0
  0
LINE
  5
103
330
1F
100
AcDbEntity
  8
TITLE
  6
SLD-Solid
370
    18
100
AcDbLine
 10
60.7480314961
 20
59.5
 30
0.0
 11
60.7480314961
 21
59.8346456693
 31
0.0
  0
LINE
  5
104
330
1F
100
AcDbEntity
  8
TITLE
  6
SLD-Solid
370
    18
100
AcDbLine
 10
60.7480314961
 20
0.5
 30
0.0
 11
60.7480314961
 21
0.1653543307
 31
0.0
  0
LINE
  5
105
330
1F
100
AcDbEntity
  8
TITLE
  6
SLD-Solid
370
    18
100
AcDbLine
 10
62.7165354331
 20
59.5
 30
0.0
 11
62.7165354331
 21
59.8346456693
 31
0.0
  0
LINE
  5
106
330
1F
100
AcDbEntity
  8
TITLE
  6
SLD-Solid
370
    18
100
AcDbLine
 10
62.7165354331
 20
0.5
 30
0.0
 11
62.7165354331
 21
0.1653543307
 31
0.0
  0
LINE
  5
107
330
1F
100
AcDbEntity
  8
TITLE
  6
SLD-Solid
370
    18
100
AcDbLine
 10
64.6850393701
 20
59.5
 30
0.0
 11
64.6850393701
 21
59.8346456693
 31
0.0
  0
LINE
  5
108
330
1F
100
AcDbEntity
  8
TITLE
  6
SLD-Solid
370
    18
100
AcDbLine
 10
64.6850393701
 20
0.5
 30
0.0
 11
64.6850393701
 21
0.1653543307
 31
0.0
  0
LINE
  5
109
330
1F
100
AcDbEntity
  8
TITLE
  6
SLD-Solid
370
    18
100
AcDbLine
 10
66.6535433071
 20
59.5
 30
0.0
 11
66.6535433071
 21
59.8346456693
 31
0.0
  0
LINE
  5
10A
330
1F
100
AcDbEntity
  8
TITLE
  6
SLD-Solid
370
    18
100
AcDbLine
 10
66.6535433071
 20
0.5
 30
0.0
 11
66.6535433071
 21
0.1653543307
 31
0.0
  0
LINE
  5
10B
330
1F
100
AcDbEntity
  8
TITLE
  6
SLD-Solid
370
    18
100
AcDbLine
 10
68.6220472441
 20
59.5
 30
0.0
 11
68.6220472441
 21
59.8346456693
 31
0.0
  0
LINE
  5
10C
330
1F
100
AcDbEntity
  8
TITLE
  6
SLD-Solid
370
    18
100
AcDbLine
 10
68.6220472441
 20
0.5
 30
0.0
 11
68.6220472441
 21
0.1653543307
 31
0.0
  0
LINE
  5
10D
330
1F
100
AcDbEntity
  8
TITLE
  6
SLD-Solid
370
    18
100
AcDbLine
 10
70.5905511811
 20
59.5
 30
0.0
 11
70.5905511811
 21
59.8346456693
 31
0.0
  0
LINE
  5
10E
330
1F
100
AcDbEntity
  8
TITLE
  6
SLD-Solid
370
    18
100
AcDbLine
 10
70.5905511811
 20
0.5
 30
0.0
 11
70.5905511811
 21
0.1653543307
 31
0.0
  0
LINE
  5
10F
330
1F
100
AcDbEntity
  8
TITLE
  6
SLD-Solid
370
    18
100
AcDbLine
 10
72.5590551181
 20
59.5
 30
0.0
 11
72.5590551181
 21
59.8346456693
 31
0.0
  0
LINE
  5
110
330
1F
100
AcDbEntity
  8
TITLE
  6
SLD-Solid
370
    18
100
AcDbLine
 10
72.5590551181
 20
0.5
 30
0.0
 11
72.5590551181
 21
0.1653543307
 31
0.0
  0
LINE
  5
111
330
1F
100
AcDbEntity
  8
TITLE
  6
SLD-Solid
370
    18
100
AcDbLine
 10
74.5275590551
 20
59.5
 30
0.0
 11
74.5275590551
 21
59.8346456693
 31
0.0
  0
LINE
  5
112
330
1F
100
AcDbEntity
  8
TITLE
  6
SLD-Solid
370
    18
100
AcDbLine
 10
74.5275590551
 20
0.5
 30
0.0
 11
74.5275590551
 21
0.1653543307
 31
0.0
  0
LINE
  5
113
330
1F
100
AcDbEntity
  8
TITLE
  6
SLD-Solid
370
    18
100
AcDbLine
 10
76.4960629921
 20
59.5
 30
0.0
 11
76.4960629921
 21
59.8346456693
 31
0.0
  0
LINE
  5
114
330
1F
100
AcDbEntity
  8
TITLE
  6
SLD-Solid
370
    18
100
AcDbLine
 10
76.4960629921
 20
0.5
 30
0.0
 11
76.4960629921
 21
0.1653543307
 31
0.0
  0
LINE
  5
115
330
1F
100
AcDbEntity
  8
TITLE
  6
SLD-Solid
370
    18
100
AcDbLine
 10
78.4645669291
 20
59.5
 30
0.0
 11
78.4645669291
 21
59.8346456693
 31
0.0
  0
LINE
  5
116
330
1F
100
AcDbEntity
  8
TITLE
  6
SLD-Solid
370
    18
100
AcDbLine
 10
78.4645669291
 20
0.5
 30
0.0
 11
78.4645669291
 21
0.1653543307
 31
0.0
  0
LINE
  5
117
330
1F
100
AcDbEntity
  8
TITLE
  6
SLD-Solid
370
    18
100
AcDbLine
 10
80.4330708661
 20
59.5
 30
0.0
 11
80.4330708661
 21
59.8346456693
 31
0.0
  0
LINE
  5
118
330
1F
100
AcDbEntity
  8
TITLE
  6
SLD-Solid
370
    18
100
AcDbLine
 10
80.4330708661
 20
0.5
 30
0.0
 11
80.4330708661
 21
0.1653543307
 31
0.0
  0
LINE
  5
119
330
1F
100
AcDbEntity
  8
TITLE
  6
SLD-Solid
370
    18
100
AcDbLine
 10
82.4015748031
 20
59.5
 30
0.0
 11
82.4015748031
 21
59.8346456693
 31
0.0
  0
LINE
  5
11A
330
1F
100
AcDbEntity
  8
TITLE
  6
SLD-Solid
370
    18
100
AcDbLine
 10
82.4015748031
 20
0.5
 30
0.0
 11
82.4015748031
 21
0.1653543307
 31
0.0
  0
LINE
  5
11B
330
1F
100
AcDbEntity
  8
TITLE
  6
SLD-Solid
370
    18
100
AcDbLine
 10
84.3700787402
 20
59.5
 30
0.0
 11
84.3700787402
 21
59.8346456693
 31
0.0
  0
LINE
  5
11C
330
1F
100
AcDbEntity
  8
TITLE
  6
SLD-Solid
370
    18
100
AcDbLine
 10
84.3700787402
 20
0.5
 30
0.0
 11
84.3700787402
 21
0.1653543307
 31
0.0
  0
LINE
  5
11D
330
1F
100
AcDbEntity
  8
TITLE
  6
SLD-Solid
370
    18
100
AcDbLine
 10
86.3385826772
 20
59.5
 30
0.0
 11
86.3385826772
 21
59.8346456693
 31
0.0
  0
LINE
  5
11E
330
1F
100
AcDbEntity
  8
TITLE
  6
SLD-Solid
370
    18
100
AcDbLine
 10
86.3385826772
 20
0.5
 30
0.0
 11
86.3385826772
 21
0.1653543307
 31
0.0
  0
LINE
  5
11F
330
1F
100
AcDbEntity
  8
TITLE
  6
SLD-Solid
370
    18
100
AcDbLine
 10
88.3070866142
 20
59.5
 30
0.0
 11
88.3070866142
 21
59.8346456693
 31
0.0
  0
LINE
  5
120
330
1F
100
AcDbEntity
  8
TITLE
  6
SLD-Solid
370
    18
100
AcDbLine
 10
88.3070866142
 20
0.5
 30
0.0
 11
88.3070866142
 21
0.1653543307
 31
0.0
  0
MTEXT
  5
122
330
1F
100
AcDbEntity
  8
NOTES
100
AcDbMText
 10
66.408297803
 20
1.0702903347
 30
0.0
 40
0.25
 41
0.0
 71
     1
 72
     1
  1
UNLESS OTHERWISE SPECIFIED DIMENSIONS ARE IN INCHES.
  7
SLDTEXTSTYLE0
 73
     1
 44
1.0
  0
MTEXT
  5
123
330
1F
100
AcDbEntity
  8
NOTES
100
AcDbMText
 10
66.4368251132
 20
3.2193045501
 30
0.0
 40
0.25
 41
0.0
 71
     1
 72
     1
  1
DATE:
  7
SLDTEXTSTYLE0
 73
     1
 44
1.0
  0
MTEXT
  5
124
330
1F
100
AcDbEntity
  8
NOTES
100
AcDbMText
 10
68.7130669976
 20
2.1722148141
 30
0.0
 40
0.25
 41
0.0
 71
     2
 72
     1
  1
DO NOT SCALE DRAWING
  7
SLDTEXTSTYLE0
 73
     1
 44
1.0
  0
MTEXT
  5
126
330
1F
100
AcDbEntity
  8
NOTES
100
AcDbMText
 10
72.8307373075
 20
3.2682755553
 30
0.0
 40
0.25
 41
0.0
 71
     1
 72
     1
  1
TITLE:
  7
SLDTEXTSTYLE1
 73
     1
 44
1.0
  0
MTEXT
  5
127
330
1F
100
AcDbEntity
  8
NOTES
100
AcDbMText
 10
80.1561831052
 20
3.2682755553
 30
0.0
 40
0.25
 41
0.0
 71
     1
 72
     1
  1
DWG NO.
  7
SLDTEXTSTYLE1
 73
     1
 44
1.0
  0
MTEXT
  5
128
330
1F
100
AcDbEntity
  8
NOTES
100
AcDbMText
 10
80.1831753203
 20
1.0645815577
 30
0.0
 40
0.25
 41
0.0
 71
     1
 72
     1
  1
SCALE:     1:1
  7
SLDTEXTSTYLE1
 73
     1
 44
1.0
  0
MTEXT
  5
129
330
1F
100
AcDbEntity
  8
NOTES
100
AcDbMText
 10
84.1829121048
 20
2.6510344295
 30
0.0
 40
0.25
 41
0.0
 71
     2
 72
     1
  1
1003-SP 16x24R CAD
  7
SLDTEXTSTYLE1
 73
     1
 44
1.0
  0
MTEXT
  5
12A
330
1F
100
AcDbEntity
  8
NOTES
100
AcDbMText
 10
75.9544034748
 20
2.6388861441
 30
0.0
 40
0.25
 41
0.0
 71
     2
 72
     1
  1
1003 -SP 16x24R
  7
SLDTEXTSTYLE1
 73
     1
 44
1.0
  0
INSERT
  5
130
330
1F
100
AcDbEntity
  8
NOTES
100
AcDbBlockReference
  2
SW_NOTE_0
 10
80.266131557
 20
4.6105227838
 30
0.0
  0
INSERT
  5
13A
330
1F
100
AcDbEntity
  8
NOTES
100
AcDbBlockReference
  2
SW_NOTE_0_1
 10
66.6159726246
 20
5.1481526848
 30
0.0
  0
MTEXT
  5
13B
330
1F
100
AcDbEntity
  8
NOTES
100
AcDbMText
 10
69.5299006004
 20
3.2135957731
 30
0.0
 40
0.25
 41
0.0
 71
     2
 72
     1
  1
October 19, 2021
  7
SLDTEXTSTYLE1
 73
     1
 44
1.0
  0
MTEXT
  5
13C
330
1F
100
AcDbEntity
  8
TITLE
100
AcDbMText
 10
0.3276279776
 20
1.5503503855
 30
0.0
 40
0.125
 41
0.0
 71
     2
 72
     1
  1
A
  7
SLDTEXTSTYLE1
 73
     1
 44
1.0
  0
MTEXT
  5
13D
330
1F
100
AcDbEntity
  8
TITLE
100
AcDbMText
 10
89.6622736469
 20
1.5503503855
 30
0.0
 40
0.125
 41
0.0
 71
     2
 72
     1
  1
A
  7
SLDTEXTSTYLE1
 73
     1
 44
1.0
  0
MTEXT
  5
13E
330
1F
100
AcDbEntity
  8
TITLE
100
AcDbMText
 10
0.3317512413
 20
3.5050747949
 30
0.0
 40
0.125
 41
0.0
 71
     2
 72
     1
  1
B
  7
SLDTEXTSTYLE1
 73
     1
 44
1.0
  0
MTEXT
  5
13F
330
1F
100
AcDbEntity
  8
TITLE
100
AcDbMText
 10
89.6663969106
 20
3.5050747949
 30
0.0
 40
0.125
 41
0.0
 71
     2
 72
     1
  1
B
  7
SLDTEXTSTYLE1
 73
     1
 44
1.0
  0
MTEXT
  5
140
330
1F
100
AcDbEntity
  8
TITLE
100
AcDbMText
 10
0.3313750817
 20
5.4735787319
 30
0.0
 40
0.125
 41
0.0
 71
     2
 72
     1
  1
C
  7
SLDTEXTSTYLE1
 73
     1
 44
1.0
  0
MTEXT
  5
141
330
1F
100
AcDbEntity
  8
TITLE
100
AcDbMText
 10
89.666020751
 20
5.4735787319
 30
0.0
 40
0.125
 41
0.0
 71
     2
 72
     1
  1
C
  7
SLDTEXTSTYLE1
 73
     1
 44
1.0
  0
MTEXT
  5
142
330
1F
100
AcDbEntity
  8
TITLE
100
AcDbMText
 10
0.3311870028
 20
7.4420826689
 30
0.0
 40
0.125
 41
0.0
 71
     2
 72
     1
  1
D
  7
SLDTEXTSTYLE1
 73
     1
 44
1.0
  0
MTEXT
  5
143
330
1F
100
AcDbEntity
  8
TITLE
100
AcDbMText
 10
89.6658326721
 20
7.4420826689
 30
0.0
 40
0.125
 41
0.0
 71
     2
 72
     1
  1
D
  7
SLDTEXTSTYLE1
 73
     1
 44
1.0
  0
MTEXT
  5
144
330
1F
100
AcDbEntity
  8
TITLE
100
AcDbMText
 10
0.332923116
 20
9.4105866059
 30
0.0
 40
0.125
 41
0.0
 71
     2
 72
     1
  1
E
  7
SLDTEXTSTYLE1
 73
     1
 44
1.0
  0
MTEXT
  5
145
330
1F
100
AcDbEntity
  8
TITLE
100
AcDbMText
 10
89.6675687853
 20
9.4105866059
 30
0.0
 40
0.125
 41
0.0
 71
     2
 72
     1
  1
E
  7
SLDTEXTSTYLE1
 73
     1
 44
1.0
  0
MTEXT
  5
146
330
1F
100
AcDbEntity
  8
TITLE
100
AcDbMText
 10
0.3313461474
 20
11.3790905429
 30
0.0
 40
0.125
 41
0.0
 71
     2
 72
     1
  1
F
  7
SLDTEXTSTYLE1
 73
     1
 44
1.0
  0
MTEXT
  5
147
330
1F
100
AcDbEntity
  8
TITLE
100
AcDbMText
 10
89.6659918167
 20
11.3790905429
 30
0.0
 40
0.125
 41
0.0
 71
     2
 72
     1
  1
F
  7
SLDTEXTSTYLE1
 73
     1
 44
1.0
  0
MTEXT
  5
148
330
1F
100
AcDbEntity
  8
TITLE
100
AcDbMText
 10
0.3322576054
 20
13.34759448
 30
0.0
 40
0.125
 41
0.0
 71
     2
 72
     1
  1
G
  7
SLDTEXTSTYLE1
 73
     1
 44
1.0
  0
MTEXT
  5
149
330
1F
100
AcDbEntity
  8
TITLE
100
AcDbMText
 10
89.6669032747
 20
13.34759448
 30
0.0
 40
0.125
 41
0.0
 71
     2
 72
     1
  1
G
  7
SLDTEXTSTYLE1
 73
     1
 44
1.0
  0
MTEXT
  5
14A
330
1F
100
AcDbEntity
  8
TITLE
100
AcDbMText
 10
0.3323733457
 20
15.316098417
 30
0.0
 40
0.125
 41
0.0
 71
     2
 72
     1
  1
H
  7
SLDTEXTSTYLE1
 73
     1
 44
1.0
  0
MTEXT
  5
14B
330
1F
100
AcDbEntity
  8
TITLE
100
AcDbMText
 10
89.667019015
 20
15.316098417
 30
0.0
 40
0.125
 41
0.0
 71
     2
 72
     1
  1
H
  7
SLDTEXTSTYLE1
 73
     1
 44
1.0
  0
MTEXT
  5
14C
330
1F
100
AcDbEntity
  8
TITLE
100
AcDbMText
 10
0.3315776306
 20
17.284602354
 30
0.0
 40
0.125
 41
0.0
 71
     2
 72
     1
  1
J
  7
SLDTEXTSTYLE1
 73
     1
 44
1.0
  0
MTEXT
  5
14D
330
1F
100
AcDbEntity
  8
TITLE
100
AcDbMText
 10
89.6662232999
 20
17.284602354
 30
0.0
 40
0.125
 41
0.0
 71
     2
 72
     1
  1
J
  7
SLDTEXTSTYLE1
 73
     1
 44
1.0
  0
MTEXT
  5
14E
330
1F
100
AcDbEntity
  8
TITLE
100
AcDbMText
 10
0.3323154765
 20
19.253106291
 30
0.0
 40
0.125
 41
0.0
 71
     2
 72
     1
  1
K
  7
SLDTEXTSTYLE1
 73
     1
 44
1.0
  0
MTEXT
  5
14F
330
1F
100
AcDbEntity
  8
TITLE
100
AcDbMText
 10
89.6669611458
 20
19.253106291
 30
0.0
 40
0.125
 41
0.0
 71
     2
 72
     1
  1
K
  7
SLDTEXTSTYLE1
 73
     1
 44
1.0
  0
MTEXT
  5
150
330
1F
100
AcDbEntity
  8
TITLE
100
AcDbMText
 10
0.3312448739
 20
21.221610228
 30
0.0
 40
0.125
 41
0.0
 71
     2
 72
     1
  1
L
  7
SLDTEXTSTYLE1
 73
     1
 44
1.0
  0
MTEXT
  5
151
330
1F
100
AcDbEntity
  8
TITLE
100
AcDbMText
 10
89.6658905432
 20
21.221610228
 30
0.0
 40
0.125
 41
0.0
 71
     2
 72
     1
  1
L
  7
SLDTEXTSTYLE1
 73
     1
 44
1.0
  0
MTEXT
  5
152
330
1F
100
AcDbEntity
  8
TITLE
100
AcDbMText
 10
0.3283224192
 20
23.190114165
 30
0.0
 40
0.125
 41
0.0
 71
     2
 72
     1
  1
M
  7
SLDTEXTSTYLE1
 73
     1
 44
1.0
  0
MTEXT
  5
153
330
1F
100
AcDbEntity
  8
TITLE
100
AcDbMText
 10
89.6629680885
 20
23.190114165
 30
0.0
 40
0.125
 41
0.0
 71
     2
 72
     1
  1
M
  7
SLDTEXTSTYLE1
 73
     1
 44
1.0
  0
MTEXT
  5
154
330
1F
100
AcDbEntity
  8
TITLE
100
AcDbMText
 10
0.3315342276
 20
25.158618102
 30
0.0
 40
0.125
 41
0.0
 71
     2
 72
     1
  1
N
  7
SLDTEXTSTYLE1
 73
     1
 44
1.0
  0
MTEXT
  5
155
330
1F
100
AcDbEntity
  8
TITLE
100
AcDbMText
 10
89.6661798969
 20
25.158618102
 30
0.0
 40
0.125
 41
0.0
 71
     2
 72
     1
  1
N
  7
SLDTEXTSTYLE1
 73
     1
 44
1.0
  0
MTEXT
  5
156
330
1F
100
AcDbEntity
  8
TITLE
100
AcDbMText
 10
0.3321997349
 20
27.127122039
 30
0.0
 40
0.125
 41
0.0
 71
     2
 72
     1
  1
P
  7
SLDTEXTSTYLE1
 73
     1
 44
1.0
  0
MTEXT
  5
157
330
1F
100
AcDbEntity
  8
TITLE
100
AcDbMText
 10
89.6668454042
 20
27.127122039
 30
0.0
 40
0.125
 41
0.0
 71
     2
 72
     1
  1
P
  7
SLDTEXTSTYLE1
 73
     1
 44
1.0
  0
MTEXT
  5
158
330
1F
100
AcDbEntity
  8
TITLE
100
AcDbMText
 10
0.3309265867
 20
29.095625976
 30
0.0
 40
0.125
 41
0.0
 71
     2
 72
     1
  1
R
  7
SLDTEXTSTYLE1
 73
     1
 44
1.0
  0
MTEXT
  5
159
330
1F
100
AcDbEntity
  8
TITLE
100
AcDbMText
 10
89.665572256
 20
29.095625976
 30
0.0
 40
0.125
 41
0.0
 71
     2
 72
     1
  1
R
  7
SLDTEXTSTYLE1
 73
     1
 44
1.0
  0
MTEXT
  5
15A
330
1F
100
AcDbEntity
  8
TITLE
100
AcDbMText
 10
0.3323010071
 20
31.064129913
 30
0.0
 40
0.125
 41
0.0
 71
     2
 72
     1
  1
T
  7
SLDTEXTSTYLE1
 73
     1
 44
1.0
  0
MTEXT
  5
15B
330
1F
100
AcDbEntity
  8
TITLE
100
AcDbMText
 10
89.6669466764
 20
31.064129913
 30
0.0
 40
0.125
 41
0.0
 71
     2
 72
     1
  1
T
  7
SLDTEXTSTYLE1
 73
     1
 44
1.0
  0
MTEXT
  5
15C
330
1F
100
AcDbEntity
  8
TITLE
100
AcDbMText
 10
0.3328507755
 20
33.03263385
 30
0.0
 40
0.125
 41
0.0
 71
     2
 72
     1
  1
U
  7
SLDTEXTSTYLE1
 73
     1
 44
1.0
  0
MTEXT
  5
15D
330
1F
100
AcDbEntity
  8
TITLE
100
AcDbMText
 10
89.6674964448
 20
33.03263385
 30
0.0
 40
0.125
 41
0.0
 71
     2
 72
     1
  1
U
  7
SLDTEXTSTYLE1
 73
     1
 44
1.0
  0
MTEXT
  5
15E
330
1F
100
AcDbEntity
  8
TITLE
100
AcDbMText
 10
0.3307529773
 20
35.001137787
 30
0.0
 40
0.125
 41
0.0
 71
     2
 72
     1
  1
V
  7
SLDTEXTSTYLE1
 73
     1
 44
1.0
  0
MTEXT
  5
15F
330
1F
100
AcDbEntity
  8
TITLE
100
AcDbMText
 10
89.6653986466
 20
35.001137787
 30
0.0
 40
0.125
 41
0.0
 71
     2
 72
     1
  1
V
  7
SLDTEXTSTYLE1
 73
     1
 44
1.0
  0
MTEXT
  5
160
330
1F
100
AcDbEntity
  8
TITLE
100
AcDbMText
 10
0.3327784409
 20
36.969641724
 30
0.0
 40
0.125
 41
0.0
 71
     2
 72
     1
  1
W
  7
SLDTEXTSTYLE1
 73
     1
 44
1.0
  0
MTEXT
  5
161
330
1F
100
AcDbEntity
  8
TITLE
100
AcDbMText
 10
89.6674241102
 20
36.969641724
 30
0.0
 40
0.125
 41
0.0
 71
     2
 72
     1
  1
W
  7
SLDTEXTSTYLE1
 73
     1
 44
1.0
  0
MTEXT
  5
162
330
1F
100
AcDbEntity
  8
TITLE
100
AcDbMText
 10
0.3321997349
 20
38.9381456611
 30
0.0
 40
0.125
 41
0.0
 71
     2
 72
     1
  1
Y
  7
SLDTEXTSTYLE1
 73
     1
 44
1.0
  0
MTEXT
  5
163
330
1F
100
AcDbEntity
  8
TITLE
100
AcDbMText
 10
89.6668454042
 20
38.9381456611
 30
0.0
 40
0.125
 41
0.0
 71
     2
 72
     1
  1
Y
  7
SLDTEXTSTYLE1
 73
     1
 44
1.0
  0
MTEXT
  5
164
330
1F
100
AcDbEntity
  8
TITLE
100
AcDbMText
 10
0.3225787898
 20
40.9066495981
 30
0.0
 40
0.125
 41
0.0
 71
     2
 72
     1
  1
AA
  7
SLDTEXTSTYLE1
 73
     1
 44
1.0
  0
MTEXT
  5
165
330
1F
100
AcDbEntity
  8
TITLE
100
AcDbMText
 10
89.6572244591
 20
40.9066495981
 30
0.0
 40
0.125
 41
0.0
 71
     2
 72
     1
  1
AA
  7
SLDTEXTSTYLE1
 73
     1
 44
1.0
  0
MTEXT
  5
166
330
1F
100
AcDbEntity
  8
TITLE
100
AcDbMText
 10
0.3267020535
 20
42.8751535351
 30
0.0
 40
0.125
 41
0.0
 71
     2
 72
     1
  1
AB
  7
SLDTEXTSTYLE1
 73
     1
 44
1.0
  0
MTEXT
  5
167
330
1F
100
AcDbEntity
  8
TITLE
100
AcDbMText
 10
89.6613477228
 20
42.8751535351
 30
0.0
 40
0.125
 41
0.0
 71
     2
 72
     1
  1
AB
  7
SLDTEXTSTYLE1
 73
     1
 44
1.0
  0
MTEXT
  5
168
330
1F
100
AcDbEntity
  8
TITLE
100
AcDbMText
 10
0.3263258985
 20
44.8436574721
 30
0.0
 40
0.125
 41
0.0
 71
     2
 72
     1
  1
AC
  7
SLDTEXTSTYLE1
 73
     1
 44
1.0
  0
MTEXT
  5
169
330
1F
100
AcDbEntity
  8
TITLE
100
AcDbMText
 10
89.6609715678
 20
44.8436574721
 30
0.0
 40
0.125
 41
0.0
 71
     2
 72
     1
  1
AC
  7
SLDTEXTSTYLE1
 73
     1
 44
1.0
  0
MTEXT
  5
16A
330
1F
100
AcDbEntity
  8
TITLE
100
AcDbMText
 10
0.3261378197
 20
46.8121614091
 30
0.0
 40
0.125
 41
0.0
 71
     2
 72
     1
  1
AD
  7
SLDTEXTSTYLE1
 73
     1
 44
1.0
  0
MTEXT
  5
16B
330
1F
100
AcDbEntity
  8
TITLE
100
AcDbMText
 10
89.6607834889
 20
46.8121614091
 30
0.0
 40
0.125
 41
0.0
 71
     2
 72
     1
  1
AD
  7
SLDTEXTSTYLE1
 73
     1
 44
1.0
  0
MTEXT
  5
16C
330
1F
100
AcDbEntity
  8
TITLE
100
AcDbMText
 10
0.3278739283
 20
48.7806653461
 30
0.0
 40
0.125
 41
0.0
 71
     2
 72
     1
  1
AE
  7
SLDTEXTSTYLE1
 73
     1
 44
1.0
  0
MTEXT
  5
16D
330
1F
100
AcDbEntity
  8
TITLE
100
AcDbMText
 10
89.6625195976
 20
48.7806653461
 30
0.0
 40
0.125
 41
0.0
 71
     2
 72
     1
  1
AE
  7
SLDTEXTSTYLE1
 73
     1
 44
1.0
  0
MTEXT
  5
16E
330
1F
100
AcDbEntity
  8
TITLE
100
AcDbMText
 10
0.3262969596
 20
50.7491692831
 30
0.0
 40
0.125
 41
0.0
 71
     2
 72
     1
  1
AF
  7
SLDTEXTSTYLE1
 73
     1
 44
1.0
  0
MTEXT
  5
16F
330
1F
100
AcDbEntity
  8
TITLE
100
AcDbMText
 10
89.6609426289
 20
50.7491692831
 30
0.0
 40
0.125
 41
0.0
 71
     2
 72
     1
  1
AF
  7
SLDTEXTSTYLE1
 73
     1
 44
1.0
  0
MTEXT
  5
170
330
1F
100
AcDbEntity
  8
TITLE
100
AcDbMText
 10
0.3272084177
 20
52.7176732201
 30
0.0
 40
0.125
 41
0.0
 71
     2
 72
     1
  1
AG
  7
SLDTEXTSTYLE1
 73
     1
 44
1.0
  0
MTEXT
  5
171
330
1F
100
AcDbEntity
  8
TITLE
100
AcDbMText
 10
89.661854087
 20
52.7176732201
 30
0.0
 40
0.125
 41
0.0
 71
     2
 72
     1
  1
AG
  7
SLDTEXTSTYLE1
 73
     1
 44
1.0
  0
MTEXT
  5
172
330
1F
100
AcDbEntity
  8
TITLE
100
AcDbMText
 10
0.3273241625
 20
54.6861771571
 30
0.0
 40
0.125
 41
0.0
 71
     2
 72
     1
  1
AH
  7
SLDTEXTSTYLE1
 73
     1
 44
1.0
  0
MTEXT
  5
173
330
1F
100
AcDbEntity
  8
TITLE
100
AcDbMText
 10
89.6619698318
 20
54.6861771571
 30
0.0
 40
0.125
 41
0.0
 71
     2
 72
     1
  1
AH
  7
SLDTEXTSTYLE1
 73
     1
 44
1.0
  0
MTEXT
  5
174
330
1F
100
AcDbEntity
  8
TITLE
100
AcDbMText
 10
0.3265284428
 20
56.6546810941
 30
0.0
 40
0.125
 41
0.0
 71
     2
 72
     1
  1
AJ
  7
SLDTEXTSTYLE1
 73
     1
 44
1.0
  0
MTEXT
  5
175
330
1F
100
AcDbEntity
  8
TITLE
100
AcDbMText
 10
89.6611741121
 20
56.6546810941
 30
0.0
 40
0.125
 41
0.0
 71
     2
 72
     1
  1
AJ
  7
SLDTEXTSTYLE1
 73
     1
 44
1.0
  0
MTEXT
  5
176
330
1F
100
AcDbEntity
  8
TITLE
100
AcDbMText
 10
0.3272662887
 20
58.6094055036
 30
0.0
 40
0.125
 41
0.0
 71
     2
 72
     1
  1
AK
  7
SLDTEXTSTYLE1
 73
     1
 44
1.0
  0
MTEXT
  5
177
330
1F
100
AcDbEntity
  8
TITLE
100
AcDbMText
 10
89.661911958
 20
58.6094055036
 30
0.0
 40
0.125
 41
0.0
 71
     2
 72
     1
  1
AK
  7
SLDTEXTSTYLE1
 73
     1
 44
1.0
  0
MTEXT
  5
178
330
1F
100
AcDbEntity
  8
TITLE
100
AcDbMText
 10
1.0939393315
 20
0.4125551099
 30
0.0
 40
0.125
 41
0.0
 71
     2
 72
     1
  1
46
  7
SLDTEXTSTYLE1
 73
     1
 44
1.0
  0
MTEXT
  5
179
330
1F
100
AcDbEntity
  8
TITLE
100
AcDbMText
 10
1.0939393315
 20
59.7472007792
 30
0.0
 40
0.125
 41
0.0
 71
     2
 72
     1
  1
46
  7
SLDTEXTSTYLE1
 73
     1
 44
1.0
  0
MTEXT
  5
17A
330
1F
100
AcDbEntity
  8
TITLE
100
AcDbMText
 10
2.674647993
 20
0.4125551099
 30
0.0
 40
0.125
 41
0.0
 71
     2
 72
     1
  1
45
  7
SLDTEXTSTYLE1
 73
     1
 44
1.0
  0
MTEXT
  5
17B
330
1F
100
AcDbEntity
  8
TITLE
100
AcDbMText
 10
2.674647993
 20
59.7472007792
 30
0.0
 40
0.125
 41
0.0
 71
     2
 72
     1
  1
45
  7
SLDTEXTSTYLE1
 73
     1
 44
1.0
  0
MTEXT
  5
17C
330
1F
100
AcDbEntity
  8
TITLE
100
AcDbMText
 10
4.64315193
 20
0.4125551099
 30
0.0
 40
0.125
 41
0.0
 71
     2
 72
     1
  1
44
  7
SLDTEXTSTYLE1
 73
     1
 44
1.0
  0
MTEXT
  5
17D
330
1F
100
AcDbEntity
  8
TITLE
100
AcDbMText
 10
4.64315193
 20
59.7472007792
 30
0.0
 40
0.125
 41
0.0
 71
     2
 72
     1
  1
44
  7
SLDTEXTSTYLE1
 73
     1
 44
1.0
  0
MTEXT
  5
17E
330
1F
100
AcDbEntity
  8
TITLE
100
AcDbMText
 10
6.611655867
 20
0.4125551099
 30
0.0
 40
0.125
 41
0.0
 71
     2
 72
     1
  1
43
  7
SLDTEXTSTYLE1
 73
     1
 44
1.0
  0
MTEXT
  5
17F
330
1F
100
AcDbEntity
  8
TITLE
100
AcDbMText
 10
6.611655867
 20
59.7472007792
 30
0.0
 40
0.125
 41
0.0
 71
     2
 72
     1
  1
43
  7
SLDTEXTSTYLE1
 73
     1
 44
1.0
  0
MTEXT
  5
180
330
1F
100
AcDbEntity
  8
TITLE
100
AcDbMText
 10
8.580159804
 20
0.4125551099
 30
0.0
 40
0.125
 41
0.0
 71
     2
 72
     1
  1
42
  7
SLDTEXTSTYLE1
 73
     1
 44
1.0
  0
MTEXT
  5
181
330
1F
100
AcDbEntity
  8
TITLE
100
AcDbMText
 10
8.580159804
 20
59.7472007792
 30
0.0
 40
0.125
 41
0.0
 71
     2
 72
     1
  1
42
  7
SLDTEXTSTYLE1
 73
     1
 44
1.0
  0
MTEXT
  5
182
330
1F
100
AcDbEntity
  8
TITLE
100
AcDbMText
 10
10.548663741
 20
0.4125551099
 30
0.0
 40
0.125
 41
0.0
 71
     2
 72
     1
  1
41
  7
SLDTEXTSTYLE1
 73
     1
 44
1.0
  0
MTEXT
  5
183
330
1F
100
AcDbEntity
  8
TITLE
100
AcDbMText
 10
10.548663741
 20
59.7472007792
 30
0.0
 40
0.125
 41
0.0
 71
     2
 72
     1
  1
41
  7
SLDTEXTSTYLE1
 73
     1
 44
1.0
  0
MTEXT
  5
184
330
1F
100
AcDbEntity
  8
TITLE
100
AcDbMText
 10
12.517167678
 20
0.4125551099
 30
0.0
 40
0.125
 41
0.0
 71
     2
 72
     1
  1
40
  7
SLDTEXTSTYLE1
 73
     1
 44
1.0
  0
MTEXT
  5
185
330
1F
100
AcDbEntity
  8
TITLE
100
AcDbMText
 10
12.517167678
 20
59.7472007792
 30
0.0
 40
0.125
 41
0.0
 71
     2
 72
     1
  1
40
  7
SLDTEXTSTYLE1
 73
     1
 44
1.0
  0
MTEXT
  5
186
330
1F
100
AcDbEntity
  8
TITLE
100
AcDbMText
 10
14.485671615
 20
0.4125551099
 30
0.0
 40
0.125
 41
0.0
 71
     2
 72
     1
  1
39
  7
SLDTEXTSTYLE1
 73
     1
 44
1.0
  0
MTEXT
  5
187
330
1F
100
AcDbEntity
  8
TITLE
100
AcDbMText
 10
14.485671615
 20
59.7472007792
 30
0.0
 40
0.125
 41
0.0
 71
     2
 72
     1
  1
39
  7
SLDTEXTSTYLE1
 73
     1
 44
1.0
  0
MTEXT
  5
188
330
1F
100
AcDbEntity
  8
TITLE
100
AcDbMText
 10
16.454175552
 20
0.4125551099
 30
0.0
 40
0.125
 41
0.0
 71
     2
 72
     1
  1
38
  7
SLDTEXTSTYLE1
 73
     1
 44
1.0
  0
MTEXT
  5
189
330
1F
100
AcDbEntity
  8
TITLE
100
AcDbMText
 10
16.454175552
 20
59.7472007792
 30
0.0
 40
0.125
 41
0.0
 71
     2
 72
     1
  1
38
  7
SLDTEXTSTYLE1
 73
     1
 44
1.0
  0
MTEXT
  5
18A
330
1F
100
AcDbEntity
  8
TITLE
100
AcDbMText
 10
18.422679489
 20
0.4125551099
 30
0.0
 40
0.125
 41
0.0
 71
     2
 72
     1
  1
37
  7
SLDTEXTSTYLE1
 73
     1
 44
1.0
  0
MTEXT
  5
18B
330
1F
100
AcDbEntity
  8
TITLE
100
AcDbMText
 10
18.422679489
 20
59.7472007792
 30
0.0
 40
0.125
 41
0.0
 71
     2
 72
     1
  1
37
  7
SLDTEXTSTYLE1
 73
     1
 44
1.0
  0
MTEXT
  5
18C
330
1F
100
AcDbEntity
  8
TITLE
100
AcDbMText
 10
20.391183426
 20
0.4125551099
 30
0.0
 40
0.125
 41
0.0
 71
     2
 72
     1
  1
36
  7
SLDTEXTSTYLE1
 73
     1
 44
1.0
  0
MTEXT
  5
18D
330
1F
100
AcDbEntity
  8
TITLE
100
AcDbMText
 10
20.391183426
 20
59.7472007792
 30
0.0
 40
0.125
 41
0.0
 71
     2
 72
     1
  1
36
  7
SLDTEXTSTYLE1
 73
     1
 44
1.0
  0
MTEXT
  5
18E
330
1F
100
AcDbEntity
  8
TITLE
100
AcDbMText
 10
22.359687363
 20
0.4125551099
 30
0.0
 40
0.125
 41
0.0
 71
     2
 72
     1
  1
35
  7
SLDTEXTSTYLE1
 73
     1
 44
1.0
  0
MTEXT
  5
18F
330
1F
100
AcDbEntity
  8
TITLE
100
AcDbMText
 10
22.359687363
 20
59.7472007792
 30
0.0
 40
0.125
 41
0.0
 71
     2
 72
     1
  1
35
  7
SLDTEXTSTYLE1
 73
     1
 44
1.0
  0
MTEXT
  5
190
330
1F
100
AcDbEntity
  8
TITLE
100
AcDbMText
 10
24.3281913
 20
0.4125551099
 30
0.0
 40
0.125
 41
0.0
 71
     2
 72
     1
  1
34
  7
SLDTEXTSTYLE1
 73
     1
 44
1.0
  0
MTEXT
  5
191
330
1F
100
AcDbEntity
  8
TITLE
100
AcDbMText
 10
24.3281913
 20
59.7472007792
 30
0.0
 40
0.125
 41
0.0
 71
     2
 72
     1
  1
34
  7
SLDTEXTSTYLE1
 73
     1
 44
1.0
  0
MTEXT
  5
192
330
1F
100
AcDbEntity
  8
TITLE
100
AcDbMText
 10
26.2966952371
 20
0.4125551099
 30
0.0
 40
0.125
 41
0.0
 71
     2
 72
     1
  1
33
  7
SLDTEXTSTYLE1
 73
     1
 44
1.0
  0
MTEXT
  5
193
330
1F
100
AcDbEntity
  8
TITLE
100
AcDbMText
 10
26.2966952371
 20
59.7472007792
 30
0.0
 40
0.125
 41
0.0
 71
     2
 72
     1
  1
33
  7
SLDTEXTSTYLE1
 73
     1
 44
1.0
  0
MTEXT
  5
194
330
1F
100
AcDbEntity
  8
TITLE
100
AcDbMText
 10
28.2651991741
 20
0.4125551099
 30
0.0
 40
0.125
 41
0.0
 71
     2
 72
     1
  1
32
  7
SLDTEXTSTYLE1
 73
     1
 44
1.0
  0
MTEXT
  5
195
330
1F
100
AcDbEntity
  8
TITLE
100
AcDbMText
 10
28.2651991741
 20
59.7472007792
 30
0.0
 40
0.125
 41
0.0
 71
     2
 72
     1
  1
32
  7
SLDTEXTSTYLE1
 73
     1
 44
1.0
  0
MTEXT
  5
196
330
1F
100
AcDbEntity
  8
TITLE
100
AcDbMText
 10
30.2337031111
 20
0.4125551099
 30
0.0
 40
0.125
 41
0.0
 71
     2
 72
     1
  1
31
  7
SLDTEXTSTYLE1
 73
     1
 44
1.0
  0
MTEXT
  5
197
330
1F
100
AcDbEntity
  8
TITLE
100
AcDbMText
 10
30.2337031111
 20
59.7472007792
 30
0.0
 40
0.125
 41
0.0
 71
     2
 72
     1
  1
31
  7
SLDTEXTSTYLE1
 73
     1
 44
1.0
  0
MTEXT
  5
198
330
1F
100
AcDbEntity
  8
TITLE
100
AcDbMText
 10
32.2022070481
 20
0.4125551099
 30
0.0
 40
0.125
 41
0.0
 71
     2
 72
     1
  1
30
  7
SLDTEXTSTYLE1
 73
     1
 44
1.0
  0
MTEXT
  5
199
330
1F
100
AcDbEntity
  8
TITLE
100
AcDbMText
 10
32.2022070481
 20
59.7472007792
 30
0.0
 40
0.125
 41
0.0
 71
     2
 72
     1
  1
30
  7
SLDTEXTSTYLE1
 73
     1
 44
1.0
  0
MTEXT
  5
19A
330
1F
100
AcDbEntity
  8
TITLE
100
AcDbMText
 10
34.1707109851
 20
0.4125551099
 30
0.0
 40
0.125
 41
0.0
 71
     2
 72
     1
  1
29
  7
SLDTEXTSTYLE1
 73
     1
 44
1.0
  0
MTEXT
  5
19B
330
1F
100
AcDbEntity
  8
TITLE
100
AcDbMText
 10
34.1707109851
 20
59.7472007792
 30
0.0
 40
0.125
 41
0.0
 71
     2
 72
     1
  1
29
  7
SLDTEXTSTYLE1
 73
     1
 44
1.0
  0
MTEXT
  5
19C
330
1F
100
AcDbEntity
  8
TITLE
100
AcDbMText
 10
36.1392149221
 20
0.4125551099
 30
0.0
 40
0.125
 41
0.0
 71
     2
 72
     1
  1
28
  7
SLDTEXTSTYLE1
 73
     1
 44
1.0
  0
MTEXT
  5
19D
330
1F
100
AcDbEntity
  8
TITLE
100
AcDbMText
 10
36.1392149221
 20
59.7472007792
 30
0.0
 40
0.125
 41
0.0
 71
     2
 72
     1
  1
28
  7
SLDTEXTSTYLE1
 73
     1
 44
1.0
  0
MTEXT
  5
19E
330
1F
100
AcDbEntity
  8
TITLE
100
AcDbMText
 10
38.1077188591
 20
0.4125551099
 30
0.0
 40
0.125
 41
0.0
 71
     2
 72
     1
  1
27
  7
SLDTEXTSTYLE1
 73
     1
 44
1.0
  0
MTEXT
  5
19F
330
1F
100
AcDbEntity
  8
TITLE
100
AcDbMText
 10
38.1077188591
 20
59.7472007792
 30
0.0
 40
0.125
 41
0.0
 71
     2
 72
     1
  1
27
  7
SLDTEXTSTYLE1
 73
     1
 44
1.0
  0
MTEXT
  5
1A0
330
1F
100
AcDbEntity
  8
TITLE
100
AcDbMText
 10
40.0762227961
 20
0.4125551099
 30
0.0
 40
0.125
 41
0.0
 71
     2
 72
     1
  1
26
  7
SLDTEXTSTYLE1
 73
     1
 44
1.0
  0
MTEXT
  5
1A1
330
1F
100
AcDbEntity
  8
TITLE
100
AcDbMText
 10
40.0762227961
 20
59.7472007792
 30
0.0
 40
0.125
 41
0.0
 71
     2
 72
     1
  1
26
  7
SLDTEXTSTYLE1
 73
     1
 44
1.0
  0
MTEXT
  5
1A2
330
1F
100
AcDbEntity
  8
TITLE
100
AcDbMText
 10
42.0447267331
 20
0.4125551099
 30
0.0
 40
0.125
 41
0.0
 71
     2
 72
     1
  1
25
  7
SLDTEXTSTYLE1
 73
     1
 44
1.0
  0
MTEXT
  5
1A3
330
1F
100
AcDbEntity
  8
TITLE
100
AcDbMText
 10
42.0447267331
 20
59.7472007792
 30
0.0
 40
0.125
 41
0.0
 71
     2
 72
     1
  1
25
  7
SLDTEXTSTYLE1
 73
     1
 44
1.0
  0
MTEXT
  5
1A4
330
1F
100
AcDbEntity
  8
TITLE
100
AcDbMText
 10
44.0132306701
 20
0.4125551099
 30
0.0
 40
0.125
 41
0.0
 71
     2
 72
     1
  1
24
  7
SLDTEXTSTYLE1
 73
     1
 44
1.0
  0
MTEXT
  5
1A5
330
1F
100
AcDbEntity
  8
TITLE
100
AcDbMText
 10
44.0132306701
 20
59.7472007792
 30
0.0
 40
0.125
 41
0.0
 71
     2
 72
     1
  1
24
  7
SLDTEXTSTYLE1
 73
     1
 44
1.0
  0
MTEXT
  5
1A6
330
1F
100
AcDbEntity
  8
TITLE
100
AcDbMText
 10
45.9817346071
 20
0.4125551099
 30
0.0
 40
0.125
 41
0.0
 71
     2
 72
     1
  1
23
  7
SLDTEXTSTYLE1
 73
     1
 44
1.0
  0
MTEXT
  5
1A7
330
1F
100
AcDbEntity
  8
TITLE
100
AcDbMText
 10
45.9817346071
 20
59.7472007792
 30
0.0
 40
0.125
 41
0.0
 71
     2
 72
     1
  1
23
  7
SLDTEXTSTYLE1
 73
     1
 44
1.0
  0
MTEXT
  5
1A8
330
1F
100
AcDbEntity
  8
TITLE
100
AcDbMText
 10
47.9502385441
 20
0.4125551099
 30
0.0
 40
0.125
 41
0.0
 71
     2
 72
     1
  1
22
  7
SLDTEXTSTYLE1
 73
     1
 44
1.0
  0
MTEXT
  5
1A9
330
1F
100
AcDbEntity
  8
TITLE
100
AcDbMText
 10
47.9502385441
 20
59.7472007792
 30
0.0
 40
0.125
 41
0.0
 71
     2
 72
     1
  1
22
  7
SLDTEXTSTYLE1
 73
     1
 44
1.0
  0
MTEXT
  5
1AA
330
1F
100
AcDbEntity
  8
TITLE
100
AcDbMText
 10
49.9187424811
 20
0.4125551099
 30
0.0
 40
0.125
 41
0.0
 71
     2
 72
     1
  1
21
  7
SLDTEXTSTYLE1
 73
     1
 44
1.0
  0
MTEXT
  5
1AB
330
1F
100
AcDbEntity
  8
TITLE
100
AcDbMText
 10
49.9187424811
 20
59.7472007792
 30
0.0
 40
0.125
 41
0.0
 71
     2
 72
     1
  1
21
  7
SLDTEXTSTYLE1
 73
     1
 44
1.0
  0
MTEXT
  5
1AC
330
1F
100
AcDbEntity
  8
TITLE
100
AcDbMText
 10
51.8872464182
 20
0.4125551099
 30
0.0
 40
0.125
 41
0.0
 71
     2
 72
     1
  1
20
  7
SLDTEXTSTYLE1
 73
     1
 44
1.0
  0
MTEXT
  5
1AD
330
1F
100
AcDbEntity
  8
TITLE
100
AcDbMText
 10
51.8872464182
 20
59.7472007792
 30
0.0
 40
0.125
 41
0.0
 71
     2
 72
     1
  1
20
  7
SLDTEXTSTYLE1
 73
     1
 44
1.0
  0
MTEXT
  5
1AE
330
1F
100
AcDbEntity
  8
TITLE
100
AcDbMText
 10
53.8557503552
 20
0.4125551099
 30
0.0
 40
0.125
 41
0.0
 71
     2
 72
     1
  1
19
  7
SLDTEXTSTYLE1
 73
     1
 44
1.0
  0
MTEXT
  5
1AF
330
1F
100
AcDbEntity
  8
TITLE
100
AcDbMText
 10
53.8557503552
 20
59.7472007792
 30
0.0
 40
0.125
 41
0.0
 71
     2
 72
     1
  1
19
  7
SLDTEXTSTYLE1
 73
     1
 44
1.0
  0
MTEXT
  5
1B0
330
1F
100
AcDbEntity
  8
TITLE
100
AcDbMText
 10
55.8242542922
 20
0.4125551099
 30
0.0
 40
0.125
 41
0.0
 71
     2
 72
     1
  1
18
  7
SLDTEXTSTYLE1
 73
     1
 44
1.0
  0
MTEXT
  5
1B1
330
1F
100
AcDbEntity
  8
TITLE
100
AcDbMText
 10
55.8242542922
 20
59.7472007792
 30
0.0
 40
0.125
 41
0.0
 71
     2
 72
     1
  1
18
  7
SLDTEXTSTYLE1
 73
     1
 44
1.0
  0
MTEXT
  5
1B2
330
1F
100
AcDbEntity
  8
TITLE
100
AcDbMText
 10
57.7927582292
 20
0.4125551099
 30
0.0
 40
0.125
 41
0.0
 71
     2
 72
     1
  1
17
  7
SLDTEXTSTYLE1
 73
     1
 44
1.0
  0
MTEXT
  5
1B3
330
1F
100
AcDbEntity
  8
TITLE
100
AcDbMText
 10
57.7927582292
 20
59.7472007792
 30
0.0
 40
0.125
 41
0.0
 71
     2
 72
     1
  1
17
  7
SLDTEXTSTYLE1
 73
     1
 44
1.0
  0
MTEXT
  5
1B4
330
1F
100
AcDbEntity
  8
TITLE
100
AcDbMText
 10
59.7612621662
 20
0.4125551099
 30
0.0
 40
0.125
 41
0.0
 71
     2
 72
     1
  1
16
  7
SLDTEXTSTYLE1
 73
     1
 44
1.0
  0
MTEXT
  5
1B5
330
1F
100
AcDbEntity
  8
TITLE
100
AcDbMText
 10
59.7612621662
 20
59.7472007792
 30
0.0
 40
0.125
 41
0.0
 71
     2
 72
     1
  1
16
  7
SLDTEXTSTYLE1
 73
     1
 44
1.0
  0
MTEXT
  5
1B6
330
1F
100
AcDbEntity
  8
TITLE
100
AcDbMText
 10
61.7297661032
 20
0.4125551099
 30
0.0
 40
0.125
 41
0.0
 71
     2
 72
     1
  1
15
  7
SLDTEXTSTYLE1
 73
     1
 44
1.0
  0
MTEXT
  5
1B7
330
1F
100
AcDbEntity
  8
TITLE
100
AcDbMText
 10
61.7297661032
 20
59.7472007792
 30
0.0
 40
0.125
 41
0.0
 71
     2
 72
     1
  1
15
  7
SLDTEXTSTYLE1
 73
     1
 44
1.0
  0
MTEXT
  5
1B8
330
1F
100
AcDbEntity
  8
TITLE
100
AcDbMText
 10
63.6982700402
 20
0.4125551099
 30
0.0
 40
0.125
 41
0.0
 71
     2
 72
     1
  1
14
  7
SLDTEXTSTYLE1
 73
     1
 44
1.0
  0
MTEXT
  5
1B9
330
1F
100
AcDbEntity
  8
TITLE
100
AcDbMText
 10
63.6982700402
 20
59.7472007792
 30
0.0
 40
0.125
 41
0.0
 71
     2
 72
     1
  1
14
  7
SLDTEXTSTYLE1
 73
     1
 44
1.0
  0
MTEXT
  5
1BA
330
1F
100
AcDbEntity
  8
TITLE
100
AcDbMText
 10
65.6667739772
 20
0.4125551099
 30
0.0
 40
0.125
 41
0.0
 71
     2
 72
     1
  1
13
  7
SLDTEXTSTYLE1
 73
     1
 44
1.0
  0
MTEXT
  5
1BB
330
1F
100
AcDbEntity
  8
TITLE
100
AcDbMText
 10
65.6667739772
 20
59.7472007792
 30
0.0
 40
0.125
 41
0.0
 71
     2
 72
     1
  1
13
  7
SLDTEXTSTYLE1
 73
     1
 44
1.0
  0
MTEXT
  5
1BC
330
1F
100
AcDbEntity
  8
TITLE
100
AcDbMText
 10
67.6352779142
 20
0.4125551099
 30
0.0
 40
0.125
 41
0.0
 71
     2
 72
     1
  1
12
  7
SLDTEXTSTYLE1
 73
     1
 44
1.0
  0
MTEXT
  5
1BD
330
1F
100
AcDbEntity
  8
TITLE
100
AcDbMText
 10
67.6352779142
 20
59.7472007792
 30
0.0
 40
0.125
 41
0.0
 71
     2
 72
     1
  1
12
  7
SLDTEXTSTYLE1
 73
     1
 44
1.0
  0
MTEXT
  5
1BE
330
1F
100
AcDbEntity
  8
TITLE
100
AcDbMText
 10
69.6037818512
 20
0.4125551099
 30
0.0
 40
0.125
 41
0.0
 71
     2
 72
     1
  1
11
  7
SLDTEXTSTYLE1
 73
     1
 44
1.0
  0
MTEXT
  5
1BF
330
1F
100
AcDbEntity
  8
TITLE
100
AcDbMText
 10
69.6037818512
 20
59.7472007792
 30
0.0
 40
0.125
 41
0.0
 71
     2
 72
     1
  1
11
  7
SLDTEXTSTYLE1
 73
     1
 44
1.0
  0
MTEXT
  5
1C0
330
1F
100
AcDbEntity
  8
TITLE
100
AcDbMText
 10
71.5722857882
 20
0.4125551099
 30
0.0
 40
0.125
 41
0.0
 71
     2
 72
     1
  1
10
  7
SLDTEXTSTYLE1
 73
     1
 44
1.0
  0
MTEXT
  5
1C1
330
1F
100
AcDbEntity
  8
TITLE
100
AcDbMText
 10
71.5722857882
 20
59.7472007792
 30
0.0
 40
0.125
 41
0.0
 71
     2
 72
     1
  1
10
  7
SLDTEXTSTYLE1
 73
     1
 44
1.0
  0
MTEXT
  5
1C2
330
1F
100
AcDbEntity
  8
TITLE
100
AcDbMText
 10
73.5420484059
 20
0.4125551099
 30
0.0
 40
0.125
 41
0.0
 71
     2
 72
     1
  1
9
  7
SLDTEXTSTYLE1
 73
     1
 44
1.0
  0
MTEXT
  5
1C3
330
1F
100
AcDbEntity
  8
TITLE
100
AcDbMText
 10
73.5420484059
 20
59.7472007792
 30
0.0
 40
0.125
 41
0.0
 71
     2
 72
     1
  1
9
  7
SLDTEXTSTYLE1
 73
     1
 44
1.0
  0
MTEXT
  5
1C4
330
1F
100
AcDbEntity
  8
TITLE
100
AcDbMText
 10
75.5105523429
 20
0.4125551099
 30
0.0
 40
0.125
 41
0.0
 71
     2
 72
     1
  1
8
  7
SLDTEXTSTYLE1
 73
     1
 44
1.0
  0
MTEXT
  5
1C5
330
1F
100
AcDbEntity
  8
TITLE
100
AcDbMText
 10
75.5105523429
 20
59.7472007792
 30
0.0
 40
0.125
 41
0.0
 71
     2
 72
     1
  1
8
  7
SLDTEXTSTYLE1
 73
     1
 44
1.0
  0
MTEXT
  5
1C6
330
1F
100
AcDbEntity
  8
TITLE
100
AcDbMText
 10
77.4790562799
 20
0.4125551099
 30
0.0
 40
0.125
 41
0.0
 71
     2
 72
     1
  1
7
  7
SLDTEXTSTYLE1
 73
     1
 44
1.0
  0
MTEXT
  5
1C7
330
1F
100
AcDbEntity
  8
TITLE
100
AcDbMText
 10
77.4790562799
 20
59.7472007792
 30
0.0
 40
0.125
 41
0.0
 71
     2
 72
     1
  1
7
  7
SLDTEXTSTYLE1
 73
     1
 44
1.0
  0
MTEXT
  5
1C8
330
1F
100
AcDbEntity
  8
TITLE
100
AcDbMText
 10
79.447560217
 20
0.4125551099
 30
0.0
 40
0.125
 41
0.0
 71
     2
 72
     1
  1
6
  7
SLDTEXTSTYLE1
 73
     1
 44
1.0
  0
MTEXT
  5
1C9
330
1F
100
AcDbEntity
  8
TITLE
100
AcDbMText
 10
79.447560217
 20
59.7472007792
 30
0.0
 40
0.125
 41
0.0
 71
     2
 72
     1
  1
6
  7
SLDTEXTSTYLE1
 73
     1
 44
1.0
  0
MTEXT
  5
1CA
330
1F
100
AcDbEntity
  8
TITLE
100
AcDbMText
 10
81.416064154
 20
0.4125551099
 30
0.0
 40
0.125
 41
0.0
 71
     2
 72
     1
  1
5
  7
SLDTEXTSTYLE1
 73
     1
 44
1.0
  0
MTEXT
  5
1CB
330
1F
100
AcDbEntity
  8
TITLE
100
AcDbMText
 10
81.416064154
 20
59.7472007792
 30
0.0
 40
0.125
 41
0.0
 71
     2
 72
     1
  1
5
  7
SLDTEXTSTYLE1
 73
     1
 44
1.0
  0
MTEXT
  5
1CC
330
1F
100
AcDbEntity
  8
TITLE
100
AcDbMText
 10
83.384568091
 20
0.4125551099
 30
0.0
 40
0.125
 41
0.0
 71
     2
 72
     1
  1
4
  7
SLDTEXTSTYLE1
 73
     1
 44
1.0
  0
MTEXT
  5
1CD
330
1F
100
AcDbEntity
  8
TITLE
100
AcDbMText
 10
83.384568091
 20
59.7472007792
 30
0.0
 40
0.125
 41
0.0
 71
     2
 72
     1
  1
4
  7
SLDTEXTSTYLE1
 73
     1
 44
1.0
  0
MTEXT
  5
1CE
330
1F
100
AcDbEntity
  8
TITLE
100
AcDbMText
 10
85.353072028
 20
0.4125551099
 30
0.0
 40
0.125
 41
0.0
 71
     2
 72
     1
  1
3
  7
SLDTEXTSTYLE1
 73
     1
 44
1.0
  0
MTEXT
  5
1CF
330
1F
100
AcDbEntity
  8
TITLE
100
AcDbMText
 10
85.353072028
 20
59.7472007792
 30
0.0
 40
0.125
 41
0.0
 71
     2
 72
     1
  1
3
  7
SLDTEXTSTYLE1
 73
     1
 44
1.0
  0
MTEXT
  5
1D0
330
1F
100
AcDbEntity
  8
TITLE
100
AcDbMText
 10
87.321575965
 20
0.4125551099
 30
0.0
 40
0.125
 41
0.0
 71
     2
 72
     1
  1
2
  7
SLDTEXTSTYLE1
 73
     1
 44
1.0
  0
MTEXT
  5
1D1
330
1F
100
AcDbEntity
  8
TITLE
100
AcDbMText
 10
87.321575965
 20
59.7472007792
 30
0.0
 40
0.125
 41
0.0
 71
     2
 72
     1
  1
2
  7
SLDTEXTSTYLE1
 73
     1
 44
1.0
  0
MTEXT
  5
1D2
330
1F
100
AcDbEntity
  8
TITLE
100
AcDbMText
 10
88.9022846264
 20
0.4125551099
 30
0.0
 40
0.125
 41
0.0
 71
     2
 72
     1
  1
1
  7
SLDTEXTSTYLE1
 73
     1
 44
1.0
  0
MTEXT
  5
1D3
330
1F
100
AcDbEntity
  8
TITLE
100
AcDbMText
 10
88.9022846264
 20
59.7472007792
 30
0.0
 40
0.125
 41
0.0
 71
     2
 72
     1
  1
1
  7
SLDTEXTSTYLE1
 73
     1
 44
1.0
  0
LINE
  5
1D4
330
1F
100
AcDbEntity
  8
OBJECT
  6
SLD-Solid
370
    25
100
AcDbLine
 10
13.4170902074
 20
23.5832937721
 30
0.0
 11
13.4170902074
 21
19.0754197563
 31
0.0
  0
LINE
  5
1D5
330
1F
100
AcDbEntity
  8
OBJECT
  6
SLD-Solid
370
    25
100
AcDbLine
 10
13.4170902074
 20
38.6856539956
 30
0.0
 11
13.4170902074
 21
23.5832937721
 31
0.0
  0
LINE
  5
1D6
330
1F
100
AcDbEntity
  8
OBJECT
  6
SLD-Solid
370
    25
100
AcDbLine
 10
14.6670902074
 20
23.5832937721
 30
0.0
 11
14.6670902074
 21
38.6856539956
 31
0.0
  0
LINE
  5
1D7
330
1F
100
AcDbEntity
  8
OBJECT
  6
SLD-Solid
370
    25
100
AcDbLine
 10
14.6670902074
 20
19.0754197563
 30
0.0
 11
14.6670902074
 21
23.5832937721
 31
0.0
  0
LINE
  5
1D8
330
1F
100
AcDbEntity
  8
OBJECT
  6
SLD-Solid
370
    25
100
AcDbLine
 10
15.5420902074
 20
16.9504197563
 30
0.0
 11
27.0420902074
 21
16.9504197563
 31
0.0
  0
LINE
  5
1D9
330
1F
100
AcDbEntity
  8
OBJECT
  6
SLD-Solid
370
    25
100
AcDbLine
 10
27.0420902074
 20
18.2004197563
 30
0.0
 11
15.5420902074
 21
18.2004197563
 31
0.0
  0
ARC
  5
1DA
330
1F
100
AcDbEntity
  8
OBJECT
  6
SLD-Solid
370
    25
100
AcDbCircle
 10
15.5420902074
 20
19.0754197563
 30
0.0
 40
0.875
100
AcDbArc
 50
180.0
 51
270.0
  0
ARC
  5
1DB
330
1F
100
AcDbEntity
  8
OBJECT
  6
SLD-Solid
370
    25
100
AcDbCircle
 10
15.5420902074
 20
19.0754197563
 30
0.0
 40
2.125
100
AcDbArc
 50
180.0
 51
270.0
  0
LINE
  5
1DC
330
1F
100
AcDbEntity
  8
OBJECT
  6
SLD-Solid
370
    25
100
AcDbLine
 10
30.0420902074
 20
18.2004197563
 30
0.0
 11
28.1520902074
 21
18.2004197563
 31
0.0
  0
LINE
  5
1DD
330
1F
100
AcDbEntity
  8
OBJECT
  6
SLD-Solid
370
    25
100
AcDbLine
 10
28.1520902074
 20
16.9504197563
 30
0.0
 11
30.0420902074
 21
16.9504197563
 31
0.0
  0
LINE
  5
1DE
330
1F
100
AcDbEntity
  8
OBJECT
  6
SLD-Solid
370
    25
100
AcDbLine
 10
27.0420902074
 20
16.9504197563
 30
0.0
 11
28.1520902074
 21
16.9504197563
 31
0.0
  0
LINE
  5
1DF
330
1F
100
AcDbEntity
  8
OBJECT
  6
SLD-Solid
370
    25
100
AcDbLine
 10
28.1520902074
 20
18.2004197563
 30
0.0
 11
27.0420902074
 21
18.2004197563
 31
0.0
  0
LINE
  5
1E0
330
1F
100
AcDbEntity
  8
OBJECT
  6
SLD-Solid
370
    25
100
AcDbLine
 10
13.4170902074
 20
39.6854197563
 30
0.0
 11
13.4170902074
 21
38.6856539956
 31
0.0
  0
LINE
  5
1E1
330
1F
100
AcDbEntity
  8
OBJECT
  6
SLD-Solid
370
    25
100
AcDbLine
 10
14.6670902074
 20
38.6856539956
 30
0.0
 11
14.6670902074
 21
39.6854197563
 31
0.0
  0
LINE
  5
1E2
330
1F
100
AcDbEntity
  8
OBJECT
  6
SLD-Solid
370
    25
100
AcDbLine
 10
14.6670902074
 20
39.6854197563
 30
0.0
 11
14.6670902074
 21
41.5754197563
 31
0.0
  0
LINE
  5
1E3
330
1F
100
AcDbEntity
  8
OBJECT
  6
SLD-Solid
370
    25
100
AcDbLine
 10
13.4170902074
 20
41.5754197563
 30
0.0
 11
13.4170902074
 21
39.6854197563
 31
0.0
  0
ARC
  5
1E4
330
1F
100
AcDbEntity
  8
OBJECT
  6
SLD-Solid
370
    25
100
AcDbCircle
 10
14.0420902074
 20
41.5754197563
 30
0.0
 40
0.655000000000002
100
AcDbArc
 50
342.5919823883
 51
197.4080176117
  0
ARC
  5
1E5
330
1F
100
AcDbEntity
  8
OBJECT
  6
SLD-Solid
370
    25
100
AcDbCircle
 10
14.0420902074
 20
41.5754197563
 30
0.0
 40
1.530000000000002
100
AcDbArc
 50
294.1104367824
 51
90.0
  0
ARC
  5
1E6
330
1F
100
AcDbEntity
  8
OBJECT
  6
SLD-Solid
370
    25
100
AcDbCircle
 10
14.0420902074
 20
41.5754197563
 30
0.0
 40
1.530000000000004
100
AcDbArc
 50
90.0
 51
245.8895632176
  0
ARC
  5
1E7
330
1F
100
AcDbEntity
  8
OBJECT
  6
SLD-Solid
370
    25
100
AcDbCircle
 10
14.0420902074
 20
23.5832937721
 30
0.0
 40
0.6550000000000014
100
AcDbArc
 50
162.5919823883
 51
197.4080176117
  0
ARC
  5
1E8
330
1F
100
AcDbEntity
  8
OBJECT
  6
SLD-Solid
370
    25
100
AcDbCircle
 10
14.0420902074
 20
23.5832937721
 30
0.0
 40
0.6549999999999996
100
AcDbArc
 50
342.5919823883
 51
17.4080176117
  0
ARC
  5
1E9
330
1F
100
AcDbEntity
  8
OBJECT
  6
SLD-Solid
370
    25
100
AcDbCircle
 10
14.0420902074
 20
23.5832937721
 30
0.0
 40
1.53
100
AcDbArc
 50
294.1104367824
 51
65.8895632176
  0
ARC
  5
1EA
330
1F
100
AcDbEntity
  8
OBJECT
  6
SLD-Solid
370
    25
100
AcDbCircle
 10
14.0420902074
 20
23.5832937721
 30
0.0
 40
1.53
100
AcDbArc
 50
114.1104367824
 51
245.8895632176
  0
ARC
  5
1EB
330
1F
100
AcDbEntity
  8
OBJECT
  6
SLD-Solid
370
    25
100
AcDbCircle
 10
30.0420902074
 20
17.5754197563
 30
0.0
 40
0.6549999999999976
100
AcDbArc
 50
252.5919823883
 51
270.0
  0
ARC
  5
1EC
330
1F
100
AcDbEntity
  8
OBJECT
  6
SLD-Solid
370
    25
100
AcDbCircle
 10
30.0420902074
 20
17.5754197563
 30
0.0
 40
0.6550000000000046
100
AcDbArc
 50
270.0
 51
107.4080176117
  0
ARC
  5
1ED
330
1F
100
AcDbEntity
  8
OBJECT
  6
SLD-Solid
370
    25
100
AcDbCircle
 10
30.0420902074
 20
17.5754197563
 30
0.0
 40
1.530000000000001
100
AcDbArc
 50
204.1104367824
 51
90.0
  0
ARC
  5
1EE
330
1F
100
AcDbEntity
  8
OBJECT
  6
SLD-Solid
370
    25
100
AcDbCircle
 10
30.0420902074
 20
17.5754197563
 30
0.0
 40
1.530000000000001
100
AcDbArc
 50
90.0
 51
155.8895632176
  0
ARC
  5
1EF
330
1F
100
AcDbEntity
  8
OBJECT
  6
SLD-Solid
370
    25
100
AcDbCircle
 10
30.0420902074
 20
17.5754197563
 30
0.0
 40
0.6250000000000036
100
AcDbArc
 50
270.0
 51
90.0
  0
ARC
  5
1F0
330
1F
100
AcDbEntity
  8
OBJECT
  6
SLD-Solid
370
    25
100
AcDbCircle
 10
14.0420902074
 20
41.5754197563
 30
0.0
 40
0.6249999999999982
100
AcDbArc
 50
0.0
 51
180.0
  0
ARC
  5
1F1
330
1F
100
AcDbEntity
  8
OBJECT
  6
SLD-Solid
370
    25
100
AcDbCircle
 10
14.0420902074
 20
41.5754197563
 30
0.0
 40
1.485234239225908
100
AcDbArc
 50
294.8856763439
 51
245.1143236561
  0
ARC
  5
1F2
330
1F
100
AcDbEntity
  8
OBJECT
  6
SLD-Solid
370
    25
100
AcDbCircle
 10
14.0420902074
 20
23.5832937721
 30
0.0
 40
1.485234239225901
100
AcDbArc
 50
294.8856763439
 51
65.1143236561
  0
ARC
  5
1F3
330
1F
100
AcDbEntity
  8
OBJECT
  6
SLD-Solid
370
    25
100
AcDbCircle
 10
14.0420902074
 20
23.5832937721
 30
0.0
 40
1.485234239225903
100
AcDbArc
 50
114.8856763439
 51
245.1143236561
  0
ARC
  5
1F4
330
1F
100
AcDbEntity
  8
OBJECT
  6
SLD-Solid
370
    25
100
AcDbCircle
 10
30.0420902074
 20
17.5754197563
 30
0.0
 40
1.485234239225905
100
AcDbArc
 50
270.0
 51
155.1143236561
  0
ARC
  5
1F5
330
1F
100
AcDbEntity
  8
OBJECT
  6
SLD-Solid
370
    25
100
AcDbCircle
 10
30.0420902074
 20
17.5754197563
 30
0.0
 40
1.485234239225905
100
AcDbArc
 50
204.8856763439
 51
270.0
  0
LINE
  5
1F6
330
1F
100
AcDbEntity
  8
OBJECT
100
AcDbLine
 10
42.0420902074
 20
42.7274243941
 30
0.0
 11
42.0420902074
 21
5.5754197563
 31
0.0
  0
LINE
  5
1F7
330
1F
100
AcDbEntity
  8
OBJECT
100
AcDbLine
 10
42.0420902074
 20
5.5754197563
 30
0.0
 11
4.5258032778
 21
5.5754197563
 31
0.0
  0
HATCH
  5
1F8
330
1F
100
AcDbEntity
  8
NOTES
100
AcDbHatch
 10
0.0
 20
0.0
 30
0.0
210
0.0
220
0.0
230
1.0
  2
AR-SAND
 70
     0
 71
     0
 91
        1
 92
        0
 93
        8
 72
     2
 10
15.54209020737758
 20
19.07541975634485
 40
0.875
 50
180.0000000000013
 51
270.0000000000016
 73
     1
 72
     1
 10
15.5420902073776
 20
18.20041975634485
 11
27.04209020737761
 21
18.20041975634493
 72
     1
 10
27.04209020737761
 20
18.20041975634493
 11
27.04209020737762
 21
16.95041975634494
 72
     1
 10
27.04209020737762
 20
16.95041975634494
 11
15.5420902073776
 21
16.95041975634485
 72
     2
 10
15.54209020737758
 20
19.07541975634485
 40
2.125
 50
89.99999999999947
 51
179.9999999999997
 73
     0
 72
     1
 10
13.41709020737758
 20
19.07541975634484
 11
13.41709020737746
 21
38.68565399557075
 72
     1
 10
13.41709020737746
 20
38.68565399557075
 11
14.66709020737745
 21
38.68565399557075
 72
     1
 10
14.66709020737745
 20
38.68565399557075
 11
14.66709020737758
 21
19.07541975634485
 97
        0
 75
     0
 76
     1
 52
0.0
 41
2.6666666667
 77
     0
 78
     4
 53
37.5
 43
0.0
 44
0.0
 45
-0.1679822882922884
 46
5.138196717368423
 79
     6
 49
0.0
 49
-4.053333333333333
 49
0.0
 49
-4.533333333333333
 49
0.0
 49
-4.333333333333333
 53
7.5
 43
0.0
 44
0.0
 45
4.719404547380606
 46
7.525722840612642
 79
     6
 49
0.0
 49
-2.186666666666667
 49
0.0
 49
-3.653333333333333
 49
0.0
 49
-1.4
 53
-32.5
 43
-3.28
 44
0.0
 45
8.304378298003986
 46
0.0150908094319059
 79
     6
 49
0.0
 49
-1.333333333333333
 49
0.0
 49
-4.8
 49
0.0
 49
-6.266666666666667
 53
-42.50000000000001
 43
-3.28
 44
0.0
 45
8.016337612192782
 46
2.340468173157998
 79
     6
 49
0.0
 49
-0.6666666666666666
 49
0.0
 49
-3.146666666666667
 49
0.0
 49
-3.6
 98
        1
 10
0.0
 20
0.0
  0
DIMENSION
  5
1F9
330
1F
100
AcDbEntity
  8
DIMS
100
AcDbDimension
  2
_D
 10
33.3831138294
 20
5.5754197563
 30
0.0
 11
33.3831138294
 21
11.399750465
 31
0.0
 70
   160
  1
         24"[610]
 71
     2
 42
-1.0
  3
SLDDIMSTYLE0
100
AcDbAlignedDimension
 13
30.0420902074
 23
17.5754197563
 33
0.0
 14
42.0420902074
 24
5.5754197563
 34
0.0
 50
90.0
100
AcDbRotatedDimension
  0
DIMENSION
  5
20A
330
1F
100
AcDbEntity
  8
DIMS
100
AcDbDimension
  2
_D_1
 10
42.0420902074
 20
21.8935765869
 30
0.0
 11
35.9815390263
 21
21.8935765869
 31
0.0
 70
   160
  1
20"[508]
 71
     2
 42
-1.0
  3
SLDDIMSTYLE0
100
AcDbAlignedDimension
 13
30.0420902074
 23
17.5754197563
 33
0.0
 14
42.0420902074
 24
5.5754197563
 34
0.0
 50
0.0
100
AcDbRotatedDimension
  0
DIMENSION
  5
214
330
1F
100
AcDbEntity
  8
DIMS
100
AcDbDimension
  2
_D_2
 10
11.1735075302
 20
17.5754197563
 30
0.0
 11
11.1735075302
 21
29.7635306278
 31
0.0
 70
   160
  1
<>
 71
     2
 42
-1.0
  3
SLDDIMSTYLE0
100
AcDbAlignedDimension
 13
14.0420902074
 23
41.5754197563
 33
0.0
 14
13.7050441639
 24
17.5754197563
 34
0.0
 50
90.0
100
AcDbRotatedDimension
  0
DIMENSION
  5
21F
330
1F
100
AcDbEntity
  8
DIMS
100
AcDbDimension
  2
_D_3
 10
30.0420902074
 20
14.7068370792
 30
0.0
 11
21.649233716
 21
14.7068370792
 31
0.0
 70
   160
  1
<>
 71
     2
 42
-1.0
  3
SLDDIMSTYLE0
100
AcDbAlignedDimension
 13
14.0420902074
 23
17.2355956154
 33
0.0
 14
30.0420902074
 24
17.5754197563
 34
0.0
 50
0.0
100
AcDbRotatedDimension
  0
DIMENSION
  5
22A
330
1F
100
AcDbEntity
  8
DIMS
100
AcDbDimension
  2
_D_4
 10
12.7558396256
 20
42.318036876
 30
0.0
 11
17.3526480833
 21
40.221141106
 31
0.0
 70
   163
  1
<>
 71
     1
 42
-1.0
  3
SLDDIMSTYLE1
100
AcDbDiametricDimension
 15
15.3283407891
 25
40.8328026367
 35
0.0
 40
0.0
  0
MTEXT
  5
234
330
1F
100
AcDbEntity
  8
NOTES
100
AcDbMText
 10
39.9632406439
 20
6.3387870103
 30
0.0
 40
0.5
 41
0.0
 71
     1
 72
     1
  1
Floor 
  7
SLDTEXTSTYLE1
 73
     1
 44
1.0
  0
MTEXT
  5
235
330
1F
100
AcDbEntity
  8
NOTES
100
AcDbMText
 10
19.3239618805
 20
16.6824696315
 30
0.0
 40
0.5
 41
0.0
 71
     1
 72
     1
  1
Front view
  7
SLDTEXTSTYLE1
 73
     1
 44
1.0
  0
MTEXT
  5
236
330
1F
100
AcDbEntity
  8
NOTES
100
AcDbMText
 10
18.2239832209
 20
36.8360100558
 30
0.0
 40
0.5
 41
0.0
 71
     1
 72
     1
  1
peened area
  7
SLDTEXTSTYLE1
 73
     1
 44
1.0
  0
LEADER
  5
238
330
1F
100
AcDbEntity
  8
NOTES
100
AcDbLeader
  3
SLDDIMSTYLE2
 76
     3
 10
14.6670902074
 20
34.7154838105
 30
0.0
 10
17.7037401575
 20
36.5905511841
 30
0.0
 10
18.2037401575
 20
36.5905511841
 30
0.0
  0
MTEXT
  5
239
330
1F
100
AcDbEntity
  8
NOTES
100
AcDbMText
 10
39.3413068727
 20
21.03396854
 30
0.0
 40
0.5
 41
0.0
 71
     1
 72
     1
  1
wall
  7
SLDTEXTSTYLE1
 73
     1
 44
1.0
  0
LEADER
  5
23A
330
1F
100
AcDbEntity
  8
NOTES
100
AcDbLeader
  3
SLDDIMSTYLE2
 76
     3
 10
42.0420902074
 20
21.1651219118
 30
0.0
 10
41.1366251022
 20
20.7883858298
 30
0.0
 10
40.6366251022
 20
20.7883858298
 30
0.0
  0
INSERT
  5
240
102
{ACAD_REACTORS
330
241
102
}
330
1F
100
AcDbEntity
  8
NOTES
100
AcDbBlockReference
  2
SW_NOTE_0_2
 10
16.968503937
 20
43.5787401605
 30
0.0
  0
LEADER
  5
241
330
1F
100
AcDbEntity
  8
NOTES
100
AcDbLeader
  3
SLDDIMSTYLE2
 73
     2
 76
     3
 10
14.9634520343
 20
42.7968911575
 30
0.0
 10
16.468503937
 20
43.5787401605
 30
0.0
 10
16.968503937
 20
43.5787401605
 30
0.0
340
240
  0
LINE
  5
242
330
1F
100
AcDbEntity
  8
OBJECT
  6
SLD-Solid
370
    25
100
AcDbLine
 10
53.2401192457
 20
43.1054197563
 30
0.0
 11
52.901132333
 21
43.1054197563
 31
0.0
  0
LINE
  5
243
330
1F
100
AcDbEntity
  8
OBJECT
  6
SLD-Solid
370
    25
100
AcDbLine
 10
52.901132333
 20
40.0454197563
 30
0.0
 11
53.2401192457
 21
40.0454197563
 31
0.0
  0
ARC
  5
244
330
1F
100
AcDbEntity
  8
OBJECT
  6
SLD-Solid
370
    25
100
AcDbCircle
 10
52.901132333
 20
40.0954197563
 30
0.0
 40
0.0500000000000087
100
AcDbArc
 50
186.0090059575
 51
270.0
  0
ARC
  5
245
330
1F
100
AcDbEntity
  8
OBJECT
  6
SLD-Solid
370
    25
100
AcDbCircle
 10
52.901132333
 20
43.0554197563
 30
0.0
 40
0.0500000000000095
100
AcDbArc
 50
90.0
 51
173.9909940425
  0
LINE
  5
246
330
1F
100
AcDbEntity
  8
OBJECT
  6
SLD-Solid
370
    25
100
AcDbLine
 10
52.8514070603
 20
43.0606539956
 30
0.0
 11
52.7640139825
 21
42.2304197563
 31
0.0
  0
LINE
  5
247
330
1F
100
AcDbEntity
  8
OBJECT
  6
SLD-Solid
370
    25
100
AcDbLine
 10
52.7640139825
 20
40.9204197563
 30
0.0
 11
52.8514070603
 21
40.0901855171
 31
0.0
  0
LINE
  5
248
330
1F
100
AcDbEntity
  8
OBJECT
  6
SLD-Solid
370
    25
100
AcDbLine
 10
53.2401192457
 20
25.1132937721
 30
0.0
 11
52.901132333
 21
25.1132937721
 31
0.0
  0
LINE
  5
249
330
1F
100
AcDbEntity
  8
OBJECT
  6
SLD-Solid
370
    25
100
AcDbLine
 10
52.901132333
 20
22.0532937721
 30
0.0
 11
53.2401192457
 21
22.0532937721
 31
0.0
  0
ARC
  5
24A
330
1F
100
AcDbEntity
  8
OBJECT
  6
SLD-Solid
370
    25
100
AcDbCircle
 10
52.901132333
 20
22.1032937721
 30
0.0
 40
0.0500000000000083
100
AcDbArc
 50
186.0090059575
 51
270.0
  0
ARC
  5
24B
330
1F
100
AcDbEntity
  8
OBJECT
  6
SLD-Solid
370
    25
100
AcDbCircle
 10
52.901132333
 20
25.0632937721
 30
0.0
 40
0.050000000000008
100
AcDbArc
 50
90.0
 51
173.9909940425
  0
LINE
  5
24C
330
1F
100
AcDbEntity
  8
OBJECT
  6
SLD-Solid
370
    25
100
AcDbLine
 10
52.8514070603
 20
25.0685280113
 30
0.0
 11
52.7640139825
 21
24.2382937721
 31
0.0
  0
LINE
  5
24D
330
1F
100
AcDbEntity
  8
OBJECT
  6
SLD-Solid
370
    25
100
AcDbLine
 10
52.7640139825
 20
22.9282937721
 30
0.0
 11
52.8514070603
 21
22.0980595329
 31
0.0
  0
LINE
  5
24E
330
1F
100
AcDbEntity
  8
OBJECT
  6
SLD-Solid
370
    25
100
AcDbLine
 10
53.2401192457
 20
19.1054197563
 30
0.0
 11
52.901132333
 21
19.1054197563
 31
0.0
  0
LINE
  5
24F
330
1F
100
AcDbEntity
  8
OBJECT
  6
SLD-Solid
370
    25
100
AcDbLine
 10
52.901132333
 20
16.0454197563
 30
0.0
 11
53.2401192457
 21
16.0454197563
 31
0.0
  0
ARC
  5
250
330
1F
100
AcDbEntity
  8
OBJECT
  6
SLD-Solid
370
    25
100
AcDbCircle
 10
52.901132333
 20
16.0954197563
 30
0.0
 40
0.050000000000008
100
AcDbArc
 50
186.0090059575
 51
270.0
  0
ARC
  5
251
330
1F
100
AcDbEntity
  8
OBJECT
  6
SLD-Solid
370
    25
100
AcDbCircle
 10
52.901132333
 20
19.0554197563
 30
0.0
 40
0.0500000000000083
100
AcDbArc
 50
90.0
 51
173.9909940425
  0
LINE
  5
252
330
1F
100
AcDbEntity
  8
OBJECT
  6
SLD-Solid
370
    25
100
AcDbLine
 10
52.8514070603
 20
19.0606539956
 30
0.0
 11
52.7640139825
 21
18.2304197563
 31
0.0
  0
LINE
  5
253
330
1F
100
AcDbEntity
  8
OBJECT
  6
SLD-Solid
370
    25
100
AcDbLine
 10
52.7640139825
 20
16.9204197563
 30
0.0
 11
52.8514070603
 21
16.0901855171
 31
0.0
  0
LINE
  5
254
330
1F
100
AcDbEntity
  8
OBJECT
  6
SLD-Solid
370
    25
100
AcDbLine
 10
52.7640139825
 20
18.2004197563
 30
0.0
 11
51.1151192457
 21
18.2004197563
 31
0.0
  0
LINE
  5
255
330
1F
100
AcDbEntity
  8
OBJECT
  6
SLD-Solid
370
    25
100
AcDbLine
 10
51.1151192457
 20
16.9504197563
 30
0.0
 11
52.7640139825
 21
16.9504197563
 31
0.0
  0
LINE
  5
256
330
1F
100
AcDbEntity
  8
OBJECT
  6
SLD-Solid
370
    25
100
AcDbLine
 10
50.4901192457
 20
19.0754197563
 30
0.0
 11
50.4901192457
 21
17.5754197563
 31
0.0
  0
LINE
  5
257
330
1F
100
AcDbEntity
  8
OBJECT
  6
SLD-Solid
370
    25
100
AcDbLine
 10
51.7401192457
 20
18.2004197563
 30
0.0
 11
51.7401192457
 21
19.0754197563
 31
0.0
  0
LINE
  5
258
330
1F
100
AcDbEntity
  8
OBJECT
  6
SLD-Solid
370
    25
100
AcDbLine
 10
50.4901192457
 20
38.6856539956
 30
0.0
 11
50.4901192457
 21
19.0754197563
 31
0.0
  0
LINE
  5
259
330
1F
100
AcDbEntity
  8
OBJECT
  6
SLD-Solid
370
    25
100
AcDbLine
 10
51.7401192457
 20
24.2082937721
 30
0.0
 11
51.7401192457
 21
38.6856539956
 31
0.0
  0
LINE
  5
25A
330
1F
100
AcDbEntity
  8
OBJECT
  6
SLD-Solid
370
    25
100
AcDbLine
 10
51.7401192457
 20
19.0754197563
 30
0.0
 11
51.7401192457
 21
22.9582937721
 31
0.0
  0
LINE
  5
25B
330
1F
100
AcDbEntity
  8
OBJECT
  6
SLD-Solid
370
    25
100
AcDbLine
 10
52.7640139825
 20
24.2082937721
 30
0.0
 11
51.7401192457
 21
24.2082937721
 31
0.0
  0
LINE
  5
25C
330
1F
100
AcDbEntity
  8
OBJECT
  6
SLD-Solid
370
    25
100
AcDbLine
 10
51.7401192457
 20
22.9582937721
 30
0.0
 11
52.7640139825
 21
22.9582937721
 31
0.0
  0
LINE
  5
25D
330
1F
100
AcDbEntity
  8
OBJECT
  6
SLD-Solid
370
    25
100
AcDbLine
 10
50.4901192457
 20
39.6854197563
 30
0.0
 11
50.4901192457
 21
38.6856539956
 31
0.0
  0
LINE
  5
25E
330
1F
100
AcDbEntity
  8
OBJECT
  6
SLD-Solid
370
    25
100
AcDbLine
 10
51.7401192457
 20
38.6856539956
 30
0.0
 11
51.7401192457
 21
39.6854197563
 31
0.0
  0
ARC
  5
25F
330
1F
100
AcDbEntity
  8
OBJECT
  6
SLD-Solid
370
    25
100
AcDbCircle
 10
53.0051192457
 20
39.6854197563
 30
0.0
 40
1.265000000000003
100
AcDbArc
 50
100.9876291614
 51
180.0
  0
ARC
  5
260
330
1F
100
AcDbEntity
  8
OBJECT
  6
SLD-Solid
370
    25
100
AcDbCircle
 10
53.0051192457
 20
39.6854197563
 30
0.0
 40
2.515000000000002
100
AcDbArc
 50
95.5012174877
 51
180.0
  0
LINE
  5
261
330
1F
100
AcDbEntity
  8
OBJECT
  6
SLD-Solid
370
    25
100
AcDbLine
 10
53.2401192457
 20
40.0454197563
 30
0.0
 11
53.2401192457
 21
43.1054197563
 31
0.0
  0
LINE
  5
262
330
1F
100
AcDbEntity
  8
OBJECT
  6
SLD-Solid
370
    25
100
AcDbLine
 10
52.7640139825
 20
42.2304197563
 30
0.0
 11
52.7640139825
 21
40.9204197563
 31
0.0
  0
LINE
  5
263
330
1F
100
AcDbEntity
  8
OBJECT
  6
SLD-Solid
370
    25
100
AcDbLine
 10
53.2401192457
 20
22.0532937721
 30
0.0
 11
53.2401192457
 21
25.1132937721
 31
0.0
  0
LINE
  5
264
330
1F
100
AcDbEntity
  8
OBJECT
  6
SLD-Solid
370
    25
100
AcDbLine
 10
52.7640139825
 20
24.2382937721
 30
0.0
 11
52.7640139825
 21
22.9282937721
 31
0.0
  0
LINE
  5
265
330
1F
100
AcDbEntity
  8
OBJECT
  6
SLD-Solid
370
    25
100
AcDbLine
 10
53.2401192457
 20
16.0454197563
 30
0.0
 11
53.2401192457
 21
19.1054197563
 31
0.0
  0
LINE
  5
266
330
1F
100
AcDbEntity
  8
OBJECT
  6
SLD-Solid
370
    25
100
AcDbLine
 10
52.7640139825
 20
18.2304197563
 30
0.0
 11
52.7640139825
 21
16.9204197563
 31
0.0
  0
ARC
  5
267
330
1F
100
AcDbEntity
  8
OBJECT
  6
SLD-Solid
370
    25
100
AcDbCircle
 10
51.1151192457
 20
17.5754197563
 30
0.0
 40
0.625
100
AcDbArc
 50
90.0
 51
270.0
  0
LINE
  5
268
330
1F
100
AcDbEntity
  8
OBJECT
  6
SLD-Solid
370
    25
100
AcDbLine
 10
51.1151192457
 20
23.5832937721
 30
0.0
 11
51.7401192457
 21
24.2082937721
 31
0.0
  0
LINE
  5
269
330
1F
100
AcDbEntity
  8
OBJECT
  6
SLD-Solid
370
    25
100
AcDbLine
 10
51.7401192457
 20
22.9582937721
 30
0.0
 11
51.1151192457
 21
23.5832937721
 31
0.0
  0
LINE
  5
26A
330
1F
100
AcDbEntity
  8
OBJECT
  6
SLD-Solid
370
    25
100
AcDbLine
 10
52.8514070603
 20
40.0901855171
 30
0.0
 11
52.8514070603
 21
43.0606539956
 31
0.0
  0
LINE
  5
26B
330
1F
100
AcDbEntity
  8
OBJECT
  6
SLD-Solid
370
    25
100
AcDbLine
 10
52.8514070603
 20
22.0980595329
 30
0.0
 11
52.8514070603
 21
25.0685280113
 31
0.0
  0
HATCH
  5
26C
330
1F
100
AcDbEntity
  8
NOTES
100
AcDbHatch
 10
0.0
 20
0.0
 30
0.0
210
0.0
220
0.0
230
1.0
  2
AR-SAND
 70
     0
 71
     0
 91
        1
 92
        0
 93
        5
 72
     1
 10
50.49011924565538
 20
38.68565399557075
 11
50.49011924565536
 21
17.57541975634494
 72
     2
 10
51.11511924565533
 20
17.57541975634494
 40
0.6249999999999739
 50
180.0
 51
270.0000000000008
 73
     0
 72
     1
 10
51.11511924565533
 20
18.20041975634494
 11
51.74011924565534
 21
18.20041975634494
 72
     1
 10
51.74011924565534
 20
18.20041975634494
 11
51.74011924565538
 21
38.68565399557075
 72
     1
 10
51.74011924565538
 20
38.68565399557075
 11
50.49011924565538
 21
38.68565399557075
 97
        0
 75
     0
 76
     1
 52
0.0
 41
2.6666666667
 77
     0
 78
     4
 53
37.5
 43
0.0
 44
0.0
 45
-0.1679822882922884
 46
5.138196717368423
 79
     6
 49
0.0
 49
-4.053333333333333
 49
0.0
 49
-4.533333333333333
 49
0.0
 49
-4.333333333333333
 53
7.5
 43
0.0
 44
0.0
 45
4.719404547380606
 46
7.525722840612642
 79
     6
 49
0.0
 49
-2.186666666666667
 49
0.0
 49
-3.653333333333333
 49
0.0
 49
-1.4
 53
-32.5
 43
-3.28
 44
0.0
 45
8.304378298003986
 46
0.0150908094319059
 79
     6
 49
0.0
 49
-1.333333333333333
 49
0.0
 49
-4.8
 49
0.0
 49
-6.266666666666667
 53
-42.50000000000001
 43
-3.28
 44
0.0
 45
8.016337612192782
 46
2.340468173157998
 79
     6
 49
0.0
 49
-0.6666666666666666
 49
0.0
 49
-3.146666666666667
 49
0.0
 49
-3.6
 98
        1
 10
0.0
 20
0.0
  0
DIMENSION
  5
26D
330
1F
100
AcDbEntity
  8
DIMS
100
AcDbDimension
  2
_D_5
 10
51.7401192457
 20
39.2271170386
 30
0.0
 11
54.5027712755
 21
39.2271170386
 31
0.0
 70
   160
  1
<>
 71
     2
 42
-1.0
  3
SLDDIMSTYLE3
100
AcDbAlignedDimension
 13
53.2401192457
 23
40.1390649081
 33
0.0
 14
51.7401192457
 24
39.6854197563
 34
0.0
100
AcDbRotatedDimension
  0
DIMENSION
  5
27C
330
1F
100
AcDbEntity
  8
DIMS
100
AcDbDimension
  2
_D_6
 10
53.2401192457
 20
43.4991205437
 30
0.0
 11
54.5027712755
 21
43.4991205437
 31
0.0
 70
   160
  1
<>
 71
     2
 42
-1.0
  3
SLDDIMSTYLE4
100
AcDbAlignedDimension
 13
52.7941797296
 23
42.2304197563
 33
0.0
 14
53.2401192457
 24
43.1054197563
 34
0.0
100
AcDbRotatedDimension
  0
MTEXT
  5
28B
330
1F
100
AcDbEntity
  8
NOTES
100
AcDbMText
 10
50.6602456422
 20
15.5374357002
 30
0.0
 40
0.5
 41
0.0
 71
     1
 72
     1
  1
Side view
  7
SLDTEXTSTYLE1
 73
     1
 44
1.0
  0
SPLINE
  5
28C
330
1F
100
AcDbEntity
  8
OBJECT
  6
SLD-Solid
370
    25
100
AcDbSpline
210
0.0
220
0.0
230
1.0
 70
     8
 71
     3
 72
    20
 73
    16
 74
     0
 42
0.00000001
 43
0.00000001
 40
0.0
 40
0.0
 40
0.0
 40
0.0
 40
0.0385299488975998
 40
0.1226003222789575
 40
0.2072791796914316
 40
0.2925476718207147
 40
0.3782825413079339
 40
0.4643253120819466
 40
0.5505335115768906
 40
0.6368023283906623
 40
0.7230525203055739
 40
0.8092572033317557
 40
0.8954071503711372
 40
0.9815037692970073
 40
1.0
 40
1.0
 40
1.0
 40
1.0
 10
67.12918904468224
 20
45.4036956158599
 30
0.0
 10
67.12055939262824
 20
45.39397303940702
 30
0.0
 10
67.09310028216363
 20
45.36303629953033
 30
0.0
 10
67.05509643725414
 20
45.30085512480399
 30
0.0
 10
67.0152370592119
 20
45.2181921743867
 30
0.0
 10
66.98420169634069
 20
45.12663089659312
 30
0.0
 10
66.96173230708852
 20
45.02757418348126
 30
0.0
 10
66.94819644103376
 20
44.92168251343537
 30
0.0
 10
66.94367201606083
 20
44.80993224302906
 30
0.0
 10
66.94816760669617
 20
44.69328461968422
 30
0.0
 10
66.96166510927797
 20
44.57273876542249
 30
0.0
 10
66.98378469286395
 20
44.44927976761482
 30
0.0
 10
67.01515773455927
 20
44.32394971360419
 30
0.0
 10
67.04261421508913
 20
44.23062811853205
 30
0.0
 10
67.06192798628865
 20
44.17958914875521
 30
0.0
 10
67.06534343934418
 20
44.17056340212735
 30
0.0
  0
SPLINE
  5
28D
330
1F
100
AcDbEntity
  8
OBJECT
  6
SLD-Solid
370
    25
100
AcDbSpline
210
0.0
220
0.0
230
1.0
 70
     8
 71
     3
 72
    16
 73
    12
 74
     0
 42
0.00000001
 43
0.00000001
 40
0.0
 40
0.0
 40
0.0
 40
0.0
 40
0.1065312880456939
 40
0.2233992027761818
 40
0.3403684966690839
 40
0.4574089725899475
 40
0.5744269574574825
 40
0.6912787385947138
 40
0.8077634733484513
 40
0.9236397788264346
 40
1.0
 40
1.0
 40
1.0
 40
1.0
 10
67.81106536906807
 20
43.09499039159911
 30
0.0
 10
67.84056414647571
 20
43.07202536284543
 30
0.0
 10
67.90242393881118
 20
43.02386703105929
 30
0.0
 10
67.99839688458223
 20
42.9622117535235
 30
0.0
 10
68.09766123406077
 20
42.90801990650886
 30
0.0
 10
68.19677601932545
 20
42.86466501348661
 30
0.0
 10
68.2948691705106
 20
42.83235974592753
 30
0.0
 10
68.39117995791958
 20
42.81137931107205
 30
0.0
 10
68.48461030990707
 20
42.80255140647697
 30
0.0
 10
68.5650133134275
 20
42.80364986986061
 30
0.0
 10
68.61216339739569
 20
42.81275332474313
 30
0.0
 10
68.63089236063112
 20
42.81636940042022
 30
0.0
  0
LINE
  5
28E
330
1F
100
AcDbEntity
  8
OBJECT
  6
SLD-Solid
370
    25
100
AcDbLine
 10
67.5164560335
 20
45.6682761374
 30
0.0
 11
67.2767560888
 21
45.5299003047
 31
0.0
  0
LINE
  5
28F
330
1F
100
AcDbEntity
  8
OBJECT
  6
SLD-Solid
370
    25
100
AcDbLine
 10
68.8066317497
 20
42.8797907858
 30
0.0
 11
69.0463316944
 21
43.0181666185
 31
0.0
  0
SPLINE
  5
290
330
1F
100
AcDbEntity
  8
OBJECT
  6
SLD-Solid
370
    25
100
AcDbSpline
210
0.0
220
0.0
230
1.0
 70
     8
 71
     3
 72
    18
 73
    14
 74
     0
 42
0.00000001
 43
0.00000001
 40
0.0
 40
0.0
 40
0.0
 40
0.0
 40
0.0708525481535623
 40
0.1670391142314984
 40
0.2633103426806369
 40
0.3596711697610815
 40
0.4561155867640859
 40
0.5526186953172839
 40
0.6491032593751521
 40
0.7454507838618636
 40
0.8414956684565809
 40
0.9370388862904642
 40
1.0
 40
1.0
 40
1.0
 40
1.0
 10
67.63920494057683
 20
28.55952015671635
 30
0.0
 10
67.66178696860484
 20
28.53686268937442
 30
0.0
 10
67.71502544848528
 20
28.48344635680552
 30
0.0
 10
67.80231030519417
 20
28.40877670334315
 30
0.0
 10
67.89962490089164
 20
28.33487098662354
 30
0.0
 10
67.99837410061286
 20
28.2707841406276
 30
0.0
 10
68.09766734544655
 20
28.21674759388196
 30
0.0
 10
68.19677438161699
 20
28.17335105276729
 30
0.0
 10
68.2948696086757
 20
28.1410569421475
 30
0.0
 10
68.39117984089775
 20
28.12007352339793
 30
0.0
 10
68.48461034132157
 20
28.11124641658508
 30
0.0
 10
68.56501330861767
 20
28.112344685278
 30
0.0
 10
68.6121633960283
 20
28.12144815866209
 30
0.0
 10
68.63089236063115
 20
28.12506424168839
 30
0.0
  0
LINE
  5
291
330
1F
100
AcDbEntity
  8
OBJECT
  6
SLD-Solid
370
    25
100
AcDbLine
 10
67.5164560335
 20
30.9769709786
 30
0.0
 11
67.4037919539
 21
30.9119313899
 31
0.0
  0
LINE
  5
292
330
1F
100
AcDbEntity
  8
OBJECT
  6
SLD-Solid
370
    25
100
AcDbLine
 10
68.8066317497
 20
28.1884856271
 30
0.0
 11
69.0463316944
 21
28.3268614597
 31
0.0
  0
SPLINE
  5
293
330
1F
100
AcDbEntity
  8
OBJECT
  6
SLD-Solid
370
    25
100
AcDbSpline
210
0.0
220
0.0
230
1.0
 70
     8
 71
     3
 72
    17
 73
    13
 74
     0
 42
0.00000001
 43
0.00000001
 40
0.0
 40
0.0
 40
0.0
 40
0.0
 40
0.0526694081017749
 40
0.1675913566533346
 40
0.2833450865769
 40
0.3999048313647676
 40
0.5171021015087988
 40
0.6347202644646209
 40
0.7525645640508674
 40
0.8704917258882978
 40
0.9883934279878551
 40
1.0
 40
1.0
 40
1.0
 40
1.0
 10
78.44289754366704
 20
19.27545123602026
 30
0.0
 10
78.43426788658775
 20
19.26572866104436
 30
0.0
 10
78.40680876013285
 20
19.23479192586733
 30
0.0
 10
78.3688051462575
 20
19.17261068323896
 30
0.0
 10
78.32894478172751
 20
19.08994802275534
 30
0.0
 10
78.29791311734846
 20
18.99838565795657
 30
0.0
 10
78.2754298217557
 20
18.89933303198721
 30
0.0
 10
78.26194612288437
 20
18.79342602974722
 30
0.0
 10
78.25722646443049
 20
18.6817331394298
 30
0.0
 10
78.26245138556818
 20
18.56487116223103
 30
0.0
 10
78.26999076454871
 20
18.48109373865334
 30
0.0
 10
78.27826323399776
 20
18.43588583724453
 30
0.0
 10
78.27900461529588
 20
18.4318342909876
 30
0.0
  0
SPLINE
  5
294
330
1F
100
AcDbEntity
  8
OBJECT
  6
SLD-Solid
370
    25
100
AcDbSpline
210
0.0
220
0.0
230
1.0
 70
     8
 71
     3
 72
    20
 73
    16
 74
     0
 42
0.00000001
 43
0.00000001
 40
0.0
 40
0.0
 40
0.0
 40
0.0
 40
0.0028502103933766
 40
0.0882669415466051
 40
0.1737371067774114
 40
0.259272928049661
 40
0.3448840370231683
 40
0.4305748233656249
 40
0.5163399437130001
 40
0.6021572566913487
 40
0.68795807860755
 40
0.7736370353533523
 40
0.8590468635423717
 40
0.9440105745640515
 40
1.0
 40
1.0
 40
1.0
 40
1.0
 10
78.83687432232085
 20
17.24814228558339
 30
0.0
 10
78.83781654822926
 20
17.24697386482791
 30
0.0
 10
78.86699593771374
 20
17.21078954427206
 30
0.0
 10
78.92838796801368
 20
17.14561807718954
 30
0.0
 10
79.02052842270696
 20
17.05416430418051
 30
0.0
 10
79.11597373546327
 20
16.97170498067628
 30
0.0
 10
79.21334549264328
 20
16.89796731812544
 30
0.0
 10
79.31207935500954
 20
16.83383538046413
 30
0.0
 10
79.41137671473318
 20
16.77981093145252
 30
0.0
 10
79.51048264738127
 20
16.73641114599354
 30
0.0
 10
79.6085781700581
 20
16.70411790448805
 30
0.0
 10
79.70488832321787
 20
16.68313425329615
 30
0.0
 10
79.79831884478
 20
16.67430720862973
 30
0.0
 10
79.8787218069175
 20
16.67540546215645
 30
0.0
 10
79.92587189481834
 20
16.68450893698179
 30
0.0
 10
79.94460085961595
 20
16.68812502058058
 30
0.0
  0
LINE
  5
295
330
1F
100
AcDbEntity
  8
OBJECT
  6
SLD-Solid
370
    25
100
AcDbLine
 10
78.8301645324
 20
19.5400317575
 30
0.0
 11
78.5904645877
 21
19.4016559249
 31
0.0
  0
LINE
  5
296
330
1F
100
AcDbEntity
  8
OBJECT
  6
SLD-Solid
370
    25
100
AcDbLine
 10
80.1203402487
 20
16.751546406
 30
0.0
 11
80.3600401934
 21
16.8899222386
 31
0.0
  0
SPLINE
  5
297
330
1F
100
AcDbEntity
  8
OBJECT
  6
SLD-Solid
370
    25
100
AcDbSpline
210
0.0
220
0.0
230
1.0
 70
     8
 71
     3
 72
    26
 73
    22
 74
     0
 42
0.00000001
 43
0.00000001
 40
0.0
 40
0.0
 40
0.0
 40
0.0
 40
0.0281895739869728
 40
0.0816986248969386
 40
0.1356996109742878
 40
0.1903035113721762
 40
0.2454810380763099
 40
0.3011732561964537
 40
0.3573031880383689
 40
0.4137835916281384
 40
0.4705218351042877
 40
0.5274227843782647
 40
0.5843903875096327
 40
0.641313271543514
 40
0.69807894915342
 40
0.7545930267367473
 40
0.8107637079147304
 40
0.8665041955664822
 40
0.921736877069943
 40
0.9764000664961072
 40
1.0
 40
1.0
 40
1.0
 40
1.0
 10
67.40379195390558
 20
41.93252562464634
 30
0.0
 10
67.40395116072982
 20
41.94701964949225
 30
0.0
 10
67.40441257169753
 20
41.98902602744172
 30
0.0
 10
67.40977022319296
 20
42.06470579395887
 30
0.0
 10
67.42240759441286
 20
42.16095626791888
 30
0.0
 10
67.44210785130068
 20
42.26336823182351
 30
0.0
 10
67.46901483435221
 20
42.3706434169485
 30
0.0
 10
67.50322344629241
 20
42.48154954291692
 30
0.0
 10
67.5446339714356
 20
42.59476018095173
 30
0.0
 10
67.59300592303588
 20
42.70894539975668
 30
0.0
 10
67.64795655293557
 20
42.82277516591943
 30
0.0
 10
67.70897415765158
 20
42.93494294955079
 30
0.0
 10
67.77542028908556
 20
43.04417087524226
 30
0.0
 10
67.84653557750114
 20
43.14922824533748
 30
0.0
 10
67.92145109095559
 20
43.24895483640085
 30
0.0
 10
67.99921146300483
 20
43.34230916241298
 30
0.0
 10
68.07875913060869
 20
43.42830281581061
 30
0.0
 10
68.15903176828017
 20
43.50631408646723
 30
0.0
 10
68.23861703111749
 20
43.57499099937642
 30
0.0
 10
68.30249896792274
 20
43.62499219999614
 30
0.0
 10
68.33837475415162
 20
43.64866557108846
 30
0.0
 10
68.34919295482779
 20
43.65580418200348
 30
0.0
  0
SPLINE
  5
298
330
1F
100
AcDbEntity
  8
OBJECT
  6
SLD-Solid
370
    25
100
AcDbSpline
210
0.0
220
0.0
230
1.0
 70
     8
 71
     3
 72
    28
 73
    24
 74
     0
 42
0.00000001
 43
0.00000001
 40
0.0
 40
0.0
 40
0.0
 40
0.0
 40
0.0006553982708433
 40
0.0522221876523654
 40
0.1037359507596307
 40
0.1551826560300703
 40
0.206496293405646
 40
0.2576513089140911
 40
0.3086502825283732
 40
0.3595141069365621
 40
0.4102749784131222
 40
0.4609718189620979
 40
0.5116474602056138
 40
0.562346870230698
 40
0.6131010667474915
 40
0.6639566860734729
 40
0.7149597998182956
 40
0.7661542698031278
 40
0.8175789593999301
 40
0.8692630543379846
 40
0.9212185992966481
 40
0.9734294328203612
 40
1.0
 40
1.0
 40
1.0
 40
1.0
 10
67.72813237690184
 20
44.74366555862148
 30
0.0
 10
67.72755109207861
 20
44.74331592000457
 30
0.0
 10
67.6812342699746
 20
44.71545668650477
 30
0.0
 10
67.59111358735046
 20
44.65330822673934
 30
0.0
 10
67.45943066580443
 20
44.55359938759181
 30
0.0
 10
67.3317881427587
 20
44.44417513717386
 30
0.0
 10
67.20843314490418
 20
44.32660842397023
 30
0.0
 10
67.08991727670205
 20
44.20138682137593
 30
0.0
 10
66.97665473053377
 20
44.06926710593844
 30
0.0
 10
66.8690472493349
 20
43.93090090449304
 30
0.0
 10
66.76747198879963
 20
43.78694331479101
 30
0.0
 10
66.672297747247
 20
43.63803176139727
 30
0.0
 10
66.58388793866295
 20
43.48479709112352
 30
0.0
 10
66.50261175317215
 20
43.32787897369879
 30
0.0
 10
66.42883439005027
 20
43.16791230922274
 30
0.0
 10
66.36291810833191
 20
43.00552530021124
 30
0.0
 10
66.30522186676954
 20
42.8413228028895
 30
0.0
 10
66.25610826268692
 20
42.67590239699233
 30
0.0
 10
66.2159693317628
 20
42.50986644249979
 30
0.0
 10
66.18515505918857
 20
42.34381089915401
 30
0.0
 10
66.16426586577406
 20
42.1784334198578
 30
0.0
 10
66.15491101310934
 20
42.04133136401869
 30
0.0
 10
66.15407418914381
 20
41.95996725925095
 30
0.0
 10
66.1537919539056
 20
41.93252562464632
 30
0.0
  0
LINE
  5
299
330
1F
100
AcDbEntity
  8
OBJECT
  6
SLD-Solid
370
    25
100
AcDbLine
 10
66.1537919539
 20
41.9325256246
 30
0.0
 11
66.1537919539
 21
41.1161760786
 31
0.0
  0
LINE
  5
29A
330
1F
100
AcDbEntity
  8
OBJECT
  6
SLD-Solid
370
    25
100
AcDbLine
 10
67.4037919539
 20
41.1161760786
 30
0.0
 11
67.4037919539
 21
41.9325256246
 31
0.0
  0
LINE
  5
29B
330
1F
100
AcDbEntity
  8
OBJECT
  6
SLD-Solid
370
    25
100
AcDbLine
 10
66.1537919539
 20
41.1161760786
 30
0.0
 11
66.1537919539
 21
25.1036194917
 31
0.0
  0
LINE
  5
29C
330
1F
100
AcDbEntity
  8
OBJECT
  6
SLD-Solid
370
    25
100
AcDbLine
 10
67.4037919539
 20
29.1453460661
 30
0.0
 11
67.4037919539
 21
41.1161760786
 31
0.0
  0
LINE
  5
29D
330
1F
100
AcDbEntity
  8
OBJECT
  6
SLD-Solid
370
    25
100
AcDbLine
 10
67.4037919539
 20
25.1036194917
 30
0.0
 11
67.4037919539
 21
28.4236191346
 31
0.0
  0
SPLINE
  5
29E
330
1F
100
AcDbEntity
  8
OBJECT
  6
SLD-Solid
370
    25
100
AcDbSpline
210
0.0
220
0.0
230
1.0
 70
     8
 71
     3
 72
    26
 73
    22
 74
     0
 42
0.00000001
 43
0.00000001
 40
0.0
 40
0.0
 40
0.0
 40
0.0
 40
0.0226994647302746
 40
0.0767651554326891
 40
0.1314348831691038
 40
0.1866792778070045
 40
0.2424392894593668
 40
0.2986378073382556
 40
0.3551874485152292
 40
0.4119954382399599
 40
0.4689665004887537
 40
0.526004443140496
 40
0.5829977723775552
 40
0.6398337969366752
 40
0.6964179808118112
 40
0.7526583809957086
 40
0.8084680482042802
 40
0.8637692120132031
 40
0.9185000248824068
 40
0.9726248589700932
 40
1.0
 40
1.0
 40
1.0
 40
1.0
 10
79.03186215394716
 20
18.61653441559357
 30
0.0
 10
79.02070637852677
 20
18.61096771254306
 30
0.0
 10
78.98297972530858
 20
18.59214221026813
 30
0.0
 10
78.90897616087952
 20
18.56233494159903
 30
0.0
 10
78.8109103277016
 20
18.52809682618221
 30
0.0
 10
78.70443199324613
 20
18.4977931747724
 30
0.0
 10
78.59131905838056
 20
18.47196178505955
 30
0.0
 10
78.47256384120281
 20
18.45122324979668
 30
0.0
 10
78.34949430819493
 20
18.43602246728349
 30
0.0
 10
78.22343847608711
 20
18.42669625478531
 30
0.0
 10
78.09578785778463
 20
18.42345394923356
 30
0.0
 10
77.96796693248461
 20
18.42638183472981
 30
0.0
 10
77.84142261771444
 20
18.43543789942782
 30
0.0
 10
77.71759007095855
 20
18.45044902790444
 30
0.0
 10
77.59786412660671
 20
18.47111188236516
 30
0.0
 10
77.48357385468259
 20
18.49699325245627
 30
0.0
 10
77.37599498659992
 20
18.52752733973538
 30
0.0
 10
77.27624576025187
 20
18.56200810562301
 30
0.0
 10
77.1855476942211
 20
18.59960558644509
 30
0.0
 10
77.11723516343848
 20
18.63290973022218
 30
0.0
 10
77.08078615050732
 20
18.65343524123043
 30
0.0
 10
77.0685432403966
 20
18.66032958393115
 30
0.0
  0
SPLINE
  5
29F
330
1F
100
AcDbEntity
  8
OBJECT
  6
SLD-Solid
370
    25
100
AcDbSpline
210
0.0
220
0.0
230
1.0
 70
     8
 71
     3
 72
    27
 73
    23
 74
     0
 42
0.00000001
 43
0.00000001
 40
0.0
 40
0.0
 40
0.0
 40
0.0
 40
0.028686416438038
 40
0.08022903631464
 40
0.1317182636827054
 40
0.1831401461703631
 40
0.2344287723303741
 40
0.2855586706710955
 40
0.336532482235834
 40
0.3873711406722041
 40
0.4381068671839074
 40
0.4887785971803751
 40
0.5394291681233183
 40
0.5901035298687941
 40
0.6408327198709514
 40
0.6916633738406447
 40
0.7426415638963801
 40
0.7938111547287238
 40
0.8452110155513998
 40
0.8968703404039327
 40
0.9488011822036976
 40
1.0
 40
1.0
 40
1.0
 40
1.0
 10
76.44359403249905
 20
17.5777685059553
 30
0.0
 10
76.46943285869092
 20
17.56323008321118
 30
0.0
 10
76.5416978670914
 20
17.52256959678147
 30
0.0
 10
76.66631471171044
 20
17.46188717925373
 30
0.0
 10
76.81882819374513
 20
17.39803245092629
 30
0.0
 10
76.97733413460746
 20
17.34212745178823
 30
0.0
 10
77.14085341825735
 20
17.29411450262034
 30
0.0
 10
77.3085527581794
 20
17.25408973715024
 30
0.0
 10
77.47960593740065
 20
17.2220700908328
 30
0.0
 10
77.6532382465687
 20
17.19806780691425
 30
0.0
 10
77.8286964565544
 20
17.18208454417002
 30
0.0
 10
78.00524354023254
 20
17.17412028043242
 30
0.0
 10
78.18215172252907
 20
17.17417449438242
 30
0.0
 10
78.35868237203742
 20
17.18224713706444
 30
0.0
 10
78.53410343703504
 20
17.19833676963631
 30
0.0
 10
78.70768868821875
 20
17.22244424223539
 30
0.0
 10
78.87873922466017
 20
17.25457369162401
 30
0.0
 10
79.0465401419592
 20
17.29475689467466
 30
0.0
 10
79.21043462010591
 20
17.34297056455029
 30
0.0
 10
79.36950323242284
 20
17.39945213241277
 30
0.0
 10
79.52272320246333
 20
17.46309400727412
 30
0.0
 10
79.61884678584653
 20
17.51208347196735
 30
0.0
 10
79.66656743042967
 20
17.53640433840473
 30
0.0
  0
LINE
  5
2A0
330
1F
100
AcDbEntity
  8
OBJECT
  6
SLD-Solid
370
    25
100
AcDbLine
 10
75.6587055054
 20
18.030875008
 30
0.0
 11
76.4435940325
 21
17.577768506
 31
0.0
  0
LINE
  5
2A1
330
1F
100
AcDbEntity
  8
OBJECT
  6
SLD-Solid
370
    25
100
AcDbLine
 10
77.0685432404
 20
18.6603295839
 30
0.0
 11
76.2836547133
 21
19.113436086
 31
0.0
  0
LINE
  5
2A2
330
1F
100
AcDbEntity
  8
OBJECT
  6
SLD-Solid
370
    25
100
AcDbLine
 10
67.5269775217
 20
22.725221651
 30
0.0
 11
75.6587055054
 21
18.030875008
 31
0.0
  0
LINE
  5
2A3
330
1F
100
AcDbEntity
  8
OBJECT
  6
SLD-Solid
370
    25
100
AcDbLine
 10
76.2836547133
 20
19.113436086
 30
0.0
 11
68.1519267296
 21
23.807782729
 31
0.0
  0
LINE
  5
2A4
330
1F
100
AcDbEntity
  8
OBJECT
  6
SLD-Solid
370
    25
100
AcDbLine
 10
67.7302495514
 20
30.0554156682
 30
0.0
 11
67.4037919539
 21
29.8669557086
 31
0.0
  0
LINE
  5
2A5
330
1F
100
AcDbEntity
  8
OBJECT
  6
SLD-Solid
370
    25
100
AcDbLine
 10
67.4037919518
 20
28.4236191311
 30
0.0
 11
68.3551987593
 21
28.9728545902
 31
0.0
  0
SPLINE
  5
2A6
330
1F
100
AcDbEntity
  8
OBJECT
  6
SLD-Solid
370
    25
100
AcDbSpline
210
0.0
220
0.0
230
1.0
 70
     8
 71
     3
 72
    25
 73
    21
 74
     0
 42
0.00000001
 43
0.00000001
 40
0.0
 40
0.0
 40
0.0
 40
0.0
 40
0.0299263976885913
 40
0.086031942917995
 40
0.1428803699247433
 40
0.200673424438235
 40
0.259352421669718
 40
0.3188053256113329
 40
0.3788879420262368
 40
0.4394384931489897
 40
0.5002866150783335
 40
0.5612586173639648
 40
0.6221512961197608
 40
0.6827641602286773
 40
0.7429312210546545
 40
0.8024972279314059
 40
0.8613262378720269
 40
0.9193157070580358
 40
0.9764180323510401
 40
0.9999999999999999
 40
0.9999999999999999
 40
0.9999999999999999
 40
0.9999999999999999
 10
68.15192672963427
 20
23.80778272897325
 30
0.0
 10
68.14231802138116
 20
23.81348741391866
 30
0.0
 10
68.11469505624684
 20
23.82988715352965
 30
0.0
 10
68.06515211631505
 20
23.86388162486963
 30
0.0
 10
68.00336104218832
 20
23.91259756277974
 30
0.0
 10
67.93915509324093
 20
23.9703914622621
 30
0.0
 10
67.87397317757461
 20
24.03672593000461
 30
0.0
 10
67.80915798851588
 20
24.11095161355495
 30
0.0
 10
67.74602747498915
 20
24.1921328171372
 30
0.0
 10
67.68579975032686
 20
24.27915055019317
 30
0.0
 10
67.62958154103356
 20
24.37071541620322
 30
0.0
 10
67.57835242113572
 20
24.46538711893328
 30
0.0
 10
67.53294153240012
 20
24.56159923847151
 30
0.0
 10
67.49399600124775
 20
24.65770235684591
 30
0.0
 10
67.46195316333839
 20
24.7520163192525
 30
0.0
 10
67.43703307083211
 20
24.84284329829351
 30
0.0
 10
67.41918909921667
 20
24.92855470045408
 30
0.0
 10
67.40820304296744
 20
25.00739020931924
 30
0.0
 10
67.4041723790404
 20
25.0648635759193
 30
0.0
 10
67.40387799490465
 20
25.09485404112663
 30
0.0
 10
67.40379195390568
 20
25.10361949168099
 30
0.0
  0
SPLINE
  5
2A7
330
1F
100
AcDbEntity
  8
OBJECT
  6
SLD-Solid
370
    25
100
AcDbSpline
210
0.0
220
0.0
230
1.0
 70
     8
 71
     3
 72
    26
 73
    22
 74
     0
 42
0.00000001
 43
0.00000001
 40
0.0
 40
0.0
 40
0.0
 40
0.0
 40
0.0315363963740307
 40
0.0870970563619847
 40
0.1426342084550581
 40
0.1981114832813324
 40
0.2534272107190566
 40
0.3085458403117183
 40
0.3634771517499698
 40
0.4182594764236839
 40
0.4729480355132507
 40
0.5276076549523381
 40
0.5823082938087792
 40
0.6370988505725009
 40
0.6920528630272172
 40
0.7472421878925415
 40
0.8027327319131062
 40
0.8585770217833116
 40
0.9148016555293869
 40
0.9713878094838743
 40
1.0
 40
1.0
 40
1.0
 40
1.0
 10
66.15379195390568
 20
25.10361949168098
 30
0.0
 10
66.15414006780853
 20
25.07546576613276
 30
0.0
 10
66.15510148698455
 20
24.9977109525583
 30
0.0
 10
66.1652058755918
 20
24.86853937294697
 30
0.0
 10
66.18665298132947
 20
24.7162274907148
 30
0.0
 10
66.21809095141451
 20
24.56313111523735
 30
0.0
 10
66.25891041450843
 20
24.41015318270692
 30
0.0
 10
66.30871210369756
 20
24.2581398231355
 30
0.0
 10
66.36703888119757
 20
24.10785991048039
 30
0.0
 10
66.43346868040962
 20
23.96001874854408
 30
0.0
 10
66.50759396036341
 20
23.81528951766806
 30
0.0
 10
66.58902651573219
 20
23.67432835784705
 30
0.0
 10
66.67738220251572
 20
23.53780431018025
 30
0.0
 10
66.77229009176847
 20
23.40638158143176
 30
0.0
 10
66.87339499604806
 20
23.28072460767814
 30
0.0
 10
66.98037360981745
 20
23.16148320450737
 30
0.0
 10
67.09292435388058
 20
23.04934479263468
 30
0.0
 10
67.21073492457877
 20
22.9449726011189
 30
0.0
 10
67.33353903892124
 20
22.84932353043329
 30
0.0
 10
67.43958461186611
 20
22.77699864334187
 30
0.0
 10
67.50500677371004
 20
22.73823848787884
 30
0.0
 10
67.52697752173674
 20
22.7252216509974
 30
0.0
  0
ARC
  5
2A8
330
1F
100
AcDbEntity
  8
OBJECT
  6
SLD-Solid
370
    25
100
AcDbCircle
 10
68.5449158506
 20
43.3331176347
 30
0.0
 40
0.5232484323110372
100
AcDbArc
 50
280.6437983617
 51
319.0964490804
  0
ARC
  5
2A9
330
1F
100
AcDbEntity
  8
OBJECT
  6
SLD-Solid
370
    25
100
AcDbCircle
 10
67.5388426603
 20
45.0758711841
 30
0.0
 40
0.5240254925209638
100
AcDbArc
 50
100.1592585591
 51
140.1040076565
  0
LWPOLYLINE
  5
2AA
330
1F
100
AcDbEntity
  8
OBJECT
  6
SLD-Solid
370
    25
100
AcDbPolyline
 90
       27
 70
   128
 43
0.0
 10
67.5170912334
 20
44.6011265796
 10
67.5328333927
 20
44.6312087875
 10
67.5680574414
 20
44.6775235964
 10
67.6113097524
 20
44.7125711417
 10
67.6616684779
 20
44.7356044456
 10
67.718060309
 20
44.7461325933
 10
67.7792833519
 20
44.7439311957
 10
67.8440327435
 20
44.7290471717
 10
67.9109284631
 20
44.7017977484
 10
67.9785447445
 20
44.6627637
 10
68.0454404641
 20
44.6127769695
 10
68.1101898557
 20
44.5529029372
 10
68.1714128985
 20
44.4844177142
 10
68.2278047297
 20
44.408780944
 10
68.2781634552
 20
44.3276046933
 10
68.3214157662
 20
44.2426190927
 10
68.3566398149
 20
44.1556354628
 10
68.3830848617
 20
44.0685077088
 10
68.4001872765
 20
43.9830928073
 10
68.4075825509
 20
43.9012112288
 10
68.4051130675
 20
43.8246081368
 10
68.3928314591
 20
43.7549161934
 10
68.3709994868
 20
43.6936207613
 10
68.3400824612
 20
43.6420282462
 10
68.300739325
 20
43.601238253
 10
68.2538086089
 20
43.5721201496
 10
68.2368322235
 20
43.565189193
  0
LWPOLYLINE
  5
2AB
330
1F
100
AcDbEntity
  8
OBJECT
  6
SLD-Solid
370
    25
100
AcDbPolyline
 90
       10
 70
   128
 43
0.0
 10
68.2813938639
 20
45.5925288201
 10
68.1785552615
 20
45.6462393208
 10
68.0766479814
 20
45.6881494892
 10
67.9765949117
 20
45.7178797803
 10
67.8793021486
 20
45.7351609521
 10
67.7856507903
 20
45.7398365036
 10
67.696488958
 20
45.7318640922
 10
67.6126241151
 20
45.7113159174
 10
67.5348157546
 20
45.6783780665
 10
67.5164560335
 20
45.6682761374
  0
LWPOLYLINE
  5
2AC
330
1F
100
AcDbEntity
  8
OBJECT
  6
SLD-Solid
370
    25
100
AcDbPolyline
 90
       26
 70
   128
 43
0.0
 10
69.0463316944
 20
43.0181666185
 10
69.0990192068
 20
43.0530939259
 10
69.1626618985
 20
43.1098067565
 10
69.2183236905
 20
43.1776895808
 10
69.2655005009
 20
43.2561276417
 10
69.3037650893
 20
43.3444105917
 10
69.3327709254
 20
43.4417389269
 10
69.3522553281
 20
43.5472312267
 10
69.3620418436
 20
43.6599321366
 10
69.3620418436
 20
43.7788210197
 10
69.3522553281
 20
43.9028211999
 10
69.3327709254
 20
44.0308097122
 10
69.3037650893
 20
44.161627473
 10
69.2655005009
 20
44.2940897763
 10
69.2183236905
 20
44.426997023
 10
69.1626618985
 20
44.5591455845
 10
69.0990192068
 20
44.6893387029
 10
69.0279719732
 20
44.8163973293
 10
68.9501636128
 20
44.9391708009
 10
68.8662987699
 20
45.0565472623
 10
68.7771369376
 20
45.167463734
 10
68.6834855793
 20
45.2709157393
 10
68.5861928161
 20
45.3659664008
 10
68.4861397464
 20
45.451754925
 10
68.3842324663
 20
45.5275043978
 10
68.2813938639
 20
45.5925288201
  0
ARC
  5
2AD
330
1F
100
AcDbEntity
  8
OBJECT
  6
SLD-Solid
370
    25
100
AcDbCircle
 10
67.7701681999
 20
44.513519321
 30
0.0
 40
0.2522763715695135
100
AcDbArc
 50
124.2730093209
 51
155.4571781496
  0
LWPOLYLINE
  5
2AE
330
1F
100
AcDbEntity
  8
OBJECT
  6
SLD-Solid
370
    25
100
AcDbPolyline
 90
        3
 70
   128
 43
0.0
 10
68.2827015282
 20
43.5880689887
 10
68.2751390132
 20
43.5844339299
 10
68.2497448567
 20
43.5746485191
  0
ARC
  5
2AF
330
1F
100
AcDbEntity
  8
OBJECT
  6
SLD-Solid
370
    25
100
AcDbCircle
 10
68.5449158506
 20
28.6418124759
 30
0.0
 40
0.5232484323109561
100
AcDbArc
 50
280.6437983617
 51
319.0964490804
  0
LINE
  5
2B0
330
1F
100
AcDbEntity
  8
OBJECT
  6
SLD-Solid
370
    25
100
AcDbLine
 10
67.4037919539
 20
30.8908284087
 30
0.0
 11
67.4464124964
 21
30.9003754685
 31
0.0
  0
LWPOLYLINE
  5
2B1
330
1F
100
AcDbEntity
  8
OBJECT
  6
SLD-Solid
370
    25
100
AcDbPolyline
 90
       27
 70
   128
 43
0.0
 10
67.5342744482
 20
29.9422816492
 10
67.5680574414
 20
29.9862184377
 10
67.6113097524
 20
30.0212659829
 10
67.6616684779
 20
30.0442992868
 10
67.718060309
 20
30.0548274346
 10
67.7792833519
 20
30.052626037
 10
67.8440327435
 20
30.037742013
 10
67.9109284631
 20
30.0104925897
 10
67.9785447445
 20
29.9714585413
 10
68.0454404641
 20
29.9214718108
 10
68.1101898557
 20
29.8615977785
 10
68.1714128985
 20
29.7931125554
 10
68.2278047297
 20
29.7174757853
 10
68.2781634552
 20
29.6362995345
 10
68.3214157662
 20
29.551313934
 10
68.3566398149
 20
29.4643303041
 10
68.3830848617
 20
29.3772025501
 10
68.4001872765
 20
29.2917876486
 10
68.4075825509
 20
29.20990607
 10
68.4051130675
 20
29.1333029781
 10
68.3928314591
 20
29.0636110347
 10
68.3709994868
 20
29.0023156025
 10
68.3400824612
 20
28.9507230874
 10
68.300739325
 20
28.9099330942
 10
68.2538086089
 20
28.8808149908
 10
68.2002905596
 20
28.863989379
 10
68.1592236561
 20
28.8597205713
  0
LWPOLYLINE
  5
2B2
330
1F
100
AcDbEntity
  8
OBJECT
  6
SLD-Solid
370
    25
100
AcDbPolyline
 90
       10
 70
   128
 43
0.0
 10
68.2813938639
 20
30.9012236614
 10
68.1785552615
 20
30.954934162
 10
68.0766479814
 20
30.9968443304
 10
67.9765949117
 20
31.0265746216
 10
67.8793021486
 20
31.0438557934
 10
67.7856507903
 20
31.0485313449
 10
67.696488958
 20
31.0405589335
 10
67.6126241151
 20
31.0200107586
 10
67.5348157546
 20
30.9870729078
 10
67.5164560335
 20
30.9769709786
  0
LWPOLYLINE
  5
2B3
330
1F
100
AcDbEntity
  8
OBJECT
  6
SLD-Solid
370
    25
100
AcDbPolyline
 90
       26
 70
   128
 43
0.0
 10
69.0463316944
 20
28.3268614597
 10
69.0990192068
 20
28.3617887672
 10
69.1626618985
 20
28.4185015977
 10
69.2183236905
 20
28.4863844221
 10
69.2655005009
 20
28.5648224829
 10
69.3037650893
 20
28.6531054329
 10
69.3327709254
 20
28.7504337681
 10
69.3522553281
 20
28.855926068
 10
69.3620418436
 20
28.9686269779
 10
69.3620418436
 20
29.087515861
 10
69.3522553281
 20
29.2115160412
 10
69.3327709254
 20
29.3395045535
 10
69.3037650893
 20
29.4703223143
 10
69.2655005009
 20
29.6027846176
 10
69.2183236905
 20
29.7356918643
 10
69.1626618985
 20
29.8678404258
 10
69.0990192068
 20
29.9980335442
 10
69.0279719732
 20
30.1250921705
 10
68.9501636128
 20
30.2478656422
 10
68.8662987699
 20
30.3652421036
 10
68.7771369376
 20
30.4761585753
 10
68.6834855793
 20
30.5796105806
 10
68.5861928161
 20
30.6746612421
 10
68.4861397464
 20
30.7604497663
 10
68.3842324663
 20
30.8361992391
 10
68.2813938639
 20
30.9012236614
  0
LWPOLYLINE
  5
2B4
330
1F
100
AcDbEntity
  8
OBJECT
  6
SLD-Solid
370
    25
100
AcDbPolyline
 90
        3
 70
   128
 43
0.0
 10
67.5556048526
 20
29.9545954296
 10
67.5893878457
 20
29.998532218
 10
67.6281020836
 20
30.0306861898
  0
ARC
  5
2B5
330
1F
100
AcDbEntity
  8
OBJECT
  6
SLD-Solid
370
    25
100
AcDbCircle
 10
68.1773682795
 20
29.1085231893
 30
0.0
 40
0.2365102948458363
100
AcDbArc
 50
270.771794412
 51
296.4466508149
  0
ARC
  5
2B6
330
1F
100
AcDbEntity
  8
OBJECT
  6
SLD-Solid
370
    25
100
AcDbCircle
 10
79.8586243496
 20
17.2048732548
 30
0.0
 40
0.5232484323107893
100
AcDbArc
 50
280.6437983617
 51
319.0964490804
  0
ARC
  5
2B7
330
1F
100
AcDbEntity
  8
OBJECT
  6
SLD-Solid
370
    25
100
AcDbCircle
 10
78.8525511593
 20
18.9476268043
 30
0.0
 40
0.5240254925208911
100
AcDbArc
 50
100.1592585591
 51
140.1040076565
  0
LWPOLYLINE
  5
2B8
330
1F
100
AcDbEntity
  8
OBJECT
  6
SLD-Solid
370
    25
100
AcDbPolyline
 90
       27
 70
   128
 43
0.0
 10
78.898041351
 20
18.5646038082
 10
78.9250182514
 20
18.5843267618
 10
78.9753769769
 20
18.6073600657
 10
79.031768808
 20
18.6178882135
 10
79.0929918508
 20
18.6156868159
 10
79.1577412425
 20
18.6008027919
 10
79.2246369621
 20
18.5735533686
 10
79.2922532435
 20
18.5345193202
 10
79.3591489631
 20
18.4845325897
 10
79.4238983547
 20
18.4246585573
 10
79.4851213975
 20
18.3561733343
 10
79.5415132287
 20
18.2805365642
 10
79.5918719542
 20
18.1993603134
 10
79.6351242652
 20
18.1143747129
 10
79.6703483139
 20
18.027391083
 10
79.6967933607
 20
17.9402633289
 10
79.7138957755
 20
17.8548484275
 10
79.7212910499
 20
17.7729668489
 10
79.7188215665
 20
17.696363757
 10
79.7065399581
 20
17.6266718136
 10
79.6847079857
 20
17.5653763814
 10
79.6537909601
 20
17.5137838663
 10
79.614447824
 20
17.4729938731
 10
79.5675171079
 20
17.4438757697
 10
79.5139990586
 20
17.4270501579
 10
79.4550343204
 20
17.4228756464
 10
79.4373824378
 20
17.4240237692
  0
LWPOLYLINE
  5
2B9
330
1F
100
AcDbEntity
  8
OBJECT
  6
SLD-Solid
370
    25
100
AcDbPolyline
 90
       10
 70
   128
 43
0.0
 10
79.5951023629
 20
19.4642844403
 10
79.4922637605
 20
19.5179949409
 10
79.3903564804
 20
19.5599051093
 10
79.2903034107
 20
19.5896354005
 10
79.1930106476
 20
19.6069165723
 10
79.0993592892
 20
19.6115921237
 10
79.010197457
 20
19.6036197124
 10
78.9263326141
 20
19.5830715375
 10
78.8485242536
 20
19.5501336867
 10
78.8301645324
 20
19.5400317575
  0
LWPOLYLINE
  5
2BA
330
1F
100
AcDbEntity
  8
OBJECT
  6
SLD-Solid
370
    25
100
AcDbPolyline
 90
       26
 70
   128
 43
0.0
 10
80.3600401934
 20
16.8899222386
 10
80.4127277057
 20
16.9248495461
 10
80.4763703975
 20
16.9815623766
 10
80.5320321895
 20
17.049445201
 10
80.5792089999
 20
17.1278832618
 10
80.6174735882
 20
17.2161662118
 10
80.6464794244
 20
17.313494547
 10
80.6659638271
 20
17.4189868469
 10
80.6757503425
 20
17.5316877568
 10
80.6757503425
 20
17.6505766399
 10
80.6659638271
 20
17.77457682
 10
80.6464794244
 20
17.9025653324
 10
80.6174735882
 20
18.0333830932
 10
80.5792089999
 20
18.1658453965
 10
80.5320321895
 20
18.2987526432
 10
80.4763703975
 20
18.4309012047
 10
80.4127277057
 20
18.5610943231
 10
80.3416804722
 20
18.6881529494
 10
80.2638721118
 20
18.8109264211
 10
80.1800072689
 20
18.9283028825
 10
80.0908454366
 20
19.0392193542
 10
79.9971940783
 20
19.1426713595
 10
79.8999013151
 20
19.237722021
 10
79.7998482454
 20
19.3235105452
 10
79.6979409653
 20
19.3992600179
 10
79.5951023629
 20
19.4642844403
  0
LINE
  5
2BB
330
1F
100
AcDbEntity
  8
OBJECT
  6
SLD-Solid
370
    25
100
AcDbLine
 10
78.912904883
 20
18.5711823823
 30
0.0
 11
78.9418105826
 21
18.5937469687
 31
0.0
  0
ARC
  5
2BC
330
1F
100
AcDbEntity
  8
OBJECT
  6
SLD-Solid
370
    25
100
AcDbCircle
 10
79.4874583231
 20
17.6843435338
 30
0.0
 40
0.2495580523601797
100
AcDbArc
 50
264.6469533037
 51
295.885785036
  0
ELLIPSE
  5
2BD
330
1F
100
AcDbEntity
  8
OBJECT
  6
SLD-Solid
370
    25
100
AcDbEllipse
 10
66.7787919539
 20
28.7844826004
 30
0.0
 11
0.4419596948671939
 21
0.7654551753913915
 31
0.0
210
0.0
220
0.0
230
1.0
 40
0.5773346305
 41
4.71242961241574
 42
5.497827775813193
  0
ELLIPSE
  5
2BE
330
1F
100
AcDbEntity
  8
OBJECT
  6
SLD-Solid
370
    25
100
AcDbEllipse
 10
66.7787919539
 20
28.7844826004
 30
0.0
 11
0.624999998601993
 21
-0.3608634673257036
 31
0.0
210
0.0
220
0.0
230
1.0
 40
0.0000703729
 41
0.0000406319102047
 42
0.7854387947349946
  0
LWPOLYLINE
  5
2BF
330
1F
100
AcDbEntity
  8
OBJECT
  6
SLD-Solid
370
    25
100
AcDbPolyline
 90
       24
 70
   128
 43
0.0
 10
68.0416939192
 20
45.4541529874
 10
68.1445325216
 20
45.3891285651
 10
68.2464398017
 20
45.3133790924
 10
68.3464928714
 20
45.2275905682
 10
68.4437856346
 20
45.1325399067
 10
68.5374369929
 20
45.0290879014
 10
68.6265988252
 20
44.9181714296
 10
68.7104636681
 20
44.8007949683
 10
68.7882720285
 20
44.6780214966
 10
68.859319262
 20
44.5509628703
 10
68.9229619538
 20
44.4207697518
 10
68.9786237458
 20
44.2886211904
 10
69.0258005562
 20
44.1557139437
 10
69.0640651445
 20
44.0232516404
 10
69.0930709807
 20
43.8924338796
 10
69.1125553834
 20
43.7644453672
 10
69.1223418989
 20
43.6404451871
 10
69.1223418989
 20
43.521556304
 10
69.1125553834
 20
43.408855394
 10
69.0930709807
 20
43.3033630942
 10
69.0640651445
 20
43.206034759
 10
69.0258005562
 20
43.117751809
 10
68.9786237458
 20
43.0393137482
 10
68.9403937604
 20
42.9905010198
  0
ARC
  5
2C0
330
1F
100
AcDbEntity
  8
OBJECT
  6
SLD-Solid
370
    25
100
AcDbCircle
 10
67.5537543569
 20
44.6992178703
 30
0.0
 40
0.8988949035372056
100
AcDbArc
 50
57.1240758271
 51
96.8583626837
  0
LWPOLYLINE
  5
2C1
330
1F
100
AcDbEntity
  8
OBJECT
  6
SLD-Solid
370
    25
100
AcDbPolyline
 90
       24
 70
   128
 43
0.0
 10
68.0416939192
 20
30.7628478287
 10
68.1445325216
 20
30.6978234064
 10
68.2464398017
 20
30.6220739336
 10
68.3464928714
 20
30.5362854094
 10
68.4437856346
 20
30.4412347479
 10
68.5374369929
 20
30.3377827426
 10
68.6265988252
 20
30.2268662709
 10
68.7104636681
 20
30.1094898095
 10
68.7882720285
 20
29.9867163379
 10
68.859319262
 20
29.8596577115
 10
68.9229619538
 20
29.7294645931
 10
68.9786237458
 20
29.5973160316
 10
69.0258005562
 20
29.4644087849
 10
69.0640651445
 20
29.3319464816
 10
69.0930709807
 20
29.2011287208
 10
69.1125553834
 20
29.0731402085
 10
69.1223418989
 20
28.9491400283
 10
69.1223418989
 20
28.8302511452
 10
69.1125553834
 20
28.7175502353
 10
69.0930709807
 20
28.6120579355
 10
69.0640651445
 20
28.5147296003
 10
69.0258005562
 20
28.4264466503
 10
68.9786237458
 20
28.3480085894
 10
68.9403937604
 20
28.2991958611
  0
ARC
  5
2C2
330
1F
100
AcDbEntity
  8
OBJECT
  6
SLD-Solid
370
    25
100
AcDbCircle
 10
67.5537543569
 20
30.0079127115
 30
0.0
 40
0.8988949035372256
100
AcDbArc
 50
57.1240758271
 51
96.8583626837
  0
LWPOLYLINE
  5
2C3
330
1F
100
AcDbEntity
  8
OBJECT
  6
SLD-Solid
370
    25
100
AcDbPolyline
 90
       24
 70
   128
 43
0.0
 10
79.3554024182
 20
19.3259086076
 10
79.4582410206
 20
19.2608841853
 10
79.5601483007
 20
19.1851347125
 10
79.6602013704
 20
19.0993461883
 10
79.7574941336
 20
19.0042955268
 10
79.8511454919
 20
18.9008435215
 10
79.9403073242
 20
18.7899270498
 10
80.0241721671
 20
18.6725505884
 10
80.1019805275
 20
18.5497771168
 10
80.173027761
 20
18.4227184904
 10
80.2366704528
 20
18.292525372
 10
80.2923322448
 20
18.1603768105
 10
80.3395090552
 20
18.0274695638
 10
80.3777736435
 20
17.8950072605
 10
80.4067794797
 20
17.7641894997
 10
80.4262638824
 20
17.6362009874
 10
80.4360503978
 20
17.5122008072
 10
80.4360503978
 20
17.3933119241
 10
80.4262638824
 20
17.2806110142
 10
80.4067794797
 20
17.1751187144
 10
80.3777736435
 20
17.0777903792
 10
80.3395090552
 20
16.9895074291
 10
80.2923322448
 20
16.9110693683
 10
80.2541022594
 20
16.86225664
  0
ARC
  5
2C4
330
1F
100
AcDbEntity
  8
OBJECT
  6
SLD-Solid
370
    25
100
AcDbCircle
 10
78.8674628559
 20
18.5709734904
 30
0.0
 40
0.8988949035373822
100
AcDbArc
 50
57.1240758271
 51
96.8583626837
  0
ARC
  5
2C5
330
1F
100
AcDbEntity
  8
NOTES
100
AcDbCircle
 10
66.7787919539
 20
41.4537111712
 30
0.0
 40
0.7103203070942766
100
AcDbArc
 50
208.3715369778
 51
331.6284630222
  0
ARC
  5
2C6
330
1F
100
AcDbEntity
  8
NOTES
100
AcDbCircle
 10
69.0549264488
 20
25.1930025919
 30
0.0
 40
2.90251110180969
100
AcDbArc
 50
181.7647078752
 51
238.2359040486
  0
ARC
  5
2C7
330
1F
100
AcDbEntity
  8
NOTES
100
AcDbCircle
 10
69.0033652856
 20
25.1632312876
 30
0.0
 40
1.600683731896446
100
AcDbArc
 50
182.1342719038
 51
237.8646053655
  0
ARC
  5
2C8
330
1F
100
AcDbEntity
  8
NOTES
100
AcDbCircle
 10
76.2526550708
 20
18.4096635105
 30
0.0
 40
0.7044549778774033
100
AcDbArc
 50
87.4778765499
 51
212.5274999828
  0
HATCH
  5
2C9
330
1F
100
AcDbEntity
  8
NOTES
100
AcDbHatch
 10
0.0
 20
0.0
 30
0.0
210
0.0
220
0.0
230
1.0
  2
AR-SAND
 70
     0
 71
     0
 91
        1
 92
        0
 93
        8
 72
     2
 10
66.7787919539056
 20
41.45371117115054
 40
0.7103203070942752
 50
208.3715369777913
 51
331.6284630222097
 73
     1
 72
     1
 10
67.40379195390558
 20
41.11617607864828
 11
67.40379195390568
 21
25.10361949168098
 72
     2
 10
69.00336528556268
 20
25.16323128757461
 40
1.600683731896441
 50
182.1342719037556
 51
237.8646053654869
 73
     1
 72
     1
 10
68.15192672947494
 20
23.80778272906524
 11
76.28365471327957
 21
19.11343608599273
 72
     2
 10
76.2526550707881
 20
18.40966351049575
 40
0.7044549778774023
 50
87.4778765498925
 51
212.5274999828073
 73
     1
 72
     1
 10
75.65870550538203
 20
18.03087500801687
 11
67.52697752189609
 21
22.72522165090541
 72
     2
 10
69.05492644880914
 20
25.19300259192788
 40
2.902511101809698
 50
121.7640959514454
 51
178.2352921247956
 73
     0
 72
     1
 10
66.15379195390568
 20
25.10361949168098
 11
66.1537919539056
 21
41.11617607864828
 97
        0
 75
     0
 76
     1
 52
0.0
 41
2.6666666667
 77
     0
 78
     4
 53
37.5
 43
0.0
 44
0.0
 45
-0.1679822882922884
 46
5.138196717368423
 79
     6
 49
0.0
 49
-4.053333333333333
 49
0.0
 49
-4.533333333333333
 49
0.0
 49
-4.333333333333333
 53
7.5
 43
0.0
 44
0.0
 45
4.719404547380606
 46
7.525722840612642
 79
     6
 49
0.0
 49
-2.186666666666667
 49
0.0
 49
-3.653333333333333
 49
0.0
 49
-1.4
 53
-32.5
 43
-3.28
 44
0.0
 45
8.304378298003986
 46
0.0150908094319059
 79
     6
 49
0.0
 49
-1.333333333333333
 49
0.0
 49
-4.8
 49
0.0
 49
-6.266666666666667
 53
-42.50000000000001
 43
-3.28
 44
0.0
 45
8.016337612192782
 46
2.340468173157998
 79
     6
 49
0.0
 49
-0.6666666666666666
 49
0.0
 49
-3.146666666666667
 49
0.0
 49
-3.6
 98
        1
 10
0.0
 20
0.0
  0
INSERT
  5
2CF
330
1F
100
AcDbEntity
  8
NOTES
100
AcDbBlockReference
  2
SW_NOTE_0_3
 10
75.2934191273
 20
15.7326529202
 30
0.0
  0
ENDSEC
  0
SECTION
  2
OBJECTS
  0
DICTIONARY
  5
C
330
0
100
AcDbDictionary
281
     1
  3
ACAD_GROUP
350
D
  3
ACAD_LAYOUT
350
1A
  3
ACAD_MLINESTYLE
350
17
  3
ACAD_PLOTSETTINGS
350
19
  3
ACAD_PLOTSTYLENAME
350
E
  3
ACAD_SCALELIST
350
47
  3
DWGPROPS
350
2D0
  0
DICTIONARY
  5
D
102
{ACAD_REACTORS
330
C
102
}
330
C
100
AcDbDictionary
281
     1
  0
DICTIONARY
  5
1A
102
{ACAD_REACTORS
330
C
102
}
330
C
100
AcDbDictionary
281
     1
  3
Layout1
350
1E
  3
Layout2
350
26
  3
Model
350
22
  0
DICTIONARY
  5
17
102
{ACAD_REACTORS
330
C
102
}
330
C
100
AcDbDictionary
281
     1
  3
Standard
350
18
  0
DICTIONARY
  5
19
102
{ACAD_REACTORS
330
C
102
}
330
C
100
AcDbDictionary
281
     1
  0
ACDBDICTIONARYWDFLT
  5
E
102
{ACAD_REACTORS
330
C
102
}
330
C
100
AcDbDictionary
281
     1
  3
Normal
350
F
100
AcDbDictionaryWithDefault
340
F
  0
DICTIONARY
  5
47
102
{ACAD_REACTORS
330
C
102
}
330
C
100
AcDbDictionary
281
     1
  3
A0
350
48
  3
A1
350
49
  3
A2
350
4A
  3
A3
350
4B
  3
A4
350
4C
  3
A5
350
4D
  3
A6
350
4E
  3
A7
350
4F
  3
A8
350
50
  3
A9
350
51
  3
B0
350
52
  3
B1
350
53
  3
B2
350
54
  3
B3
350
55
  3
B4
350
56
  3
B5
350
57
  3
B6
350
58
  3
B7
350
59
  3
B8
350
5A
  3
B9
350
5B
  3
C0
350
5C
  3
C1
350
5D
  3
C2
350
5E
  3
C3
350
5F
  3
C4
350
60
  3
C5
350
61
  3
C6
350
62
  3
C7
350
63
  3
C8
350
64
  3
C9
350
65
  3
D0
350
66
  3
D1
350
67
  3
D2
350
68
  0
XRECORD
  5
2D0
102
{ACAD_REACTORS
330
C
102
}
330
C
100
AcDbXrecord
280
     1
  1
DWGPROPS COOKIE
  2

  3

  4

  6

  7

  8
carl
  9

300
=
301
=
302
=
303
=
304
=
305
=
306
=
307
=
308
=
309
=
 40
0.0
 41
2459507.754258183
 42
2459507.754262153
  1

 90
        0
  0
LAYOUT
  5
1E
102
{ACAD_REACTORS
330
1A
102
}
330
1A
100
AcDbPlotSettings
  1

  2
none_device
  4

  6

 40
0.0
 41
0.0
 42
0.0
 43
0.0
 44
0.0
 45
0.0
 46
0.0
 47
0.0
 48
0.0
 49
0.0
140
0.0
141
0.0
142
1.0
143
1.0
 70
   688
 72
     0
 73
     0
 74
     5
  7

 75
    16
147
1.0
148
0.0
149
0.0
100
AcDbLayout
  1
Layout1
 70
     1
 71
     1
 10
0.0
 20
0.0
 11
12.0
 21
9.0
 12
0.0
 22
0.0
 32
0.0
 14
1.0000000000E+20
 24
1.0000000000E+20
 34
1.0000000000E+20
 15
-1.0000000000E+20
 25
-1.0000000000E+20
 35
-1.0000000000E+20
146
0.0
 13
0.0
 23
0.0
 33
0.0
 16
1.0
 26
0.0
 36
0.0
 17
0.0
 27
1.0
 37
0.0
 76
     0
330
1B
  0
LAYOUT
  5
26
102
{ACAD_REACTORS
330
1A
102
}
330
1A
100
AcDbPlotSettings
  1

  2
none_device
  4

  6

 40
0.0
 41
0.0
 42
0.0
 43
0.0
 44
0.0
 45
0.0
 46
0.0
 47
0.0
 48
0.0
 49
0.0
140
0.0
141
0.0
142
1.0
143
1.0
 70
   688
 72
     0
 73
     0
 74
     5
  7

 75
    16
147
1.0
148
0.0
149
0.0
100
AcDbLayout
  1
Layout2
 70
     1
 71
     2
 10
0.0
 20
0.0
 11
0.0
 21
0.0
 12
0.0
 22
0.0
 32
0.0
 14
0.0
 24
0.0
 34
0.0
 15
0.0
 25
0.0
 35
0.0
146
0.0
 13
0.0
 23
0.0
 33
0.0
 16
1.0
 26
0.0
 36
0.0
 17
0.0
 27
1.0
 37
0.0
 76
     0
330
23
  0
LAYOUT
  5
22
102
{ACAD_REACTORS
330
1A
102
}
330
1A
100
AcDbPlotSettings
  1

  2
none_device
  4
Letter_(8.50_x_11.00_Inches)
  6

 40
6.35
 41
6.35
 42
6.35000508
 43
6.35000508
 44
215.9
 45
279.4
 46
0.0
 47
0.0
 48
0.0
 49
0.0
140
0.0
141
0.0
142
1.0
143
1.0
 70
  1712
 72
     0
 73
     0
 74
     0
  7

 75
     0
147
1.0
148
0.0
149
0.0
100
AcDbLayout
  1
Model
 70
     1
 71
     0
 10
0.0
 20
0.0
 11
90.0
 21
60.0
 12
0.0
 22
0.0
 32
0.0
 14
0.0
 24
0.0
 34
0.0
 15
90.0
 25
60.0
 35
0.0
146
0.0
 13
0.0
 23
0.0
 33
0.0
 16
1.0
 26
0.0
 36
0.0
 17
0.0
 27
1.0
 37
0.0
 76
     0
330
1F
331
29
  0
MLINESTYLE
  5
18
102
{ACAD_REACTORS
330
17
102
}
330
17
100
AcDbMlineStyle
  2
Standard
 70
     0
  3

 62
   256
 51
90.0
 52
90.0
 71
     2
 49
0.5
 62
   256
  6
BYLAYER
 49
-0.5
 62
   256
  6
BYLAYER
  0
ACDBPLACEHOLDER
  5
F
102
{ACAD_REACTORS
330
E
102
}
330
E
  0
SCALE
  5
48
102
{ACAD_REACTORS
330
47
102
}
330
47
100
AcDbScale
 70
     0
300
1:1
140
1.0
141
1.0
290
     1
  0
SCALE
  5
49
102
{ACAD_REACTORS
330
47
102
}
330
47
100
AcDbScale
 70
     0
300
1:2
140
1.0
141
2.0
290
     0
  0
SCALE
  5
4A
102
{ACAD_REACTORS
330
47
102
}
330
47
100
AcDbScale
 70
     0
300
1:4
140
1.0
141
4.0
290
     0
  0
SCALE
  5
4B
102
{ACAD_REACTORS
330
47
102
}
330
47
100
AcDbScale
 70
     0
300
1:5
140
1.0
141
5.0
290
     0
  0
SCALE
  5
4C
102
{ACAD_REACTORS
330
47
102
}
330
47
100
AcDbScale
 70
     0
300
1:8
140
1.0
141
8.0
290
     0
  0
SCALE
  5
4D
102
{ACAD_REACTORS
330
47
102
}
330
47
100
AcDbScale
 70
     0
300
1:10
140
1.0
141
10.0
290
     0
  0
SCALE
  5
4E
102
{ACAD_REACTORS
330
47
102
}
330
47
100
AcDbScale
 70
     0
300
1:16
140
1.0
141
16.0
290
     0
  0
SCALE
  5
4F
102
{ACAD_REACTORS
330
47
102
}
330
47
100
AcDbScale
 70
     0
300
1:20
140
1.0
141
20.0
290
     0
  0
SCALE
  5
50
102
{ACAD_REACTORS
330
47
102
}
330
47
100
AcDbScale
 70
     0
300
1:30
140
1.0
141
30.0
290
     0
  0
SCALE
  5
51
102
{ACAD_REACTORS
330
47
102
}
330
47
100
AcDbScale
 70
     0
300
1:40
140
1.0
141
40.0
290
     0
  0
SCALE
  5
52
102
{ACAD_REACTORS
330
47
102
}
330
47
100
AcDbScale
 70
     0
300
1:50
140
1.0
141
50.0
290
     0
  0
SCALE
  5
53
102
{ACAD_REACTORS
330
47
102
}
330
47
100
AcDbScale
 70
     0
300
1:100
140
1.0
141
100.0
290
     0
  0
SCALE
  5
54
102
{ACAD_REACTORS
330
47
102
}
330
47
100
AcDbScale
 70
     0
300
2:1
140
2.0
141
1.0
290
     0
  0
SCALE
  5
55
102
{ACAD_REACTORS
330
47
102
}
330
47
100
AcDbScale
 70
     0
300
4:1
140
4.0
141
1.0
290
     0
  0
SCALE
  5
56
102
{ACAD_REACTORS
330
47
102
}
330
47
100
AcDbScale
 70
     0
300
8:1
140
8.0
141
1.0
290
     0
  0
SCALE
  5
57
102
{ACAD_REACTORS
330
47
102
}
330
47
100
AcDbScale
 70
     0
300
10:1
140
10.0
141
1.0
290
     0
  0
SCALE
  5
58
102
{ACAD_REACTORS
330
47
102
}
330
47
100
AcDbScale
 70
     0
300
100:1
140
100.0
141
1.0
290
     0
  0
SCALE
  5
59
102
{ACAD_REACTORS
330
47
102
}
330
47
100
AcDbScale
 70
     0
300
1/128" = 1'-0"
140
0.0078125
141
12.0
290
     0
  0
SCALE
  5
5A
102
{ACAD_REACTORS
330
47
102
}
330
47
100
AcDbScale
 70
     0
300
1/64" = 1'-0"
140
0.015625
141
12.0
290
     0
  0
SCALE
  5
5B
102
{ACAD_REACTORS
330
47
102
}
330
47
100
AcDbScale
 70
     0
300
1/32" = 1'-0"
140
0.03125
141
12.0
290
     0
  0
SCALE
  5
5C
102
{ACAD_REACTORS
330
47
102
}
330
47
100
AcDbScale
 70
     0
300
1/16" = 1'-0"
140
0.0625
141
12.0
290
     0
  0
SCALE
  5
5D
102
{ACAD_REACTORS
330
47
102
}
330
47
100
AcDbScale
 70
     0
300
3/32" = 1'-0"
140
0.09375
141
12.0
290
     0
  0
SCALE
  5
5E
102
{ACAD_REACTORS
330
47
102
}
330
47
100
AcDbScale
 70
     0
300
1/8" = 1'-0"
140
0.125
141
12.0
290
     0
  0
SCALE
  5
5F
102
{ACAD_REACTORS
330
47
102
}
330
47
100
AcDbScale
 70
     0
300
3/16" = 1'-0"
140
0.1875
141
12.0
290
     0
  0
SCALE
  5
60
102
{ACAD_REACTORS
330
47
102
}
330
47
100
AcDbScale
 70
     0
300
1/4" = 1'-0"
140
0.25
141
12.0
290
     0
  0
SCALE
  5
61
102
{ACAD_REACTORS
330
47
102
}
330
47
100
AcDbScale
 70
     0
300
3/8" = 1'-0"
140
0.375
141
12.0
290
     0
  0
SCALE
  5
62
102
{ACAD_REACTORS
330
47
102
}
330
47
100
AcDbScale
 70
     0
300
1/2" = 1'-0"
140
0.5
141
12.0
290
     0
  0
SCALE
  5
63
102
{ACAD_REACTORS
330
47
102
}
330
47
100
AcDbScale
 70
     0
300
3/4" = 1'-0"
140
0.75
141
12.0
290
     0
  0
SCALE
  5
64
102
{ACAD_REACTORS
330
47
102
}
330
47
100
AcDbScale
 70
     0
300
1" = 1'-0"
140
1.0
141
12.0
290
     0
  0
SCALE
  5
65
102
{ACAD_REACTORS
330
47
102
}
330
47
100
AcDbScale
 70
     0
300
1-1/2" = 1'-0"
140
1.5
141
12.0
290
     0
  0
SCALE
  5
66
102
{ACAD_REACTORS
330
47
102
}
330
47
100
AcDbScale
 70
     0
300
3" = 1'-0"
140
3.0
141
12.0
290
     0
  0
SCALE
  5
67
102
{ACAD_REACTORS
330
47
102
}
330
47
100
AcDbScale
 70
     0
300
6" = 1'-0"
140
6.0
141
12.0
290
     0
  0
SCALE
  5
68
102
{ACAD_REACTORS
330
47
102
}
330
47
100
AcDbScale
 70
     0
300
1'-0" = 1'-0"
140
12.0
141
12.0
290
     0
  0
ENDSEC
  0
EOF
