  0
SECTION
  2
HEADER
  9
$ACADVER
  1
AC1015
  9
$ACADMAINTVER
 70
     6
  9
$DWGCODEPAGE
  3
ANSI_1252
  9
$INSBASE
 10
0.0
 20
0.0
 30
0.0
  9
$EXTMIN
 10
0.0
 20
0.0
 30
0.0
  9
$EXTMAX
 10
90.0
 20
120.0
 30
0.0
  9
$LIMMIN
 10
0.0
 20
0.0
  9
$LIMMAX
 10
90.0
 20
120.0
  9
$ORTHOMODE
 70
     0
  9
$REGENMODE
 70
     1
  9
$FILLMODE
 70
     1
  9
$QTEXTMODE
 70
     0
  9
$MIRRTEXT
 70
     1
  9
$LTSCALE
 40
1.0
  9
$ATTMODE
 70
     1
  9
$TEXTSIZE
 40
0.5
  9
$TRACEWID
 40
0.05
  9
$TEXTSTYLE
  7
STANDARD
  9
$CLAYER
  8
0
  9
$CELTYPE
  6
ByLayer
  9
$CECOLOR
 62
   256
  9
$CELTSCALE
 40
1.0
  9
$DISPSILH
 70
     0
  9
$DIMSCALE
 40
1.0
  9
$DIMASZ
 40
0.3
  9
$DIMEXO
 40
0.1666666667
  9
$DIMDLI
 40
0.38
  9
$DIMRND
 40
0.0
  9
$DIMDLE
 40
0.0
  9
$DIMEXE
 40
0.375
  9
$DIMTP
 40
0.0
  9
$DIMTM
 40
0.0
  9
$DIMTXT
 40
0.5
  9
$DIMCEN
 40
0.09
  9
$DIMTSZ
 40
0.0
  9
$DIMTOL
 70
     0
  9
$DIMLIM
 70
     0
  9
$DIMTIH
 70
     1
  9
$DIMTOH
 70
     1
  9
$DIMSE1
 70
     0
  9
$DIMSE2
 70
     0
  9
$DIMTAD
 70
     0
  9
$DIMZIN
 70
     1
  9
$DIMBLK
  1

  9
$DIMASO
 70
     1
  9
$DIMSHO
 70
     1
  9
$DIMPOST
  1

  9
$DIMAPOST
  1

  9
$DIMALT
 70
     0
  9
$DIMALTD
 70
     2
  9
$DIMALTF
 40
25.4
  9
$DIMLFAC
 40
1.0
  9
$DIMTOFL
 70
     0
  9
$DIMTVP
 40
0.0
  9
$DIMTIX
 70
     0
  9
$DIMSOXD
 70
     0
  9
$DIMSAH
 70
     0
  9
$DIMBLK1
  1

  9
$DIMBLK2
  1

  9
$DIMSTYLE
  2
Standard
  9
$DIMCLRD
 70
     0
  9
$DIMCLRE
 70
     0
  9
$DIMCLRT
 70
     0
  9
$DIMTFAC
 40
1.0
  9
$DIMGAP
 40
0.125
  9
$DIMJUST
 70
     0
  9
$DIMSD1
 70
     0
  9
$DIMSD2
 70
     0
  9
$DIMTOLJ
 70
     1
  9
$DIMTZIN
 70
     1
  9
$DIMALTZ
 70
     0
  9
$DIMALTTZ
 70
     0
  9
$DIMUPT
 70
     0
  9
$DIMDEC
 70
     2
  9
$DIMTDEC
 70
     2
  9
$DIMALTU
 70
     2
  9
$DIMALTTD
 70
     2
  9
$DIMTXSTY
  7
STANDARD
  9
$DIMAUNIT
 70
     0
  9
$DIMADEC
 70
     2
  9
$DIMALTRND
 40
0.0
  9
$DIMAZIN
 70
     0
  9
$DIMDSEP
 70
    46
  9
$DIMATFIT
 70
     3
  9
$DIMFRAC
 70
     0
  9
$DIMLDRBLK
  1

  9
$DIMLUNIT
 70
     2
  9
$DIMLWD
 70
    -2
  9
$DIMLWE
 70
    -2
  9
$DIMTMOVE
 70
     0
  9
$LUNITS
 70
     2
  9
$LUPREC
 70
     4
  9
$SKETCHINC
 40
0.1
  9
$FILLETRAD
 40
0.5
  9
$AUNITS
 70
     0
  9
$AUPREC
 70
     2
  9
$MENU
  1
.
  9
$ELEVATION
 40
0.0
  9
$PELEVATION
 40
0.0
  9
$THICKNESS
 40
0.0
  9
$LIMCHECK
 70
     0
  9
$CHAMFERA
 40
0.0
  9
$CHAMFERB
 40
0.0
  9
$CHAMFERC
 40
0.0
  9
$CHAMFERD
 40
0.0
  9
$SKPOLY
 70
     0
  9
$TDCREATE
 40
2459507.646741308
  9
$TDUCREATE
 40
2459507.813407974
  9
$TDUPDATE
 40
2459507.646746736
  9
$TDUUPDATE
 40
2459507.813413403
  9
$TDINDWG
 40
0.0000000116
  9
$TDUSRTIMER
 40
0.0000000116
  9
$USRTIMER
 70
     1
  9
$ANGBASE
 50
0.0
  9
$ANGDIR
 70
     0
  9
$PDMODE
 70
     0
  9
$PDSIZE
 40
-1.0
  9
$PLINEWID
 40
0.0
  9
$SPLFRAME
 70
     0
  9
$SPLINETYPE
 70
     6
  9
$SPLINESEGS
 70
     8
  9
$HANDSEED
  5
32E
  9
$SURFTAB1
 70
     6
  9
$SURFTAB2
 70
     6
  9
$SURFTYPE
 70
     6
  9
$SURFU
 70
     6
  9
$SURFV
 70
     6
  9
$UCSBASE
  2

  9
$UCSNAME
  2

  9
$UCSORG
 10
0.0
 20
0.0
 30
0.0
  9
$UCSXDIR
 10
1.0
 20
0.0
 30
0.0
  9
$UCSYDIR
 10
0.0
 20
1.0
 30
0.0
  9
$UCSORTHOREF
  2

  9
$UCSORTHOVIEW
 70
     0
  9
$UCSORGTOP
 10
0.0
 20
0.0
 30
0.0
  9
$UCSORGBOTTOM
 10
0.0
 20
0.0
 30
0.0
  9
$UCSORGLEFT
 10
0.0
 20
0.0
 30
0.0
  9
$UCSORGRIGHT
 10
0.0
 20
0.0
 30
0.0
  9
$UCSORGFRONT
 10
0.0
 20
0.0
 30
0.0
  9
$UCSORGBACK
 10
0.0
 20
0.0
 30
0.0
  9
$PUCSBASE
  2

  9
$PUCSNAME
  2

  9
$PUCSORG
 10
0.0
 20
0.0
 30
0.0
  9
$PUCSXDIR
 10
1.0
 20
0.0
 30
0.0
  9
$PUCSYDIR
 10
0.0
 20
1.0
 30
0.0
  9
$PUCSORTHOREF
  2

  9
$PUCSORTHOVIEW
 70
     0
  9
$PUCSORGTOP
 10
0.0
 20
0.0
 30
0.0
  9
$PUCSORGBOTTOM
 10
0.0
 20
0.0
 30
0.0
  9
$PUCSORGLEFT
 10
0.0
 20
0.0
 30
0.0
  9
$PUCSORGRIGHT
 10
0.0
 20
0.0
 30
0.0
  9
$PUCSORGFRONT
 10
0.0
 20
0.0
 30
0.0
  9
$PUCSORGBACK
 10
0.0
 20
0.0
 30
0.0
  9
$USERI1
 70
     0
  9
$USERI2
 70
     0
  9
$USERI3
 70
     0
  9
$USERI4
 70
     0
  9
$USERI5
 70
     0
  9
$USERR1
 40
0.0
  9
$USERR2
 40
0.0
  9
$USERR3
 40
0.0
  9
$USERR4
 40
0.0
  9
$USERR5
 40
0.0
  9
$WORLDVIEW
 70
     1
  9
$SHADEDGE
 70
     3
  9
$SHADEDIF
 70
    70
  9
$TILEMODE
 70
     1
  9
$MAXACTVP
 70
    64
  9
$PINSBASE
 10
0.0
 20
0.0
 30
0.0
  9
$PLIMCHECK
 70
     0
  9
$PEXTMIN
 10
1.0000000000E+20
 20
1.0000000000E+20
 30
1.0000000000E+20
  9
$PEXTMAX
 10
-1.0000000000E+20
 20
-1.0000000000E+20
 30
-1.0000000000E+20
  9
$PLIMMIN
 10
0.0
 20
0.0
  9
$PLIMMAX
 10
12.0
 20
9.0
  9
$UNITMODE
 70
     0
  9
$VISRETAIN
 70
     1
  9
$PLINEGEN
 70
     0
  9
$PSLTSCALE
 70
     1
  9
$TREEDEPTH
 70
  3020
  9
$CMLSTYLE
  2
Standard
  9
$CMLJUST
 70
     0
  9
$CMLSCALE
 40
1.0
  9
$PROXYGRAPHICS
 70
     1
  9
$MEASUREMENT
 70
     0
  9
$CELWEIGHT
370
    -1
  9
$ENDCAPS
280
     0
  9
$JOINSTYLE
280
     0
  9
$LWDISPLAY
290
     1
  9
$INSUNITS
 70
     1
  9
$HYPERLINKBASE
  1

  9
$STYLESHEET
  1

  9
$XEDIT
290
     1
  9
$CEPSNTYPE
380
     0
  9
$PSTYLEMODE
290
     1
  9
$FINGERPRINTGUID
  2
{210ce2fd-7c13-453c-aaf8-3d1bad7490ed}
  9
$VERSIONGUID
  2
{FAEB1C32-E019-11D5-929B-00C0DF256EC4}
  9
$EXTNAMES
290
     1
  9
$PSVPSCALE
 40
0.0
  9
$OLESTARTUP
290
     0
  0
ENDSEC
  0
SECTION
  2
CLASSES
  0
CLASS
  1
ACDBDICTIONARYWDFLT
  2
AcDbDictionaryWithDefault
  3
ObjectDBX Classes
 90
        0
280
     0
281
     0
  0
CLASS
  1
VISUALSTYLE
  2
AcDbVisualStyle
  3
ObjectDBX Classes
 90
     4095
280
     0
281
     0
  0
CLASS
  1
MATERIAL
  2
AcDbMaterial
  3
ObjectDBX Classes
 90
     1153
280
     0
281
     0
  0
CLASS
  1
SCALE
  2
AcDbScale
  3
ObjectDBX Classes
 90
     1153
280
     0
281
     0
  0
CLASS
  1
TABLESTYLE
  2
AcDbTableStyle
  3
ObjectDBX Classes
 90
     4095
280
     0
281
     0
  0
CLASS
  1
MLEADERSTYLE
  2
AcDbMLeaderStyle
  3
ACDB_MLEADERSTYLE_CLASS
 90
     4095
280
     0
281
     0
  0
CLASS
  1
SUN
  2
AcDbSun
  3
SCENEOE
 90
     1153
280
     0
281
     0
  0
CLASS
  1
ACDBPLACEHOLDER
  2
AcDbPlaceHolder
  3
ObjectDBX Classes
 90
        0
280
     0
281
     0
  0
CLASS
  1
LAYOUT
  2
AcDbLayout
  3
ObjectDBX Classes
 90
        0
280
     0
281
     0
  0
ENDSEC
  0
SECTION
  2
TABLES
  0
TABLE
  2
VPORT
  5
8
330
0
100
AcDbSymbolTable
 70
     1
  0
VPORT
  5
29
330
8
100
AcDbSymbolTableRecord
100
AcDbViewportTableRecord
  2
*Active
 70
     0
 10
0.0
 20
0.0
 11
1.0
 21
1.0
 12
45.0
 22
60.0
 13
0.0
 23
0.0
 14
0.5
 24
0.5
 15
0.5
 25
0.5
 16
0.0
 26
0.0
 36
1.0
 17
0.0
 27
0.0
 37
0.0
 40
120.0
 41
0.75
 42
50.0
 43
0.0
 44
0.0
 50
0.0
 51
0.0
 71
     0
 72
  2000
 73
     1
 74
     3
 75
     0
 76
     0
 77
     0
 78
     0
281
     0
 65
     1
110
0.0
120
0.0
130
0.0
111
1.0
121
0.0
131
0.0
112
0.0
122
1.0
132
0.0
 79
     0
146
0.0
  0
ENDTAB
  0
TABLE
  2
LTYPE
  5
5
330
0
100
AcDbSymbolTable
 70
     8
  0
LTYPE
  5
14
330
5
100
AcDbSymbolTableRecord
100
AcDbLinetypeTableRecord
  2
ByBlock
 70
     0
  3

 72
    65
 73
     0
 40
0.0
  0
LTYPE
  5
15
330
5
100
AcDbSymbolTableRecord
100
AcDbLinetypeTableRecord
  2
ByLayer
 70
     0
  3

 72
    65
 73
     0
 40
0.0
  0
LTYPE
  5
16
330
5
100
AcDbSymbolTableRecord
100
AcDbLinetypeTableRecord
  2
Continuous
 70
     0
  3
Solid line
 72
    65
 73
     0
 40
0.0
  0
LTYPE
  5
6E
330
5
100
AcDbSymbolTableRecord
100
AcDbLinetypeTableRecord
  2
SLD-Solid
 70
     0
  3
SolidWorks Line Style
 72
    65
 73
     0
 40
0.0
  0
LTYPE
  5
6F
330
5
100
AcDbSymbolTableRecord
100
AcDbLinetypeTableRecord
  2
SLD-Dashed
 70
     0
  3
SolidWorks Line Style
 72
    65
 73
     2
 40
0.075
 49
0.05
 74
     0
 49
-0.025
 74
     0
  0
LTYPE
  5
70
330
5
100
AcDbSymbolTableRecord
100
AcDbLinetypeTableRecord
  2
SLD-Phantom
 70
     0
  3
SolidWorks Line Style
 72
    65
 73
     6
 40
0.5
 49
0.25
 74
     0
 49
-0.05
 74
     0
 49
0.05
 74
     0
 49
-0.05
 74
     0
 49
0.05
 74
     0
 49
-0.05
 74
     0
  0
LTYPE
  5
71
330
5
100
AcDbSymbolTableRecord
100
AcDbLinetypeTableRecord
  2
SLD-Chain
 70
     0
  3
SolidWorks Line Style
 72
    65
 73
     4
 40
0.4
 49
0.25
 74
     0
 49
-0.05
 74
     0
 49
0.05
 74
     0
 49
-0.05
 74
     0
  0
LTYPE
  5
72
330
5
100
AcDbSymbolTableRecord
100
AcDbLinetypeTableRecord
  2
SLD-Center
 70
     0
  3
SolidWorks Line Style
 72
    65
 73
     4
 40
0.75
 49
0.6
 74
     0
 49
-0.05
 74
     0
 49
0.05
 74
     0
 49
-0.05
 74
     0
  0
LTYPE
  5
73
330
5
100
AcDbSymbolTableRecord
100
AcDbLinetypeTableRecord
  2
SLD-Stitch
 70
     0
  3
SolidWorks Line Style
 72
    65
 73
     2
 40
0.025
 49
0.0
 74
     0
 49
-0.025
 74
     0
  0
LTYPE
  5
74
330
5
100
AcDbSymbolTableRecord
100
AcDbLinetypeTableRecord
  2
SLD-Thin-Thick-Chain
 70
     0
  3
SolidWorks Line Style
 72
    65
 73
     4
 40
0.4
 49
0.25
 74
     0
 49
-0.05
 74
     0
 49
0.05
 74
     0
 49
-0.05
 74
     0
  0
ENDTAB
  0
TABLE
  2
LAYER
  5
2
330
0
100
AcDbSymbolTable
 70
     6
  0
LAYER
  5
10
330
2
100
AcDbSymbolTableRecord
100
AcDbLayerTableRecord
  2
0
 70
     0
 62
     7
  6
Continuous
370
    -3
390
F
  0
LAYER
  5
75
330
2
100
AcDbSymbolTableRecord
100
AcDbLayerTableRecord
  2
FORMAT
 70
     0
 62
     7
  6
SLD-Solid
370
    -3
390
F
  0
LAYER
  5
76
330
2
100
AcDbSymbolTableRecord
100
AcDbLayerTableRecord
  2
NOTES
 70
     0
 62
     1
  6
SLD-Solid
370
    -3
390
F
  0
LAYER
  5
77
330
2
100
AcDbSymbolTableRecord
100
AcDbLayerTableRecord
  2
OBJECT
 70
     0
 62
     7
  6
SLD-Solid
370
    25
390
F
  0
LAYER
  5
78
330
2
100
AcDbSymbolTableRecord
100
AcDbLayerTableRecord
  2
DIMS
 70
     0
 62
     5
  6
SLD-Solid
370
    -3
390
F
  0
LAYER
  5
79
330
2
100
AcDbSymbolTableRecord
100
AcDbLayerTableRecord
  2
TITLE
 70
     0
 62
     8
  6
SLD-Solid
370
    -3
390
F
  0
ENDTAB
  0
TABLE
  2
STYLE
  5
3
330
0
100
AcDbSymbolTable
 70
     5
  0
STYLE
  5
11
330
3
100
AcDbSymbolTableRecord
100
AcDbTextStyleTableRecord
  2
STANDARD
 70
     0
 40
0.0
 41
1.0
 50
0.0
 71
     0
 42
0.5
  3
GOTHIC.TTF
  4

1001
ACAD
1000
CENTURY GOTHIC
1071
       34
  0
STYLE
  5
15D
330
3
100
AcDbSymbolTableRecord
100
AcDbTextStyleTableRecord
  2
SLDTEXTSTYLE0
 70
     0
 40
0.0
 41
0.948
 50
0.0
 71
     0
 42
0.5
  3
ARIAL.TTF
  4

1001
ACAD
1000
Arial
1071
      290
  0
STYLE
  5
161
330
3
100
AcDbSymbolTableRecord
100
AcDbTextStyleTableRecord
  2
SLDTEXTSTYLE1
 70
     0
 40
0.0
 41
0.913
 50
0.0
 71
     0
 42
0.5
  3
GOTHIC.TTF
  4

1001
ACAD
1000
Century Gothic
1071
      290
  0
STYLE
  5
170
330
3
100
AcDbSymbolTableRecord
100
AcDbTextStyleTableRecord
  2
SLDTEXTSTYLE2
 70
     0
 40
0.0
 41
0.87
 50
0.0
 71
     0
 42
0.5
  3
ARIALNB.TTF
  4

1001
ACAD
1000
Arial Narrow
1071
 33554722
  0
STYLE
  5
172
330
3
100
AcDbSymbolTableRecord
100
AcDbTextStyleTableRecord
  2
SLDTEXTSTYLE3
 70
     0
 40
0.0
 41
0.87
 50
0.0
 71
     0
 42
0.5
  3
ARIALN.TTF
  4

1001
ACAD
1000
Arial Narrow
1071
      290
  0
ENDTAB
  0
TABLE
  2
VIEW
  5
6
330
0
100
AcDbSymbolTable
 70
     0
  0
ENDTAB
  0
TABLE
  2
UCS
  5
7
330
0
100
AcDbSymbolTable
 70
     0
  0
ENDTAB
  0
TABLE
  2
APPID
  5
9
330
0
100
AcDbSymbolTable
 70
     1
  0
APPID
  5
12
330
9
100
AcDbSymbolTableRecord
100
AcDbRegAppTableRecord
  2
ACAD
 70
     0
  0
ENDTAB
  0
TABLE
  2
DIMSTYLE
  5
A
330
0
100
AcDbSymbolTable
 70
     8
100
AcDbDimStyleTable
  0
DIMSTYLE
105
27
330
A
100
AcDbSymbolTableRecord
100
AcDbDimStyleTableRecord
  2
Standard
 70
     0
178
     0
340
11
  0
DIMSTYLE
105
260
102
{ACAD_REACTORS
330
25F
330
271
102
}
330
A
100
AcDbSymbolTableRecord
100
AcDbDimStyleTableRecord
  2
SLDDIMSTYLE0
 70
     0
 41
0.3
 44
0.0
 45
0.000000001
 78
    12
 79
     3
140
0.5
147
0.125
173
     1
178
     0
271
     2
272
     2
276
     2
277
     5
284
    12
340
161
341
261
343
261
344
261
  0
DIMSTYLE
105
27D
102
{ACAD_REACTORS
330
27C
102
}
330
A
100
AcDbSymbolTableRecord
100
AcDbDimStyleTableRecord
  2
SLDDIMSTYLE1
 70
     0
 41
0.3
 44
0.0
 45
0.000000001
 78
    12
 79
     3
140
0.5
141
0.0
147
0.125
173
     1
178
     0
271
     2
272
     2
276
     2
277
     5
284
    12
340
161
341
261
343
261
344
261
  0
DIMSTYLE
105
28B
102
{ACAD_REACTORS
330
28A
102
}
330
A
100
AcDbSymbolTableRecord
100
AcDbDimStyleTableRecord
  2
SLDDIMSTYLE2
 70
     0
 41
0.3
 44
0.0
 78
    12
 79
     3
140
0.5
147
0.125
173
     1
178
     0
179
     2
272
     2
276
     2
277
     5
284
    12
340
161
341
261
343
261
344
261
  0
DIMSTYLE
105
29B
330
A
100
AcDbSymbolTableRecord
100
AcDbDimStyleTableRecord
  2
SLDDIMSTYLE3
 70
     0
 41
0.3
 44
0.0
 45
0.000000001
146
0.3
147
0.0
173
     1
178
     0
271
     0
272
     0
276
     2
277
     5
340
11
341
261
343
261
344
261
  0
DIMSTYLE
105
2BA
102
{ACAD_REACTORS
330
2B9
102
}
330
A
100
AcDbSymbolTableRecord
100
AcDbDimStyleTableRecord
  2
SLDDIMSTYLE4
 70
     0
 41
0.3
 44
0.0
 45
0.000000001
 78
    12
 79
     3
140
0.5
147
0.125
172
     1
173
     1
178
     0
271
     6
272
     2
276
     2
277
     5
284
    12
289
     0
340
161
341
261
343
261
344
261
  0
DIMSTYLE
105
2C8
102
{ACAD_REACTORS
330
2C7
102
}
330
A
100
AcDbSymbolTableRecord
100
AcDbDimStyleTableRecord
  2
SLDDIMSTYLE5
 70
     0
 41
0.3
 44
0.0
 45
0.000000001
 78
    12
 79
     3
140
0.5
147
0.125
173
     1
178
     0
271
     6
272
     2
276
     2
277
     5
284
    12
340
161
341
261
343
261
344
261
  0
DIMSTYLE
105
326
330
A
100
AcDbSymbolTableRecord
100
AcDbDimStyleTableRecord
  2
SLDDIMSTYLE6
 70
     0
 41
0.0666666667
 44
0.0
 45
0.000000001
146
0.2
147
0.0
173
     1
178
     0
271
     0
272
     0
276
     2
277
     5
340
11
341
327
343
327
344
327
  0
ENDTAB
  0
TABLE
  2
BLOCK_RECORD
  5
1
330
0
100
AcDbSymbolTable
 70
    13
  0
BLOCK_RECORD
  5
1F
330
1
100
AcDbSymbolTableRecord
100
AcDbBlockTableRecord
  2
*Model_Space
340
22
  0
BLOCK_RECORD
  5
1B
330
1
100
AcDbSymbolTableRecord
100
AcDbBlockTableRecord
  2
*Paper_Space
340
1E
  0
BLOCK_RECORD
  5
23
330
1
100
AcDbSymbolTableRecord
100
AcDbBlockTableRecord
  2
*Paper_Space0
340
26
  0
BLOCK_RECORD
  5
167
330
1
100
AcDbSymbolTableRecord
100
AcDbBlockTableRecord
  2
SW_NOTE_0
340
0
102
{BLKREFS
331
16C
102
}
  0
BLOCK_RECORD
  5
16D
330
1
100
AcDbSymbolTableRecord
100
AcDbBlockTableRecord
  2
SW_NOTE_0_1
340
0
102
{BLKREFS
331
176
102
}
  0
BLOCK_RECORD
  5
261
330
1
100
AcDbSymbolTableRecord
100
AcDbBlockTableRecord
  2
_Open90
340
0
102
{BLKREFS
331
26A
331
26B
331
275
331
276
331
281
331
291
331
292
331
2BE
331
2BF
331
2CC
331
2CD
102
}
  0
BLOCK_RECORD
  5
267
330
1
100
AcDbSymbolTableRecord
100
AcDbBlockTableRecord
  2
_D
340
0
  0
BLOCK_RECORD
  5
272
330
1
100
AcDbSymbolTableRecord
100
AcDbBlockTableRecord
  2
_D_1
340
0
  0
BLOCK_RECORD
  5
27E
330
1
100
AcDbSymbolTableRecord
100
AcDbBlockTableRecord
  2
_D_2
340
0
  0
BLOCK_RECORD
  5
28C
330
1
100
AcDbSymbolTableRecord
100
AcDbBlockTableRecord
  2
_D_3
340
0
  0
BLOCK_RECORD
  5
295
330
1
100
AcDbSymbolTableRecord
100
AcDbBlockTableRecord
  2
SW_NOTE_0_2
340
0
102
{BLKREFS
331
29A
102
}
  0
BLOCK_RECORD
  5
2BB
330
1
100
AcDbSymbolTableRecord
100
AcDbBlockTableRecord
  2
_D_4
340
0
  0
BLOCK_RECORD
  5
2C9
330
1
100
AcDbSymbolTableRecord
100
AcDbBlockTableRecord
  2
_D_5
340
0
  0
BLOCK_RECORD
  5
2FD
330
1
100
AcDbSymbolTableRecord
100
AcDbBlockTableRecord
  2
SW_NOTE_0_3
340
0
102
{BLKREFS
331
302
102
}
  0
BLOCK_RECORD
  5
327
330
1
100
AcDbSymbolTableRecord
100
AcDbBlockTableRecord
  2
_Origin
340
0
  0
ENDTAB
  0
ENDSEC
  0
SECTION
  2
BLOCKS
  0
BLOCK
  5
20
330
1F
100
AcDbEntity
  8
0
100
AcDbBlockBegin
  2
*Model_Space
 70
     0
 10
0.0
 20
0.0
 30
0.0
  3
*Model_Space
  1

  0
ENDBLK
  5
21
330
1F
100
AcDbEntity
  8
0
100
AcDbBlockEnd
  0
BLOCK
  5
1C
330
1B
100
AcDbEntity
 67
     1
  8
0
100
AcDbBlockBegin
  2
*Paper_Space
 70
     0
 10
0.0
 20
0.0
 30
0.0
  3
*Paper_Space
  1

  0
ENDBLK
  5
1D
330
1B
100
AcDbEntity
 67
     1
  8
0
100
AcDbBlockEnd
  0
BLOCK
  5
24
330
23
100
AcDbEntity
  8
0
100
AcDbBlockBegin
  2
*Paper_Space0
 70
     0
 10
0.0
 20
0.0
 30
0.0
  3
*Paper_Space0
  1

  0
ENDBLK
  5
25
330
23
100
AcDbEntity
  8
0
100
AcDbBlockEnd
  0
BLOCK
  5
168
330
167
100
AcDbEntity
  8
0
100
AcDbBlockBegin
  2
SW_NOTE_0
 70
     0
 10
0.0
 20
0.0
 30
0.0
  3
SW_NOTE_0
  1

  0
MTEXT
  5
16A
330
167
100
AcDbEntity
  8
NOTES
 62
     0
100
AcDbMText
 10
0.0
 20
0.3759780908
 30
0.0
 40
0.2916666667
 41
0.0
 71
     1
 72
     1
  1
FROST PRODUCTS LTD.
  7
SLDTEXTSTYLE0
 73
     1
 44
1.0
  0
MTEXT
  5
16B
330
167
100
AcDbEntity
  8
NOTES
 62
     0
100
AcDbMText
 10
0.0
 20
-0.0495142709
 30
0.0
 40
0.2291666667
 41
0.0
 71
     1
 72
     1
  1
5280 JOHN LUCAS DRIVE, BURLINGTON, ON, L7L 5Z9
  7
SLDTEXTSTYLE0
 73
     1
 44
1.0
  0
ENDBLK
  5
169
330
167
100
AcDbEntity
  8
0
100
AcDbBlockEnd
  0
BLOCK
  5
16E
330
16D
100
AcDbEntity
  8
0
100
AcDbBlockBegin
  2
SW_NOTE_0_1
 70
     0
 10
0.0
 20
0.0
 30
0.0
  3
SW_NOTE_0_1
  1

  0
MTEXT
  5
171
330
16D
100
AcDbEntity
  8
NOTES
 62
     0
100
AcDbMText
 10
0.0
 20
0.2381282771
 30
0.0
 40
0.184729064
 41
0.0
 71
     1
 72
     1
  1
PROPRIETARY AND CONFIDENTIAL
  7
SLDTEXTSTYLE2
 73
     1
 44
1.0
  0
MTEXT
  5
173
330
16D
100
AcDbEntity
  8
NOTES
 62
     0
100
AcDbMText
 10
0.0
 20
-0.0504364796
 30
0.0
 40
0.25
 41
0.0
 71
     1
 72
     1
  1
THE INFORMATION CONTAINED IN THIS DRAWING IS THE SOLE PROPERTY OF 
  7
SLDTEXTSTYLE3
 73
     1
 44
1.0
  0
MTEXT
  5
174
330
16D
100
AcDbEntity
  8
NOTES
 62
     0
100
AcDbMText
 10
0.0
 20
-0.4231398941
 30
0.0
 40
0.25
 41
0.0
 71
     1
 72
     1
  1
FROST PRODUCTS LTD.  ANY REPRODUCTION IN PART OR AS A WHOLE WITHOUT 
  7
SLDTEXTSTYLE3
 73
     1
 44
1.0
  0
MTEXT
  5
175
330
16D
100
AcDbEntity
  8
NOTES
 62
     0
100
AcDbMText
 10
0.0
 20
-0.7958433086
 30
0.0
 40
0.25
 41
0.0
 71
     1
 72
     1
  1
THE WRITTEN PERMISSION OF FROST PRODUCTS LTD. IS PROHIBITED.
  7
SLDTEXTSTYLE3
 73
     1
 44
1.0
  0
ENDBLK
  5
16F
330
16D
100
AcDbEntity
  8
0
100
AcDbBlockEnd
  0
BLOCK
  5
262
330
261
100
AcDbEntity
  8
0
100
AcDbBlockBegin
  2
_Open90
 70
     0
 10
0.0
 20
0.0
 30
0.0
  3
_Open90
  1

  0
LINE
  5
264
330
261
100
AcDbEntity
  8
0
  6
ByBlock
 62
     0
370
    -2
100
AcDbLine
 10
-0.5
 20
0.5
 30
0.0
 11
0.0
 21
0.0
 31
0.0
  0
LINE
  5
265
330
261
100
AcDbEntity
  8
0
  6
ByBlock
 62
     0
370
    -2
100
AcDbLine
 10
0.0
 20
0.0
 30
0.0
 11
-0.5
 21
-0.5
 31
0.0
  0
LINE
  5
266
330
261
100
AcDbEntity
  8
0
  6
ByBlock
 62
     0
370
    -2
100
AcDbLine
 10
0.0
 20
0.0
 30
0.0
 11
-1.0
 21
0.0
 31
0.0
  0
ENDBLK
  5
263
330
261
100
AcDbEntity
  8
0
100
AcDbBlockEnd
  0
BLOCK
  5
268
330
267
100
AcDbEntity
  8
0
100
AcDbBlockBegin
  2
_D
 70
     0
 10
0.0
 20
0.0
 30
0.0
  3
_D
  1

  0
INSERT
  5
26A
330
267
100
AcDbEntity
  8
DIMS
100
AcDbBlockReference
  2
_Open90
 10
7.6805423528
 20
37.3380337123
 30
0.0
 41
0.3
 42
0.3
 50
120.0
  0
INSERT
  5
26B
330
267
100
AcDbEntity
  8
DIMS
100
AcDbBlockReference
  2
_Open90
 10
19.6805423528
 20
16.5534240215
 30
0.0
 41
0.3
 42
0.3
 50
300.0
  0
LINE
  5
26C
330
267
100
AcDbEntity
  8
DIMS
100
AcDbLine
 10
9.3818265002
 20
38.3202705728
 30
0.0
 11
7.3557828264
 21
37.1505337123
 31
0.0
  0
LINE
  5
26D
330
267
100
AcDbEntity
  8
DIMS
100
AcDbLine
 10
21.3818265002
 20
17.5356608819
 30
0.0
 11
19.3557828264
 21
16.3659240215
 31
0.0
  0
LINE
  5
26E
330
267
100
AcDbEntity
  8
DIMS
100
AcDbLine
 10
7.6805423528
 20
37.3380337123
 30
0.0
 11
13.3894074589
 21
27.4499892951
 31
0.0
  0
LINE
  5
26F
330
267
100
AcDbEntity
  8
DIMS
100
AcDbLine
 10
19.6805423528
 20
16.5534240215
 30
0.0
 11
13.8476792488
 21
26.6562392713
 31
0.0
  0
MTEXT
  5
270
330
267
100
AcDbEntity
  8
DIMS
100
AcDbMText
 10
13.1459739263
 20
27.2949112013
 30
0.0
 40
0.5
 41
0.0
 71
     1
 72
     1
  1
24"
  7
SLDTEXTSTYLE1
 73
     1
 44
1.0
  0
ENDBLK
  5
269
330
267
100
AcDbEntity
  8
0
100
AcDbBlockEnd
  0
BLOCK
  5
273
330
272
100
AcDbEntity
  8
0
100
AcDbBlockBegin
  2
_D_1
 70
     0
 10
0.0
 20
0.0
 30
0.0
  3
_D_1
  1

  0
INSERT
  5
275
330
272
100
AcDbEntity
  8
DIMS
100
AcDbBlockReference
  2
_Open90
 10
21.5261640675
 20
15.3890729554
 30
0.0
 41
0.3
 42
0.3
 50
180.0
  0
INSERT
  5
276
330
272
100
AcDbEntity
  8
DIMS
100
AcDbBlockReference
  2
_Open90
 10
45.5261640675
 20
15.3890729554
 30
0.0
 41
0.3
 42
0.3
 50
0.0
  0
LINE
  5
277
330
272
100
AcDbEntity
  8
DIMS
100
AcDbLine
 10
21.5261640675
 20
17.4523275486
 30
0.0
 11
21.5261640675
 21
15.0140729554
 31
0.0
  0
LINE
  5
278
330
272
100
AcDbEntity
  8
DIMS
100
AcDbLine
 10
45.5261640675
 20
17.4523275486
 30
0.0
 11
45.5261640675
 21
15.0140729554
 31
0.0
  0
LINE
  5
279
330
272
100
AcDbEntity
  8
DIMS
100
AcDbLine
 10
21.5261640675
 20
15.3890729554
 30
0.0
 11
32.4458810907
 21
15.3890729554
 31
0.0
  0
LINE
  5
27A
330
272
100
AcDbEntity
  8
DIMS
100
AcDbLine
 10
45.5261640675
 20
15.3890729554
 30
0.0
 11
33.3910199457
 21
15.3890729554
 31
0.0
  0
MTEXT
  5
27B
330
272
100
AcDbEntity
  8
DIMS
100
AcDbMText
 10
32.4458810907
 20
15.6308698735
 30
0.0
 40
0.5
 41
0.0
 71
     1
 72
     1
  1
24"
  7
SLDTEXTSTYLE1
 73
     1
 44
1.0
  0
ENDBLK
  5
274
330
272
100
AcDbEntity
  8
0
100
AcDbBlockEnd
  0
BLOCK
  5
27F
330
27E
100
AcDbEntity
  8
0
100
AcDbBlockBegin
  2
_D_2
 70
     0
 10
0.0
 20
0.0
 30
0.0
  3
_D_2
  1

  0
INSERT
  5
281
330
27E
100
AcDbEntity
  8
DIMS
100
AcDbBlockReference
  2
_Open90
 10
10.6052834805
 20
39.4899868289
 30
-1.5
 41
0.3
 42
0.3
 50
225.1921803043
  0
LINE
  5
282
330
27E
100
AcDbEntity
  8
DIMS
100
AcDbLine
 10
13.8863058847
 20
41.3375328282
 30
0.0
 11
14.7717225796
 21
41.3375328282
 31
0.0
  0
LINE
  5
283
330
27E
100
AcDbEntity
  8
DIMS
100
AcDbLine
 10
10.6052834805
 20
39.4899868289
 30
0.0
 11
12.3895350549
 21
41.2862481298
 31
0.0
  0
LINE
  5
284
330
27E
100
AcDbEntity
  8
DIMS
100
AcDbLine
 10
12.3895350549
 20
41.2862481298
 30
0.0
 11
12.6895350549
 21
41.2862481298
 31
0.0
  0
MTEXT
  5
285
330
27E
100
AcDbEntity
  8
DIMS
100
AcDbMText
 10
12.6895350549
 20
41.5592949993
 30
0.0
 40
0.5
 41
0.0
 71
     1
 72
     1
  1
%%c
  7
SLDTEXTSTYLE1
 73
     1
 44
1.0
  0
MTEXT
  5
286
330
27E
100
AcDbEntity
  8
DIMS
100
AcDbMText
 10
13.4435975373
 20
41.5669338886
 30
0.0
 40
0.5
 41
0.0
 71
     1
 72
     1
  1
3
  7
SLDTEXTSTYLE1
 73
     1
 44
1.0
  0
MTEXT
  5
287
330
27E
100
AcDbEntity
  8
DIMS
100
AcDbMText
 10
14.1442920094
 20
41.9322463876
 30
0.0
 40
0.5
 41
0.0
 71
     1
 72
     1
  1
1
  7
SLDTEXTSTYLE1
 73
     1
 44
1.0
  0
MTEXT
  5
288
330
27E
100
AcDbEntity
  8
DIMS
100
AcDbMText
 10
13.9595697867
 20
41.2710658091
 30
0.0
 40
0.5
 41
0.0
 71
     1
 72
     1
  1
16
  7
SLDTEXTSTYLE1
 73
     1
 44
1.0
  0
MTEXT
  5
289
330
27E
100
AcDbEntity
  8
DIMS
100
AcDbMText
 10
14.844986555
 20
41.5669338886
 30
0.0
 40
0.5
 41
0.0
 71
     1
 72
     1
  1
"
  7
SLDTEXTSTYLE1
 73
     1
 44
1.0
  0
ENDBLK
  5
280
330
27E
100
AcDbEntity
  8
0
100
AcDbBlockEnd
  0
BLOCK
  5
28D
330
28C
100
AcDbEntity
  8
0
100
AcDbBlockBegin
  2
_D_3
 70
     0
 10
0.0
 20
0.0
 30
0.0
  3
_D_3
  1

  0
ARC
  5
28F
330
28C
100
AcDbEntity
  8
DIMS
100
AcDbCircle
 10
21.9591767694
 20
18.3689942153
 30
0.0
 40
3.442768841223842
100
AcDbArc
 50
0.0
 51
45.3404983065
  0
ARC
  5
290
330
28C
100
AcDbEntity
  8
DIMS
100
AcDbCircle
 10
21.9591767694
 20
18.3689942153
 30
0.0
 40
3.44276884122384
100
AcDbArc
 50
68.7072301359
 51
120.0
  0
INSERT
  5
291
330
28C
100
AcDbEntity
  8
DIMS
100
AcDbBlockReference
  2
_Open90
 10
25.4019456106
 20
18.3689942153
 30
-1.5
 41
0.3
 42
0.3
 50
272.4900633416
  0
INSERT
  5
292
330
28C
100
AcDbEntity
  8
DIMS
100
AcDbBlockReference
  2
_Open90
 10
20.2377923487
 20
21.3505194911
 30
-1.5
 41
0.3
 42
0.3
 50
207.5099366584
  0
MTEXT
  5
293
330
28C
100
AcDbEntity
  8
DIMS
100
AcDbMText
 10
23.2093620115
 20
21.4564954894
 30
0.0
 40
0.5
 41
0.0
 71
     1
 72
     1
  1
120°
  7
SLDTEXTSTYLE1
 73
     1
 44
1.0
  0
ENDBLK
  5
28E
330
28C
100
AcDbEntity
  8
0
100
AcDbBlockEnd
  0
BLOCK
  5
296
330
295
100
AcDbEntity
  8
0
100
AcDbBlockBegin
  2
SW_NOTE_0_2
 70
     0
 10
0.0
 20
0.0
 30
0.0
  3
SW_NOTE_0_2
  1

  0
MTEXT
  5
298
330
295
100
AcDbEntity
  8
NOTES
 62
     0
100
AcDbMText
 10
0.0197272284
 20
0.2445904251
 30
0.0
 40
0.5
 41
0.0
 71
     1
 72
     1
  1
remove flange cover to 
  7
SLDTEXTSTYLE1
 73
     1
 44
1.0
  0
MTEXT
  5
299
330
295
100
AcDbEntity
  8
NOTES
 62
     0
100
AcDbMText
 10
0.0197272284
 20
-0.4019373728
 30
0.0
 40
0.5
 41
0.0
 71
     1
 72
     1
  1
access mounting holes
  7
SLDTEXTSTYLE1
 73
     1
 44
1.0
  0
ENDBLK
  5
297
330
295
100
AcDbEntity
  8
0
100
AcDbBlockEnd
  0
BLOCK
  5
2BC
330
2BB
100
AcDbEntity
  8
0
100
AcDbBlockBegin
  2
_D_4
 70
     0
 10
0.0
 20
0.0
 30
0.0
  3
_D_4
  1

  0
INSERT
  5
2BE
330
2BB
100
AcDbEntity
  8
DIMS
100
AcDbBlockReference
  2
_Open90
 10
52.3551068717
 20
21.0184831538
 30
9.75
 41
0.3
 42
0.3
 50
0.0
  0
INSERT
  5
2BF
330
2BB
100
AcDbEntity
  8
DIMS
100
AcDbBlockReference
  2
_Open90
 10
53.8251068717
 20
21.0184831538
 30
9.75
 41
0.3
 42
0.3
 50
180.0
  0
LINE
  5
2C0
330
2BB
100
AcDbEntity
  8
DIMS
100
AcDbLine
 10
49.6880582293
 20
21.0697678522
 30
0.0
 11
50.2040304787
 21
21.0697678522
 31
0.0
  0
LINE
  5
2C1
330
2BB
100
AcDbEntity
  8
DIMS
100
AcDbLine
 10
52.3551068717
 20
21.0184831538
 30
0.0
 11
50.4835444181
 21
21.0184831538
 31
0.0
  0
LINE
  5
2C2
330
2BB
100
AcDbEntity
  8
DIMS
100
AcDbLine
 10
53.8251068717
 20
21.0184831538
 30
0.0
 11
54.1251068717
 21
21.0184831538
 31
0.0
  0
MTEXT
  5
2C3
330
2BB
100
AcDbEntity
  8
DIMS
100
AcDbMText
 10
49.2453498818
 20
21.2991689126
 30
0.0
 40
0.5
 41
0.0
 71
     1
 72
     1
  1
1
  7
SLDTEXTSTYLE1
 73
     1
 44
1.0
  0
MTEXT
  5
2C4
330
2BB
100
AcDbEntity
  8
DIMS
100
AcDbMText
 10
49.7613221313
 20
21.6644814117
 30
0.0
 40
0.5
 41
0.0
 71
     1
 72
     1
  1
1
  7
SLDTEXTSTYLE1
 73
     1
 44
1.0
  0
MTEXT
  5
2C5
330
2BB
100
AcDbEntity
  8
DIMS
100
AcDbMText
 10
49.7613221313
 20
21.0033008331
 30
0.0
 40
0.5
 41
0.0
 71
     1
 72
     1
  1
2
  7
SLDTEXTSTYLE1
 73
     1
 44
1.0
  0
MTEXT
  5
2C6
330
2BB
100
AcDbEntity
  8
DIMS
100
AcDbMText
 10
50.2772943807
 20
21.2991689126
 30
0.0
 40
0.5
 41
0.0
 71
     1
 72
     1
  1
"
  7
SLDTEXTSTYLE1
 73
     1
 44
1.0
  0
ENDBLK
  5
2BD
330
2BB
100
AcDbEntity
  8
0
100
AcDbBlockEnd
  0
BLOCK
  5
2CA
330
2C9
100
AcDbEntity
  8
0
100
AcDbBlockBegin
  2
_D_5
 70
     0
 10
0.0
 20
0.0
 30
0.0
  3
_D_5
  1

  0
INSERT
  5
2CC
330
2C9
100
AcDbEntity
  8
DIMS
100
AcDbBlockReference
  2
_Open90
 10
53.8251068717
 20
21.0184831538
 30
9.75
 41
0.3
 42
0.3
 50
180.0
  0
INSERT
  5
2CD
330
2C9
100
AcDbEntity
  8
DIMS
100
AcDbBlockReference
  2
_Open90
 10
55.3251068717
 20
21.0184831538
 30
9.75
 41
0.3
 42
0.3
 50
0.0
  0
LINE
  5
2CE
330
2C9
100
AcDbEntity
  8
DIMS
100
AcDbLine
 10
56.8951245297
 20
21.0697678522
 30
0.0
 11
57.4110967791
 21
21.0697678522
 31
0.0
  0
LINE
  5
2CF
330
2C9
100
AcDbEntity
  8
DIMS
100
AcDbLine
 10
55.3251068717
 20
19.3169108819
 30
0.0
 11
55.3251068717
 21
21.3934831538
 31
0.0
  0
LINE
  5
2D0
330
2C9
100
AcDbEntity
  8
DIMS
100
AcDbLine
 10
53.8251068717
 20
21.0184831538
 30
0.0
 11
55.3251068717
 21
21.0184831538
 31
0.0
  0
LINE
  5
2D1
330
2C9
100
AcDbEntity
  8
DIMS
100
AcDbLine
 10
55.3251068717
 20
21.0184831538
 30
0.0
 11
56.4524161822
 21
21.0184831538
 31
0.0
  0
MTEXT
  5
2D2
330
2C9
100
AcDbEntity
  8
DIMS
100
AcDbMText
 10
56.4524161822
 20
21.2991689126
 30
0.0
 40
0.5
 41
0.0
 71
     1
 72
     1
  1
1
  7
SLDTEXTSTYLE1
 73
     1
 44
1.0
  0
MTEXT
  5
2D3
330
2C9
100
AcDbEntity
  8
DIMS
100
AcDbMText
 10
56.9683884317
 20
21.6644814117
 30
0.0
 40
0.5
 41
0.0
 71
     1
 72
     1
  1
1
  7
SLDTEXTSTYLE1
 73
     1
 44
1.0
  0
MTEXT
  5
2D4
330
2C9
100
AcDbEntity
  8
DIMS
100
AcDbMText
 10
56.9683884317
 20
21.0033008331
 30
0.0
 40
0.5
 41
0.0
 71
     1
 72
     1
  1
2
  7
SLDTEXTSTYLE1
 73
     1
 44
1.0
  0
MTEXT
  5
2D5
330
2C9
100
AcDbEntity
  8
DIMS
100
AcDbMText
 10
57.4843606811
 20
21.2991689126
 30
0.0
 40
0.5
 41
0.0
 71
     1
 72
     1
  1
"
  7
SLDTEXTSTYLE1
 73
     1
 44
1.0
  0
ENDBLK
  5
2CB
330
2C9
100
AcDbEntity
  8
0
100
AcDbBlockEnd
  0
BLOCK
  5
2FE
330
2FD
100
AcDbEntity
  8
0
100
AcDbBlockBegin
  2
SW_NOTE_0_3
 70
     0
 10
0.0
 20
0.0
 30
0.0
  3
SW_NOTE_0_3
  1

  0
MTEXT
  5
300
330
2FD
100
AcDbEntity
  8
NOTES
 62
     0
100
AcDbMText
 10
0.0
 20
0.638671875
 30
0.0
 40
0.5
 41
0.0
 71
     1
 72
     1
  1
3D view
  7
SLDTEXTSTYLE1
 73
     1
 44
1.0
  0
MTEXT
  5
301
330
2FD
100
AcDbEntity
  8
NOTES
 62
     0
100
AcDbMText
 10
0.0
 20
-0.3613281862
 30
0.0
 40
0.5
 41
0.0
 71
     1
 72
     1
  1
1002-NP 24x24
  7
SLDTEXTSTYLE1
 73
     1
 44
1.0
  0
ENDBLK
  5
2FF
330
2FD
100
AcDbEntity
  8
0
100
AcDbBlockEnd
  0
BLOCK
  5
328
330
327
100
AcDbEntity
  8
0
100
AcDbBlockBegin
  2
_Origin
 70
     0
 10
0.0
 20
0.0
 30
0.0
  3
_Origin
  1

  0
CIRCLE
  5
32A
330
327
100
AcDbEntity
  8
0
  6
ByBlock
 62
     0
370
    -2
100
AcDbCircle
 10
0.0
 20
0.0
 30
0.0
 40
0.5
  0
LINE
  5
32B
330
327
100
AcDbEntity
  8
0
  6
ByBlock
 62
     0
370
    -2
100
AcDbLine
 10
0.0
 20
0.0
 30
0.0
 11
-1.0
 21
0.0
 31
0.0
  0
ENDBLK
  5
329
330
327
100
AcDbEntity
  8
0
100
AcDbBlockEnd
  0
ENDSEC
  0
SECTION
  2
ENTITIES
  0
LINE
  5
7A
330
1F
100
AcDbEntity
  8
TITLE
370
    35
100
AcDbLine
 10
72.5182230965
 20
1.4876117645
 30
0.0
 11
89.4999864512
 21
1.4876117645
 31
0.0
  0
LINE
  5
7B
330
1F
100
AcDbEntity
  8
TITLE
370
    35
100
AcDbLine
 10
89.4999317442
 20
5.4753603936
 30
0.0
 11
79.3105350723
 21
5.4753603936
 31
0.0
  0
LINE
  5
7C
330
1F
100
AcDbEntity
  8
TITLE
  6
SLD-Solid
370
    18
100
AcDbLine
 10
0.5
 20
0.5
 30
0.0
 11
0.5
 21
119.5
 31
0.0
  0
LINE
  5
7D
330
1F
100
AcDbEntity
  8
TITLE
  6
SLD-Solid
370
    18
100
AcDbLine
 10
0.5
 20
119.5
 30
0.0
 11
89.5
 21
119.5
 31
0.0
  0
LINE
  5
7E
330
1F
100
AcDbEntity
  8
TITLE
370
    35
100
AcDbLine
 10
72.5182230965
 20
2.5427877231
 30
0.0
 11
65.5059791203
 21
2.5427877231
 31
0.0
  0
LINE
  5
7F
330
1F
100
AcDbEntity
  8
TITLE
370
    35
100
AcDbLine
 10
72.5182230965
 20
1.4876117645
 30
0.0
 11
65.5059791203
 21
1.4876117645
 31
0.0
  0
LINE
  5
80
330
1F
100
AcDbEntity
  8
TITLE
  6
SLD-Solid
370
    18
100
AcDbLine
 10
89.5
 20
119.5
 30
0.0
 11
89.5
 21
0.5
 31
0.0
  0
LINE
  5
81
330
1F
100
AcDbEntity
  8
TITLE
  6
SLD-Solid
370
    18
100
AcDbLine
 10
89.5
 20
0.5
 30
0.0
 11
0.5
 21
0.5
 31
0.0
  0
LINE
  5
82
330
1F
100
AcDbEntity
  8
TITLE
370
    35
100
AcDbLine
 10
72.5182230965
 20
1.4876117645
 30
0.0
 11
72.5182230965
 21
3.5979636817
 31
0.0
  0
LINE
  5
83
330
1F
100
AcDbEntity
  8
TITLE
370
    35
100
AcDbLine
 10
65.5059791203
 20
3.5979636817
 30
0.0
 11
65.5059791203
 21
0.5
 31
0.0
  0
LINE
  5
84
330
1F
100
AcDbEntity
  8
TITLE
370
    35
100
AcDbLine
 10
65.5059791203
 20
0.5
 30
0.0
 11
89.5
 21
0.5
 31
0.0
  0
LINE
  5
85
330
1F
100
AcDbEntity
  8
TITLE
370
    35
100
AcDbLine
 10
89.4999317442
 20
5.4753603936
 30
0.0
 11
89.5
 21
0.5
 31
0.0
  0
LINE
  5
86
330
1F
100
AcDbEntity
  8
TITLE
  6
SLD-Solid
370
    18
100
AcDbLine
 10
0.4999606299
 20
60.0
 30
0.0
 11
0.5000393701
 21
60.0
 31
0.0
  0
LINE
  5
87
330
1F
100
AcDbEntity
  8
TITLE
370
    35
100
AcDbLine
 10
72.5182230965
 20
3.5979636817
 30
0.0
 11
65.5059791203
 21
3.5979636817
 31
0.0
  0
LINE
  5
88
330
1F
100
AcDbEntity
  8
TITLE
370
    35
100
AcDbLine
 10
72.5182230965
 20
3.5979636817
 30
0.0
 11
89.4997615643
 21
3.5979648343
 31
0.0
  0
LINE
  5
89
330
1F
100
AcDbEntity
  8
TITLE
370
    35
100
AcDbLine
 10
79.3105350723
 20
5.4753603936
 30
0.0
 11
79.3105350723
 21
0.4636772425
 31
0.0
  0
LINE
  5
8A
330
1F
100
AcDbEntity
  8
TITLE
  6
SLD-Solid
370
    18
100
AcDbLine
 10
45.0
 20
119.5000393701
 30
0.0
 11
45.0
 21
119.4999606299
 31
0.0
  0
LINE
  5
8B
330
1F
100
AcDbEntity
  8
TITLE
  6
SLD-Solid
370
    18
100
AcDbLine
 10
89.5000393701
 20
60.0
 30
0.0
 11
89.4999606299
 21
60.0
 31
0.0
  0
LINE
  5
8C
330
1F
100
AcDbEntity
  8
TITLE
  6
SLD-Solid
370
    18
100
AcDbLine
 10
45.0
 20
0.4999606299
 30
0.0
 11
45.0
 21
0.5000393701
 31
0.0
  0
LINE
  5
8D
330
1F
100
AcDbEntity
  8
TITLE
  6
SLD-Solid
370
    18
100
AcDbLine
 10
0.5
 20
2.9133858268
 30
0.0
 11
0.1653543307
 21
2.9133858268
 31
0.0
  0
LINE
  5
8E
330
1F
100
AcDbEntity
  8
TITLE
  6
SLD-Solid
370
    18
100
AcDbLine
 10
89.5
 20
2.9133858268
 30
0.0
 11
89.8346456693
 21
2.9133858268
 31
0.0
  0
LINE
  5
8F
330
1F
100
AcDbEntity
  8
TITLE
  6
SLD-Solid
370
    18
100
AcDbLine
 10
0.5
 20
4.8818897638
 30
0.0
 11
0.1653543307
 21
4.8818897638
 31
0.0
  0
LINE
  5
90
330
1F
100
AcDbEntity
  8
TITLE
  6
SLD-Solid
370
    18
100
AcDbLine
 10
89.5
 20
4.8818897638
 30
0.0
 11
89.8346456693
 21
4.8818897638
 31
0.0
  0
LINE
  5
91
330
1F
100
AcDbEntity
  8
TITLE
  6
SLD-Solid
370
    18
100
AcDbLine
 10
0.5
 20
6.8503937008
 30
0.0
 11
0.1653543307
 21
6.8503937008
 31
0.0
  0
LINE
  5
92
330
1F
100
AcDbEntity
  8
TITLE
  6
SLD-Solid
370
    18
100
AcDbLine
 10
89.5
 20
6.8503937008
 30
0.0
 11
89.8346456693
 21
6.8503937008
 31
0.0
  0
LINE
  5
93
330
1F
100
AcDbEntity
  8
TITLE
  6
SLD-Solid
370
    18
100
AcDbLine
 10
0.5
 20
8.8188976378
 30
0.0
 11
0.1653543307
 21
8.8188976378
 31
0.0
  0
LINE
  5
94
330
1F
100
AcDbEntity
  8
TITLE
  6
SLD-Solid
370
    18
100
AcDbLine
 10
89.5
 20
8.8188976378
 30
0.0
 11
89.8346456693
 21
8.8188976378
 31
0.0
  0
LINE
  5
95
330
1F
100
AcDbEntity
  8
TITLE
  6
SLD-Solid
370
    18
100
AcDbLine
 10
0.5
 20
10.7874015748
 30
0.0
 11
0.1653543307
 21
10.7874015748
 31
0.0
  0
LINE
  5
96
330
1F
100
AcDbEntity
  8
TITLE
  6
SLD-Solid
370
    18
100
AcDbLine
 10
89.5
 20
10.7874015748
 30
0.0
 11
89.8346456693
 21
10.7874015748
 31
0.0
  0
LINE
  5
97
330
1F
100
AcDbEntity
  8
TITLE
  6
SLD-Solid
370
    18
100
AcDbLine
 10
0.5
 20
12.7559055118
 30
0.0
 11
0.1653543307
 21
12.7559055118
 31
0.0
  0
LINE
  5
98
330
1F
100
AcDbEntity
  8
TITLE
  6
SLD-Solid
370
    18
100
AcDbLine
 10
89.5
 20
12.7559055118
 30
0.0
 11
89.8346456693
 21
12.7559055118
 31
0.0
  0
LINE
  5
99
330
1F
100
AcDbEntity
  8
TITLE
  6
SLD-Solid
370
    18
100
AcDbLine
 10
0.5
 20
14.7244094488
 30
0.0
 11
0.1653543307
 21
14.7244094488
 31
0.0
  0
LINE
  5
9A
330
1F
100
AcDbEntity
  8
TITLE
  6
SLD-Solid
370
    18
100
AcDbLine
 10
89.5
 20
14.7244094488
 30
0.0
 11
89.8346456693
 21
14.7244094488
 31
0.0
  0
LINE
  5
9B
330
1F
100
AcDbEntity
  8
TITLE
  6
SLD-Solid
370
    18
100
AcDbLine
 10
0.5
 20
16.6929133858
 30
0.0
 11
0.1653543307
 21
16.6929133858
 31
0.0
  0
LINE
  5
9C
330
1F
100
AcDbEntity
  8
TITLE
  6
SLD-Solid
370
    18
100
AcDbLine
 10
89.5
 20
16.6929133858
 30
0.0
 11
89.8346456693
 21
16.6929133858
 31
0.0
  0
LINE
  5
9D
330
1F
100
AcDbEntity
  8
TITLE
  6
SLD-Solid
370
    18
100
AcDbLine
 10
0.5
 20
18.6614173228
 30
0.0
 11
0.1653543307
 21
18.6614173228
 31
0.0
  0
LINE
  5
9E
330
1F
100
AcDbEntity
  8
TITLE
  6
SLD-Solid
370
    18
100
AcDbLine
 10
89.5
 20
18.6614173228
 30
0.0
 11
89.8346456693
 21
18.6614173228
 31
0.0
  0
LINE
  5
9F
330
1F
100
AcDbEntity
  8
TITLE
  6
SLD-Solid
370
    18
100
AcDbLine
 10
0.5
 20
20.6299212598
 30
0.0
 11
0.1653543307
 21
20.6299212598
 31
0.0
  0
LINE
  5
A0
330
1F
100
AcDbEntity
  8
TITLE
  6
SLD-Solid
370
    18
100
AcDbLine
 10
89.5
 20
20.6299212598
 30
0.0
 11
89.8346456693
 21
20.6299212598
 31
0.0
  0
LINE
  5
A1
330
1F
100
AcDbEntity
  8
TITLE
  6
SLD-Solid
370
    18
100
AcDbLine
 10
0.5
 20
22.5984251969
 30
0.0
 11
0.1653543307
 21
22.5984251969
 31
0.0
  0
LINE
  5
A2
330
1F
100
AcDbEntity
  8
TITLE
  6
SLD-Solid
370
    18
100
AcDbLine
 10
89.5
 20
22.5984251969
 30
0.0
 11
89.8346456693
 21
22.5984251969
 31
0.0
  0
LINE
  5
A3
330
1F
100
AcDbEntity
  8
TITLE
  6
SLD-Solid
370
    18
100
AcDbLine
 10
0.5
 20
24.5669291339
 30
0.0
 11
0.1653543307
 21
24.5669291339
 31
0.0
  0
LINE
  5
A4
330
1F
100
AcDbEntity
  8
TITLE
  6
SLD-Solid
370
    18
100
AcDbLine
 10
89.5
 20
24.5669291339
 30
0.0
 11
89.8346456693
 21
24.5669291339
 31
0.0
  0
LINE
  5
A5
330
1F
100
AcDbEntity
  8
TITLE
  6
SLD-Solid
370
    18
100
AcDbLine
 10
0.5
 20
26.5354330709
 30
0.0
 11
0.1653543307
 21
26.5354330709
 31
0.0
  0
LINE
  5
A6
330
1F
100
AcDbEntity
  8
TITLE
  6
SLD-Solid
370
    18
100
AcDbLine
 10
89.5
 20
26.5354330709
 30
0.0
 11
89.8346456693
 21
26.5354330709
 31
0.0
  0
LINE
  5
A7
330
1F
100
AcDbEntity
  8
TITLE
  6
SLD-Solid
370
    18
100
AcDbLine
 10
0.5
 20
28.5039370079
 30
0.0
 11
0.1653543307
 21
28.5039370079
 31
0.0
  0
LINE
  5
A8
330
1F
100
AcDbEntity
  8
TITLE
  6
SLD-Solid
370
    18
100
AcDbLine
 10
89.5
 20
28.5039370079
 30
0.0
 11
89.8346456693
 21
28.5039370079
 31
0.0
  0
LINE
  5
A9
330
1F
100
AcDbEntity
  8
TITLE
  6
SLD-Solid
370
    18
100
AcDbLine
 10
0.5
 20
30.4724409449
 30
0.0
 11
0.1653543307
 21
30.4724409449
 31
0.0
  0
LINE
  5
AA
330
1F
100
AcDbEntity
  8
TITLE
  6
SLD-Solid
370
    18
100
AcDbLine
 10
89.5
 20
30.4724409449
 30
0.0
 11
89.8346456693
 21
30.4724409449
 31
0.0
  0
LINE
  5
AB
330
1F
100
AcDbEntity
  8
TITLE
  6
SLD-Solid
370
    18
100
AcDbLine
 10
0.5
 20
32.4409448819
 30
0.0
 11
0.1653543307
 21
32.4409448819
 31
0.0
  0
LINE
  5
AC
330
1F
100
AcDbEntity
  8
TITLE
  6
SLD-Solid
370
    18
100
AcDbLine
 10
89.5
 20
32.4409448819
 30
0.0
 11
89.8346456693
 21
32.4409448819
 31
0.0
  0
LINE
  5
AD
330
1F
100
AcDbEntity
  8
TITLE
  6
SLD-Solid
370
    18
100
AcDbLine
 10
0.5
 20
34.4094488189
 30
0.0
 11
0.1653543307
 21
34.4094488189
 31
0.0
  0
LINE
  5
AE
330
1F
100
AcDbEntity
  8
TITLE
  6
SLD-Solid
370
    18
100
AcDbLine
 10
89.5
 20
34.4094488189
 30
0.0
 11
89.8346456693
 21
34.4094488189
 31
0.0
  0
LINE
  5
AF
330
1F
100
AcDbEntity
  8
TITLE
  6
SLD-Solid
370
    18
100
AcDbLine
 10
0.5
 20
36.3779527559
 30
0.0
 11
0.1653543307
 21
36.3779527559
 31
0.0
  0
LINE
  5
B0
330
1F
100
AcDbEntity
  8
TITLE
  6
SLD-Solid
370
    18
100
AcDbLine
 10
89.5
 20
36.3779527559
 30
0.0
 11
89.8346456693
 21
36.3779527559
 31
0.0
  0
LINE
  5
B1
330
1F
100
AcDbEntity
  8
TITLE
  6
SLD-Solid
370
    18
100
AcDbLine
 10
0.5
 20
38.3464566929
 30
0.0
 11
0.1653543307
 21
38.3464566929
 31
0.0
  0
LINE
  5
B2
330
1F
100
AcDbEntity
  8
TITLE
  6
SLD-Solid
370
    18
100
AcDbLine
 10
89.5
 20
38.3464566929
 30
0.0
 11
89.8346456693
 21
38.3464566929
 31
0.0
  0
LINE
  5
B3
330
1F
100
AcDbEntity
  8
TITLE
  6
SLD-Solid
370
    18
100
AcDbLine
 10
0.5
 20
40.3149606299
 30
0.0
 11
0.1653543307
 21
40.3149606299
 31
0.0
  0
LINE
  5
B4
330
1F
100
AcDbEntity
  8
TITLE
  6
SLD-Solid
370
    18
100
AcDbLine
 10
89.5
 20
40.3149606299
 30
0.0
 11
89.8346456693
 21
40.3149606299
 31
0.0
  0
LINE
  5
B5
330
1F
100
AcDbEntity
  8
TITLE
  6
SLD-Solid
370
    18
100
AcDbLine
 10
0.5
 20
42.2834645669
 30
0.0
 11
0.1653543307
 21
42.2834645669
 31
0.0
  0
LINE
  5
B6
330
1F
100
AcDbEntity
  8
TITLE
  6
SLD-Solid
370
    18
100
AcDbLine
 10
89.5
 20
42.2834645669
 30
0.0
 11
89.8346456693
 21
42.2834645669
 31
0.0
  0
LINE
  5
B7
330
1F
100
AcDbEntity
  8
TITLE
  6
SLD-Solid
370
    18
100
AcDbLine
 10
0.5
 20
44.2519685039
 30
0.0
 11
0.1653543307
 21
44.2519685039
 31
0.0
  0
LINE
  5
B8
330
1F
100
AcDbEntity
  8
TITLE
  6
SLD-Solid
370
    18
100
AcDbLine
 10
89.5
 20
44.2519685039
 30
0.0
 11
89.8346456693
 21
44.2519685039
 31
0.0
  0
LINE
  5
B9
330
1F
100
AcDbEntity
  8
TITLE
  6
SLD-Solid
370
    18
100
AcDbLine
 10
0.5
 20
46.2204724409
 30
0.0
 11
0.1653543307
 21
46.2204724409
 31
0.0
  0
LINE
  5
BA
330
1F
100
AcDbEntity
  8
TITLE
  6
SLD-Solid
370
    18
100
AcDbLine
 10
89.5
 20
46.2204724409
 30
0.0
 11
89.8346456693
 21
46.2204724409
 31
0.0
  0
LINE
  5
BB
330
1F
100
AcDbEntity
  8
TITLE
  6
SLD-Solid
370
    18
100
AcDbLine
 10
0.5
 20
48.188976378
 30
0.0
 11
0.1653543307
 21
48.188976378
 31
0.0
  0
LINE
  5
BC
330
1F
100
AcDbEntity
  8
TITLE
  6
SLD-Solid
370
    18
100
AcDbLine
 10
89.5
 20
48.188976378
 30
0.0
 11
89.8346456693
 21
48.188976378
 31
0.0
  0
LINE
  5
BD
330
1F
100
AcDbEntity
  8
TITLE
  6
SLD-Solid
370
    18
100
AcDbLine
 10
0.5
 20
50.157480315
 30
0.0
 11
0.1653543307
 21
50.157480315
 31
0.0
  0
LINE
  5
BE
330
1F
100
AcDbEntity
  8
TITLE
  6
SLD-Solid
370
    18
100
AcDbLine
 10
89.5
 20
50.157480315
 30
0.0
 11
89.8346456693
 21
50.157480315
 31
0.0
  0
LINE
  5
BF
330
1F
100
AcDbEntity
  8
TITLE
  6
SLD-Solid
370
    18
100
AcDbLine
 10
0.5
 20
52.125984252
 30
0.0
 11
0.1653543307
 21
52.125984252
 31
0.0
  0
LINE
  5
C0
330
1F
100
AcDbEntity
  8
TITLE
  6
SLD-Solid
370
    18
100
AcDbLine
 10
89.5
 20
52.125984252
 30
0.0
 11
89.8346456693
 21
52.125984252
 31
0.0
  0
LINE
  5
C1
330
1F
100
AcDbEntity
  8
TITLE
  6
SLD-Solid
370
    18
100
AcDbLine
 10
0.5
 20
54.094488189
 30
0.0
 11
0.1653543307
 21
54.094488189
 31
0.0
  0
LINE
  5
C2
330
1F
100
AcDbEntity
  8
TITLE
  6
SLD-Solid
370
    18
100
AcDbLine
 10
89.5
 20
54.094488189
 30
0.0
 11
89.8346456693
 21
54.094488189
 31
0.0
  0
LINE
  5
C3
330
1F
100
AcDbEntity
  8
TITLE
  6
SLD-Solid
370
    18
100
AcDbLine
 10
0.5
 20
56.062992126
 30
0.0
 11
0.1653543307
 21
56.062992126
 31
0.0
  0
LINE
  5
C4
330
1F
100
AcDbEntity
  8
TITLE
  6
SLD-Solid
370
    18
100
AcDbLine
 10
89.5
 20
56.062992126
 30
0.0
 11
89.8346456693
 21
56.062992126
 31
0.0
  0
LINE
  5
C5
330
1F
100
AcDbEntity
  8
TITLE
  6
SLD-Solid
370
    18
100
AcDbLine
 10
0.5
 20
58.031496063
 30
0.0
 11
0.1653543307
 21
58.031496063
 31
0.0
  0
LINE
  5
C6
330
1F
100
AcDbEntity
  8
TITLE
  6
SLD-Solid
370
    18
100
AcDbLine
 10
89.5
 20
58.031496063
 30
0.0
 11
89.8346456693
 21
58.031496063
 31
0.0
  0
LINE
  5
C7
330
1F
100
AcDbEntity
  8
TITLE
  6
SLD-Solid
370
    18
100
AcDbLine
 10
0.5
 20
60.0
 30
0.0
 11
0.1653543307
 21
60.0
 31
0.0
  0
LINE
  5
C8
330
1F
100
AcDbEntity
  8
TITLE
  6
SLD-Solid
370
    18
100
AcDbLine
 10
89.5
 20
60.0
 30
0.0
 11
89.8346456693
 21
60.0
 31
0.0
  0
LINE
  5
C9
330
1F
100
AcDbEntity
  8
TITLE
  6
SLD-Solid
370
    18
100
AcDbLine
 10
0.5
 20
61.968503937
 30
0.0
 11
0.1653543307
 21
61.968503937
 31
0.0
  0
LINE
  5
CA
330
1F
100
AcDbEntity
  8
TITLE
  6
SLD-Solid
370
    18
100
AcDbLine
 10
89.5
 20
61.968503937
 30
0.0
 11
89.8346456693
 21
61.968503937
 31
0.0
  0
LINE
  5
CB
330
1F
100
AcDbEntity
  8
TITLE
  6
SLD-Solid
370
    18
100
AcDbLine
 10
0.5
 20
63.937007874
 30
0.0
 11
0.1653543307
 21
63.937007874
 31
0.0
  0
LINE
  5
CC
330
1F
100
AcDbEntity
  8
TITLE
  6
SLD-Solid
370
    18
100
AcDbLine
 10
89.5
 20
63.937007874
 30
0.0
 11
89.8346456693
 21
63.937007874
 31
0.0
  0
LINE
  5
CD
330
1F
100
AcDbEntity
  8
TITLE
  6
SLD-Solid
370
    18
100
AcDbLine
 10
0.5
 20
65.905511811
 30
0.0
 11
0.1653543307
 21
65.905511811
 31
0.0
  0
LINE
  5
CE
330
1F
100
AcDbEntity
  8
TITLE
  6
SLD-Solid
370
    18
100
AcDbLine
 10
89.5
 20
65.905511811
 30
0.0
 11
89.8346456693
 21
65.905511811
 31
0.0
  0
LINE
  5
CF
330
1F
100
AcDbEntity
  8
TITLE
  6
SLD-Solid
370
    18
100
AcDbLine
 10
0.5
 20
67.874015748
 30
0.0
 11
0.1653543307
 21
67.874015748
 31
0.0
  0
LINE
  5
D0
330
1F
100
AcDbEntity
  8
TITLE
  6
SLD-Solid
370
    18
100
AcDbLine
 10
89.5
 20
67.874015748
 30
0.0
 11
89.8346456693
 21
67.874015748
 31
0.0
  0
LINE
  5
D1
330
1F
100
AcDbEntity
  8
TITLE
  6
SLD-Solid
370
    18
100
AcDbLine
 10
0.5
 20
69.842519685
 30
0.0
 11
0.1653543307
 21
69.842519685
 31
0.0
  0
LINE
  5
D2
330
1F
100
AcDbEntity
  8
TITLE
  6
SLD-Solid
370
    18
100
AcDbLine
 10
89.5
 20
69.842519685
 30
0.0
 11
89.8346456693
 21
69.842519685
 31
0.0
  0
LINE
  5
D3
330
1F
100
AcDbEntity
  8
TITLE
  6
SLD-Solid
370
    18
100
AcDbLine
 10
0.5
 20
71.811023622
 30
0.0
 11
0.1653543307
 21
71.811023622
 31
0.0
  0
LINE
  5
D4
330
1F
100
AcDbEntity
  8
TITLE
  6
SLD-Solid
370
    18
100
AcDbLine
 10
89.5
 20
71.811023622
 30
0.0
 11
89.8346456693
 21
71.811023622
 31
0.0
  0
LINE
  5
D5
330
1F
100
AcDbEntity
  8
TITLE
  6
SLD-Solid
370
    18
100
AcDbLine
 10
0.5
 20
73.7795275591
 30
0.0
 11
0.1653543307
 21
73.7795275591
 31
0.0
  0
LINE
  5
D6
330
1F
100
AcDbEntity
  8
TITLE
  6
SLD-Solid
370
    18
100
AcDbLine
 10
89.5
 20
73.7795275591
 30
0.0
 11
89.8346456693
 21
73.7795275591
 31
0.0
  0
LINE
  5
D7
330
1F
100
AcDbEntity
  8
TITLE
  6
SLD-Solid
370
    18
100
AcDbLine
 10
0.5
 20
75.7480314961
 30
0.0
 11
0.1653543307
 21
75.7480314961
 31
0.0
  0
LINE
  5
D8
330
1F
100
AcDbEntity
  8
TITLE
  6
SLD-Solid
370
    18
100
AcDbLine
 10
89.5
 20
75.7480314961
 30
0.0
 11
89.8346456693
 21
75.7480314961
 31
0.0
  0
LINE
  5
D9
330
1F
100
AcDbEntity
  8
TITLE
  6
SLD-Solid
370
    18
100
AcDbLine
 10
0.5
 20
77.7165354331
 30
0.0
 11
0.1653543307
 21
77.7165354331
 31
0.0
  0
LINE
  5
DA
330
1F
100
AcDbEntity
  8
TITLE
  6
SLD-Solid
370
    18
100
AcDbLine
 10
89.5
 20
77.7165354331
 30
0.0
 11
89.8346456693
 21
77.7165354331
 31
0.0
  0
LINE
  5
DB
330
1F
100
AcDbEntity
  8
TITLE
  6
SLD-Solid
370
    18
100
AcDbLine
 10
0.5
 20
79.6850393701
 30
0.0
 11
0.1653543307
 21
79.6850393701
 31
0.0
  0
LINE
  5
DC
330
1F
100
AcDbEntity
  8
TITLE
  6
SLD-Solid
370
    18
100
AcDbLine
 10
89.5
 20
79.6850393701
 30
0.0
 11
89.8346456693
 21
79.6850393701
 31
0.0
  0
LINE
  5
DD
330
1F
100
AcDbEntity
  8
TITLE
  6
SLD-Solid
370
    18
100
AcDbLine
 10
0.5
 20
81.6535433071
 30
0.0
 11
0.1653543307
 21
81.6535433071
 31
0.0
  0
LINE
  5
DE
330
1F
100
AcDbEntity
  8
TITLE
  6
SLD-Solid
370
    18
100
AcDbLine
 10
89.5
 20
81.6535433071
 30
0.0
 11
89.8346456693
 21
81.6535433071
 31
0.0
  0
LINE
  5
DF
330
1F
100
AcDbEntity
  8
TITLE
  6
SLD-Solid
370
    18
100
AcDbLine
 10
0.5
 20
83.6220472441
 30
0.0
 11
0.1653543307
 21
83.6220472441
 31
0.0
  0
LINE
  5
E0
330
1F
100
AcDbEntity
  8
TITLE
  6
SLD-Solid
370
    18
100
AcDbLine
 10
89.5
 20
83.6220472441
 30
0.0
 11
89.8346456693
 21
83.6220472441
 31
0.0
  0
LINE
  5
E1
330
1F
100
AcDbEntity
  8
TITLE
  6
SLD-Solid
370
    18
100
AcDbLine
 10
0.5
 20
85.5905511811
 30
0.0
 11
0.1653543307
 21
85.5905511811
 31
0.0
  0
LINE
  5
E2
330
1F
100
AcDbEntity
  8
TITLE
  6
SLD-Solid
370
    18
100
AcDbLine
 10
89.5
 20
85.5905511811
 30
0.0
 11
89.8346456693
 21
85.5905511811
 31
0.0
  0
LINE
  5
E3
330
1F
100
AcDbEntity
  8
TITLE
  6
SLD-Solid
370
    18
100
AcDbLine
 10
0.5
 20
87.5590551181
 30
0.0
 11
0.1653543307
 21
87.5590551181
 31
0.0
  0
LINE
  5
E4
330
1F
100
AcDbEntity
  8
TITLE
  6
SLD-Solid
370
    18
100
AcDbLine
 10
89.5
 20
87.5590551181
 30
0.0
 11
89.8346456693
 21
87.5590551181
 31
0.0
  0
LINE
  5
E5
330
1F
100
AcDbEntity
  8
TITLE
  6
SLD-Solid
370
    18
100
AcDbLine
 10
0.5
 20
89.5275590551
 30
0.0
 11
0.1653543307
 21
89.5275590551
 31
0.0
  0
LINE
  5
E6
330
1F
100
AcDbEntity
  8
TITLE
  6
SLD-Solid
370
    18
100
AcDbLine
 10
89.5
 20
89.5275590551
 30
0.0
 11
89.8346456693
 21
89.5275590551
 31
0.0
  0
LINE
  5
E7
330
1F
100
AcDbEntity
  8
TITLE
  6
SLD-Solid
370
    18
100
AcDbLine
 10
0.5
 20
91.4960629921
 30
0.0
 11
0.1653543307
 21
91.4960629921
 31
0.0
  0
LINE
  5
E8
330
1F
100
AcDbEntity
  8
TITLE
  6
SLD-Solid
370
    18
100
AcDbLine
 10
89.5
 20
91.4960629921
 30
0.0
 11
89.8346456693
 21
91.4960629921
 31
0.0
  0
LINE
  5
E9
330
1F
100
AcDbEntity
  8
TITLE
  6
SLD-Solid
370
    18
100
AcDbLine
 10
0.5
 20
93.4645669291
 30
0.0
 11
0.1653543307
 21
93.4645669291
 31
0.0
  0
LINE
  5
EA
330
1F
100
AcDbEntity
  8
TITLE
  6
SLD-Solid
370
    18
100
AcDbLine
 10
89.5
 20
93.4645669291
 30
0.0
 11
89.8346456693
 21
93.4645669291
 31
0.0
  0
LINE
  5
EB
330
1F
100
AcDbEntity
  8
TITLE
  6
SLD-Solid
370
    18
100
AcDbLine
 10
0.5
 20
95.4330708661
 30
0.0
 11
0.1653543307
 21
95.4330708661
 31
0.0
  0
LINE
  5
EC
330
1F
100
AcDbEntity
  8
TITLE
  6
SLD-Solid
370
    18
100
AcDbLine
 10
89.5
 20
95.4330708661
 30
0.0
 11
89.8346456693
 21
95.4330708661
 31
0.0
  0
LINE
  5
ED
330
1F
100
AcDbEntity
  8
TITLE
  6
SLD-Solid
370
    18
100
AcDbLine
 10
0.5
 20
97.4015748031
 30
0.0
 11
0.1653543307
 21
97.4015748031
 31
0.0
  0
LINE
  5
EE
330
1F
100
AcDbEntity
  8
TITLE
  6
SLD-Solid
370
    18
100
AcDbLine
 10
89.5
 20
97.4015748031
 30
0.0
 11
89.8346456693
 21
97.4015748031
 31
0.0
  0
LINE
  5
EF
330
1F
100
AcDbEntity
  8
TITLE
  6
SLD-Solid
370
    18
100
AcDbLine
 10
0.5
 20
99.3700787402
 30
0.0
 11
0.1653543307
 21
99.3700787402
 31
0.0
  0
LINE
  5
F0
330
1F
100
AcDbEntity
  8
TITLE
  6
SLD-Solid
370
    18
100
AcDbLine
 10
89.5
 20
99.3700787402
 30
0.0
 11
89.8346456693
 21
99.3700787402
 31
0.0
  0
LINE
  5
F1
330
1F
100
AcDbEntity
  8
TITLE
  6
SLD-Solid
370
    18
100
AcDbLine
 10
0.5
 20
101.3385826772
 30
0.0
 11
0.1653543307
 21
101.3385826772
 31
0.0
  0
LINE
  5
F2
330
1F
100
AcDbEntity
  8
TITLE
  6
SLD-Solid
370
    18
100
AcDbLine
 10
89.5
 20
101.3385826772
 30
0.0
 11
89.8346456693
 21
101.3385826772
 31
0.0
  0
LINE
  5
F3
330
1F
100
AcDbEntity
  8
TITLE
  6
SLD-Solid
370
    18
100
AcDbLine
 10
0.5
 20
103.3070866142
 30
0.0
 11
0.1653543307
 21
103.3070866142
 31
0.0
  0
LINE
  5
F4
330
1F
100
AcDbEntity
  8
TITLE
  6
SLD-Solid
370
    18
100
AcDbLine
 10
89.5
 20
103.3070866142
 30
0.0
 11
89.8346456693
 21
103.3070866142
 31
0.0
  0
LINE
  5
F5
330
1F
100
AcDbEntity
  8
TITLE
  6
SLD-Solid
370
    18
100
AcDbLine
 10
0.5
 20
105.2755905512
 30
0.0
 11
0.1653543307
 21
105.2755905512
 31
0.0
  0
LINE
  5
F6
330
1F
100
AcDbEntity
  8
TITLE
  6
SLD-Solid
370
    18
100
AcDbLine
 10
89.5
 20
105.2755905512
 30
0.0
 11
89.8346456693
 21
105.2755905512
 31
0.0
  0
LINE
  5
F7
330
1F
100
AcDbEntity
  8
TITLE
  6
SLD-Solid
370
    18
100
AcDbLine
 10
0.5
 20
107.2440944882
 30
0.0
 11
0.1653543307
 21
107.2440944882
 31
0.0
  0
LINE
  5
F8
330
1F
100
AcDbEntity
  8
TITLE
  6
SLD-Solid
370
    18
100
AcDbLine
 10
89.5
 20
107.2440944882
 30
0.0
 11
89.8346456693
 21
107.2440944882
 31
0.0
  0
LINE
  5
F9
330
1F
100
AcDbEntity
  8
TITLE
  6
SLD-Solid
370
    18
100
AcDbLine
 10
0.5
 20
109.2125984252
 30
0.0
 11
0.1653543307
 21
109.2125984252
 31
0.0
  0
LINE
  5
FA
330
1F
100
AcDbEntity
  8
TITLE
  6
SLD-Solid
370
    18
100
AcDbLine
 10
89.5
 20
109.2125984252
 30
0.0
 11
89.8346456693
 21
109.2125984252
 31
0.0
  0
LINE
  5
FB
330
1F
100
AcDbEntity
  8
TITLE
  6
SLD-Solid
370
    18
100
AcDbLine
 10
0.5
 20
111.1811023622
 30
0.0
 11
0.1653543307
 21
111.1811023622
 31
0.0
  0
LINE
  5
FC
330
1F
100
AcDbEntity
  8
TITLE
  6
SLD-Solid
370
    18
100
AcDbLine
 10
89.5
 20
111.1811023622
 30
0.0
 11
89.8346456693
 21
111.1811023622
 31
0.0
  0
LINE
  5
FD
330
1F
100
AcDbEntity
  8
TITLE
  6
SLD-Solid
370
    18
100
AcDbLine
 10
0.5
 20
113.1496062992
 30
0.0
 11
0.1653543307
 21
113.1496062992
 31
0.0
  0
LINE
  5
FE
330
1F
100
AcDbEntity
  8
TITLE
  6
SLD-Solid
370
    18
100
AcDbLine
 10
89.5
 20
113.1496062992
 30
0.0
 11
89.8346456693
 21
113.1496062992
 31
0.0
  0
LINE
  5
FF
330
1F
100
AcDbEntity
  8
TITLE
  6
SLD-Solid
370
    18
100
AcDbLine
 10
0.5
 20
115.1181102362
 30
0.0
 11
0.1653543307
 21
115.1181102362
 31
0.0
  0
LINE
  5
100
330
1F
100
AcDbEntity
  8
TITLE
  6
SLD-Solid
370
    18
100
AcDbLine
 10
89.5
 20
115.1181102362
 30
0.0
 11
89.8346456693
 21
115.1181102362
 31
0.0
  0
LINE
  5
101
330
1F
100
AcDbEntity
  8
TITLE
  6
SLD-Solid
370
    18
100
AcDbLine
 10
0.5
 20
117.0866141732
 30
0.0
 11
0.1653543307
 21
117.0866141732
 31
0.0
  0
LINE
  5
102
330
1F
100
AcDbEntity
  8
TITLE
  6
SLD-Solid
370
    18
100
AcDbLine
 10
89.5
 20
117.0866141732
 30
0.0
 11
89.8346456693
 21
117.0866141732
 31
0.0
  0
LINE
  5
103
330
1F
100
AcDbEntity
  8
TITLE
  6
SLD-Solid
370
    18
100
AcDbLine
 10
1.6929133858
 20
119.5
 30
0.0
 11
1.6929133858
 21
119.8346456693
 31
0.0
  0
LINE
  5
104
330
1F
100
AcDbEntity
  8
TITLE
  6
SLD-Solid
370
    18
100
AcDbLine
 10
1.6929133858
 20
0.5
 30
0.0
 11
1.6929133858
 21
0.1653543307
 31
0.0
  0
LINE
  5
105
330
1F
100
AcDbEntity
  8
TITLE
  6
SLD-Solid
370
    18
100
AcDbLine
 10
3.6614173228
 20
119.5
 30
0.0
 11
3.6614173228
 21
119.8346456693
 31
0.0
  0
LINE
  5
106
330
1F
100
AcDbEntity
  8
TITLE
  6
SLD-Solid
370
    18
100
AcDbLine
 10
3.6614173228
 20
0.5
 30
0.0
 11
3.6614173228
 21
0.1653543307
 31
0.0
  0
LINE
  5
107
330
1F
100
AcDbEntity
  8
TITLE
  6
SLD-Solid
370
    18
100
AcDbLine
 10
5.6299212598
 20
119.5
 30
0.0
 11
5.6299212598
 21
119.8346456693
 31
0.0
  0
LINE
  5
108
330
1F
100
AcDbEntity
  8
TITLE
  6
SLD-Solid
370
    18
100
AcDbLine
 10
5.6299212598
 20
0.5
 30
0.0
 11
5.6299212598
 21
0.1653543307
 31
0.0
  0
LINE
  5
109
330
1F
100
AcDbEntity
  8
TITLE
  6
SLD-Solid
370
    18
100
AcDbLine
 10
7.5984251969
 20
119.5
 30
0.0
 11
7.5984251969
 21
119.8346456693
 31
0.0
  0
LINE
  5
10A
330
1F
100
AcDbEntity
  8
TITLE
  6
SLD-Solid
370
    18
100
AcDbLine
 10
7.5984251969
 20
0.5
 30
0.0
 11
7.5984251969
 21
0.1653543307
 31
0.0
  0
LINE
  5
10B
330
1F
100
AcDbEntity
  8
TITLE
  6
SLD-Solid
370
    18
100
AcDbLine
 10
9.5669291339
 20
119.5
 30
0.0
 11
9.5669291339
 21
119.8346456693
 31
0.0
  0
LINE
  5
10C
330
1F
100
AcDbEntity
  8
TITLE
  6
SLD-Solid
370
    18
100
AcDbLine
 10
9.5669291339
 20
0.5
 30
0.0
 11
9.5669291339
 21
0.1653543307
 31
0.0
  0
LINE
  5
10D
330
1F
100
AcDbEntity
  8
TITLE
  6
SLD-Solid
370
    18
100
AcDbLine
 10
11.5354330709
 20
119.5
 30
0.0
 11
11.5354330709
 21
119.8346456693
 31
0.0
  0
LINE
  5
10E
330
1F
100
AcDbEntity
  8
TITLE
  6
SLD-Solid
370
    18
100
AcDbLine
 10
11.5354330709
 20
0.5
 30
0.0
 11
11.5354330709
 21
0.1653543307
 31
0.0
  0
LINE
  5
10F
330
1F
100
AcDbEntity
  8
TITLE
  6
SLD-Solid
370
    18
100
AcDbLine
 10
13.5039370079
 20
119.5
 30
0.0
 11
13.5039370079
 21
119.8346456693
 31
0.0
  0
LINE
  5
110
330
1F
100
AcDbEntity
  8
TITLE
  6
SLD-Solid
370
    18
100
AcDbLine
 10
13.5039370079
 20
0.5
 30
0.0
 11
13.5039370079
 21
0.1653543307
 31
0.0
  0
LINE
  5
111
330
1F
100
AcDbEntity
  8
TITLE
  6
SLD-Solid
370
    18
100
AcDbLine
 10
15.4724409449
 20
119.5
 30
0.0
 11
15.4724409449
 21
119.8346456693
 31
0.0
  0
LINE
  5
112
330
1F
100
AcDbEntity
  8
TITLE
  6
SLD-Solid
370
    18
100
AcDbLine
 10
15.4724409449
 20
0.5
 30
0.0
 11
15.4724409449
 21
0.1653543307
 31
0.0
  0
LINE
  5
113
330
1F
100
AcDbEntity
  8
TITLE
  6
SLD-Solid
370
    18
100
AcDbLine
 10
17.4409448819
 20
119.5
 30
0.0
 11
17.4409448819
 21
119.8346456693
 31
0.0
  0
LINE
  5
114
330
1F
100
AcDbEntity
  8
TITLE
  6
SLD-Solid
370
    18
100
AcDbLine
 10
17.4409448819
 20
0.5
 30
0.0
 11
17.4409448819
 21
0.1653543307
 31
0.0
  0
LINE
  5
115
330
1F
100
AcDbEntity
  8
TITLE
  6
SLD-Solid
370
    18
100
AcDbLine
 10
19.4094488189
 20
119.5
 30
0.0
 11
19.4094488189
 21
119.8346456693
 31
0.0
  0
LINE
  5
116
330
1F
100
AcDbEntity
  8
TITLE
  6
SLD-Solid
370
    18
100
AcDbLine
 10
19.4094488189
 20
0.5
 30
0.0
 11
19.4094488189
 21
0.1653543307
 31
0.0
  0
LINE
  5
117
330
1F
100
AcDbEntity
  8
TITLE
  6
SLD-Solid
370
    18
100
AcDbLine
 10
21.3779527559
 20
119.5
 30
0.0
 11
21.3779527559
 21
119.8346456693
 31
0.0
  0
LINE
  5
118
330
1F
100
AcDbEntity
  8
TITLE
  6
SLD-Solid
370
    18
100
AcDbLine
 10
21.3779527559
 20
0.5
 30
0.0
 11
21.3779527559
 21
0.1653543307
 31
0.0
  0
LINE
  5
119
330
1F
100
AcDbEntity
  8
TITLE
  6
SLD-Solid
370
    18
100
AcDbLine
 10
23.3464566929
 20
119.5
 30
0.0
 11
23.3464566929
 21
119.8346456693
 31
0.0
  0
LINE
  5
11A
330
1F
100
AcDbEntity
  8
TITLE
  6
SLD-Solid
370
    18
100
AcDbLine
 10
23.3464566929
 20
0.5
 30
0.0
 11
23.3464566929
 21
0.1653543307
 31
0.0
  0
LINE
  5
11B
330
1F
100
AcDbEntity
  8
TITLE
  6
SLD-Solid
370
    18
100
AcDbLine
 10
25.3149606299
 20
119.5
 30
0.0
 11
25.3149606299
 21
119.8346456693
 31
0.0
  0
LINE
  5
11C
330
1F
100
AcDbEntity
  8
TITLE
  6
SLD-Solid
370
    18
100
AcDbLine
 10
25.3149606299
 20
0.5
 30
0.0
 11
25.3149606299
 21
0.1653543307
 31
0.0
  0
LINE
  5
11D
330
1F
100
AcDbEntity
  8
TITLE
  6
SLD-Solid
370
    18
100
AcDbLine
 10
27.2834645669
 20
119.5
 30
0.0
 11
27.2834645669
 21
119.8346456693
 31
0.0
  0
LINE
  5
11E
330
1F
100
AcDbEntity
  8
TITLE
  6
SLD-Solid
370
    18
100
AcDbLine
 10
27.2834645669
 20
0.5
 30
0.0
 11
27.2834645669
 21
0.1653543307
 31
0.0
  0
LINE
  5
11F
330
1F
100
AcDbEntity
  8
TITLE
  6
SLD-Solid
370
    18
100
AcDbLine
 10
29.2519685039
 20
119.5
 30
0.0
 11
29.2519685039
 21
119.8346456693
 31
0.0
  0
LINE
  5
120
330
1F
100
AcDbEntity
  8
TITLE
  6
SLD-Solid
370
    18
100
AcDbLine
 10
29.2519685039
 20
0.5
 30
0.0
 11
29.2519685039
 21
0.1653543307
 31
0.0
  0
LINE
  5
121
330
1F
100
AcDbEntity
  8
TITLE
  6
SLD-Solid
370
    18
100
AcDbLine
 10
31.2204724409
 20
119.5
 30
0.0
 11
31.2204724409
 21
119.8346456693
 31
0.0
  0
LINE
  5
122
330
1F
100
AcDbEntity
  8
TITLE
  6
SLD-Solid
370
    18
100
AcDbLine
 10
31.2204724409
 20
0.5
 30
0.0
 11
31.2204724409
 21
0.1653543307
 31
0.0
  0
LINE
  5
123
330
1F
100
AcDbEntity
  8
TITLE
  6
SLD-Solid
370
    18
100
AcDbLine
 10
33.188976378
 20
119.5
 30
0.0
 11
33.188976378
 21
119.8346456693
 31
0.0
  0
LINE
  5
124
330
1F
100
AcDbEntity
  8
TITLE
  6
SLD-Solid
370
    18
100
AcDbLine
 10
33.188976378
 20
0.5
 30
0.0
 11
33.188976378
 21
0.1653543307
 31
0.0
  0
LINE
  5
125
330
1F
100
AcDbEntity
  8
TITLE
  6
SLD-Solid
370
    18
100
AcDbLine
 10
35.157480315
 20
119.5
 30
0.0
 11
35.157480315
 21
119.8346456693
 31
0.0
  0
LINE
  5
126
330
1F
100
AcDbEntity
  8
TITLE
  6
SLD-Solid
370
    18
100
AcDbLine
 10
35.157480315
 20
0.5
 30
0.0
 11
35.157480315
 21
0.1653543307
 31
0.0
  0
LINE
  5
127
330
1F
100
AcDbEntity
  8
TITLE
  6
SLD-Solid
370
    18
100
AcDbLine
 10
37.125984252
 20
119.5
 30
0.0
 11
37.125984252
 21
119.8346456693
 31
0.0
  0
LINE
  5
128
330
1F
100
AcDbEntity
  8
TITLE
  6
SLD-Solid
370
    18
100
AcDbLine
 10
37.125984252
 20
0.5
 30
0.0
 11
37.125984252
 21
0.1653543307
 31
0.0
  0
LINE
  5
129
330
1F
100
AcDbEntity
  8
TITLE
  6
SLD-Solid
370
    18
100
AcDbLine
 10
39.094488189
 20
119.5
 30
0.0
 11
39.094488189
 21
119.8346456693
 31
0.0
  0
LINE
  5
12A
330
1F
100
AcDbEntity
  8
TITLE
  6
SLD-Solid
370
    18
100
AcDbLine
 10
39.094488189
 20
0.5
 30
0.0
 11
39.094488189
 21
0.1653543307
 31
0.0
  0
LINE
  5
12B
330
1F
100
AcDbEntity
  8
TITLE
  6
SLD-Solid
370
    18
100
AcDbLine
 10
41.062992126
 20
119.5
 30
0.0
 11
41.062992126
 21
119.8346456693
 31
0.0
  0
LINE
  5
12C
330
1F
100
AcDbEntity
  8
TITLE
  6
SLD-Solid
370
    18
100
AcDbLine
 10
41.062992126
 20
0.5
 30
0.0
 11
41.062992126
 21
0.1653543307
 31
0.0
  0
LINE
  5
12D
330
1F
100
AcDbEntity
  8
TITLE
  6
SLD-Solid
370
    18
100
AcDbLine
 10
43.031496063
 20
119.5
 30
0.0
 11
43.031496063
 21
119.8346456693
 31
0.0
  0
LINE
  5
12E
330
1F
100
AcDbEntity
  8
TITLE
  6
SLD-Solid
370
    18
100
AcDbLine
 10
43.031496063
 20
0.5
 30
0.0
 11
43.031496063
 21
0.1653543307
 31
0.0
  0
LINE
  5
12F
330
1F
100
AcDbEntity
  8
TITLE
  6
SLD-Solid
370
    18
100
AcDbLine
 10
45.0
 20
119.5
 30
0.0
 11
45.0
 21
119.8346456693
 31
0.0
  0
LINE
  5
130
330
1F
100
AcDbEntity
  8
TITLE
  6
SLD-Solid
370
    18
100
AcDbLine
 10
45.0
 20
0.5
 30
0.0
 11
45.0
 21
0.1653543307
 31
0.0
  0
LINE
  5
131
330
1F
100
AcDbEntity
  8
TITLE
  6
SLD-Solid
370
    18
100
AcDbLine
 10
46.968503937
 20
119.5
 30
0.0
 11
46.968503937
 21
119.8346456693
 31
0.0
  0
LINE
  5
132
330
1F
100
AcDbEntity
  8
TITLE
  6
SLD-Solid
370
    18
100
AcDbLine
 10
46.968503937
 20
0.5
 30
0.0
 11
46.968503937
 21
0.1653543307
 31
0.0
  0
LINE
  5
133
330
1F
100
AcDbEntity
  8
TITLE
  6
SLD-Solid
370
    18
100
AcDbLine
 10
48.937007874
 20
119.5
 30
0.0
 11
48.937007874
 21
119.8346456693
 31
0.0
  0
LINE
  5
134
330
1F
100
AcDbEntity
  8
TITLE
  6
SLD-Solid
370
    18
100
AcDbLine
 10
48.937007874
 20
0.5
 30
0.0
 11
48.937007874
 21
0.1653543307
 31
0.0
  0
LINE
  5
135
330
1F
100
AcDbEntity
  8
TITLE
  6
SLD-Solid
370
    18
100
AcDbLine
 10
50.905511811
 20
119.5
 30
0.0
 11
50.905511811
 21
119.8346456693
 31
0.0
  0
LINE
  5
136
330
1F
100
AcDbEntity
  8
TITLE
  6
SLD-Solid
370
    18
100
AcDbLine
 10
50.905511811
 20
0.5
 30
0.0
 11
50.905511811
 21
0.1653543307
 31
0.0
  0
LINE
  5
137
330
1F
100
AcDbEntity
  8
TITLE
  6
SLD-Solid
370
    18
100
AcDbLine
 10
52.874015748
 20
119.5
 30
0.0
 11
52.874015748
 21
119.8346456693
 31
0.0
  0
LINE
  5
138
330
1F
100
AcDbEntity
  8
TITLE
  6
SLD-Solid
370
    18
100
AcDbLine
 10
52.874015748
 20
0.5
 30
0.0
 11
52.874015748
 21
0.1653543307
 31
0.0
  0
LINE
  5
139
330
1F
100
AcDbEntity
  8
TITLE
  6
SLD-Solid
370
    18
100
AcDbLine
 10
54.842519685
 20
119.5
 30
0.0
 11
54.842519685
 21
119.8346456693
 31
0.0
  0
LINE
  5
13A
330
1F
100
AcDbEntity
  8
TITLE
  6
SLD-Solid
370
    18
100
AcDbLine
 10
54.842519685
 20
0.5
 30
0.0
 11
54.842519685
 21
0.1653543307
 31
0.0
  0
LINE
  5
13B
330
1F
100
AcDbEntity
  8
TITLE
  6
SLD-Solid
370
    18
100
AcDbLine
 10
56.811023622
 20
119.5
 30
0.0
 11
56.811023622
 21
119.8346456693
 31
0.0
  0
LINE
  5
13C
330
1F
100
AcDbEntity
  8
TITLE
  6
SLD-Solid
370
    18
100
AcDbLine
 10
56.811023622
 20
0.5
 30
0.0
 11
56.811023622
 21
0.1653543307
 31
0.0
  0
LINE
  5
13D
330
1F
100
AcDbEntity
  8
TITLE
  6
SLD-Solid
370
    18
100
AcDbLine
 10
58.7795275591
 20
119.5
 30
0.0
 11
58.7795275591
 21
119.8346456693
 31
0.0
  0
LINE
  5
13E
330
1F
100
AcDbEntity
  8
TITLE
  6
SLD-Solid
370
    18
100
AcDbLine
 10
58.7795275591
 20
0.5
 30
0.0
 11
58.7795275591
 21
0.1653543307
 31
0.0
  0
LINE
  5
13F
330
1F
100
AcDbEntity
  8
TITLE
  6
SLD-Solid
370
    18
100
AcDbLine
 10
60.7480314961
 20
119.5
 30
0.0
 11
60.7480314961
 21
119.8346456693
 31
0.0
  0
LINE
  5
140
330
1F
100
AcDbEntity
  8
TITLE
  6
SLD-Solid
370
    18
100
AcDbLine
 10
60.7480314961
 20
0.5
 30
0.0
 11
60.7480314961
 21
0.1653543307
 31
0.0
  0
LINE
  5
141
330
1F
100
AcDbEntity
  8
TITLE
  6
SLD-Solid
370
    18
100
AcDbLine
 10
62.7165354331
 20
119.5
 30
0.0
 11
62.7165354331
 21
119.8346456693
 31
0.0
  0
LINE
  5
142
330
1F
100
AcDbEntity
  8
TITLE
  6
SLD-Solid
370
    18
100
AcDbLine
 10
62.7165354331
 20
0.5
 30
0.0
 11
62.7165354331
 21
0.1653543307
 31
0.0
  0
LINE
  5
143
330
1F
100
AcDbEntity
  8
TITLE
  6
SLD-Solid
370
    18
100
AcDbLine
 10
64.6850393701
 20
119.5
 30
0.0
 11
64.6850393701
 21
119.8346456693
 31
0.0
  0
LINE
  5
144
330
1F
100
AcDbEntity
  8
TITLE
  6
SLD-Solid
370
    18
100
AcDbLine
 10
64.6850393701
 20
0.5
 30
0.0
 11
64.6850393701
 21
0.1653543307
 31
0.0
  0
LINE
  5
145
330
1F
100
AcDbEntity
  8
TITLE
  6
SLD-Solid
370
    18
100
AcDbLine
 10
66.6535433071
 20
119.5
 30
0.0
 11
66.6535433071
 21
119.8346456693
 31
0.0
  0
LINE
  5
146
330
1F
100
AcDbEntity
  8
TITLE
  6
SLD-Solid
370
    18
100
AcDbLine
 10
66.6535433071
 20
0.5
 30
0.0
 11
66.6535433071
 21
0.1653543307
 31
0.0
  0
LINE
  5
147
330
1F
100
AcDbEntity
  8
TITLE
  6
SLD-Solid
370
    18
100
AcDbLine
 10
68.6220472441
 20
119.5
 30
0.0
 11
68.6220472441
 21
119.8346456693
 31
0.0
  0
LINE
  5
148
330
1F
100
AcDbEntity
  8
TITLE
  6
SLD-Solid
370
    18
100
AcDbLine
 10
68.6220472441
 20
0.5
 30
0.0
 11
68.6220472441
 21
0.1653543307
 31
0.0
  0
LINE
  5
149
330
1F
100
AcDbEntity
  8
TITLE
  6
SLD-Solid
370
    18
100
AcDbLine
 10
70.5905511811
 20
119.5
 30
0.0
 11
70.5905511811
 21
119.8346456693
 31
0.0
  0
LINE
  5
14A
330
1F
100
AcDbEntity
  8
TITLE
  6
SLD-Solid
370
    18
100
AcDbLine
 10
70.5905511811
 20
0.5
 30
0.0
 11
70.5905511811
 21
0.1653543307
 31
0.0
  0
LINE
  5
14B
330
1F
100
AcDbEntity
  8
TITLE
  6
SLD-Solid
370
    18
100
AcDbLine
 10
72.5590551181
 20
119.5
 30
0.0
 11
72.5590551181
 21
119.8346456693
 31
0.0
  0
LINE
  5
14C
330
1F
100
AcDbEntity
  8
TITLE
  6
SLD-Solid
370
    18
100
AcDbLine
 10
72.5590551181
 20
0.5
 30
0.0
 11
72.5590551181
 21
0.1653543307
 31
0.0
  0
LINE
  5
14D
330
1F
100
AcDbEntity
  8
TITLE
  6
SLD-Solid
370
    18
100
AcDbLine
 10
74.5275590551
 20
119.5
 30
0.0
 11
74.5275590551
 21
119.8346456693
 31
0.0
  0
LINE
  5
14E
330
1F
100
AcDbEntity
  8
TITLE
  6
SLD-Solid
370
    18
100
AcDbLine
 10
74.5275590551
 20
0.5
 30
0.0
 11
74.5275590551
 21
0.1653543307
 31
0.0
  0
LINE
  5
14F
330
1F
100
AcDbEntity
  8
TITLE
  6
SLD-Solid
370
    18
100
AcDbLine
 10
76.4960629921
 20
119.5
 30
0.0
 11
76.4960629921
 21
119.8346456693
 31
0.0
  0
LINE
  5
150
330
1F
100
AcDbEntity
  8
TITLE
  6
SLD-Solid
370
    18
100
AcDbLine
 10
76.4960629921
 20
0.5
 30
0.0
 11
76.4960629921
 21
0.1653543307
 31
0.0
  0
LINE
  5
151
330
1F
100
AcDbEntity
  8
TITLE
  6
SLD-Solid
370
    18
100
AcDbLine
 10
78.4645669291
 20
119.5
 30
0.0
 11
78.4645669291
 21
119.8346456693
 31
0.0
  0
LINE
  5
152
330
1F
100
AcDbEntity
  8
TITLE
  6
SLD-Solid
370
    18
100
AcDbLine
 10
78.4645669291
 20
0.5
 30
0.0
 11
78.4645669291
 21
0.1653543307
 31
0.0
  0
LINE
  5
153
330
1F
100
AcDbEntity
  8
TITLE
  6
SLD-Solid
370
    18
100
AcDbLine
 10
80.4330708661
 20
119.5
 30
0.0
 11
80.4330708661
 21
119.8346456693
 31
0.0
  0
LINE
  5
154
330
1F
100
AcDbEntity
  8
TITLE
  6
SLD-Solid
370
    18
100
AcDbLine
 10
80.4330708661
 20
0.5
 30
0.0
 11
80.4330708661
 21
0.1653543307
 31
0.0
  0
LINE
  5
155
330
1F
100
AcDbEntity
  8
TITLE
  6
SLD-Solid
370
    18
100
AcDbLine
 10
82.4015748031
 20
119.5
 30
0.0
 11
82.4015748031
 21
119.8346456693
 31
0.0
  0
LINE
  5
156
330
1F
100
AcDbEntity
  8
TITLE
  6
SLD-Solid
370
    18
100
AcDbLine
 10
82.4015748031
 20
0.5
 30
0.0
 11
82.4015748031
 21
0.1653543307
 31
0.0
  0
LINE
  5
157
330
1F
100
AcDbEntity
  8
TITLE
  6
SLD-Solid
370
    18
100
AcDbLine
 10
84.3700787402
 20
119.5
 30
0.0
 11
84.3700787402
 21
119.8346456693
 31
0.0
  0
LINE
  5
158
330
1F
100
AcDbEntity
  8
TITLE
  6
SLD-Solid
370
    18
100
AcDbLine
 10
84.3700787402
 20
0.5
 30
0.0
 11
84.3700787402
 21
0.1653543307
 31
0.0
  0
LINE
  5
159
330
1F
100
AcDbEntity
  8
TITLE
  6
SLD-Solid
370
    18
100
AcDbLine
 10
86.3385826772
 20
119.5
 30
0.0
 11
86.3385826772
 21
119.8346456693
 31
0.0
  0
LINE
  5
15A
330
1F
100
AcDbEntity
  8
TITLE
  6
SLD-Solid
370
    18
100
AcDbLine
 10
86.3385826772
 20
0.5
 30
0.0
 11
86.3385826772
 21
0.1653543307
 31
0.0
  0
LINE
  5
15B
330
1F
100
AcDbEntity
  8
TITLE
  6
SLD-Solid
370
    18
100
AcDbLine
 10
88.3070866142
 20
119.5
 30
0.0
 11
88.3070866142
 21
119.8346456693
 31
0.0
  0
LINE
  5
15C
330
1F
100
AcDbEntity
  8
TITLE
  6
SLD-Solid
370
    18
100
AcDbLine
 10
88.3070866142
 20
0.5
 30
0.0
 11
88.3070866142
 21
0.1653543307
 31
0.0
  0
MTEXT
  5
15E
330
1F
100
AcDbEntity
  8
NOTES
100
AcDbMText
 10
66.408297803
 20
1.0702903347
 30
0.0
 40
0.25
 41
0.0
 71
     1
 72
     1
  1
UNLESS OTHERWISE SPECIFIED DIMENSIONS ARE IN INCHES.
  7
SLDTEXTSTYLE0
 73
     1
 44
1.0
  0
MTEXT
  5
15F
330
1F
100
AcDbEntity
  8
NOTES
100
AcDbMText
 10
66.4368251132
 20
3.2193045501
 30
0.0
 40
0.25
 41
0.0
 71
     1
 72
     1
  1
DATE:
  7
SLDTEXTSTYLE0
 73
     1
 44
1.0
  0
MTEXT
  5
160
330
1F
100
AcDbEntity
  8
NOTES
100
AcDbMText
 10
68.7130669976
 20
2.1722148141
 30
0.0
 40
0.25
 41
0.0
 71
     2
 72
     1
  1
DO NOT SCALE DRAWING
  7
SLDTEXTSTYLE0
 73
     1
 44
1.0
  0
MTEXT
  5
162
330
1F
100
AcDbEntity
  8
NOTES
100
AcDbMText
 10
72.8307373075
 20
3.2682755553
 30
0.0
 40
0.25
 41
0.0
 71
     1
 72
     1
  1
TITLE:
  7
SLDTEXTSTYLE1
 73
     1
 44
1.0
  0
MTEXT
  5
163
330
1F
100
AcDbEntity
  8
NOTES
100
AcDbMText
 10
80.1561831052
 20
3.2682755553
 30
0.0
 40
0.25
 41
0.0
 71
     1
 72
     1
  1
DWG NO.
  7
SLDTEXTSTYLE1
 73
     1
 44
1.0
  0
MTEXT
  5
164
330
1F
100
AcDbEntity
  8
NOTES
100
AcDbMText
 10
80.1831753203
 20
1.0645815577
 30
0.0
 40
0.25
 41
0.0
 71
     1
 72
     1
  1
SCALE:     1:1
  7
SLDTEXTSTYLE1
 73
     1
 44
1.0
  0
MTEXT
  5
165
330
1F
100
AcDbEntity
  8
NOTES
100
AcDbMText
 10
84.1756493403
 20
2.6510344295
 30
0.0
 40
0.25
 41
0.0
 71
     2
 72
     1
  1
1002-NP 24x24CAD
  7
SLDTEXTSTYLE1
 73
     1
 44
1.0
  0
MTEXT
  5
166
330
1F
100
AcDbEntity
  8
NOTES
100
AcDbMText
 10
75.9535933135
 20
2.6388861441
 30
0.0
 40
0.25
 41
0.0
 71
     2
 72
     1
  1
1002-NP
  7
SLDTEXTSTYLE1
 73
     1
 44
1.0
  0
INSERT
  5
16C
330
1F
100
AcDbEntity
  8
NOTES
100
AcDbBlockReference
  2
SW_NOTE_0
 10
80.266131557
 20
4.6105227838
 30
0.0
  0
INSERT
  5
176
330
1F
100
AcDbEntity
  8
NOTES
100
AcDbBlockReference
  2
SW_NOTE_0_1
 10
66.6159726246
 20
5.1481526848
 30
0.0
  0
MTEXT
  5
177
330
1F
100
AcDbEntity
  8
NOTES
100
AcDbMText
 10
69.5299006004
 20
3.2135957731
 30
0.0
 40
0.25
 41
0.0
 71
     2
 72
     1
  1
October 19, 2021
  7
SLDTEXTSTYLE1
 73
     1
 44
1.0
  0
MTEXT
  5
178
330
1F
100
AcDbEntity
  8
TITLE
100
AcDbMText
 10
0.3276279776
 20
1.7865708579
 30
0.0
 40
0.125
 41
0.0
 71
     2
 72
     1
  1
A
  7
SLDTEXTSTYLE1
 73
     1
 44
1.0
  0
MTEXT
  5
179
330
1F
100
AcDbEntity
  8
TITLE
100
AcDbMText
 10
89.6622736469
 20
1.7865708579
 30
0.0
 40
0.125
 41
0.0
 71
     2
 72
     1
  1
A
  7
SLDTEXTSTYLE1
 73
     1
 44
1.0
  0
MTEXT
  5
17A
330
1F
100
AcDbEntity
  8
TITLE
100
AcDbMText
 10
0.3317512413
 20
3.9775157398
 30
0.0
 40
0.125
 41
0.0
 71
     2
 72
     1
  1
B
  7
SLDTEXTSTYLE1
 73
     1
 44
1.0
  0
MTEXT
  5
17B
330
1F
100
AcDbEntity
  8
TITLE
100
AcDbMText
 10
89.6663969106
 20
3.9775157398
 30
0.0
 40
0.125
 41
0.0
 71
     2
 72
     1
  1
B
  7
SLDTEXTSTYLE1
 73
     1
 44
1.0
  0
MTEXT
  5
17C
330
1F
100
AcDbEntity
  8
TITLE
100
AcDbMText
 10
0.3313750817
 20
5.9460196768
 30
0.0
 40
0.125
 41
0.0
 71
     2
 72
     1
  1
C
  7
SLDTEXTSTYLE1
 73
     1
 44
1.0
  0
MTEXT
  5
17D
330
1F
100
AcDbEntity
  8
TITLE
100
AcDbMText
 10
89.666020751
 20
5.9460196768
 30
0.0
 40
0.125
 41
0.0
 71
     2
 72
     1
  1
C
  7
SLDTEXTSTYLE1
 73
     1
 44
1.0
  0
MTEXT
  5
17E
330
1F
100
AcDbEntity
  8
TITLE
100
AcDbMText
 10
0.3311870028
 20
7.9145236138
 30
0.0
 40
0.125
 41
0.0
 71
     2
 72
     1
  1
D
  7
SLDTEXTSTYLE1
 73
     1
 44
1.0
  0
MTEXT
  5
17F
330
1F
100
AcDbEntity
  8
TITLE
100
AcDbMText
 10
89.6658326721
 20
7.9145236138
 30
0.0
 40
0.125
 41
0.0
 71
     2
 72
     1
  1
D
  7
SLDTEXTSTYLE1
 73
     1
 44
1.0
  0
MTEXT
  5
180
330
1F
100
AcDbEntity
  8
TITLE
100
AcDbMText
 10
0.332923116
 20
9.8830275508
 30
0.0
 40
0.125
 41
0.0
 71
     2
 72
     1
  1
E
  7
SLDTEXTSTYLE1
 73
     1
 44
1.0
  0
MTEXT
  5
181
330
1F
100
AcDbEntity
  8
TITLE
100
AcDbMText
 10
89.6675687853
 20
9.8830275508
 30
0.0
 40
0.125
 41
0.0
 71
     2
 72
     1
  1
E
  7
SLDTEXTSTYLE1
 73
     1
 44
1.0
  0
MTEXT
  5
182
330
1F
100
AcDbEntity
  8
TITLE
100
AcDbMText
 10
0.3313461474
 20
11.8515314878
 30
0.0
 40
0.125
 41
0.0
 71
     2
 72
     1
  1
F
  7
SLDTEXTSTYLE1
 73
     1
 44
1.0
  0
MTEXT
  5
183
330
1F
100
AcDbEntity
  8
TITLE
100
AcDbMText
 10
89.6659918167
 20
11.8515314878
 30
0.0
 40
0.125
 41
0.0
 71
     2
 72
     1
  1
F
  7
SLDTEXTSTYLE1
 73
     1
 44
1.0
  0
MTEXT
  5
184
330
1F
100
AcDbEntity
  8
TITLE
100
AcDbMText
 10
0.3322576054
 20
13.8200354248
 30
0.0
 40
0.125
 41
0.0
 71
     2
 72
     1
  1
G
  7
SLDTEXTSTYLE1
 73
     1
 44
1.0
  0
MTEXT
  5
185
330
1F
100
AcDbEntity
  8
TITLE
100
AcDbMText
 10
89.6669032747
 20
13.8200354248
 30
0.0
 40
0.125
 41
0.0
 71
     2
 72
     1
  1
G
  7
SLDTEXTSTYLE1
 73
     1
 44
1.0
  0
MTEXT
  5
186
330
1F
100
AcDbEntity
  8
TITLE
100
AcDbMText
 10
0.3323733457
 20
15.7885393618
 30
0.0
 40
0.125
 41
0.0
 71
     2
 72
     1
  1
H
  7
SLDTEXTSTYLE1
 73
     1
 44
1.0
  0
MTEXT
  5
187
330
1F
100
AcDbEntity
  8
TITLE
100
AcDbMText
 10
89.667019015
 20
15.7885393618
 30
0.0
 40
0.125
 41
0.0
 71
     2
 72
     1
  1
H
  7
SLDTEXTSTYLE1
 73
     1
 44
1.0
  0
MTEXT
  5
188
330
1F
100
AcDbEntity
  8
TITLE
100
AcDbMText
 10
0.3315776306
 20
17.7570432988
 30
0.0
 40
0.125
 41
0.0
 71
     2
 72
     1
  1
J
  7
SLDTEXTSTYLE1
 73
     1
 44
1.0
  0
MTEXT
  5
189
330
1F
100
AcDbEntity
  8
TITLE
100
AcDbMText
 10
89.6662232999
 20
17.7570432988
 30
0.0
 40
0.125
 41
0.0
 71
     2
 72
     1
  1
J
  7
SLDTEXTSTYLE1
 73
     1
 44
1.0
  0
MTEXT
  5
18A
330
1F
100
AcDbEntity
  8
TITLE
100
AcDbMText
 10
0.3323154765
 20
19.7255472359
 30
0.0
 40
0.125
 41
0.0
 71
     2
 72
     1
  1
K
  7
SLDTEXTSTYLE1
 73
     1
 44
1.0
  0
MTEXT
  5
18B
330
1F
100
AcDbEntity
  8
TITLE
100
AcDbMText
 10
89.6669611458
 20
19.7255472359
 30
0.0
 40
0.125
 41
0.0
 71
     2
 72
     1
  1
K
  7
SLDTEXTSTYLE1
 73
     1
 44
1.0
  0
MTEXT
  5
18C
330
1F
100
AcDbEntity
  8
TITLE
100
AcDbMText
 10
0.3312448739
 20
21.6940511729
 30
0.0
 40
0.125
 41
0.0
 71
     2
 72
     1
  1
L
  7
SLDTEXTSTYLE1
 73
     1
 44
1.0
  0
MTEXT
  5
18D
330
1F
100
AcDbEntity
  8
TITLE
100
AcDbMText
 10
89.6658905432
 20
21.6940511729
 30
0.0
 40
0.125
 41
0.0
 71
     2
 72
     1
  1
L
  7
SLDTEXTSTYLE1
 73
     1
 44
1.0
  0
MTEXT
  5
18E
330
1F
100
AcDbEntity
  8
TITLE
100
AcDbMText
 10
0.3283224192
 20
23.6625551099
 30
0.0
 40
0.125
 41
0.0
 71
     2
 72
     1
  1
M
  7
SLDTEXTSTYLE1
 73
     1
 44
1.0
  0
MTEXT
  5
18F
330
1F
100
AcDbEntity
  8
TITLE
100
AcDbMText
 10
89.6629680885
 20
23.6625551099
 30
0.0
 40
0.125
 41
0.0
 71
     2
 72
     1
  1
M
  7
SLDTEXTSTYLE1
 73
     1
 44
1.0
  0
MTEXT
  5
190
330
1F
100
AcDbEntity
  8
TITLE
100
AcDbMText
 10
0.3315342276
 20
25.6310590469
 30
0.0
 40
0.125
 41
0.0
 71
     2
 72
     1
  1
N
  7
SLDTEXTSTYLE1
 73
     1
 44
1.0
  0
MTEXT
  5
191
330
1F
100
AcDbEntity
  8
TITLE
100
AcDbMText
 10
89.6661798969
 20
25.6310590469
 30
0.0
 40
0.125
 41
0.0
 71
     2
 72
     1
  1
N
  7
SLDTEXTSTYLE1
 73
     1
 44
1.0
  0
MTEXT
  5
192
330
1F
100
AcDbEntity
  8
TITLE
100
AcDbMText
 10
0.3321997349
 20
27.5995629839
 30
0.0
 40
0.125
 41
0.0
 71
     2
 72
     1
  1
P
  7
SLDTEXTSTYLE1
 73
     1
 44
1.0
  0
MTEXT
  5
193
330
1F
100
AcDbEntity
  8
TITLE
100
AcDbMText
 10
89.6668454042
 20
27.5995629839
 30
0.0
 40
0.125
 41
0.0
 71
     2
 72
     1
  1
P
  7
SLDTEXTSTYLE1
 73
     1
 44
1.0
  0
MTEXT
  5
194
330
1F
100
AcDbEntity
  8
TITLE
100
AcDbMText
 10
0.3309265867
 20
29.5680669209
 30
0.0
 40
0.125
 41
0.0
 71
     2
 72
     1
  1
R
  7
SLDTEXTSTYLE1
 73
     1
 44
1.0
  0
MTEXT
  5
195
330
1F
100
AcDbEntity
  8
TITLE
100
AcDbMText
 10
89.665572256
 20
29.5680669209
 30
0.0
 40
0.125
 41
0.0
 71
     2
 72
     1
  1
R
  7
SLDTEXTSTYLE1
 73
     1
 44
1.0
  0
MTEXT
  5
196
330
1F
100
AcDbEntity
  8
TITLE
100
AcDbMText
 10
0.3323010071
 20
31.5365708579
 30
0.0
 40
0.125
 41
0.0
 71
     2
 72
     1
  1
T
  7
SLDTEXTSTYLE1
 73
     1
 44
1.0
  0
MTEXT
  5
197
330
1F
100
AcDbEntity
  8
TITLE
100
AcDbMText
 10
89.6669466764
 20
31.5365708579
 30
0.0
 40
0.125
 41
0.0
 71
     2
 72
     1
  1
T
  7
SLDTEXTSTYLE1
 73
     1
 44
1.0
  0
MTEXT
  5
198
330
1F
100
AcDbEntity
  8
TITLE
100
AcDbMText
 10
0.3328507755
 20
33.5050747949
 30
0.0
 40
0.125
 41
0.0
 71
     2
 72
     1
  1
U
  7
SLDTEXTSTYLE1
 73
     1
 44
1.0
  0
MTEXT
  5
199
330
1F
100
AcDbEntity
  8
TITLE
100
AcDbMText
 10
89.6674964448
 20
33.5050747949
 30
0.0
 40
0.125
 41
0.0
 71
     2
 72
     1
  1
U
  7
SLDTEXTSTYLE1
 73
     1
 44
1.0
  0
MTEXT
  5
19A
330
1F
100
AcDbEntity
  8
TITLE
100
AcDbMText
 10
0.3307529773
 20
35.4735787319
 30
0.0
 40
0.125
 41
0.0
 71
     2
 72
     1
  1
V
  7
SLDTEXTSTYLE1
 73
     1
 44
1.0
  0
MTEXT
  5
19B
330
1F
100
AcDbEntity
  8
TITLE
100
AcDbMText
 10
89.6653986466
 20
35.4735787319
 30
0.0
 40
0.125
 41
0.0
 71
     2
 72
     1
  1
V
  7
SLDTEXTSTYLE1
 73
     1
 44
1.0
  0
MTEXT
  5
19C
330
1F
100
AcDbEntity
  8
TITLE
100
AcDbMText
 10
0.3327784409
 20
37.4420826689
 30
0.0
 40
0.125
 41
0.0
 71
     2
 72
     1
  1
W
  7
SLDTEXTSTYLE1
 73
     1
 44
1.0
  0
MTEXT
  5
19D
330
1F
100
AcDbEntity
  8
TITLE
100
AcDbMText
 10
89.6674241102
 20
37.4420826689
 30
0.0
 40
0.125
 41
0.0
 71
     2
 72
     1
  1
W
  7
SLDTEXTSTYLE1
 73
     1
 44
1.0
  0
MTEXT
  5
19E
330
1F
100
AcDbEntity
  8
TITLE
100
AcDbMText
 10
0.3321997349
 20
39.4105866059
 30
0.0
 40
0.125
 41
0.0
 71
     2
 72
     1
  1
Y
  7
SLDTEXTSTYLE1
 73
     1
 44
1.0
  0
MTEXT
  5
19F
330
1F
100
AcDbEntity
  8
TITLE
100
AcDbMText
 10
89.6668454042
 20
39.4105866059
 30
0.0
 40
0.125
 41
0.0
 71
     2
 72
     1
  1
Y
  7
SLDTEXTSTYLE1
 73
     1
 44
1.0
  0
MTEXT
  5
1A0
330
1F
100
AcDbEntity
  8
TITLE
100
AcDbMText
 10
0.3225787898
 20
41.3790905429
 30
0.0
 40
0.125
 41
0.0
 71
     2
 72
     1
  1
AA
  7
SLDTEXTSTYLE1
 73
     1
 44
1.0
  0
MTEXT
  5
1A1
330
1F
100
AcDbEntity
  8
TITLE
100
AcDbMText
 10
89.6572244591
 20
41.3790905429
 30
0.0
 40
0.125
 41
0.0
 71
     2
 72
     1
  1
AA
  7
SLDTEXTSTYLE1
 73
     1
 44
1.0
  0
MTEXT
  5
1A2
330
1F
100
AcDbEntity
  8
TITLE
100
AcDbMText
 10
0.3267020535
 20
43.34759448
 30
0.0
 40
0.125
 41
0.0
 71
     2
 72
     1
  1
AB
  7
SLDTEXTSTYLE1
 73
     1
 44
1.0
  0
MTEXT
  5
1A3
330
1F
100
AcDbEntity
  8
TITLE
100
AcDbMText
 10
89.6613477228
 20
43.34759448
 30
0.0
 40
0.125
 41
0.0
 71
     2
 72
     1
  1
AB
  7
SLDTEXTSTYLE1
 73
     1
 44
1.0
  0
MTEXT
  5
1A4
330
1F
100
AcDbEntity
  8
TITLE
100
AcDbMText
 10
0.3263258985
 20
45.316098417
 30
0.0
 40
0.125
 41
0.0
 71
     2
 72
     1
  1
AC
  7
SLDTEXTSTYLE1
 73
     1
 44
1.0
  0
MTEXT
  5
1A5
330
1F
100
AcDbEntity
  8
TITLE
100
AcDbMText
 10
89.6609715678
 20
45.316098417
 30
0.0
 40
0.125
 41
0.0
 71
     2
 72
     1
  1
AC
  7
SLDTEXTSTYLE1
 73
     1
 44
1.0
  0
MTEXT
  5
1A6
330
1F
100
AcDbEntity
  8
TITLE
100
AcDbMText
 10
0.3261378197
 20
47.284602354
 30
0.0
 40
0.125
 41
0.0
 71
     2
 72
     1
  1
AD
  7
SLDTEXTSTYLE1
 73
     1
 44
1.0
  0
MTEXT
  5
1A7
330
1F
100
AcDbEntity
  8
TITLE
100
AcDbMText
 10
89.6607834889
 20
47.284602354
 30
0.0
 40
0.125
 41
0.0
 71
     2
 72
     1
  1
AD
  7
SLDTEXTSTYLE1
 73
     1
 44
1.0
  0
MTEXT
  5
1A8
330
1F
100
AcDbEntity
  8
TITLE
100
AcDbMText
 10
0.3278739283
 20
49.253106291
 30
0.0
 40
0.125
 41
0.0
 71
     2
 72
     1
  1
AE
  7
SLDTEXTSTYLE1
 73
     1
 44
1.0
  0
MTEXT
  5
1A9
330
1F
100
AcDbEntity
  8
TITLE
100
AcDbMText
 10
89.6625195976
 20
49.253106291
 30
0.0
 40
0.125
 41
0.0
 71
     2
 72
     1
  1
AE
  7
SLDTEXTSTYLE1
 73
     1
 44
1.0
  0
MTEXT
  5
1AA
330
1F
100
AcDbEntity
  8
TITLE
100
AcDbMText
 10
0.3262969596
 20
51.221610228
 30
0.0
 40
0.125
 41
0.0
 71
     2
 72
     1
  1
AF
  7
SLDTEXTSTYLE1
 73
     1
 44
1.0
  0
MTEXT
  5
1AB
330
1F
100
AcDbEntity
  8
TITLE
100
AcDbMText
 10
89.6609426289
 20
51.221610228
 30
0.0
 40
0.125
 41
0.0
 71
     2
 72
     1
  1
AF
  7
SLDTEXTSTYLE1
 73
     1
 44
1.0
  0
MTEXT
  5
1AC
330
1F
100
AcDbEntity
  8
TITLE
100
AcDbMText
 10
0.3272084177
 20
53.190114165
 30
0.0
 40
0.125
 41
0.0
 71
     2
 72
     1
  1
AG
  7
SLDTEXTSTYLE1
 73
     1
 44
1.0
  0
MTEXT
  5
1AD
330
1F
100
AcDbEntity
  8
TITLE
100
AcDbMText
 10
89.661854087
 20
53.190114165
 30
0.0
 40
0.125
 41
0.0
 71
     2
 72
     1
  1
AG
  7
SLDTEXTSTYLE1
 73
     1
 44
1.0
  0
MTEXT
  5
1AE
330
1F
100
AcDbEntity
  8
TITLE
100
AcDbMText
 10
0.3273241625
 20
55.158618102
 30
0.0
 40
0.125
 41
0.0
 71
     2
 72
     1
  1
AH
  7
SLDTEXTSTYLE1
 73
     1
 44
1.0
  0
MTEXT
  5
1AF
330
1F
100
AcDbEntity
  8
TITLE
100
AcDbMText
 10
89.6619698318
 20
55.158618102
 30
0.0
 40
0.125
 41
0.0
 71
     2
 72
     1
  1
AH
  7
SLDTEXTSTYLE1
 73
     1
 44
1.0
  0
MTEXT
  5
1B0
330
1F
100
AcDbEntity
  8
TITLE
100
AcDbMText
 10
0.3265284428
 20
57.127122039
 30
0.0
 40
0.125
 41
0.0
 71
     2
 72
     1
  1
AJ
  7
SLDTEXTSTYLE1
 73
     1
 44
1.0
  0
MTEXT
  5
1B1
330
1F
100
AcDbEntity
  8
TITLE
100
AcDbMText
 10
89.6611741121
 20
57.127122039
 30
0.0
 40
0.125
 41
0.0
 71
     2
 72
     1
  1
AJ
  7
SLDTEXTSTYLE1
 73
     1
 44
1.0
  0
MTEXT
  5
1B2
330
1F
100
AcDbEntity
  8
TITLE
100
AcDbMText
 10
0.3272662887
 20
59.095625976
 30
0.0
 40
0.125
 41
0.0
 71
     2
 72
     1
  1
AK
  7
SLDTEXTSTYLE1
 73
     1
 44
1.0
  0
MTEXT
  5
1B3
330
1F
100
AcDbEntity
  8
TITLE
100
AcDbMText
 10
89.661911958
 20
59.095625976
 30
0.0
 40
0.125
 41
0.0
 71
     2
 72
     1
  1
AK
  7
SLDTEXTSTYLE1
 73
     1
 44
1.0
  0
MTEXT
  5
1B4
330
1F
100
AcDbEntity
  8
TITLE
100
AcDbMText
 10
0.3261956816
 20
61.064129913
 30
0.0
 40
0.125
 41
0.0
 71
     2
 72
     1
  1
AL
  7
SLDTEXTSTYLE1
 73
     1
 44
1.0
  0
MTEXT
  5
1B5
330
1F
100
AcDbEntity
  8
TITLE
100
AcDbMText
 10
89.6608413509
 20
61.064129913
 30
0.0
 40
0.125
 41
0.0
 71
     2
 72
     1
  1
AL
  7
SLDTEXTSTYLE1
 73
     1
 44
1.0
  0
MTEXT
  5
1B6
330
1F
100
AcDbEntity
  8
TITLE
100
AcDbMText
 10
0.3232732315
 20
63.03263385
 30
0.0
 40
0.125
 41
0.0
 71
     2
 72
     1
  1
AM
  7
SLDTEXTSTYLE1
 73
     1
 44
1.0
  0
MTEXT
  5
1B7
330
1F
100
AcDbEntity
  8
TITLE
100
AcDbMText
 10
89.6579189008
 20
63.03263385
 30
0.0
 40
0.125
 41
0.0
 71
     2
 72
     1
  1
AM
  7
SLDTEXTSTYLE1
 73
     1
 44
1.0
  0
MTEXT
  5
1B8
330
1F
100
AcDbEntity
  8
TITLE
100
AcDbMText
 10
0.3264850398
 20
65.001137787
 30
0.0
 40
0.125
 41
0.0
 71
     2
 72
     1
  1
AN
  7
SLDTEXTSTYLE1
 73
     1
 44
1.0
  0
MTEXT
  5
1B9
330
1F
100
AcDbEntity
  8
TITLE
100
AcDbMText
 10
89.6611307091
 20
65.001137787
 30
0.0
 40
0.125
 41
0.0
 71
     2
 72
     1
  1
AN
  7
SLDTEXTSTYLE1
 73
     1
 44
1.0
  0
MTEXT
  5
1BA
330
1F
100
AcDbEntity
  8
TITLE
100
AcDbMText
 10
0.3271505426
 20
66.969641724
 30
0.0
 40
0.125
 41
0.0
 71
     2
 72
     1
  1
AP
  7
SLDTEXTSTYLE1
 73
     1
 44
1.0
  0
MTEXT
  5
1BB
330
1F
100
AcDbEntity
  8
TITLE
100
AcDbMText
 10
89.6617962119
 20
66.969641724
 30
0.0
 40
0.125
 41
0.0
 71
     2
 72
     1
  1
AP
  7
SLDTEXTSTYLE1
 73
     1
 44
1.0
  0
MTEXT
  5
1BC
330
1F
100
AcDbEntity
  8
TITLE
100
AcDbMText
 10
0.325877399
 20
68.9381456611
 30
0.0
 40
0.125
 41
0.0
 71
     2
 72
     1
  1
AR
  7
SLDTEXTSTYLE1
 73
     1
 44
1.0
  0
MTEXT
  5
1BD
330
1F
100
AcDbEntity
  8
TITLE
100
AcDbMText
 10
89.6605230682
 20
68.9381456611
 30
0.0
 40
0.125
 41
0.0
 71
     2
 72
     1
  1
AR
  7
SLDTEXTSTYLE1
 73
     1
 44
1.0
  0
MTEXT
  5
1BE
330
1F
100
AcDbEntity
  8
TITLE
100
AcDbMText
 10
0.3272518193
 20
70.9066495981
 30
0.0
 40
0.125
 41
0.0
 71
     2
 72
     1
  1
AT
  7
SLDTEXTSTYLE1
 73
     1
 44
1.0
  0
MTEXT
  5
1BF
330
1F
100
AcDbEntity
  8
TITLE
100
AcDbMText
 10
89.6618974886
 20
70.9066495981
 30
0.0
 40
0.125
 41
0.0
 71
     2
 72
     1
  1
AT
  7
SLDTEXTSTYLE1
 73
     1
 44
1.0
  0
MTEXT
  5
1C0
330
1F
100
AcDbEntity
  8
TITLE
100
AcDbMText
 10
0.3278015877
 20
72.8751535351
 30
0.0
 40
0.125
 41
0.0
 71
     2
 72
     1
  1
AU
  7
SLDTEXTSTYLE1
 73
     1
 44
1.0
  0
MTEXT
  5
1C1
330
1F
100
AcDbEntity
  8
TITLE
100
AcDbMText
 10
89.662447257
 20
72.8751535351
 30
0.0
 40
0.125
 41
0.0
 71
     2
 72
     1
  1
AU
  7
SLDTEXTSTYLE1
 73
     1
 44
1.0
  0
MTEXT
  5
1C2
330
1F
100
AcDbEntity
  8
TITLE
100
AcDbMText
 10
0.3257037895
 20
74.8436574721
 30
0.0
 40
0.125
 41
0.0
 71
     2
 72
     1
  1
AV
  7
SLDTEXTSTYLE1
 73
     1
 44
1.0
  0
MTEXT
  5
1C3
330
1F
100
AcDbEntity
  8
TITLE
100
AcDbMText
 10
89.6603494588
 20
74.8436574721
 30
0.0
 40
0.125
 41
0.0
 71
     2
 72
     1
  1
AV
  7
SLDTEXTSTYLE1
 73
     1
 44
1.0
  0
MTEXT
  5
1C4
330
1F
100
AcDbEntity
  8
TITLE
100
AcDbMText
 10
0.3277292486
 20
76.8121614091
 30
0.0
 40
0.125
 41
0.0
 71
     2
 72
     1
  1
AW
  7
SLDTEXTSTYLE1
 73
     1
 44
1.0
  0
MTEXT
  5
1C5
330
1F
100
AcDbEntity
  8
TITLE
100
AcDbMText
 10
89.6623749179
 20
76.8121614091
 30
0.0
 40
0.125
 41
0.0
 71
     2
 72
     1
  1
AW
  7
SLDTEXTSTYLE1
 73
     1
 44
1.0
  0
MTEXT
  5
1C6
330
1F
100
AcDbEntity
  8
TITLE
100
AcDbMText
 10
0.3271505426
 20
78.7806653461
 30
0.0
 40
0.125
 41
0.0
 71
     2
 72
     1
  1
AY
  7
SLDTEXTSTYLE1
 73
     1
 44
1.0
  0
MTEXT
  5
1C7
330
1F
100
AcDbEntity
  8
TITLE
100
AcDbMText
 10
89.6617962119
 20
78.7806653461
 30
0.0
 40
0.125
 41
0.0
 71
     2
 72
     1
  1
AY
  7
SLDTEXTSTYLE1
 73
     1
 44
1.0
  0
MTEXT
  5
1C8
330
1F
100
AcDbEntity
  8
TITLE
100
AcDbMText
 10
0.3267020535
 20
80.7491692831
 30
0.0
 40
0.125
 41
0.0
 71
     2
 72
     1
  1
BA
  7
SLDTEXTSTYLE1
 73
     1
 44
1.0
  0
MTEXT
  5
1C9
330
1F
100
AcDbEntity
  8
TITLE
100
AcDbMText
 10
89.6613477228
 20
80.7491692831
 30
0.0
 40
0.125
 41
0.0
 71
     2
 72
     1
  1
BA
  7
SLDTEXTSTYLE1
 73
     1
 44
1.0
  0
MTEXT
  5
1CA
330
1F
100
AcDbEntity
  8
TITLE
100
AcDbMText
 10
0.3308253173
 20
82.7176732201
 30
0.0
 40
0.125
 41
0.0
 71
     2
 72
     1
  1
BB
  7
SLDTEXTSTYLE1
 73
     1
 44
1.0
  0
MTEXT
  5
1CB
330
1F
100
AcDbEntity
  8
TITLE
100
AcDbMText
 10
89.6654709865
 20
82.7176732201
 30
0.0
 40
0.125
 41
0.0
 71
     2
 72
     1
  1
BB
  7
SLDTEXTSTYLE1
 73
     1
 44
1.0
  0
MTEXT
  5
1CC
330
1F
100
AcDbEntity
  8
TITLE
100
AcDbMText
 10
0.3304491531
 20
84.6861771571
 30
0.0
 40
0.125
 41
0.0
 71
     2
 72
     1
  1
BC
  7
SLDTEXTSTYLE1
 73
     1
 44
1.0
  0
MTEXT
  5
1CD
330
1F
100
AcDbEntity
  8
TITLE
100
AcDbMText
 10
89.6650948224
 20
84.6861771571
 30
0.0
 40
0.125
 41
0.0
 71
     2
 72
     1
  1
BC
  7
SLDTEXTSTYLE1
 73
     1
 44
1.0
  0
MTEXT
  5
1CE
330
1F
100
AcDbEntity
  8
TITLE
100
AcDbMText
 10
0.3302610742
 20
86.6546810941
 30
0.0
 40
0.125
 41
0.0
 71
     2
 72
     1
  1
BD
  7
SLDTEXTSTYLE1
 73
     1
 44
1.0
  0
MTEXT
  5
1CF
330
1F
100
AcDbEntity
  8
TITLE
100
AcDbMText
 10
89.6649067435
 20
86.6546810941
 30
0.0
 40
0.125
 41
0.0
 71
     2
 72
     1
  1
BD
  7
SLDTEXTSTYLE1
 73
     1
 44
1.0
  0
MTEXT
  5
1D0
330
1F
100
AcDbEntity
  8
TITLE
100
AcDbMText
 10
0.331997192
 20
88.6231850311
 30
0.0
 40
0.125
 41
0.0
 71
     2
 72
     1
  1
BE
  7
SLDTEXTSTYLE1
 73
     1
 44
1.0
  0
MTEXT
  5
1D1
330
1F
100
AcDbEntity
  8
TITLE
100
AcDbMText
 10
89.6666428613
 20
88.6231850311
 30
0.0
 40
0.125
 41
0.0
 71
     2
 72
     1
  1
BE
  7
SLDTEXTSTYLE1
 73
     1
 44
1.0
  0
MTEXT
  5
1D2
330
1F
100
AcDbEntity
  8
TITLE
100
AcDbMText
 10
0.3304202234
 20
90.5916889681
 30
0.0
 40
0.125
 41
0.0
 71
     2
 72
     1
  1
BF
  7
SLDTEXTSTYLE1
 73
     1
 44
1.0
  0
MTEXT
  5
1D3
330
1F
100
AcDbEntity
  8
TITLE
100
AcDbMText
 10
89.6650658926
 20
90.5916889681
 30
0.0
 40
0.125
 41
0.0
 71
     2
 72
     1
  1
BF
  7
SLDTEXTSTYLE1
 73
     1
 44
1.0
  0
MTEXT
  5
1D4
330
1F
100
AcDbEntity
  8
TITLE
100
AcDbMText
 10
0.3313316814
 20
92.5601929051
 30
0.0
 40
0.125
 41
0.0
 71
     2
 72
     1
  1
BG
  7
SLDTEXTSTYLE1
 73
     1
 44
1.0
  0
MTEXT
  5
1D5
330
1F
100
AcDbEntity
  8
TITLE
100
AcDbMText
 10
89.6659773507
 20
92.5601929051
 30
0.0
 40
0.125
 41
0.0
 71
     2
 72
     1
  1
BG
  7
SLDTEXTSTYLE1
 73
     1
 44
1.0
  0
MTEXT
  5
1D6
330
1F
100
AcDbEntity
  8
TITLE
100
AcDbMText
 10
0.331447417
 20
94.5286968422
 30
0.0
 40
0.125
 41
0.0
 71
     2
 72
     1
  1
BH
  7
SLDTEXTSTYLE1
 73
     1
 44
1.0
  0
MTEXT
  5
1D7
330
1F
100
AcDbEntity
  8
TITLE
100
AcDbMText
 10
89.6660930863
 20
94.5286968422
 30
0.0
 40
0.125
 41
0.0
 71
     2
 72
     1
  1
BH
  7
SLDTEXTSTYLE1
 73
     1
 44
1.0
  0
MTEXT
  5
1D8
330
1F
100
AcDbEntity
  8
TITLE
100
AcDbMText
 10
0.3306517065
 20
96.4972007792
 30
0.0
 40
0.125
 41
0.0
 71
     2
 72
     1
  1
BJ
  7
SLDTEXTSTYLE1
 73
     1
 44
1.0
  0
MTEXT
  5
1D9
330
1F
100
AcDbEntity
  8
TITLE
100
AcDbMText
 10
89.6652973758
 20
96.4972007792
 30
0.0
 40
0.125
 41
0.0
 71
     2
 72
     1
  1
BJ
  7
SLDTEXTSTYLE1
 73
     1
 44
1.0
  0
MTEXT
  5
1DA
330
1F
100
AcDbEntity
  8
TITLE
100
AcDbMText
 10
0.3313895525
 20
98.4657047162
 30
0.0
 40
0.125
 41
0.0
 71
     2
 72
     1
  1
BK
  7
SLDTEXTSTYLE1
 73
     1
 44
1.0
  0
MTEXT
  5
1DB
330
1F
100
AcDbEntity
  8
TITLE
100
AcDbMText
 10
89.6660352218
 20
98.4657047162
 30
0.0
 40
0.125
 41
0.0
 71
     2
 72
     1
  1
BK
  7
SLDTEXTSTYLE1
 73
     1
 44
1.0
  0
MTEXT
  5
1DC
330
1F
100
AcDbEntity
  8
TITLE
100
AcDbMText
 10
0.3303189545
 20
100.4342086532
 30
0.0
 40
0.125
 41
0.0
 71
     2
 72
     1
  1
BL
  7
SLDTEXTSTYLE1
 73
     1
 44
1.0
  0
MTEXT
  5
1DD
330
1F
100
AcDbEntity
  8
TITLE
100
AcDbMText
 10
89.6649646237
 20
100.4342086532
 30
0.0
 40
0.125
 41
0.0
 71
     2
 72
     1
  1
BL
  7
SLDTEXTSTYLE1
 73
     1
 44
1.0
  0
MTEXT
  5
1DE
330
1F
100
AcDbEntity
  8
TITLE
100
AcDbMText
 10
0.3273964952
 20
102.4027125902
 30
0.0
 40
0.125
 41
0.0
 71
     2
 72
     1
  1
BM
  7
SLDTEXTSTYLE1
 73
     1
 44
1.0
  0
MTEXT
  5
1DF
330
1F
100
AcDbEntity
  8
TITLE
100
AcDbMText
 10
89.6620421645
 20
102.4027125902
 30
0.0
 40
0.125
 41
0.0
 71
     2
 72
     1
  1
BM
  7
SLDTEXTSTYLE1
 73
     1
 44
1.0
  0
MTEXT
  5
1E0
330
1F
100
AcDbEntity
  8
TITLE
100
AcDbMText
 10
0.3306083035
 20
104.3712165272
 30
0.0
 40
0.125
 41
0.0
 71
     2
 72
     1
  1
BN
  7
SLDTEXTSTYLE1
 73
     1
 44
1.0
  0
MTEXT
  5
1E1
330
1F
100
AcDbEntity
  8
TITLE
100
AcDbMText
 10
89.6652539728
 20
104.3712165272
 30
0.0
 40
0.125
 41
0.0
 71
     2
 72
     1
  1
BN
  7
SLDTEXTSTYLE1
 73
     1
 44
1.0
  0
MTEXT
  5
1E2
330
1F
100
AcDbEntity
  8
TITLE
100
AcDbMText
 10
0.3312738155
 20
106.3397204642
 30
0.0
 40
0.125
 41
0.0
 71
     2
 72
     1
  1
BP
  7
SLDTEXTSTYLE1
 73
     1
 44
1.0
  0
MTEXT
  5
1E3
330
1F
100
AcDbEntity
  8
TITLE
100
AcDbMText
 10
89.6659194848
 20
106.3397204642
 30
0.0
 40
0.125
 41
0.0
 71
     2
 72
     1
  1
BP
  7
SLDTEXTSTYLE1
 73
     1
 44
1.0
  0
MTEXT
  5
1E4
330
1F
100
AcDbEntity
  8
TITLE
100
AcDbMText
 10
0.3300006627
 20
108.3082244012
 30
0.0
 40
0.125
 41
0.0
 71
     2
 72
     1
  1
BR
  7
SLDTEXTSTYLE1
 73
     1
 44
1.0
  0
MTEXT
  5
1E5
330
1F
100
AcDbEntity
  8
TITLE
100
AcDbMText
 10
89.664646332
 20
108.3082244012
 30
0.0
 40
0.125
 41
0.0
 71
     2
 72
     1
  1
BR
  7
SLDTEXTSTYLE1
 73
     1
 44
1.0
  0
MTEXT
  5
1E6
330
1F
100
AcDbEntity
  8
TITLE
100
AcDbMText
 10
0.331375083
 20
110.2767283382
 30
0.0
 40
0.125
 41
0.0
 71
     2
 72
     1
  1
BT
  7
SLDTEXTSTYLE1
 73
     1
 44
1.0
  0
MTEXT
  5
1E7
330
1F
100
AcDbEntity
  8
TITLE
100
AcDbMText
 10
89.6660207523
 20
110.2767283382
 30
0.0
 40
0.125
 41
0.0
 71
     2
 72
     1
  1
BT
  7
SLDTEXTSTYLE1
 73
     1
 44
1.0
  0
MTEXT
  5
1E8
330
1F
100
AcDbEntity
  8
TITLE
100
AcDbMText
 10
0.3319248515
 20
112.2452322752
 30
0.0
 40
0.125
 41
0.0
 71
     2
 72
     1
  1
BU
  7
SLDTEXTSTYLE1
 73
     1
 44
1.0
  0
MTEXT
  5
1E9
330
1F
100
AcDbEntity
  8
TITLE
100
AcDbMText
 10
89.6665705208
 20
112.2452322752
 30
0.0
 40
0.125
 41
0.0
 71
     2
 72
     1
  1
BU
  7
SLDTEXTSTYLE1
 73
     1
 44
1.0
  0
MTEXT
  5
1EA
330
1F
100
AcDbEntity
  8
TITLE
100
AcDbMText
 10
0.3298270533
 20
114.2137362122
 30
0.0
 40
0.125
 41
0.0
 71
     2
 72
     1
  1
BV
  7
SLDTEXTSTYLE1
 73
     1
 44
1.0
  0
MTEXT
  5
1EB
330
1F
100
AcDbEntity
  8
TITLE
100
AcDbMText
 10
89.6644727226
 20
114.2137362122
 30
0.0
 40
0.125
 41
0.0
 71
     2
 72
     1
  1
BV
  7
SLDTEXTSTYLE1
 73
     1
 44
1.0
  0
MTEXT
  5
1EC
330
1F
100
AcDbEntity
  8
TITLE
100
AcDbMText
 10
0.3318525215
 20
116.1822401492
 30
0.0
 40
0.125
 41
0.0
 71
     2
 72
     1
  1
BW
  7
SLDTEXTSTYLE1
 73
     1
 44
1.0
  0
MTEXT
  5
1ED
330
1F
100
AcDbEntity
  8
TITLE
100
AcDbMText
 10
89.6664981907
 20
116.1822401492
 30
0.0
 40
0.125
 41
0.0
 71
     2
 72
     1
  1
BW
  7
SLDTEXTSTYLE1
 73
     1
 44
1.0
  0
MTEXT
  5
1EE
330
1F
100
AcDbEntity
  8
TITLE
100
AcDbMText
 10
0.3312738155
 20
118.3731850311
 30
0.0
 40
0.125
 41
0.0
 71
     2
 72
     1
  1
BY
  7
SLDTEXTSTYLE1
 73
     1
 44
1.0
  0
MTEXT
  5
1EF
330
1F
100
AcDbEntity
  8
TITLE
100
AcDbMText
 10
89.6659194848
 20
118.3731850311
 30
0.0
 40
0.125
 41
0.0
 71
     2
 72
     1
  1
BY
  7
SLDTEXTSTYLE1
 73
     1
 44
1.0
  0
MTEXT
  5
1F0
330
1F
100
AcDbEntity
  8
TITLE
100
AcDbMText
 10
1.0939393315
 20
0.4125551099
 30
0.0
 40
0.125
 41
0.0
 71
     2
 72
     1
  1
46
  7
SLDTEXTSTYLE1
 73
     1
 44
1.0
  0
MTEXT
  5
1F1
330
1F
100
AcDbEntity
  8
TITLE
100
AcDbMText
 10
1.0939393315
 20
119.7472007792
 30
0.0
 40
0.125
 41
0.0
 71
     2
 72
     1
  1
46
  7
SLDTEXTSTYLE1
 73
     1
 44
1.0
  0
MTEXT
  5
1F2
330
1F
100
AcDbEntity
  8
TITLE
100
AcDbMText
 10
2.674647993
 20
0.4125551099
 30
0.0
 40
0.125
 41
0.0
 71
     2
 72
     1
  1
45
  7
SLDTEXTSTYLE1
 73
     1
 44
1.0
  0
MTEXT
  5
1F3
330
1F
100
AcDbEntity
  8
TITLE
100
AcDbMText
 10
2.674647993
 20
119.7472007792
 30
0.0
 40
0.125
 41
0.0
 71
     2
 72
     1
  1
45
  7
SLDTEXTSTYLE1
 73
     1
 44
1.0
  0
MTEXT
  5
1F4
330
1F
100
AcDbEntity
  8
TITLE
100
AcDbMText
 10
4.64315193
 20
0.4125551099
 30
0.0
 40
0.125
 41
0.0
 71
     2
 72
     1
  1
44
  7
SLDTEXTSTYLE1
 73
     1
 44
1.0
  0
MTEXT
  5
1F5
330
1F
100
AcDbEntity
  8
TITLE
100
AcDbMText
 10
4.64315193
 20
119.7472007792
 30
0.0
 40
0.125
 41
0.0
 71
     2
 72
     1
  1
44
  7
SLDTEXTSTYLE1
 73
     1
 44
1.0
  0
MTEXT
  5
1F6
330
1F
100
AcDbEntity
  8
TITLE
100
AcDbMText
 10
6.611655867
 20
0.4125551099
 30
0.0
 40
0.125
 41
0.0
 71
     2
 72
     1
  1
43
  7
SLDTEXTSTYLE1
 73
     1
 44
1.0
  0
MTEXT
  5
1F7
330
1F
100
AcDbEntity
  8
TITLE
100
AcDbMText
 10
6.611655867
 20
119.7472007792
 30
0.0
 40
0.125
 41
0.0
 71
     2
 72
     1
  1
43
  7
SLDTEXTSTYLE1
 73
     1
 44
1.0
  0
MTEXT
  5
1F8
330
1F
100
AcDbEntity
  8
TITLE
100
AcDbMText
 10
8.580159804
 20
0.4125551099
 30
0.0
 40
0.125
 41
0.0
 71
     2
 72
     1
  1
42
  7
SLDTEXTSTYLE1
 73
     1
 44
1.0
  0
MTEXT
  5
1F9
330
1F
100
AcDbEntity
  8
TITLE
100
AcDbMText
 10
8.580159804
 20
119.7472007792
 30
0.0
 40
0.125
 41
0.0
 71
     2
 72
     1
  1
42
  7
SLDTEXTSTYLE1
 73
     1
 44
1.0
  0
MTEXT
  5
1FA
330
1F
100
AcDbEntity
  8
TITLE
100
AcDbMText
 10
10.548663741
 20
0.4125551099
 30
0.0
 40
0.125
 41
0.0
 71
     2
 72
     1
  1
41
  7
SLDTEXTSTYLE1
 73
     1
 44
1.0
  0
MTEXT
  5
1FB
330
1F
100
AcDbEntity
  8
TITLE
100
AcDbMText
 10
10.548663741
 20
119.7472007792
 30
0.0
 40
0.125
 41
0.0
 71
     2
 72
     1
  1
41
  7
SLDTEXTSTYLE1
 73
     1
 44
1.0
  0
MTEXT
  5
1FC
330
1F
100
AcDbEntity
  8
TITLE
100
AcDbMText
 10
12.517167678
 20
0.4125551099
 30
0.0
 40
0.125
 41
0.0
 71
     2
 72
     1
  1
40
  7
SLDTEXTSTYLE1
 73
     1
 44
1.0
  0
MTEXT
  5
1FD
330
1F
100
AcDbEntity
  8
TITLE
100
AcDbMText
 10
12.517167678
 20
119.7472007792
 30
0.0
 40
0.125
 41
0.0
 71
     2
 72
     1
  1
40
  7
SLDTEXTSTYLE1
 73
     1
 44
1.0
  0
MTEXT
  5
1FE
330
1F
100
AcDbEntity
  8
TITLE
100
AcDbMText
 10
14.485671615
 20
0.4125551099
 30
0.0
 40
0.125
 41
0.0
 71
     2
 72
     1
  1
39
  7
SLDTEXTSTYLE1
 73
     1
 44
1.0
  0
MTEXT
  5
1FF
330
1F
100
AcDbEntity
  8
TITLE
100
AcDbMText
 10
14.485671615
 20
119.7472007792
 30
0.0
 40
0.125
 41
0.0
 71
     2
 72
     1
  1
39
  7
SLDTEXTSTYLE1
 73
     1
 44
1.0
  0
MTEXT
  5
200
330
1F
100
AcDbEntity
  8
TITLE
100
AcDbMText
 10
16.454175552
 20
0.4125551099
 30
0.0
 40
0.125
 41
0.0
 71
     2
 72
     1
  1
38
  7
SLDTEXTSTYLE1
 73
     1
 44
1.0
  0
MTEXT
  5
201
330
1F
100
AcDbEntity
  8
TITLE
100
AcDbMText
 10
16.454175552
 20
119.7472007792
 30
0.0
 40
0.125
 41
0.0
 71
     2
 72
     1
  1
38
  7
SLDTEXTSTYLE1
 73
     1
 44
1.0
  0
MTEXT
  5
202
330
1F
100
AcDbEntity
  8
TITLE
100
AcDbMText
 10
18.422679489
 20
0.4125551099
 30
0.0
 40
0.125
 41
0.0
 71
     2
 72
     1
  1
37
  7
SLDTEXTSTYLE1
 73
     1
 44
1.0
  0
MTEXT
  5
203
330
1F
100
AcDbEntity
  8
TITLE
100
AcDbMText
 10
18.422679489
 20
119.7472007792
 30
0.0
 40
0.125
 41
0.0
 71
     2
 72
     1
  1
37
  7
SLDTEXTSTYLE1
 73
     1
 44
1.0
  0
MTEXT
  5
204
330
1F
100
AcDbEntity
  8
TITLE
100
AcDbMText
 10
20.391183426
 20
0.4125551099
 30
0.0
 40
0.125
 41
0.0
 71
     2
 72
     1
  1
36
  7
SLDTEXTSTYLE1
 73
     1
 44
1.0
  0
MTEXT
  5
205
330
1F
100
AcDbEntity
  8
TITLE
100
AcDbMText
 10
20.391183426
 20
119.7472007792
 30
0.0
 40
0.125
 41
0.0
 71
     2
 72
     1
  1
36
  7
SLDTEXTSTYLE1
 73
     1
 44
1.0
  0
MTEXT
  5
206
330
1F
100
AcDbEntity
  8
TITLE
100
AcDbMText
 10
22.359687363
 20
0.4125551099
 30
0.0
 40
0.125
 41
0.0
 71
     2
 72
     1
  1
35
  7
SLDTEXTSTYLE1
 73
     1
 44
1.0
  0
MTEXT
  5
207
330
1F
100
AcDbEntity
  8
TITLE
100
AcDbMText
 10
22.359687363
 20
119.7472007792
 30
0.0
 40
0.125
 41
0.0
 71
     2
 72
     1
  1
35
  7
SLDTEXTSTYLE1
 73
     1
 44
1.0
  0
MTEXT
  5
208
330
1F
100
AcDbEntity
  8
TITLE
100
AcDbMText
 10
24.3281913
 20
0.4125551099
 30
0.0
 40
0.125
 41
0.0
 71
     2
 72
     1
  1
34
  7
SLDTEXTSTYLE1
 73
     1
 44
1.0
  0
MTEXT
  5
209
330
1F
100
AcDbEntity
  8
TITLE
100
AcDbMText
 10
24.3281913
 20
119.7472007792
 30
0.0
 40
0.125
 41
0.0
 71
     2
 72
     1
  1
34
  7
SLDTEXTSTYLE1
 73
     1
 44
1.0
  0
MTEXT
  5
20A
330
1F
100
AcDbEntity
  8
TITLE
100
AcDbMText
 10
26.2966952371
 20
0.4125551099
 30
0.0
 40
0.125
 41
0.0
 71
     2
 72
     1
  1
33
  7
SLDTEXTSTYLE1
 73
     1
 44
1.0
  0
MTEXT
  5
20B
330
1F
100
AcDbEntity
  8
TITLE
100
AcDbMText
 10
26.2966952371
 20
119.7472007792
 30
0.0
 40
0.125
 41
0.0
 71
     2
 72
     1
  1
33
  7
SLDTEXTSTYLE1
 73
     1
 44
1.0
  0
MTEXT
  5
20C
330
1F
100
AcDbEntity
  8
TITLE
100
AcDbMText
 10
28.2651991741
 20
0.4125551099
 30
0.0
 40
0.125
 41
0.0
 71
     2
 72
     1
  1
32
  7
SLDTEXTSTYLE1
 73
     1
 44
1.0
  0
MTEXT
  5
20D
330
1F
100
AcDbEntity
  8
TITLE
100
AcDbMText
 10
28.2651991741
 20
119.7472007792
 30
0.0
 40
0.125
 41
0.0
 71
     2
 72
     1
  1
32
  7
SLDTEXTSTYLE1
 73
     1
 44
1.0
  0
MTEXT
  5
20E
330
1F
100
AcDbEntity
  8
TITLE
100
AcDbMText
 10
30.2337031111
 20
0.4125551099
 30
0.0
 40
0.125
 41
0.0
 71
     2
 72
     1
  1
31
  7
SLDTEXTSTYLE1
 73
     1
 44
1.0
  0
MTEXT
  5
20F
330
1F
100
AcDbEntity
  8
TITLE
100
AcDbMText
 10
30.2337031111
 20
119.7472007792
 30
0.0
 40
0.125
 41
0.0
 71
     2
 72
     1
  1
31
  7
SLDTEXTSTYLE1
 73
     1
 44
1.0
  0
MTEXT
  5
210
330
1F
100
AcDbEntity
  8
TITLE
100
AcDbMText
 10
32.2022070481
 20
0.4125551099
 30
0.0
 40
0.125
 41
0.0
 71
     2
 72
     1
  1
30
  7
SLDTEXTSTYLE1
 73
     1
 44
1.0
  0
MTEXT
  5
211
330
1F
100
AcDbEntity
  8
TITLE
100
AcDbMText
 10
32.2022070481
 20
119.7472007792
 30
0.0
 40
0.125
 41
0.0
 71
     2
 72
     1
  1
30
  7
SLDTEXTSTYLE1
 73
     1
 44
1.0
  0
MTEXT
  5
212
330
1F
100
AcDbEntity
  8
TITLE
100
AcDbMText
 10
34.1707109851
 20
0.4125551099
 30
0.0
 40
0.125
 41
0.0
 71
     2
 72
     1
  1
29
  7
SLDTEXTSTYLE1
 73
     1
 44
1.0
  0
MTEXT
  5
213
330
1F
100
AcDbEntity
  8
TITLE
100
AcDbMText
 10
34.1707109851
 20
119.7472007792
 30
0.0
 40
0.125
 41
0.0
 71
     2
 72
     1
  1
29
  7
SLDTEXTSTYLE1
 73
     1
 44
1.0
  0
MTEXT
  5
214
330
1F
100
AcDbEntity
  8
TITLE
100
AcDbMText
 10
36.1392149221
 20
0.4125551099
 30
0.0
 40
0.125
 41
0.0
 71
     2
 72
     1
  1
28
  7
SLDTEXTSTYLE1
 73
     1
 44
1.0
  0
MTEXT
  5
215
330
1F
100
AcDbEntity
  8
TITLE
100
AcDbMText
 10
36.1392149221
 20
119.7472007792
 30
0.0
 40
0.125
 41
0.0
 71
     2
 72
     1
  1
28
  7
SLDTEXTSTYLE1
 73
     1
 44
1.0
  0
MTEXT
  5
216
330
1F
100
AcDbEntity
  8
TITLE
100
AcDbMText
 10
38.1077188591
 20
0.4125551099
 30
0.0
 40
0.125
 41
0.0
 71
     2
 72
     1
  1
27
  7
SLDTEXTSTYLE1
 73
     1
 44
1.0
  0
MTEXT
  5
217
330
1F
100
AcDbEntity
  8
TITLE
100
AcDbMText
 10
38.1077188591
 20
119.7472007792
 30
0.0
 40
0.125
 41
0.0
 71
     2
 72
     1
  1
27
  7
SLDTEXTSTYLE1
 73
     1
 44
1.0
  0
MTEXT
  5
218
330
1F
100
AcDbEntity
  8
TITLE
100
AcDbMText
 10
40.0762227961
 20
0.4125551099
 30
0.0
 40
0.125
 41
0.0
 71
     2
 72
     1
  1
26
  7
SLDTEXTSTYLE1
 73
     1
 44
1.0
  0
MTEXT
  5
219
330
1F
100
AcDbEntity
  8
TITLE
100
AcDbMText
 10
40.0762227961
 20
119.7472007792
 30
0.0
 40
0.125
 41
0.0
 71
     2
 72
     1
  1
26
  7
SLDTEXTSTYLE1
 73
     1
 44
1.0
  0
MTEXT
  5
21A
330
1F
100
AcDbEntity
  8
TITLE
100
AcDbMText
 10
42.0447267331
 20
0.4125551099
 30
0.0
 40
0.125
 41
0.0
 71
     2
 72
     1
  1
25
  7
SLDTEXTSTYLE1
 73
     1
 44
1.0
  0
MTEXT
  5
21B
330
1F
100
AcDbEntity
  8
TITLE
100
AcDbMText
 10
42.0447267331
 20
119.7472007792
 30
0.0
 40
0.125
 41
0.0
 71
     2
 72
     1
  1
25
  7
SLDTEXTSTYLE1
 73
     1
 44
1.0
  0
MTEXT
  5
21C
330
1F
100
AcDbEntity
  8
TITLE
100
AcDbMText
 10
44.0132306701
 20
0.4125551099
 30
0.0
 40
0.125
 41
0.0
 71
     2
 72
     1
  1
24
  7
SLDTEXTSTYLE1
 73
     1
 44
1.0
  0
MTEXT
  5
21D
330
1F
100
AcDbEntity
  8
TITLE
100
AcDbMText
 10
44.0132306701
 20
119.7472007792
 30
0.0
 40
0.125
 41
0.0
 71
     2
 72
     1
  1
24
  7
SLDTEXTSTYLE1
 73
     1
 44
1.0
  0
MTEXT
  5
21E
330
1F
100
AcDbEntity
  8
TITLE
100
AcDbMText
 10
45.9817346071
 20
0.4125551099
 30
0.0
 40
0.125
 41
0.0
 71
     2
 72
     1
  1
23
  7
SLDTEXTSTYLE1
 73
     1
 44
1.0
  0
MTEXT
  5
21F
330
1F
100
AcDbEntity
  8
TITLE
100
AcDbMText
 10
45.9817346071
 20
119.7472007792
 30
0.0
 40
0.125
 41
0.0
 71
     2
 72
     1
  1
23
  7
SLDTEXTSTYLE1
 73
     1
 44
1.0
  0
MTEXT
  5
220
330
1F
100
AcDbEntity
  8
TITLE
100
AcDbMText
 10
47.9502385441
 20
0.4125551099
 30
0.0
 40
0.125
 41
0.0
 71
     2
 72
     1
  1
22
  7
SLDTEXTSTYLE1
 73
     1
 44
1.0
  0
MTEXT
  5
221
330
1F
100
AcDbEntity
  8
TITLE
100
AcDbMText
 10
47.9502385441
 20
119.7472007792
 30
0.0
 40
0.125
 41
0.0
 71
     2
 72
     1
  1
22
  7
SLDTEXTSTYLE1
 73
     1
 44
1.0
  0
MTEXT
  5
222
330
1F
100
AcDbEntity
  8
TITLE
100
AcDbMText
 10
49.9187424811
 20
0.4125551099
 30
0.0
 40
0.125
 41
0.0
 71
     2
 72
     1
  1
21
  7
SLDTEXTSTYLE1
 73
     1
 44
1.0
  0
MTEXT
  5
223
330
1F
100
AcDbEntity
  8
TITLE
100
AcDbMText
 10
49.9187424811
 20
119.7472007792
 30
0.0
 40
0.125
 41
0.0
 71
     2
 72
     1
  1
21
  7
SLDTEXTSTYLE1
 73
     1
 44
1.0
  0
MTEXT
  5
224
330
1F
100
AcDbEntity
  8
TITLE
100
AcDbMText
 10
51.8872464182
 20
0.4125551099
 30
0.0
 40
0.125
 41
0.0
 71
     2
 72
     1
  1
20
  7
SLDTEXTSTYLE1
 73
     1
 44
1.0
  0
MTEXT
  5
225
330
1F
100
AcDbEntity
  8
TITLE
100
AcDbMText
 10
51.8872464182
 20
119.7472007792
 30
0.0
 40
0.125
 41
0.0
 71
     2
 72
     1
  1
20
  7
SLDTEXTSTYLE1
 73
     1
 44
1.0
  0
MTEXT
  5
226
330
1F
100
AcDbEntity
  8
TITLE
100
AcDbMText
 10
53.8557503552
 20
0.4125551099
 30
0.0
 40
0.125
 41
0.0
 71
     2
 72
     1
  1
19
  7
SLDTEXTSTYLE1
 73
     1
 44
1.0
  0
MTEXT
  5
227
330
1F
100
AcDbEntity
  8
TITLE
100
AcDbMText
 10
53.8557503552
 20
119.7472007792
 30
0.0
 40
0.125
 41
0.0
 71
     2
 72
     1
  1
19
  7
SLDTEXTSTYLE1
 73
     1
 44
1.0
  0
MTEXT
  5
228
330
1F
100
AcDbEntity
  8
TITLE
100
AcDbMText
 10
55.8242542922
 20
0.4125551099
 30
0.0
 40
0.125
 41
0.0
 71
     2
 72
     1
  1
18
  7
SLDTEXTSTYLE1
 73
     1
 44
1.0
  0
MTEXT
  5
229
330
1F
100
AcDbEntity
  8
TITLE
100
AcDbMText
 10
55.8242542922
 20
119.7472007792
 30
0.0
 40
0.125
 41
0.0
 71
     2
 72
     1
  1
18
  7
SLDTEXTSTYLE1
 73
     1
 44
1.0
  0
MTEXT
  5
22A
330
1F
100
AcDbEntity
  8
TITLE
100
AcDbMText
 10
57.7927582292
 20
0.4125551099
 30
0.0
 40
0.125
 41
0.0
 71
     2
 72
     1
  1
17
  7
SLDTEXTSTYLE1
 73
     1
 44
1.0
  0
MTEXT
  5
22B
330
1F
100
AcDbEntity
  8
TITLE
100
AcDbMText
 10
57.7927582292
 20
119.7472007792
 30
0.0
 40
0.125
 41
0.0
 71
     2
 72
     1
  1
17
  7
SLDTEXTSTYLE1
 73
     1
 44
1.0
  0
MTEXT
  5
22C
330
1F
100
AcDbEntity
  8
TITLE
100
AcDbMText
 10
59.7612621662
 20
0.4125551099
 30
0.0
 40
0.125
 41
0.0
 71
     2
 72
     1
  1
16
  7
SLDTEXTSTYLE1
 73
     1
 44
1.0
  0
MTEXT
  5
22D
330
1F
100
AcDbEntity
  8
TITLE
100
AcDbMText
 10
59.7612621662
 20
119.7472007792
 30
0.0
 40
0.125
 41
0.0
 71
     2
 72
     1
  1
16
  7
SLDTEXTSTYLE1
 73
     1
 44
1.0
  0
MTEXT
  5
22E
330
1F
100
AcDbEntity
  8
TITLE
100
AcDbMText
 10
61.7297661032
 20
0.4125551099
 30
0.0
 40
0.125
 41
0.0
 71
     2
 72
     1
  1
15
  7
SLDTEXTSTYLE1
 73
     1
 44
1.0
  0
MTEXT
  5
22F
330
1F
100
AcDbEntity
  8
TITLE
100
AcDbMText
 10
61.7297661032
 20
119.7472007792
 30
0.0
 40
0.125
 41
0.0
 71
     2
 72
     1
  1
15
  7
SLDTEXTSTYLE1
 73
     1
 44
1.0
  0
MTEXT
  5
230
330
1F
100
AcDbEntity
  8
TITLE
100
AcDbMText
 10
63.6982700402
 20
0.4125551099
 30
0.0
 40
0.125
 41
0.0
 71
     2
 72
     1
  1
14
  7
SLDTEXTSTYLE1
 73
     1
 44
1.0
  0
MTEXT
  5
231
330
1F
100
AcDbEntity
  8
TITLE
100
AcDbMText
 10
63.6982700402
 20
119.7472007792
 30
0.0
 40
0.125
 41
0.0
 71
     2
 72
     1
  1
14
  7
SLDTEXTSTYLE1
 73
     1
 44
1.0
  0
MTEXT
  5
232
330
1F
100
AcDbEntity
  8
TITLE
100
AcDbMText
 10
65.6667739772
 20
0.4125551099
 30
0.0
 40
0.125
 41
0.0
 71
     2
 72
     1
  1
13
  7
SLDTEXTSTYLE1
 73
     1
 44
1.0
  0
MTEXT
  5
233
330
1F
100
AcDbEntity
  8
TITLE
100
AcDbMText
 10
65.6667739772
 20
119.7472007792
 30
0.0
 40
0.125
 41
0.0
 71
     2
 72
     1
  1
13
  7
SLDTEXTSTYLE1
 73
     1
 44
1.0
  0
MTEXT
  5
234
330
1F
100
AcDbEntity
  8
TITLE
100
AcDbMText
 10
67.6352779142
 20
0.4125551099
 30
0.0
 40
0.125
 41
0.0
 71
     2
 72
     1
  1
12
  7
SLDTEXTSTYLE1
 73
     1
 44
1.0
  0
MTEXT
  5
235
330
1F
100
AcDbEntity
  8
TITLE
100
AcDbMText
 10
67.6352779142
 20
119.7472007792
 30
0.0
 40
0.125
 41
0.0
 71
     2
 72
     1
  1
12
  7
SLDTEXTSTYLE1
 73
     1
 44
1.0
  0
MTEXT
  5
236
330
1F
100
AcDbEntity
  8
TITLE
100
AcDbMText
 10
69.6037818512
 20
0.4125551099
 30
0.0
 40
0.125
 41
0.0
 71
     2
 72
     1
  1
11
  7
SLDTEXTSTYLE1
 73
     1
 44
1.0
  0
MTEXT
  5
237
330
1F
100
AcDbEntity
  8
TITLE
100
AcDbMText
 10
69.6037818512
 20
119.7472007792
 30
0.0
 40
0.125
 41
0.0
 71
     2
 72
     1
  1
11
  7
SLDTEXTSTYLE1
 73
     1
 44
1.0
  0
MTEXT
  5
238
330
1F
100
AcDbEntity
  8
TITLE
100
AcDbMText
 10
71.5722857882
 20
0.4125551099
 30
0.0
 40
0.125
 41
0.0
 71
     2
 72
     1
  1
10
  7
SLDTEXTSTYLE1
 73
     1
 44
1.0
  0
MTEXT
  5
239
330
1F
100
AcDbEntity
  8
TITLE
100
AcDbMText
 10
71.5722857882
 20
119.7472007792
 30
0.0
 40
0.125
 41
0.0
 71
     2
 72
     1
  1
10
  7
SLDTEXTSTYLE1
 73
     1
 44
1.0
  0
MTEXT
  5
23A
330
1F
100
AcDbEntity
  8
TITLE
100
AcDbMText
 10
73.5420484059
 20
0.4125551099
 30
0.0
 40
0.125
 41
0.0
 71
     2
 72
     1
  1
9
  7
SLDTEXTSTYLE1
 73
     1
 44
1.0
  0
MTEXT
  5
23B
330
1F
100
AcDbEntity
  8
TITLE
100
AcDbMText
 10
73.5420484059
 20
119.7472007792
 30
0.0
 40
0.125
 41
0.0
 71
     2
 72
     1
  1
9
  7
SLDTEXTSTYLE1
 73
     1
 44
1.0
  0
MTEXT
  5
23C
330
1F
100
AcDbEntity
  8
TITLE
100
AcDbMText
 10
75.5105523429
 20
0.4125551099
 30
0.0
 40
0.125
 41
0.0
 71
     2
 72
     1
  1
8
  7
SLDTEXTSTYLE1
 73
     1
 44
1.0
  0
MTEXT
  5
23D
330
1F
100
AcDbEntity
  8
TITLE
100
AcDbMText
 10
75.5105523429
 20
119.7472007792
 30
0.0
 40
0.125
 41
0.0
 71
     2
 72
     1
  1
8
  7
SLDTEXTSTYLE1
 73
     1
 44
1.0
  0
MTEXT
  5
23E
330
1F
100
AcDbEntity
  8
TITLE
100
AcDbMText
 10
77.4790562799
 20
0.4125551099
 30
0.0
 40
0.125
 41
0.0
 71
     2
 72
     1
  1
7
  7
SLDTEXTSTYLE1
 73
     1
 44
1.0
  0
MTEXT
  5
23F
330
1F
100
AcDbEntity
  8
TITLE
100
AcDbMText
 10
77.4790562799
 20
119.7472007792
 30
0.0
 40
0.125
 41
0.0
 71
     2
 72
     1
  1
7
  7
SLDTEXTSTYLE1
 73
     1
 44
1.0
  0
MTEXT
  5
240
330
1F
100
AcDbEntity
  8
TITLE
100
AcDbMText
 10
79.447560217
 20
0.4125551099
 30
0.0
 40
0.125
 41
0.0
 71
     2
 72
     1
  1
6
  7
SLDTEXTSTYLE1
 73
     1
 44
1.0
  0
MTEXT
  5
241
330
1F
100
AcDbEntity
  8
TITLE
100
AcDbMText
 10
79.447560217
 20
119.7472007792
 30
0.0
 40
0.125
 41
0.0
 71
     2
 72
     1
  1
6
  7
SLDTEXTSTYLE1
 73
     1
 44
1.0
  0
MTEXT
  5
242
330
1F
100
AcDbEntity
  8
TITLE
100
AcDbMText
 10
81.416064154
 20
0.4125551099
 30
0.0
 40
0.125
 41
0.0
 71
     2
 72
     1
  1
5
  7
SLDTEXTSTYLE1
 73
     1
 44
1.0
  0
MTEXT
  5
243
330
1F
100
AcDbEntity
  8
TITLE
100
AcDbMText
 10
81.416064154
 20
119.7472007792
 30
0.0
 40
0.125
 41
0.0
 71
     2
 72
     1
  1
5
  7
SLDTEXTSTYLE1
 73
     1
 44
1.0
  0
MTEXT
  5
244
330
1F
100
AcDbEntity
  8
TITLE
100
AcDbMText
 10
83.384568091
 20
0.4125551099
 30
0.0
 40
0.125
 41
0.0
 71
     2
 72
     1
  1
4
  7
SLDTEXTSTYLE1
 73
     1
 44
1.0
  0
MTEXT
  5
245
330
1F
100
AcDbEntity
  8
TITLE
100
AcDbMText
 10
83.384568091
 20
119.7472007792
 30
0.0
 40
0.125
 41
0.0
 71
     2
 72
     1
  1
4
  7
SLDTEXTSTYLE1
 73
     1
 44
1.0
  0
MTEXT
  5
246
330
1F
100
AcDbEntity
  8
TITLE
100
AcDbMText
 10
85.353072028
 20
0.4125551099
 30
0.0
 40
0.125
 41
0.0
 71
     2
 72
     1
  1
3
  7
SLDTEXTSTYLE1
 73
     1
 44
1.0
  0
MTEXT
  5
247
330
1F
100
AcDbEntity
  8
TITLE
100
AcDbMText
 10
85.353072028
 20
119.7472007792
 30
0.0
 40
0.125
 41
0.0
 71
     2
 72
     1
  1
3
  7
SLDTEXTSTYLE1
 73
     1
 44
1.0
  0
MTEXT
  5
248
330
1F
100
AcDbEntity
  8
TITLE
100
AcDbMText
 10
87.321575965
 20
0.4125551099
 30
0.0
 40
0.125
 41
0.0
 71
     2
 72
     1
  1
2
  7
SLDTEXTSTYLE1
 73
     1
 44
1.0
  0
MTEXT
  5
249
330
1F
100
AcDbEntity
  8
TITLE
100
AcDbMText
 10
87.321575965
 20
119.7472007792
 30
0.0
 40
0.125
 41
0.0
 71
     2
 72
     1
  1
2
  7
SLDTEXTSTYLE1
 73
     1
 44
1.0
  0
MTEXT
  5
24A
330
1F
100
AcDbEntity
  8
TITLE
100
AcDbMText
 10
88.9022846264
 20
0.4125551099
 30
0.0
 40
0.125
 41
0.0
 71
     2
 72
     1
  1
1
  7
SLDTEXTSTYLE1
 73
     1
 44
1.0
  0
MTEXT
  5
24B
330
1F
100
AcDbEntity
  8
TITLE
100
AcDbMText
 10
88.9022846264
 20
119.7472007792
 30
0.0
 40
0.125
 41
0.0
 71
     2
 72
     1
  1
1
  7
SLDTEXTSTYLE1
 73
     1
 44
1.0
  0
ARC
  5
24C
330
1F
100
AcDbEntity
  8
0
  6
SLD-Solid
 62
     7
370
    25
100
AcDbCircle
 10
22.3921894713
 20
19.1189942153
 30
0.0
 40
0.75
100
AcDbArc
 50
210.0
 51
270.0
  0
ARC
  5
24D
330
1F
100
AcDbEntity
  8
0
  6
SLD-Solid
 62
     7
370
    25
100
AcDbCircle
 10
22.3921894713
 20
19.1189942153
 30
0.0
 40
2.25
100
AcDbArc
 50
210.0
 51
270.0
  0
LINE
  5
24E
330
1F
100
AcDbEntity
  8
0
  6
SLD-Solid
 62
     7
370
    25
100
AcDbLine
 10
9.8841450146
 20
36.2835627175
 30
0.0
 11
20.4436323127
 21
17.9939942153
 31
0.0
  0
LINE
  5
24F
330
1F
100
AcDbEntity
  8
0
  6
SLD-Solid
 62
     7
370
    25
100
AcDbLine
 10
21.7426704184
 20
18.7439942153
 30
0.0
 11
11.1831831203
 21
37.0335627175
 31
0.0
  0
LINE
  5
250
330
1F
100
AcDbEntity
  8
0
  6
SLD-Solid
 62
     7
370
    25
100
AcDbLine
 10
11.1831831203
 20
37.0335627175
 30
0.0
 11
10.1756831203
 21
38.7786039061
 31
0.0
  0
LINE
  5
251
330
1F
100
AcDbEntity
  8
0
  6
SLD-Solid
 62
     7
370
    25
100
AcDbLine
 10
8.8766450146
 20
38.0286039061
 30
0.0
 11
9.8841450146
 21
36.2835627175
 31
0.0
  0
LINE
  5
252
330
1F
100
AcDbEntity
  8
0
  6
SLD-Solid
 62
     7
370
    25
100
AcDbLine
 10
22.3921894713
 20
16.8689942153
 30
0.0
 11
43.5111640675
 21
16.8689942153
 31
0.0
  0
LINE
  5
253
330
1F
100
AcDbEntity
  8
0
  6
SLD-Solid
 62
     7
370
    25
100
AcDbLine
 10
43.5111640675
 20
18.3689942153
 30
0.0
 11
22.3921894713
 21
18.3689942153
 31
0.0
  0
LINE
  5
254
330
1F
100
AcDbEntity
  8
0
  6
SLD-Solid
 62
     7
370
    25
100
AcDbLine
 10
45.5261640675
 20
18.3689942153
 30
0.0
 11
43.5111640675
 21
18.3689942153
 31
0.0
  0
LINE
  5
255
330
1F
100
AcDbEntity
  8
0
  6
SLD-Solid
 62
     7
370
    25
100
AcDbLine
 10
43.5111640675
 20
16.8689942153
 30
0.0
 11
45.5261640675
 21
16.8689942153
 31
0.0
  0
ARC
  5
256
330
1F
100
AcDbEntity
  8
0
  6
SLD-Solid
 62
     7
370
    25
100
AcDbCircle
 10
9.5261640675
 20
38.4036039061
 30
0.0
 40
1.531250000000003
100
AcDbArc
 50
329.3271687654
 51
90.0
  0
ARC
  5
257
330
1F
100
AcDbEntity
  8
0
  6
SLD-Solid
 62
     7
370
    25
100
AcDbCircle
 10
9.5261640675
 20
38.4036039061
 30
0.0
 40
1.53125
100
AcDbArc
 50
90.0
 51
270.6728312346
  0
ARC
  5
258
330
1F
100
AcDbEntity
  8
0
  6
SLD-Solid
 62
     7
370
    25
100
AcDbCircle
 10
45.5261640675
 20
17.6189942153
 30
0.0
 40
0.7800000000000039
100
AcDbArc
 50
254.0576313944
 51
270.0
  0
ARC
  5
259
330
1F
100
AcDbEntity
  8
0
  6
SLD-Solid
 62
     7
370
    25
100
AcDbCircle
 10
45.5261640675
 20
17.6189942153
 30
0.0
 40
0.7800000000000011
100
AcDbArc
 50
270.0
 51
105.9423686056
  0
ARC
  5
25A
330
1F
100
AcDbEntity
  8
0
  6
SLD-Solid
 62
     7
370
    25
100
AcDbCircle
 10
45.5261640675
 20
17.6189942153
 30
0.0
 40
1.531250000000006
100
AcDbArc
 50
209.3271687654
 51
90.0
  0
ARC
  5
25B
330
1F
100
AcDbEntity
  8
0
  6
SLD-Solid
 62
     7
370
    25
100
AcDbCircle
 10
45.5261640675
 20
17.6189942153
 30
0.0
 40
1.531250000000004
100
AcDbArc
 50
90.0
 51
150.6728312346
  0
ARC
  5
25C
330
1F
100
AcDbEntity
  8
0
  6
SLD-Solid
 62
     7
370
    25
100
AcDbCircle
 10
9.5261640675
 20
38.4036039061
 30
0.0
 40
0.7500000000000037
100
AcDbArc
 50
30.0
 51
210.0
  0
ARC
  5
25D
330
1F
100
AcDbEntity
  8
0
  6
SLD-Solid
 62
     7
370
    25
100
AcDbCircle
 10
45.5261640675
 20
17.6189942153
 30
0.0
 40
0.7500000000000036
100
AcDbArc
 50
270.0
 51
90.0
  0
HATCH
  5
25E
330
1F
100
AcDbEntity
  8
NOTES
100
AcDbHatch
 10
0.0
 20
0.0
 30
0.0
210
0.0
220
0.0
230
1.0
  2
AR-SAND
 70
     0
 71
     0
 91
        1
 92
        0
 93
        8
 72
     2
 10
22.39218947125374
 20
19.1189942152808
 40
0.7499999999999998
 50
89.99999999999919
 51
150.0000000000005
 73
     0
 72
     1
 10
21.74267041841541
 20
18.74399421528081
 11
11.68318312030771
 21
36.1675373136973
 72
     1
 10
11.68318312030771
 20
36.1675373136973
 11
10.38414501463106
 21
35.41753731369728
 72
     1
 10
10.38414501463106
 20
35.41753731369728
 11
20.44363231273875
 21
17.99399421528082
 72
     2
 10
22.39218947125374
 20
19.1189942152808
 40
2.249999999999999
 50
210.0000000000005
 51
270.0000000000013
 73
     1
 72
     1
 10
22.39218947125375
 20
16.8689942152808
 11
42.51116406746931
 21
16.86899421528096
 72
     1
 10
42.51116406746931
 20
16.86899421528096
 11
42.51116406746929
 21
18.36899421528096
 72
     1
 10
42.51116406746929
 20
18.36899421528096
 11
22.39218947125375
 21
18.3689942152808
 97
        0
 75
     0
 76
     1
 52
0.0
 41
5.3333333333
 77
     0
 78
     4
 53
37.5
 43
0.0
 44
0.0
 45
-0.3359645765845768
 46
10.27639343473685
 79
     6
 49
0.0
 49
-8.106666666666666
 49
0.0
 49
-9.066666666666666
 49
0.0
 49
-8.666666666666666
 53
7.5
 43
0.0
 44
0.0
 45
9.438809094761211
 46
15.05144568122528
 79
     6
 49
0.0
 49
-4.373333333333333
 49
0.0
 49
-7.306666666666667
 49
0.0
 49
-2.8
 53
-32.5
 43
-6.56
 44
0.0
 45
16.60875659600797
 46
0.0301816188638118
 79
     6
 49
0.0
 49
-2.666666666666667
 49
0.0
 49
-9.6
 49
0.0
 49
-12.53333333333333
 53
-42.50000000000001
 43
-6.56
 44
0.0
 45
16.03267522438556
 46
4.680936346315996
 79
     6
 49
0.0
 49
-1.333333333333333
 49
0.0
 49
-6.293333333333333
 49
0.0
 49
-7.2
 98
        1
 10
0.0
 20
0.0
  0
DIMENSION
  5
25F
330
1F
100
AcDbEntity
  8
DIMS
100
AcDbDimension
  2
_D
 10
19.6805423528
 20
16.5534240215
 30
0.0
 11
13.6185433538
 21
27.0531142832
 31
0.0
 70
   160
  1
<>
 71
     2
 42
-1.0
  3
SLDDIMSTYLE0
100
AcDbAlignedDimension
 13
9.5261640675
 23
38.4036039061
 33
0.0
 14
21.5261640675
 24
17.6189942153
 34
0.0
 50
-60.0
100
AcDbRotatedDimension
  0
DIMENSION
  5
271
330
1F
100
AcDbEntity
  8
DIMS
100
AcDbDimension
  2
_D_1
 10
45.5261640675
 20
15.3890729554
 30
0.0
 11
32.9184505182
 21
15.3890729554
 31
0.0
 70
   160
  1
<>
 71
     2
 42
-1.0
  3
SLDDIMSTYLE0
100
AcDbAlignedDimension
 13
21.5261640675
 23
17.6189942153
 33
0.0
 14
45.5261640675
 24
17.6189942153
 34
0.0
 50
0.0
100
AcDbRotatedDimension
  0
DIMENSION
  5
27C
330
1F
100
AcDbEntity
  8
DIMS
100
AcDbDimension
  2
_D_2
 10
8.4470446545
 20
37.3172209833
 30
0.0
 11
13.870385787
 21
41.2862481298
 31
0.0
 70
   163
  1
<>
 71
     1
 42
-1.0
  3
SLDDIMSTYLE1
100
AcDbDiametricDimension
 15
10.6052834805
 25
39.4899868289
 35
0.0
 40
0.0
  0
DIMENSION
  5
28A
330
1F
100
AcDbEntity
  8
DIMS
100
AcDbDimension
  2
_D_3
 10
43.5111640675
 20
18.3689942153
 30
0.0
 11
23.8968619895
 21
21.2146985713
 31
0.0
 70
   162
  1
<>
 71
     1
 42
-1.0
  3
SLDDIMSTYLE2
100
AcDb2LineAngularDimension
 13
11.1831831203
 23
37.0335627175
 33
0.0
 14
21.7426704184
 24
18.7439942153
 34
0.0
 15
22.3921894713
 25
18.3689942153
 35
0.0
 16
25.1359515986
 26
19.6959301513
 36
0.0
  0
MTEXT
  5
294
330
1F
100
AcDbEntity
  8
NOTES
100
AcDbMText
 10
17.1473770651
 20
15.881217054
 30
0.0
 40
0.5
 41
0.0
 71
     1
 72
     1
  1
Front view
  7
SLDTEXTSTYLE1
 73
     1
 44
1.0
  0
INSERT
  5
29A
102
{ACAD_REACTORS
330
29C
102
}
330
1F
100
AcDbEntity
  8
NOTES
100
AcDbBlockReference
  2
SW_NOTE_0_2
 10
12.6525590551
 20
40.1141732314
 30
0.0
  0
LEADER
  5
29C
330
1F
100
AcDbEntity
  8
NOTES
100
AcDbLeader
  3
SLDDIMSTYLE3
 73
     2
 76
     3
 10
10.951508896
 20
38.9631739932
 30
0.0
 10
12.1525590551
 20
40.1141732314
 30
0.0
 10
12.6525590551
 20
40.1141732314
 30
0.0
340
29A
  0
ARC
  5
29D
330
1F
100
AcDbEntity
  8
0
  6
SLD-Solid
 62
     7
370
    25
100
AcDbCircle
 10
54.986119959
 20
36.9223539061
 30
0.0
 40
0.0500000000000043
100
AcDbArc
 50
186.0090059575
 51
270.0
  0
ARC
  5
29E
330
1F
100
AcDbEntity
  8
0
  6
SLD-Solid
 62
     7
370
    25
100
AcDbCircle
 10
54.986119959
 20
39.8848539061
 30
0.0
 40
0.0500000000000009
100
AcDbArc
 50
90.0
 51
173.9909940425
  0
LINE
  5
29F
330
1F
100
AcDbEntity
  8
0
  6
SLD-Solid
 62
     7
370
    25
100
AcDbLine
 10
55.3251068717
 20
39.9348539061
 30
0.0
 11
54.986119959
 21
39.9348539061
 31
0.0
  0
LINE
  5
2A0
330
1F
100
AcDbEntity
  8
0
  6
SLD-Solid
 62
     7
370
    25
100
AcDbLine
 10
54.986119959
 20
36.8723539061
 30
0.0
 11
55.3251068717
 21
36.8723539061
 31
0.0
  0
LINE
  5
2A1
330
1F
100
AcDbEntity
  8
0
  6
SLD-Solid
 62
     7
370
    25
100
AcDbLine
 10
54.9363946864
 20
39.8900881453
 30
0.0
 11
54.8620279244
 21
39.1836039061
 31
0.0
  0
LINE
  5
2A2
330
1F
100
AcDbEntity
  8
0
  6
SLD-Solid
 62
     7
370
    25
100
AcDbLine
 10
54.8620279244
 20
37.6236039061
 30
0.0
 11
54.9363946864
 21
36.9171196669
 31
0.0
  0
LINE
  5
2A3
330
1F
100
AcDbEntity
  8
0
  6
SLD-Solid
 62
     7
370
    25
100
AcDbLine
 10
55.3251068717
 20
19.1502442153
 30
0.0
 11
54.986119959
 21
19.1502442153
 31
0.0
  0
LINE
  5
2A4
330
1F
100
AcDbEntity
  8
0
  6
SLD-Solid
 62
     7
370
    25
100
AcDbLine
 10
54.986119959
 20
16.0877442153
 30
0.0
 11
55.3251068717
 21
16.0877442153
 31
0.0
  0
ARC
  5
2A5
330
1F
100
AcDbEntity
  8
0
  6
SLD-Solid
 62
     7
370
    25
100
AcDbCircle
 10
54.986119959
 20
16.1377442153
 30
0.0
 40
0.0500000000000013
100
AcDbArc
 50
186.0090059575
 51
270.0
  0
ARC
  5
2A6
330
1F
100
AcDbEntity
  8
0
  6
SLD-Solid
 62
     7
370
    25
100
AcDbCircle
 10
54.986119959
 20
19.1002442153
 30
0.0
 40
0.0500000000000013
100
AcDbArc
 50
90.0
 51
173.9909940425
  0
LINE
  5
2A7
330
1F
100
AcDbEntity
  8
0
  6
SLD-Solid
 62
     7
370
    25
100
AcDbLine
 10
54.9363946864
 20
19.1054784545
 30
0.0
 11
54.8620279244
 21
18.3989942153
 31
0.0
  0
LINE
  5
2A8
330
1F
100
AcDbEntity
  8
0
  6
SLD-Solid
 62
     7
370
    25
100
AcDbLine
 10
54.8620279244
 20
16.8389942153
 30
0.0
 11
54.9363946864
 21
16.1325099761
 31
0.0
  0
LINE
  5
2A9
330
1F
100
AcDbEntity
  8
0
  6
SLD-Solid
 62
     7
370
    25
100
AcDbLine
 10
54.8620279244
 20
18.3689942153
 30
0.0
 11
53.0751068717
 21
18.3689942153
 31
0.0
  0
LINE
  5
2AA
330
1F
100
AcDbEntity
  8
0
  6
SLD-Solid
 62
     7
370
    25
100
AcDbLine
 10
53.0751068717
 20
16.8689942153
 30
0.0
 11
54.8620279244
 21
16.8689942153
 31
0.0
  0
LINE
  5
2AB
330
1F
100
AcDbEntity
  8
0
  6
SLD-Solid
 62
     7
370
    25
100
AcDbLine
 10
52.3251068717
 20
18.3689942153
 30
0.0
 11
52.3251068717
 21
17.6189942153
 31
0.0
  0
LINE
  5
2AC
330
1F
100
AcDbEntity
  8
0
  6
SLD-Solid
 62
     7
370
    25
100
AcDbLine
 10
52.3251068717
 20
36.6585627175
 30
0.0
 11
52.3251068717
 21
18.3689942153
 31
0.0
  0
LINE
  5
2AD
330
1F
100
AcDbEntity
  8
0
  6
SLD-Solid
 62
     7
370
    25
100
AcDbLine
 10
53.8251068717
 20
18.3689942153
 30
0.0
 11
53.8251068717
 21
36.6585627175
 31
0.0
  0
SPLINE
  5
2AE
330
1F
100
AcDbEntity
  8
0
  6
SLD-Solid
 62
     7
370
    25
100
AcDbSpline
210
0.0
220
0.0
230
1.0
 70
     8
 71
     3
 72
    22
 73
    18
 74
     0
 42
0.00000001
 43
0.00000001
 40
0.0
 40
0.0
 40
0.0
 40
0.0
 40
0.029285088380554
 40
0.107685759595981
 40
0.1853994033283139
 40
0.2613575956676155
 40
0.3351385800565764
 40
0.406820240340532
 40
0.4767180410813185
 40
0.5452007077288754
 40
0.6126056151149535
 40
0.6792119125355027
 40
0.7452387121081253
 40
0.8108521954924984
 40
0.8761749595194319
 40
0.9412951509287428
 40
1.0
 40
1.0
 40
1.0
 40
1.0
 10
53.82510687172941
 20
36.65856271748197
 30
0.0
 10
53.82528484514535
 20
36.67066689099229
 30
0.0
 10
53.82593928068042
 20
36.71517579264905
 30
0.0
 10
53.83480570182073
 20
36.79183737002374
 30
0.0
 10
53.85785333548399
 20
36.88769120043555
 30
0.0
 10
53.89300293289755
 20
36.98121794513135
 30
0.0
 10
53.93940453006673
 20
37.07122604039627
 30
0.0
 10
53.99637425559933
 20
37.1569027401558
 30
0.0
 10
54.06323837735066
 20
37.23764818292754
 30
0.0
 10
54.13938623987821
 20
37.31292523661232
 30
0.0
 10
54.22419677755688
 20
37.38218065652658
 30
0.0
 10
54.31699212487304
 20
37.4448421073204
 30
0.0
 10
54.41701695587599
 20
37.50030207586872
 30
0.0
 10
54.52339352283536
 20
37.54807084389348
 30
0.0
 10
54.63524614323214
 20
37.5873402900554
 30
0.0
 10
54.74752414807528
 20
37.61772013071968
 30
0.0
 10
54.8236624677514
 20
37.6302717567693
 30
0.0
 10
54.85975927456673
 20
37.63622242159431
 30
0.0
  0
SPLINE
  5
2AF
330
1F
100
AcDbEntity
  8
0
  6
SLD-Solid
 62
     7
370
    25
100
AcDbSpline
210
0.0
220
0.0
230
1.0
 70
     8
 71
     3
 72
    30
 73
    26
 74
     0
 42
0.00000001
 43
0.00000001
 40
0.0
 40
0.0
 40
0.0
 40
0.0
 40
0.0170046534814784
 40
0.063217707449246
 40
0.1094372272123191
 40
0.1556559634098315
 40
0.2018654163019647
 40
0.2480555461802998
 40
0.2942146014008216
 40
0.3403290976435374
 40
0.3863839818784527
 40
0.4323630047342859
 40
0.4782493078047209
 40
0.524026208461035
 40
0.5696781368565198
 40
0.6151916530915512
 40
0.6605564531282392
 40
0.7057662653441369
 40
0.7508195481021834
 40
0.7957199209271685
 40
0.840476292752451
 40
0.8851026833568241
 40
0.9296177621949192
 40
0.974044148361124
 40
1.0
 40
1.0
 40
1.0
 40
1.0
 10
54.862027924361
 20
39.1438044731029
 30
0.0
 10
54.83909227860734
 20
39.14244788920574
 30
0.0
 10
54.75382509306934
 20
39.13740455656539
 30
0.0
 10
54.60739475104172
 20
39.11690438039758
 30
0.0
 10
54.42377610801067
 20
39.08245303240772
 30
0.0
 10
54.24317314649633
 20
39.03610819276016
 30
0.0
 10
54.06634431335395
 20
38.97900526491837
 30
0.0
 10
53.89413827718369
 20
38.91112666364343
 30
0.0
 10
53.72736304836478
 20
38.83283072656128
 30
0.0
 10
53.56681549165248
 20
38.74444362665112
 30
0.0
 10
53.41326688585212
 20
38.64636963594377
 30
0.0
 10
53.26745931818907
 20
38.5390617108552
 30
0.0
 10
53.13009844738435
 20
38.42302821928418
 30
0.0
 10
53.00184686344209
 20
38.29882844552208
 30
0.0
 10
52.88331742518206
 20
38.16706936852987
 30
0.0
 10
52.77506726234677
 20
38.0284003779658
 30
0.0
 10
52.67759304515651
 20
37.88350703762757
 30
0.0
 10
52.59132705520428
 20
37.73310399238025
 30
0.0
 10
52.51663738863565
 20
37.57792758932867
 30
0.0
 10
52.45382067209814
 20
37.41872846116424
 30
0.0
 10
52.40313033312858
 20
37.25626529565202
 30
0.0
 10
52.3646796213811
 20
37.09129720352191
 30
0.0
 10
52.33881534983056
 20
36.92458574441457
 30
0.0
 10
52.32668759550133
 20
36.78002602909719
 30
0.0
 10
52.32553275760635
 20
36.69128792216527
 30
0.0
 10
52.3251068717294
 20
36.65856271748198
 30
0.0
  0
LINE
  5
2B0
330
1F
100
AcDbEntity
  8
0
  6
SLD-Solid
 62
     7
370
    25
100
AcDbLine
 10
55.3251068717
 20
36.8723539061
 30
0.0
 11
55.3251068717
 21
39.9348539061
 31
0.0
  0
LINE
  5
2B1
330
1F
100
AcDbEntity
  8
0
  6
SLD-Solid
 62
     7
370
    25
100
AcDbLine
 10
54.8620279244
 20
39.1836039061
 30
0.0
 11
54.8620279244
 21
37.6236039061
 31
0.0
  0
LINE
  5
2B2
330
1F
100
AcDbEntity
  8
0
  6
SLD-Solid
 62
     7
370
    25
100
AcDbLine
 10
55.3251068717
 20
16.0877442153
 30
0.0
 11
55.3251068717
 21
19.1502442153
 31
0.0
  0
LINE
  5
2B3
330
1F
100
AcDbEntity
  8
0
  6
SLD-Solid
 62
     7
370
    25
100
AcDbLine
 10
54.8620279244
 20
18.3989942153
 30
0.0
 11
54.8620279244
 21
16.8389942153
 31
0.0
  0
ARC
  5
2B4
330
1F
100
AcDbEntity
  8
0
  6
SLD-Solid
 62
     7
370
    25
100
AcDbCircle
 10
53.0751068717
 20
17.6189942153
 30
0.0
 40
0.7500000000000036
100
AcDbArc
 50
90.0
 51
270.0
  0
LINE
  5
2B5
330
1F
100
AcDbEntity
  8
0
  6
SLD-Solid
 62
     8
370
    25
100
AcDbLine
 10
54.9363946864
 20
36.9171196669
 30
0.0
 11
54.9363946864
 21
39.8900881453
 31
0.0
  0
LINE
  5
2B6
330
1F
100
AcDbEntity
  8
0
  6
SLD-Solid
 62
     8
370
    25
100
AcDbLine
 10
54.986119959
 20
19.1502442153
 30
0.0
 11
54.986119959
 21
16.0877442153
 31
0.0
  0
LINE
  5
2B7
330
1F
100
AcDbEntity
  8
0
  6
SLD-Solid
 62
     8
370
    25
100
AcDbLine
 10
54.9363946864
 20
16.1325099761
 30
0.0
 11
54.9363946864
 21
19.1054784545
 31
0.0
  0
HATCH
  5
2B8
330
1F
100
AcDbEntity
  8
NOTES
100
AcDbHatch
 10
0.0
 20
0.0
 30
0.0
210
0.0
220
0.0
230
1.0
  2
AR-SAND
 70
     0
 71
     0
 91
        1
 92
        0
 93
        5
 72
     1
 10
53.76960687172951
 20
18.25149421528097
 11
53.76960687172954
 21
35.84623088873192
 72
     3
 10
53.13710687172954
 20
35.84623088873192
 11
0.6325000000000045
 21
1.398706172756103E-13
 40
0.5000000000000019
 50
360.0
 51
539.9999999999882
 73
     1
 72
     1
 10
52.50460687172954
 20
35.84623088873192
 11
52.5046068717295
 21
17.61899421528097
 72
     2
 10
53.13710687172942
 20
17.61899421528097
 40
0.6324999999999622
 50
180.0
 51
270.0000000000008
 73
     0
 72
     1
 10
53.13710687172942
 20
18.25149421528097
 11
53.76960687172951
 21
18.25149421528097
 97
        0
 75
     0
 76
     1
 52
0.0
 41
5.3333333333
 77
     0
 78
     4
 53
37.5
 43
0.0
 44
0.0
 45
-0.3359645765845768
 46
10.27639343473685
 79
     6
 49
0.0
 49
-8.106666666666666
 49
0.0
 49
-9.066666666666666
 49
0.0
 49
-8.666666666666666
 53
7.5
 43
0.0
 44
0.0
 45
9.438809094761211
 46
15.05144568122528
 79
     6
 49
0.0
 49
-4.373333333333333
 49
0.0
 49
-7.306666666666667
 49
0.0
 49
-2.8
 53
-32.5
 43
-6.56
 44
0.0
 45
16.60875659600797
 46
0.0301816188638118
 79
     6
 49
0.0
 49
-2.666666666666667
 49
0.0
 49
-9.6
 49
0.0
 49
-12.53333333333333
 53
-42.50000000000001
 43
-6.56
 44
0.0
 45
16.03267522438556
 46
4.680936346315996
 79
     6
 49
0.0
 49
-1.333333333333333
 49
0.0
 49
-6.293333333333333
 49
0.0
 49
-7.2
 98
        1
 10
0.0
 20
0.0
  0
DIMENSION
  5
2B9
330
1F
100
AcDbEntity
  8
DIMS
100
AcDbDimension
  2
_D_4
 10
53.8251068717
 20
21.0184831538
 30
0.0
 11
49.86444715
 21
21.0184831538
 31
0.0
 70
   160
  1
<>
 71
     2
 42
-1.0
  3
SLDDIMSTYLE4
100
AcDbAlignedDimension
 13
52.3551068717
 23
18.3689942153
 33
0.0
 14
53.8251068717
 24
18.3689942153
 34
0.0
 50
0.0
100
AcDbRotatedDimension
  0
DIMENSION
  5
2C7
330
1F
100
AcDbEntity
  8
DIMS
100
AcDbDimension
  2
_D_5
 10
55.3251068717
 20
21.0184831538
 30
0.0
 11
57.0715134504
 21
21.0184831538
 31
0.0
 70
   160
  1
<>
 71
     2
 42
-1.0
  3
SLDDIMSTYLE5
100
AcDbAlignedDimension
 13
53.8251068717
 23
18.3689942153
 33
0.0
 14
55.3251068717
 24
19.1502442153
 34
0.0
 50
0.0
100
AcDbRotatedDimension
  0
MTEXT
  5
2D6
330
1F
100
AcDbEntity
  8
NOTES
100
AcDbMText
 10
52.2541859244
 20
15.4792712747
 30
0.0
 40
0.5
 41
0.0
 71
     1
 72
     1
  1
Side view
  7
SLDTEXTSTYLE1
 73
     1
 44
1.0
  0
SPLINE
  5
2D7
330
1F
100
AcDbEntity
  8
0
  6
SLD-Solid
 62
     7
370
    25
100
AcDbSpline
210
0.0
220
0.0
230
1.0
 70
     8
 71
     3
 72
    19
 73
    15
 74
     0
 42
0.00000001
 43
0.00000001
 40
0.0
 40
0.0
 40
0.0
 40
0.0
 40
0.0407232917898266
 40
0.1300625300553993
 40
0.2200474326216738
 40
0.3106586525843038
 40
0.4017657529294313
 40
0.4932005990045802
 40
0.5848118253639112
 40
0.6764880959725902
 40
0.7681448778753951
 40
0.859753481285071
 40
0.9513040066647036
 40
1.0
 40
1.0
 40
1.0
 40
1.0
 10
57.85762932007067
 20
50.79926317029548
 30
0.0
 10
57.84903873799
 20
50.78959542165342
 30
0.0
 10
57.82160203552923
 20
50.75871845191297
 30
0.0
 10
57.78359437445724
 20
50.6966070476116
 30
0.0
 10
57.74367503404336
 20
50.61395865279481
 30
0.0
 10
57.71257982863902
 20
50.52240590090067
 30
0.0
 10
57.69004769255024
 20
50.42335380313455
 30
0.0
 10
57.67645104582674
 20
50.317460971905
 30
0.0
 10
57.67185396539644
 20
50.20570345321771
 30
0.0
 10
57.67631905187397
 20
50.08904056992169
 30
0.0
 10
57.68962975846517
 20
49.96847546879431
 30
0.0
 10
57.71214946492163
 20
49.84497584083238
 30
0.0
 10
57.73713001371652
 20
49.73917604228789
 30
0.0
 10
57.75770901172212
 20
49.67466517431635
 30
0.0
 10
57.76485439229136
 20
49.65226589606273
 30
0.0
  0
SPLINE
  5
2D8
330
1F
100
AcDbEntity
  8
0
  6
SLD-Solid
 62
     7
370
    25
100
AcDbSpline
210
0.0
220
0.0
230
1.0
 70
     8
 71
     3
 72
    14
 73
    10
 74
     0
 42
0.00000001
 43
0.00000001
 40
0.0
 40
0.0
 40
0.0
 40
0.0
 40
0.0864761827201136
 40
0.247984820286516
 40
0.4094651177675587
 40
0.5707198957545433
 40
0.7314736804888037
 40
0.891394240855187
 40
0.9999999999999999
 40
0.9999999999999999
 40
0.9999999999999999
 40
0.9999999999999999
 10
58.77213766082497
 20
48.33294552981474
 30
0.0
 10
58.78985923456083
 20
48.32299697377311
 30
0.0
 10
58.84067879134339
 20
48.29446783656455
 30
0.0
 10
58.9245118358328
 20
48.25890866414428
 30
0.0
 10
59.0226610699472
 20
48.22602550647464
 30
0.0
 10
59.11904340869563
 20
48.20496444474878
 30
0.0
 10
59.21256447521796
 20
48.19590222950629
 30
0.0
 10
59.29364724008355
 20
48.19688753365149
 30
0.0
 10
59.34142808211964
 20
48.20601247249492
 30
0.0
 10
59.36075309514389
 20
48.20970306383823
 30
0.0
  0
LINE
  5
2D9
330
1F
100
AcDbEntity
  8
0
  6
SLD-Solid
 62
     7
370
    25
100
AcDbLine
 10
58.2449036445
 20
51.0638114941
 30
0.0
 11
58.0052036998
 21
50.9254356614
 31
0.0
  0
LINE
  5
2DA
330
1F
100
AcDbEntity
  8
0
  6
SLD-Solid
 62
     7
370
    25
100
AcDbLine
 10
59.5363292591
 20
48.2731610204
 30
0.0
 11
59.7760292038
 21
48.411536853
 31
0.0
  0
SPLINE
  5
2DB
330
1F
100
AcDbEntity
  8
0
  6
SLD-Solid
 62
     7
370
    25
100
AcDbSpline
210
0.0
220
0.0
230
1.0
 70
     8
 71
     3
 72
    16
 73
    12
 74
     0
 42
0.00000001
 43
0.00000001
 40
0.0
 40
0.0
 40
0.0
 40
0.0
 40
0.0586029977311545
 40
0.187166945959861
 40
0.3166600396943792
 40
0.4470544377033444
 40
0.5781624341384921
 40
0.7097420742307912
 40
0.8415755349977218
 40
0.9735025979227384
 40
0.9999999999999999
 40
0.9999999999999999
 40
0.9999999999999999
 40
0.9999999999999999
 10
83.31347344278629
 20
19.1324350858109
 30
0.0
 10
83.30488287650476
 20
19.1227673309259
 30
0.0
 10
83.2774462245036
 20
19.09189034124674
 30
0.0
 10
83.23943783083003
 20
19.02977922642682
 30
0.0
 10
83.1995216198995
 20
18.94712959502056
 30
0.0
 10
83.16841468214389
 20
18.85558147906801
 30
0.0
 10
83.1459266597877
 20
18.75651195012526
 30
0.0
 10
83.13216452678637
 20
18.65068450942987
 30
0.0
 10
83.12818677775181
 20
18.53868226706332
 30
0.0
 10
83.12976508514676
 20
18.45376843620832
 30
0.0
 10
83.13538529244248
 20
18.40544347954784
 30
0.0
 10
83.13632530440636
 20
18.39736085287159
 30
0.0
  0
SPLINE
  5
2DC
330
1F
100
AcDbEntity
  8
0
  6
SLD-Solid
 62
     7
370
    25
100
AcDbSpline
210
0.0
220
0.0
230
1.0
 70
     8
 71
     3
 72
    18
 73
    14
 74
     0
 42
0.00000001
 43
0.00000001
 40
0.0
 40
0.0
 40
0.0
 40
0.0
 40
0.0823513760109316
 40
0.1771480100744685
 40
0.2720278668755334
 40
0.3669959066166225
 40
0.4620464090052275
 40
0.5571552062933416
 40
0.6522473147437672
 40
0.7472066198459123
 40
0.8418709013107196
 40
0.9360445157208314
 40
1.0
 40
1.0
 40
1.0
 40
1.0
 10
83.81043690556385
 20
16.9908554120858
 30
0.0
 10
83.83705378469715
 20
16.96405736053861
 30
0.0
 10
83.89430998855501
 20
16.90641143237794
 30
0.0
 10
83.9857481675779
 20
16.82781296130096
 30
0.0
 10
84.08309677336781
 20
16.75380450845663
 30
0.0
 10
84.18186691352516
 20
16.6895405811453
 30
0.0
 10
84.28119768341065
 20
16.63533693426017
 30
0.0
 10
84.38035153902685
 20
16.59176175186334
 30
0.0
 10
84.47850637512798
 20
16.55928272596331
 30
0.0
 10
84.57488721561519
 20
16.53811357848444
 30
0.0
 10
84.6684086826312
 20
16.52908025517379
 30
0.0
 10
84.74949134936543
 20
16.53005848004551
 30
0.0
 10
84.79727220096665
 20
16.53918410892465
 30
0.0
 10
84.81659721785954
 20
16.54287497935366
 30
0.0
  0
LINE
  5
2DD
330
1F
100
AcDbEntity
  8
0
  6
SLD-Solid
 62
     7
370
    25
100
AcDbLine
 10
83.7007477672
 20
19.3969834096
 30
0.0
 11
83.4610478225
 21
19.2586075769
 31
0.0
  0
LINE
  5
2DE
330
1F
100
AcDbEntity
  8
0
  6
SLD-Solid
 62
     7
370
    25
100
AcDbLine
 10
84.9921733818
 20
16.6063329359
 30
0.0
 11
85.2318733265
 21
16.7447087686
 31
0.0
  0
SPLINE
  5
2DF
330
1F
100
AcDbEntity
  8
0
  6
SLD-Solid
 62
     7
370
    25
100
AcDbSpline
210
0.0
220
0.0
230
1.0
 70
     8
 71
     3
 72
    27
 73
    23
 74
     0
 42
0.00000001
 43
0.00000001
 40
0.0
 40
0.0
 40
0.0
 40
0.0
 40
0.0274614134655988
 40
0.0791414991931334
 40
0.1314748371184546
 40
0.1844346280125977
 40
0.2379629786509277
 40
0.2919821188079567
 40
0.346402396886277
 40
0.4011275258779604
 40
0.456057868140249
 40
0.5110923770074672
 40
0.5661241899868936
 40
0.6210241235354759
 40
0.6756925846611115
 40
0.7300325988529873
 40
0.7839518856230668
 40
0.8373664110827987
 40
0.8902060196636975
 40
0.9424228901927405
 40
0.9908898574323488
 40
1.0
 40
1.0
 40
1.0
 40
1.0
 10
83.8523164608334
 20
18.58635463811536
 30
0.0
 10
83.83873435396922
 20
18.57951976517128
 30
0.0
 10
83.79959185677843
 20
18.55982223240347
 30
0.0
 10
83.72459243800941
 20
18.5290463830781
 30
0.0
 10
83.62876351221631
 20
18.49498911138516
 30
0.0
 10
83.52423385549017
 20
18.46436571238079
 30
0.0
 10
83.4126329814309
 20
18.43783168580815
 30
0.0
 10
83.2949536142453
 20
18.41604191407796
 30
0.0
 10
83.17249726241548
 20
18.3994970836814
 30
0.0
 10
83.04658476682178
 20
18.3885816537626
 30
0.0
 10
82.91860602318359
 20
18.38355163194831
 30
0.0
 10
82.78998479901595
 20
18.38453684204664
 30
0.0
 10
82.66218310964796
 20
18.3915372301624
 30
0.0
 10
82.53665831900332
 20
18.40441837224606
 30
0.0
 10
82.4148381042181
 20
18.42291082377342
 30
0.0
 10
82.29808528207586
 20
18.44661370127143
 30
0.0
 10
82.18769576217248
 20
18.4749908648946
 30
0.0
 10
82.0848847628535
 20
18.50736834501288
 30
0.0
 10
81.99071982398448
 20
18.54293353319824
 30
0.0
 10
81.90790899077878
 20
18.57998340530913
 30
0.0
 10
81.85495097851948
 20
18.60758465728232
 30
0.0
 10
81.82949709284516
 20
18.62215015564187
 30
0.0
 10
81.82546964985312
 20
18.6244547827249
 30
0.0
  0
SPLINE
  5
2E0
330
1F
100
AcDbEntity
  8
0
  6
SLD-Solid
 62
     7
370
    25
100
AcDbSpline
210
0.0
220
0.0
230
1.0
 70
     8
 71
     3
 72
    28
 73
    24
 74
     0
 42
0.00000001
 43
0.00000001
 40
0.0
 40
0.0
 40
0.0
 40
0.0
 40
0.0277011243580615
 40
0.0770198124473414
 40
0.1263063616802175
 40
0.1755464345878276
 40
0.2246680409732085
 40
0.2736386314628326
 40
0.3224543126875346
 40
0.3711306228007607
 40
0.4196955533542743
 40
0.4681847649118511
 40
0.5166385123721745
 40
0.5650997357193184
 40
0.6136035572896702
 40
0.6621895310983891
 40
0.7109025530336667
 40
0.7597860430201512
 40
0.8088798338277925
 40
0.8582166954530277
 40
0.9078167992782155
 40
0.9576794090864746
 40
1.0
 40
1.0
 40
1.0
 40
1.0
 10
81.07553060037608
 20
17.32538148915388
 30
0.0
 10
81.1030602885046
 20
17.30987890470758
 30
0.0
 10
81.17960344209588
 20
17.26677573925232
 30
0.0
 10
81.31106771579452
 20
17.20236951014896
 30
0.0
 10
81.47128782871776
 20
17.13445387721995
 30
0.0
 10
81.63752398726284
 20
17.07464400429183
 30
0.0
 10
81.80881736430862
 20
17.02287043728724
 30
0.0
 10
81.98434771322962
 20
16.9792242368844
 30
0.0
 10
82.16331065639228
 20
16.94371199302683
 30
0.0
 10
82.34496173999682
 20
16.91633474275002
 30
0.0
 10
82.52858521098426
 20
16.8970835818178
 30
0.0
 10
82.71348684327656
 20
16.88595021877129
 30
0.0
 10
82.89898518669834
 20
16.88292905308061
 30
0.0
 10
83.08439560399317
 20
16.88801887898296
 30
0.0
 10
83.26903275563119
 20
16.90122187698149
 30
0.0
 10
83.45221781111249
 20
16.92254386824908
 30
0.0
 10
83.63328676157208
 20
16.95200142008522
 30
0.0
 10
83.81158975367664
 20
16.9896173557172
 30
0.0
 10
83.986447799331
 20
17.03545367683719
 30
0.0
 10
84.15725299543301
 20
17.08949238607094
 30
0.0
 10
84.3230329327845
 20
17.15207754695618
 30
0.0
 10
84.47563755428224
 20
17.21857633526255
 30
0.0
 10
84.56916971646017
 20
17.26816862882351
 30
0.0
 10
84.61210960509277
 20
17.29093606531762
 30
0.0
  0
LINE
  5
2E1
330
1F
100
AcDbEntity
  8
0
  6
SLD-Solid
 62
     7
370
    25
100
AcDbLine
 10
66.1421604517
 20
25.946232576
 30
0.0
 11
81.0755306004
 21
17.3253814892
 31
0.0
  0
LINE
  5
2E2
330
1F
100
AcDbEntity
  8
0
  6
SLD-Solid
 62
     7
370
    25
100
AcDbLine
 10
81.8254696499
 20
18.6244547827
 30
0.0
 11
66.8920995012
 21
27.2453058696
 31
0.0
  0
LINE
  5
2E3
330
1F
100
AcDbEntity
  8
0
  6
SLD-Solid
 62
     7
370
    25
100
AcDbLine
 10
57.4326702876
 20
46.7117643686
 30
0.0
 11
64.8993553619
 21
27.4671597114
 31
0.0
  0
LINE
  5
2E4
330
1F
100
AcDbEntity
  8
0
  6
SLD-Solid
 62
     7
370
    25
100
AcDbLine
 10
66.2977872838
 20
28.0097351991
 30
0.0
 11
58.8311022095
 21
47.2543398564
 31
0.0
  0
SPLINE
  5
2E5
330
1F
100
AcDbEntity
  8
0
  6
SLD-Solid
 62
     7
370
    25
100
AcDbSpline
210
0.0
220
0.0
230
1.0
 70
     8
 71
     3
 72
    25
 73
    21
 74
     0
 42
0.00000001
 43
0.00000001
 40
0.0
 40
0.0
 40
0.0
 40
0.0
 40
0.028402950939165
 40
0.0879280957024408
 40
0.1475098866966148
 40
0.2071027329746601
 40
0.2666932229705735
 40
0.3262606760446434
 40
0.3857751277181054
 40
0.4452173698348242
 40
0.5045784227783859
 40
0.5638647107506077
 40
0.6231049965905316
 40
0.6823429069225749
 40
0.7416606509563772
 40
0.8011949272392749
 40
0.8611482681299558
 40
0.9218096687235099
 40
0.9835819580828753
 40
1.0
 40
1.0
 40
1.0
 40
1.0
 10
58.83110220946802
 20
47.25433985637275
 30
0.0
 10
58.82452880690155
 20
47.27181499856243
 30
0.0
 10
58.80417927451693
 20
47.32591346101301
 30
0.0
 10
58.77508698422429
 20
47.42043253457732
 30
0.0
 10
58.74714331758246
 20
47.53857117179297
 30
0.0
 10
58.72727331039064
 20
47.65954488229444
 30
0.0
 10
58.71563128175425
 20
47.78196311942145
 30
0.0
 10
58.71236673733079
 20
47.90455225327618
 30
0.0
 10
58.71745276025923
 20
48.02599652552301
 30
0.0
 10
58.7307304189227
 20
48.1450066216073
 30
0.0
 10
58.75189989507098
 20
48.26033899956911
 30
0.0
 10
58.78052975808529
 20
48.37081883618272
 30
0.0
 10
58.81606280917109
 20
48.47535665835496
 30
0.0
 10
58.85782748198697
 20
48.57296743701331
 30
0.0
 10
58.90505793536562
 20
48.66282984917684
 30
0.0
 10
58.95692513298532
 20
48.74420711645195
 30
0.0
 10
59.01258819967472
 20
48.81688338801153
 30
0.0
 10
59.07121617824553
 20
48.87959512517509
 30
0.0
 10
59.11676985094759
 20
48.92176848705052
 30
0.0
 10
59.14238497761757
 20
48.93979897593649
 30
0.0
 10
59.14776352272047
 20
48.94358493409121
 30
0.0
  0
SPLINE
  5
2E6
330
1F
100
AcDbEntity
  8
0
  6
SLD-Solid
 62
     7
370
    25
100
AcDbSpline
210
0.0
220
0.0
230
1.0
 70
     8
 71
     3
 72
    30
 73
    26
 74
     0
 42
0.00000001
 43
0.00000001
 40
0.0
 40
0.0
 40
0.0
 40
0.0
 40
0.010502085555799
 40
0.0539615386037197
 40
0.0975727260804718
 40
0.1414407338461666
 40
0.1855704022340853
 40
0.229956227015664
 40
0.2745830801505702
 40
0.3194282327898822
 40
0.3644638840976877
 40
0.4096598663523571
 40
0.4549861804406393
 40
0.5004150817785034
 40
0.545922553182513
 40
0.5914891267968936
 40
0.6371001166896331
 40
0.6827453801585863
 40
0.7284187404524869
 40
0.7741170097143808
 40
0.8198396416416148
 40
0.8655871867765396
 40
0.9113601587446621
 40
0.95715808426818
 40
0.9999999999999999
 40
0.9999999999999999
 40
0.9999999999999999
 40
0.9999999999999999
 10
58.41351291456948
 20
50.25722697750898
 30
0.0
 10
58.40232405720633
 20
50.25047649671723
 30
0.0
 10
58.34483376584222
 20
50.2157913546183
 30
0.0
 10
58.24540133209328
 20
50.14486102958108
 30
0.0
 10
58.11753037612895
 20
50.04147197503151
 30
0.0
 10
57.9964118573571
 20
49.92743570556451
 30
0.0
 10
57.88216813459278
 20
49.80377567589267
 30
0.0
 10
57.77543189804808
 20
49.67082135518762
 30
0.0
 10
57.67669577111706
 20
49.52918798355298
 30
0.0
 10
57.58645382386648
 20
49.37949327990922
 30
0.0
 10
57.50515189375602
 20
49.22242928117141
 30
0.0
 10
57.4331908370298
 20
49.05873373650022
 30
0.0
 10
57.37091813620409
 20
48.88918564739555
 30
0.0
 10
57.31862594229085
 20
48.71459303717088
 30
0.0
 10
57.27655066388455
 20
48.53578323345845
 30
0.0
 10
57.24487480658326
 20
48.35359411862559
 30
0.0
 10
57.22373022288323
 20
48.16886756029635
 30
0.0
 10
57.21320132090513
 20
47.98244448085271
 30
0.0
 10
57.21333069878031
 20
47.79516316414728
 30
0.0
 10
57.22411518522098
 20
47.60785365763937
 30
0.0
 10
57.2455353024576
 20
47.42135082497684
 30
0.0
 10
57.27745672289733
 20
47.23644491449993
 30
0.0
 10
57.32000518375251
 20
47.05406871866868
 30
0.0
 10
57.3710365731151
 20
46.87849463069307
 30
0.0
 10
57.41258760493378
 20
46.7660916304512
 30
0.0
 10
57.43267028760261
 20
46.71176436862213
 30
0.0
  0
SPLINE
  5
2E7
330
1F
100
AcDbEntity
  8
0
  6
SLD-Solid
 62
     7
370
    25
100
AcDbSpline
210
0.0
220
0.0
230
1.0
 70
     8
 71
     3
 72
    19
 73
    15
 74
     0
 42
0.00000001
 43
0.00000001
 40
0.0
 40
0.0
 40
0.0
 40
0.0
 40
0.0449781576593363
 40
0.127860322274843
 40
0.2119658805801322
 40
0.2977482719196257
 40
0.3851528219716009
 40
0.4740074649219819
 40
0.5640634572819593
 40
0.6550265882423242
 40
0.7465782199978657
 40
0.838388937705022
 40
0.9300740216103361
 40
1.0
 40
1.0
 40
1.0
 40
1.0
 10
66.8920995011627
 20
27.24530586958884
 30
0.0
 10
66.88395884700095
 20
27.25013763642486
 30
0.0
 10
66.86081724408042
 20
27.26387299814179
 30
0.0
 10
66.81790347903171
 20
27.29323638275743
 30
0.0
 10
66.76325142011821
 20
27.3361842997306
 30
0.0
 10
66.70528369085736
 20
27.38814910749391
 30
0.0
 10
66.64552004625546
 20
27.44871180009217
 30
0.0
 10
66.58539091654852
 20
27.51728371692385
 30
0.0
 10
66.52632206173924
 20
27.59294494965158
 30
0.0
 10
66.46965429792401
 20
27.6745447000114
 30
0.0
 10
66.41656501928483
 20
27.76073246991916
 30
0.0
 10
66.36826655077259
 20
27.84993630366894
 30
0.0
 10
66.32847876960926
 20
27.93355422999709
 30
0.0
 10
66.30705635007654
 20
27.98672795679765
 30
0.0
 10
66.2977872838132
 20
28.00973519911357
 30
0.0
  0
SPLINE
  5
2E8
330
1F
100
AcDbEntity
  8
0
  6
SLD-Solid
 62
     7
370
    25
100
AcDbSpline
210
0.0
220
0.0
230
1.0
 70
     8
 71
     3
 72
    20
 73
    16
 74
     0
 42
0.00000001
 43
0.00000001
 40
0.0
 40
0.0
 40
0.0
 40
0.0
 40
0.045218899108369
 40
0.1268213714159727
 40
0.2082632079884508
 40
0.2896667236829977
 40
0.3711455475477997
 40
0.4527810956702062
 40
0.534694077276098
 40
0.6170015127134267
 40
0.6998087321286796
 40
0.7831959420596281
 40
0.8671963599740036
 40
0.9517637796356581
 40
1.0
 40
1.0
 40
1.0
 40
1.0
 10
64.8993553619478
 20
27.46715971136295
 30
0.0
 10
64.91068450002699
 20
27.43869505351713
 30
0.0
 10
64.9424583126694
 20
27.35886279275728
 30
0.0
 10
65.00128266173388
 20
27.22942767528976
 30
0.0
 10
65.07780447438337
 20
27.08043826492147
 30
0.0
 10
65.16188591152412
 20
26.93536113247806
 30
0.0
 10
65.25302271895785
 20
26.79478451339979
 30
0.0
 10
65.35092149722823
 20
26.65933968975382
 30
0.0
 10
65.45526015838766
 20
26.52965439383962
 30
0.0
 10
65.56576946285628
 20
26.40635080468489
 30
0.0
 10
65.68220182460995
 20
26.29010174000133
 30
0.0
 10
65.80429296023222
 20
26.1815665839565
 30
0.0
 10
65.93182939776342
 20
26.08173695052482
 30
0.0
 10
66.0450308299891
 20
26.00392995050386
 30
0.0
 10
66.11628125676164
 20
25.96160545171575
 30
0.0
 10
66.14216045168567
 20
25.94623257601781
 30
0.0
  0
ARC
  5
2E9
330
1F
100
AcDbEntity
  8
0
  6
SLD-Solid
 62
     7
370
    25
100
AcDbCircle
 10
59.2743946358
 20
48.7268768407
 30
0.0
 40
0.5236940244087516
100
AcDbArc
 50
280.6738537609
 51
319.160231276
  0
ARC
  5
2EA
330
1F
100
AcDbEntity
  8
0
  6
SLD-Solid
 62
     7
370
    25
100
AcDbCircle
 10
58.2675239284
 20
50.4710131002
 30
0.0
 40
0.5244823332030388
100
AcDbArc
 50
100.0823545993
 51
140.0869228739
  0
LWPOLYLINE
  5
2EB
330
1F
100
AcDbEntity
  8
0
  6
SLD-Solid
 62
     7
370
    25
100
AcDbPolyline
 90
       29
 70
   128
 43
0.0
 10
58.1781451023
 20
50.0965037096
 10
58.182720254
 20
50.1055545792
 10
58.2181285843
 20
50.1597253005
 10
58.2618329159
 20
50.202991252
 10
58.3130533438
 20
50.2345803518
 10
58.3708758383
 20
50.2539288917
 10
58.4342685556
 20
50.2606915966
 10
58.5021002512
 20
50.2547477857
 10
58.5731604668
 20
50.2362035266
 10
58.6461811313
 20
50.2053897419
 10
58.7198591892
 20
50.1628563045
 10
58.7928798537
 20
50.1093622245
 10
58.8639400693
 20
50.0458621049
 10
58.9317717649
 20
49.9734891071
 10
58.9951644822
 20
49.8935347288
 10
59.0529869767
 20
49.8074257577
 10
59.1042074046
 20
49.7166988106
 10
59.1479117362
 20
49.622972912
 10
59.1833200665
 20
49.5279206027
 10
59.2098005332
 20
49.4332380934
 10
59.2268805916
 20
49.3406149958
 10
59.2342554478
 20
49.2517041712
 10
59.2317934972
 20
49.1680922354
 10
59.2195386734
 20
49.0912712454
 10
59.197709664
 20
49.0226120736
 10
59.1666960082
 20
48.9633399445
 10
59.1270511455
 20
48.9145125706
 10
59.0794825393
 20
48.8770012776
 10
59.072988466
 20
48.8731253564
  0
LWPOLYLINE
  5
2EC
330
1F
100
AcDbEntity
  8
0
  6
SLD-Solid
 62
     7
370
    25
100
AcDbPolyline
 90
       10
 70
   128
 43
0.0
 10
59.0104664242
 20
50.9880022918
 10
58.9075438033
 20
51.0417566736
 10
58.8055532656
 20
51.0837010823
 10
58.7054184532
 20
51.1134556629
 10
58.6080462025
 20
51.1307509533
 10
58.5143183316
 20
51.1354303247
 10
58.4250836547
 20
51.1274513999
 10
58.3411502948
 20
51.1068864373
 10
58.2632783654
 20
51.0739216764
 10
58.2449036445
 20
51.0638114941
  0
LWPOLYLINE
  5
2ED
330
1F
100
AcDbEntity
  8
0
  6
SLD-Solid
 62
     7
370
    25
100
AcDbPolyline
 90
       26
 70
   128
 43
0.0
 10
59.7760292038
 20
48.411536853
 10
59.8287597615
 20
48.4464926959
 10
59.892454449
 20
48.5032518604
 10
59.9481617163
 20
48.5711901446
 10
59.9953770699
 20
48.6496922888
 10
60.0336729201
 20
48.7380473654
 10
60.0627024538
 20
48.8354552172
 10
60.0822027752
 20
48.9410337036
 10
60.0919972861
 20
49.0538266894
 10
60.0919972861
 20
49.172812704
 10
60.0822027752
 20
49.2969141915
 10
60.0627024538
 20
49.4250072696
 10
60.0336729201
 20
49.5559319076
 10
59.9953770699
 20
49.6885024318
 10
59.9481617163
 20
49.8215182628
 10
59.892454449
 20
49.9537747888
 10
59.8287597615
 20
50.0840742742
 10
59.7576544829
 20
50.2112367066
 10
59.6797825535
 20
50.3341104833
 10
59.5958491936
 20
50.4515828405
 10
59.5066145167
 20
50.5625899303
 10
59.4128866458
 20
50.6661264552
 10
59.3155143951
 20
50.7612547725
 10
59.2153795827
 20
50.8471133853
 10
59.113389045
 20
50.9229247449
 10
59.0104664242
 20
50.9880022918
  0
ARC
  5
2EE
330
1F
100
AcDbEntity
  8
0
  6
SLD-Solid
 62
     7
370
    25
100
AcDbCircle
 10
58.4673009291
 20
49.9841556839
 30
0.0
 40
0.2952690624712268
100
AcDbArc
 50
123.6090044047
 51
153.180747037
  0
LINE
  5
2EF
330
1F
100
AcDbEntity
  8
0
  6
SLD-Solid
 62
     7
370
    25
100
AcDbLine
 10
59.0835078471
 20
48.8795348424
 30
0.0
 11
59.0696144492
 21
48.8728796442
 31
0.0
  0
LINE
  5
2F0
330
1F
100
AcDbEntity
  8
0
  6
SLD-Solid
 62
     7
370
    25
100
AcDbLine
 10
84.4232297303
 20
17.1981365801
 30
0.0
 11
84.4413037877
 21
17.1838798804
 31
0.0
  0
ARC
  5
2F1
330
1F
100
AcDbEntity
  8
0
  6
SLD-Solid
 62
     7
370
    25
100
AcDbCircle
 10
84.7302387585
 20
17.0600487562
 30
0.0
 40
0.5236940244085826
100
AcDbArc
 50
280.6738537609
 51
319.160231276
  0
ARC
  5
2F2
330
1F
100
AcDbEntity
  8
0
  6
SLD-Solid
 62
     7
370
    25
100
AcDbCircle
 10
83.7233680511
 20
18.8041850157
 30
0.0
 40
0.5244823332029478
100
AcDbArc
 50
100.0823545993
 51
140.0869228739
  0
LWPOLYLINE
  5
2F3
330
1F
100
AcDbEntity
  8
0
  6
SLD-Solid
 62
     7
370
    25
100
AcDbPolyline
 90
       29
 70
   128
 43
0.0
 10
83.7139688577
 20
18.5331848392
 10
83.7176770386
 20
18.5361631675
 10
83.7688974665
 20
18.5677522673
 10
83.826719961
 20
18.5871008072
 10
83.8901126783
 20
18.5938635121
 10
83.9579443739
 20
18.5879197012
 10
84.0290045896
 20
18.5693754421
 10
84.102025254
 20
18.5385616574
 10
84.1757033119
 20
18.49602822
 10
84.2487239764
 20
18.44253414
 10
84.319784192
 20
18.3790340205
 10
84.3876158876
 20
18.3066610226
 10
84.451008605
 20
18.2267066443
 10
84.5088310995
 20
18.1405976733
 10
84.5600515274
 20
18.0498707262
 10
84.6037558589
 20
17.9561448275
 10
84.6391641892
 20
17.8610925182
 10
84.6656446559
 20
17.7664100089
 10
84.6827247144
 20
17.6737869113
 10
84.6900995705
 20
17.5848760867
 10
84.6876376199
 20
17.5012641509
 10
84.6753827961
 20
17.4244431609
 10
84.6535537867
 20
17.3557839891
 10
84.6225401309
 20
17.29651186
 10
84.5828952682
 20
17.2476844861
 10
84.535326662
 20
17.2101731932
 10
84.4806831753
 20
17.184647371
 10
84.4199399223
 20
17.1715625286
 10
84.3634846642
 20
17.1704539566
  0
LWPOLYLINE
  5
2F4
330
1F
100
AcDbEntity
  8
0
  6
SLD-Solid
 62
     7
370
    25
100
AcDbPolyline
 90
       10
 70
   128
 43
0.0
 10
84.4663105469
 20
19.3211742073
 10
84.363387926
 20
19.3749285891
 10
84.2613973883
 20
19.4168729978
 10
84.1612625759
 20
19.4466275784
 10
84.0638903252
 20
19.4639228688
 10
83.9701624543
 20
19.4686022402
 10
83.8809277774
 20
19.4606233154
 10
83.7969944175
 20
19.4400583528
 10
83.7191224881
 20
19.407093592
 10
83.7007477672
 20
19.3969834096
  0
LWPOLYLINE
  5
2F5
330
1F
100
AcDbEntity
  8
0
  6
SLD-Solid
 62
     7
370
    25
100
AcDbPolyline
 90
       26
 70
   128
 43
0.0
 10
85.2318733265
 20
16.7447087686
 10
85.2846038843
 20
16.7796646114
 10
85.3482985717
 20
16.8364237759
 10
85.404005839
 20
16.9043620601
 10
85.4512211926
 20
16.9828642043
 10
85.4895170428
 20
17.071219281
 10
85.5185465766
 20
17.1686271327
 10
85.5380468979
 20
17.2742056191
 10
85.5478414088
 20
17.3869986049
 10
85.5478414088
 20
17.5059846195
 10
85.5380468979
 20
17.630086107
 10
85.5185465766
 20
17.7581791851
 10
85.4895170428
 20
17.8891038231
 10
85.4512211926
 20
18.0216743473
 10
85.404005839
 20
18.1546901783
 10
85.3482985717
 20
18.2869467043
 10
85.2846038843
 20
18.4172461897
 10
85.2134986056
 20
18.5444086221
 10
85.1356266762
 20
18.6672823989
 10
85.0516933163
 20
18.784754756
 10
84.9624586394
 20
18.8957618458
 10
84.8687307685
 20
18.9992983707
 10
84.7713585178
 20
19.094426688
 10
84.6712237054
 20
19.1802853009
 10
84.5692331677
 20
19.2560966604
 10
84.4663105469
 20
19.3211742073
  0
LWPOLYLINE
  5
2F6
330
1F
100
AcDbEntity
  8
0
  6
SLD-Solid
 62
     7
370
    25
100
AcDbPolyline
 90
        3
 70
   128
 43
0.0
 10
83.7259874746
 20
18.5375199363
 10
83.7390074429
 20
18.5484769478
 10
83.759707
 20
18.5632377913
  0
ARC
  5
2F7
330
1F
100
AcDbEntity
  8
0
  6
SLD-Solid
 62
     7
370
    25
100
AcDbCircle
 10
84.4087933251
 20
17.4735599565
 30
0.0
 40
0.2917018185454059
100
AcDbArc
 50
266.1040179061
 51
296.5882493466
  0
LWPOLYLINE
  5
2F8
330
1F
100
AcDbEntity
  8
0
  6
SLD-Solid
 62
     8
370
    25
100
AcDbPolyline
 90
       24
 70
   128
 43
0.0
 10
58.7707664795
 20
50.8496264591
 10
58.8736891003
 20
50.7845489122
 10
58.975679638
 20
50.7087375527
 10
59.0758144504
 20
50.6228789398
 10
59.1731867011
 20
50.5277506225
 10
59.266914572
 20
50.4242140976
 10
59.3561492489
 20
50.3132070079
 10
59.4400826088
 20
50.1957346507
 10
59.5179545382
 20
50.0728608739
 10
59.5890598168
 20
49.9456984415
 10
59.6527545043
 20
49.8153989561
 10
59.7084617716
 20
49.6831424302
 10
59.7556771252
 20
49.5501265991
 10
59.7939729754
 20
49.417556075
 10
59.8230025091
 20
49.2866314369
 10
59.8425028305
 20
49.1585383588
 10
59.8522973414
 20
49.0344368713
 10
59.8522973414
 20
48.9154508568
 10
59.8425028305
 20
48.8026578709
 10
59.8230025091
 20
48.6970793846
 10
59.7939729754
 20
48.5996715328
 10
59.7556771252
 20
48.5113164562
 10
59.7084617716
 20
48.432814312
 10
59.6705908133
 20
48.3844092946
  0
ARC
  5
2F9
330
1F
100
AcDbEntity
  8
0
  6
SLD-Solid
 62
     8
370
    25
100
AcDbCircle
 10
58.282277811
 20
50.0937142474
 30
0.0
 40
0.9000135838101614
100
AcDbArc
 50
57.1284825848
 51
96.8004119906
  0
LWPOLYLINE
  5
2FA
330
1F
100
AcDbEntity
  8
0
  6
SLD-Solid
 62
     8
370
    25
100
AcDbPolyline
 90
       24
 70
   128
 43
0.0
 10
84.2266106022
 20
19.1827983746
 10
84.329533223
 20
19.1177208278
 10
84.4315237607
 20
19.0419094682
 10
84.5316585731
 20
18.9560508553
 10
84.6290308238
 20
18.860922538
 10
84.7227586947
 20
18.7573860131
 10
84.8119933716
 20
18.6463789234
 10
84.8959267315
 20
18.5289065662
 10
84.9737986609
 20
18.4060327894
 10
85.0449039396
 20
18.278870357
 10
85.108598627
 20
18.1485708717
 10
85.1643058943
 20
18.0163143457
 10
85.2115212479
 20
17.8832985146
 10
85.2498170981
 20
17.7507279905
 10
85.2788466319
 20
17.6198033524
 10
85.2983469532
 20
17.4917102743
 10
85.3081414641
 20
17.3676087868
 10
85.3081414641
 20
17.2486227723
 10
85.2983469532
 20
17.1358297865
 10
85.2788466319
 20
17.0302513001
 10
85.2498170981
 20
16.9328434483
 10
85.2115212479
 20
16.8444883717
 10
85.1643058943
 20
16.7659862275
 10
85.1264349361
 20
16.7175812101
  0
ARC
  5
2FB
330
1F
100
AcDbEntity
  8
0
  6
SLD-Solid
 62
     8
370
    25
100
AcDbCircle
 10
83.7381219337
 20
18.4268861629
 30
0.0
 40
0.9000135838101498
100
AcDbArc
 50
57.1284825848
 51
96.8004119906
  0
HATCH
  5
2FC
330
1F
100
AcDbEntity
  8
NOTES
100
AcDbHatch
 10
0.0
 20
0.0
 30
0.0
210
0.0
220
0.0
230
1.0
  2
AR-SAND
 70
     0
 71
     0
 91
        1
 92
        0
 93
        8
 72
     1
 10
57.86592414405534
 20
46.05824047353728
 11
64.89935536190706
 21
27.4671597114679
 72
     4
 94
        3
 73
     1
 74
     0
 95
       50
 96
       46
 40
0.0
 40
0.0
 40
0.0
 40
0.0
 40
0.0133656804873029
 40
0.0248378966608128
 40
0.0344191192330935
 40
0.04211140680881
 40
0.047916404866003
 40
0.0518353469625741
 40
0.0545151126220866
 40
0.0604008557797744
 40
0.0790849727632396
 40
0.102877077512169
 40
0.1212761026499583
 40
0.1538838108475076
 40
0.1937114294604522
 40
0.231134340881997
 40
0.2906060805443952
 40
0.3504491393664807
 40
0.4242813272701686
 40
0.4462181642782242
 40
0.4670100644980275
 40
0.48889260300089
 40
0.5121970457457529
 40
0.5337821771957157
 40
0.5601991316496776
 40
0.5960690598784434
 40
0.6150206289285785
 40
0.6498179007926709
 40
0.6649810061698186
 40
0.6793374163529566
 40
0.7108316378415259
 40
0.7379088362121794
 40
0.7570802279691894
 40
0.778383003006093
 40
0.7966567813810217
 40
0.8214774394923823
 40
0.849701734003914
 40
0.8708177678122719
 40
0.8934036019687549
 40
0.9133231902909626
 40
0.9347070364419359
 40
0.9552079095445651
 40
0.9736496796188913
 40
0.9875593515373042
 40
1.0
 40
1.0
 40
1.0
 40
1.0
 10
64.89935536190706
 20
27.4671597114679
 42
1.0
 10
64.90264627257784
 20
27.45873856321546
 42
1.0
 10
64.90876188331973
 20
27.44308925824682
 42
1.0
 10
64.91747594104585
 20
27.42144376196388
 42
1.0
 10
64.92487260495707
 20
27.40339009691169
 42
1.0
 10
64.93089824816741
 20
27.38891454182074
 42
1.0
 10
64.93549474287765
 20
27.37800260231274
 42
1.0
 10
64.93879356272092
 20
27.37023811530294
 42
1.0
 10
64.94212973114895
 20
27.36243081175919
 42
1.0
 10
64.94945966380877
 20
27.34540445850504
 42
1.0
 10
64.96271148934723
 20
27.31526477817418
 42
1.0
 10
64.97992765423135
 20
27.27747908701459
 42
1.0
 10
65.00172089431169
 20
27.23126733037136
 42
1.0
 10
65.02910354634201
 20
27.17550802399683
 42
1.0
 10
65.06378430534375
 20
27.10870773260275
 42
1.0
 10
65.10894859125065
 20
27.02655262198329
 42
1.0
 10
65.16353879160681
 20
26.93389796356077
 42
1.0
 10
65.23485700269799
 20
26.82241883089019
 42
1.0
 10
65.29581453799946
 20
26.73529835400593
 42
1.0
 10
65.34319544523031
 20
26.67172617522697
 42
1.0
 10
65.36989660799264
 20
26.6368900388768
 42
1.0
 10
65.39757201610125
 20
26.60177756468023
 42
1.0
 10
65.42602812238655
 20
26.56672646983469
 42
1.0
 10
65.45686235191197
 20
26.52984679504947
 42
1.0
 10
65.49371380117586
 20
26.48713836198462
 42
1.0
 10
65.53008644383692
 20
26.44668422265548
 42
1.0
 10
65.570857135363
 20
26.40296480561795
 42
1.0
 10
65.60270080913158
 20
26.37003022000613
 42
1.0
 10
65.63279088957957
 20
26.33994987517523
 42
1.0
 10
65.6615753733748
 20
26.31175237289475
 42
1.0
 10
65.69636348809814
 20
26.27874075856019
 42
1.0
 10
65.7339943677651
 20
26.24447824012117
 42
1.0
 10
65.76703316368581
 20
26.21538157700207
 42
1.0
 10
65.79603773643338
 20
26.19058305019055
 42
1.0
 10
65.82809819658604
 20
26.16396772051232
 42
1.0
 10
65.86394301601274
 20
26.13516759918549
 42
1.0
 10
65.90161402956679
 20
26.10612271455994
 42
1.0
 10
65.93850768259068
 20
26.0787776535739
 42
1.0
 10
65.97141779364019
 20
26.05524529971742
 42
1.0
 10
66.00473583544533
 20
26.03226131667913
 42
1.0
 10
66.03719555227605
 20
26.01065927980159
 42
1.0
 10
66.06912736810985
 20
25.99018744305289
 42
1.0
 10
66.09728540902498
 20
25.97278237147532
 42
1.0
 10
66.12126873073018
 20
25.95838039412194
 42
1.0
 10
66.13546026968721
 20
25.95012850169892
 42
1.0
 10
66.14216045187686
 20
25.94623257590743
 42
1.0
 72
     1
 10
66.14216045187686
 20
25.94623257590743
 11
80.25623518802155
 21
17.79835066327421
 72
     3
 10
80.65312150233653
 20
18.48585231968187
 11
0.3968862722884235
 21
0.6875016806690936
 40
0.577381545199988
 50
180.0000035024576
 51
343.484384729353
 73
     0
 72
     1
 10
80.82483719897495
 20
19.20210760093092
 11
66.89209950097151
 21
27.24530586969921
 72
     4
 94
        3
 73
     1
 74
     0
 95
       43
 96
       39
 40
0.0
 40
0.0
 40
0.0
 40
0.0
 40
0.0132981342934119
 40
0.0236801329368083
 40
0.0314891111013897
 40
0.0430301469353725
 40
0.0558184928027386
 40
0.0807850007868203
 40
0.0922392316604304
 40
0.1037556000391413
 40
0.1153151051029405
 40
0.1258368591469417
 40
0.1570878310333809
 40
0.1897766558965957
 40
0.2171309895003103
 40
0.2516585716717431
 40
0.2804741375168423
 40
0.3161489905963637
 40
0.3374729653033468
 40
0.3552599752166742
 40
0.3903255404188274
 40
0.4278609109082653
 40
0.4617094758247789
 40
0.4860766635431513
 40
0.5148919735425124
 40
0.5376474844131675
 40
0.5544982147918738
 40
0.588342533487799
 40
0.6196418742143207
 40
0.6529761896037585
 40
0.6938070990836486
 40
0.732268756485842
 40
0.793278775370477
 40
0.8547228891283778
 40
0.892657295338315
 40
0.9302959762504901
 40
0.9507634915975973
 40
1.0
 40
1.0
 40
1.0
 40
1.0
 10
66.8920995009715
 20
27.24530586969921
 42
1.0
 10
66.88972517627735
 20
27.24668752080654
 42
1.0
 10
66.88549719036955
 20
27.24914784201942
 42
1.0
 10
66.87975181597038
 20
27.25259972270455
 42
1.0
 10
66.87426333822347
 20
27.2559532795538
 42
1.0
 10
66.86820551305905
 20
27.25972806744706
 42
1.0
 10
66.8587963184152
 20
27.26573139563071
 42
1.0
 10
66.84911217793392
 20
27.27213458605715
 42
1.0
 10
66.83954351761
 20
27.27867843803048
 42
1.0
 10
66.83249406321896
 20
27.28360004717278
 42
1.0
 10
66.82562602741407
 20
27.28849381968867
 42
1.0
 10
66.81455615462265
 20
27.29653314743072
 42
1.0
 10
66.79881335139878
 20
27.30837431936348
 42
1.0
 10
66.77907907711577
 20
27.32401311509953
 42
1.0
 10
66.75827737347902
 20
27.34129544370544
 42
1.0
 10
66.73804662458238
 20
27.35891015073763
 42
1.0
 10
66.71575091111877
 20
27.37924980343183
 42
1.0
 10
66.6962839227251
 20
27.39784485154243
 42
1.0
 10
66.67927540203421
 20
27.41475349142599
 42
1.0
 10
66.66242086900236
 20
27.43196460354187
 42
1.0
 10
66.64187613682451
 20
27.45370470318572
 42
1.0
 10
66.6177910689942
 20
27.48045369340434
 42
1.0
 10
66.59630284817297
 20
27.50546378418299
 42
1.0
 10
66.57695068110593
 20
27.5288567174811
 42
1.0
 10
66.56021947882437
 20
27.54978876080399
 42
1.0
 10
66.54534275280322
 20
27.56902961154969
 42
1.0
 10
66.52951188945904
 20
27.59003259914603
 42
1.0
 10
66.51206645887612
 20
27.61394601078597
 42
1.0
 10
66.49156406857479
 20
27.64325852535188
 42
1.0
 10
66.47007218245112
 20
27.67530542180921
 42
1.0
 10
66.44779494545489
 20
27.71018616076407
 42
1.0
 10
66.4210046850733
 20
27.75441923210662
 42
1.0
 10
66.39176021491484
 20
27.80611898091538
 42
1.0
 10
66.3646298389096
 20
27.85848932700409
 42
1.0
 10
66.34296920124028
 20
27.90354942935157
 42
1.0
 10
66.32864919810754
 20
27.93521815123046
 42
1.0
 10
66.31334311340991
 20
27.97062239627967
 42
1.0
 10
66.30422676010969
 20
27.99354410077353
 42
1.0
 10
66.2977872838539
 20
28.00973519900862
 42
1.0
 72
     1
 10
66.2977872838539
 20
28.00973519900862
 11
58.98938962852582
 21
46.66113064550937
 72
     3
 10
58.4020818743626
 20
46.42495426595038
 11
-0.5361577303072612
 21
-0.3667137924130977
 40
0.6839662503848198
 50
192.4640772838455
 51
360.0
 73
     0
 97
        0
 75
     0
 76
     1
 52
0.0
 41
5.3333333333
 77
     0
 78
     4
 53
37.5
 43
0.0
 44
0.0
 45
-0.3359645765845768
 46
10.27639343473685
 79
     6
 49
0.0
 49
-8.106666666666666
 49
0.0
 49
-9.066666666666666
 49
0.0
 49
-8.666666666666666
 53
7.5
 43
0.0
 44
0.0
 45
9.438809094761211
 46
15.05144568122528
 79
     6
 49
0.0
 49
-4.373333333333333
 49
0.0
 49
-7.306666666666667
 49
0.0
 49
-2.8
 53
-32.5
 43
-6.56
 44
0.0
 45
16.60875659600797
 46
0.0301816188638118
 79
     6
 49
0.0
 49
-2.666666666666667
 49
0.0
 49
-9.6
 49
0.0
 49
-12.53333333333333
 53
-42.50000000000001
 43
-6.56
 44
0.0
 45
16.03267522438556
 46
4.680936346315996
 79
     6
 49
0.0
 49
-1.333333333333333
 49
0.0
 49
-6.293333333333333
 49
0.0
 49
-7.2
 98
        1
 10
0.0
 20
0.0
  0
INSERT
  5
302
330
1F
100
AcDbEntity
  8
NOTES
100
AcDbBlockReference
  2
SW_NOTE_0_3
 10
80.0347612081
 20
15.7089657249
 30
0.0
  0
ARC
  5
303
330
1F
100
AcDbEntity
  8
0
  6
SLD-Solid
 62
     7
370
    25
100
AcDbCircle
 10
11.0074140675
 20
45.9096891755
 30
0.0
 40
0.050000000000008
100
AcDbArc
 50
276.0090059575
 51
0.0
  0
ARC
  5
304
330
1F
100
AcDbEntity
  8
0
  6
SLD-Solid
 62
     7
370
    25
100
AcDbCircle
 10
8.0449140675
 20
45.9096891755
 30
0.0
 40
0.0500000000000078
100
AcDbArc
 50
180.0
 51
263.9909940425
  0
LINE
  5
305
330
1F
100
AcDbEntity
  8
0
  6
SLD-Solid
 62
     7
370
    25
100
AcDbLine
 10
7.9949140675
 20
46.2486760882
 30
0.0
 11
7.9949140675
 21
45.9096891755
 31
0.0
  0
LINE
  5
306
330
1F
100
AcDbEntity
  8
0
  6
SLD-Solid
 62
     7
370
    25
100
AcDbLine
 10
11.0574140675
 20
45.9096891755
 30
0.0
 11
11.0574140675
 21
46.2486760882
 31
0.0
  0
LINE
  5
307
330
1F
100
AcDbEntity
  8
0
  6
SLD-Solid
 62
     7
370
    25
100
AcDbLine
 10
8.0396798282
 20
45.8599639029
 30
0.0
 11
8.7461640675
 21
45.7855971408
 31
0.0
  0
LINE
  5
308
330
1F
100
AcDbEntity
  8
0
  6
SLD-Solid
 62
     7
370
    25
100
AcDbLine
 10
10.3061640675
 20
45.7855971408
 30
0.0
 11
11.0126483067
 21
45.8599639029
 31
0.0
  0
LINE
  5
309
330
1F
100
AcDbEntity
  8
0
  6
SLD-Solid
 62
     7
370
    25
100
AcDbLine
 10
43.9949140675
 20
46.2486760882
 30
0.0
 11
43.9949140675
 21
45.9096891755
 31
0.0
  0
LINE
  5
30A
330
1F
100
AcDbEntity
  8
0
  6
SLD-Solid
 62
     7
370
    25
100
AcDbLine
 10
47.0574140675
 20
45.9096891755
 30
0.0
 11
47.0574140675
 21
46.2486760882
 31
0.0
  0
ARC
  5
30B
330
1F
100
AcDbEntity
  8
0
  6
SLD-Solid
 62
     7
370
    25
100
AcDbCircle
 10
47.0074140675
 20
45.9096891755
 30
0.0
 40
0.0500000000000072
100
AcDbArc
 50
276.0090059575
 51
0.0
  0
ARC
  5
30C
330
1F
100
AcDbEntity
  8
0
  6
SLD-Solid
 62
     7
370
    25
100
AcDbCircle
 10
44.0449140675
 20
45.9096891755
 30
0.0
 40
0.050000000000008
100
AcDbArc
 50
180.0
 51
263.9909940425
  0
LINE
  5
30D
330
1F
100
AcDbEntity
  8
0
  6
SLD-Solid
 62
     7
370
    25
100
AcDbLine
 10
44.0396798282
 20
45.8599639029
 30
0.0
 11
44.7461640675
 21
45.7855971408
 31
0.0
  0
LINE
  5
30E
330
1F
100
AcDbEntity
  8
0
  6
SLD-Solid
 62
     7
370
    25
100
AcDbLine
 10
46.3061640675
 20
45.7855971408
 30
0.0
 11
47.0126483067
 21
45.8599639029
 31
0.0
  0
SPLINE
  5
30F
330
1F
100
AcDbEntity
  8
0
  6
SLD-Solid
 62
     7
370
    25
100
AcDbSpline
210
0.0
220
0.0
230
1.0
 70
     8
 71
     3
 72
    23
 73
    19
 74
     0
 42
0.00000001
 43
0.00000001
 40
0.0
 40
0.0
 40
0.0
 40
0.0
 40
0.0262857995440199
 40
0.0918057980943573
 40
0.155115347671351
 40
0.2177819016810979
 40
0.2806675279604507
 40
0.3442436478658563
 40
0.4089027851553473
 40
0.4748400687059228
 40
0.5421144666429009
 40
0.6106923577388105
 40
0.6804798744621126
 40
0.7513465837193013
 40
0.8231421623456923
 40
0.8957074837906281
 40
0.968881406328681
 40
1.0
 40
1.0
 40
1.0
 40
1.0
 10
10.62976504426103
 20
44.72696840547631
 30
0.0
 10
10.6301202870446
 20
44.72674426299686
 30
0.0
 10
10.63136100818787
 20
44.72596142284857
 30
0.0
 10
10.62288212806953
 20
44.7323057591699
 30
0.0
 10
10.60672511455638
 20
44.74809994651443
 30
0.0
 10
10.5839249068514
 20
44.77441156198167
 30
0.0
 10
10.55679746584384
 20
44.81130156473542
 30
0.0
 10
10.52648694000693
 20
44.85923455790203
 30
0.0
 10
10.49429563505098
 20
44.9182634856482
 30
0.0
 10
10.46134846518719
 20
44.98828848200973
 30
0.0
 10
10.42871780199211
 20
45.06895128803218
 30
0.0
 10
10.397389941154
 20
45.15966673256288
 30
0.0
 10
10.36824846820036
 20
45.25963903128344
 30
0.0
 10
10.34210353699402
 20
45.36791042344623
 30
0.0
 10
10.31952635556151
 20
45.48333189536957
 30
0.0
 10
10.30145188918726
 20
45.60482832688302
 30
0.0
 10
10.28970589824962
 20
45.70618063386816
 30
0.0
 10
10.28591326871231
 20
45.76734657031743
 30
0.0
 10
10.28478163145005
 20
45.78559714084801
 30
0.0
  0
SPLINE
  5
310
330
1F
100
AcDbEntity
  8
0
  6
SLD-Solid
 62
     7
370
    25
100
AcDbSpline
210
0.0
220
0.0
230
1.0
 70
     8
 71
     3
 72
    30
 73
    26
 74
     0
 42
0.00000001
 43
0.00000001
 40
0.0
 40
0.0
 40
0.0
 40
0.0
 40
0.0138830772793198
 40
0.0613966286608582
 40
0.1090316321588803
 40
0.1568505827160215
 40
0.204917679799127
 40
0.2532978641582724
 40
0.3020538968939035
 40
0.3512398896018278
 40
0.4008888181965412
 40
0.4509908616714765
 40
0.5014604820234718
 40
0.5520439689522348
 40
0.6023069755164813
 40
0.6517753446046317
 40
0.6950340413424975
 40
0.7369815575278491
 40
0.7777157097866091
 40
0.8216893298417808
 40
0.8643893284656872
 40
0.9059352034588466
 40
0.946563675892285
 40
0.9865110424037253
 40
1.0
 40
1.0
 40
1.0
 40
1.0
 10
8.782347738870529
 20
45.78559714084801
 30
0.0
 10
8.782991643891853
 20
45.76774961443027
 30
0.0
 10
8.785839254453334
 20
45.68882057514461
 30
0.0
 10
8.797992971850496
 20
45.54978406906059
 30
0.0
 10
8.818983576859084
 20
45.3693383396076
 30
0.0
 10
8.84760584165393
 20
45.19121617241469
 30
0.0
 10
8.883260375500926
 20
45.01590167785186
 30
0.0
 10
8.926237336549706
 20
44.8439842001196
 30
0.0
 10
8.976642246820045
 20
44.67602374988869
 30
0.0
 10
9.034692627274113
 20
44.51261391347315
 30
0.0
 10
9.100633097412242
 20
44.35441212053468
 30
0.0
 10
9.174728822744386
 20
44.20220420118039
 30
0.0
 10
9.257165756090215
 20
44.05703026566454
 30
0.0
 10
9.347902776956834
 20
43.92026360342605
 30
0.0
 10
9.446552386855327
 20
43.79349953580213
 30
0.0
 10
9.548798053118308
 20
43.68218757934707
 30
0.0
 10
9.652745391724725
 20
43.58630010263317
 30
0.0
 10
9.75665589348379
 20
43.50510083318071
 30
0.0
 10
9.867648476701682
 20
43.43260216902529
 30
0.0
 10
9.985732820476647
 20
43.37011289519407
 30
0.0
 10
10.1105457895332
 20
43.31917942267145
 30
0.0
 10
10.23683441527539
 20
43.2818850407374
 30
0.0
 10
10.3636858684746
 20
43.25814308168275
 30
0.0
 10
10.46291285721492
 20
43.24942391327602
 30
0.0
 10
10.519403984423
 20
43.24882681422402
 30
0.0
 10
10.53366406746951
 20
43.24867608821642
 30
0.0
  0
LINE
  5
311
330
1F
100
AcDbEntity
  8
0
  6
SLD-Solid
 62
     7
370
    25
100
AcDbLine
 10
10.5336640675
 20
43.2486760882
 30
0.0
 11
21.0931513656
 21
43.2486760882
 31
0.0
  0
LINE
  5
312
330
1F
100
AcDbEntity
  8
0
  6
SLD-Solid
 62
     7
370
    25
100
AcDbLine
 10
21.0931513656
 20
44.7486760882
 30
0.0
 11
10.6068057149
 21
44.7486760882
 31
0.0
  0
LINE
  5
313
330
1F
100
AcDbEntity
  8
0
  6
SLD-Solid
 62
     7
370
    25
100
AcDbLine
 10
21.0931513656
 20
43.2486760882
 30
0.0
 11
22.3921894713
 21
43.2486760882
 31
0.0
  0
LINE
  5
314
330
1F
100
AcDbEntity
  8
0
  6
SLD-Solid
 62
     7
370
    25
100
AcDbLine
 10
22.3921894713
 20
44.7486760882
 30
0.0
 11
21.0931513656
 21
44.7486760882
 31
0.0
  0
ARC
  5
315
330
1F
100
AcDbEntity
  8
0
  6
SLD-Solid
 62
     7
370
    25
100
AcDbCircle
 10
43.5111640675
 20
46.0136760882
 30
0.0
 40
1.265000000000001
100
AcDbArc
 50
270.0
 51
349.6127910082
  0
ARC
  5
316
330
1F
100
AcDbEntity
  8
0
  6
SLD-Solid
 62
     7
370
    25
100
AcDbCircle
 10
43.5111640675
 20
46.0136760882
 30
0.0
 40
2.765000000000001
100
AcDbArc
 50
270.0
 51
355.2684172699
  0
LINE
  5
317
330
1F
100
AcDbEntity
  8
0
  6
SLD-Solid
 62
     7
370
    25
100
AcDbLine
 10
22.3921894713
 20
43.2486760882
 30
0.0
 11
43.5111640675
 21
43.2486760882
 31
0.0
  0
LINE
  5
318
330
1F
100
AcDbEntity
  8
0
  6
SLD-Solid
 62
     7
370
    25
100
AcDbLine
 10
43.5111640675
 20
44.7486760882
 30
0.0
 11
22.3921894713
 21
44.7486760882
 31
0.0
  0
LINE
  5
319
330
1F
100
AcDbEntity
  8
0
  6
SLD-Solid
 62
     7
370
    25
100
AcDbLine
 10
9.5261640675
 20
46.2486760882
 30
0.0
 11
7.9949140675
 21
46.2486760882
 31
0.0
  0
LINE
  5
31A
330
1F
100
AcDbEntity
  8
0
  6
SLD-Solid
 62
     7
370
    25
100
AcDbLine
 10
11.0574140675
 20
46.2486760882
 30
0.0
 11
9.5261640675
 21
46.2486760882
 31
0.0
  0
LINE
  5
31B
330
1F
100
AcDbEntity
  8
0
  6
SLD-Solid
 62
     7
370
    25
100
AcDbLine
 10
8.7461640675
 20
45.7855971408
 30
0.0
 11
10.3061640675
 21
45.7855971408
 31
0.0
  0
LINE
  5
31C
330
1F
100
AcDbEntity
  8
0
  6
SLD-Solid
 62
     7
370
    25
100
AcDbLine
 10
45.5261640675
 20
46.2486760882
 30
0.0
 11
43.9949140675
 21
46.2486760882
 31
0.0
  0
LINE
  5
31D
330
1F
100
AcDbEntity
  8
0
  6
SLD-Solid
 62
     7
370
    25
100
AcDbLine
 10
47.0574140675
 20
46.2486760882
 30
0.0
 11
45.5261640675
 21
46.2486760882
 31
0.0
  0
LINE
  5
31E
330
1F
100
AcDbEntity
  8
0
  6
SLD-Solid
 62
     7
370
    25
100
AcDbLine
 10
44.7461640675
 20
45.7855971408
 30
0.0
 11
46.3061640675
 21
45.7855971408
 31
0.0
  0
LINE
  5
31F
330
1F
100
AcDbEntity
  8
0
  6
SLD-Solid
 62
     8
370
    25
100
AcDbLine
 10
9.5261640675
 20
45.9096891755
 30
0.0
 11
11.0574140675
 21
45.9096891755
 31
0.0
  0
LINE
  5
320
330
1F
100
AcDbEntity
  8
0
  6
SLD-Solid
 62
     8
370
    25
100
AcDbLine
 10
7.9949140675
 20
45.9096891755
 30
0.0
 11
9.5261640675
 21
45.9096891755
 31
0.0
  0
LINE
  5
321
330
1F
100
AcDbEntity
  8
0
  6
SLD-Solid
 62
     8
370
    25
100
AcDbLine
 10
45.5261640675
 20
45.9096891755
 30
0.0
 11
47.0574140675
 21
45.9096891755
 31
0.0
  0
LINE
  5
322
330
1F
100
AcDbEntity
  8
0
  6
SLD-Solid
 62
     8
370
    25
100
AcDbLine
 10
43.9949140675
 20
45.9096891755
 30
0.0
 11
45.5261640675
 21
45.9096891755
 31
0.0
  0
HATCH
  5
323
330
1F
100
AcDbEntity
  8
NOTES
100
AcDbHatch
 10
0.0
 20
0.0
 30
0.0
210
0.0
220
0.0
230
1.0
  2
AR-SAND
 70
     0
 71
     0
 91
        1
 92
        0
 93
        4
 72
     3
 10
10.92557597898982
 20
43.99867608821639
 11
-0.7044582428645441
 21
0.2573685762875021
 40
0.9999999999999937
 50
69.93060006764465
 51
249.9306000676455
 73
     0
 72
     1
 10
10.92557597898982
 20
43.24867608821636
 11
42.65391406746929
 21
43.24867608821638
 72
     1
 10
42.65391406746929
 20
43.24867608821638
 11
42.65391406746929
 21
44.74867608821643
 72
     1
 10
42.65391406746929
 20
44.74867608821643
 11
10.92557597898982
 21
44.74867608821642
 97
        0
 75
     0
 76
     1
 52
0.0
 41
5.3333333333
 77
     0
 78
     4
 53
37.5
 43
0.0
 44
0.0
 45
-0.3359645765845768
 46
10.27639343473685
 79
     6
 49
0.0
 49
-8.106666666666666
 49
0.0
 49
-9.066666666666666
 49
0.0
 49
-8.666666666666666
 53
7.5
 43
0.0
 44
0.0
 45
9.438809094761211
 46
15.05144568122528
 79
     6
 49
0.0
 49
-4.373333333333333
 49
0.0
 49
-7.306666666666667
 49
0.0
 49
-2.8
 53
-32.5
 43
-6.56
 44
0.0
 45
16.60875659600797
 46
0.0301816188638118
 79
     6
 49
0.0
 49
-2.666666666666667
 49
0.0
 49
-9.6
 49
0.0
 49
-12.53333333333333
 53
-42.50000000000001
 43
-6.56
 44
0.0
 45
16.03267522438556
 46
4.680936346315996
 79
     6
 49
0.0
 49
-1.333333333333333
 49
0.0
 49
-6.293333333333333
 49
0.0
 49
-7.2
 98
        1
 10
0.0
 20
0.0
  0
MTEXT
  5
324
330
1F
100
AcDbEntity
  8
NOTES
100
AcDbMText
 10
25.3742096943
 20
42.8108856999
 30
0.0
 40
0.5
 41
0.0
 71
     1
 72
     1
  1
Top view
  7
SLDTEXTSTYLE1
 73
     1
 44
1.0
  0
MTEXT
  5
325
330
1F
100
AcDbEntity
  8
NOTES
100
AcDbMText
 10
30.7532342067
 20
46.5457615218
 30
0.0
 40
0.5
 41
0.0
 71
     1
 72
     1
  1
peened area
  7
SLDTEXTSTYLE1
 73
     1
 44
1.0
  0
LEADER
  5
32C
330
1F
100
AcDbEntity
  8
NOTES
100
AcDbLeader
  3
SLDDIMSTYLE6
 76
     3
 10
28.0949300406
 20
44.2676848268
 30
0.0
 10
30.2332677165
 20
46.3001968534
 30
0.0
 10
30.7332677165
 20
46.3001968534
 30
0.0
  0
ENDSEC
  0
SECTION
  2
OBJECTS
  0
DICTIONARY
  5
C
330
0
100
AcDbDictionary
281
     1
  3
ACAD_GROUP
350
D
  3
ACAD_LAYOUT
350
1A
  3
ACAD_MLINESTYLE
350
17
  3
ACAD_PLOTSETTINGS
350
19
  3
ACAD_PLOTSTYLENAME
350
E
  3
ACAD_SCALELIST
350
47
  3
DWGPROPS
350
32D
  0
DICTIONARY
  5
D
102
{ACAD_REACTORS
330
C
102
}
330
C
100
AcDbDictionary
281
     1
  0
DICTIONARY
  5
1A
102
{ACAD_REACTORS
330
C
102
}
330
C
100
AcDbDictionary
281
     1
  3
Layout1
350
1E
  3
Layout2
350
26
  3
Model
350
22
  0
DICTIONARY
  5
17
102
{ACAD_REACTORS
330
C
102
}
330
C
100
AcDbDictionary
281
     1
  3
Standard
350
18
  0
DICTIONARY
  5
19
102
{ACAD_REACTORS
330
C
102
}
330
C
100
AcDbDictionary
281
     1
  0
ACDBDICTIONARYWDFLT
  5
E
102
{ACAD_REACTORS
330
C
102
}
330
C
100
AcDbDictionary
281
     1
  3
Normal
350
F
100
AcDbDictionaryWithDefault
340
F
  0
DICTIONARY
  5
47
102
{ACAD_REACTORS
330
C
102
}
330
C
100
AcDbDictionary
281
     1
  3
A0
350
48
  3
A1
350
49
  3
A2
350
4A
  3
A3
350
4B
  3
A4
350
4C
  3
A5
350
4D
  3
A6
350
4E
  3
A7
350
4F
  3
A8
350
50
  3
A9
350
51
  3
B0
350
52
  3
B1
350
53
  3
B2
350
54
  3
B3
350
55
  3
B4
350
56
  3
B5
350
57
  3
B6
350
58
  3
B7
350
59
  3
B8
350
5A
  3
B9
350
5B
  3
C0
350
5C
  3
C1
350
5D
  3
C2
350
5E
  3
C3
350
5F
  3
C4
350
60
  3
C5
350
61
  3
C6
350
62
  3
C7
350
63
  3
C8
350
64
  3
C9
350
65
  3
D0
350
66
  3
D1
350
67
  3
D2
350
68
  0
XRECORD
  5
32D
102
{ACAD_REACTORS
330
C
102
}
330
C
100
AcDbXrecord
280
     1
  1
DWGPROPS COOKIE
  2

  3

  4

  6

  7

  8
carl
  9

300
=
301
=
302
=
303
=
304
=
305
=
306
=
307
=
308
=
309
=
 40
0.0
 41
2459507.813407974
 42
2459507.813413403
  1

 90
        0
  0
LAYOUT
  5
1E
102
{ACAD_REACTORS
330
1A
102
}
330
1A
100
AcDbPlotSettings
  1

  2
none_device
  4

  6

 40
0.0
 41
0.0
 42
0.0
 43
0.0
 44
0.0
 45
0.0
 46
0.0
 47
0.0
 48
0.0
 49
0.0
140
0.0
141
0.0
142
1.0
143
1.0
 70
   688
 72
     0
 73
     0
 74
     5
  7

 75
    16
147
1.0
148
0.0
149
0.0
100
AcDbLayout
  1
Layout1
 70
     1
 71
     1
 10
0.0
 20
0.0
 11
12.0
 21
9.0
 12
0.0
 22
0.0
 32
0.0
 14
1.0000000000E+20
 24
1.0000000000E+20
 34
1.0000000000E+20
 15
-1.0000000000E+20
 25
-1.0000000000E+20
 35
-1.0000000000E+20
146
0.0
 13
0.0
 23
0.0
 33
0.0
 16
1.0
 26
0.0
 36
0.0
 17
0.0
 27
1.0
 37
0.0
 76
     0
330
1B
  0
LAYOUT
  5
26
102
{ACAD_REACTORS
330
1A
102
}
330
1A
100
AcDbPlotSettings
  1

  2
none_device
  4

  6

 40
0.0
 41
0.0
 42
0.0
 43
0.0
 44
0.0
 45
0.0
 46
0.0
 47
0.0
 48
0.0
 49
0.0
140
0.0
141
0.0
142
1.0
143
1.0
 70
   688
 72
     0
 73
     0
 74
     5
  7

 75
    16
147
1.0
148
0.0
149
0.0
100
AcDbLayout
  1
Layout2
 70
     1
 71
     2
 10
0.0
 20
0.0
 11
0.0
 21
0.0
 12
0.0
 22
0.0
 32
0.0
 14
0.0
 24
0.0
 34
0.0
 15
0.0
 25
0.0
 35
0.0
146
0.0
 13
0.0
 23
0.0
 33
0.0
 16
1.0
 26
0.0
 36
0.0
 17
0.0
 27
1.0
 37
0.0
 76
     0
330
23
  0
LAYOUT
  5
22
102
{ACAD_REACTORS
330
1A
102
}
330
1A
100
AcDbPlotSettings
  1

  2
none_device
  4
Letter_(8.50_x_11.00_Inches)
  6

 40
6.35
 41
6.35
 42
6.35000508
 43
6.35000508
 44
215.9
 45
279.4
 46
0.0
 47
0.0
 48
0.0
 49
0.0
140
0.0
141
0.0
142
1.0
143
1.0
 70
  1712
 72
     0
 73
     0
 74
     0
  7

 75
     0
147
1.0
148
0.0
149
0.0
100
AcDbLayout
  1
Model
 70
     1
 71
     0
 10
0.0
 20
0.0
 11
90.0
 21
120.0
 12
0.0
 22
0.0
 32
0.0
 14
0.0
 24
0.0
 34
0.0
 15
90.0
 25
120.0
 35
0.0
146
0.0
 13
0.0
 23
0.0
 33
0.0
 16
1.0
 26
0.0
 36
0.0
 17
0.0
 27
1.0
 37
0.0
 76
     0
330
1F
331
29
  0
MLINESTYLE
  5
18
102
{ACAD_REACTORS
330
17
102
}
330
17
100
AcDbMlineStyle
  2
Standard
 70
     0
  3

 62
   256
 51
90.0
 52
90.0
 71
     2
 49
0.5
 62
   256
  6
BYLAYER
 49
-0.5
 62
   256
  6
BYLAYER
  0
ACDBPLACEHOLDER
  5
F
102
{ACAD_REACTORS
330
E
102
}
330
E
  0
SCALE
  5
48
102
{ACAD_REACTORS
330
47
102
}
330
47
100
AcDbScale
 70
     0
300
1:1
140
1.0
141
1.0
290
     1
  0
SCALE
  5
49
102
{ACAD_REACTORS
330
47
102
}
330
47
100
AcDbScale
 70
     0
300
1:2
140
1.0
141
2.0
290
     0
  0
SCALE
  5
4A
102
{ACAD_REACTORS
330
47
102
}
330
47
100
AcDbScale
 70
     0
300
1:4
140
1.0
141
4.0
290
     0
  0
SCALE
  5
4B
102
{ACAD_REACTORS
330
47
102
}
330
47
100
AcDbScale
 70
     0
300
1:5
140
1.0
141
5.0
290
     0
  0
SCALE
  5
4C
102
{ACAD_REACTORS
330
47
102
}
330
47
100
AcDbScale
 70
     0
300
1:8
140
1.0
141
8.0
290
     0
  0
SCALE
  5
4D
102
{ACAD_REACTORS
330
47
102
}
330
47
100
AcDbScale
 70
     0
300
1:10
140
1.0
141
10.0
290
     0
  0
SCALE
  5
4E
102
{ACAD_REACTORS
330
47
102
}
330
47
100
AcDbScale
 70
     0
300
1:16
140
1.0
141
16.0
290
     0
  0
SCALE
  5
4F
102
{ACAD_REACTORS
330
47
102
}
330
47
100
AcDbScale
 70
     0
300
1:20
140
1.0
141
20.0
290
     0
  0
SCALE
  5
50
102
{ACAD_REACTORS
330
47
102
}
330
47
100
AcDbScale
 70
     0
300
1:30
140
1.0
141
30.0
290
     0
  0
SCALE
  5
51
102
{ACAD_REACTORS
330
47
102
}
330
47
100
AcDbScale
 70
     0
300
1:40
140
1.0
141
40.0
290
     0
  0
SCALE
  5
52
102
{ACAD_REACTORS
330
47
102
}
330
47
100
AcDbScale
 70
     0
300
1:50
140
1.0
141
50.0
290
     0
  0
SCALE
  5
53
102
{ACAD_REACTORS
330
47
102
}
330
47
100
AcDbScale
 70
     0
300
1:100
140
1.0
141
100.0
290
     0
  0
SCALE
  5
54
102
{ACAD_REACTORS
330
47
102
}
330
47
100
AcDbScale
 70
     0
300
2:1
140
2.0
141
1.0
290
     0
  0
SCALE
  5
55
102
{ACAD_REACTORS
330
47
102
}
330
47
100
AcDbScale
 70
     0
300
4:1
140
4.0
141
1.0
290
     0
  0
SCALE
  5
56
102
{ACAD_REACTORS
330
47
102
}
330
47
100
AcDbScale
 70
     0
300
8:1
140
8.0
141
1.0
290
     0
  0
SCALE
  5
57
102
{ACAD_REACTORS
330
47
102
}
330
47
100
AcDbScale
 70
     0
300
10:1
140
10.0
141
1.0
290
     0
  0
SCALE
  5
58
102
{ACAD_REACTORS
330
47
102
}
330
47
100
AcDbScale
 70
     0
300
100:1
140
100.0
141
1.0
290
     0
  0
SCALE
  5
59
102
{ACAD_REACTORS
330
47
102
}
330
47
100
AcDbScale
 70
     0
300
1/128" = 1'-0"
140
0.0078125
141
12.0
290
     0
  0
SCALE
  5
5A
102
{ACAD_REACTORS
330
47
102
}
330
47
100
AcDbScale
 70
     0
300
1/64" = 1'-0"
140
0.015625
141
12.0
290
     0
  0
SCALE
  5
5B
102
{ACAD_REACTORS
330
47
102
}
330
47
100
AcDbScale
 70
     0
300
1/32" = 1'-0"
140
0.03125
141
12.0
290
     0
  0
SCALE
  5
5C
102
{ACAD_REACTORS
330
47
102
}
330
47
100
AcDbScale
 70
     0
300
1/16" = 1'-0"
140
0.0625
141
12.0
290
     0
  0
SCALE
  5
5D
102
{ACAD_REACTORS
330
47
102
}
330
47
100
AcDbScale
 70
     0
300
3/32" = 1'-0"
140
0.09375
141
12.0
290
     0
  0
SCALE
  5
5E
102
{ACAD_REACTORS
330
47
102
}
330
47
100
AcDbScale
 70
     0
300
1/8" = 1'-0"
140
0.125
141
12.0
290
     0
  0
SCALE
  5
5F
102
{ACAD_REACTORS
330
47
102
}
330
47
100
AcDbScale
 70
     0
300
3/16" = 1'-0"
140
0.1875
141
12.0
290
     0
  0
SCALE
  5
60
102
{ACAD_REACTORS
330
47
102
}
330
47
100
AcDbScale
 70
     0
300
1/4" = 1'-0"
140
0.25
141
12.0
290
     0
  0
SCALE
  5
61
102
{ACAD_REACTORS
330
47
102
}
330
47
100
AcDbScale
 70
     0
300
3/8" = 1'-0"
140
0.375
141
12.0
290
     0
  0
SCALE
  5
62
102
{ACAD_REACTORS
330
47
102
}
330
47
100
AcDbScale
 70
     0
300
1/2" = 1'-0"
140
0.5
141
12.0
290
     0
  0
SCALE
  5
63
102
{ACAD_REACTORS
330
47
102
}
330
47
100
AcDbScale
 70
     0
300
3/4" = 1'-0"
140
0.75
141
12.0
290
     0
  0
SCALE
  5
64
102
{ACAD_REACTORS
330
47
102
}
330
47
100
AcDbScale
 70
     0
300
1" = 1'-0"
140
1.0
141
12.0
290
     0
  0
SCALE
  5
65
102
{ACAD_REACTORS
330
47
102
}
330
47
100
AcDbScale
 70
     0
300
1-1/2" = 1'-0"
140
1.5
141
12.0
290
     0
  0
SCALE
  5
66
102
{ACAD_REACTORS
330
47
102
}
330
47
100
AcDbScale
 70
     0
300
3" = 1'-0"
140
3.0
141
12.0
290
     0
  0
SCALE
  5
67
102
{ACAD_REACTORS
330
47
102
}
330
47
100
AcDbScale
 70
     0
300
6" = 1'-0"
140
6.0
141
12.0
290
     0
  0
SCALE
  5
68
102
{ACAD_REACTORS
330
47
102
}
330
47
100
AcDbScale
 70
     0
300
1'-0" = 1'-0"
140
12.0
141
12.0
290
     0
  0
ENDSEC
  0
EOF
