  0
SECTION
  2
HEADER
  9
$ACADVER
  1
AC1018
  9
$ACADMAINTVER
 70
    39
  9
$DWGCODEPAGE
  3
ANSI_1252
  9
$LASTSAVEDBY
  1
fottrem
  9
$INSBASE
 10
0.0
 20
0.0
 30
0.0
  9
$EXTMIN
 10
0.1653543307086614
 20
0.1653543307086614
 30
-12.0005652926802
  9
$EXTMAX
 10
89.83464566929135
 20
47.83464566929134
 30
0.0000000000000048
  9
$LIMMIN
 10
0.0
 20
0.0
  9
$LIMMAX
 10
90.0
 20
48.00000000000001
  9
$ORTHOMODE
 70
     0
  9
$REGENMODE
 70
     1
  9
$FILLMODE
 70
     1
  9
$QTEXTMODE
 70
     0
  9
$MIRRTEXT
 70
     1
  9
$LTSCALE
 40
1.0
  9
$ATTMODE
 70
     1
  9
$TEXTSIZE
 40
0.5
  9
$TRACEWID
 40
0.05
  9
$TEXTSTYLE
  7
Standard
  9
$CLAYER
  8
0
  9
$CELTYPE
  6
ByLayer
  9
$CECOLOR
 62
   256
  9
$CELTSCALE
 40
1.0
  9
$DISPSILH
 70
     0
  9
$DIMSCALE
 40
1.0
  9
$DIMASZ
 40
0.3
  9
$DIMEXO
 40
0.1666666666666667
  9
$DIMDLI
 40
0.38
  9
$DIMRND
 40
0.0
  9
$DIMDLE
 40
0.0
  9
$DIMEXE
 40
0.3750000000000001
  9
$DIMTP
 40
0.0
  9
$DIMTM
 40
0.0
  9
$DIMTXT
 40
0.5
  9
$DIMCEN
 40
0.09
  9
$DIMTSZ
 40
0.0
  9
$DIMTOL
 70
     0
  9
$DIMLIM
 70
     0
  9
$DIMTIH
 70
     1
  9
$DIMTOH
 70
     1
  9
$DIMSE1
 70
     0
  9
$DIMSE2
 70
     0
  9
$DIMTAD
 70
     0
  9
$DIMZIN
 70
     1
  9
$DIMBLK
  1

  9
$DIMASO
 70
     1
  9
$DIMSHO
 70
     1
  9
$DIMPOST
  1

  9
$DIMAPOST
  1

  9
$DIMALT
 70
     0
  9
$DIMALTD
 70
     2
  9
$DIMALTF
 40
25.4
  9
$DIMLFAC
 40
1.0
  9
$DIMTOFL
 70
     0
  9
$DIMTVP
 40
0.0
  9
$DIMTIX
 70
     0
  9
$DIMSOXD
 70
     0
  9
$DIMSAH
 70
     0
  9
$DIMBLK1
  1

  9
$DIMBLK2
  1

  9
$DIMSTYLE
  2
Standard
  9
$DIMCLRD
 70
     0
  9
$DIMCLRE
 70
     0
  9
$DIMCLRT
 70
     0
  9
$DIMTFAC
 40
1.0
  9
$DIMGAP
 40
0.125
  9
$DIMJUST
 70
     0
  9
$DIMSD1
 70
     0
  9
$DIMSD2
 70
     0
  9
$DIMTOLJ
 70
     1
  9
$DIMTZIN
 70
     1
  9
$DIMALTZ
 70
     0
  9
$DIMALTTZ
 70
     0
  9
$DIMUPT
 70
     0
  9
$DIMDEC
 70
     2
  9
$DIMTDEC
 70
     2
  9
$DIMALTU
 70
     2
  9
$DIMALTTD
 70
     2
  9
$DIMTXSTY
  7
Standard
  9
$DIMAUNIT
 70
     0
  9
$DIMADEC
 70
     2
  9
$DIMALTRND
 40
0.0
  9
$DIMAZIN
 70
     0
  9
$DIMDSEP
 70
    46
  9
$DIMATFIT
 70
     3
  9
$DIMFRAC
 70
     0
  9
$DIMLDRBLK
  1

  9
$DIMLUNIT
 70
     2
  9
$DIMLWD
 70
    -2
  9
$DIMLWE
 70
    -2
  9
$DIMTMOVE
 70
     0
  9
$LUNITS
 70
     2
  9
$LUPREC
 70
     4
  9
$SKETCHINC
 40
0.1
  9
$FILLETRAD
 40
0.5
  9
$AUNITS
 70
     0
  9
$AUPREC
 70
     2
  9
$MENU
  1
.
  9
$ELEVATION
 40
0.0
  9
$PELEVATION
 40
0.0
  9
$THICKNESS
 40
0.0
  9
$LIMCHECK
 70
     0
  9
$CHAMFERA
 40
0.0
  9
$CHAMFERB
 40
0.0
  9
$CHAMFERC
 40
0.0
  9
$CHAMFERD
 40
0.0
  9
$SKPOLY
 70
     0
  9
$TDCREATE
 40
2453353.550459155
  9
$TDUCREATE
 40
2453353.717125822
  9
$TDUPDATE
 40
2459487.508765521
  9
$TDUUPDATE
 40
2459487.675432188
  9
$TDINDWG
 40
0.0442129745
  9
$TDUSRTIMER
 40
0.0442129745
  9
$USRTIMER
 70
     1
  9
$ANGBASE
 50
0.0
  9
$ANGDIR
 70
     0
  9
$PDMODE
 70
     0
  9
$PDSIZE
 40
-1.0
  9
$PLINEWID
 40
0.0
  9
$SPLFRAME
 70
     0
  9
$SPLINETYPE
 70
     6
  9
$SPLINESEGS
 70
     8
  9
$HANDSEED
  5
314
  9
$SURFTAB1
 70
     6
  9
$SURFTAB2
 70
     6
  9
$SURFTYPE
 70
     6
  9
$SURFU
 70
     6
  9
$SURFV
 70
     6
  9
$UCSBASE
  2

  9
$UCSNAME
  2

  9
$UCSORG
 10
0.0
 20
0.0
 30
0.0
  9
$UCSXDIR
 10
1.0
 20
0.0
 30
0.0
  9
$UCSYDIR
 10
0.0
 20
1.0
 30
0.0
  9
$UCSORTHOREF
  2

  9
$UCSORTHOVIEW
 70
     0
  9
$UCSORGTOP
 10
0.0
 20
0.0
 30
0.0
  9
$UCSORGBOTTOM
 10
0.0
 20
0.0
 30
0.0
  9
$UCSORGLEFT
 10
0.0
 20
0.0
 30
0.0
  9
$UCSORGRIGHT
 10
0.0
 20
0.0
 30
0.0
  9
$UCSORGFRONT
 10
0.0
 20
0.0
 30
0.0
  9
$UCSORGBACK
 10
0.0
 20
0.0
 30
0.0
  9
$PUCSBASE
  2

  9
$PUCSNAME
  2

  9
$PUCSORG
 10
0.0
 20
0.0
 30
0.0
  9
$PUCSXDIR
 10
1.0
 20
0.0
 30
0.0
  9
$PUCSYDIR
 10
0.0
 20
1.0
 30
0.0
  9
$PUCSORTHOREF
  2

  9
$PUCSORTHOVIEW
 70
     0
  9
$PUCSORGTOP
 10
0.0
 20
0.0
 30
0.0
  9
$PUCSORGBOTTOM
 10
0.0
 20
0.0
 30
0.0
  9
$PUCSORGLEFT
 10
0.0
 20
0.0
 30
0.0
  9
$PUCSORGRIGHT
 10
0.0
 20
0.0
 30
0.0
  9
$PUCSORGFRONT
 10
0.0
 20
0.0
 30
0.0
  9
$PUCSORGBACK
 10
0.0
 20
0.0
 30
0.0
  9
$USERI1
 70
     0
  9
$USERI2
 70
     0
  9
$USERI3
 70
     0
  9
$USERI4
 70
     0
  9
$USERI5
 70
     0
  9
$USERR1
 40
0.0
  9
$USERR2
 40
0.0
  9
$USERR3
 40
0.0
  9
$USERR4
 40
0.0
  9
$USERR5
 40
0.0
  9
$WORLDVIEW
 70
     1
  9
$SHADEDGE
 70
     3
  9
$SHADEDIF
 70
    70
  9
$TILEMODE
 70
     1
  9
$MAXACTVP
 70
    64
  9
$PINSBASE
 10
0.0
 20
0.0
 30
0.0
  9
$PLIMCHECK
 70
     0
  9
$PEXTMIN
 10
1.000000000000000E+20
 20
1.000000000000000E+20
 30
1.000000000000000E+20
  9
$PEXTMAX
 10
-1.000000000000000E+20
 20
-1.000000000000000E+20
 30
-1.000000000000000E+20
  9
$PLIMMIN
 10
0.0
 20
0.0
  9
$PLIMMAX
 10
12.0
 20
9.0
  9
$UNITMODE
 70
     0
  9
$VISRETAIN
 70
     1
  9
$PLINEGEN
 70
     0
  9
$PSLTSCALE
 70
     1
  9
$TREEDEPTH
 70
  3020
  9
$CMLSTYLE
  2
Standard
  9
$CMLJUST
 70
     0
  9
$CMLSCALE
 40
1.0
  9
$PROXYGRAPHICS
 70
     1
  9
$MEASUREMENT
 70
     0
  9
$CELWEIGHT
370
    -1
  9
$ENDCAPS
280
     0
  9
$JOINSTYLE
280
     0
  9
$LWDISPLAY
290
     1
  9
$INSUNITS
 70
     1
  9
$HYPERLINKBASE
  1

  9
$STYLESHEET
  1

  9
$XEDIT
290
     0
  9
$CEPSNTYPE
380
     0
  9
$PSTYLEMODE
290
     1
  9
$FINGERPRINTGUID
  2
{e1af71af-383d-494b-beef-d6995389d326}
  9
$VERSIONGUID
  2
{FAEB1C32-E019-11D5-929B-00C0DF256EC4}
  9
$EXTNAMES
290
     1
  9
$PSVPSCALE
 40
0.0
  9
$OLESTARTUP
290
     0
  9
$SORTENTS
280
   127
  9
$INDEXCTL
280
     0
  9
$HIDETEXT
280
     1
  9
$XCLIPFRAME
290
     0
  9
$HALOGAP
280
     0
  9
$OBSCOLOR
 70
   257
  9
$OBSLTYPE
280
     0
  9
$INTERSECTIONDISPLAY
280
     0
  9
$INTERSECTIONCOLOR
 70
   257
  9
$DIMASSOC
280
     2
  9
$PROJECTNAME
  1

  0
ENDSEC
  0
SECTION
  2
CLASSES
  0
CLASS
  1
ACDBDICTIONARYWDFLT
  2
AcDbDictionaryWithDefault
  3
ObjectDBX Classes
 90
        0
 91
        3
280
     0
281
     0
  0
CLASS
  1
ACDBPLACEHOLDER
  2
AcDbPlaceHolder
  3
ObjectDBX Classes
 90
        0
 91
        1
280
     0
281
     0
  0
CLASS
  1
LAYOUT
  2
AcDbLayout
  3
ObjectDBX Classes
 90
        0
 91
        1
280
     0
281
     0
  0
CLASS
  1
DICTIONARYVAR
  2
AcDbDictionaryVar
  3
ObjectDBX Classes
 90
        0
 91
        3
280
     0
281
     0
  0
CLASS
  1
TABLESTYLE
  2
AcDbTableStyle
  3
ObjectDBX Classes
 90
     2047
 91
        3
280
     0
281
     0
  0
CLASS
  1
SCALE
  2
AcDbScale
  3
ObjectDBX Classes
 90
     1153
 91
       67
280
     1
281
     0
  0
ENDSEC
  0
SECTION
  2
TABLES
  0
TABLE
  2
VPORT
  5
8
330
0
100
AcDbSymbolTable
 70
     2
  0
VPORT
  5
97
330
8
100
AcDbSymbolTableRecord
100
AcDbViewportTableRecord
  2
*Active
 70
     0
 10
0.0
 20
0.0
 11
1.0
 21
1.0
 12
64.5250544701281
 22
16.57904566500005
 13
0.0
 23
0.0
 14
0.5
 24
0.5
 15
0.5
 25
0.5
 16
0.0
 26
0.0
 36
1.0
 17
0.0
 27
0.0
 37
0.0
 40
20.04438980727216
 41
1.875
 42
50.0
 43
0.0
 44
0.0
 50
0.0
 51
0.0
 71
    16
 72
  2000
 73
     1
 74
     1
 75
     0
 76
     0
 77
     0
 78
     0
281
     0
 65
     0
110
0.0
120
0.0
130
0.0
111
1.0
121
0.0
131
0.0
112
0.0
122
1.0
132
0.0
 79
     0
146
0.0
  0
ENDTAB
  0
TABLE
  2
LTYPE
  5
5
330
0
100
AcDbSymbolTable
 70
     8
  0
LTYPE
  5
14
330
5
100
AcDbSymbolTableRecord
100
AcDbLinetypeTableRecord
  2
ByBlock
 70
     0
  3

 72
    65
 73
     0
 40
0.0
  0
LTYPE
  5
15
330
5
100
AcDbSymbolTableRecord
100
AcDbLinetypeTableRecord
  2
ByLayer
 70
     0
  3

 72
    65
 73
     0
 40
0.0
  0
LTYPE
  5
16
330
5
100
AcDbSymbolTableRecord
100
AcDbLinetypeTableRecord
  2
Continuous
 70
     0
  3
Solid line
 72
    65
 73
     0
 40
0.0
  0
LTYPE
  5
2E9
330
5
100
AcDbSymbolTableRecord
100
AcDbLinetypeTableRecord
  2
SLD-Solid
 70
     0
  3
SolidWorks Line Style
 72
    65
 73
     0
 40
0.0
  0
LTYPE
  5
2EA
330
5
100
AcDbSymbolTableRecord
100
AcDbLinetypeTableRecord
  2
SLD-Dashed
 70
     0
  3
SolidWorks Line Style
 72
    65
 73
     2
 40
0.075
 49
0.05
 74
     4
 75
     0
340
0
 46
1.0
 50
0.0
 44
0.0
 45
0.0
 49
-0.025
 74
     4
 75
     0
340
0
 46
1.0
 50
0.0
 44
0.0
 45
0.0
  0
LTYPE
  5
2EB
330
5
100
AcDbSymbolTableRecord
100
AcDbLinetypeTableRecord
  2
SLD-Phantom
 70
     0
  3
SolidWorks Line Style
 72
    65
 73
     6
 40
0.4999999999999999
 49
0.25
 74
     4
 75
     0
340
0
 46
1.0
 50
0.0
 44
0.0
 45
0.0
 49
-0.05
 74
     4
 75
     0
340
0
 46
1.0
 50
0.0
 44
0.0
 45
0.0
 49
0.05
 74
     4
 75
     0
340
0
 46
1.0
 50
0.0
 44
0.0
 45
0.0
 49
-0.05
 74
     4
 75
     0
340
0
 46
1.0
 50
0.0
 44
0.0
 45
0.0
 49
0.05
 74
     4
 75
     0
340
0
 46
1.0
 50
0.0
 44
0.0
 45
0.0
 49
-0.05
 74
     4
 75
     0
340
0
 46
1.0
 50
0.0
 44
0.0
 45
0.0
  0
LTYPE
  5
2EC
330
5
100
AcDbSymbolTableRecord
100
AcDbLinetypeTableRecord
  2
SLD-Chain
 70
     0
  3
SolidWorks Line Style
 72
    65
 73
     4
 40
0.4
 49
0.25
 74
     4
 75
     0
340
0
 46
1.0
 50
0.0
 44
0.0
 45
0.0
 49
-0.05
 74
     4
 75
     0
340
0
 46
1.0
 50
0.0
 44
0.0
 45
0.0
 49
0.05
 74
     4
 75
     0
340
0
 46
1.0
 50
0.0
 44
0.0
 45
0.0
 49
-0.05
 74
     4
 75
     0
340
0
 46
1.0
 50
0.0
 44
0.0
 45
0.0
  0
LTYPE
  5
2ED
330
5
100
AcDbSymbolTableRecord
100
AcDbLinetypeTableRecord
  2
SLD-Center
 70
     0
  3
SolidWorks Line Style
 72
    65
 73
     4
 40
0.7500000000000002
 49
0.6000000000000001
 74
     4
 75
     0
340
0
 46
1.0
 50
0.0
 44
0.0
 45
0.0
 49
-0.05
 74
     4
 75
     0
340
0
 46
1.0
 50
0.0
 44
0.0
 45
0.0
 49
0.05
 74
     4
 75
     0
340
0
 46
1.0
 50
0.0
 44
0.0
 45
0.0
 49
-0.05
 74
     4
 75
     0
340
0
 46
1.0
 50
0.0
 44
0.0
 45
0.0
  0
LTYPE
  5
2EE
330
5
100
AcDbSymbolTableRecord
100
AcDbLinetypeTableRecord
  2
SLD-Stitch
 70
     0
  3
SolidWorks Line Style
 72
    65
 73
     2
 40
0.025
 49
0.0
 74
     4
 75
     0
340
0
 46
1.0
 50
0.0
 44
0.0
 45
0.0
 49
-0.025
 74
     4
 75
     0
340
0
 46
1.0
 50
0.0
 44
0.0
 45
0.0
  0
LTYPE
  5
2EF
330
5
100
AcDbSymbolTableRecord
100
AcDbLinetypeTableRecord
  2
SLD-Thin-Thick-Chain
 70
     0
  3
SolidWorks Line Style
 72
    65
 73
     4
 40
0.4
 49
0.25
 74
     4
 75
     0
340
0
 46
1.0
 50
0.0
 44
0.0
 45
0.0
 49
-0.05
 74
     4
 75
     0
340
0
 46
1.0
 50
0.0
 44
0.0
 45
0.0
 49
0.05
 74
     4
 75
     0
340
0
 46
1.0
 50
0.0
 44
0.0
 45
0.0
 49
-0.05
 74
     4
 75
     0
340
0
 46
1.0
 50
0.0
 44
0.0
 45
0.0
  0
ENDTAB
  0
TABLE
  2
LAYER
  5
2
330
0
100
AcDbSymbolTable
 70
     6
  0
LAYER
  5
10
330
2
100
AcDbSymbolTableRecord
100
AcDbLayerTableRecord
  2
0
 70
     0
 62
     7
  6
Continuous
370
    -3
390
F
  0
LAYER
  5
2BC
330
2
100
AcDbSymbolTableRecord
100
AcDbLayerTableRecord
  2
FORMAT
 70
     0
 62
     7
  6
SLD-Solid
370
    -3
390
F
  0
LAYER
  5
2BD
330
2
100
AcDbSymbolTableRecord
100
AcDbLayerTableRecord
  2
NOTES
 70
     0
 62
     1
  6
SLD-Solid
370
    -3
390
F
  0
LAYER
  5
77
330
2
100
AcDbSymbolTableRecord
100
AcDbLayerTableRecord
  2
OBJECT
 70
     0
 62
     7
  6
SLD-Solid
370
    25
390
F
  0
LAYER
  5
78
330
2
100
AcDbSymbolTableRecord
100
AcDbLayerTableRecord
  2
DIMS
 70
     0
 62
     5
  6
SLD-Solid
370
    -3
390
F
  0
LAYER
  5
79
330
2
100
AcDbSymbolTableRecord
100
AcDbLayerTableRecord
  2
TITLE
 70
     0
 62
     8
  6
SLD-Solid
370
    -3
390
F
  0
ENDTAB
  0
TABLE
  2
STYLE
  5
3
330
0
100
AcDbSymbolTable
 70
     5
  0
STYLE
  5
11
330
3
100
AcDbSymbolTableRecord
100
AcDbTextStyleTableRecord
  2
Standard
 70
     0
 40
0.0
 41
1.0
 50
0.0
 71
     0
 42
0.5
  3
GOTHIC.TTF
  4

1001
ACAD
1000
CENTURY GOTHIC
1071
       34
  0
STYLE
  5
115
330
3
100
AcDbSymbolTableRecord
100
AcDbTextStyleTableRecord
  2
SLDTEXTSTYLE0
 70
     0
 40
0.0
 41
0.948
 50
0.0
 71
     0
 42
0.5
  3
ARIAL.TTF
  4

1001
ACAD
1000
Arial
1071
      290
  0
STYLE
  5
119
330
3
100
AcDbSymbolTableRecord
100
AcDbTextStyleTableRecord
  2
SLDTEXTSTYLE1
 70
     0
 40
0.0
 41
0.913
 50
0.0
 71
     0
 42
0.5
  3
GOTHIC.TTF
  4

1001
ACAD
1000
Century Gothic
1071
      290
  0
STYLE
  5
128
330
3
100
AcDbSymbolTableRecord
100
AcDbTextStyleTableRecord
  2
SLDTEXTSTYLE2
 70
     0
 40
0.0
 41
0.87
 50
0.0
 71
     0
 42
0.5
  3
ARIALNB.TTF
  4

1001
ACAD
1000
Arial Narrow
1071
 33554722
  0
STYLE
  5
12A
330
3
100
AcDbSymbolTableRecord
100
AcDbTextStyleTableRecord
  2
SLDTEXTSTYLE3
 70
     0
 40
0.0
 41
0.87
 50
0.0
 71
     0
 42
0.5
  3
ARIALN.TTF
  4

1001
ACAD
1000
Arial Narrow
1071
      290
  0
ENDTAB
  0
TABLE
  2
VIEW
  5
6
330
0
100
AcDbSymbolTable
 70
     0
  0
ENDTAB
  0
TABLE
  2
UCS
  5
7
330
0
100
AcDbSymbolTable
 70
     0
  0
ENDTAB
  0
TABLE
  2
APPID
  5
9
330
0
100
AcDbSymbolTable
 70
     1
  0
APPID
  5
12
330
9
100
AcDbSymbolTableRecord
100
AcDbRegAppTableRecord
  2
ACAD
 70
     0
  0
ENDTAB
  0
TABLE
  2
DIMSTYLE
  5
A
330
0
100
AcDbSymbolTable
 70
     5
100
AcDbDimStyleTable
  0
DIMSTYLE
105
27
330
A
100
AcDbSymbolTableRecord
100
AcDbDimStyleTableRecord
  2
Standard
 70
     0
340
11
  0
DIMSTYLE
105
1D6
102
{ACAD_REACTORS
330
1F7
102
}
330
A
100
AcDbSymbolTableRecord
100
AcDbDimStyleTableRecord
  2
SLDDIMSTYLE0
 70
     0
 41
0.3
 44
0.0
 45
0.000000001
 78
    12
 79
     3
140
0.5
147
0.125
173
     1
271
     2
272
     2
276
     2
277
     5
284
    12
340
119
341
2F0
343
2F0
344
2F0
  0
DIMSTYLE
105
1E8
102
{ACAD_REACTORS
330
1E7
330
222
330
298
102
}
330
A
100
AcDbSymbolTableRecord
100
AcDbDimStyleTableRecord
  2
SLDDIMSTYLE1
 70
     0
 41
0.3
 44
0.0
 45
0.000000001
 78
    12
 79
     3
140
0.5
147
0.125
172
     1
173
     1
271
     6
272
     2
276
     2
277
     5
284
    12
289
     0
340
119
341
2F0
343
2F0
344
2F0
  0
DIMSTYLE
105
213
102
{ACAD_REACTORS
330
212
330
27A
330
289
102
}
330
A
100
AcDbSymbolTableRecord
100
AcDbDimStyleTableRecord
  2
SLDDIMSTYLE2
 70
     0
 41
0.3
 44
0.0
 45
0.000000001
 78
    12
 79
     3
140
0.5
147
0.125
173
     1
271
     6
272
     2
276
     2
277
     5
284
    12
340
119
341
2F0
343
2F0
344
2F0
  0
DIMSTYLE
105
2AD
330
A
100
AcDbSymbolTableRecord
100
AcDbDimStyleTableRecord
  2
SLDDIMSTYLE3
 70
     0
 41
0.3
 44
0.0
 45
0.000000001
146
0.3
147
0.0
173
     1
271
     0
272
     0
276
     2
277
     5
340
11
341
2F0
343
2F0
344
2F0
  0
ENDTAB
  0
TABLE
  2
BLOCK_RECORD
  5
1
330
0
100
AcDbSymbolTable
 70
    15
  0
BLOCK_RECORD
  5
1F
330
1
100
AcDbSymbolTableRecord
100
AcDbBlockTableRecord
  2
*Model_Space
340
22
  0
BLOCK_RECORD
  5
73
330
1
100
AcDbSymbolTableRecord
100
AcDbBlockTableRecord
  2
*Paper_Space
340
74
  0
BLOCK_RECORD
  5
2F0
330
1
100
AcDbSymbolTableRecord
100
AcDbBlockTableRecord
  2
_Open90
340
0
102
{BLKREFS
331
1E0
331
1E1
331
1EC
331
1ED
331
1FB
331
1FC
331
217
331
218
331
226
331
227
331
27E
331
27F
331
28D
331
28E
331
29C
331
29D
102
}
  0
BLOCK_RECORD
  5
23
330
1
100
AcDbSymbolTableRecord
100
AcDbBlockTableRecord
  2
*Paper_Space1
340
26
  0
BLOCK_RECORD
  5
11F
330
1
100
AcDbSymbolTableRecord
100
AcDbBlockTableRecord
  2
SW_NOTE_0
340
0
102
{BLKREFS
331
124
102
}
  0
BLOCK_RECORD
  5
125
330
1
100
AcDbSymbolTableRecord
100
AcDbBlockTableRecord
  2
SW_NOTE_0_1
340
0
102
{BLKREFS
331
12E
102
}
  0
BLOCK_RECORD
  5
12F
330
1
100
AcDbSymbolTableRecord
100
AcDbBlockTableRecord
  2
SW_NOTE_0_2
340
0
102
{BLKREFS
331
134
102
}
  0
BLOCK_RECORD
  5
1DD
330
1
100
AcDbSymbolTableRecord
100
AcDbBlockTableRecord
  2
_D
340
0
  0
BLOCK_RECORD
  5
1E9
330
1
100
AcDbSymbolTableRecord
100
AcDbBlockTableRecord
  2
_D_1
340
0
  0
BLOCK_RECORD
  5
1F8
330
1
100
AcDbSymbolTableRecord
100
AcDbBlockTableRecord
  2
_D_2
340
0
  0
BLOCK_RECORD
  5
214
330
1
100
AcDbSymbolTableRecord
100
AcDbBlockTableRecord
  2
_D_3
340
0
  0
BLOCK_RECORD
  5
223
330
1
100
AcDbSymbolTableRecord
100
AcDbBlockTableRecord
  2
_D_4
340
0
  0
BLOCK_RECORD
  5
254
330
1
100
AcDbSymbolTableRecord
100
AcDbBlockTableRecord
  2
SW_NOTE_0_3
340
0
  0
BLOCK_RECORD
  5
27B
330
1
100
AcDbSymbolTableRecord
100
AcDbBlockTableRecord
  2
_D_5
340
0
  0
BLOCK_RECORD
  5
28A
330
1
100
AcDbSymbolTableRecord
100
AcDbBlockTableRecord
  2
_D_6
340
0
  0
BLOCK_RECORD
  5
299
330
1
100
AcDbSymbolTableRecord
100
AcDbBlockTableRecord
  2
_D_7
340
0
  0
BLOCK_RECORD
  5
2A7
330
1
100
AcDbSymbolTableRecord
100
AcDbBlockTableRecord
  2
SW_NOTE_0_4
340
0
102
{BLKREFS
331
2AC
102
}
  0
ENDTAB
  0
ENDSEC
  0
SECTION
  2
BLOCKS
  0
BLOCK
  5
20
330
1F
100
AcDbEntity
  8
0
100
AcDbBlockBegin
  2
*Model_Space
 70
     0
 71
     0
 10
0.0
 20
0.0
 30
0.0
  3
*Model_Space
  1

  0
ENDBLK
  5
21
330
1F
100
AcDbEntity
  8
0
100
AcDbBlockEnd
  0
BLOCK
  5
75
330
73
100
AcDbEntity
 67
     1
  8
0
100
AcDbBlockBegin
  2
*Paper_Space
 70
     0
 71
     0
 10
0.0
 20
0.0
 30
0.0
  3
*Paper_Space
  1

  0
ENDBLK
  5
76
330
73
100
AcDbEntity
 67
     1
  8
0
100
AcDbBlockEnd
  0
BLOCK
  5
2F1
330
2F0
100
AcDbEntity
  8
0
100
AcDbBlockBegin
  2
_Open90
 70
     0
 71
     0
 10
0.0
 20
0.0
 30
0.0
  3
_Open90
  1

  0
LINE
  5
1DA
330
2F0
100
AcDbEntity
  8
0
  6
ByBlock
 62
     0
370
    -2
100
AcDbLine
 10
-0.5
 20
0.5
 30
0.0
 11
0.0
 21
0.0
 31
0.0
  0
LINE
  5
1DB
330
2F0
100
AcDbEntity
  8
0
  6
ByBlock
 62
     0
370
    -2
100
AcDbLine
 10
0.0
 20
0.0
 30
0.0
 11
-0.5
 21
-0.5
 31
0.0
  0
LINE
  5
1DC
330
2F0
100
AcDbEntity
  8
0
  6
ByBlock
 62
     0
370
    -2
100
AcDbLine
 10
0.0
 20
0.0
 30
0.0
 11
-1.0
 21
0.0
 31
0.0
  0
ENDBLK
  5
2F2
330
2F0
100
AcDbEntity
  8
0
100
AcDbBlockEnd
  0
BLOCK
  5
2F8
330
23
100
AcDbEntity
  8
0
100
AcDbBlockBegin
  2
*Paper_Space1
 70
     0
 71
     0
 10
0.0
 20
0.0
 30
0.0
  3
*Paper_Space1
  1

  0
ENDBLK
  5
2F9
330
23
100
AcDbEntity
  8
0
100
AcDbBlockEnd
  0
BLOCK
  5
2FA
330
11F
100
AcDbEntity
  8
0
100
AcDbBlockBegin
  2
SW_NOTE_0
 70
     0
 71
     0
 10
0.0
 20
0.0
 30
0.0
  3
SW_NOTE_0
  1

  0
MTEXT
  5
122
330
11F
100
AcDbEntity
  8
NOTES
 62
     0
100
AcDbMText
 10
0.0
 20
0.3759780907668229
 30
0.0
 40
0.2916666666666666
 41
0.0
 71
     1
 72
     1
  1
FROST PRODUCTS LTD.
  7
SLDTEXTSTYLE0
 73
     1
 44
1.0
  0
MTEXT
  5
123
330
11F
100
AcDbEntity
  8
NOTES
 62
     0
100
AcDbMText
 10
0.0
 20
-0.0495142708586375
 30
0.0
 40
0.2291666666666666
 41
0.0
 71
     1
 72
     1
  1
5280 JOHN LUCAS DRIVE, BURLINGTON, ON, L7L 5Z9
  7
SLDTEXTSTYLE0
 73
     1
 44
1.0
  0
ENDBLK
  5
2FB
330
11F
100
AcDbEntity
  8
0
100
AcDbBlockEnd
  0
BLOCK
  5
2FC
330
125
100
AcDbEntity
  8
0
100
AcDbBlockBegin
  2
SW_NOTE_0_1
 70
     0
 71
     0
 10
0.0
 20
0.0
 30
0.0
  3
SW_NOTE_0_1
  1

  0
MTEXT
  5
129
330
125
100
AcDbEntity
  8
NOTES
 62
     0
100
AcDbMText
 10
0.0
 20
0.2381282770514712
 30
0.0
 40
0.1847290640394089
 41
0.0
 71
     1
 72
     1
  1
PROPRIETARY AND CONFIDENTIAL
  7
SLDTEXTSTYLE2
 73
     1
 44
1.0
  0
MTEXT
  5
12B
330
125
100
AcDbEntity
  8
NOTES
 62
     0
100
AcDbMText
 10
0.0
 20
-0.0504364795553608
 30
0.0
 40
0.25
 41
0.0
 71
     1
 72
     1
  1
THE INFORMATION CONTAINED IN THIS DRAWING IS THE SOLE PROPERTY OF 
  7
SLDTEXTSTYLE3
 73
     1
 44
1.0
  0
MTEXT
  5
12C
330
125
100
AcDbEntity
  8
NOTES
 62
     0
100
AcDbMText
 10
0.0
 20
-0.4231398940537119
 30
0.0
 40
0.25
 41
0.0
 71
     1
 72
     1
  1
FROST PRODUCTS LTD.  ANY REPRODUCTION IN PART OR AS A WHOLE WITHOUT 
  7
SLDTEXTSTYLE3
 73
     1
 44
1.0
  0
MTEXT
  5
12D
330
125
100
AcDbEntity
  8
NOTES
 62
     0
100
AcDbMText
 10
0.0
 20
-0.7958433085520636
 30
0.0
 40
0.25
 41
0.0
 71
     1
 72
     1
  1
THE WRITTEN PERMISSION OF FROST PRODUCTS LTD. IS PROHIBITED.
  7
SLDTEXTSTYLE3
 73
     1
 44
1.0
  0
ENDBLK
  5
2FD
330
125
100
AcDbEntity
  8
0
100
AcDbBlockEnd
  0
BLOCK
  5
2FE
330
12F
100
AcDbEntity
  8
0
100
AcDbBlockBegin
  2
SW_NOTE_0_2
 70
     0
 71
     0
 10
0.0
 20
0.0
 30
0.0
  3
SW_NOTE_0_2
  1

  0
MTEXT
  5
132
330
12F
100
AcDbEntity
  8
NOTES
 62
     0
100
AcDbMText
 10
1.199218749999999
 20
0.3193359375000002
 30
0.0
 40
0.25
 41
0.0
 71
     2
 72
     1
  1
September 28, 
  7
SLDTEXTSTYLE1
 73
     1
 44
1.0
  0
MTEXT
  5
133
330
12F
100
AcDbEntity
  8
NOTES
 62
     0
100
AcDbMText
 10
1.153067091201231
 20
-0.0139973918049352
 30
0.0
 40
0.25
 41
0.0
 71
     2
 72
     1
  1
2021
  7
SLDTEXTSTYLE1
 73
     1
 44
1.0
  0
ENDBLK
  5
2FF
330
12F
100
AcDbEntity
  8
0
100
AcDbBlockEnd
  0
BLOCK
  5
300
330
1DD
100
AcDbEntity
  8
0
100
AcDbBlockBegin
  2
_D
 70
     0
 71
     0
 10
0.0
 20
0.0
 30
0.0
  3
_D
  1

  0
INSERT
  5
1E0
330
1DD
100
AcDbEntity
  8
DIMS
100
AcDbBlockReference
  2
_Open90
 10
9.048905637393778
 20
14.44873536398245
 30
0.0
 41
0.3
 42
0.3
 50
180.0000000000004
  0
INSERT
  5
1E1
330
1DD
100
AcDbEntity
  8
DIMS
100
AcDbBlockReference
  2
_Open90
 10
41.04890563739378
 20
14.44873536398245
 30
0.0
 41
0.3
 42
0.3
 50
0.0000000000004071
  0
LINE
  5
1E2
330
1DD
100
AcDbEntity
  8
DIMS
100
AcDbLine
 10
9.048905637393778
 20
15.89659061404324
 30
0.0
 11
9.048905637393778
 21
14.07373536398245
 31
0.0
  0
LINE
  5
1E3
330
1DD
100
AcDbEntity
  8
DIMS
100
AcDbLine
 10
41.04890563739378
 20
15.89659061404324
 30
0.0
 11
41.04890563739378
 21
14.07373536398245
 31
0.0
  0
LINE
  5
1E4
330
1DD
100
AcDbEntity
  8
DIMS
100
AcDbLine
 10
9.048905637393778
 20
14.44873536398245
 30
0.0
 11
14.67810248786252
 21
14.44873536398245
 31
0.0
  0
LINE
  5
1E5
330
1DD
100
AcDbEntity
  8
DIMS
100
AcDbLine
 10
41.04890563739378
 20
14.44873536398245
 30
0.0
 11
19.0260190336929
 21
14.44873536398245
 31
0.0
  0
MTEXT
  5
1E6
330
1DD
100
AcDbEntity
  8
DIMS
100
AcDbMText
 10
14.67810248786253
 20
14.69053228204915
 30
0.0
 40
0.5
 41
0.0
 71
     1
 72
     1
  1
peened area
  7
SLDTEXTSTYLE1
 73
     1
 44
1.0
  0
ENDBLK
  5
301
330
1DD
100
AcDbEntity
  8
0
100
AcDbBlockEnd
  0
BLOCK
  5
302
330
1E9
100
AcDbEntity
  8
0
100
AcDbBlockBegin
  2
_D_1
 70
     0
 71
     0
 10
0.0
 20
0.0
 30
0.0
  3
_D_1
  1

  0
INSERT
  5
1EC
330
1E9
100
AcDbEntity
  8
DIMS
100
AcDbBlockReference
  2
_Open90
 10
39.24552636640028
 20
17.3132572807099
 30
-1.374999999999999
 41
0.3
 42
0.3
 50
270.0000000000004
  0
INSERT
  5
1ED
330
1E9
100
AcDbEntity
  8
DIMS
100
AcDbBlockReference
  2
_Open90
 10
39.24552636640028
 20
16.0632572807099
 30
-1.374999999999999
 41
0.3
 42
0.3
 50
90.00000000000041
  0
LINE
  5
1EE
330
1E9
100
AcDbEntity
  8
DIMS
100
AcDbLine
 10
40.50278894193655
 20
18.75884962109083
 30
0.0
 11
41.0187611913811
 21
18.75884962109083
 31
0.0
  0
LINE
  5
1EF
330
1E9
100
AcDbEntity
  8
DIMS
100
AcDbLine
 10
41.38223897072712
 20
17.3132572807099
 30
0.0
 11
38.87052636640028
 21
17.3132572807099
 31
0.0
  0
LINE
  5
1F0
330
1E9
100
AcDbEntity
  8
DIMS
100
AcDbLine
 10
40.06008059447448
 20
18.70756492270271
 30
0.0
 11
39.24552636640028
 21
18.70756492270271
 31
0.0
  0
LINE
  5
1F1
330
1E9
100
AcDbEntity
  8
DIMS
100
AcDbLine
 10
39.24552636640028
 20
18.70756492270271
 30
0.0
 11
39.24552636640028
 21
17.3132572807099
 31
0.0
  0
LINE
  5
1F2
330
1E9
100
AcDbEntity
  8
DIMS
100
AcDbLine
 10
39.24552636640028
 20
16.0632572807099
 30
0.0
 11
39.24552636640028
 21
15.7632572807099
 31
0.0
  0
MTEXT
  5
1F3
330
1E9
100
AcDbEntity
  8
DIMS
100
AcDbMText
 10
40.06008059447449
 20
18.9882506815222
 30
0.0
 40
0.5
 41
0.0
 71
     1
 72
     1
  1
1
  7
SLDTEXTSTYLE1
 73
     1
 44
1.0
  0
MTEXT
  5
1F4
330
1E9
100
AcDbEntity
  8
DIMS
100
AcDbMText
 10
40.57605284391904
 20
19.35356318056771
 30
0.0
 40
0.5
 41
0.0
 71
     1
 72
     1
  1
1
  7
SLDTEXTSTYLE1
 73
     1
 44
1.0
  0
MTEXT
  5
1F5
330
1E9
100
AcDbEntity
  8
DIMS
100
AcDbMText
 10
40.57605284391904
 20
18.69238260201967
 30
0.0
 40
0.5
 41
0.0
 71
     1
 72
     1
  1
4
  7
SLDTEXTSTYLE1
 73
     1
 44
1.0
  0
MTEXT
  5
1F6
330
1E9
100
AcDbEntity
  8
DIMS
100
AcDbMText
 10
41.09202509336358
 20
18.9882506815222
 30
0.0
 40
0.5
 41
0.0
 71
     1
 72
     1
  1
"
  7
SLDTEXTSTYLE1
 73
     1
 44
1.0
  0
ENDBLK
  5
303
330
1E9
100
AcDbEntity
  8
0
100
AcDbBlockEnd
  0
BLOCK
  5
304
330
1F8
100
AcDbEntity
  8
0
100
AcDbBlockBegin
  2
_D_2
 70
     0
 71
     0
 10
0.0
 20
0.0
 30
0.0
  3
_D_2
  1

  0
INSERT
  5
1FB
330
1F8
100
AcDbEntity
  8
DIMS
100
AcDbBlockReference
  2
_Open90
 10
43.04890563739378
 20
21.18100197549376
 30
-1.374999999999999
 41
0.3
 42
0.3
 50
0.0000000000004071
  0
INSERT
  5
1FC
330
1F8
100
AcDbEntity
  8
DIMS
100
AcDbBlockReference
  2
_Open90
 10
7.048905637393775
 20
21.18100197549374
 30
-1.374999999999999
 41
0.3
 42
0.3
 50
180.0000000000004
  0
LINE
  5
1FD
330
1F8
100
AcDbEntity
  8
DIMS
100
AcDbLine
 10
43.04890563739378
 20
16.85492394737657
 30
0.0
 11
43.04890563739378
 21
21.55600197549377
 31
0.0
  0
LINE
  5
1FE
330
1F8
100
AcDbEntity
  8
DIMS
100
AcDbLine
 10
7.048905637393778
 20
16.85492394737657
 30
0.0
 11
7.048905637393775
 21
21.55600197549374
 31
0.0
  0
LINE
  5
1FF
330
1F8
100
AcDbEntity
  8
DIMS
100
AcDbLine
 10
43.04890563739378
 20
21.18100197549376
 30
0.0
 11
26.83284852631511
 21
21.18100197549375
 31
0.0
  0
LINE
  5
200
330
1F8
100
AcDbEntity
  8
DIMS
100
AcDbLine
 10
7.048905637393775
 20
21.18100197549374
 30
0.0
 11
25.88770967130647
 21
21.18100197549375
 31
0.0
  0
MTEXT
  5
201
330
1F8
100
AcDbEntity
  8
DIMS
100
AcDbMText
 10
25.88770967130648
 20
21.42279889356045
 30
0.0
 40
0.5
 41
0.0
 71
     1
 72
     1
  1
36"
  7
SLDTEXTSTYLE1
 73
     1
 44
1.0
  0
ENDBLK
  5
305
330
1F8
100
AcDbEntity
  8
0
100
AcDbBlockEnd
  0
BLOCK
  5
306
330
214
100
AcDbEntity
  8
0
100
AcDbBlockBegin
  2
_D_3
 70
     0
 71
     0
 10
0.0
 20
0.0
 30
0.0
  3
_D_3
  1

  0
INSERT
  5
217
330
214
100
AcDbEntity
  8
DIMS
100
AcDbBlockReference
  2
_Open90
 10
49.32427600949607
 20
19.52745866840706
 30
-12.0005652926802
 41
0.3
 42
0.3
 50
180.0000000000004
  0
INSERT
  5
218
330
214
100
AcDbEntity
  8
DIMS
100
AcDbBlockReference
  2
_Open90
 10
52.07427600949607
 20
19.52745866840706
 30
-12.0005652926802
 41
0.3
 42
0.3
 50
0.0000000000004071
  0
LINE
  5
219
330
214
100
AcDbEntity
  8
DIMS
100
AcDbLine
 10
50.70371404723083
 20
19.57874336679518
 30
0.0
 11
51.21968629667538
 21
19.57874336679518
 31
0.0
  0
LINE
  5
21A
330
214
100
AcDbEntity
  8
DIMS
100
AcDbLine
 10
49.32427600949607
 20
16.85492394737657
 30
0.0
 11
49.32427600949607
 21
19.90245866840705
 31
0.0
  0
LINE
  5
21B
330
214
100
AcDbEntity
  8
DIMS
100
AcDbLine
 10
52.07427600949607
 20
17.86978903182236
 30
0.0
 11
52.07427600949607
 21
19.90245866840705
 31
0.0
  0
LINE
  5
21C
330
214
100
AcDbEntity
  8
DIMS
100
AcDbLine
 10
49.32427600949607
 20
19.52745866840706
 30
0.0
 11
50.26100569976877
 21
19.52745866840706
 31
0.0
  0
LINE
  5
21D
330
214
100
AcDbEntity
  8
DIMS
100
AcDbLine
 10
52.07427600949607
 20
19.52745866840706
 30
0.0
 11
51.49920023603985
 21
19.52745866840706
 31
0.0
  0
MTEXT
  5
21E
330
214
100
AcDbEntity
  8
DIMS
100
AcDbMText
 10
50.26100569976877
 20
19.80814442722655
 30
0.0
 40
0.5
 41
0.0
 71
     1
 72
     1
  1
2
  7
SLDTEXTSTYLE1
 73
     1
 44
1.0
  0
MTEXT
  5
21F
330
214
100
AcDbEntity
  8
DIMS
100
AcDbMText
 10
50.77697794921331
 20
20.17345692627206
 30
0.0
 40
0.5
 41
0.0
 71
     1
 72
     1
  1
3
  7
SLDTEXTSTYLE1
 73
     1
 44
1.0
  0
MTEXT
  5
220
330
214
100
AcDbEntity
  8
DIMS
100
AcDbMText
 10
50.77697794921331
 20
19.51227634772402
 30
0.0
 40
0.5
 41
0.0
 71
     1
 72
     1
  1
4
  7
SLDTEXTSTYLE1
 73
     1
 44
1.0
  0
MTEXT
  5
221
330
214
100
AcDbEntity
  8
DIMS
100
AcDbMText
 10
51.29295019865786
 20
19.80814442722655
 30
0.0
 40
0.5
 41
0.0
 71
     1
 72
     1
  1
"
  7
SLDTEXTSTYLE1
 73
     1
 44
1.0
  0
ENDBLK
  5
307
330
214
100
AcDbEntity
  8
0
100
AcDbBlockEnd
  0
BLOCK
  5
308
330
223
100
AcDbEntity
  8
0
100
AcDbBlockBegin
  2
_D_4
 70
     0
 71
     0
 10
0.0
 20
0.0
 30
0.0
  3
_D_4
  1

  0
INSERT
  5
226
330
223
100
AcDbEntity
  8
DIMS
100
AcDbBlockReference
  2
_Open90
 10
52.07427600949607
 20
18.6381683500542
 30
-12.0005652926802
 41
0.3
 42
0.3
 50
180.0000000000004
  0
INSERT
  5
227
330
223
100
AcDbEntity
  8
DIMS
100
AcDbBlockReference
  2
_Open90
 10
51.60633901089356
 20
18.6381683500542
 30
-12.0005652926802
 41
0.3
 42
0.3
 50
0.0000000000004071
  0
LINE
  5
228
330
223
100
AcDbEntity
  8
DIMS
100
AcDbLine
 10
53.50037368507937
 20
18.68945304844232
 30
0.0
 11
54.38579038000348
 21
18.68945304844232
 31
0.0
  0
LINE
  5
229
330
223
100
AcDbEntity
  8
DIMS
100
AcDbLine
 10
52.07427600949607
 20
18.34242394737657
 30
0.0
 11
52.07427600949607
 21
19.0131683500542
 31
0.0
  0
LINE
  5
22A
330
223
100
AcDbEntity
  8
DIMS
100
AcDbLine
 10
51.60633901089356
 20
18.35061017188042
 30
0.0
 11
51.60633901089356
 21
19.0131683500542
 31
0.0
  0
LINE
  5
22B
330
223
100
AcDbEntity
  8
DIMS
100
AcDbLine
 10
52.07427600949607
 20
18.6381683500542
 30
0.0
 11
53.42710978309688
 21
18.63816835005421
 31
0.0
  0
LINE
  5
22C
330
223
100
AcDbEntity
  8
DIMS
100
AcDbLine
 10
51.60633901089356
 20
18.6381683500542
 30
0.0
 11
51.30633901089356
 21
18.6381683500542
 31
0.0
  0
MTEXT
  5
22D
330
223
100
AcDbEntity
  8
DIMS
100
AcDbMText
 10
53.75835980980164
 20
19.2841666079192
 30
0.0
 40
0.5
 41
0.0
 71
     1
 72
     1
  1
7
  7
SLDTEXTSTYLE1
 73
     1
 44
1.0
  0
MTEXT
  5
22E
330
223
100
AcDbEntity
  8
DIMS
100
AcDbMText
 10
53.57363758706185
 20
18.62298602937117
 30
0.0
 40
0.5
 41
0.0
 71
     1
 72
     1
  1
16
  7
SLDTEXTSTYLE1
 73
     1
 44
1.0
  0
MTEXT
  5
22F
330
223
100
AcDbEntity
  8
DIMS
100
AcDbMText
 10
54.45905428198597
 20
18.9188541088737
 30
0.0
 40
0.5
 41
0.0
 71
     1
 72
     1
  1
"
  7
SLDTEXTSTYLE1
 73
     1
 44
1.0
  0
ENDBLK
  5
309
330
223
100
AcDbEntity
  8
0
100
AcDbBlockEnd
  0
BLOCK
  5
30A
330
254
100
AcDbEntity
  8
0
100
AcDbBlockBegin
  2
SW_NOTE_0_3
 70
     0
 71
     0
 10
0.0
 20
0.0
 30
0.0
  3
SW_NOTE_0_3
  1

  0
MTEXT
  5
257
330
254
100
AcDbEntity
  8
NOTES
 62
     0
100
AcDbMText
 10
0.0
 20
0.6386718750000004
 30
0.0
 40
0.5
 41
0.0
 71
     1
 72
     1
  1
3D view
  7
SLDTEXTSTYLE1
 73
     1
 44
1.0
  0
MTEXT
  5
258
330
254
100
AcDbEntity
  8
NOTES
 62
     0
100
AcDbMText
 10
0.0
 20
-0.3613281862472921
 30
0.0
 40
0.5
 41
0.0
 71
     1
 72
     1
  1
code 1001-SP-36
  7
SLDTEXTSTYLE1
 73
     1
 44
1.0
  0
ENDBLK
  5
30B
330
254
100
AcDbEntity
  8
0
100
AcDbBlockEnd
  0
BLOCK
  5
30C
330
27B
100
AcDbEntity
  8
0
100
AcDbBlockBegin
  2
_D_5
 70
     0
 71
     0
 10
0.0
 20
0.0
 30
0.0
  3
_D_5
  1

  0
INSERT
  5
27E
330
27B
100
AcDbEntity
  8
DIMS
100
AcDbBlockReference
  2
_Open90
 10
5.561454912867235
 20
33.67220114326778
 30
0.0000000000000048
 41
0.3
 42
0.3
 50
179.998207909578
  0
INSERT
  5
27F
330
27B
100
AcDbEntity
  8
DIMS
100
AcDbBlockReference
  2
_Open90
 10
44.61405208494555
 20
33.67097966088321
 30
0.0000000000000048
 41
0.3
 42
0.3
 50
359.998207909578
  0
LINE
  5
280
330
27B
100
AcDbEntity
  8
DIMS
100
AcDbLine
 10
24.7778316309755
 20
33.72287927709091
 30
0.0
 11
25.66324832589962
 21
33.72287927709091
 31
0.0
  0
LINE
  5
281
330
27B
100
AcDbEntity
  8
DIMS
100
AcDbLine
 10
5.561410850373504
 20
32.26345809484632
 30
0.0
 11
5.56146664207162
 21
34.04720114308435
 31
0.0
  0
LINE
  5
282
330
27B
100
AcDbEntity
  8
DIMS
100
AcDbLine
 10
44.61400802245181
 20
32.26223661246173
 30
0.0
 11
44.61406381414994
 21
34.04597966069979
 31
0.0
  0
LINE
  5
283
330
27B
100
AcDbEntity
  8
DIMS
100
AcDbLine
 10
5.561454912867235
 20
33.67220114326778
 30
0.0
 11
23.96567883803387
 21
33.67162549819027
 31
0.0
  0
LINE
  5
284
330
27B
100
AcDbEntity
  8
DIMS
100
AcDbLine
 10
44.61405208494555
 20
33.67097966088321
 30
0.0
 11
25.94276226526408
 21
33.67156365921529
 31
0.0
  0
MTEXT
  5
285
330
27B
100
AcDbEntity
  8
DIMS
100
AcDbMText
 10
23.96567883803387
 20
33.95228033752228
 30
0.0
 40
0.5
 41
0.0
 71
     1
 72
     1
  1
39
  7
SLDTEXTSTYLE1
 73
     1
 44
1.0
  0
MTEXT
  5
286
330
27B
100
AcDbEntity
  8
DIMS
100
AcDbMText
 10
25.03581775569777
 20
34.31759283656779
 30
0.0
 40
0.5
 41
0.0
 71
     1
 72
     1
  1
1
  7
SLDTEXTSTYLE1
 73
     1
 44
1.0
  0
MTEXT
  5
287
330
27B
100
AcDbEntity
  8
DIMS
100
AcDbMText
 10
24.85109553295799
 20
33.65641225801976
 30
0.0
 40
0.5
 41
0.0
 71
     1
 72
     1
  1
16
  7
SLDTEXTSTYLE1
 73
     1
 44
1.0
  0
MTEXT
  5
288
330
27B
100
AcDbEntity
  8
DIMS
100
AcDbMText
 10
25.73651230121459
 20
33.95228033752228
 30
0.0
 40
0.5
 41
0.0
 71
     1
 72
     1
  1
"
  7
SLDTEXTSTYLE1
 73
     1
 44
1.0
  0
ENDBLK
  5
30D
330
27B
100
AcDbEntity
  8
0
100
AcDbBlockEnd
  0
BLOCK
  5
30E
330
28A
100
AcDbEntity
  8
0
100
AcDbBlockBegin
  2
_D_6
 70
     0
 71
     0
 10
0.0
 20
0.0
 30
0.0
  3
_D_6
  1

  0
INSERT
  5
28D
330
28A
100
AcDbEntity
  8
DIMS
100
AcDbBlockReference
  2
_Open90
 10
41.48380846531546
 20
32.7267126881037
 30
0.0000000000000048
 41
0.3
 42
0.3
 50
180.0000000000004
  0
INSERT
  5
28E
330
28A
100
AcDbEntity
  8
DIMS
100
AcDbBlockReference
  2
_Open90
 10
44.61400280947209
 20
32.7267126881037
 30
0.0000000000000048
 41
0.3
 42
0.3
 50
0.0000000000004071
  0
LINE
  5
28F
330
28A
100
AcDbEntity
  8
DIMS
100
AcDbLine
 10
42.97073106046116
 20
32.77799738649182
 30
0.0
 11
43.48670330990571
 21
32.77799738649182
 31
0.0
  0
LINE
  5
290
330
28A
100
AcDbEntity
  8
DIMS
100
AcDbLine
 10
41.48380846531546
 20
32.26223661254325
 30
0.0
 11
41.48380846531546
 21
33.1017126881037
 31
0.0
  0
LINE
  5
291
330
28A
100
AcDbEntity
  8
DIMS
100
AcDbLine
 10
44.61400280947209
 20
32.26223661254325
 30
0.0
 11
44.61400280947209
 21
33.1017126881037
 31
0.0
  0
LINE
  5
292
330
28A
100
AcDbEntity
  8
DIMS
100
AcDbLine
 10
41.48380846531546
 20
32.7267126881037
 30
0.0
 11
42.52802271299909
 21
32.7267126881037
 31
0.0
  0
LINE
  5
293
330
28A
100
AcDbEntity
  8
DIMS
100
AcDbLine
 10
44.61400280947209
 20
32.7267126881037
 30
0.0
 11
43.76621724927017
 21
32.7267126881037
 31
0.0
  0
MTEXT
  5
294
330
28A
100
AcDbEntity
  8
DIMS
100
AcDbMText
 10
42.5280227129991
 20
33.00739844692319
 30
0.0
 40
0.5
 41
0.0
 71
     1
 72
     1
  1
3
  7
SLDTEXTSTYLE1
 73
     1
 44
1.0
  0
MTEXT
  5
295
330
28A
100
AcDbEntity
  8
DIMS
100
AcDbMText
 10
43.04399496244365
 20
33.37271094596869
 30
0.0
 40
0.5
 41
0.0
 71
     1
 72
     1
  1
1
  7
SLDTEXTSTYLE1
 73
     1
 44
1.0
  0
MTEXT
  5
296
330
28A
100
AcDbEntity
  8
DIMS
100
AcDbMText
 10
43.04399496244365
 20
32.71153036742066
 30
0.0
 40
0.5
 41
0.0
 71
     1
 72
     1
  1
8
  7
SLDTEXTSTYLE1
 73
     1
 44
1.0
  0
MTEXT
  5
297
330
28A
100
AcDbEntity
  8
DIMS
100
AcDbMText
 10
43.55996721188819
 20
33.00739844692319
 30
0.0
 40
0.5
 41
0.0
 71
     1
 72
     1
  1
"
  7
SLDTEXTSTYLE1
 73
     1
 44
1.0
  0
ENDBLK
  5
30F
330
28A
100
AcDbEntity
  8
0
100
AcDbBlockEnd
  0
BLOCK
  5
310
330
299
100
AcDbEntity
  8
0
100
AcDbBlockBegin
  2
_D_7
 70
     0
 71
     0
 10
0.0
 20
0.0
 30
0.0
  3
_D_7
  1

  0
INSERT
  5
29C
330
299
100
AcDbEntity
  8
DIMS
100
AcDbBlockReference
  2
_Open90
 10
39.08649359338264
 20
30.59679142826117
 30
0.0000000000000048
 41
0.3
 42
0.3
 50
90.00000000000041
  0
INSERT
  5
29D
330
299
100
AcDbEntity
  8
DIMS
100
AcDbBlockReference
  2
_Open90
 10
39.08649359338264
 20
32.09556994587659
 30
0.0000000000000048
 41
0.3
 42
0.3
 50
270.0000000000004
  0
LINE
  5
29E
330
299
100
AcDbEntity
  8
DIMS
100
AcDbLine
 10
38.91010467270917
 20
31.3947648766652
 30
0.0
 11
39.42607692215371
 21
31.3947648766652
 31
0.0
  0
LINE
  5
29F
330
299
100
AcDbEntity
  8
DIMS
100
AcDbLine
 10
41.3171417986488
 20
32.09556994587659
 30
0.0
 11
38.71149359338264
 21
32.09556994587659
 31
0.0
  0
LINE
  5
2A0
330
299
100
AcDbEntity
  8
DIMS
100
AcDbLine
 10
39.08649359338264
 20
30.59679142826117
 30
0.0
 11
39.08649359338264
 21
30.29679142826118
 31
0.0
  0
LINE
  5
2A1
330
299
100
AcDbEntity
  8
DIMS
100
AcDbLine
 10
39.08649359338264
 20
32.09556994587659
 30
0.0
 11
39.08649359338264
 21
32.39556994587659
 31
0.0
  0
MTEXT
  5
2A2
330
299
100
AcDbEntity
  8
DIMS
100
AcDbMText
 10
38.46739632524712
 20
31.62416593709657
 30
0.0
 40
0.5
 41
0.0
 71
     1
 72
     1
  1
1
  7
SLDTEXTSTYLE1
 73
     1
 44
1.0
  0
MTEXT
  5
2A3
330
299
100
AcDbEntity
  8
DIMS
100
AcDbMText
 10
38.98336857469166
 20
31.98947843614207
 30
0.0
 40
0.5
 41
0.0
 71
     1
 72
     1
  1
1
  7
SLDTEXTSTYLE1
 73
     1
 44
1.0
  0
MTEXT
  5
2A4
330
299
100
AcDbEntity
  8
DIMS
100
AcDbMText
 10
38.98336857469166
 20
31.32829785759403
 30
0.0
 40
0.5
 41
0.0
 71
     1
 72
     1
  1
2
  7
SLDTEXTSTYLE1
 73
     1
 44
1.0
  0
MTEXT
  5
2A5
330
299
100
AcDbEntity
  8
DIMS
100
AcDbMText
 10
39.4993408241362
 20
31.62416593709657
 30
0.0
 40
0.5
 41
0.0
 71
     1
 72
     1
  1
"
  7
SLDTEXTSTYLE1
 73
     1
 44
1.0
  0
ENDBLK
  5
311
330
299
100
AcDbEntity
  8
0
100
AcDbBlockEnd
  0
BLOCK
  5
312
330
2A7
100
AcDbEntity
  8
0
100
AcDbBlockBegin
  2
SW_NOTE_0_4
 70
     0
 71
     0
 10
0.0
 20
0.0
 30
0.0
  3
SW_NOTE_0_4
  1

  0
MTEXT
  5
2AA
330
2A7
100
AcDbEntity
  8
NOTES
 62
     0
100
AcDbMText
 10
-4.956085502004639
 20
1.067629434388926
 30
0.0
 40
0.5
 41
0.0
 71
     1
 72
     1
  1
remove caps to access 
  7
SLDTEXTSTYLE1
 73
     1
 44
1.0
  0
MTEXT
  5
2AB
330
2A7
100
AcDbEntity
  8
NOTES
 62
     0
100
AcDbMText
 10
-4.956085502004639
 20
0.0676294464741196
 30
0.0
 40
0.5
 41
0.0
 71
     1
 72
     1
  1
mounting holes
  7
SLDTEXTSTYLE1
 73
     1
 44
1.0
  0
ENDBLK
  5
313
330
2A7
100
AcDbEntity
  8
0
100
AcDbBlockEnd
  0
ENDSEC
  0
SECTION
  2
ENTITIES
  0
LINE
  5
7A
330
1F
100
AcDbEntity
  8
TITLE
370
    35
100
AcDbLine
 10
72.51822309646207
 20
1.48761176446163
 30
0.0
 11
89.49998645119503
 21
1.48761176446163
 31
0.0
  0
LINE
  5
7B
330
1F
100
AcDbEntity
  8
TITLE
370
    35
100
AcDbLine
 10
89.49993174424402
 20
5.475360393555796
 30
0.0
 11
79.31053507231782
 21
5.475360393555795
 31
0.0
  0
LINE
  5
7C
330
1F
100
AcDbEntity
  8
TITLE
  6
SLD-Solid
370
    18
100
AcDbLine
 10
0.5
 20
0.5
 30
0.0
 11
0.5
 21
47.50000000000001
 31
0.0
  0
LINE
  5
7D
330
1F
100
AcDbEntity
  8
TITLE
  6
SLD-Solid
370
    18
100
AcDbLine
 10
0.5
 20
47.50000000000001
 30
0.0
 11
89.5
 21
47.50000000000001
 31
0.0
  0
LINE
  5
7E
330
1F
100
AcDbEntity
  8
TITLE
370
    35
100
AcDbLine
 10
72.51822309646207
 20
2.542787723103445
 30
0.0
 11
65.50597912026433
 21
2.542787723103443
 31
0.0
  0
LINE
  5
7F
330
1F
100
AcDbEntity
  8
TITLE
370
    35
100
AcDbLine
 10
72.51822309646207
 20
1.48761176446163
 30
0.0
 11
65.50597912026433
 21
1.487611764461628
 31
0.0
  0
LINE
  5
80
330
1F
100
AcDbEntity
  8
TITLE
  6
SLD-Solid
370
    18
100
AcDbLine
 10
89.5
 20
47.50000000000001
 30
0.0
 11
89.5
 21
0.5
 31
0.0
  0
LINE
  5
81
330
1F
100
AcDbEntity
  8
TITLE
  6
SLD-Solid
370
    18
100
AcDbLine
 10
89.5
 20
0.5
 30
0.0
 11
0.5
 21
0.5
 31
0.0
  0
LINE
  5
82
330
1F
100
AcDbEntity
  8
TITLE
370
    35
100
AcDbLine
 10
72.51822309646207
 20
1.48761176446163
 30
0.0
 11
72.51822309646207
 21
3.597963681745259
 31
0.0
  0
LINE
  5
83
330
1F
100
AcDbEntity
  8
TITLE
370
    35
100
AcDbLine
 10
65.50597912026433
 20
3.597963681745258
 30
0.0
 11
65.50597912026433
 21
0.5
 31
0.0
  0
LINE
  5
84
330
1F
100
AcDbEntity
  8
TITLE
370
    35
100
AcDbLine
 10
65.50597912026433
 20
0.5
 30
0.0
 11
89.5
 21
0.5
 31
0.0
  0
LINE
  5
85
330
1F
100
AcDbEntity
  8
TITLE
370
    35
100
AcDbLine
 10
89.49993174424402
 20
5.475360393555796
 30
0.0
 11
89.5
 21
0.5
 31
0.0
  0
LINE
  5
86
330
1F
100
AcDbEntity
  8
TITLE
  6
SLD-Solid
370
    18
100
AcDbLine
 10
0.4999606299212599
 20
24.0
 30
0.0
 11
0.5000393700787401
 21
24.0
 31
0.0
  0
LINE
  5
87
330
1F
100
AcDbEntity
  8
TITLE
370
    35
100
AcDbLine
 10
72.51822309646207
 20
3.597963681745259
 30
0.0
 11
65.50597912026433
 21
3.597963681745258
 31
0.0
  0
LINE
  5
88
330
1F
100
AcDbEntity
  8
TITLE
370
    35
100
AcDbLine
 10
72.51822309646207
 20
3.597963681745259
 30
0.0
 11
89.49976156426074
 21
3.597964834324629
 31
0.0
  0
LINE
  5
89
330
1F
100
AcDbEntity
  8
TITLE
370
    35
100
AcDbLine
 10
79.31053507231782
 20
5.475360393555795
 30
0.0
 11
79.31053507231782
 21
0.4636772425222311
 31
0.0
  0
LINE
  5
8A
330
1F
100
AcDbEntity
  8
TITLE
  6
SLD-Solid
370
    18
100
AcDbLine
 10
45.0
 20
47.50003937007875
 30
0.0
 11
45.0
 21
47.49996062992127
 31
0.0
  0
LINE
  5
8B
330
1F
100
AcDbEntity
  8
TITLE
  6
SLD-Solid
370
    18
100
AcDbLine
 10
89.50003937007874
 20
24.0
 30
0.0
 11
89.49996062992125
 21
24.0
 31
0.0
  0
LINE
  5
8C
330
1F
100
AcDbEntity
  8
TITLE
  6
SLD-Solid
370
    18
100
AcDbLine
 10
45.0
 20
0.4999606299212599
 30
0.0
 11
45.0
 21
0.5000393700787401
 31
0.0
  0
LINE
  5
8D
330
1F
100
AcDbEntity
  8
TITLE
  6
SLD-Solid
370
    18
100
AcDbLine
 10
0.5
 20
2.346456692913385
 30
0.0
 11
0.1653543307086614
 21
2.346456692913385
 31
0.0
  0
LINE
  5
8E
330
1F
100
AcDbEntity
  8
TITLE
  6
SLD-Solid
370
    18
100
AcDbLine
 10
89.5
 20
2.346456692913385
 30
0.0
 11
89.83464566929135
 21
2.346456692913385
 31
0.0
  0
LINE
  5
8F
330
1F
100
AcDbEntity
  8
TITLE
  6
SLD-Solid
370
    18
100
AcDbLine
 10
0.5
 20
4.314960629921261
 30
0.0
 11
0.1653543307086614
 21
4.314960629921261
 31
0.0
  0
LINE
  5
90
330
1F
100
AcDbEntity
  8
TITLE
  6
SLD-Solid
370
    18
100
AcDbLine
 10
89.5
 20
4.314960629921261
 30
0.0
 11
89.83464566929135
 21
4.314960629921261
 31
0.0
  0
LINE
  5
91
330
1F
100
AcDbEntity
  8
TITLE
  6
SLD-Solid
370
    18
100
AcDbLine
 10
0.5
 20
6.283464566929135
 30
0.0
 11
0.1653543307086614
 21
6.283464566929135
 31
0.0
  0
LINE
  5
2E3
330
1F
100
AcDbEntity
  8
TITLE
  6
SLD-Solid
370
    18
100
AcDbLine
 10
89.5
 20
6.283464566929135
 30
0.0
 11
89.83464566929135
 21
6.283464566929135
 31
0.0
  0
LINE
  5
2E4
330
1F
100
AcDbEntity
  8
TITLE
  6
SLD-Solid
370
    18
100
AcDbLine
 10
0.5
 20
8.25196850393701
 30
0.0
 11
0.1653543307086614
 21
8.25196850393701
 31
0.0
  0
LINE
  5
94
330
1F
100
AcDbEntity
  8
TITLE
  6
SLD-Solid
370
    18
100
AcDbLine
 10
89.5
 20
8.25196850393701
 30
0.0
 11
89.83464566929135
 21
8.25196850393701
 31
0.0
  0
LINE
  5
95
330
1F
100
AcDbEntity
  8
TITLE
  6
SLD-Solid
370
    18
100
AcDbLine
 10
0.5
 20
10.22047244094488
 30
0.0
 11
0.1653543307086614
 21
10.22047244094488
 31
0.0
  0
LINE
  5
96
330
1F
100
AcDbEntity
  8
TITLE
  6
SLD-Solid
370
    18
100
AcDbLine
 10
89.5
 20
10.22047244094488
 30
0.0
 11
89.83464566929135
 21
10.22047244094488
 31
0.0
  0
LINE
  5
2E5
330
1F
100
AcDbEntity
  8
TITLE
  6
SLD-Solid
370
    18
100
AcDbLine
 10
0.5
 20
12.18897637795276
 30
0.0
 11
0.1653543307086614
 21
12.18897637795276
 31
0.0
  0
LINE
  5
2E6
330
1F
100
AcDbEntity
  8
TITLE
  6
SLD-Solid
370
    18
100
AcDbLine
 10
89.5
 20
12.18897637795276
 30
0.0
 11
89.83464566929135
 21
12.18897637795276
 31
0.0
  0
LINE
  5
99
330
1F
100
AcDbEntity
  8
TITLE
  6
SLD-Solid
370
    18
100
AcDbLine
 10
0.5
 20
14.15748031496063
 30
0.0
 11
0.1653543307086614
 21
14.15748031496063
 31
0.0
  0
LINE
  5
9A
330
1F
100
AcDbEntity
  8
TITLE
  6
SLD-Solid
370
    18
100
AcDbLine
 10
89.5
 20
14.15748031496063
 30
0.0
 11
89.83464566929135
 21
14.15748031496063
 31
0.0
  0
LINE
  5
9B
330
1F
100
AcDbEntity
  8
TITLE
  6
SLD-Solid
370
    18
100
AcDbLine
 10
0.5
 20
16.1259842519685
 30
0.0
 11
0.1653543307086614
 21
16.1259842519685
 31
0.0
  0
LINE
  5
9C
330
1F
100
AcDbEntity
  8
TITLE
  6
SLD-Solid
370
    18
100
AcDbLine
 10
89.5
 20
16.1259842519685
 30
0.0
 11
89.83464566929135
 21
16.1259842519685
 31
0.0
  0
LINE
  5
9D
330
1F
100
AcDbEntity
  8
TITLE
  6
SLD-Solid
370
    18
100
AcDbLine
 10
0.5
 20
18.09448818897638
 30
0.0
 11
0.1653543307086614
 21
18.09448818897638
 31
0.0
  0
LINE
  5
9E
330
1F
100
AcDbEntity
  8
TITLE
  6
SLD-Solid
370
    18
100
AcDbLine
 10
89.5
 20
18.09448818897638
 30
0.0
 11
89.83464566929135
 21
18.09448818897638
 31
0.0
  0
LINE
  5
9F
330
1F
100
AcDbEntity
  8
TITLE
  6
SLD-Solid
370
    18
100
AcDbLine
 10
0.5
 20
20.06299212598426
 30
0.0
 11
0.1653543307086614
 21
20.06299212598426
 31
0.0
  0
LINE
  5
A0
330
1F
100
AcDbEntity
  8
TITLE
  6
SLD-Solid
370
    18
100
AcDbLine
 10
89.5
 20
20.06299212598426
 30
0.0
 11
89.83464566929135
 21
20.06299212598426
 31
0.0
  0
LINE
  5
A1
330
1F
100
AcDbEntity
  8
TITLE
  6
SLD-Solid
370
    18
100
AcDbLine
 10
0.5
 20
22.03149606299213
 30
0.0
 11
0.1653543307086614
 21
22.03149606299213
 31
0.0
  0
LINE
  5
A2
330
1F
100
AcDbEntity
  8
TITLE
  6
SLD-Solid
370
    18
100
AcDbLine
 10
89.5
 20
22.03149606299213
 30
0.0
 11
89.83464566929135
 21
22.03149606299213
 31
0.0
  0
LINE
  5
A3
330
1F
100
AcDbEntity
  8
TITLE
  6
SLD-Solid
370
    18
100
AcDbLine
 10
0.5
 20
24.0
 30
0.0
 11
0.1653543307086614
 21
24.0
 31
0.0
  0
LINE
  5
A4
330
1F
100
AcDbEntity
  8
TITLE
  6
SLD-Solid
370
    18
100
AcDbLine
 10
89.5
 20
24.0
 30
0.0
 11
89.83464566929135
 21
24.0
 31
0.0
  0
LINE
  5
A5
330
1F
100
AcDbEntity
  8
TITLE
  6
SLD-Solid
370
    18
100
AcDbLine
 10
0.5
 20
25.96850393700788
 30
0.0
 11
0.1653543307086614
 21
25.96850393700788
 31
0.0
  0
LINE
  5
A6
330
1F
100
AcDbEntity
  8
TITLE
  6
SLD-Solid
370
    18
100
AcDbLine
 10
89.5
 20
25.96850393700788
 30
0.0
 11
89.83464566929135
 21
25.96850393700788
 31
0.0
  0
LINE
  5
A7
330
1F
100
AcDbEntity
  8
TITLE
  6
SLD-Solid
370
    18
100
AcDbLine
 10
0.5
 20
27.93700787401575
 30
0.0
 11
0.1653543307086614
 21
27.93700787401575
 31
0.0
  0
LINE
  5
A8
330
1F
100
AcDbEntity
  8
TITLE
  6
SLD-Solid
370
    18
100
AcDbLine
 10
89.5
 20
27.93700787401575
 30
0.0
 11
89.83464566929135
 21
27.93700787401575
 31
0.0
  0
LINE
  5
A9
330
1F
100
AcDbEntity
  8
TITLE
  6
SLD-Solid
370
    18
100
AcDbLine
 10
0.5
 20
29.90551181102363
 30
0.0
 11
0.1653543307086614
 21
29.90551181102363
 31
0.0
  0
LINE
  5
AA
330
1F
100
AcDbEntity
  8
TITLE
  6
SLD-Solid
370
    18
100
AcDbLine
 10
89.5
 20
29.90551181102363
 30
0.0
 11
89.83464566929135
 21
29.90551181102363
 31
0.0
  0
LINE
  5
AB
330
1F
100
AcDbEntity
  8
TITLE
  6
SLD-Solid
370
    18
100
AcDbLine
 10
0.5
 20
31.8740157480315
 30
0.0
 11
0.1653543307086614
 21
31.8740157480315
 31
0.0
  0
LINE
  5
AC
330
1F
100
AcDbEntity
  8
TITLE
  6
SLD-Solid
370
    18
100
AcDbLine
 10
89.5
 20
31.8740157480315
 30
0.0
 11
89.83464566929135
 21
31.8740157480315
 31
0.0
  0
LINE
  5
AD
330
1F
100
AcDbEntity
  8
TITLE
  6
SLD-Solid
370
    18
100
AcDbLine
 10
0.5
 20
33.84251968503937
 30
0.0
 11
0.1653543307086614
 21
33.84251968503937
 31
0.0
  0
LINE
  5
AE
330
1F
100
AcDbEntity
  8
TITLE
  6
SLD-Solid
370
    18
100
AcDbLine
 10
89.5
 20
33.84251968503937
 30
0.0
 11
89.83464566929135
 21
33.84251968503937
 31
0.0
  0
LINE
  5
AF
330
1F
100
AcDbEntity
  8
TITLE
  6
SLD-Solid
370
    18
100
AcDbLine
 10
0.5
 20
35.81102362204725
 30
0.0
 11
0.1653543307086614
 21
35.81102362204725
 31
0.0
  0
LINE
  5
B0
330
1F
100
AcDbEntity
  8
TITLE
  6
SLD-Solid
370
    18
100
AcDbLine
 10
89.5
 20
35.81102362204725
 30
0.0
 11
89.83464566929135
 21
35.81102362204725
 31
0.0
  0
LINE
  5
B1
330
1F
100
AcDbEntity
  8
TITLE
  6
SLD-Solid
370
    18
100
AcDbLine
 10
0.5
 20
37.77952755905512
 30
0.0
 11
0.1653543307086614
 21
37.77952755905512
 31
0.0
  0
LINE
  5
B2
330
1F
100
AcDbEntity
  8
TITLE
  6
SLD-Solid
370
    18
100
AcDbLine
 10
89.5
 20
37.77952755905512
 30
0.0
 11
89.83464566929135
 21
37.77952755905512
 31
0.0
  0
LINE
  5
B3
330
1F
100
AcDbEntity
  8
TITLE
  6
SLD-Solid
370
    18
100
AcDbLine
 10
0.5
 20
39.74803149606299
 30
0.0
 11
0.1653543307086614
 21
39.74803149606299
 31
0.0
  0
LINE
  5
B4
330
1F
100
AcDbEntity
  8
TITLE
  6
SLD-Solid
370
    18
100
AcDbLine
 10
89.5
 20
39.74803149606299
 30
0.0
 11
89.83464566929135
 21
39.74803149606299
 31
0.0
  0
LINE
  5
B5
330
1F
100
AcDbEntity
  8
TITLE
  6
SLD-Solid
370
    18
100
AcDbLine
 10
0.5
 20
41.71653543307087
 30
0.0
 11
0.1653543307086614
 21
41.71653543307087
 31
0.0
  0
LINE
  5
B6
330
1F
100
AcDbEntity
  8
TITLE
  6
SLD-Solid
370
    18
100
AcDbLine
 10
89.5
 20
41.71653543307087
 30
0.0
 11
89.83464566929135
 21
41.71653543307087
 31
0.0
  0
LINE
  5
B7
330
1F
100
AcDbEntity
  8
TITLE
  6
SLD-Solid
370
    18
100
AcDbLine
 10
0.5
 20
43.68503937007874
 30
0.0
 11
0.1653543307086614
 21
43.68503937007874
 31
0.0
  0
LINE
  5
B8
330
1F
100
AcDbEntity
  8
TITLE
  6
SLD-Solid
370
    18
100
AcDbLine
 10
89.5
 20
43.68503937007874
 30
0.0
 11
89.83464566929135
 21
43.68503937007874
 31
0.0
  0
LINE
  5
B9
330
1F
100
AcDbEntity
  8
TITLE
  6
SLD-Solid
370
    18
100
AcDbLine
 10
0.5
 20
45.65354330708662
 30
0.0
 11
0.1653543307086614
 21
45.65354330708662
 31
0.0
  0
LINE
  5
BA
330
1F
100
AcDbEntity
  8
TITLE
  6
SLD-Solid
370
    18
100
AcDbLine
 10
89.5
 20
45.65354330708662
 30
0.0
 11
89.83464566929135
 21
45.65354330708662
 31
0.0
  0
LINE
  5
BB
330
1F
100
AcDbEntity
  8
TITLE
  6
SLD-Solid
370
    18
100
AcDbLine
 10
1.692913385826769
 20
47.50000000000001
 30
0.0
 11
1.692913385826769
 21
47.83464566929134
 31
0.0
  0
LINE
  5
BC
330
1F
100
AcDbEntity
  8
TITLE
  6
SLD-Solid
370
    18
100
AcDbLine
 10
1.692913385826769
 20
0.5
 30
0.0
 11
1.692913385826769
 21
0.1653543307086614
 31
0.0
  0
LINE
  5
BD
330
1F
100
AcDbEntity
  8
TITLE
  6
SLD-Solid
370
    18
100
AcDbLine
 10
3.661417322834644
 20
47.50000000000001
 30
0.0
 11
3.661417322834644
 21
47.83464566929134
 31
0.0
  0
LINE
  5
BE
330
1F
100
AcDbEntity
  8
TITLE
  6
SLD-Solid
370
    18
100
AcDbLine
 10
3.661417322834644
 20
0.5
 30
0.0
 11
3.661417322834644
 21
0.1653543307086614
 31
0.0
  0
LINE
  5
BF
330
1F
100
AcDbEntity
  8
TITLE
  6
SLD-Solid
370
    18
100
AcDbLine
 10
5.62992125984252
 20
47.50000000000001
 30
0.0
 11
5.62992125984252
 21
47.83464566929134
 31
0.0
  0
LINE
  5
C0
330
1F
100
AcDbEntity
  8
TITLE
  6
SLD-Solid
370
    18
100
AcDbLine
 10
5.62992125984252
 20
0.5
 30
0.0
 11
5.62992125984252
 21
0.1653543307086614
 31
0.0
  0
LINE
  5
C1
330
1F
100
AcDbEntity
  8
TITLE
  6
SLD-Solid
370
    18
100
AcDbLine
 10
7.598425196850392
 20
47.50000000000001
 30
0.0
 11
7.598425196850392
 21
47.83464566929134
 31
0.0
  0
LINE
  5
C2
330
1F
100
AcDbEntity
  8
TITLE
  6
SLD-Solid
370
    18
100
AcDbLine
 10
7.598425196850392
 20
0.5
 30
0.0
 11
7.598425196850392
 21
0.1653543307086614
 31
0.0
  0
LINE
  5
C3
330
1F
100
AcDbEntity
  8
TITLE
  6
SLD-Solid
370
    18
100
AcDbLine
 10
9.566929133858268
 20
47.50000000000001
 30
0.0
 11
9.566929133858268
 21
47.83464566929134
 31
0.0
  0
LINE
  5
C4
330
1F
100
AcDbEntity
  8
TITLE
  6
SLD-Solid
370
    18
100
AcDbLine
 10
9.566929133858268
 20
0.5
 30
0.0
 11
9.566929133858268
 21
0.1653543307086614
 31
0.0
  0
LINE
  5
C5
330
1F
100
AcDbEntity
  8
TITLE
  6
SLD-Solid
370
    18
100
AcDbLine
 10
11.53543307086614
 20
47.50000000000001
 30
0.0
 11
11.53543307086614
 21
47.83464566929134
 31
0.0
  0
LINE
  5
C6
330
1F
100
AcDbEntity
  8
TITLE
  6
SLD-Solid
370
    18
100
AcDbLine
 10
11.53543307086614
 20
0.5
 30
0.0
 11
11.53543307086614
 21
0.1653543307086614
 31
0.0
  0
LINE
  5
C7
330
1F
100
AcDbEntity
  8
TITLE
  6
SLD-Solid
370
    18
100
AcDbLine
 10
13.50393700787401
 20
47.50000000000001
 30
0.0
 11
13.50393700787401
 21
47.83464566929134
 31
0.0
  0
LINE
  5
C8
330
1F
100
AcDbEntity
  8
TITLE
  6
SLD-Solid
370
    18
100
AcDbLine
 10
13.50393700787401
 20
0.5
 30
0.0
 11
13.50393700787401
 21
0.1653543307086614
 31
0.0
  0
LINE
  5
C9
330
1F
100
AcDbEntity
  8
TITLE
  6
SLD-Solid
370
    18
100
AcDbLine
 10
15.47244094488189
 20
47.50000000000001
 30
0.0
 11
15.47244094488189
 21
47.83464566929134
 31
0.0
  0
LINE
  5
CA
330
1F
100
AcDbEntity
  8
TITLE
  6
SLD-Solid
370
    18
100
AcDbLine
 10
15.47244094488189
 20
0.5
 30
0.0
 11
15.47244094488189
 21
0.1653543307086614
 31
0.0
  0
LINE
  5
CB
330
1F
100
AcDbEntity
  8
TITLE
  6
SLD-Solid
370
    18
100
AcDbLine
 10
17.44094488188976
 20
47.50000000000001
 30
0.0
 11
17.44094488188976
 21
47.83464566929134
 31
0.0
  0
LINE
  5
CC
330
1F
100
AcDbEntity
  8
TITLE
  6
SLD-Solid
370
    18
100
AcDbLine
 10
17.44094488188976
 20
0.5
 30
0.0
 11
17.44094488188976
 21
0.1653543307086614
 31
0.0
  0
LINE
  5
CD
330
1F
100
AcDbEntity
  8
TITLE
  6
SLD-Solid
370
    18
100
AcDbLine
 10
19.40944881889764
 20
47.50000000000001
 30
0.0
 11
19.40944881889764
 21
47.83464566929134
 31
0.0
  0
LINE
  5
CE
330
1F
100
AcDbEntity
  8
TITLE
  6
SLD-Solid
370
    18
100
AcDbLine
 10
19.40944881889764
 20
0.5
 30
0.0
 11
19.40944881889764
 21
0.1653543307086614
 31
0.0
  0
LINE
  5
CF
330
1F
100
AcDbEntity
  8
TITLE
  6
SLD-Solid
370
    18
100
AcDbLine
 10
21.37795275590551
 20
47.50000000000001
 30
0.0
 11
21.37795275590551
 21
47.83464566929134
 31
0.0
  0
LINE
  5
D0
330
1F
100
AcDbEntity
  8
TITLE
  6
SLD-Solid
370
    18
100
AcDbLine
 10
21.37795275590551
 20
0.5
 30
0.0
 11
21.37795275590551
 21
0.1653543307086614
 31
0.0
  0
LINE
  5
D1
330
1F
100
AcDbEntity
  8
TITLE
  6
SLD-Solid
370
    18
100
AcDbLine
 10
23.34645669291339
 20
47.50000000000001
 30
0.0
 11
23.34645669291339
 21
47.83464566929134
 31
0.0
  0
LINE
  5
D2
330
1F
100
AcDbEntity
  8
TITLE
  6
SLD-Solid
370
    18
100
AcDbLine
 10
23.34645669291339
 20
0.5
 30
0.0
 11
23.34645669291339
 21
0.1653543307086614
 31
0.0
  0
LINE
  5
D3
330
1F
100
AcDbEntity
  8
TITLE
  6
SLD-Solid
370
    18
100
AcDbLine
 10
25.31496062992126
 20
47.50000000000001
 30
0.0
 11
25.31496062992126
 21
47.83464566929134
 31
0.0
  0
LINE
  5
D4
330
1F
100
AcDbEntity
  8
TITLE
  6
SLD-Solid
370
    18
100
AcDbLine
 10
25.31496062992126
 20
0.5
 30
0.0
 11
25.31496062992126
 21
0.1653543307086614
 31
0.0
  0
LINE
  5
D5
330
1F
100
AcDbEntity
  8
TITLE
  6
SLD-Solid
370
    18
100
AcDbLine
 10
27.28346456692914
 20
47.50000000000001
 30
0.0
 11
27.28346456692914
 21
47.83464566929134
 31
0.0
  0
LINE
  5
D6
330
1F
100
AcDbEntity
  8
TITLE
  6
SLD-Solid
370
    18
100
AcDbLine
 10
27.28346456692914
 20
0.5
 30
0.0
 11
27.28346456692914
 21
0.1653543307086614
 31
0.0
  0
LINE
  5
D7
330
1F
100
AcDbEntity
  8
TITLE
  6
SLD-Solid
370
    18
100
AcDbLine
 10
29.25196850393701
 20
47.50000000000001
 30
0.0
 11
29.25196850393701
 21
47.83464566929134
 31
0.0
  0
LINE
  5
D8
330
1F
100
AcDbEntity
  8
TITLE
  6
SLD-Solid
370
    18
100
AcDbLine
 10
29.25196850393701
 20
0.5
 30
0.0
 11
29.25196850393701
 21
0.1653543307086614
 31
0.0
  0
LINE
  5
D9
330
1F
100
AcDbEntity
  8
TITLE
  6
SLD-Solid
370
    18
100
AcDbLine
 10
31.22047244094488
 20
47.50000000000001
 30
0.0
 11
31.22047244094488
 21
47.83464566929134
 31
0.0
  0
LINE
  5
DA
330
1F
100
AcDbEntity
  8
TITLE
  6
SLD-Solid
370
    18
100
AcDbLine
 10
31.22047244094488
 20
0.5
 30
0.0
 11
31.22047244094488
 21
0.1653543307086614
 31
0.0
  0
LINE
  5
DB
330
1F
100
AcDbEntity
  8
TITLE
  6
SLD-Solid
370
    18
100
AcDbLine
 10
33.18897637795276
 20
47.50000000000001
 30
0.0
 11
33.18897637795276
 21
47.83464566929134
 31
0.0
  0
LINE
  5
DC
330
1F
100
AcDbEntity
  8
TITLE
  6
SLD-Solid
370
    18
100
AcDbLine
 10
33.18897637795276
 20
0.5
 30
0.0
 11
33.18897637795276
 21
0.1653543307086614
 31
0.0
  0
LINE
  5
DD
330
1F
100
AcDbEntity
  8
TITLE
  6
SLD-Solid
370
    18
100
AcDbLine
 10
35.15748031496063
 20
47.50000000000001
 30
0.0
 11
35.15748031496063
 21
47.83464566929134
 31
0.0
  0
LINE
  5
DE
330
1F
100
AcDbEntity
  8
TITLE
  6
SLD-Solid
370
    18
100
AcDbLine
 10
35.15748031496063
 20
0.5
 30
0.0
 11
35.15748031496063
 21
0.1653543307086614
 31
0.0
  0
LINE
  5
DF
330
1F
100
AcDbEntity
  8
TITLE
  6
SLD-Solid
370
    18
100
AcDbLine
 10
37.12598425196851
 20
47.50000000000001
 30
0.0
 11
37.12598425196851
 21
47.83464566929134
 31
0.0
  0
LINE
  5
E0
330
1F
100
AcDbEntity
  8
TITLE
  6
SLD-Solid
370
    18
100
AcDbLine
 10
37.12598425196851
 20
0.5
 30
0.0
 11
37.12598425196851
 21
0.1653543307086614
 31
0.0
  0
LINE
  5
E1
330
1F
100
AcDbEntity
  8
TITLE
  6
SLD-Solid
370
    18
100
AcDbLine
 10
39.09448818897638
 20
47.50000000000001
 30
0.0
 11
39.09448818897638
 21
47.83464566929134
 31
0.0
  0
LINE
  5
E2
330
1F
100
AcDbEntity
  8
TITLE
  6
SLD-Solid
370
    18
100
AcDbLine
 10
39.09448818897638
 20
0.5
 30
0.0
 11
39.09448818897638
 21
0.1653543307086614
 31
0.0
  0
LINE
  5
E3
330
1F
100
AcDbEntity
  8
TITLE
  6
SLD-Solid
370
    18
100
AcDbLine
 10
41.06299212598425
 20
47.50000000000001
 30
0.0
 11
41.06299212598425
 21
47.83464566929134
 31
0.0
  0
LINE
  5
E4
330
1F
100
AcDbEntity
  8
TITLE
  6
SLD-Solid
370
    18
100
AcDbLine
 10
41.06299212598425
 20
0.5
 30
0.0
 11
41.06299212598425
 21
0.1653543307086614
 31
0.0
  0
LINE
  5
E5
330
1F
100
AcDbEntity
  8
TITLE
  6
SLD-Solid
370
    18
100
AcDbLine
 10
43.03149606299213
 20
47.50000000000001
 30
0.0
 11
43.03149606299213
 21
47.83464566929134
 31
0.0
  0
LINE
  5
E6
330
1F
100
AcDbEntity
  8
TITLE
  6
SLD-Solid
370
    18
100
AcDbLine
 10
43.03149606299213
 20
0.5
 30
0.0
 11
43.03149606299213
 21
0.1653543307086614
 31
0.0
  0
LINE
  5
E7
330
1F
100
AcDbEntity
  8
TITLE
  6
SLD-Solid
370
    18
100
AcDbLine
 10
45.0
 20
47.50000000000001
 30
0.0
 11
45.0
 21
47.83464566929134
 31
0.0
  0
LINE
  5
E8
330
1F
100
AcDbEntity
  8
TITLE
  6
SLD-Solid
370
    18
100
AcDbLine
 10
45.0
 20
0.5
 30
0.0
 11
45.0
 21
0.1653543307086614
 31
0.0
  0
LINE
  5
E9
330
1F
100
AcDbEntity
  8
TITLE
  6
SLD-Solid
370
    18
100
AcDbLine
 10
46.96850393700788
 20
47.50000000000001
 30
0.0
 11
46.96850393700788
 21
47.83464566929134
 31
0.0
  0
LINE
  5
EA
330
1F
100
AcDbEntity
  8
TITLE
  6
SLD-Solid
370
    18
100
AcDbLine
 10
46.96850393700788
 20
0.5
 30
0.0
 11
46.96850393700788
 21
0.1653543307086614
 31
0.0
  0
LINE
  5
EB
330
1F
100
AcDbEntity
  8
TITLE
  6
SLD-Solid
370
    18
100
AcDbLine
 10
48.93700787401576
 20
47.50000000000001
 30
0.0
 11
48.93700787401576
 21
47.83464566929134
 31
0.0
  0
LINE
  5
EC
330
1F
100
AcDbEntity
  8
TITLE
  6
SLD-Solid
370
    18
100
AcDbLine
 10
48.93700787401576
 20
0.5
 30
0.0
 11
48.93700787401576
 21
0.1653543307086614
 31
0.0
  0
LINE
  5
ED
330
1F
100
AcDbEntity
  8
TITLE
  6
SLD-Solid
370
    18
100
AcDbLine
 10
50.90551181102363
 20
47.50000000000001
 30
0.0
 11
50.90551181102363
 21
47.83464566929134
 31
0.0
  0
LINE
  5
EE
330
1F
100
AcDbEntity
  8
TITLE
  6
SLD-Solid
370
    18
100
AcDbLine
 10
50.90551181102363
 20
0.5
 30
0.0
 11
50.90551181102363
 21
0.1653543307086614
 31
0.0
  0
LINE
  5
EF
330
1F
100
AcDbEntity
  8
TITLE
  6
SLD-Solid
370
    18
100
AcDbLine
 10
52.8740157480315
 20
47.50000000000001
 30
0.0
 11
52.8740157480315
 21
47.83464566929134
 31
0.0
  0
LINE
  5
F0
330
1F
100
AcDbEntity
  8
TITLE
  6
SLD-Solid
370
    18
100
AcDbLine
 10
52.8740157480315
 20
0.5
 30
0.0
 11
52.8740157480315
 21
0.1653543307086614
 31
0.0
  0
LINE
  5
F1
330
1F
100
AcDbEntity
  8
TITLE
  6
SLD-Solid
370
    18
100
AcDbLine
 10
54.84251968503937
 20
47.50000000000001
 30
0.0
 11
54.84251968503937
 21
47.83464566929134
 31
0.0
  0
LINE
  5
F2
330
1F
100
AcDbEntity
  8
TITLE
  6
SLD-Solid
370
    18
100
AcDbLine
 10
54.84251968503937
 20
0.5
 30
0.0
 11
54.84251968503937
 21
0.1653543307086614
 31
0.0
  0
LINE
  5
F3
330
1F
100
AcDbEntity
  8
TITLE
  6
SLD-Solid
370
    18
100
AcDbLine
 10
56.81102362204725
 20
47.50000000000001
 30
0.0
 11
56.81102362204725
 21
47.83464566929134
 31
0.0
  0
LINE
  5
F4
330
1F
100
AcDbEntity
  8
TITLE
  6
SLD-Solid
370
    18
100
AcDbLine
 10
56.81102362204725
 20
0.5
 30
0.0
 11
56.81102362204725
 21
0.1653543307086614
 31
0.0
  0
LINE
  5
F5
330
1F
100
AcDbEntity
  8
TITLE
  6
SLD-Solid
370
    18
100
AcDbLine
 10
58.77952755905513
 20
47.50000000000001
 30
0.0
 11
58.77952755905513
 21
47.83464566929134
 31
0.0
  0
LINE
  5
F6
330
1F
100
AcDbEntity
  8
TITLE
  6
SLD-Solid
370
    18
100
AcDbLine
 10
58.77952755905513
 20
0.5
 30
0.0
 11
58.77952755905513
 21
0.1653543307086614
 31
0.0
  0
LINE
  5
F7
330
1F
100
AcDbEntity
  8
TITLE
  6
SLD-Solid
370
    18
100
AcDbLine
 10
60.748031496063
 20
47.50000000000001
 30
0.0
 11
60.748031496063
 21
47.83464566929134
 31
0.0
  0
LINE
  5
F8
330
1F
100
AcDbEntity
  8
TITLE
  6
SLD-Solid
370
    18
100
AcDbLine
 10
60.748031496063
 20
0.5
 30
0.0
 11
60.748031496063
 21
0.1653543307086614
 31
0.0
  0
LINE
  5
F9
330
1F
100
AcDbEntity
  8
TITLE
  6
SLD-Solid
370
    18
100
AcDbLine
 10
62.71653543307087
 20
47.50000000000001
 30
0.0
 11
62.71653543307087
 21
47.83464566929134
 31
0.0
  0
LINE
  5
FA
330
1F
100
AcDbEntity
  8
TITLE
  6
SLD-Solid
370
    18
100
AcDbLine
 10
62.71653543307087
 20
0.5
 30
0.0
 11
62.71653543307087
 21
0.1653543307086614
 31
0.0
  0
LINE
  5
FB
330
1F
100
AcDbEntity
  8
TITLE
  6
SLD-Solid
370
    18
100
AcDbLine
 10
64.68503937007874
 20
47.50000000000001
 30
0.0
 11
64.68503937007874
 21
47.83464566929134
 31
0.0
  0
LINE
  5
FC
330
1F
100
AcDbEntity
  8
TITLE
  6
SLD-Solid
370
    18
100
AcDbLine
 10
64.68503937007874
 20
0.5
 30
0.0
 11
64.68503937007874
 21
0.1653543307086614
 31
0.0
  0
LINE
  5
FD
330
1F
100
AcDbEntity
  8
TITLE
  6
SLD-Solid
370
    18
100
AcDbLine
 10
66.65354330708662
 20
47.50000000000001
 30
0.0
 11
66.65354330708662
 21
47.83464566929134
 31
0.0
  0
LINE
  5
FE
330
1F
100
AcDbEntity
  8
TITLE
  6
SLD-Solid
370
    18
100
AcDbLine
 10
66.65354330708662
 20
0.5
 30
0.0
 11
66.65354330708662
 21
0.1653543307086614
 31
0.0
  0
LINE
  5
FF
330
1F
100
AcDbEntity
  8
TITLE
  6
SLD-Solid
370
    18
100
AcDbLine
 10
68.62204724409449
 20
47.50000000000001
 30
0.0
 11
68.62204724409449
 21
47.83464566929134
 31
0.0
  0
LINE
  5
100
330
1F
100
AcDbEntity
  8
TITLE
  6
SLD-Solid
370
    18
100
AcDbLine
 10
68.62204724409449
 20
0.5
 30
0.0
 11
68.62204724409449
 21
0.1653543307086614
 31
0.0
  0
LINE
  5
101
330
1F
100
AcDbEntity
  8
TITLE
  6
SLD-Solid
370
    18
100
AcDbLine
 10
70.59055118110237
 20
47.50000000000001
 30
0.0
 11
70.59055118110237
 21
47.83464566929134
 31
0.0
  0
LINE
  5
102
330
1F
100
AcDbEntity
  8
TITLE
  6
SLD-Solid
370
    18
100
AcDbLine
 10
70.59055118110237
 20
0.5
 30
0.0
 11
70.59055118110237
 21
0.1653543307086614
 31
0.0
  0
LINE
  5
103
330
1F
100
AcDbEntity
  8
TITLE
  6
SLD-Solid
370
    18
100
AcDbLine
 10
72.55905511811024
 20
47.50000000000001
 30
0.0
 11
72.55905511811024
 21
47.83464566929134
 31
0.0
  0
LINE
  5
104
330
1F
100
AcDbEntity
  8
TITLE
  6
SLD-Solid
370
    18
100
AcDbLine
 10
72.55905511811024
 20
0.5
 30
0.0
 11
72.55905511811024
 21
0.1653543307086614
 31
0.0
  0
LINE
  5
105
330
1F
100
AcDbEntity
  8
TITLE
  6
SLD-Solid
370
    18
100
AcDbLine
 10
74.52755905511812
 20
47.50000000000001
 30
0.0
 11
74.52755905511812
 21
47.83464566929134
 31
0.0
  0
LINE
  5
106
330
1F
100
AcDbEntity
  8
TITLE
  6
SLD-Solid
370
    18
100
AcDbLine
 10
74.52755905511812
 20
0.5
 30
0.0
 11
74.52755905511812
 21
0.1653543307086614
 31
0.0
  0
LINE
  5
107
330
1F
100
AcDbEntity
  8
TITLE
  6
SLD-Solid
370
    18
100
AcDbLine
 10
76.49606299212599
 20
47.50000000000001
 30
0.0
 11
76.49606299212599
 21
47.83464566929134
 31
0.0
  0
LINE
  5
108
330
1F
100
AcDbEntity
  8
TITLE
  6
SLD-Solid
370
    18
100
AcDbLine
 10
76.49606299212599
 20
0.5
 30
0.0
 11
76.49606299212599
 21
0.1653543307086614
 31
0.0
  0
LINE
  5
109
330
1F
100
AcDbEntity
  8
TITLE
  6
SLD-Solid
370
    18
100
AcDbLine
 10
78.46456692913387
 20
47.50000000000001
 30
0.0
 11
78.46456692913387
 21
47.83464566929134
 31
0.0
  0
LINE
  5
10A
330
1F
100
AcDbEntity
  8
TITLE
  6
SLD-Solid
370
    18
100
AcDbLine
 10
78.46456692913387
 20
0.5
 30
0.0
 11
78.46456692913387
 21
0.1653543307086614
 31
0.0
  0
LINE
  5
10B
330
1F
100
AcDbEntity
  8
TITLE
  6
SLD-Solid
370
    18
100
AcDbLine
 10
80.43307086614175
 20
47.50000000000001
 30
0.0
 11
80.43307086614175
 21
47.83464566929134
 31
0.0
  0
LINE
  5
10C
330
1F
100
AcDbEntity
  8
TITLE
  6
SLD-Solid
370
    18
100
AcDbLine
 10
80.43307086614175
 20
0.5
 30
0.0
 11
80.43307086614175
 21
0.1653543307086614
 31
0.0
  0
LINE
  5
10D
330
1F
100
AcDbEntity
  8
TITLE
  6
SLD-Solid
370
    18
100
AcDbLine
 10
82.40157480314961
 20
47.50000000000001
 30
0.0
 11
82.40157480314961
 21
47.83464566929134
 31
0.0
  0
LINE
  5
10E
330
1F
100
AcDbEntity
  8
TITLE
  6
SLD-Solid
370
    18
100
AcDbLine
 10
82.40157480314961
 20
0.5
 30
0.0
 11
82.40157480314961
 21
0.1653543307086614
 31
0.0
  0
LINE
  5
10F
330
1F
100
AcDbEntity
  8
TITLE
  6
SLD-Solid
370
    18
100
AcDbLine
 10
84.37007874015748
 20
47.50000000000001
 30
0.0
 11
84.37007874015748
 21
47.83464566929134
 31
0.0
  0
LINE
  5
110
330
1F
100
AcDbEntity
  8
TITLE
  6
SLD-Solid
370
    18
100
AcDbLine
 10
84.37007874015748
 20
0.5
 30
0.0
 11
84.37007874015748
 21
0.1653543307086614
 31
0.0
  0
LINE
  5
111
330
1F
100
AcDbEntity
  8
TITLE
  6
SLD-Solid
370
    18
100
AcDbLine
 10
86.33858267716536
 20
47.50000000000001
 30
0.0
 11
86.33858267716536
 21
47.83464566929134
 31
0.0
  0
LINE
  5
112
330
1F
100
AcDbEntity
  8
TITLE
  6
SLD-Solid
370
    18
100
AcDbLine
 10
86.33858267716536
 20
0.5
 30
0.0
 11
86.33858267716536
 21
0.1653543307086614
 31
0.0
  0
LINE
  5
113
330
1F
100
AcDbEntity
  8
TITLE
  6
SLD-Solid
370
    18
100
AcDbLine
 10
88.30708661417324
 20
47.50000000000001
 30
0.0
 11
88.30708661417324
 21
47.83464566929134
 31
0.0
  0
LINE
  5
114
330
1F
100
AcDbEntity
  8
TITLE
  6
SLD-Solid
370
    18
100
AcDbLine
 10
88.30708661417324
 20
0.5
 30
0.0
 11
88.30708661417324
 21
0.1653543307086614
 31
0.0
  0
MTEXT
  5
116
330
1F
100
AcDbEntity
  8
NOTES
100
AcDbMText
 10
66.40829780303407
 20
1.07029033469434
 30
0.0
 40
0.25
 41
0.0
 71
     1
 72
     1
  1
UNLESS OTHERWISE SPECIFIED DIMENSIONS ARE IN INCHES.
  7
SLDTEXTSTYLE0
 73
     1
 44
1.0
  0
MTEXT
  5
117
330
1F
100
AcDbEntity
  8
NOTES
100
AcDbMText
 10
66.43682511324813
 20
3.219304550135194
 30
0.0
 40
0.25
 41
0.0
 71
     1
 72
     1
  1
DATE:
  7
SLDTEXTSTYLE0
 73
     1
 44
1.0
  0
MTEXT
  5
118
330
1F
100
AcDbEntity
  8
NOTES
100
AcDbMText
 10
68.71306699756624
 20
2.172214814147056
 30
0.0
 40
0.25
 41
0.0
 71
     2
 72
     1
  1
DO NOT SCALE DRAWING
  7
SLDTEXTSTYLE0
 73
     1
 44
1.0
  0
MTEXT
  5
11A
330
1F
100
AcDbEntity
  8
NOTES
100
AcDbMText
 10
72.83073730750537
 20
3.268275555297615
 30
0.0
 40
0.25
 41
0.0
 71
     1
 72
     1
  1
TITLE:
  7
SLDTEXTSTYLE1
 73
     1
 44
1.0
  0
MTEXT
  5
11B
330
1F
100
AcDbEntity
  8
NOTES
100
AcDbMText
 10
80.15618310516095
 20
3.268275555297599
 30
0.0
 40
0.25
 41
0.0
 71
     1
 72
     1
  1
DWG NO.
  7
SLDTEXTSTYLE1
 73
     1
 44
1.0
  0
MTEXT
  5
11C
330
1F
100
AcDbEntity
  8
NOTES
100
AcDbMText
 10
80.18317532028495
 20
1.064581557673834
 30
0.0
 40
0.25
 41
0.0
 71
     1
 72
     1
  1
SCALE:     1:1
  7
SLDTEXTSTYLE1
 73
     1
 44
1.0
  0
MTEXT
  5
11D
330
1F
100
AcDbEntity
  8
NOTES
100
AcDbMText
 10
84.18791794082661
 20
2.651034429460867
 30
0.0
 40
0.25
 41
0.0
 71
     2
 72
     1
  1
1001-W-36 CAD
  7
SLDTEXTSTYLE1
 73
     1
 44
1.0
  0
MTEXT
  5
11E
330
1F
100
AcDbEntity
  8
NOTES
100
AcDbMText
 10
75.95859913862341
 20
2.638886144139308
 30
0.0
 40
0.25
 41
0.0
 71
     2
 72
     1
  1
1001-W-36
  7
SLDTEXTSTYLE1
 73
     1
 44
1.0
  0
INSERT
  5
124
330
1F
100
AcDbEntity
  8
NOTES
100
AcDbBlockReference
  2
SW_NOTE_0
 10
80.26613155701669
 20
4.610522783800339
 30
0.0
  0
INSERT
  5
12E
330
1F
100
AcDbEntity
  8
NOTES
100
AcDbBlockReference
  2
SW_NOTE_0_1
 10
66.61597262459081
 20
5.148152684778705
 30
0.0
  0
INSERT
  5
134
330
1F
100
AcDbEntity
  8
NOTES
100
AcDbBlockReference
  2
SW_NOTE_0_2
 10
68.36395733920932
 20
2.894259835614683
 30
0.0
  0
MTEXT
  5
135
330
1F
100
AcDbEntity
  8
TITLE
100
AcDbMText
 10
0.3276279775836454
 20
1.503106290974172
 30
0.0
 40
0.125
 41
0.0
 71
     2
 72
     1
  1
A
  7
SLDTEXTSTYLE1
 73
     1
 44
1.0
  0
MTEXT
  5
136
330
1F
100
AcDbEntity
  8
TITLE
100
AcDbMText
 10
89.66227364687498
 20
1.503106290974173
 30
0.0
 40
0.125
 41
0.0
 71
     2
 72
     1
  1
A
  7
SLDTEXTSTYLE1
 73
     1
 44
1.0
  0
MTEXT
  5
137
330
1F
100
AcDbEntity
  8
TITLE
100
AcDbMText
 10
0.3317512413046844
 20
3.410586605934804
 30
0.0
 40
0.125
 41
0.0
 71
     2
 72
     1
  1
B
  7
SLDTEXTSTYLE1
 73
     1
 44
1.0
  0
MTEXT
  5
138
330
1F
100
AcDbEntity
  8
TITLE
100
AcDbMText
 10
89.66639691059602
 20
3.410586605934804
 30
0.0
 40
0.125
 41
0.0
 71
     2
 72
     1
  1
B
  7
SLDTEXTSTYLE1
 73
     1
 44
1.0
  0
MTEXT
  5
139
330
1F
100
AcDbEntity
  8
TITLE
100
AcDbMText
 10
0.3313750816934456
 20
5.379090542942677
 30
0.0
 40
0.125
 41
0.0
 71
     2
 72
     1
  1
C
  7
SLDTEXTSTYLE1
 73
     1
 44
1.0
  0
MTEXT
  5
13A
330
1F
100
AcDbEntity
  8
TITLE
100
AcDbMText
 10
89.66602075098477
 20
5.379090542942677
 30
0.0
 40
0.125
 41
0.0
 71
     2
 72
     1
  1
C
  7
SLDTEXTSTYLE1
 73
     1
 44
1.0
  0
MTEXT
  5
13B
330
1F
100
AcDbEntity
  8
TITLE
100
AcDbMText
 10
0.3311870028448152
 20
7.34759447995055
 30
0.0
 40
0.125
 41
0.0
 71
     2
 72
     1
  1
D
  7
SLDTEXTSTYLE1
 73
     1
 44
1.0
  0
MTEXT
  5
13C
330
1F
100
AcDbEntity
  8
TITLE
100
AcDbMText
 10
89.66583267213615
 20
7.34759447995055
 30
0.0
 40
0.125
 41
0.0
 71
     2
 72
     1
  1
D
  7
SLDTEXTSTYLE1
 73
     1
 44
1.0
  0
MTEXT
  5
13D
330
1F
100
AcDbEntity
  8
TITLE
100
AcDbMText
 10
0.3329231160377541
 20
9.316098416958424
 30
0.0
 40
0.125
 41
0.0
 71
     2
 72
     1
  1
E
  7
SLDTEXTSTYLE1
 73
     1
 44
1.0
  0
MTEXT
  5
13E
330
1F
100
AcDbEntity
  8
TITLE
100
AcDbMText
 10
89.66756878532908
 20
9.316098416958424
 30
0.0
 40
0.125
 41
0.0
 71
     2
 72
     1
  1
E
  7
SLDTEXTSTYLE1
 73
     1
 44
1.0
  0
MTEXT
  5
13F
330
1F
100
AcDbEntity
  8
TITLE
100
AcDbMText
 10
0.3313461474003637
 20
11.2846023539663
 30
0.0
 40
0.125
 41
0.0
 71
     2
 72
     1
  1
F
  7
SLDTEXTSTYLE1
 73
     1
 44
1.0
  0
MTEXT
  5
140
330
1F
100
AcDbEntity
  8
TITLE
100
AcDbMText
 10
89.6659918166917
 20
11.2846023539663
 30
0.0
 40
0.125
 41
0.0
 71
     2
 72
     1
  1
F
  7
SLDTEXTSTYLE1
 73
     1
 44
1.0
  0
MTEXT
  5
141
330
1F
100
AcDbEntity
  8
TITLE
100
AcDbMText
 10
0.332257605436456
 20
13.25310629097417
 30
0.0
 40
0.125
 41
0.0
 71
     2
 72
     1
  1
G
  7
SLDTEXTSTYLE1
 73
     1
 44
1.0
  0
MTEXT
  5
142
330
1F
100
AcDbEntity
  8
TITLE
100
AcDbMText
 10
89.6669032747278
 20
13.25310629097417
 30
0.0
 40
0.125
 41
0.0
 71
     2
 72
     1
  1
G
  7
SLDTEXTSTYLE1
 73
     1
 44
1.0
  0
MTEXT
  5
143
330
1F
100
AcDbEntity
  8
TITLE
100
AcDbMText
 10
0.3323733456814148
 20
15.22161022798205
 30
0.0
 40
0.125
 41
0.0
 71
     2
 72
     1
  1
H
  7
SLDTEXTSTYLE1
 73
     1
 44
1.0
  0
MTEXT
  5
144
330
1F
100
AcDbEntity
  8
TITLE
100
AcDbMText
 10
89.66701901497274
 20
15.22161022798205
 30
0.0
 40
0.125
 41
0.0
 71
     2
 72
     1
  1
H
  7
SLDTEXTSTYLE1
 73
     1
 44
1.0
  0
MTEXT
  5
145
330
1F
100
AcDbEntity
  8
TITLE
100
AcDbMText
 10
0.3315776305595839
 20
17.19011416498992
 30
0.0
 40
0.125
 41
0.0
 71
     2
 72
     1
  1
J
  7
SLDTEXTSTYLE1
 73
     1
 44
1.0
  0
MTEXT
  5
146
330
1F
100
AcDbEntity
  8
TITLE
100
AcDbMText
 10
89.66622329985091
 20
17.19011416498992
 30
0.0
 40
0.125
 41
0.0
 71
     2
 72
     1
  1
J
  7
SLDTEXTSTYLE1
 73
     1
 44
1.0
  0
MTEXT
  5
147
330
1F
100
AcDbEntity
  8
TITLE
100
AcDbMText
 10
0.3323154765159243
 20
19.1586181019978
 30
0.0
 40
0.125
 41
0.0
 71
     2
 72
     1
  1
K
  7
SLDTEXTSTYLE1
 73
     1
 44
1.0
  0
MTEXT
  5
148
330
1F
100
AcDbEntity
  8
TITLE
100
AcDbMText
 10
89.66696114580725
 20
19.1586181019978
 30
0.0
 40
0.125
 41
0.0
 71
     2
 72
     1
  1
K
  7
SLDTEXTSTYLE1
 73
     1
 44
1.0
  0
MTEXT
  5
149
330
1F
100
AcDbEntity
  8
TITLE
100
AcDbMText
 10
0.3312448739242835
 20
21.12712203900567
 30
0.0
 40
0.125
 41
0.0
 71
     2
 72
     1
  1
L
  7
SLDTEXTSTYLE1
 73
     1
 44
1.0
  0
MTEXT
  5
14A
330
1F
100
AcDbEntity
  8
TITLE
100
AcDbMText
 10
89.66589054321562
 20
21.12712203900567
 30
0.0
 40
0.125
 41
0.0
 71
     2
 72
     1
  1
L
  7
SLDTEXTSTYLE1
 73
     1
 44
1.0
  0
MTEXT
  5
14B
330
1F
100
AcDbEntity
  8
TITLE
100
AcDbMText
 10
0.3283224192293962
 20
23.09562597601355
 30
0.0
 40
0.125
 41
0.0
 71
     2
 72
     1
  1
M
  7
SLDTEXTSTYLE1
 73
     1
 44
1.0
  0
MTEXT
  5
14C
330
1F
100
AcDbEntity
  8
TITLE
100
AcDbMText
 10
89.66296808852074
 20
23.09562597601355
 30
0.0
 40
0.125
 41
0.0
 71
     2
 72
     1
  1
M
  7
SLDTEXTSTYLE1
 73
     1
 44
1.0
  0
MTEXT
  5
14D
330
1F
100
AcDbEntity
  8
TITLE
100
AcDbMText
 10
0.3315342275836453
 20
25.06412991302142
 30
0.0
 40
0.125
 41
0.0
 71
     2
 72
     1
  1
N
  7
SLDTEXTSTYLE1
 73
     1
 44
1.0
  0
MTEXT
  5
14E
330
1F
100
AcDbEntity
  8
TITLE
100
AcDbMText
 10
89.66617989687497
 20
25.06412991302143
 30
0.0
 40
0.125
 41
0.0
 71
     2
 72
     1
  1
N
  7
SLDTEXTSTYLE1
 73
     1
 44
1.0
  0
MTEXT
  5
14F
330
1F
100
AcDbEntity
  8
TITLE
100
AcDbMText
 10
0.3321997349363143
 20
27.0326338500293
 30
0.0
 40
0.125
 41
0.0
 71
     2
 72
     1
  1
P
  7
SLDTEXTSTYLE1
 73
     1
 44
1.0
  0
MTEXT
  5
150
330
1F
100
AcDbEntity
  8
TITLE
100
AcDbMText
 10
89.66684540422764
 20
27.0326338500293
 30
0.0
 40
0.125
 41
0.0
 71
     2
 72
     1
  1
P
  7
SLDTEXTSTYLE1
 73
     1
 44
1.0
  0
MTEXT
  5
151
330
1F
100
AcDbEntity
  8
TITLE
100
AcDbMText
 10
0.3309265867271644
 20
29.00113778703717
 30
0.0
 40
0.125
 41
0.0
 71
     2
 72
     1
  1
R
  7
SLDTEXTSTYLE1
 73
     1
 44
1.0
  0
MTEXT
  5
152
330
1F
100
AcDbEntity
  8
TITLE
100
AcDbMText
 10
89.66557225601849
 20
29.00113778703717
 30
0.0
 40
0.125
 41
0.0
 71
     2
 72
     1
  1
R
  7
SLDTEXTSTYLE1
 73
     1
 44
1.0
  0
MTEXT
  5
153
330
1F
100
AcDbEntity
  8
TITLE
100
AcDbMText
 10
0.3323010070777432
 20
30.96964172404504
 30
0.0
 40
0.125
 41
0.0
 71
     2
 72
     1
  1
T
  7
SLDTEXTSTYLE1
 73
     1
 44
1.0
  0
MTEXT
  5
154
330
1F
100
AcDbEntity
  8
TITLE
100
AcDbMText
 10
89.66694667636908
 20
30.96964172404504
 30
0.0
 40
0.125
 41
0.0
 71
     2
 72
     1
  1
T
  7
SLDTEXTSTYLE1
 73
     1
 44
1.0
  0
MTEXT
  5
155
330
1F
100
AcDbEntity
  8
TITLE
100
AcDbMText
 10
0.3328507755201046
 20
32.93814566105291
 30
0.0
 40
0.125
 41
0.0
 71
     2
 72
     1
  1
U
  7
SLDTEXTSTYLE1
 73
     1
 44
1.0
  0
MTEXT
  5
156
330
1F
100
AcDbEntity
  8
TITLE
100
AcDbMText
 10
89.66749644481143
 20
32.93814566105291
 30
0.0
 40
0.125
 41
0.0
 71
     2
 72
     1
  1
U
  7
SLDTEXTSTYLE1
 73
     1
 44
1.0
  0
MTEXT
  5
157
330
1F
100
AcDbEntity
  8
TITLE
100
AcDbMText
 10
0.3307529773167151
 20
34.90664959806079
 30
0.0
 40
0.125
 41
0.0
 71
     2
 72
     1
  1
V
  7
SLDTEXTSTYLE1
 73
     1
 44
1.0
  0
MTEXT
  5
158
330
1F
100
AcDbEntity
  8
TITLE
100
AcDbMText
 10
89.66539864660804
 20
34.9066495980608
 30
0.0
 40
0.125
 41
0.0
 71
     2
 72
     1
  1
V
  7
SLDTEXTSTYLE1
 73
     1
 44
1.0
  0
MTEXT
  5
159
330
1F
100
AcDbEntity
  8
TITLE
100
AcDbMText
 10
0.3327784409203867
 20
36.87515353506866
 30
0.0
 40
0.125
 41
0.0
 71
     2
 72
     1
  1
W
  7
SLDTEXTSTYLE1
 73
     1
 44
1.0
  0
MTEXT
  5
15A
330
1F
100
AcDbEntity
  8
TITLE
100
AcDbMText
 10
89.66742411021173
 20
36.87515353506866
 30
0.0
 40
0.125
 41
0.0
 71
     2
 72
     1
  1
W
  7
SLDTEXTSTYLE1
 73
     1
 44
1.0
  0
MTEXT
  5
15B
330
1F
100
AcDbEntity
  8
TITLE
100
AcDbMText
 10
0.3321997349363143
 20
38.84365747207654
 30
0.0
 40
0.125
 41
0.0
 71
     2
 72
     1
  1
Y
  7
SLDTEXTSTYLE1
 73
     1
 44
1.0
  0
MTEXT
  5
15C
330
1F
100
AcDbEntity
  8
TITLE
100
AcDbMText
 10
89.66684540422764
 20
38.84365747207654
 30
0.0
 40
0.125
 41
0.0
 71
     2
 72
     1
  1
Y
  7
SLDTEXTSTYLE1
 73
     1
 44
1.0
  0
MTEXT
  5
15D
330
1F
100
AcDbEntity
  8
TITLE
100
AcDbMText
 10
0.32257878981296
 20
40.81216140908442
 30
0.0
 40
0.125
 41
0.0
 71
     2
 72
     1
  1
AA
  7
SLDTEXTSTYLE1
 73
     1
 44
1.0
  0
MTEXT
  5
15E
330
1F
100
AcDbEntity
  8
TITLE
100
AcDbMText
 10
89.65722445910428
 20
40.81216140908442
 30
0.0
 40
0.125
 41
0.0
 71
     2
 72
     1
  1
AA
  7
SLDTEXTSTYLE1
 73
     1
 44
1.0
  0
MTEXT
  5
15F
330
1F
100
AcDbEntity
  8
TITLE
100
AcDbMText
 10
0.3267020535339989
 20
42.78066534609228
 30
0.0
 40
0.125
 41
0.0
 71
     2
 72
     1
  1
AB
  7
SLDTEXTSTYLE1
 73
     1
 44
1.0
  0
MTEXT
  5
160
330
1F
100
AcDbEntity
  8
TITLE
100
AcDbMText
 10
89.66134772282533
 20
42.78066534609228
 30
0.0
 40
0.125
 41
0.0
 71
     2
 72
     1
  1
AB
  7
SLDTEXTSTYLE1
 73
     1
 44
1.0
  0
MTEXT
  5
161
330
1F
100
AcDbEntity
  8
TITLE
100
AcDbMText
 10
0.3263258985060407
 20
44.74916928310017
 30
0.0
 40
0.125
 41
0.0
 71
     2
 72
     1
  1
AC
  7
SLDTEXTSTYLE1
 73
     1
 44
1.0
  0
MTEXT
  5
162
330
1F
100
AcDbEntity
  8
TITLE
100
AcDbMText
 10
89.66097156779738
 20
44.74916928310017
 30
0.0
 40
0.125
 41
0.0
 71
     2
 72
     1
  1
AC
  7
SLDTEXTSTYLE1
 73
     1
 44
1.0
  0
MTEXT
  5
163
330
1F
100
AcDbEntity
  8
TITLE
100
AcDbMText
 10
0.3261378196574102
 20
46.65664959806079
 30
0.0
 40
0.125
 41
0.0
 71
     2
 72
     1
  1
AD
  7
SLDTEXTSTYLE1
 73
     1
 44
1.0
  0
MTEXT
  5
164
330
1F
100
AcDbEntity
  8
TITLE
100
AcDbMText
 10
89.66078348894874
 20
46.6566495980608
 30
0.0
 40
0.125
 41
0.0
 71
     2
 72
     1
  1
AD
  7
SLDTEXTSTYLE1
 73
     1
 44
1.0
  0
MTEXT
  5
165
330
1F
100
AcDbEntity
  8
TITLE
100
AcDbMText
 10
1.093939331543491
 20
0.4125551098718104
 30
0.0
 40
0.125
 41
0.0
 71
     2
 72
     1
  1
46
  7
SLDTEXTSTYLE1
 73
     1
 44
1.0
  0
MTEXT
  5
166
330
1F
100
AcDbEntity
  8
TITLE
100
AcDbMText
 10
1.093939331543491
 20
47.74720077916316
 30
0.0
 40
0.125
 41
0.0
 71
     2
 72
     1
  1
46
  7
SLDTEXTSTYLE1
 73
     1
 44
1.0
  0
MTEXT
  5
167
330
1F
100
AcDbEntity
  8
TITLE
100
AcDbMText
 10
2.674647992960813
 20
0.4125551098718104
 30
0.0
 40
0.125
 41
0.0
 71
     2
 72
     1
  1
45
  7
SLDTEXTSTYLE1
 73
     1
 44
1.0
  0
MTEXT
  5
168
330
1F
100
AcDbEntity
  8
TITLE
100
AcDbMText
 10
2.674647992960813
 20
47.74720077916316
 30
0.0
 40
0.125
 41
0.0
 71
     2
 72
     1
  1
45
  7
SLDTEXTSTYLE1
 73
     1
 44
1.0
  0
MTEXT
  5
169
330
1F
100
AcDbEntity
  8
TITLE
100
AcDbMText
 10
4.643151929968689
 20
0.4125551098718104
 30
0.0
 40
0.125
 41
0.0
 71
     2
 72
     1
  1
44
  7
SLDTEXTSTYLE1
 73
     1
 44
1.0
  0
MTEXT
  5
16A
330
1F
100
AcDbEntity
  8
TITLE
100
AcDbMText
 10
4.643151929968689
 20
47.74720077916316
 30
0.0
 40
0.125
 41
0.0
 71
     2
 72
     1
  1
44
  7
SLDTEXTSTYLE1
 73
     1
 44
1.0
  0
MTEXT
  5
16B
330
1F
100
AcDbEntity
  8
TITLE
100
AcDbMText
 10
6.611655866976564
 20
0.4125551098718104
 30
0.0
 40
0.125
 41
0.0
 71
     2
 72
     1
  1
43
  7
SLDTEXTSTYLE1
 73
     1
 44
1.0
  0
MTEXT
  5
16C
330
1F
100
AcDbEntity
  8
TITLE
100
AcDbMText
 10
6.611655866976562
 20
47.74720077916316
 30
0.0
 40
0.125
 41
0.0
 71
     2
 72
     1
  1
43
  7
SLDTEXTSTYLE1
 73
     1
 44
1.0
  0
MTEXT
  5
16D
330
1F
100
AcDbEntity
  8
TITLE
100
AcDbMText
 10
8.580159803984436
 20
0.4125551098718104
 30
0.0
 40
0.125
 41
0.0
 71
     2
 72
     1
  1
42
  7
SLDTEXTSTYLE1
 73
     1
 44
1.0
  0
MTEXT
  5
16E
330
1F
100
AcDbEntity
  8
TITLE
100
AcDbMText
 10
8.580159803984436
 20
47.74720077916316
 30
0.0
 40
0.125
 41
0.0
 71
     2
 72
     1
  1
42
  7
SLDTEXTSTYLE1
 73
     1
 44
1.0
  0
MTEXT
  5
16F
330
1F
100
AcDbEntity
  8
TITLE
100
AcDbMText
 10
10.54866374099231
 20
0.4125551098718104
 30
0.0
 40
0.125
 41
0.0
 71
     2
 72
     1
  1
41
  7
SLDTEXTSTYLE1
 73
     1
 44
1.0
  0
MTEXT
  5
170
330
1F
100
AcDbEntity
  8
TITLE
100
AcDbMText
 10
10.54866374099231
 20
47.74720077916316
 30
0.0
 40
0.125
 41
0.0
 71
     2
 72
     1
  1
41
  7
SLDTEXTSTYLE1
 73
     1
 44
1.0
  0
MTEXT
  5
171
330
1F
100
AcDbEntity
  8
TITLE
100
AcDbMText
 10
12.51716767800018
 20
0.4125551098718104
 30
0.0
 40
0.125
 41
0.0
 71
     2
 72
     1
  1
40
  7
SLDTEXTSTYLE1
 73
     1
 44
1.0
  0
MTEXT
  5
172
330
1F
100
AcDbEntity
  8
TITLE
100
AcDbMText
 10
12.51716767800018
 20
47.74720077916316
 30
0.0
 40
0.125
 41
0.0
 71
     2
 72
     1
  1
40
  7
SLDTEXTSTYLE1
 73
     1
 44
1.0
  0
MTEXT
  5
173
330
1F
100
AcDbEntity
  8
TITLE
100
AcDbMText
 10
14.48567161500806
 20
0.4125551098718104
 30
0.0
 40
0.125
 41
0.0
 71
     2
 72
     1
  1
39
  7
SLDTEXTSTYLE1
 73
     1
 44
1.0
  0
MTEXT
  5
174
330
1F
100
AcDbEntity
  8
TITLE
100
AcDbMText
 10
14.48567161500806
 20
47.74720077916316
 30
0.0
 40
0.125
 41
0.0
 71
     2
 72
     1
  1
39
  7
SLDTEXTSTYLE1
 73
     1
 44
1.0
  0
MTEXT
  5
175
330
1F
100
AcDbEntity
  8
TITLE
100
AcDbMText
 10
16.45417555201593
 20
0.4125551098718105
 30
0.0
 40
0.125
 41
0.0
 71
     2
 72
     1
  1
38
  7
SLDTEXTSTYLE1
 73
     1
 44
1.0
  0
MTEXT
  5
176
330
1F
100
AcDbEntity
  8
TITLE
100
AcDbMText
 10
16.45417555201593
 20
47.74720077916316
 30
0.0
 40
0.125
 41
0.0
 71
     2
 72
     1
  1
38
  7
SLDTEXTSTYLE1
 73
     1
 44
1.0
  0
MTEXT
  5
177
330
1F
100
AcDbEntity
  8
TITLE
100
AcDbMText
 10
18.42267948902381
 20
0.4125551098718104
 30
0.0
 40
0.125
 41
0.0
 71
     2
 72
     1
  1
37
  7
SLDTEXTSTYLE1
 73
     1
 44
1.0
  0
MTEXT
  5
178
330
1F
100
AcDbEntity
  8
TITLE
100
AcDbMText
 10
18.42267948902381
 20
47.74720077916316
 30
0.0
 40
0.125
 41
0.0
 71
     2
 72
     1
  1
37
  7
SLDTEXTSTYLE1
 73
     1
 44
1.0
  0
MTEXT
  5
179
330
1F
100
AcDbEntity
  8
TITLE
100
AcDbMText
 10
20.39118342603168
 20
0.4125551098718104
 30
0.0
 40
0.125
 41
0.0
 71
     2
 72
     1
  1
36
  7
SLDTEXTSTYLE1
 73
     1
 44
1.0
  0
MTEXT
  5
17A
330
1F
100
AcDbEntity
  8
TITLE
100
AcDbMText
 10
20.39118342603168
 20
47.74720077916315
 30
0.0
 40
0.125
 41
0.0
 71
     2
 72
     1
  1
36
  7
SLDTEXTSTYLE1
 73
     1
 44
1.0
  0
MTEXT
  5
17B
330
1F
100
AcDbEntity
  8
TITLE
100
AcDbMText
 10
22.35968736303955
 20
0.4125551098718104
 30
0.0
 40
0.125
 41
0.0
 71
     2
 72
     1
  1
35
  7
SLDTEXTSTYLE1
 73
     1
 44
1.0
  0
MTEXT
  5
17C
330
1F
100
AcDbEntity
  8
TITLE
100
AcDbMText
 10
22.35968736303955
 20
47.74720077916316
 30
0.0
 40
0.125
 41
0.0
 71
     2
 72
     1
  1
35
  7
SLDTEXTSTYLE1
 73
     1
 44
1.0
  0
MTEXT
  5
17D
330
1F
100
AcDbEntity
  8
TITLE
100
AcDbMText
 10
24.32819130004744
 20
0.4125551098718104
 30
0.0
 40
0.125
 41
0.0
 71
     2
 72
     1
  1
34
  7
SLDTEXTSTYLE1
 73
     1
 44
1.0
  0
MTEXT
  5
17E
330
1F
100
AcDbEntity
  8
TITLE
100
AcDbMText
 10
24.32819130004743
 20
47.74720077916316
 30
0.0
 40
0.125
 41
0.0
 71
     2
 72
     1
  1
34
  7
SLDTEXTSTYLE1
 73
     1
 44
1.0
  0
MTEXT
  5
17F
330
1F
100
AcDbEntity
  8
TITLE
100
AcDbMText
 10
26.29669523705531
 20
0.4125551098718104
 30
0.0
 40
0.125
 41
0.0
 71
     2
 72
     1
  1
33
  7
SLDTEXTSTYLE1
 73
     1
 44
1.0
  0
MTEXT
  5
180
330
1F
100
AcDbEntity
  8
TITLE
100
AcDbMText
 10
26.29669523705531
 20
47.74720077916316
 30
0.0
 40
0.125
 41
0.0
 71
     2
 72
     1
  1
33
  7
SLDTEXTSTYLE1
 73
     1
 44
1.0
  0
MTEXT
  5
181
330
1F
100
AcDbEntity
  8
TITLE
100
AcDbMText
 10
28.26519917406318
 20
0.4125551098718104
 30
0.0
 40
0.125
 41
0.0
 71
     2
 72
     1
  1
32
  7
SLDTEXTSTYLE1
 73
     1
 44
1.0
  0
MTEXT
  5
182
330
1F
100
AcDbEntity
  8
TITLE
100
AcDbMText
 10
28.26519917406318
 20
47.74720077916316
 30
0.0
 40
0.125
 41
0.0
 71
     2
 72
     1
  1
32
  7
SLDTEXTSTYLE1
 73
     1
 44
1.0
  0
MTEXT
  5
183
330
1F
100
AcDbEntity
  8
TITLE
100
AcDbMText
 10
30.23370311107105
 20
0.4125551098718104
 30
0.0
 40
0.125
 41
0.0
 71
     2
 72
     1
  1
31
  7
SLDTEXTSTYLE1
 73
     1
 44
1.0
  0
MTEXT
  5
184
330
1F
100
AcDbEntity
  8
TITLE
100
AcDbMText
 10
30.23370311107106
 20
47.74720077916316
 30
0.0
 40
0.125
 41
0.0
 71
     2
 72
     1
  1
31
  7
SLDTEXTSTYLE1
 73
     1
 44
1.0
  0
MTEXT
  5
185
330
1F
100
AcDbEntity
  8
TITLE
100
AcDbMText
 10
32.20220704807893
 20
0.4125551098718104
 30
0.0
 40
0.125
 41
0.0
 71
     2
 72
     1
  1
30
  7
SLDTEXTSTYLE1
 73
     1
 44
1.0
  0
MTEXT
  5
186
330
1F
100
AcDbEntity
  8
TITLE
100
AcDbMText
 10
32.20220704807893
 20
47.74720077916316
 30
0.0
 40
0.125
 41
0.0
 71
     2
 72
     1
  1
30
  7
SLDTEXTSTYLE1
 73
     1
 44
1.0
  0
MTEXT
  5
187
330
1F
100
AcDbEntity
  8
TITLE
100
AcDbMText
 10
34.1707109850868
 20
0.4125551098718104
 30
0.0
 40
0.125
 41
0.0
 71
     2
 72
     1
  1
29
  7
SLDTEXTSTYLE1
 73
     1
 44
1.0
  0
MTEXT
  5
188
330
1F
100
AcDbEntity
  8
TITLE
100
AcDbMText
 10
34.1707109850868
 20
47.74720077916316
 30
0.0
 40
0.125
 41
0.0
 71
     2
 72
     1
  1
29
  7
SLDTEXTSTYLE1
 73
     1
 44
1.0
  0
MTEXT
  5
189
330
1F
100
AcDbEntity
  8
TITLE
100
AcDbMText
 10
36.13921492209468
 20
0.4125551098718104
 30
0.0
 40
0.125
 41
0.0
 71
     2
 72
     1
  1
28
  7
SLDTEXTSTYLE1
 73
     1
 44
1.0
  0
MTEXT
  5
18A
330
1F
100
AcDbEntity
  8
TITLE
100
AcDbMText
 10
36.13921492209468
 20
47.74720077916316
 30
0.0
 40
0.125
 41
0.0
 71
     2
 72
     1
  1
28
  7
SLDTEXTSTYLE1
 73
     1
 44
1.0
  0
MTEXT
  5
18B
330
1F
100
AcDbEntity
  8
TITLE
100
AcDbMText
 10
38.10771885910255
 20
0.4125551098718104
 30
0.0
 40
0.125
 41
0.0
 71
     2
 72
     1
  1
27
  7
SLDTEXTSTYLE1
 73
     1
 44
1.0
  0
MTEXT
  5
18C
330
1F
100
AcDbEntity
  8
TITLE
100
AcDbMText
 10
38.10771885910255
 20
47.74720077916316
 30
0.0
 40
0.125
 41
0.0
 71
     2
 72
     1
  1
27
  7
SLDTEXTSTYLE1
 73
     1
 44
1.0
  0
MTEXT
  5
18D
330
1F
100
AcDbEntity
  8
TITLE
100
AcDbMText
 10
40.07622279611042
 20
0.4125551098718104
 30
0.0
 40
0.125
 41
0.0
 71
     2
 72
     1
  1
26
  7
SLDTEXTSTYLE1
 73
     1
 44
1.0
  0
MTEXT
  5
18E
330
1F
100
AcDbEntity
  8
TITLE
100
AcDbMText
 10
40.07622279611042
 20
47.74720077916316
 30
0.0
 40
0.125
 41
0.0
 71
     2
 72
     1
  1
26
  7
SLDTEXTSTYLE1
 73
     1
 44
1.0
  0
MTEXT
  5
18F
330
1F
100
AcDbEntity
  8
TITLE
100
AcDbMText
 10
42.0447267331183
 20
0.4125551098718105
 30
0.0
 40
0.125
 41
0.0
 71
     2
 72
     1
  1
25
  7
SLDTEXTSTYLE1
 73
     1
 44
1.0
  0
MTEXT
  5
190
330
1F
100
AcDbEntity
  8
TITLE
100
AcDbMText
 10
42.0447267331183
 20
47.74720077916316
 30
0.0
 40
0.125
 41
0.0
 71
     2
 72
     1
  1
25
  7
SLDTEXTSTYLE1
 73
     1
 44
1.0
  0
MTEXT
  5
191
330
1F
100
AcDbEntity
  8
TITLE
100
AcDbMText
 10
44.01323067012616
 20
0.4125551098718104
 30
0.0
 40
0.125
 41
0.0
 71
     2
 72
     1
  1
24
  7
SLDTEXTSTYLE1
 73
     1
 44
1.0
  0
MTEXT
  5
192
330
1F
100
AcDbEntity
  8
TITLE
100
AcDbMText
 10
44.01323067012617
 20
47.74720077916316
 30
0.0
 40
0.125
 41
0.0
 71
     2
 72
     1
  1
24
  7
SLDTEXTSTYLE1
 73
     1
 44
1.0
  0
MTEXT
  5
193
330
1F
100
AcDbEntity
  8
TITLE
100
AcDbMText
 10
45.98173460713405
 20
0.4125551098718104
 30
0.0
 40
0.125
 41
0.0
 71
     2
 72
     1
  1
23
  7
SLDTEXTSTYLE1
 73
     1
 44
1.0
  0
MTEXT
  5
194
330
1F
100
AcDbEntity
  8
TITLE
100
AcDbMText
 10
45.98173460713405
 20
47.74720077916316
 30
0.0
 40
0.125
 41
0.0
 71
     2
 72
     1
  1
23
  7
SLDTEXTSTYLE1
 73
     1
 44
1.0
  0
MTEXT
  5
195
330
1F
100
AcDbEntity
  8
TITLE
100
AcDbMText
 10
47.95023854414192
 20
0.4125551098718105
 30
0.0
 40
0.125
 41
0.0
 71
     2
 72
     1
  1
22
  7
SLDTEXTSTYLE1
 73
     1
 44
1.0
  0
MTEXT
  5
196
330
1F
100
AcDbEntity
  8
TITLE
100
AcDbMText
 10
47.95023854414192
 20
47.74720077916317
 30
0.0
 40
0.125
 41
0.0
 71
     2
 72
     1
  1
22
  7
SLDTEXTSTYLE1
 73
     1
 44
1.0
  0
MTEXT
  5
197
330
1F
100
AcDbEntity
  8
TITLE
100
AcDbMText
 10
49.91874248114981
 20
0.4125551098718104
 30
0.0
 40
0.125
 41
0.0
 71
     2
 72
     1
  1
21
  7
SLDTEXTSTYLE1
 73
     1
 44
1.0
  0
MTEXT
  5
198
330
1F
100
AcDbEntity
  8
TITLE
100
AcDbMText
 10
49.91874248114981
 20
47.74720077916316
 30
0.0
 40
0.125
 41
0.0
 71
     2
 72
     1
  1
21
  7
SLDTEXTSTYLE1
 73
     1
 44
1.0
  0
MTEXT
  5
199
330
1F
100
AcDbEntity
  8
TITLE
100
AcDbMText
 10
51.88724641815767
 20
0.4125551098718104
 30
0.0
 40
0.125
 41
0.0
 71
     2
 72
     1
  1
20
  7
SLDTEXTSTYLE1
 73
     1
 44
1.0
  0
MTEXT
  5
19A
330
1F
100
AcDbEntity
  8
TITLE
100
AcDbMText
 10
51.88724641815767
 20
47.74720077916315
 30
0.0
 40
0.125
 41
0.0
 71
     2
 72
     1
  1
20
  7
SLDTEXTSTYLE1
 73
     1
 44
1.0
  0
MTEXT
  5
19B
330
1F
100
AcDbEntity
  8
TITLE
100
AcDbMText
 10
53.85575035516554
 20
0.4125551098718104
 30
0.0
 40
0.125
 41
0.0
 71
     2
 72
     1
  1
19
  7
SLDTEXTSTYLE1
 73
     1
 44
1.0
  0
MTEXT
  5
19C
330
1F
100
AcDbEntity
  8
TITLE
100
AcDbMText
 10
53.85575035516554
 20
47.74720077916316
 30
0.0
 40
0.125
 41
0.0
 71
     2
 72
     1
  1
19
  7
SLDTEXTSTYLE1
 73
     1
 44
1.0
  0
MTEXT
  5
19D
330
1F
100
AcDbEntity
  8
TITLE
100
AcDbMText
 10
55.82425429217342
 20
0.4125551098718104
 30
0.0
 40
0.125
 41
0.0
 71
     2
 72
     1
  1
18
  7
SLDTEXTSTYLE1
 73
     1
 44
1.0
  0
MTEXT
  5
19E
330
1F
100
AcDbEntity
  8
TITLE
100
AcDbMText
 10
55.82425429217341
 20
47.74720077916316
 30
0.0
 40
0.125
 41
0.0
 71
     2
 72
     1
  1
18
  7
SLDTEXTSTYLE1
 73
     1
 44
1.0
  0
MTEXT
  5
19F
330
1F
100
AcDbEntity
  8
TITLE
100
AcDbMText
 10
57.79275822918129
 20
0.4125551098718104
 30
0.0
 40
0.125
 41
0.0
 71
     2
 72
     1
  1
17
  7
SLDTEXTSTYLE1
 73
     1
 44
1.0
  0
MTEXT
  5
1A0
330
1F
100
AcDbEntity
  8
TITLE
100
AcDbMText
 10
57.79275822918129
 20
47.74720077916316
 30
0.0
 40
0.125
 41
0.0
 71
     2
 72
     1
  1
17
  7
SLDTEXTSTYLE1
 73
     1
 44
1.0
  0
MTEXT
  5
1A1
330
1F
100
AcDbEntity
  8
TITLE
100
AcDbMText
 10
59.76126216618918
 20
0.4125551098718104
 30
0.0
 40
0.125
 41
0.0
 71
     2
 72
     1
  1
16
  7
SLDTEXTSTYLE1
 73
     1
 44
1.0
  0
MTEXT
  5
1A2
330
1F
100
AcDbEntity
  8
TITLE
100
AcDbMText
 10
59.76126216618918
 20
47.74720077916316
 30
0.0
 40
0.125
 41
0.0
 71
     2
 72
     1
  1
16
  7
SLDTEXTSTYLE1
 73
     1
 44
1.0
  0
MTEXT
  5
1A3
330
1F
100
AcDbEntity
  8
TITLE
100
AcDbMText
 10
61.72976610319703
 20
0.4125551098718104
 30
0.0
 40
0.125
 41
0.0
 71
     2
 72
     1
  1
15
  7
SLDTEXTSTYLE1
 73
     1
 44
1.0
  0
MTEXT
  5
1A4
330
1F
100
AcDbEntity
  8
TITLE
100
AcDbMText
 10
61.72976610319704
 20
47.74720077916316
 30
0.0
 40
0.125
 41
0.0
 71
     2
 72
     1
  1
15
  7
SLDTEXTSTYLE1
 73
     1
 44
1.0
  0
MTEXT
  5
1A5
330
1F
100
AcDbEntity
  8
TITLE
100
AcDbMText
 10
63.69827004020492
 20
0.4125551098718105
 30
0.0
 40
0.125
 41
0.0
 71
     2
 72
     1
  1
14
  7
SLDTEXTSTYLE1
 73
     1
 44
1.0
  0
MTEXT
  5
1A6
330
1F
100
AcDbEntity
  8
TITLE
100
AcDbMText
 10
63.69827004020491
 20
47.74720077916316
 30
0.0
 40
0.125
 41
0.0
 71
     2
 72
     1
  1
14
  7
SLDTEXTSTYLE1
 73
     1
 44
1.0
  0
MTEXT
  5
1A7
330
1F
100
AcDbEntity
  8
TITLE
100
AcDbMText
 10
65.6667739772128
 20
0.4125551098718104
 30
0.0
 40
0.125
 41
0.0
 71
     2
 72
     1
  1
13
  7
SLDTEXTSTYLE1
 73
     1
 44
1.0
  0
MTEXT
  5
1A8
330
1F
100
AcDbEntity
  8
TITLE
100
AcDbMText
 10
65.6667739772128
 20
47.74720077916316
 30
0.0
 40
0.125
 41
0.0
 71
     2
 72
     1
  1
13
  7
SLDTEXTSTYLE1
 73
     1
 44
1.0
  0
MTEXT
  5
1A9
330
1F
100
AcDbEntity
  8
TITLE
100
AcDbMText
 10
67.63527791422067
 20
0.4125551098718104
 30
0.0
 40
0.125
 41
0.0
 71
     2
 72
     1
  1
12
  7
SLDTEXTSTYLE1
 73
     1
 44
1.0
  0
MTEXT
  5
1AA
330
1F
100
AcDbEntity
  8
TITLE
100
AcDbMText
 10
67.63527791422067
 20
47.74720077916316
 30
0.0
 40
0.125
 41
0.0
 71
     2
 72
     1
  1
12
  7
SLDTEXTSTYLE1
 73
     1
 44
1.0
  0
MTEXT
  5
1AB
330
1F
100
AcDbEntity
  8
TITLE
100
AcDbMText
 10
69.60378185122853
 20
0.4125551098718104
 30
0.0
 40
0.125
 41
0.0
 71
     2
 72
     1
  1
11
  7
SLDTEXTSTYLE1
 73
     1
 44
1.0
  0
MTEXT
  5
1AC
330
1F
100
AcDbEntity
  8
TITLE
100
AcDbMText
 10
69.60378185122855
 20
47.74720077916316
 30
0.0
 40
0.125
 41
0.0
 71
     2
 72
     1
  1
11
  7
SLDTEXTSTYLE1
 73
     1
 44
1.0
  0
MTEXT
  5
1AD
330
1F
100
AcDbEntity
  8
TITLE
100
AcDbMText
 10
71.57228578823641
 20
0.4125551098718104
 30
0.0
 40
0.125
 41
0.0
 71
     2
 72
     1
  1
10
  7
SLDTEXTSTYLE1
 73
     1
 44
1.0
  0
MTEXT
  5
1AE
330
1F
100
AcDbEntity
  8
TITLE
100
AcDbMText
 10
71.57228578823641
 20
47.74720077916316
 30
0.0
 40
0.125
 41
0.0
 71
     2
 72
     1
  1
10
  7
SLDTEXTSTYLE1
 73
     1
 44
1.0
  0
MTEXT
  5
1AF
330
1F
100
AcDbEntity
  8
TITLE
100
AcDbMText
 10
73.54204840592922
 20
0.4125551098718104
 30
0.0
 40
0.125
 41
0.0
 71
     2
 72
     1
  1
9
  7
SLDTEXTSTYLE1
 73
     1
 44
1.0
  0
MTEXT
  5
1B0
330
1F
100
AcDbEntity
  8
TITLE
100
AcDbMText
 10
73.54204840592922
 20
47.74720077916316
 30
0.0
 40
0.125
 41
0.0
 71
     2
 72
     1
  1
9
  7
SLDTEXTSTYLE1
 73
     1
 44
1.0
  0
MTEXT
  5
1B1
330
1F
100
AcDbEntity
  8
TITLE
100
AcDbMText
 10
75.5105523429371
 20
0.4125551098718104
 30
0.0
 40
0.125
 41
0.0
 71
     2
 72
     1
  1
8
  7
SLDTEXTSTYLE1
 73
     1
 44
1.0
  0
MTEXT
  5
1B2
330
1F
100
AcDbEntity
  8
TITLE
100
AcDbMText
 10
75.5105523429371
 20
47.74720077916316
 30
0.0
 40
0.125
 41
0.0
 71
     2
 72
     1
  1
8
  7
SLDTEXTSTYLE1
 73
     1
 44
1.0
  0
MTEXT
  5
1B3
330
1F
100
AcDbEntity
  8
TITLE
100
AcDbMText
 10
77.47905627994498
 20
0.4125551098718105
 30
0.0
 40
0.125
 41
0.0
 71
     2
 72
     1
  1
7
  7
SLDTEXTSTYLE1
 73
     1
 44
1.0
  0
MTEXT
  5
1B4
330
1F
100
AcDbEntity
  8
TITLE
100
AcDbMText
 10
77.47905627994497
 20
47.74720077916316
 30
0.0
 40
0.125
 41
0.0
 71
     2
 72
     1
  1
7
  7
SLDTEXTSTYLE1
 73
     1
 44
1.0
  0
MTEXT
  5
1B5
330
1F
100
AcDbEntity
  8
TITLE
100
AcDbMText
 10
79.44756021695287
 20
0.4125551098718104
 30
0.0
 40
0.125
 41
0.0
 71
     2
 72
     1
  1
6
  7
SLDTEXTSTYLE1
 73
     1
 44
1.0
  0
MTEXT
  5
1B6
330
1F
100
AcDbEntity
  8
TITLE
100
AcDbMText
 10
79.44756021695287
 20
47.74720077916316
 30
0.0
 40
0.125
 41
0.0
 71
     2
 72
     1
  1
6
  7
SLDTEXTSTYLE1
 73
     1
 44
1.0
  0
MTEXT
  5
1B7
330
1F
100
AcDbEntity
  8
TITLE
100
AcDbMText
 10
81.41606415396073
 20
0.4125551098718105
 30
0.0
 40
0.125
 41
0.0
 71
     2
 72
     1
  1
5
  7
SLDTEXTSTYLE1
 73
     1
 44
1.0
  0
MTEXT
  5
1B8
330
1F
100
AcDbEntity
  8
TITLE
100
AcDbMText
 10
81.41606415396073
 20
47.74720077916316
 30
0.0
 40
0.125
 41
0.0
 71
     2
 72
     1
  1
5
  7
SLDTEXTSTYLE1
 73
     1
 44
1.0
  0
MTEXT
  5
1B9
330
1F
100
AcDbEntity
  8
TITLE
100
AcDbMText
 10
83.3845680909686
 20
0.4125551098718104
 30
0.0
 40
0.125
 41
0.0
 71
     2
 72
     1
  1
4
  7
SLDTEXTSTYLE1
 73
     1
 44
1.0
  0
MTEXT
  5
1BA
330
1F
100
AcDbEntity
  8
TITLE
100
AcDbMText
 10
83.3845680909686
 20
47.74720077916316
 30
0.0
 40
0.125
 41
0.0
 71
     2
 72
     1
  1
4
  7
SLDTEXTSTYLE1
 73
     1
 44
1.0
  0
MTEXT
  5
1BB
330
1F
100
AcDbEntity
  8
TITLE
100
AcDbMText
 10
85.35307202797648
 20
0.4125551098718104
 30
0.0
 40
0.125
 41
0.0
 71
     2
 72
     1
  1
3
  7
SLDTEXTSTYLE1
 73
     1
 44
1.0
  0
MTEXT
  5
1BC
330
1F
100
AcDbEntity
  8
TITLE
100
AcDbMText
 10
85.35307202797648
 20
47.74720077916316
 30
0.0
 40
0.125
 41
0.0
 71
     2
 72
     1
  1
3
  7
SLDTEXTSTYLE1
 73
     1
 44
1.0
  0
MTEXT
  5
1BD
330
1F
100
AcDbEntity
  8
TITLE
100
AcDbMText
 10
87.32157596498435
 20
0.4125551098718104
 30
0.0
 40
0.125
 41
0.0
 71
     2
 72
     1
  1
2
  7
SLDTEXTSTYLE1
 73
     1
 44
1.0
  0
MTEXT
  5
1BE
330
1F
100
AcDbEntity
  8
TITLE
100
AcDbMText
 10
87.32157596498435
 20
47.74720077916316
 30
0.0
 40
0.125
 41
0.0
 71
     2
 72
     1
  1
2
  7
SLDTEXTSTYLE1
 73
     1
 44
1.0
  0
MTEXT
  5
1BF
330
1F
100
AcDbEntity
  8
TITLE
100
AcDbMText
 10
88.90228462640165
 20
0.4125551098718104
 30
0.0
 40
0.125
 41
0.0
 71
     2
 72
     1
  1
1
  7
SLDTEXTSTYLE1
 73
     1
 44
1.0
  0
MTEXT
  5
1C0
330
1F
100
AcDbEntity
  8
TITLE
100
AcDbMText
 10
88.90228462640168
 20
47.74720077916316
 30
0.0
 40
0.125
 41
0.0
 71
     2
 72
     1
  1
1
  7
SLDTEXTSTYLE1
 73
     1
 44
1.0
  0
LINE
  5
1C1
330
1F
100
AcDbEntity
  8
0
  6
SLD-Solid
 62
     7
370
    25
100
AcDbLine
 10
8.54890563739378
 20
17.3132572807099
 30
0.0
 11
7.048905637393778
 21
17.3132572807099
 31
0.0
  0
LINE
  5
1C2
330
1F
100
AcDbEntity
  8
0
  6
SLD-Solid
 62
     7
370
    25
100
AcDbLine
 10
7.048905637393778
 20
16.0632572807099
 30
0.0
 11
8.54890563739378
 21
16.0632572807099
 31
0.0
  0
LINE
  5
1C3
330
1F
100
AcDbEntity
  8
0
  6
SLD-Solid
 62
     7
370
    25
100
AcDbLine
 10
8.54890563739378
 20
16.0632572807099
 30
0.0
 11
41.54890563739379
 21
16.0632572807099
 31
0.0
  0
LINE
  5
1C4
330
1F
100
AcDbEntity
  8
0
  6
SLD-Solid
 62
     7
370
    25
100
AcDbLine
 10
41.54890563739379
 20
17.3132572807099
 30
0.0
 11
8.54890563739378
 21
17.3132572807099
 31
0.0
  0
LINE
  5
1C5
330
1F
100
AcDbEntity
  8
0
  6
SLD-Solid
 62
     7
370
    25
100
AcDbLine
 10
43.04890563739378
 20
17.3132572807099
 30
0.0
 11
41.54890563739379
 21
17.3132572807099
 31
0.0
  0
LINE
  5
1C6
330
1F
100
AcDbEntity
  8
0
  6
SLD-Solid
 62
     7
370
    25
100
AcDbLine
 10
41.54890563739379
 20
16.0632572807099
 30
0.0
 11
43.04890563739378
 21
16.0632572807099
 31
0.0
  0
ARC
  5
1C7
330
1F
100
AcDbEntity
  8
0
  6
SLD-Solid
 62
     7
370
    25
100
AcDbCircle
 10
7.048905637393778
 20
16.6882572807099
 30
0.0
 40
0.625
100
AcDbArc
 50
90.0
 51
270.0000000000008
  0
ARC
  5
1C8
330
1F
100
AcDbEntity
  8
0
  6
SLD-Solid
 62
     7
370
    25
100
AcDbCircle
 10
43.04890563739378
 20
16.6882572807099
 30
0.0
 40
0.625
100
AcDbArc
 50
270.0000000000008
 51
90.0
  0
ARC
  5
1C9
330
1F
100
AcDbEntity
  8
0
  6
SLD-Solid
 62
     7
370
    25
100
AcDbCircle
 10
43.04890563739378
 20
16.6882572807099
 30
0.0
 40
0.6552474081942634
100
AcDbArc
 50
252.5231148986339
 51
90.0
  0
ARC
  5
1CA
330
1F
100
AcDbEntity
  8
0
  6
SLD-Solid
 62
     7
370
    25
100
AcDbCircle
 10
43.04890563739378
 20
16.6882572807099
 30
0.0
 40
0.6552474081942634
100
AcDbArc
 50
90.0
 51
107.4768851013669
  0
ARC
  5
1CB
330
1F
100
AcDbEntity
  8
0
  6
SLD-Solid
 62
     7
370
    25
100
AcDbCircle
 10
7.048905637393778
 20
16.6882572807099
 30
0.0
 40
0.655247408194267
100
AcDbArc
 50
72.52311489863314
 51
270.0000000000008
  0
ARC
  5
1CC
330
1F
100
AcDbEntity
  8
0
  6
SLD-Solid
 62
     7
370
    25
100
AcDbCircle
 10
7.048905637393778
 20
16.6882572807099
 30
0.0
 40
0.655247408194267
100
AcDbArc
 50
270.0000000000008
 51
287.4768851013676
  0
ARC
  5
1CD
330
1F
100
AcDbEntity
  8
0
  6
SLD-Solid
 62
     7
370
    25
100
AcDbCircle
 10
7.048905637393778
 20
16.6882572807099
 30
0.0
 40
0.6799999999999998
100
AcDbArc
 50
66.79742694276354
 51
293.2025730572371
  0
ARC
  5
1CE
330
1F
100
AcDbEntity
  8
0
  6
SLD-Solid
 62
     7
370
    25
100
AcDbCircle
 10
7.048905637393778
 20
16.6882572807099
 30
0.0
 40
1.565097172078316
100
AcDbArc
 50
228.9403361979505
 51
336.4633106029777
  0
ARC
  5
1CF
330
1F
100
AcDbEntity
  8
0
  6
SLD-Solid
 62
     7
370
    25
100
AcDbCircle
 10
7.048905637393778
 20
16.6882572807099
 30
0.0
 40
1.565097172078316
100
AcDbArc
 50
23.53668939702298
 51
228.9403361979505
  0
ARC
  5
1D0
330
1F
100
AcDbEntity
  8
0
  6
SLD-Solid
 62
     7
370
    25
100
AcDbCircle
 10
43.04890563739378
 20
16.6882572807099
 30
0.0
 40
0.6799999999999988
100
AcDbArc
 50
41.51141791336103
 51
113.2025730572363
  0
ARC
  5
1D1
330
1F
100
AcDbEntity
  8
0
  6
SLD-Solid
 62
     7
370
    25
100
AcDbCircle
 10
43.04890563739378
 20
16.6882572807099
 30
0.0
 40
0.6799999999999988
100
AcDbArc
 50
246.7974269427647
 51
41.51141791336103
  0
ARC
  5
1D2
330
1F
100
AcDbEntity
  8
0
  6
SLD-Solid
 62
     7
370
    25
100
AcDbCircle
 10
43.04890563739378
 20
16.6882572807099
 30
0.0
 40
1.565097172078316
100
AcDbArc
 50
221.5114179133617
 51
156.4633106029771
  0
ARC
  5
1D3
330
1F
100
AcDbEntity
  8
0
  6
SLD-Solid
 62
     7
370
    25
100
AcDbCircle
 10
43.04890563739378
 20
16.6882572807099
 30
0.0
 40
1.565097172078316
100
AcDbArc
 50
203.5366893970238
 51
221.5114179133617
  0
DIMENSION
  5
1E7
330
1F
100
AcDbEntity
  8
DIMS
100
AcDbDimension
  2
_D_1
 10
39.24552636640028
 20
16.0632572807099
 30
0.0
 11
39.24552636640028
 21
18.7075649227027
 31
0.0
 70
    32
  1
<>
 71
     2
 42
-1.0
  3
SLDDIMSTYLE1
100
AcDbAlignedDimension
 13
41.54890563739379
 23
17.3132572807099
 33
0.0
 14
41.54890563739379
 24
16.0632572807099
 34
0.0
 50
90.0000000000002
100
AcDbRotatedDimension
  0
DIMENSION
  5
1F7
330
1F
100
AcDbEntity
  8
DIMS
100
AcDbDimension
  2
_D_2
 10
7.048905637393775
 20
21.18100197549374
 30
0.0
 11
26.36027909881079
 21
21.18100197549375
 31
0.0
 70
    32
  1
<>
 71
     2
 42
-1.0
  3
SLDDIMSTYLE0
100
AcDbAlignedDimension
 13
43.04890563739378
 23
16.6882572807099
 33
0.0
 14
7.048905637393778
 24
16.6882572807099
 34
0.0
 50
0.0000000000000452
100
AcDbRotatedDimension
  0
MTEXT
  5
202
330
1F
100
AcDbEntity
  8
NOTES
100
AcDbMText
 10
5.399972155016971
 20
14.94087946251716
 30
0.0
 40
0.5
 41
0.0
 71
     1
 72
     1
  1
Front view
  7
SLDTEXTSTYLE1
 73
     1
 44
1.0
  0
LINE
  5
203
330
1F
100
AcDbEntity
  8
0
  6
SLD-Solid
 62
     7
370
    25
100
AcDbLine
 10
51.4492760094962
 20
17.3132572807099
 30
0.0
 11
49.9492760094962
 21
17.3132572807099
 31
0.0
  0
LINE
  5
204
330
1F
100
AcDbEntity
  8
0
  6
SLD-Solid
 62
     7
370
    25
100
AcDbLine
 10
49.9492760094962
 20
16.0632572807099
 30
0.0
 11
51.4492760094962
 21
16.0632572807099
 31
0.0
  0
LINE
  5
205
330
1F
100
AcDbEntity
  8
0
  6
SLD-Solid
 62
     7
370
    25
100
AcDbLine
 10
51.4492760094962
 20
16.0632572807099
 30
0.0
 11
51.60633901089369
 21
16.0632572807099
 31
0.0
  0
LINE
  5
206
330
1F
100
AcDbEntity
  8
0
  6
SLD-Solid
 62
     7
370
    25
100
AcDbLine
 10
51.60633901089369
 20
17.3132572807099
 30
0.0
 11
51.4492760094962
 21
17.3132572807099
 31
0.0
  0
LINE
  5
207
330
1F
100
AcDbEntity
  8
0
  6
SLD-Solid
 62
     7
370
    25
100
AcDbLine
 10
52.07305452711161
 20
18.25335445278822
 30
0.0
 11
51.65941953857505
 21
18.23891000069981
 31
0.0
  0
LINE
  5
208
330
1F
100
AcDbEntity
  8
0
  6
SLD-Solid
 62
     7
370
    25
100
AcDbLine
 10
51.65941953857505
 20
15.13760456071999
 30
0.0
 11
52.07305452711161
 21
15.12316010863159
 31
0.0
  0
LINE
  5
209
330
1F
100
AcDbEntity
  8
0
  6
SLD-Solid
 62
     7
370
    25
100
AcDbLine
 10
52.07305452711161
 20
15.12316010863159
 30
0.0
 11
52.07427600949619
 21
15.15813878757726
 31
0.0
  0
LINE
  5
20A
330
1F
100
AcDbEntity
  8
0
  6
SLD-Solid
 62
     7
370
    25
100
AcDbLine
 10
52.07427600949619
 20
18.21837577384255
 30
0.0
 11
52.07305452711161
 21
18.25335445278822
 31
0.0
  0
ARC
  5
20B
330
1F
100
AcDbEntity
  8
0
  6
SLD-Solid
 62
     7
370
    25
100
AcDbCircle
 10
51.66133901089369
 20
15.19257105620604
 30
0.0
 40
0.0550000000000005
100
AcDbArc
 50
180.0
 51
267.9999999999981
  0
ARC
  5
20C
330
1F
100
AcDbEntity
  8
0
  6
SLD-Solid
 62
     7
370
    25
100
AcDbCircle
 10
51.66133901089369
 20
18.18394350521376
 30
0.0
 40
0.0549999999999997
100
AcDbArc
 50
92.00000000000281
 51
180.0
  0
ARC
  5
20D
330
1F
100
AcDbEntity
  8
0
  6
SLD-Solid
 62
     7
370
    25
100
AcDbCircle
 10
49.9492760094962
 20
16.6882572807099
 30
0.0
 40
0.625
100
AcDbArc
 50
90.0
 51
270.0000000000008
  0
LINE
  5
20E
330
1F
100
AcDbEntity
  8
0
  6
SLD-Solid
 62
     7
370
    25
100
AcDbLine
 10
52.07305452711161
 20
15.12316010863159
 30
0.0
 11
52.07305452711161
 21
18.25335445278822
 31
0.0
  0
LINE
  5
20F
330
1F
100
AcDbEntity
  8
0
  6
SLD-Solid
 62
     7
370
    25
100
AcDbLine
 10
52.07427600949619
 20
15.15813878757726
 30
0.0
 11
52.07427600949619
 21
18.21837577384255
 31
0.0
  0
LINE
  5
210
330
1F
100
AcDbEntity
  8
0
  6
SLD-Solid
 62
     7
370
    25
100
AcDbLine
 10
51.60633901089369
 20
17.67955217343437
 30
0.0
 11
51.60633901089369
 21
18.18394350521376
 31
0.0
  0
LINE
  5
211
330
1F
100
AcDbEntity
  8
0
  6
SLD-Solid
 62
     7
370
    25
100
AcDbLine
 10
51.60633901089369
 20
15.19257105620604
 30
0.0
 11
51.60633901089369
 21
17.67955217343437
 31
0.0
  0
DIMENSION
  5
212
330
1F
100
AcDbEntity
  8
DIMS
100
AcDbDimension
  2
_D_3
 10
52.07427600949607
 20
19.52745866840706
 30
0.0
 11
50.8801029679043
 21
19.52745866840706
 31
0.0
 70
    32
  1
<>
 71
     2
 42
-1.0
  3
SLDDIMSTYLE2
100
AcDbAlignedDimension
 13
49.32427600949607
 23
16.6882572807099
 33
0.0
 14
52.07427600949607
 24
17.7031223651557
 34
0.0
100
AcDbRotatedDimension
  0
DIMENSION
  5
222
330
1F
100
AcDbEntity
  8
DIMS
100
AcDbDimension
  2
_D_4
 10
51.60633901089356
 20
18.63816835005421
 30
0.0
 11
54.04620705123241
 21
18.63816835005421
 31
0.0
 70
    32
  1
<>
 71
     2
 42
-1.0
  3
SLDDIMSTYLE1
100
AcDbAlignedDimension
 13
52.07427600949607
 23
18.1757572807099
 33
0.0
 14
51.60633901089356
 24
18.18394350521376
 34
0.0
100
AcDbRotatedDimension
  0
MTEXT
  5
230
330
1F
100
AcDbEntity
  8
NOTES
100
AcDbMText
 10
49.40128371801714
 20
14.19933279484445
 30
0.0
 40
0.5
 41
0.0
 71
     1
 72
     1
  1
side view
  7
SLDTEXTSTYLE1
 73
     1
 44
1.0
  0
SPLINE
  5
231
330
1F
100
AcDbEntity
  8
0
  6
SLD-Solid
 62
     7
370
    25
100
AcDbSpline
210
0.0
220
0.0
230
1.0
 70
    12
 71
     3
 72
    25
 73
    21
 74
     0
 42
0.00000001
 43
0.00000001
 40
0.0
 40
0.0
 40
0.0
 40
0.0
 40
0.0299263981434808
 40
0.0860295894238747
 40
0.1428761399335687
 40
0.2006677724135179
 40
0.2593456224579205
 40
0.3187975281041548
 40
0.3788792060917167
 40
0.4394288160407396
 40
0.5002759494010943
 40
0.5612468821272306
 40
0.6221383392496105
 40
0.6827498352033293
 40
0.7429153489000657
 40
0.8024795895351923
 40
0.8613065642802756
 40
0.9192936690600043
 40
0.9763932311445365
 40
1.0
 40
1.0
 40
1.0
 40
1.0
 10
83.99155215725203
 20
17.71762686797572
 30
0.0
 41
1.0
 10
83.98180565169594
 20
17.71215802041544
 30
0.0
 41
1.0
 10
83.95378731593466
 20
17.69643669277766
 30
0.0
 41
1.0
 10
83.89956904224547
 20
17.67053056919734
 30
0.0
 41
1.0
 10
83.82647730512016
 20
17.64137862497657
 30
0.0
 41
1.0
 10
83.74431659566069
 20
17.61467403907291
 30
0.0
 41
1.0
 10
83.65427185535086
 20
17.59139409001867
 30
0.0
 41
1.0
 10
83.55757695074156
 20
17.57237679756144
 30
0.0
 41
1.0
 10
83.45570132141651
 20
17.55829558227435
 30
0.0
 41
1.0
 10
83.35022319171568
 20
17.54964577231334
 30
0.0
 41
1.0
 10
83.24281263857563
 20
17.54674104927392
 30
0.0
 41
1.0
 10
83.13520684905882
 20
17.54970955135973
 30
0.0
 41
1.0
 10
83.02917698569301
 20
17.55848609815008
 30
0.0
 41
1.0
 10
82.92647507297
 20
17.57280640336655
 30
0.0
 41
1.0
 10
82.8287748319083
 20
17.59220915328335
 30
0.0
 41
1.0
 10
82.73765668540436
 20
17.61603603192453
 30
0.0
 41
1.0
 10
82.65450772034936
 20
17.64343240198533
 30
0.0
 41
1.0
 10
82.58074348625928
 20
17.67332913153614
 30
0.0
 41
1.0
 10
82.52894728803955
 20
17.69857385672521
 30
0.0
 41
1.0
 10
82.50282255893042
 20
17.7133150410482
 30
0.0
 41
1.0
 10
82.49518102158993
 20
17.71762686797572
 30
0.0
 41
1.0
  0
SPLINE
  5
232
330
1F
100
AcDbEntity
  8
0
  6
SLD-Solid
 62
     7
370
    25
100
AcDbSpline
210
0.0
220
0.0
230
1.0
 70
    12
 71
     3
 72
    26
 73
    22
 74
     0
 42
0.00000001
 43
0.00000001
 40
0.0
 40
0.0
 40
0.0
 40
0.0
 40
0.0315368870639625
 40
0.0870998342856346
 40
0.1426391836259023
 40
0.1981184970500378
 40
0.2534360463420811
 40
0.3085562758037053
 40
0.3634889875597636
 40
0.418272546508298
 40
0.472962209900678
 40
0.5276228392726334
 40
0.5823244460439987
 40
0.6371159357898161
 40
0.6920708862483951
 40
0.747261201290286
 40
0.8027528461509025
 40
0.8585984211468919
 40
0.9148246141790202
 40
0.9714127012306836
 40
1.0
 40
1.0
 40
1.0
 40
1.0
 10
81.8702318136924
 20
16.63506578999987
 30
0.0
 41
1.0
 10
81.89478695960776
 20
16.62129233949522
 30
0.0
 41
1.0
 10
81.96260434233643
 20
16.5832522737759
 30
0.0
 41
1.0
 10
82.07952106203703
 20
16.52742452020211
 30
0.0
 41
1.0
 10
82.22214973711914
 20
16.46985029422894
 30
0.0
 41
1.0
 10
82.37045306370929
 20
16.42053572928727
 30
0.0
 41
1.0
 10
82.5233443177638
 20
16.37940439257566
 30
0.0
 41
1.0
 10
82.67989107102284
 20
16.34653340252986
 30
0.0
 41
1.0
 10
82.83919893390922
 20
16.32191114733655
 30
0.0
 41
1.0
 10
83.00044613770699
 20
16.30552462881997
 30
0.0
 41
1.0
 10
83.16284600697144
 20
16.29735739423807
 30
0.0
 41
1.0
 10
83.32563630941787
 20
16.29740124007922
 30
0.0
 41
1.0
 10
83.48804564211757
 20
16.30565795365237
 30
0.0
 41
1.0
 10
83.64931339878463
 20
16.32213836705655
 30
0.0
 41
1.0
 10
83.80868664058983
 20
16.34686707360569
 30
0.0
 41
1.0
 10
83.96544107798938
 20
16.37988899646538
 30
0.0
 41
1.0
 10
84.11883075494828
 20
16.42128670472406
 30
0.0
 41
1.0
 10
84.2681253105466
 20
16.47112147134093
 30
0.0
 41
1.0
 10
84.41236320302299
 20
16.52964121365286
 30
0.0
 41
1.0
 10
84.52800152006431
 20
16.58530016612389
 30
0.0
 41
1.0
 10
84.59426233728553
 20
16.62256024160052
 30
0.0
 41
1.0
 10
84.61650136514957
 20
16.63506578999987
 30
0.0
 41
1.0
  0
LINE
  5
233
330
1F
100
AcDbEntity
  8
0
  6
SLD-Solid
 62
     7
370
    25
100
AcDbLine
 10
58.53570803453636
 20
30.10579963507459
 30
0.0
 11
81.8702318136924
 21
16.63506578999987
 31
0.0
  0
LINE
  5
234
330
1F
100
AcDbEntity
  8
0
  6
SLD-Solid
 62
     7
370
    25
100
AcDbLine
 10
82.49518102158993
 20
17.71762686797572
 30
0.0
 11
59.16065724243391
 21
31.18836071305044
 31
0.0
  0
LINE
  5
235
330
1F
100
AcDbEntity
  8
0
  6
SLD-Solid
 62
     7
370
    25
100
AcDbLine
 10
84.61650136514957
 20
16.63506578999987
 30
0.0
 11
84.86152684698432
 21
16.77651598981091
 31
0.0
  0
LINE
  5
236
330
1F
100
AcDbEntity
  8
0
  6
SLD-Solid
 62
     7
370
    25
100
AcDbLine
 10
84.23657763908679
 20
17.85907706778676
 30
0.0
 11
83.99155215725203
 21
17.71762686797572
 31
0.0
  0
SPLINE
  5
237
330
1F
100
AcDbEntity
  8
0
  6
SLD-Solid
 62
     7
370
    25
100
AcDbSpline
210
0.0
220
0.0
230
1.0
 70
    12
 71
     3
 72
    14
 73
    10
 74
     0
 42
0.00000001
 43
0.00000001
 40
0.0
 40
0.0
 40
0.0
 40
0.0
 40
0.0944995916446265
 40
0.2699489047179292
 40
0.4446274145234447
 40
0.6198744293492173
 40
0.7976584280850781
 40
0.9817070769773406
 40
0.9999999999999999
 40
0.9999999999999999
 40
0.9999999999999999
 40
0.9999999999999999
 10
59.1606572424339
 20
31.18836071305044
 30
0.0
 41
1.0
 10
59.15151273462116
 20
31.19379651167222
 30
0.0
 41
1.0
 10
59.12539040091289
 20
31.20932449289074
 30
0.0
 41
1.0
 10
59.0904229520801
 20
31.23403082785303
 30
0.0
 41
1.0
 10
59.05957717441273
 20
31.25997645983329
 30
0.0
 41
1.0
 10
59.03937946753547
 20
31.28103447105291
 30
0.0
 41
1.0
 10
59.02902209671925
 20
31.29429109093798
 30
0.0
 41
1.0
 10
59.02618059263794
 20
31.29999708355558
 30
0.0
 41
1.0
 10
59.0268002090096
 20
31.29849797649024
 30
0.0
 41
1.0
 10
59.02685622614184
 20
31.29836244798816
 30
0.0
 41
1.0
  0
SPLINE
  5
238
330
1F
100
AcDbEntity
  8
0
  6
SLD-Solid
 62
     7
370
    25
100
AcDbSpline
210
0.0
220
0.0
230
1.0
 70
    12
 71
     3
 72
    11
 73
     7
 74
     0
 42
0.00000001
 43
0.00000001
 40
0.0
 40
0.0
 40
0.0
 40
0.0
 40
0.1568690130998795
 40
0.5386247510976235
 40
0.9038390744155579
 40
1.0
 40
1.0
 40
1.0
 40
1.0
 10
59.06138959050484
 20
31.25912482001378
 30
0.0
 41
1.0
 10
59.06444239536685
 20
31.26209159925086
 30
0.0
 41
1.0
 10
59.07492449266864
 20
31.27227831934654
 30
0.0
 41
1.0
 10
59.10350415169322
 20
31.29438760524987
 30
0.0
 41
1.0
 10
59.1357632224437
 20
31.31584069218791
 30
0.0
 41
1.0
 10
59.15636365196692
 20
31.32789865380021
 30
0.0
 41
1.0
 10
59.16065724243391
 20
31.33041180280865
 30
0.0
 41
1.0
  0
SPLINE
  5
239
330
1F
100
AcDbEntity
  8
0
  6
SLD-Solid
 62
     7
370
    25
100
AcDbSpline
210
0.0
220
0.0
230
1.0
 70
    12
 71
     3
 72
    30
 73
    26
 74
     0
 42
0.00000001
 43
0.00000001
 40
0.0
 40
0.0
 40
0.0
 40
0.0
 40
0.0280655516010275
 40
0.0780730962645098
 40
0.1279620894207058
 40
0.1771871411281107
 40
0.2254265851042054
 40
0.2724686465524529
 40
0.3182447487374211
 40
0.3628141939317983
 40
0.4063233212257056
 40
0.4489661527215305
 40
0.4909582838971312
 40
0.5325236596997487
 40
0.5738692362262163
 40
0.6151744684755169
 40
0.6566727022166572
 40
0.6985948047911683
 40
0.7411629932014712
 40
0.7845783066040087
 40
0.8290000318489124
 40
0.8745180552356739
 40
0.9211248248001008
 40
0.9687008578919788
 40
0.9999999999999999
 40
0.9999999999999999
 40
0.9999999999999999
 40
0.9999999999999999
 10
58.53570803453637
 20
32.41297288078451
 30
0.0
 41
1.0
 10
58.51145680218274
 20
32.39856444513583
 30
0.0
 41
1.0
 10
58.44399442606439
 20
32.35848288182248
 30
0.0
 41
1.0
 10
58.33993805380509
 20
32.28604591260414
 30
0.0
 41
1.0
 10
58.22727890755001
 20
32.19359685761109
 30
0.0
 41
1.0
 10
58.1257701350274
 20
32.09373338227116
 30
0.0
 41
1.0
 10
58.03654895135377
 20
31.98775339388958
 30
0.0
 41
1.0
 10
57.96043016289207
 20
31.87677907547695
 30
0.0
 41
1.0
 10
57.89781626815748
 20
31.76199417129669
 30
0.0
 41
1.0
 10
57.84882042006837
 20
31.64450401858971
 30
0.0
 41
1.0
 10
57.81334869625761
 20
31.52532891069641
 30
0.0
 41
1.0
 10
57.7911847691112
 20
31.40540737685889
 30
0.0
 41
1.0
 10
57.78204047163975
 20
31.28560630773707
 30
0.0
 41
1.0
 10
57.78558709923352
 20
31.16673854455427
 30
0.0
 41
1.0
 10
57.80146550066885
 20
31.04958034400277
 30
0.0
 41
1.0
 10
57.82929827316781
 20
30.93480490905492
 30
0.0
 41
1.0
 10
57.86873265636429
 20
30.82295561399721
 30
0.0
 41
1.0
 10
57.91949670450251
 20
30.71443329477433
 30
0.0
 41
1.0
 10
57.98140915987453
 20
30.60957438645853
 30
0.0
 41
1.0
 10
58.05437083220358
 20
30.50868844928907
 30
0.0
 41
1.0
 10
58.13834095646217
 20
30.41212616694672
 30
0.0
 41
1.0
 10
58.23320658382757
 20
30.32027156211835
 30
0.0
 41
1.0
 10
58.33888388852108
 20
30.23380185767832
 30
0.0
 41
1.0
 10
58.44060557158895
 20
30.16247026847052
 30
0.0
 41
1.0
 10
58.50869061727118
 20
30.12189905144813
 30
0.0
 41
1.0
 10
58.53570803453636
 20
30.10579963507459
 30
0.0
 41
1.0
  0
LINE
  5
23A
330
1F
100
AcDbEntity
  8
0
  6
SLD-Solid
 62
     7
370
    25
100
AcDbLine
 10
58.78073351637111
 20
32.55442308059555
 30
0.0
 11
58.53570803453637
 21
32.41297288078451
 31
0.0
  0
LINE
  5
23B
330
1F
100
AcDbEntity
  8
0
  6
SLD-Solid
 62
     7
370
    25
100
AcDbLine
 10
59.16065724243391
 20
31.33041180280865
 30
0.0
 11
59.40568272426864
 21
31.47186200261969
 31
0.0
  0
SPLINE
  5
23C
330
1F
100
AcDbEntity
  8
0
  6
SLD-Solid
 62
     7
370
    25
100
AcDbSpline
210
0.0
220
0.0
230
1.0
 70
    12
 71
     3
 72
    20
 73
    16
 74
     0
 42
0.00000001
 43
0.00000001
 40
0.0
 40
0.0
 40
0.0
 40
0.0
 40
0.0351157447811486
 40
0.1198061665810315
 40
0.2051521555479485
 40
0.2911325584117727
 40
0.3776162708829888
 40
0.4644340414088644
 40
0.5514326704913873
 40
0.6384990665071558
 40
0.7255462527519816
 40
0.8125445190279557
 40
0.8994834054589437
 40
0.9863641165349099
 40
1.0
 40
1.0
 40
1.0
 40
1.0
 10
58.06814615091099
 20
33.16750721237504
 30
0.0
 41
1.0
 10
58.06031353157275
 20
33.15856694124846
 30
0.0
 41
1.0
 10
58.03359058712004
 20
33.12806496503961
 30
0.0
 41
1.0
 10
57.9961804396459
 20
33.06616102407306
 30
0.0
 41
1.0
 10
57.95610985222063
 20
32.98264655008629
 30
0.0
 41
1.0
 10
57.92491923995113
 20
32.89020617314152
 30
0.0
 41
1.0
 10
57.90230360768945
 20
32.79028722605999
 30
0.0
 41
1.0
 10
57.88864478925949
 20
32.68353613884208
 30
0.0
 41
1.0
 10
57.8840175840749
 20
32.57093294732219
 30
0.0
 41
1.0
 10
57.88842865601367
 20
32.45343817963744
 30
0.0
 41
1.0
 10
57.90186452987388
 20
32.33204932058868
 30
0.0
 41
1.0
 10
57.92391922105732
 20
32.20774766113307
 30
0.0
 41
1.0
 10
57.95531588990271
 20
32.08156743977157
 30
0.0
 41
1.0
 10
57.98189019167889
 20
31.9900622224716
 30
0.0
 41
1.0
 10
58.00023189883043
 20
31.94110770198052
 30
0.0
 41
1.0
 10
58.00272009873822
 20
31.9344666280409
 30
0.0
 41
1.0
  0
LINE
  5
23D
330
1F
100
AcDbEntity
  8
0
  6
SLD-Solid
 62
     7
370
    25
100
AcDbLine
 10
58.48768790719711
 20
33.47020164198192
 30
0.0
 11
58.20260160399989
 21
33.28895134375561
 31
0.0
  0
LINE
  5
23E
330
1F
100
AcDbEntity
  8
0
  6
SLD-Solid
 62
     7
370
    25
100
AcDbLine
 10
59.973528177279
 20
30.71910031085288
 30
0.0
 11
60.05218063301022
 21
30.76012711058206
 31
0.0
  0
SPLINE
  5
23F
330
1F
100
AcDbEntity
  8
0
  6
SLD-Solid
 62
     7
370
    25
100
AcDbSpline
210
0.0
220
0.0
230
1.0
 70
    12
 71
     3
 72
    18
 73
    14
 74
     0
 42
0.00000001
 43
0.00000001
 40
0.0
 40
0.0
 40
0.0
 40
0.0
 40
0.0036623948349838
 40
0.1108245081130194
 40
0.2187688033749491
 40
0.3275517969882691
 40
0.4370555517932423
 40
0.5470754717282962
 40
0.6574025131597999
 40
0.7678699955754512
 40
0.8783525833542474
 40
0.9887855005592048
 40
1.0
 40
1.0
 40
1.0
 40
1.0
 10
83.52559389454609
 20
18.47604544975489
 30
0.0
 41
1.0
 10
83.52492314870955
 20
18.47534509843735
 30
0.0
 41
1.0
 10
83.5046262990382
 20
18.4541523833507
 30
0.0
 41
1.0
 10
83.47168157300304
 20
18.40359063667776
 30
0.0
 41
1.0
 10
83.42780081942625
 20
18.32425404590162
 30
0.0
 41
1.0
 10
83.39307662578882
 20
18.23517805953965
 30
0.0
 41
1.0
 10
83.36669600415674
 20
18.13844851189978
 30
0.0
 41
1.0
 10
83.34920625998886
 20
18.03447779771292
 30
0.0
 41
1.0
 10
83.3407641668903
 20
17.92424814244774
 30
0.0
 41
1.0
 10
83.34114333914086
 20
17.80876316453318
 30
0.0
 41
1.0
 10
83.35143233603037
 20
17.68874540218633
 30
0.0
 41
1.0
 10
83.36253112877573
 20
17.60287453844559
 30
0.0
 41
1.0
 10
83.37263320454298
 20
17.55678407676965
 30
0.0
 41
1.0
 10
83.37356450030055
 20
17.55253506375364
 30
0.0
 41
1.0
  0
SPLINE
  5
240
330
1F
100
AcDbEntity
  8
0
  6
SLD-Solid
 62
     7
370
    25
100
AcDbSpline
210
0.0
220
0.0
230
1.0
 70
    12
 71
     3
 72
    20
 73
    16
 74
     0
 42
0.00000001
 43
0.00000001
 40
0.0
 40
0.0
 40
0.0
 40
0.0
 40
0.0101955581240501
 40
0.0994369912189875
 40
0.1887456918653642
 40
0.2781341897719191
 40
0.367610861375225
 40
0.4571760805493392
 40
0.5468159363633052
 40
0.6364863346923828
 40
0.7260866177957165
 40
0.8154791970209033
 40
0.9044806994948122
 40
0.992895850087849
 40
1.0
 40
1.0
 40
1.0
 40
1.0
 10
83.96336381108314
 20
16.3809525757436
 30
0.0
 41
1.0
 10
83.96669081671885
 20
16.37703903560816
 30
0.0
 41
1.0
 10
83.99913900897663
 20
16.33887038889486
 30
0.0
 41
1.0
 10
84.06448855878297
 20
16.27303778360136
 30
0.0
 41
1.0
 10
84.15882533495598
 20
16.18491690414799
 30
0.0
 41
1.0
 10
84.25604275508104
 20
16.10606547180987
 30
0.0
 41
1.0
 10
84.35489188491387
 20
16.03625668353918
 30
0.0
 41
1.0
 10
84.45477825297695
 20
15.97632437467874
 30
0.0
 41
1.0
 10
84.55491005655924
 20
15.92675591612059
 30
0.0
 41
1.0
 10
84.65453063083089
 20
15.88802263148088
 30
0.0
 41
1.0
 10
84.75277887925871
 20
15.86065238840497
 30
0.0
 41
1.0
 10
84.84896862265441
 20
15.84453111070858
 30
0.0
 41
1.0
 10
84.94158387753403
 20
15.84147957815025
 30
0.0
 41
1.0
 10
85.00453452540948
 20
15.84429535895008
 30
0.0
 41
1.0
 10
85.03497727298053
 20
15.85149435476446
 30
0.0
 41
1.0
 10
85.03724142107771
 20
15.85202977268746
 30
0.0
 41
1.0
  0
LINE
  5
241
330
1F
100
AcDbEntity
  8
0
  6
SLD-Solid
 62
     7
370
    25
100
AcDbLine
 10
83.94353202991277
 20
18.77485562917313
 30
0.0
 11
83.65844572671556
 21
18.59360533094682
 31
0.0
  0
LINE
  5
242
330
1F
100
AcDbEntity
  8
0
  6
SLD-Solid
 62
     7
370
    25
100
AcDbLine
 10
85.20849957894063
 20
15.90854237226154
 30
0.0
 11
85.50802475572591
 21
16.06478109777328
 31
0.0
  0
LWPOLYLINE
  5
243
330
1F
100
AcDbEntity
  8
0
  6
SLD-Solid
 62
     7
370
    25
100
AcDbPolyline
 90
        3
 70
   128
 43
0.0
 10
84.84426870066513
 20
16.74234378968785
 10
84.80302478743813
 20
16.73601997740294
 10
84.79033719680196
 20
16.73541907953297
  0
LWPOLYLINE
  5
244
330
1F
100
AcDbEntity
  8
0
  6
SLD-Solid
 62
     7
370
    25
100
AcDbPolyline
 90
        3
 70
   128
 43
0.0
 10
84.16538798890441
 20
17.81798015750881
 10
84.18076768358897
 20
17.84054136954682
 10
84.19835477341248
 20
17.86122076138598
  0
LINE
  5
245
330
1F
100
AcDbEntity
  8
0
  6
SLD-Solid
 62
     7
370
    25
100
AcDbLine
 10
58.70954386618875
 20
32.5133261703176
 30
0.0
 11
58.74251065010179
 21
32.55656677356964
 31
0.0
  0
LWPOLYLINE
  5
246
330
1F
100
AcDbEntity
  8
0
  6
SLD-Solid
 62
     7
370
    25
100
AcDbPolyline
 90
        3
 70
   128
 43
0.0
 10
59.38842457697379
 20
31.43768980226096
 10
59.37606923350004
 20
31.43504795461829
 10
59.33449307408628
 20
31.43076509234175
  0
ARC
  5
247
330
1F
100
AcDbEntity
  8
0
  6
SLD-Solid
 62
     7
370
    25
100
AcDbCircle
 10
58.48791164764778
 20
32.83876453519239
 30
0.0
 40
0.5326763964286704
100
AcDbArc
 50
104.7027460709991
 51
140.731112831814
  0
LWPOLYLINE
  5
248
330
1F
100
AcDbEntity
  8
0
  6
SLD-Solid
 62
     7
370
    25
100
AcDbPolyline
 90
       36
 70
   128
 43
0.0
 10
60.05218063301022
 20
30.76012711058206
 10
60.08820070457511
 20
30.78077807202926
 10
60.15737756472852
 20
30.83254483251057
 10
60.21869262374564
 20
30.8960282326897
 10
60.27159060295712
 20
30.97065335706399
 10
60.31559245007178
 20
31.05574438895112
 10
60.35029967754828
 20
31.15053073078965
 10
60.37539797136005
 20
31.25415398278985
 10
60.39066003747178
 20
31.36567571673517
 10
60.39594766024935
 20
31.48408597453341
 10
60.39121295416209
 20
31.60831241455369
 10
60.37649879744151
 20
31.73723002291822
 10
60.35193844376941
 20
31.86967130180229
 10
60.31775431551193
 20
32.00443684247527
 10
60.27425598942808
 20
32.14030618733188
 10
60.22183739309479
 20
32.27604888254519
 10
60.16097323743766
 20
32.4104356212471
 10
60.09221471767537
 20
32.54224937632159
 10
60.01618452161041
 20
32.67029642199087
 10
59.93357119047189
 20
32.79341714438076
 10
59.84512288337963
 20
32.9104965431636
 10
59.75164060189919
 20
33.02047432917382
 10
59.65397093604775
 20
33.12235452655081
 10
59.55299839744379
 20
33.2152144924506
 10
59.44963740903289
 20
33.29821327264228
 10
59.34482402393193
 20
33.37059921731975
 10
59.23950744838716
 20
33.43171678815877
 10
59.13464144561537
 20
33.48101249497354
 10
59.03117569837658
 20
33.51803990820951
 10
58.93004720849984
 20
33.54246370187857
 10
58.8321718112496
 20
33.55406269032316
 10
58.73843588137977
 20
33.55273183130775
 10
58.64968830598659
 20
33.53848317729769
 10
58.56673279685574
 20
33.51144576631015
 10
58.49032061192386
 20
33.47186445332587
 10
58.48768790719711
 20
33.47020164198192
  0
LWPOLYLINE
  5
249
330
1F
100
AcDbEntity
  8
0
  6
SLD-Solid
 62
     7
370
    25
100
AcDbPolyline
 90
       15
 70
   128
 43
0.0
 10
59.27507524386294
 20
32.17215123477682
 10
59.220262817598
 20
32.25143615975813
 10
59.1601367795855
 20
32.32429576684329
 10
59.09592112257021
 20
32.38924684454178
 10
59.02892309214628
 20
32.44496717621512
 10
58.96050657500679
 20
32.49032245659459
 10
58.89206433414375
 20
32.52438938296551
 10
58.82498965621001
 20
32.54647445094786
 10
58.7606479882209
 20
32.5561280722456
 10
58.70034914099063
 20
32.55315372696785
 10
58.6453206251613
 20
32.53761196420717
 10
58.59668266262604
 20
32.50981916943461
 10
58.55542538204179
 20
32.47034112380395
 10
58.52238866266506
 20
32.41998148647895
 10
58.51684052220728
 20
32.40871259930301
  0
LWPOLYLINE
  5
24A
330
1F
100
AcDbEntity
  8
0
  6
SLD-Solid
 62
     7
370
    25
100
AcDbPolyline
 90
       16
 70
   128
 43
0.0
 10
59.14210579305829
 20
31.31671446485556
 10
59.15783791547273
 20
31.3154841197557
 10
59.218136762703
 20
31.31845846503345
 10
59.27316527853233
 20
31.33400022779414
 10
59.32180324106759
 20
31.36179302256669
 10
59.36306052165185
 20
31.40127106819735
 10
59.39609724102858
 20
31.45163070552236
 10
59.42024086686131
 20
31.51184675755098
 10
59.43499990455255
 20
31.58069339911265
 10
59.44007390265647
 20
31.65676911112252
 10
59.43535956920385
 20
31.73852521146829
 10
59.4209528744288
 20
31.82429738171205
 10
59.39714709709143
 20
31.91233954781414
 10
59.36442685416817
 20
32.00085942516538
 10
59.32345823544753
 20
32.08805500433313
 10
59.27507524386294
 20
32.17215123477682
  0
ARC
  5
24B
330
1F
100
AcDbEntity
  8
0
  6
SLD-Solid
 62
     7
370
    25
100
AcDbCircle
 10
58.78162447173751
 20
32.31460411402978
 30
0.0
 40
0.2635495717970953
100
AcDbArc
 50
124.6262413036329
 51
157.8344090817021
  0
ARC
  5
24C
330
1F
100
AcDbEntity
  8
0
  6
SLD-Solid
 62
     7
370
    25
100
AcDbCircle
 10
59.19837315860377
 20
31.59306230416598
 30
0.0
 40
0.2640342114080178
100
AcDbArc
 50
262.1915717688884
 51
295.337024780427
  0
ARC
  5
24D
330
1F
100
AcDbEntity
  8
0
  6
SLD-Solid
 62
     7
370
    25
100
AcDbCircle
 10
83.9426934136527
 20
18.1451340823558
 30
0.0
 40
0.5307481791990563
100
AcDbArc
 50
104.7672559060463
 51
140.3992396082532
  0
ARC
  5
24E
330
1F
100
AcDbEntity
  8
0
  6
SLD-Solid
 62
     7
370
    25
100
AcDbCircle
 10
84.96223813572134
 20
16.37899408526036
 30
0.0
 40
0.5307967257109455
100
AcDbArc
 50
279.2995521370948
 51
315.3503569121864
  0
LWPOLYLINE
  5
24F
330
1F
100
AcDbEntity
  8
0
  6
SLD-Solid
 62
     7
370
    25
100
AcDbPolyline
 90
       36
 70
   128
 43
0.0
 10
85.50802475572591
 20
16.06478109777328
 10
85.51718659219576
 20
16.06967658064076
 10
85.58905831552326
 20
16.11708102573154
 10
85.65328706495237
 20
16.17638430037767
 10
85.70929117498217
 20
16.2470493449406
 10
85.7565634637198
 20
16.32843620583402
 10
85.79467582599816
 20
16.41980783104262
 10
85.8232831103626
 20
16.52033674497926
 10
85.84212624481597
 20
16.62911254223204
 10
85.85103458301472
 20
16.74515013233669
 10
85.84992744966866
 20
16.86739866090835
 10
85.8388148711488
 20
16.99475102634163
 10
85.81779748468702
 20
17.12605390589417
 10
85.78706562698979
 20
17.26011820035598
 10
85.7468976105193
 20
17.39572980271605
 10
85.69765720305293
 20
17.53166059330342
 10
85.63979033334573
 20
17.66667956182914
 10
85.57382105273071
 20
17.79956395560603
 10
85.50034678922867
 20
17.92911035298639
 10
85.42003293714768
 20
18.05414556173479
 10
85.33360683116909
 20
18.17353724363862
 10
85.24185115949206
 20
18.2862041691383
 10
85.145596875688
 20
18.3911260091096
 10
85.04571567345641
 20
18.4873525751222
 10
84.94311209243166
 20
18.57401242449322
 10
84.8387153265321
 20
18.65032075220716
 10
84.73347080903591
 20
18.7155864982316
 10
84.62833165059108
 20
18.76921860586389
 10
84.52425000769769
 20
18.81073137443219
 10
84.42216845983123
 20
18.83974885787591
 10
84.32301147329686
 20
18.85600826937153
 10
84.22767702911952
 20
18.85936236117072
 10
84.13702849078855
 20
18.84978075809873
 10
84.05188678550437
 20
18.82735023263675
 10
83.97302296973454
 20
18.7922739190968
 10
83.94353202991277
 20
18.77485562917313
  0
LWPOLYLINE
  5
250
330
1F
100
AcDbEntity
  8
0
  6
SLD-Solid
 62
     7
370
    25
100
AcDbPolyline
 90
       16
 70
   128
 43
0.0
 10
84.77514590979267
 20
17.40060369879146
 10
84.7261279826635
 20
17.48432746569329
 10
84.6707781596133
 20
17.56308679594285
 10
84.61022320342369
 20
17.6352783766994
 10
84.54569583837656
 20
17.69943259556209
 10
84.47850965554277
 20
17.75424345764034
 10
84.41003237185583
 20
17.79859517184373
 10
84.34165798733945
 20
17.83158486517085
 10
84.27477840728693
 20
17.85254096259998
 10
84.21075510708333
 20
17.86103685841986
 10
84.1508914164929
 20
17.85689960069174
 10
84.09640598762338
 20
17.84021341205208
 10
84.0484079866836
 20
17.81131797518263
 10
84.00787451455784
 20
17.77080151785045
 10
83.97563071584973
 20
17.71948883828703
 10
83.9705955191139
 20
17.70881700628887
  0
LWPOLYLINE
  5
251
330
1F
100
AcDbEntity
  8
0
  6
SLD-Solid
 62
     7
370
    25
100
AcDbPolyline
 90
       15
 70
   128
 43
0.0
 10
84.60367295861425
 20
16.62083212535196
 10
84.61941904204166
 20
16.61988330796387
 10
84.67928273263207
 20
16.624020565692
 10
84.73376816150159
 20
16.64070675433164
 10
84.78176616244137
 20
16.66960219120111
 10
84.82229963456712
 20
16.71011864853329
 10
84.85454343327523
 20
16.76143132809671
 10
84.87784116780745
 20
16.82249565170901
 10
84.89171856347379
 20
16.89206852583641
 10
84.89589311651761
 20
16.96873364739328
 10
84.89027984507736
 20
17.05093033558868
 10
84.8749930191722
 20
17.13698530288663
 10
84.85034383449403
 20
17.22514671831496
 10
84.81683407736048
 20
17.31361986969208
 10
84.77514590979267
 20
17.40060369879146
  0
ARC
  5
252
330
1F
100
AcDbEntity
  8
0
  6
SLD-Solid
 62
     7
370
    25
100
AcDbCircle
 10
84.23849455982615
 20
17.61843409755674
 30
0.0
 40
0.2648108665293452
100
AcDbArc
 50
124.707600308249
 51
157.753050098883
  0
ARC
  5
253
330
1F
100
AcDbEntity
  8
0
  6
SLD-Solid
 62
     7
370
    25
100
AcDbCircle
 10
84.65441434123856
 20
16.89643809412702
 30
0.0
 40
0.2627948975221152
100
AcDbArc
 50
262.1111445435218
 51
295.4174519802066
  0
LINE
  5
25A
330
1F
100
AcDbEntity
  8
0
  6
SLD-Solid
 62
     7
370
    25
100
AcDbLine
 10
6.423905637393779
 20
31.62885442965866
 30
0.0
 11
6.423905637393779
 21
31.47179142826118
 31
0.0
  0
LINE
  5
25B
330
1F
100
AcDbEntity
  8
0
  6
SLD-Solid
 62
     7
370
    25
100
AcDbLine
 10
7.673905637393779
 20
31.47179142826118
 30
0.0
 11
7.673905637393779
 21
31.62885442965866
 31
0.0
  0
LINE
  5
25C
330
1F
100
AcDbEntity
  8
0
  6
SLD-Solid
 62
     7
370
    25
100
AcDbLine
 10
43.67390563739378
 20
31.47179142826118
 30
0.0
 11
43.67390563739378
 21
31.62885442965866
 31
0.0
  0
LINE
  5
25D
330
1F
100
AcDbEntity
  8
0
  6
SLD-Solid
 62
     7
370
    25
100
AcDbLine
 10
42.42390563739378
 20
31.62885442965866
 30
0.0
 11
42.42390563739378
 21
31.47179142826118
 31
0.0
  0
ARC
  5
25E
330
1F
100
AcDbEntity
  8
0
  6
SLD-Solid
 62
     7
370
    25
100
AcDbCircle
 10
8.548905637393776
 20
31.47179142826118
 30
0.0
 40
0.8750000000000036
100
AcDbArc
 50
180.0
 51
270.0000000000008
  0
ARC
  5
25F
330
1F
100
AcDbEntity
  8
0
  6
SLD-Solid
 62
     7
370
    25
100
AcDbCircle
 10
8.548905637393776
 20
31.47179142826118
 30
0.0
 40
2.125
100
AcDbArc
 50
180.0
 51
270.0000000000009
  0
ARC
  5
260
330
1F
100
AcDbEntity
  8
0
  6
SLD-Solid
 62
     7
370
    25
100
AcDbCircle
 10
41.54890563739379
 20
31.47179142826118
 30
0.0
 40
0.875
100
AcDbArc
 50
270.0000000000008
 51
0.0
  0
ARC
  5
261
330
1F
100
AcDbEntity
  8
0
  6
SLD-Solid
 62
     7
370
    25
100
AcDbCircle
 10
41.54890563739379
 20
31.47179142826118
 30
0.0
 40
2.125
100
AcDbArc
 50
270.0000000000008
 51
0.0
  0
LINE
  5
262
330
1F
100
AcDbEntity
  8
0
  6
SLD-Solid
 62
     7
370
    25
100
AcDbLine
 10
8.54890563739378
 20
29.34679142826118
 30
0.0
 11
41.54890563739379
 21
29.34679142826118
 31
0.0
  0
LINE
  5
263
330
1F
100
AcDbEntity
  8
0
  6
SLD-Solid
 62
     7
370
    25
100
AcDbLine
 10
41.54890563739379
 20
30.59679142826117
 30
0.0
 11
8.54890563739378
 21
30.59679142826117
 31
0.0
  0
LINE
  5
264
330
1F
100
AcDbEntity
  8
0
  6
SLD-Solid
 62
     7
370
    25
100
AcDbLine
 10
5.483808465315464
 20
32.09556994587659
 30
0.0
 11
5.498252917403869
 21
31.68193495734003
 31
0.0
  0
LINE
  5
265
330
1F
100
AcDbEntity
  8
0
  6
SLD-Solid
 62
     7
370
    25
100
AcDbLine
 10
8.599558357383687
 20
31.68193495734003
 30
0.0
 11
8.614002809472092
 21
32.09556994587659
 31
0.0
  0
LINE
  5
266
330
1F
100
AcDbEntity
  8
0
  6
SLD-Solid
 62
     7
370
    25
100
AcDbLine
 10
8.614002809472092
 20
32.09556994587659
 30
0.0
 11
8.579024130526426
 21
32.09679142826118
 31
0.0
  0
LINE
  5
267
330
1F
100
AcDbEntity
  8
0
  6
SLD-Solid
 62
     7
370
    25
100
AcDbLine
 10
5.518787144261132
 20
32.09679142826118
 30
0.0
 11
5.483808465315464
 21
32.09556994587659
 31
0.0
  0
ARC
  5
268
330
1F
100
AcDbEntity
  8
0
  6
SLD-Solid
 62
     7
370
    25
100
AcDbCircle
 10
8.544591861897636
 20
31.68385442965867
 30
0.0
 40
0.0550000000000003
100
AcDbArc
 50
270.0000000000008
 51
358.0000000000055
  0
ARC
  5
269
330
1F
100
AcDbEntity
  8
0
  6
SLD-Solid
 62
     7
370
    25
100
AcDbCircle
 10
5.55321941288992
 20
31.68385442965867
 30
0.0
 40
0.0550000000000003
100
AcDbArc
 50
181.9999999999962
 51
270.0000000000008
  0
LINE
  5
26A
330
1F
100
AcDbEntity
  8
0
  6
SLD-Solid
 62
     7
370
    25
100
AcDbLine
 10
41.48380846531546
 20
32.09556994587659
 30
0.0
 11
41.49825291740387
 21
31.68193495734003
 31
0.0
  0
LINE
  5
26B
330
1F
100
AcDbEntity
  8
0
  6
SLD-Solid
 62
     7
370
    25
100
AcDbLine
 10
44.59955835738369
 20
31.68193495734003
 30
0.0
 11
44.61400280947209
 21
32.09556994587659
 31
0.0
  0
LINE
  5
26C
330
1F
100
AcDbEntity
  8
0
  6
SLD-Solid
 62
     7
370
    25
100
AcDbLine
 10
44.61400280947209
 20
32.09556994587659
 30
0.0
 11
44.57902413052642
 21
32.09679142826118
 31
0.0
  0
LINE
  5
26D
330
1F
100
AcDbEntity
  8
0
  6
SLD-Solid
 62
     7
370
    25
100
AcDbLine
 10
41.51878714426113
 20
32.09679142826118
 30
0.0
 11
41.48380846531546
 21
32.09556994587659
 31
0.0
  0
ARC
  5
26E
330
1F
100
AcDbEntity
  8
0
  6
SLD-Solid
 62
     7
370
    25
100
AcDbCircle
 10
44.54459186189764
 20
31.68385442965867
 30
0.0
 40
0.0549999999999997
100
AcDbArc
 50
270.0000000000008
 51
357.999999999998
  0
ARC
  5
26F
330
1F
100
AcDbEntity
  8
0
  6
SLD-Solid
 62
     7
370
    25
100
AcDbCircle
 10
41.55321941288992
 20
31.68385442965867
 30
0.0
 40
0.0550000000000059
100
AcDbArc
 50
182.0000000000034
 51
270.0000000000008
  0
LINE
  5
270
330
1F
100
AcDbEntity
  8
0
  6
SLD-Solid
 62
     7
370
    25
100
AcDbLine
 10
8.614002809472092
 20
32.09556994587659
 30
0.0
 11
5.483808465315464
 21
32.09556994587659
 31
0.0
  0
LINE
  5
271
330
1F
100
AcDbEntity
  8
0
  6
SLD-Solid
 62
     7
370
    25
100
AcDbLine
 10
5.895156514554923
 20
32.09679142826118
 30
0.0
 11
5.518787144261132
 21
32.09679142826118
 31
0.0
  0
LINE
  5
272
330
1F
100
AcDbEntity
  8
0
  6
SLD-Solid
 62
     7
370
    25
100
AcDbLine
 10
8.579024130526426
 20
32.09679142826118
 30
0.0
 11
5.895156514554923
 21
32.09679142826118
 31
0.0
  0
LINE
  5
273
330
1F
100
AcDbEntity
  8
0
  6
SLD-Solid
 62
     7
370
    25
100
AcDbLine
 10
8.031339019431506
 20
31.62885442965867
 30
0.0
 11
5.55321941288992
 21
31.62885442965867
 31
0.0
  0
LINE
  5
274
330
1F
100
AcDbEntity
  8
0
  6
SLD-Solid
 62
     7
370
    25
100
AcDbLine
 10
8.544591861897636
 20
31.62885442965867
 30
0.0
 11
8.031339019431506
 21
31.62885442965867
 31
0.0
  0
LINE
  5
275
330
1F
100
AcDbEntity
  8
0
  6
SLD-Solid
 62
     7
370
    25
100
AcDbLine
 10
44.61400280947209
 20
32.09556994587659
 30
0.0
 11
41.48380846531546
 21
32.09556994587659
 31
0.0
  0
LINE
  5
276
330
1F
100
AcDbEntity
  8
0
  6
SLD-Solid
 62
     7
370
    25
100
AcDbLine
 10
42.03479009453732
 20
32.09679142826118
 30
0.0
 11
41.51878714426113
 21
32.09679142826118
 31
0.0
  0
LINE
  5
277
330
1F
100
AcDbEntity
  8
0
  6
SLD-Solid
 62
     7
370
    25
100
AcDbLine
 10
44.57902413052642
 20
32.09679142826118
 30
0.0
 11
42.03479009453732
 21
32.09679142826118
 31
0.0
  0
LINE
  5
278
330
1F
100
AcDbEntity
  8
0
  6
SLD-Solid
 62
     7
370
    25
100
AcDbLine
 10
44.16891086855522
 20
31.62885442965867
 30
0.0
 11
41.55321941288992
 21
31.62885442965867
 31
0.0
  0
LINE
  5
279
330
1F
100
AcDbEntity
  8
0
  6
SLD-Solid
 62
     7
370
    25
100
AcDbLine
 10
44.54459186189764
 20
31.62885442965867
 30
0.0
 11
44.16891086855522
 21
31.62885442965867
 31
0.0
  0
DIMENSION
  5
27A
330
1F
100
AcDbEntity
  8
DIMS
100
AcDbDimension
  2
_D_5
 10
44.61405208494555
 20
33.67097966088321
 30
0.0
 11
24.95422055164897
 21
33.67159457870277
 31
0.0
 70
    32
  1
<>
 71
     2
 42
-1.0
  3
SLDDIMSTYLE2
100
AcDbAlignedDimension
 13
5.561405637393778
 23
32.09679142826118
 33
0.0
 14
44.61400280947209
 24
32.09556994587659
 34
0.0
 50
359.9982079095776
100
AcDbRotatedDimension
  0
DIMENSION
  5
289
330
1F
100
AcDbEntity
  8
DIMS
100
AcDbDimension
  2
_D_6
 10
44.61400280947209
 20
32.7267126881037
 30
0.0
 11
43.14711998113462
 21
32.7267126881037
 31
0.0
 70
    32
  1
<>
 71
     2
 42
-1.0
  3
SLDDIMSTYLE2
100
AcDbAlignedDimension
 13
41.48380846531546
 23
32.09556994587659
 33
0.0
 14
44.61400280947209
 24
32.09556994587659
 34
0.0
100
AcDbRotatedDimension
  0
DIMENSION
  5
298
330
1F
100
AcDbEntity
  8
DIMS
100
AcDbDimension
  2
_D_7
 10
39.08649359338263
 20
32.09556994587659
 30
0.0
 11
39.08649359338263
 21
31.34348017827708
 31
0.0
 70
    32
  1
<>
 71
     2
 42
-1.0
  3
SLDDIMSTYLE1
100
AcDbAlignedDimension
 13
41.54890563739379
 23
30.59679142826117
 33
0.0
 14
41.48380846531546
 24
32.09556994587659
 34
0.0
 50
90.0000000000002
100
AcDbRotatedDimension
  0
MTEXT
  5
2A6
330
1F
100
AcDbEntity
  8
NOTES
100
AcDbMText
 10
8.564949101248011
 20
28.30692910425508
 30
0.0
 40
0.5
 41
0.0
 71
     1
 72
     1
  1
Top view
  7
SLDTEXTSTYLE1
 73
     1
 44
1.0
  0
INSERT
  5
2AC
102
{ACAD_REACTORS
330
2AE
102
}
330
1F
100
AcDbEntity
  8
NOTES
100
AcDbBlockReference
  2
SW_NOTE_0_4
 10
42.03115380686333
 20
26.93306638409399
 30
0.0
  0
LEADER
  5
2AE
330
1F
100
AcDbEntity
  8
NOTES
100
AcDbLeader
  3
SLDDIMSTYLE3
 73
     2
 76
     3
 10
44.13428481996804
 20
31.58867148013673
 30
0.0
 10
45.17559893800751
 20
26.93306638409399
 30
0.0
 10
42.03115380686333
 20
26.93306638409399
 30
0.0
340
2AC
1001
ACAD
1000
DSTYLE
1002
{
1070
   176
1070
     0
1070
    77
1070
     0
1070
    40
1040
1.0
1070
   147
1040
0.0
1002
}
  0
MTEXT
  5
2B2
330
1F
100
AcDbEntity
  8
NOTES
 62
     1
100
AcDbMText
 10
75.5714509185168
 20
17.05240168415359
 30
0.0
 40
0.5
 41
0.0
 71
     1
 72
     1
  1
3D view
  7
SLDTEXTSTYLE1
 73
     1
 44
1.0
  0
MTEXT
  5
2B3
330
1F
100
AcDbEntity
  8
NOTES
 62
     1
100
AcDbMText
 10
75.5714509185168
 20
16.0524016229063
 30
0.0
 40
0.5
 41
0.0
 71
     1
 72
     1
  1
Code 1001-W-36
  7
SLDTEXTSTYLE1
 73
     1
 44
1.0
  0
ENDSEC
  0
SECTION
  2
OBJECTS
  0
DICTIONARY
  5
C
330
0
100
AcDbDictionary
281
     1
  3
ACAD_COLOR
350
6C
  3
ACAD_GROUP
350
D
  3
ACAD_LAYOUT
350
1A
  3
ACAD_MATERIAL
350
6B
  3
ACAD_MLINESTYLE
350
17
  3
ACAD_PLOTSETTINGS
350
19
  3
ACAD_PLOTSTYLENAME
350
E
  3
ACAD_SCALELIST
350
47
  3
ACAD_TABLESTYLE
350
92
  3
AcDbVariableDictionary
350
59
  0
DICTIONARY
  5
6C
102
{ACAD_REACTORS
330
C
102
}
330
C
100
AcDbDictionary
281
     1
  0
DICTIONARY
  5
D
102
{ACAD_REACTORS
330
C
102
}
330
C
100
AcDbDictionary
281
     1
  0
DICTIONARY
  5
1A
102
{ACAD_REACTORS
330
C
102
}
330
C
100
AcDbDictionary
281
     1
  3
Layout1
350
74
  3
Layout2
350
26
  3
Model
350
22
  0
DICTIONARY
  5
6B
102
{ACAD_REACTORS
330
C
102
}
330
C
100
AcDbDictionary
281
     1
  0
DICTIONARY
  5
17
102
{ACAD_REACTORS
330
C
102
}
330
C
100
AcDbDictionary
281
     1
  3
Standard
350
18
  0
DICTIONARY
  5
19
102
{ACAD_REACTORS
330
C
102
}
330
C
100
AcDbDictionary
281
     1
  0
ACDBDICTIONARYWDFLT
  5
E
102
{ACAD_REACTORS
330
C
102
}
330
C
100
AcDbDictionary
281
     1
  3
Normal
350
F
100
AcDbDictionaryWithDefault
340
F
  0
DICTIONARY
  5
47
102
{ACAD_REACTORS
330
C
102
}
330
C
100
AcDbDictionary
281
     1
  3
A0
350
48
  3
A1
350
49
  3
A2
350
4A
  3
A3
350
4B
  3
A4
350
4C
  3
A5
350
4D
  3
A6
350
4E
  3
A7
350
4F
  3
A8
350
50
  3
A9
350
51
  3
B0
350
52
  3
B1
350
53
  3
B2
350
54
  3
B3
350
55
  3
B4
350
56
  3
B5
350
57
  3
B6
350
58
  3
B7
350
2C4
  3
B8
350
2C5
  3
B9
350
5B
  3
C0
350
5C
  3
C1
350
5D
  3
C2
350
2C6
  3
C3
350
5F
  3
C4
350
60
  3
C5
350
61
  3
C6
350
62
  3
C7
350
63
  3
C8
350
64
  3
C9
350
65
  3
D0
350
66
  3
D1
350
67
  3
D2
350
68
  0
DICTIONARY
  5
92
102
{ACAD_REACTORS
330
C
102
}
330
C
100
AcDbDictionary
281
     1
  0
DICTIONARY
  5
59
102
{ACAD_REACTORS
330
C
102
}
330
C
100
AcDbDictionary
281
     1
  0
LAYOUT
  5
74
102
{ACAD_REACTORS
330
1A
102
}
330
1A
100
AcDbPlotSettings
  1

  2
none_device
  4

  6

 40
0.0
 41
0.0
 42
0.0
 43
0.0
 44
0.0
 45
0.0
 46
0.0
 47
0.0
 48
0.0
 49
0.0
140
0.0
141
0.0
142
1.0
143
1.0
 70
   688
 72
     0
 73
     0
 74
     5
  7

 75
    16
 76
     0
 77
     2
 78
   300
147
1.0
148
0.0
149
0.0
100
AcDbLayout
  1
Layout1
 70
     1
 71
     1
 10
0.0
 20
0.0
 11
12.0
 21
9.0
 12
0.0
 22
0.0
 32
0.0
 14
1.000000000000000E+20
 24
1.000000000000000E+20
 34
1.000000000000000E+20
 15
-1.000000000000000E+20
 25
-1.000000000000000E+20
 35
-1.000000000000000E+20
146
0.0
 13
0.0
 23
0.0
 33
0.0
 16
1.0
 26
0.0
 36
0.0
 17
0.0
 27
1.0
 37
0.0
 76
     0
330
73
  0
LAYOUT
  5
26
102
{ACAD_REACTORS
330
1A
102
}
330
1A
100
AcDbPlotSettings
  1

  2
none_device
  4

  6

 40
0.0
 41
0.0
 42
0.0
 43
0.0
 44
0.0
 45
0.0
 46
0.0
 47
0.0
 48
0.0
 49
0.0
140
0.0
141
0.0
142
1.0
143
1.0
 70
   688
 72
     0
 73
     0
 74
     5
  7

 75
    16
 76
     0
 77
     2
 78
   300
147
1.0
148
0.0
149
0.0
100
AcDbLayout
  1
Layout2
 70
     1
 71
     2
 10
0.0
 20
0.0
 11
0.0
 21
0.0
 12
0.0
 22
0.0
 32
0.0
 14
0.0
 24
0.0
 34
0.0
 15
0.0
 25
0.0
 35
0.0
146
0.0
 13
0.0
 23
0.0
 33
0.0
 16
1.0
 26
0.0
 36
0.0
 17
0.0
 27
1.0
 37
0.0
 76
     0
330
23
  0
LAYOUT
  5
22
102
{ACAD_REACTORS
330
1A
102
}
330
1A
100
AcDbPlotSettings
  1

  2
none_device
  4
Letter_(8.50_x_11.00_Inches)
  6

 40
6.35
 41
6.35
 42
6.35000508
 43
6.35000508
 44
215.9
 45
279.4
 46
0.0
 47
0.0
 48
0.0
 49
0.0
140
0.0
141
0.0
142
1.0
143
1.0
 70
 11952
 72
     0
 73
     0
 74
     0
  7

 75
     0
 76
     0
 77
     2
 78
   300
147
1.0
148
0.0
149
0.0
100
AcDbLayout
  1
Model
 70
     1
 71
     0
 10
0.0
 20
0.0
 11
90.0
 21
48.00000000000001
 12
0.0
 22
0.0
 32
0.0
 14
0.1653543307086614
 24
0.1653543307086614
 34
-12.0005652926802
 15
89.83464566929135
 25
47.83464566929134
 35
0.0000000000000048
146
0.0
 13
0.0
 23
0.0
 33
0.0
 16
1.0
 26
0.0
 36
0.0
 17
0.0
 27
1.0
 37
0.0
 76
     0
330
1F
  0
MLINESTYLE
  5
18
102
{ACAD_REACTORS
330
17
102
}
330
17
100
AcDbMlineStyle
  2
Standard
 70
     0
  3

 62
   256
 51
90.0
 52
90.0
 71
     2
 49
0.5
 62
   256
  6
BYLAYER
 49
-0.5
 62
   256
  6
BYLAYER
  0
ACDBPLACEHOLDER
  5
F
102
{ACAD_REACTORS
330
E
102
}
330
E
  0
ACAD_PROXY_OBJECT
  5
48
102
{ACAD_REACTORS
330
47
102
}
330
47
100
AcDbProxyObject
 90
      499
 91
      505
 95
   393239
 70
     0
 93
       41
310
903313A31580
  0
ACAD_PROXY_OBJECT
  5
49
102
{ACAD_REACTORS
330
47
102
}
330
47
100
AcDbProxyObject
 90
      499
 91
      505
 95
   393239
 70
     0
 93
      105
310
903313A324000000000000004000
  0
ACAD_PROXY_OBJECT
  5
4A
102
{ACAD_REACTORS
330
47
102
}
330
47
100
AcDbProxyObject
 90
      499
 91
      505
 95
   393239
 70
     0
 93
      105
310
903313A344000000000000104000
  0
ACAD_PROXY_OBJECT
  5
4B
102
{ACAD_REACTORS
330
47
102
}
330
47
100
AcDbProxyObject
 90
      499
 91
      505
 95
   393239
 70
     0
 93
      105
310
903313A354000000000000144000
  0
ACAD_PROXY_OBJECT
  5
4C
102
{ACAD_REACTORS
330
47
102
}
330
47
100
AcDbProxyObject
 90
      499
 91
      505
 95
   393239
 70
     0
 93
      105
310
903313A384000000000000204000
  0
ACAD_PROXY_OBJECT
  5
4D
102
{ACAD_REACTORS
330
47
102
}
330
47
100
AcDbProxyObject
 90
      499
 91
      505
 95
   393239
 70
     0
 93
      113
310
904313A31304000000000000244000
  0
ACAD_PROXY_OBJECT
  5
4E
102
{ACAD_REACTORS
330
47
102
}
330
47
100
AcDbProxyObject
 90
      499
 91
      505
 95
   393239
 70
     0
 93
      113
310
904313A31364000000000000304000
  0
ACAD_PROXY_OBJECT
  5
4F
102
{ACAD_REACTORS
330
47
102
}
330
47
100
AcDbProxyObject
 90
      499
 91
      505
 95
   393239
 70
     0
 93
      113
310
904313A32304000000000000344000
  0
ACAD_PROXY_OBJECT
  5
50
102
{ACAD_REACTORS
330
47
102
}
330
47
100
AcDbProxyObject
 90
      499
 91
      505
 95
   393239
 70
     0
 93
      113
310
904313A333040000000000003E4000
  0
ACAD_PROXY_OBJECT
  5
51
102
{ACAD_REACTORS
330
47
102
}
330
47
100
AcDbProxyObject
 90
      499
 91
      505
 95
   393239
 70
     0
 93
      113
310
904313A34304000000000000444000
  0
ACAD_PROXY_OBJECT
  5
52
102
{ACAD_REACTORS
330
47
102
}
330
47
100
AcDbProxyObject
 90
      499
 91
      505
 95
   393239
 70
     0
 93
      113
310
904313A35304000000000000494000
  0
ACAD_PROXY_OBJECT
  5
53
102
{ACAD_REACTORS
330
47
102
}
330
47
100
AcDbProxyObject
 90
      499
 91
      505
 95
   393239
 70
     0
 93
      121
310
905313A3130304000000000000594000
  0
ACAD_PROXY_OBJECT
  5
54
102
{ACAD_REACTORS
330
47
102
}
330
47
100
AcDbProxyObject
 90
      499
 91
      505
 95
   393239
 70
     0
 93
      105
310
903323A310000000000000010100
  0
ACAD_PROXY_OBJECT
  5
55
102
{ACAD_REACTORS
330
47
102
}
330
47
100
AcDbProxyObject
 90
      499
 91
      505
 95
   393239
 70
     0
 93
      105
310
903343A310000000000000410100
  0
ACAD_PROXY_OBJECT
  5
56
102
{ACAD_REACTORS
330
47
102
}
330
47
100
AcDbProxyObject
 90
      499
 91
      505
 95
   393239
 70
     0
 93
      105
310
903383A310000000000000810100
  0
ACAD_PROXY_OBJECT
  5
57
102
{ACAD_REACTORS
330
47
102
}
330
47
100
AcDbProxyObject
 90
      499
 91
      505
 95
   393239
 70
     0
 93
      113
310
90431303A310000000000000910100
  0
ACAD_PROXY_OBJECT
  5
58
102
{ACAD_REACTORS
330
47
102
}
330
47
100
AcDbProxyObject
 90
      499
 91
      505
 95
   393239
 70
     0
 93
      121
310
9053130303A310000000000001650100
  0
ACAD_PROXY_OBJECT
  5
2C4
102
{ACAD_REACTORS
330
47
102
}
330
47
100
AcDbProxyObject
 90
      499
 91
      505
 95
   393239
 70
     0
 93
      257
310
90E312F31323822203D2031272D3022000000000000200FC000000000000284000
  0
ACAD_PROXY_OBJECT
  5
2C5
102
{ACAD_REACTORS
330
47
102
}
330
47
100
AcDbProxyObject
 90
      499
 91
      505
 95
   393239
 70
     0
 93
      249
310
90D312F363422203D2031272D3022000000000000240FC000000000000284000
  0
ACAD_PROXY_OBJECT
  5
5B
102
{ACAD_REACTORS
330
47
102
}
330
47
100
AcDbProxyObject
 90
      499
 91
      505
 95
   393239
 70
     0
 93
      249
310
90D312F333222203D2031272D3022000000000000280FC000000000000284000
  0
ACAD_PROXY_OBJECT
  5
5C
102
{ACAD_REACTORS
330
47
102
}
330
47
100
AcDbProxyObject
 90
      499
 91
      505
 95
   393239
 70
     0
 93
      249
310
90D312F313622203D2031272D30220000000000002C0FC000000000000284000
  0
ACAD_PROXY_OBJECT
  5
5D
102
{ACAD_REACTORS
330
47
102
}
330
47
100
AcDbProxyObject
 90
      499
 91
      505
 95
   393239
 70
     0
 93
      249
310
90D332F333222203D2031272D30220000000000002E0FC000000000000284000
  0
ACAD_PROXY_OBJECT
  5
2C6
102
{ACAD_REACTORS
330
47
102
}
330
47
100
AcDbProxyObject
 90
      499
 91
      505
 95
   393239
 70
     0
 93
      241
310
90C312F3822203D2031272D3022000000000000300FC000000000000284000
  0
ACAD_PROXY_OBJECT
  5
5F
102
{ACAD_REACTORS
330
47
102
}
330
47
100
AcDbProxyObject
 90
      499
 91
      505
 95
   393239
 70
     0
 93
      249
310
90D332F313622203D2031272D3022000000000000320FC000000000000284000
  0
ACAD_PROXY_OBJECT
  5
60
102
{ACAD_REACTORS
330
47
102
}
330
47
100
AcDbProxyObject
 90
      499
 91
      505
 95
   393239
 70
     0
 93
      241
310
90C312F3422203D2031272D3022000000000000340FC000000000000284000
  0
ACAD_PROXY_OBJECT
  5
61
102
{ACAD_REACTORS
330
47
102
}
330
47
100
AcDbProxyObject
 90
      499
 91
      505
 95
   393239
 70
     0
 93
      241
310
90C332F3822203D2031272D3022000000000000360FC000000000000284000
  0
ACAD_PROXY_OBJECT
  5
62
102
{ACAD_REACTORS
330
47
102
}
330
47
100
AcDbProxyObject
 90
      499
 91
      505
 95
   393239
 70
     0
 93
      241
310
90C312F3222203D2031272D3022000000000000380FC000000000000284000
  0
ACAD_PROXY_OBJECT
  5
63
102
{ACAD_REACTORS
330
47
102
}
330
47
100
AcDbProxyObject
 90
      499
 91
      505
 95
   393239
 70
     0
 93
      241
310
90C332F3422203D2031272D30220000000000003A0FC000000000000284000
  0
ACAD_PROXY_OBJECT
  5
64
102
{ACAD_REACTORS
330
47
102
}
330
47
100
AcDbProxyObject
 90
      499
 91
      505
 95
   393239
 70
     0
 93
      161
310
90A3122203D2031272D30224000000000000284000
  0
ACAD_PROXY_OBJECT
  5
65
102
{ACAD_REACTORS
330
47
102
}
330
47
100
AcDbProxyObject
 90
      499
 91
      505
 95
   393239
 70
     0
 93
      257
310
90E312D312F3222203D2031272D30220000000000003E0FC000000000000284000
  0
ACAD_PROXY_OBJECT
  5
66
102
{ACAD_REACTORS
330
47
102
}
330
47
100
AcDbProxyObject
 90
      499
 91
      505
 95
   393239
 70
     0
 93
      225
310
90A3322203D2031272D302200000000000002100000000000000284000
  0
ACAD_PROXY_OBJECT
  5
67
102
{ACAD_REACTORS
330
47
102
}
330
47
100
AcDbProxyObject
 90
      499
 91
      505
 95
   393239
 70
     0
 93
      225
310
90A3622203D2031272D302200000000000006100000000000000284000
  0
ACAD_PROXY_OBJECT
  5
68
102
{ACAD_REACTORS
330
47
102
}
330
47
100
AcDbProxyObject
 90
      499
 91
      505
 95
   393239
 70
     0
 93
      249
310
90D31272D3022203D2031272D30220000000000000A100000000000000284000
  0
ENDSEC
  0
EOF
