  0
SECTION
  2
HEADER
  9
$ACADVER
  1
AC1018
  9
$ACADMAINTVER
 70
    39
  9
$DWGCODEPAGE
  3
ANSI_1252
  9
$LASTSAVEDBY
  1
fottrem
  9
$INSBASE
 10
0.0
 20
0.0
 30
0.0
  9
$EXTMIN
 10
0.1653543307086614
 20
0.1653543307086614
 30
-12.0005652926802
  9
$EXTMAX
 10
89.83464566929135
 20
47.83464566929134
 30
0.0000000000000048
  9
$LIMMIN
 10
0.0
 20
0.0
  9
$LIMMAX
 10
90.0
 20
48.00000000000001
  9
$ORTHOMODE
 70
     0
  9
$REGENMODE
 70
     1
  9
$FILLMODE
 70
     1
  9
$QTEXTMODE
 70
     0
  9
$MIRRTEXT
 70
     1
  9
$LTSCALE
 40
1.0
  9
$ATTMODE
 70
     1
  9
$TEXTSIZE
 40
0.5
  9
$TRACEWID
 40
0.05
  9
$TEXTSTYLE
  7
Standard
  9
$CLAYER
  8
0
  9
$CELTYPE
  6
ByLayer
  9
$CECOLOR
 62
   256
  9
$CELTSCALE
 40
1.0
  9
$DISPSILH
 70
     0
  9
$DIMSCALE
 40
1.0
  9
$DIMASZ
 40
0.3
  9
$DIMEXO
 40
0.1666666666666667
  9
$DIMDLI
 40
0.38
  9
$DIMRND
 40
0.0
  9
$DIMDLE
 40
0.0
  9
$DIMEXE
 40
0.3750000000000001
  9
$DIMTP
 40
0.0
  9
$DIMTM
 40
0.0
  9
$DIMTXT
 40
0.5
  9
$DIMCEN
 40
0.09
  9
$DIMTSZ
 40
0.0
  9
$DIMTOL
 70
     0
  9
$DIMLIM
 70
     0
  9
$DIMTIH
 70
     1
  9
$DIMTOH
 70
     1
  9
$DIMSE1
 70
     0
  9
$DIMSE2
 70
     0
  9
$DIMTAD
 70
     0
  9
$DIMZIN
 70
     1
  9
$DIMBLK
  1

  9
$DIMASO
 70
     1
  9
$DIMSHO
 70
     1
  9
$DIMPOST
  1

  9
$DIMAPOST
  1

  9
$DIMALT
 70
     0
  9
$DIMALTD
 70
     2
  9
$DIMALTF
 40
25.4
  9
$DIMLFAC
 40
1.0
  9
$DIMTOFL
 70
     0
  9
$DIMTVP
 40
0.0
  9
$DIMTIX
 70
     0
  9
$DIMSOXD
 70
     0
  9
$DIMSAH
 70
     0
  9
$DIMBLK1
  1

  9
$DIMBLK2
  1

  9
$DIMSTYLE
  2
Standard
  9
$DIMCLRD
 70
     0
  9
$DIMCLRE
 70
     0
  9
$DIMCLRT
 70
     0
  9
$DIMTFAC
 40
1.0
  9
$DIMGAP
 40
0.125
  9
$DIMJUST
 70
     0
  9
$DIMSD1
 70
     0
  9
$DIMSD2
 70
     0
  9
$DIMTOLJ
 70
     1
  9
$DIMTZIN
 70
     1
  9
$DIMALTZ
 70
     0
  9
$DIMALTTZ
 70
     0
  9
$DIMUPT
 70
     0
  9
$DIMDEC
 70
     2
  9
$DIMTDEC
 70
     2
  9
$DIMALTU
 70
     2
  9
$DIMALTTD
 70
     2
  9
$DIMTXSTY
  7
Standard
  9
$DIMAUNIT
 70
     0
  9
$DIMADEC
 70
     2
  9
$DIMALTRND
 40
0.0
  9
$DIMAZIN
 70
     0
  9
$DIMDSEP
 70
    46
  9
$DIMATFIT
 70
     3
  9
$DIMFRAC
 70
     0
  9
$DIMLDRBLK
  1

  9
$DIMLUNIT
 70
     2
  9
$DIMLWD
 70
    -2
  9
$DIMLWE
 70
    -2
  9
$DIMTMOVE
 70
     0
  9
$LUNITS
 70
     2
  9
$LUPREC
 70
     4
  9
$SKETCHINC
 40
0.1
  9
$FILLETRAD
 40
0.5
  9
$AUNITS
 70
     0
  9
$AUPREC
 70
     2
  9
$MENU
  1
.
  9
$ELEVATION
 40
0.0
  9
$PELEVATION
 40
0.0
  9
$THICKNESS
 40
0.0
  9
$LIMCHECK
 70
     0
  9
$CHAMFERA
 40
0.0
  9
$CHAMFERB
 40
0.0
  9
$CHAMFERC
 40
0.0
  9
$CHAMFERD
 40
0.0
  9
$SKPOLY
 70
     0
  9
$TDCREATE
 40
2453353.550459155
  9
$TDUCREATE
 40
2453353.717125822
  9
$TDUPDATE
 40
2459487.479345243
  9
$TDUUPDATE
 40
2459487.64601191
  9
$TDINDWG
 40
0.0436689931
  9
$TDUSRTIMER
 40
0.0436689931
  9
$USRTIMER
 70
     1
  9
$ANGBASE
 50
0.0
  9
$ANGDIR
 70
     0
  9
$PDMODE
 70
     0
  9
$PDSIZE
 40
-1.0
  9
$PLINEWID
 40
0.0
  9
$SPLFRAME
 70
     0
  9
$SPLINETYPE
 70
     6
  9
$SPLINESEGS
 70
     8
  9
$HANDSEED
  5
2D0
  9
$SURFTAB1
 70
     6
  9
$SURFTAB2
 70
     6
  9
$SURFTYPE
 70
     6
  9
$SURFU
 70
     6
  9
$SURFV
 70
     6
  9
$UCSBASE
  2

  9
$UCSNAME
  2

  9
$UCSORG
 10
0.0
 20
0.0
 30
0.0
  9
$UCSXDIR
 10
1.0
 20
0.0
 30
0.0
  9
$UCSYDIR
 10
0.0
 20
1.0
 30
0.0
  9
$UCSORTHOREF
  2

  9
$UCSORTHOVIEW
 70
     0
  9
$UCSORGTOP
 10
0.0
 20
0.0
 30
0.0
  9
$UCSORGBOTTOM
 10
0.0
 20
0.0
 30
0.0
  9
$UCSORGLEFT
 10
0.0
 20
0.0
 30
0.0
  9
$UCSORGRIGHT
 10
0.0
 20
0.0
 30
0.0
  9
$UCSORGFRONT
 10
0.0
 20
0.0
 30
0.0
  9
$UCSORGBACK
 10
0.0
 20
0.0
 30
0.0
  9
$PUCSBASE
  2

  9
$PUCSNAME
  2

  9
$PUCSORG
 10
0.0
 20
0.0
 30
0.0
  9
$PUCSXDIR
 10
1.0
 20
0.0
 30
0.0
  9
$PUCSYDIR
 10
0.0
 20
1.0
 30
0.0
  9
$PUCSORTHOREF
  2

  9
$PUCSORTHOVIEW
 70
     0
  9
$PUCSORGTOP
 10
0.0
 20
0.0
 30
0.0
  9
$PUCSORGBOTTOM
 10
0.0
 20
0.0
 30
0.0
  9
$PUCSORGLEFT
 10
0.0
 20
0.0
 30
0.0
  9
$PUCSORGRIGHT
 10
0.0
 20
0.0
 30
0.0
  9
$PUCSORGFRONT
 10
0.0
 20
0.0
 30
0.0
  9
$PUCSORGBACK
 10
0.0
 20
0.0
 30
0.0
  9
$USERI1
 70
     0
  9
$USERI2
 70
     0
  9
$USERI3
 70
     0
  9
$USERI4
 70
     0
  9
$USERI5
 70
     0
  9
$USERR1
 40
0.0
  9
$USERR2
 40
0.0
  9
$USERR3
 40
0.0
  9
$USERR4
 40
0.0
  9
$USERR5
 40
0.0
  9
$WORLDVIEW
 70
     1
  9
$SHADEDGE
 70
     3
  9
$SHADEDIF
 70
    70
  9
$TILEMODE
 70
     1
  9
$MAXACTVP
 70
    64
  9
$PINSBASE
 10
0.0
 20
0.0
 30
0.0
  9
$PLIMCHECK
 70
     0
  9
$PEXTMIN
 10
1.000000000000000E+20
 20
1.000000000000000E+20
 30
1.000000000000000E+20
  9
$PEXTMAX
 10
-1.000000000000000E+20
 20
-1.000000000000000E+20
 30
-1.000000000000000E+20
  9
$PLIMMIN
 10
0.0
 20
0.0
  9
$PLIMMAX
 10
12.0
 20
9.0
  9
$UNITMODE
 70
     0
  9
$VISRETAIN
 70
     1
  9
$PLINEGEN
 70
     0
  9
$PSLTSCALE
 70
     1
  9
$TREEDEPTH
 70
  3020
  9
$CMLSTYLE
  2
Standard
  9
$CMLJUST
 70
     0
  9
$CMLSCALE
 40
1.0
  9
$PROXYGRAPHICS
 70
     1
  9
$MEASUREMENT
 70
     0
  9
$CELWEIGHT
370
    -1
  9
$ENDCAPS
280
     0
  9
$JOINSTYLE
280
     0
  9
$LWDISPLAY
290
     1
  9
$INSUNITS
 70
     1
  9
$HYPERLINKBASE
  1

  9
$STYLESHEET
  1

  9
$XEDIT
290
     0
  9
$CEPSNTYPE
380
     0
  9
$PSTYLEMODE
290
     1
  9
$FINGERPRINTGUID
  2
{b185d6d9-3b8f-4ad0-9796-70a87519099f}
  9
$VERSIONGUID
  2
{FAEB1C32-E019-11D5-929B-00C0DF256EC4}
  9
$EXTNAMES
290
     1
  9
$PSVPSCALE
 40
0.0
  9
$OLESTARTUP
290
     0
  9
$SORTENTS
280
   127
  9
$INDEXCTL
280
     0
  9
$HIDETEXT
280
     1
  9
$XCLIPFRAME
290
     0
  9
$HALOGAP
280
     0
  9
$OBSCOLOR
 70
   257
  9
$OBSLTYPE
280
     0
  9
$INTERSECTIONDISPLAY
280
     0
  9
$INTERSECTIONCOLOR
 70
   257
  9
$DIMASSOC
280
     2
  9
$PROJECTNAME
  1

  0
ENDSEC
  0
SECTION
  2
CLASSES
  0
CLASS
  1
ACDBDICTIONARYWDFLT
  2
AcDbDictionaryWithDefault
  3
ObjectDBX Classes
 90
        0
 91
        3
280
     0
281
     0
  0
CLASS
  1
ACDBPLACEHOLDER
  2
AcDbPlaceHolder
  3
ObjectDBX Classes
 90
        0
 91
        1
280
     0
281
     0
  0
CLASS
  1
LAYOUT
  2
AcDbLayout
  3
ObjectDBX Classes
 90
        0
 91
        1
280
     0
281
     0
  0
CLASS
  1
DICTIONARYVAR
  2
AcDbDictionaryVar
  3
ObjectDBX Classes
 90
        0
 91
        3
280
     0
281
     0
  0
CLASS
  1
TABLESTYLE
  2
AcDbTableStyle
  3
ObjectDBX Classes
 90
     2047
 91
        3
280
     0
281
     0
  0
CLASS
  1
SCALE
  2
AcDbScale
  3
ObjectDBX Classes
 90
     1153
 91
       67
280
     1
281
     0
  0
ENDSEC
  0
SECTION
  2
TABLES
  0
TABLE
  2
VPORT
  5
8
330
0
100
AcDbSymbolTable
 70
     2
  0
VPORT
  5
97
330
8
100
AcDbSymbolTableRecord
100
AcDbViewportTableRecord
  2
*Active
 70
     0
 10
0.0
 20
0.0
 11
1.0
 21
1.0
 12
41.18561330614448
 22
22.89835030054953
 13
0.0
 23
0.0
 14
0.5
 24
0.5
 15
0.5
 25
0.5
 16
0.0
 26
0.0
 36
1.0
 17
0.0
 27
0.0
 37
0.0
 40
56.52010187466392
 41
1.875
 42
50.0
 43
0.0
 44
0.0
 50
0.0
 51
0.0
 71
    16
 72
  2000
 73
     1
 74
     3
 75
     0
 76
     0
 77
     0
 78
     0
281
     0
 65
     0
110
0.0
120
0.0
130
0.0
111
1.0
121
0.0
131
0.0
112
0.0
122
1.0
132
0.0
 79
     0
146
0.0
  0
ENDTAB
  0
TABLE
  2
LTYPE
  5
5
330
0
100
AcDbSymbolTable
 70
     8
  0
LTYPE
  5
14
330
5
100
AcDbSymbolTableRecord
100
AcDbLinetypeTableRecord
  2
ByBlock
 70
     0
  3

 72
    65
 73
     0
 40
0.0
  0
LTYPE
  5
15
330
5
100
AcDbSymbolTableRecord
100
AcDbLinetypeTableRecord
  2
ByLayer
 70
     0
  3

 72
    65
 73
     0
 40
0.0
  0
LTYPE
  5
16
330
5
100
AcDbSymbolTableRecord
100
AcDbLinetypeTableRecord
  2
Continuous
 70
     0
  3
Solid line
 72
    65
 73
     0
 40
0.0
  0
LTYPE
  5
2A2
330
5
100
AcDbSymbolTableRecord
100
AcDbLinetypeTableRecord
  2
SLD-Solid
 70
     0
  3
SolidWorks Line Style
 72
    65
 73
     0
 40
0.0
  0
LTYPE
  5
2A3
330
5
100
AcDbSymbolTableRecord
100
AcDbLinetypeTableRecord
  2
SLD-Dashed
 70
     0
  3
SolidWorks Line Style
 72
    65
 73
     2
 40
0.075
 49
0.05
 74
     4
 75
     0
340
0
 46
1.0
 50
0.0
 44
0.0
 45
0.0
 49
-0.025
 74
     4
 75
     0
340
0
 46
1.0
 50
0.0
 44
0.0
 45
0.0
  0
LTYPE
  5
2A4
330
5
100
AcDbSymbolTableRecord
100
AcDbLinetypeTableRecord
  2
SLD-Phantom
 70
     0
  3
SolidWorks Line Style
 72
    65
 73
     6
 40
0.4999999999999999
 49
0.25
 74
     4
 75
     0
340
0
 46
1.0
 50
0.0
 44
0.0
 45
0.0
 49
-0.05
 74
     4
 75
     0
340
0
 46
1.0
 50
0.0
 44
0.0
 45
0.0
 49
0.05
 74
     4
 75
     0
340
0
 46
1.0
 50
0.0
 44
0.0
 45
0.0
 49
-0.05
 74
     4
 75
     0
340
0
 46
1.0
 50
0.0
 44
0.0
 45
0.0
 49
0.05
 74
     4
 75
     0
340
0
 46
1.0
 50
0.0
 44
0.0
 45
0.0
 49
-0.05
 74
     4
 75
     0
340
0
 46
1.0
 50
0.0
 44
0.0
 45
0.0
  0
LTYPE
  5
2A5
330
5
100
AcDbSymbolTableRecord
100
AcDbLinetypeTableRecord
  2
SLD-Chain
 70
     0
  3
SolidWorks Line Style
 72
    65
 73
     4
 40
0.4
 49
0.25
 74
     4
 75
     0
340
0
 46
1.0
 50
0.0
 44
0.0
 45
0.0
 49
-0.05
 74
     4
 75
     0
340
0
 46
1.0
 50
0.0
 44
0.0
 45
0.0
 49
0.05
 74
     4
 75
     0
340
0
 46
1.0
 50
0.0
 44
0.0
 45
0.0
 49
-0.05
 74
     4
 75
     0
340
0
 46
1.0
 50
0.0
 44
0.0
 45
0.0
  0
LTYPE
  5
2A6
330
5
100
AcDbSymbolTableRecord
100
AcDbLinetypeTableRecord
  2
SLD-Center
 70
     0
  3
SolidWorks Line Style
 72
    65
 73
     4
 40
0.7500000000000002
 49
0.6000000000000001
 74
     4
 75
     0
340
0
 46
1.0
 50
0.0
 44
0.0
 45
0.0
 49
-0.05
 74
     4
 75
     0
340
0
 46
1.0
 50
0.0
 44
0.0
 45
0.0
 49
0.05
 74
     4
 75
     0
340
0
 46
1.0
 50
0.0
 44
0.0
 45
0.0
 49
-0.05
 74
     4
 75
     0
340
0
 46
1.0
 50
0.0
 44
0.0
 45
0.0
  0
LTYPE
  5
2A7
330
5
100
AcDbSymbolTableRecord
100
AcDbLinetypeTableRecord
  2
SLD-Stitch
 70
     0
  3
SolidWorks Line Style
 72
    65
 73
     2
 40
0.025
 49
0.0
 74
     4
 75
     0
340
0
 46
1.0
 50
0.0
 44
0.0
 45
0.0
 49
-0.025
 74
     4
 75
     0
340
0
 46
1.0
 50
0.0
 44
0.0
 45
0.0
  0
LTYPE
  5
2A8
330
5
100
AcDbSymbolTableRecord
100
AcDbLinetypeTableRecord
  2
SLD-Thin-Thick-Chain
 70
     0
  3
SolidWorks Line Style
 72
    65
 73
     4
 40
0.4
 49
0.25
 74
     4
 75
     0
340
0
 46
1.0
 50
0.0
 44
0.0
 45
0.0
 49
-0.05
 74
     4
 75
     0
340
0
 46
1.0
 50
0.0
 44
0.0
 45
0.0
 49
0.05
 74
     4
 75
     0
340
0
 46
1.0
 50
0.0
 44
0.0
 45
0.0
 49
-0.05
 74
     4
 75
     0
340
0
 46
1.0
 50
0.0
 44
0.0
 45
0.0
  0
ENDTAB
  0
TABLE
  2
LAYER
  5
2
330
0
100
AcDbSymbolTable
 70
     6
  0
LAYER
  5
10
330
2
100
AcDbSymbolTableRecord
100
AcDbLayerTableRecord
  2
0
 70
     0
 62
     7
  6
Continuous
370
    -3
390
F
  0
LAYER
  5
2A9
330
2
100
AcDbSymbolTableRecord
100
AcDbLayerTableRecord
  2
FORMAT
 70
     0
 62
     7
  6
SLD-Solid
370
    -3
390
F
  0
LAYER
  5
2AA
330
2
100
AcDbSymbolTableRecord
100
AcDbLayerTableRecord
  2
NOTES
 70
     0
 62
     1
  6
SLD-Solid
370
    -3
390
F
  0
LAYER
  5
77
330
2
100
AcDbSymbolTableRecord
100
AcDbLayerTableRecord
  2
OBJECT
 70
     0
 62
     7
  6
SLD-Solid
370
    25
390
F
  0
LAYER
  5
78
330
2
100
AcDbSymbolTableRecord
100
AcDbLayerTableRecord
  2
DIMS
 70
     0
 62
     5
  6
SLD-Solid
370
    -3
390
F
  0
LAYER
  5
79
330
2
100
AcDbSymbolTableRecord
100
AcDbLayerTableRecord
  2
TITLE
 70
     0
 62
     8
  6
SLD-Solid
370
    -3
390
F
  0
ENDTAB
  0
TABLE
  2
STYLE
  5
3
330
0
100
AcDbSymbolTable
 70
     5
  0
STYLE
  5
11
330
3
100
AcDbSymbolTableRecord
100
AcDbTextStyleTableRecord
  2
Standard
 70
     0
 40
0.0
 41
1.0
 50
0.0
 71
     0
 42
0.5
  3
GOTHIC.TTF
  4

1001
ACAD
1000
CENTURY GOTHIC
1071
       34
  0
STYLE
  5
115
330
3
100
AcDbSymbolTableRecord
100
AcDbTextStyleTableRecord
  2
SLDTEXTSTYLE0
 70
     0
 40
0.0
 41
0.948
 50
0.0
 71
     0
 42
0.5
  3
ARIAL.TTF
  4

1001
ACAD
1000
Arial
1071
      290
  0
STYLE
  5
119
330
3
100
AcDbSymbolTableRecord
100
AcDbTextStyleTableRecord
  2
SLDTEXTSTYLE1
 70
     0
 40
0.0
 41
0.913
 50
0.0
 71
     0
 42
0.5
  3
GOTHIC.TTF
  4

1001
ACAD
1000
Century Gothic
1071
      290
  0
STYLE
  5
128
330
3
100
AcDbSymbolTableRecord
100
AcDbTextStyleTableRecord
  2
SLDTEXTSTYLE2
 70
     0
 40
0.0
 41
0.87
 50
0.0
 71
     0
 42
0.5
  3
ARIALNB.TTF
  4

1001
ACAD
1000
Arial Narrow
1071
 33554722
  0
STYLE
  5
12A
330
3
100
AcDbSymbolTableRecord
100
AcDbTextStyleTableRecord
  2
SLDTEXTSTYLE3
 70
     0
 40
0.0
 41
0.87
 50
0.0
 71
     0
 42
0.5
  3
ARIALN.TTF
  4

1001
ACAD
1000
Arial Narrow
1071
      290
  0
ENDTAB
  0
TABLE
  2
VIEW
  5
6
330
0
100
AcDbSymbolTable
 70
     0
  0
ENDTAB
  0
TABLE
  2
UCS
  5
7
330
0
100
AcDbSymbolTable
 70
     0
  0
ENDTAB
  0
TABLE
  2
APPID
  5
9
330
0
100
AcDbSymbolTable
 70
     1
  0
APPID
  5
12
330
9
100
AcDbSymbolTableRecord
100
AcDbRegAppTableRecord
  2
ACAD
 70
     0
  0
ENDTAB
  0
TABLE
  2
DIMSTYLE
  5
A
330
0
100
AcDbSymbolTable
 70
     5
100
AcDbDimStyleTable
  0
DIMSTYLE
105
27
330
A
100
AcDbSymbolTableRecord
100
AcDbDimStyleTableRecord
  2
Standard
 70
     0
340
11
  0
DIMSTYLE
105
1D6
102
{ACAD_REACTORS
330
1F7
102
}
330
A
100
AcDbSymbolTableRecord
100
AcDbDimStyleTableRecord
  2
SLDDIMSTYLE0
 70
     0
 41
0.3
 44
0.0
 45
0.000000001
 78
    12
 79
     3
140
0.5
147
0.125
173
     1
271
     2
272
     2
276
     2
277
     5
284
    12
340
119
341
2AB
343
2AB
344
2AB
  0
DIMSTYLE
105
1E8
102
{ACAD_REACTORS
330
1E7
330
222
102
}
330
A
100
AcDbSymbolTableRecord
100
AcDbDimStyleTableRecord
  2
SLDDIMSTYLE1
 70
     0
 41
0.3
 44
0.0
 45
0.000000001
 78
    12
 79
     3
140
0.5
147
0.125
172
     1
173
     1
271
     6
272
     2
276
     2
277
     5
284
    12
289
     0
340
119
341
2AB
343
2AB
344
2AB
  0
DIMSTYLE
105
213
102
{ACAD_REACTORS
330
212
330
27A
330
289
102
}
330
A
100
AcDbSymbolTableRecord
100
AcDbDimStyleTableRecord
  2
SLDDIMSTYLE2
 70
     0
 41
0.3
 44
0.0
 45
0.000000001
 78
    12
 79
     3
140
0.5
147
0.125
173
     1
271
     6
272
     2
276
     2
277
     5
284
    12
340
119
341
2AB
343
2AB
344
2AB
  0
DIMSTYLE
105
29A
330
A
100
AcDbSymbolTableRecord
100
AcDbDimStyleTableRecord
  2
SLDDIMSTYLE3
 70
     0
 41
0.3
 44
0.0
 45
0.000000001
146
0.3
147
0.0
173
     1
271
     0
272
     0
276
     2
277
     5
340
11
341
2AB
343
2AB
344
2AB
  0
ENDTAB
  0
TABLE
  2
BLOCK_RECORD
  5
1
330
0
100
AcDbSymbolTable
 70
    13
  0
BLOCK_RECORD
  5
1F
330
1
100
AcDbSymbolTableRecord
100
AcDbBlockTableRecord
  2
*Model_Space
340
22
  0
BLOCK_RECORD
  5
73
330
1
100
AcDbSymbolTableRecord
100
AcDbBlockTableRecord
  2
*Paper_Space
340
74
  0
BLOCK_RECORD
  5
2AB
330
1
100
AcDbSymbolTableRecord
100
AcDbBlockTableRecord
  2
_Open90
340
0
102
{BLKREFS
331
1E0
331
1E1
331
1EC
331
1ED
331
1FB
331
1FC
331
217
331
218
331
226
331
227
331
27E
331
27F
331
28D
331
28E
102
}
  0
BLOCK_RECORD
  5
23
330
1
100
AcDbSymbolTableRecord
100
AcDbBlockTableRecord
  2
*Paper_Space1
340
26
  0
BLOCK_RECORD
  5
11F
330
1
100
AcDbSymbolTableRecord
100
AcDbBlockTableRecord
  2
SW_NOTE_0
340
0
102
{BLKREFS
331
124
102
}
  0
BLOCK_RECORD
  5
125
330
1
100
AcDbSymbolTableRecord
100
AcDbBlockTableRecord
  2
SW_NOTE_0_1
340
0
102
{BLKREFS
331
12E
102
}
  0
BLOCK_RECORD
  5
12F
330
1
100
AcDbSymbolTableRecord
100
AcDbBlockTableRecord
  2
SW_NOTE_0_2
340
0
102
{BLKREFS
331
134
102
}
  0
BLOCK_RECORD
  5
1DD
330
1
100
AcDbSymbolTableRecord
100
AcDbBlockTableRecord
  2
_D
340
0
  0
BLOCK_RECORD
  5
1E9
330
1
100
AcDbSymbolTableRecord
100
AcDbBlockTableRecord
  2
_D_1
340
0
  0
BLOCK_RECORD
  5
1F8
330
1
100
AcDbSymbolTableRecord
100
AcDbBlockTableRecord
  2
_D_2
340
0
  0
BLOCK_RECORD
  5
214
330
1
100
AcDbSymbolTableRecord
100
AcDbBlockTableRecord
  2
_D_3
340
0
  0
BLOCK_RECORD
  5
223
330
1
100
AcDbSymbolTableRecord
100
AcDbBlockTableRecord
  2
_D_4
340
0
  0
BLOCK_RECORD
  5
254
330
1
100
AcDbSymbolTableRecord
100
AcDbBlockTableRecord
  2
SW_NOTE_0_3
340
0
  0
BLOCK_RECORD
  5
27B
330
1
100
AcDbSymbolTableRecord
100
AcDbBlockTableRecord
  2
_D_5
340
0
  0
BLOCK_RECORD
  5
28A
330
1
100
AcDbSymbolTableRecord
100
AcDbBlockTableRecord
  2
_D_6
340
0
  0
ENDTAB
  0
ENDSEC
  0
SECTION
  2
BLOCKS
  0
BLOCK
  5
20
330
1F
100
AcDbEntity
  8
0
100
AcDbBlockBegin
  2
*Model_Space
 70
     0
 71
     0
 10
0.0
 20
0.0
 30
0.0
  3
*Model_Space
  1

  0
ENDBLK
  5
21
330
1F
100
AcDbEntity
  8
0
100
AcDbBlockEnd
  0
BLOCK
  5
75
330
73
100
AcDbEntity
 67
     1
  8
0
100
AcDbBlockBegin
  2
*Paper_Space
 70
     0
 71
     0
 10
0.0
 20
0.0
 30
0.0
  3
*Paper_Space
  1

  0
ENDBLK
  5
76
330
73
100
AcDbEntity
 67
     1
  8
0
100
AcDbBlockEnd
  0
BLOCK
  5
2AC
330
2AB
100
AcDbEntity
  8
0
100
AcDbBlockBegin
  2
_Open90
 70
     0
 71
     0
 10
0.0
 20
0.0
 30
0.0
  3
_Open90
  1

  0
LINE
  5
1DA
330
2AB
100
AcDbEntity
  8
0
  6
ByBlock
 62
     0
370
    -2
100
AcDbLine
 10
-0.5
 20
0.5
 30
0.0
 11
0.0
 21
0.0
 31
0.0
  0
LINE
  5
1DB
330
2AB
100
AcDbEntity
  8
0
  6
ByBlock
 62
     0
370
    -2
100
AcDbLine
 10
0.0
 20
0.0
 30
0.0
 11
-0.5
 21
-0.5
 31
0.0
  0
LINE
  5
1DC
330
2AB
100
AcDbEntity
  8
0
  6
ByBlock
 62
     0
370
    -2
100
AcDbLine
 10
0.0
 20
0.0
 30
0.0
 11
-1.0
 21
0.0
 31
0.0
  0
ENDBLK
  5
2AD
330
2AB
100
AcDbEntity
  8
0
100
AcDbBlockEnd
  0
BLOCK
  5
2B4
330
23
100
AcDbEntity
  8
0
100
AcDbBlockBegin
  2
*Paper_Space1
 70
     0
 71
     0
 10
0.0
 20
0.0
 30
0.0
  3
*Paper_Space1
  1

  0
ENDBLK
  5
2B5
330
23
100
AcDbEntity
  8
0
100
AcDbBlockEnd
  0
BLOCK
  5
2B6
330
11F
100
AcDbEntity
  8
0
100
AcDbBlockBegin
  2
SW_NOTE_0
 70
     0
 71
     0
 10
0.0
 20
0.0
 30
0.0
  3
SW_NOTE_0
  1

  0
MTEXT
  5
122
330
11F
100
AcDbEntity
  8
NOTES
 62
     0
100
AcDbMText
 10
0.0
 20
0.3759780907668229
 30
0.0
 40
0.2916666666666666
 41
0.0
 71
     1
 72
     1
  1
FROST PRODUCTS LTD.
  7
SLDTEXTSTYLE0
 73
     1
 44
1.0
  0
MTEXT
  5
123
330
11F
100
AcDbEntity
  8
NOTES
 62
     0
100
AcDbMText
 10
0.0
 20
-0.0495142708586375
 30
0.0
 40
0.2291666666666666
 41
0.0
 71
     1
 72
     1
  1
5280 JOHN LUCAS DRIVE, BURLINGTON, ON, L7L 5Z9
  7
SLDTEXTSTYLE0
 73
     1
 44
1.0
  0
ENDBLK
  5
2B7
330
11F
100
AcDbEntity
  8
0
100
AcDbBlockEnd
  0
BLOCK
  5
2B8
330
125
100
AcDbEntity
  8
0
100
AcDbBlockBegin
  2
SW_NOTE_0_1
 70
     0
 71
     0
 10
0.0
 20
0.0
 30
0.0
  3
SW_NOTE_0_1
  1

  0
MTEXT
  5
129
330
125
100
AcDbEntity
  8
NOTES
 62
     0
100
AcDbMText
 10
0.0
 20
0.2381282770514712
 30
0.0
 40
0.1847290640394089
 41
0.0
 71
     1
 72
     1
  1
PROPRIETARY AND CONFIDENTIAL
  7
SLDTEXTSTYLE2
 73
     1
 44
1.0
  0
MTEXT
  5
12B
330
125
100
AcDbEntity
  8
NOTES
 62
     0
100
AcDbMText
 10
0.0
 20
-0.0504364795553608
 30
0.0
 40
0.25
 41
0.0
 71
     1
 72
     1
  1
THE INFORMATION CONTAINED IN THIS DRAWING IS THE SOLE PROPERTY OF 
  7
SLDTEXTSTYLE3
 73
     1
 44
1.0
  0
MTEXT
  5
12C
330
125
100
AcDbEntity
  8
NOTES
 62
     0
100
AcDbMText
 10
0.0
 20
-0.4231398940537119
 30
0.0
 40
0.25
 41
0.0
 71
     1
 72
     1
  1
FROST PRODUCTS LTD.  ANY REPRODUCTION IN PART OR AS A WHOLE WITHOUT 
  7
SLDTEXTSTYLE3
 73
     1
 44
1.0
  0
MTEXT
  5
12D
330
125
100
AcDbEntity
  8
NOTES
 62
     0
100
AcDbMText
 10
0.0
 20
-0.7958433085520636
 30
0.0
 40
0.25
 41
0.0
 71
     1
 72
     1
  1
THE WRITTEN PERMISSION OF FROST PRODUCTS LTD. IS PROHIBITED.
  7
SLDTEXTSTYLE3
 73
     1
 44
1.0
  0
ENDBLK
  5
2B9
330
125
100
AcDbEntity
  8
0
100
AcDbBlockEnd
  0
BLOCK
  5
2BA
330
12F
100
AcDbEntity
  8
0
100
AcDbBlockBegin
  2
SW_NOTE_0_2
 70
     0
 71
     0
 10
0.0
 20
0.0
 30
0.0
  3
SW_NOTE_0_2
  1

  0
MTEXT
  5
132
330
12F
100
AcDbEntity
  8
NOTES
 62
     0
100
AcDbMText
 10
1.199218749999999
 20
0.3193359375000002
 30
0.0
 40
0.25
 41
0.0
 71
     2
 72
     1
  1
September 10, 
  7
SLDTEXTSTYLE1
 73
     1
 44
1.0
  0
MTEXT
  5
133
330
12F
100
AcDbEntity
  8
NOTES
 62
     0
100
AcDbMText
 10
1.146874896067331
 20
-0.0139973918049352
 30
0.0
 40
0.25
 41
0.0
 71
     2
 72
     1
  1
2021
  7
SLDTEXTSTYLE1
 73
     1
 44
1.0
  0
ENDBLK
  5
2BB
330
12F
100
AcDbEntity
  8
0
100
AcDbBlockEnd
  0
BLOCK
  5
2BC
330
1DD
100
AcDbEntity
  8
0
100
AcDbBlockBegin
  2
_D
 70
     0
 71
     0
 10
0.0
 20
0.0
 30
0.0
  3
_D
  1

  0
INSERT
  5
1E0
330
1DD
100
AcDbEntity
  8
DIMS
100
AcDbBlockReference
  2
_Open90
 10
16.40087235620011
 20
18.40966831028033
 30
0.0
 41
0.3
 42
0.3
 50
180.0000000000004
  0
INSERT
  5
1E1
330
1DD
100
AcDbEntity
  8
DIMS
100
AcDbBlockReference
  2
_Open90
 10
34.40087235620012
 20
18.40966831028031
 30
0.0
 41
0.3
 42
0.3
 50
0.0000000000004071
  0
LINE
  5
1E2
330
1DD
100
AcDbEntity
  8
DIMS
100
AcDbLine
 10
16.40087235620011
 20
17.27502179515701
 30
0.0
 11
16.40087235620011
 21
18.78466831028033
 31
0.0
  0
LINE
  5
1E3
330
1DD
100
AcDbEntity
  8
DIMS
100
AcDbLine
 10
34.40087235620012
 20
17.27502179515701
 30
0.0
 11
34.40087235620012
 21
18.78466831028031
 31
0.0
  0
LINE
  5
1E4
330
1DD
100
AcDbEntity
  8
DIMS
100
AcDbLine
 10
16.40087235620011
 20
18.40966831028033
 30
0.0
 11
23.64175709449655
 21
18.40966831028032
 31
0.0
  0
LINE
  5
1E5
330
1DD
100
AcDbEntity
  8
DIMS
100
AcDbLine
 10
34.40087235620012
 20
18.40966831028031
 30
0.0
 11
27.98967364032694
 21
18.40966831028032
 31
0.0
  0
MTEXT
  5
1E6
330
1DD
100
AcDbEntity
  8
DIMS
100
AcDbMText
 10
23.64175709449655
 20
18.65146522834702
 30
0.0
 40
0.5
 41
0.0
 71
     1
 72
     1
  1
peened area
  7
SLDTEXTSTYLE1
 73
     1
 44
1.0
  0
ENDBLK
  5
2BD
330
1DD
100
AcDbEntity
  8
0
100
AcDbBlockEnd
  0
BLOCK
  5
2BE
330
1E9
100
AcDbEntity
  8
0
100
AcDbBlockBegin
  2
_D_1
 70
     0
 71
     0
 10
0.0
 20
0.0
 30
0.0
  3
_D_1
  1

  0
INSERT
  5
1EC
330
1E9
100
AcDbEntity
  8
DIMS
100
AcDbBlockReference
  2
_Open90
 10
34.88650230948195
 20
17.10835512849034
 30
-1.374999999999999
 41
0.3
 42
0.3
 50
270.0000000000004
  0
INSERT
  5
1ED
330
1E9
100
AcDbEntity
  8
DIMS
100
AcDbBlockReference
  2
_Open90
 10
34.88650230948195
 20
15.85835512849034
 30
-1.374999999999999
 41
0.3
 42
0.3
 50
90.00000000000041
  0
LINE
  5
1EE
330
1E9
100
AcDbEntity
  8
DIMS
100
AcDbLine
 10
33.79101612067295
 20
14.41683805437403
 30
0.0
 11
34.30698837011749
 21
14.41683805437403
 31
0.0
  0
LINE
  5
1EF
330
1E9
100
AcDbEntity
  8
DIMS
100
AcDbLine
 10
35.73420568953345
 20
17.10835512849034
 30
0.0
 11
34.51150230948195
 21
17.10835512849034
 31
0.0
  0
LINE
  5
1F0
330
1E9
100
AcDbEntity
  8
DIMS
100
AcDbLine
 10
34.58650230948195
 20
14.36555335598591
 30
0.0
 11
34.88650230948195
 21
14.36555335598591
 31
0.0
  0
LINE
  5
1F1
330
1E9
100
AcDbEntity
  8
DIMS
100
AcDbLine
 10
34.88650230948195
 20
14.36555335598591
 30
0.0
 11
34.88650230948195
 21
15.85835512849034
 31
0.0
  0
LINE
  5
1F2
330
1E9
100
AcDbEntity
  8
DIMS
100
AcDbLine
 10
34.88650230948195
 20
17.10835512849034
 30
0.0
 11
34.88650230948195
 21
17.40835512849034
 31
0.0
  0
MTEXT
  5
1F3
330
1E9
100
AcDbEntity
  8
DIMS
100
AcDbMText
 10
33.34830777321089
 20
14.64623911480541
 30
0.0
 40
0.5
 41
0.0
 71
     1
 72
     1
  1
1
  7
SLDTEXTSTYLE1
 73
     1
 44
1.0
  0
MTEXT
  5
1F4
330
1E9
100
AcDbEntity
  8
DIMS
100
AcDbMText
 10
33.86428002265544
 20
15.01155161385091
 30
0.0
 40
0.5
 41
0.0
 71
     1
 72
     1
  1
1
  7
SLDTEXTSTYLE1
 73
     1
 44
1.0
  0
MTEXT
  5
1F5
330
1E9
100
AcDbEntity
  8
DIMS
100
AcDbMText
 10
33.86428002265544
 20
14.35037103530288
 30
0.0
 40
0.5
 41
0.0
 71
     1
 72
     1
  1
4
  7
SLDTEXTSTYLE1
 73
     1
 44
1.0
  0
MTEXT
  5
1F6
330
1E9
100
AcDbEntity
  8
DIMS
100
AcDbMText
 10
34.38025227209998
 20
14.64623911480541
 30
0.0
 40
0.5
 41
0.0
 71
     1
 72
     1
  1
"
  7
SLDTEXTSTYLE1
 73
     1
 44
1.0
  0
ENDBLK
  5
2BF
330
1E9
100
AcDbEntity
  8
0
100
AcDbBlockEnd
  0
BLOCK
  5
2C0
330
1F8
100
AcDbEntity
  8
0
100
AcDbBlockBegin
  2
_D_2
 70
     0
 71
     0
 10
0.0
 20
0.0
 30
0.0
  3
_D_2
  1

  0
INSERT
  5
1FB
330
1F8
100
AcDbEntity
  8
DIMS
100
AcDbBlockReference
  2
_Open90
 10
37.40087235620011
 20
20.26743840595136
 30
-1.374999999999999
 41
0.3
 42
0.3
 50
0.0000000000004071
  0
INSERT
  5
1FC
330
1F8
100
AcDbEntity
  8
DIMS
100
AcDbBlockReference
  2
_Open90
 10
13.40087235620011
 20
20.26743840595134
 30
-1.374999999999999
 41
0.3
 42
0.3
 50
180.0000000000004
  0
LINE
  5
1FD
330
1F8
100
AcDbEntity
  8
DIMS
100
AcDbLine
 10
37.40087235620012
 20
16.65002179515701
 30
0.0
 11
37.40087235620011
 21
20.64243840595136
 31
0.0
  0
LINE
  5
1FE
330
1F8
100
AcDbEntity
  8
DIMS
100
AcDbLine
 10
13.40087235620011
 20
16.65002179515701
 30
0.0
 11
13.40087235620011
 21
20.64243840595135
 31
0.0
  0
LINE
  5
1FF
330
1F8
100
AcDbEntity
  8
DIMS
100
AcDbLine
 10
37.40087235620011
 20
20.26743840595136
 30
0.0
 11
26.70836921434126
 21
20.26743840595135
 31
0.0
  0
LINE
  5
200
330
1F8
100
AcDbEntity
  8
DIMS
100
AcDbLine
 10
13.40087235620011
 20
20.26743840595134
 30
0.0
 11
25.76323035933263
 21
20.26743840595135
 31
0.0
  0
MTEXT
  5
201
330
1F8
100
AcDbEntity
  8
DIMS
100
AcDbMText
 10
25.76323035933263
 20
20.50923532401805
 30
0.0
 40
0.5
 41
0.0
 71
     1
 72
     1
  1
24"
  7
SLDTEXTSTYLE1
 73
     1
 44
1.0
  0
ENDBLK
  5
2C1
330
1F8
100
AcDbEntity
  8
0
100
AcDbBlockEnd
  0
BLOCK
  5
2C2
330
214
100
AcDbEntity
  8
0
100
AcDbBlockBegin
  2
_D_3
 70
     0
 71
     0
 10
0.0
 20
0.0
 30
0.0
  3
_D_3
  1

  0
INSERT
  5
217
330
214
100
AcDbEntity
  8
DIMS
100
AcDbBlockReference
  2
_Open90
 10
55.36888949997311
 20
19.3225565161875
 30
-12.0005652926802
 41
0.3
 42
0.3
 50
180.0000000000004
  0
INSERT
  5
218
330
214
100
AcDbEntity
  8
DIMS
100
AcDbBlockReference
  2
_Open90
 10
58.1188894999731
 20
19.3225565161875
 30
-12.0005652926802
 41
0.3
 42
0.3
 50
0.0000000000004071
  0
LINE
  5
219
330
214
100
AcDbEntity
  8
DIMS
100
AcDbLine
 10
56.74832753770787
 20
19.37384121457562
 30
0.0
 11
57.26429978715242
 21
19.37384121457562
 31
0.0
  0
LINE
  5
21A
330
214
100
AcDbEntity
  8
DIMS
100
AcDbLine
 10
55.36888949997311
 20
16.65002179515701
 30
0.0
 11
55.36888949997311
 21
19.6975565161875
 31
0.0
  0
LINE
  5
21B
330
214
100
AcDbEntity
  8
DIMS
100
AcDbLine
 10
58.1188894999731
 20
17.6648868796028
 30
0.0
 11
58.1188894999731
 21
19.6975565161875
 31
0.0
  0
LINE
  5
21C
330
214
100
AcDbEntity
  8
DIMS
100
AcDbLine
 10
55.36888949997311
 20
19.3225565161875
 30
0.0
 11
56.30561919024581
 21
19.3225565161875
 31
0.0
  0
LINE
  5
21D
330
214
100
AcDbEntity
  8
DIMS
100
AcDbLine
 10
58.1188894999731
 20
19.3225565161875
 30
0.0
 11
57.54381372651687
 21
19.3225565161875
 31
0.0
  0
MTEXT
  5
21E
330
214
100
AcDbEntity
  8
DIMS
100
AcDbMText
 10
56.30561919024581
 20
19.60324227500699
 30
0.0
 40
0.5
 41
0.0
 71
     1
 72
     1
  1
2
  7
SLDTEXTSTYLE1
 73
     1
 44
1.0
  0
MTEXT
  5
21F
330
214
100
AcDbEntity
  8
DIMS
100
AcDbMText
 10
56.82159143969036
 20
19.9685547740525
 30
0.0
 40
0.5
 41
0.0
 71
     1
 72
     1
  1
3
  7
SLDTEXTSTYLE1
 73
     1
 44
1.0
  0
MTEXT
  5
220
330
214
100
AcDbEntity
  8
DIMS
100
AcDbMText
 10
56.82159143969036
 20
19.30737419550446
 30
0.0
 40
0.5
 41
0.0
 71
     1
 72
     1
  1
4
  7
SLDTEXTSTYLE1
 73
     1
 44
1.0
  0
MTEXT
  5
221
330
214
100
AcDbEntity
  8
DIMS
100
AcDbMText
 10
57.3375636891349
 20
19.60324227500699
 30
0.0
 40
0.5
 41
0.0
 71
     1
 72
     1
  1
"
  7
SLDTEXTSTYLE1
 73
     1
 44
1.0
  0
ENDBLK
  5
2C3
330
214
100
AcDbEntity
  8
0
100
AcDbBlockEnd
  0
BLOCK
  5
2C4
330
223
100
AcDbEntity
  8
0
100
AcDbBlockBegin
  2
_D_4
 70
     0
 71
     0
 10
0.0
 20
0.0
 30
0.0
  3
_D_4
  1

  0
INSERT
  5
226
330
223
100
AcDbEntity
  8
DIMS
100
AcDbBlockReference
  2
_Open90
 10
58.1188894999731
 20
18.43326619783465
 30
-12.0005652926802
 41
0.3
 42
0.3
 50
180.0000000000004
  0
INSERT
  5
227
330
223
100
AcDbEntity
  8
DIMS
100
AcDbBlockReference
  2
_Open90
 10
57.6509525013706
 20
18.43326619783465
 30
-12.0005652926802
 41
0.3
 42
0.3
 50
0.0000000000004071
  0
LINE
  5
228
330
223
100
AcDbEntity
  8
DIMS
100
AcDbLine
 10
59.54498717555642
 20
18.48455089622277
 30
0.0
 11
60.43040387048054
 21
18.48455089622277
 31
0.0
  0
LINE
  5
229
330
223
100
AcDbEntity
  8
DIMS
100
AcDbLine
 10
58.1188894999731
 20
18.13752179515701
 30
0.0
 11
58.1188894999731
 21
18.80826619783465
 31
0.0
  0
LINE
  5
22A
330
223
100
AcDbEntity
  8
DIMS
100
AcDbLine
 10
57.6509525013706
 20
18.14570801966086
 30
0.0
 11
57.6509525013706
 21
18.80826619783465
 31
0.0
  0
LINE
  5
22B
330
223
100
AcDbEntity
  8
DIMS
100
AcDbLine
 10
58.1188894999731
 20
18.43326619783465
 30
0.0
 11
59.47172327357393
 21
18.43326619783465
 31
0.0
  0
LINE
  5
22C
330
223
100
AcDbEntity
  8
DIMS
100
AcDbLine
 10
57.6509525013706
 20
18.43326619783465
 30
0.0
 11
57.3509525013706
 21
18.43326619783465
 31
0.0
  0
MTEXT
  5
22D
330
223
100
AcDbEntity
  8
DIMS
100
AcDbMText
 10
59.80297330027869
 20
19.07926445569965
 30
0.0
 40
0.5
 41
0.0
 71
     1
 72
     1
  1
7
  7
SLDTEXTSTYLE1
 73
     1
 44
1.0
  0
MTEXT
  5
22E
330
223
100
AcDbEntity
  8
DIMS
100
AcDbMText
 10
59.61825107753891
 20
18.41808387715161
 30
0.0
 40
0.5
 41
0.0
 71
     1
 72
     1
  1
16
  7
SLDTEXTSTYLE1
 73
     1
 44
1.0
  0
MTEXT
  5
22F
330
223
100
AcDbEntity
  8
DIMS
100
AcDbMText
 10
60.50366777246303
 20
18.71395195665414
 30
0.0
 40
0.5
 41
0.0
 71
     1
 72
     1
  1
"
  7
SLDTEXTSTYLE1
 73
     1
 44
1.0
  0
ENDBLK
  5
2C5
330
223
100
AcDbEntity
  8
0
100
AcDbBlockEnd
  0
BLOCK
  5
2C6
330
254
100
AcDbEntity
  8
0
100
AcDbBlockBegin
  2
SW_NOTE_0_3
 70
     0
 71
     0
 10
0.0
 20
0.0
 30
0.0
  3
SW_NOTE_0_3
  1

  0
MTEXT
  5
257
330
254
100
AcDbEntity
  8
NOTES
 62
     0
100
AcDbMText
 10
0.0
 20
0.6386718749999982
 30
0.0
 40
0.5
 41
0.0
 71
     1
 72
     1
  1
3D view
  7
SLDTEXTSTYLE1
 73
     1
 44
1.0
  0
MTEXT
  5
258
330
254
100
AcDbEntity
  8
NOTES
 62
     0
100
AcDbMText
 10
0.0
 20
-0.3613281862472943
 30
0.0
 40
0.5
 41
0.0
 71
     1
 72
     1
  1
code 1001-SP-24
  7
SLDTEXTSTYLE1
 73
     1
 44
1.0
  0
ENDBLK
  5
2C7
330
254
100
AcDbEntity
  8
0
100
AcDbBlockEnd
  0
BLOCK
  5
2C8
330
27B
100
AcDbEntity
  8
0
100
AcDbBlockBegin
  2
_D_5
 70
     0
 71
     0
 10
0.0
 20
0.0
 30
0.0
  3
_D_5
  1

  0
INSERT
  5
27E
330
27B
100
AcDbEntity
  8
DIMS
100
AcDbBlockReference
  2
_Open90
 10
11.91344348930434
 20
33.67220114243249
 30
0.0000000000000048
 41
0.3
 42
0.3
 50
179.9974129735166
  0
INSERT
  5
27F
330
27B
100
AcDbEntity
  8
DIMS
100
AcDbBlockReference
  2
_Open90
 10
38.96604066138266
 20
33.67097966004791
 30
0.0000000000000048
 41
0.3
 42
0.3
 50
359.9974129735166
  0
LINE
  5
280
330
27B
100
AcDbEntity
  8
DIMS
100
AcDbLine
 10
25.17085193086057
 20
33.72287927625561
 30
0.0
 11
26.05626862578469
 21
33.72287927625561
 31
0.0
  0
LINE
  5
281
330
27B
100
AcDbEntity
  8
DIMS
100
AcDbLine
 10
11.91337988155511
 20
32.26345809475795
 30
0.0
 11
11.91346042135308
 21
34.04720114205023
 31
0.0
  0
LINE
  5
282
330
27B
100
AcDbEntity
  8
DIMS
100
AcDbLine
 10
38.96597705363342
 20
32.26223661237336
 30
0.0
 11
38.9660575934314
 21
34.04597965966566
 31
0.0
  0
LINE
  5
283
330
27B
100
AcDbEntity
  8
DIMS
100
AcDbLine
 10
11.91344348930434
 20
33.67220114243249
 30
0.0
 11
24.35869913791893
 21
33.67163921263146
 31
0.0
  0
LINE
  5
284
330
27B
100
AcDbEntity
  8
DIMS
100
AcDbLine
 10
38.96604066138266
 20
33.67097966004791
 30
0.0
 11
26.33578256514914
 21
33.67154994310352
 31
0.0
  0
MTEXT
  5
285
330
27B
100
AcDbEntity
  8
DIMS
100
AcDbMText
 10
24.35869913791893
 20
33.95228033668698
 30
0.0
 40
0.5
 41
0.0
 71
     1
 72
     1
  1
27
  7
SLDTEXTSTYLE1
 73
     1
 44
1.0
  0
MTEXT
  5
286
330
27B
100
AcDbEntity
  8
DIMS
100
AcDbMText
 10
25.42883805558284
 20
34.31759283573248
 30
0.0
 40
0.5
 41
0.0
 71
     1
 72
     1
  1
1
  7
SLDTEXTSTYLE1
 73
     1
 44
1.0
  0
MTEXT
  5
287
330
27B
100
AcDbEntity
  8
DIMS
100
AcDbMText
 10
25.24411583284305
 20
33.65641225718445
 30
0.0
 40
0.5
 41
0.0
 71
     1
 72
     1
  1
16
  7
SLDTEXTSTYLE1
 73
     1
 44
1.0
  0
MTEXT
  5
288
330
27B
100
AcDbEntity
  8
DIMS
100
AcDbMText
 10
26.12953260109966
 20
33.95228033668698
 30
0.0
 40
0.5
 41
0.0
 71
     1
 72
     1
  1
"
  7
SLDTEXTSTYLE1
 73
     1
 44
1.0
  0
ENDBLK
  5
2C9
330
27B
100
AcDbEntity
  8
0
100
AcDbBlockEnd
  0
BLOCK
  5
2CA
330
28A
100
AcDbEntity
  8
0
100
AcDbBlockBegin
  2
_D_6
 70
     0
 71
     0
 10
0.0
 20
0.0
 30
0.0
  3
_D_6
  1

  0
INSERT
  5
28D
330
28A
100
AcDbEntity
  8
DIMS
100
AcDbBlockReference
  2
_Open90
 10
35.8357751841218
 20
32.7267126881037
 30
0.0000000000000048
 41
0.3
 42
0.3
 50
180.0000000000004
  0
INSERT
  5
28E
330
28A
100
AcDbEntity
  8
DIMS
100
AcDbBlockReference
  2
_Open90
 10
38.96596952827843
 20
32.7267126881037
 30
0.0000000000000048
 41
0.3
 42
0.3
 50
0.0000000000004071
  0
LINE
  5
28F
330
28A
100
AcDbEntity
  8
DIMS
100
AcDbLine
 10
37.32269777926749
 20
32.77799738649182
 30
0.0
 11
37.83867002871203
 21
32.77799738649182
 31
0.0
  0
LINE
  5
290
330
28A
100
AcDbEntity
  8
DIMS
100
AcDbLine
 10
35.8357751841218
 20
32.26223661254325
 30
0.0
 11
35.8357751841218
 21
33.1017126881037
 31
0.0
  0
LINE
  5
291
330
28A
100
AcDbEntity
  8
DIMS
100
AcDbLine
 10
38.96596952827843
 20
32.26223661254325
 30
0.0
 11
38.96596952827843
 21
33.1017126881037
 31
0.0
  0
LINE
  5
292
330
28A
100
AcDbEntity
  8
DIMS
100
AcDbLine
 10
35.8357751841218
 20
32.7267126881037
 30
0.0
 11
36.87998943180543
 21
32.7267126881037
 31
0.0
  0
LINE
  5
293
330
28A
100
AcDbEntity
  8
DIMS
100
AcDbLine
 10
38.96596952827843
 20
32.7267126881037
 30
0.0
 11
38.11818396807648
 21
32.7267126881037
 31
0.0
  0
MTEXT
  5
294
330
28A
100
AcDbEntity
  8
DIMS
100
AcDbMText
 10
36.87998943180543
 20
33.00739844692319
 30
0.0
 40
0.5
 41
0.0
 71
     1
 72
     1
  1
3
  7
SLDTEXTSTYLE1
 73
     1
 44
1.0
  0
MTEXT
  5
295
330
28A
100
AcDbEntity
  8
DIMS
100
AcDbMText
 10
37.39596168124997
 20
33.3727109459687
 30
0.0
 40
0.5
 41
0.0
 71
     1
 72
     1
  1
1
  7
SLDTEXTSTYLE1
 73
     1
 44
1.0
  0
MTEXT
  5
296
330
28A
100
AcDbEntity
  8
DIMS
100
AcDbMText
 10
37.39596168124997
 20
32.71153036742066
 30
0.0
 40
0.5
 41
0.0
 71
     1
 72
     1
  1
8
  7
SLDTEXTSTYLE1
 73
     1
 44
1.0
  0
MTEXT
  5
297
330
28A
100
AcDbEntity
  8
DIMS
100
AcDbMText
 10
37.91193393069452
 20
33.00739844692319
 30
0.0
 40
0.5
 41
0.0
 71
     1
 72
     1
  1
"
  7
SLDTEXTSTYLE1
 73
     1
 44
1.0
  0
ENDBLK
  5
2CB
330
28A
100
AcDbEntity
  8
0
100
AcDbBlockEnd
  0
ENDSEC
  0
SECTION
  2
ENTITIES
  0
LINE
  5
7A
330
1F
100
AcDbEntity
  8
TITLE
370
    35
100
AcDbLine
 10
72.51822309646207
 20
1.48761176446163
 30
0.0
 11
89.49998645119503
 21
1.48761176446163
 31
0.0
  0
LINE
  5
7B
330
1F
100
AcDbEntity
  8
TITLE
370
    35
100
AcDbLine
 10
89.49993174424402
 20
5.475360393555796
 30
0.0
 11
79.31053507231782
 21
5.475360393555795
 31
0.0
  0
LINE
  5
7C
330
1F
100
AcDbEntity
  8
TITLE
  6
SLD-Solid
370
    18
100
AcDbLine
 10
0.5
 20
0.5
 30
0.0
 11
0.5
 21
47.50000000000001
 31
0.0
  0
LINE
  5
7D
330
1F
100
AcDbEntity
  8
TITLE
  6
SLD-Solid
370
    18
100
AcDbLine
 10
0.5
 20
47.50000000000001
 30
0.0
 11
89.5
 21
47.50000000000001
 31
0.0
  0
LINE
  5
7E
330
1F
100
AcDbEntity
  8
TITLE
370
    35
100
AcDbLine
 10
72.51822309646207
 20
2.542787723103445
 30
0.0
 11
65.50597912026433
 21
2.542787723103443
 31
0.0
  0
LINE
  5
7F
330
1F
100
AcDbEntity
  8
TITLE
370
    35
100
AcDbLine
 10
72.51822309646207
 20
1.48761176446163
 30
0.0
 11
65.50597912026433
 21
1.487611764461628
 31
0.0
  0
LINE
  5
80
330
1F
100
AcDbEntity
  8
TITLE
  6
SLD-Solid
370
    18
100
AcDbLine
 10
89.5
 20
47.50000000000001
 30
0.0
 11
89.5
 21
0.5
 31
0.0
  0
LINE
  5
81
330
1F
100
AcDbEntity
  8
TITLE
  6
SLD-Solid
370
    18
100
AcDbLine
 10
89.5
 20
0.5
 30
0.0
 11
0.5
 21
0.5
 31
0.0
  0
LINE
  5
82
330
1F
100
AcDbEntity
  8
TITLE
370
    35
100
AcDbLine
 10
72.51822309646207
 20
1.48761176446163
 30
0.0
 11
72.51822309646207
 21
3.597963681745259
 31
0.0
  0
LINE
  5
83
330
1F
100
AcDbEntity
  8
TITLE
370
    35
100
AcDbLine
 10
65.50597912026433
 20
3.597963681745258
 30
0.0
 11
65.50597912026433
 21
0.5
 31
0.0
  0
LINE
  5
84
330
1F
100
AcDbEntity
  8
TITLE
370
    35
100
AcDbLine
 10
65.50597912026433
 20
0.5
 30
0.0
 11
89.5
 21
0.5
 31
0.0
  0
LINE
  5
85
330
1F
100
AcDbEntity
  8
TITLE
370
    35
100
AcDbLine
 10
89.49993174424402
 20
5.475360393555796
 30
0.0
 11
89.5
 21
0.5
 31
0.0
  0
LINE
  5
86
330
1F
100
AcDbEntity
  8
TITLE
  6
SLD-Solid
370
    18
100
AcDbLine
 10
0.4999606299212599
 20
24.0
 30
0.0
 11
0.5000393700787401
 21
24.0
 31
0.0
  0
LINE
  5
87
330
1F
100
AcDbEntity
  8
TITLE
370
    35
100
AcDbLine
 10
72.51822309646207
 20
3.597963681745259
 30
0.0
 11
65.50597912026433
 21
3.597963681745258
 31
0.0
  0
LINE
  5
88
330
1F
100
AcDbEntity
  8
TITLE
370
    35
100
AcDbLine
 10
72.51822309646207
 20
3.597963681745259
 30
0.0
 11
89.49976156426074
 21
3.597964834324629
 31
0.0
  0
LINE
  5
89
330
1F
100
AcDbEntity
  8
TITLE
370
    35
100
AcDbLine
 10
79.31053507231782
 20
5.475360393555795
 30
0.0
 11
79.31053507231782
 21
0.4636772425222311
 31
0.0
  0
LINE
  5
8A
330
1F
100
AcDbEntity
  8
TITLE
  6
SLD-Solid
370
    18
100
AcDbLine
 10
45.0
 20
47.50003937007875
 30
0.0
 11
45.0
 21
47.49996062992127
 31
0.0
  0
LINE
  5
8B
330
1F
100
AcDbEntity
  8
TITLE
  6
SLD-Solid
370
    18
100
AcDbLine
 10
89.50003937007874
 20
24.0
 30
0.0
 11
89.49996062992125
 21
24.0
 31
0.0
  0
LINE
  5
8C
330
1F
100
AcDbEntity
  8
TITLE
  6
SLD-Solid
370
    18
100
AcDbLine
 10
45.0
 20
0.4999606299212599
 30
0.0
 11
45.0
 21
0.5000393700787401
 31
0.0
  0
LINE
  5
8D
330
1F
100
AcDbEntity
  8
TITLE
  6
SLD-Solid
370
    18
100
AcDbLine
 10
0.5
 20
2.346456692913385
 30
0.0
 11
0.1653543307086614
 21
2.346456692913385
 31
0.0
  0
LINE
  5
8E
330
1F
100
AcDbEntity
  8
TITLE
  6
SLD-Solid
370
    18
100
AcDbLine
 10
89.5
 20
2.346456692913385
 30
0.0
 11
89.83464566929135
 21
2.346456692913385
 31
0.0
  0
LINE
  5
8F
330
1F
100
AcDbEntity
  8
TITLE
  6
SLD-Solid
370
    18
100
AcDbLine
 10
0.5
 20
4.314960629921261
 30
0.0
 11
0.1653543307086614
 21
4.314960629921261
 31
0.0
  0
LINE
  5
90
330
1F
100
AcDbEntity
  8
TITLE
  6
SLD-Solid
370
    18
100
AcDbLine
 10
89.5
 20
4.314960629921261
 30
0.0
 11
89.83464566929135
 21
4.314960629921261
 31
0.0
  0
LINE
  5
91
330
1F
100
AcDbEntity
  8
TITLE
  6
SLD-Solid
370
    18
100
AcDbLine
 10
0.5
 20
6.283464566929135
 30
0.0
 11
0.1653543307086614
 21
6.283464566929135
 31
0.0
  0
LINE
  5
2CC
330
1F
100
AcDbEntity
  8
TITLE
  6
SLD-Solid
370
    18
100
AcDbLine
 10
89.5
 20
6.283464566929135
 30
0.0
 11
89.83464566929135
 21
6.283464566929135
 31
0.0
  0
LINE
  5
2CD
330
1F
100
AcDbEntity
  8
TITLE
  6
SLD-Solid
370
    18
100
AcDbLine
 10
0.5
 20
8.25196850393701
 30
0.0
 11
0.1653543307086614
 21
8.25196850393701
 31
0.0
  0
LINE
  5
94
330
1F
100
AcDbEntity
  8
TITLE
  6
SLD-Solid
370
    18
100
AcDbLine
 10
89.5
 20
8.25196850393701
 30
0.0
 11
89.83464566929135
 21
8.25196850393701
 31
0.0
  0
LINE
  5
95
330
1F
100
AcDbEntity
  8
TITLE
  6
SLD-Solid
370
    18
100
AcDbLine
 10
0.5
 20
10.22047244094488
 30
0.0
 11
0.1653543307086614
 21
10.22047244094488
 31
0.0
  0
LINE
  5
96
330
1F
100
AcDbEntity
  8
TITLE
  6
SLD-Solid
370
    18
100
AcDbLine
 10
89.5
 20
10.22047244094488
 30
0.0
 11
89.83464566929135
 21
10.22047244094488
 31
0.0
  0
LINE
  5
2CE
330
1F
100
AcDbEntity
  8
TITLE
  6
SLD-Solid
370
    18
100
AcDbLine
 10
0.5
 20
12.18897637795276
 30
0.0
 11
0.1653543307086614
 21
12.18897637795276
 31
0.0
  0
LINE
  5
2CF
330
1F
100
AcDbEntity
  8
TITLE
  6
SLD-Solid
370
    18
100
AcDbLine
 10
89.5
 20
12.18897637795276
 30
0.0
 11
89.83464566929135
 21
12.18897637795276
 31
0.0
  0
LINE
  5
99
330
1F
100
AcDbEntity
  8
TITLE
  6
SLD-Solid
370
    18
100
AcDbLine
 10
0.5
 20
14.15748031496063
 30
0.0
 11
0.1653543307086614
 21
14.15748031496063
 31
0.0
  0
LINE
  5
9A
330
1F
100
AcDbEntity
  8
TITLE
  6
SLD-Solid
370
    18
100
AcDbLine
 10
89.5
 20
14.15748031496063
 30
0.0
 11
89.83464566929135
 21
14.15748031496063
 31
0.0
  0
LINE
  5
9B
330
1F
100
AcDbEntity
  8
TITLE
  6
SLD-Solid
370
    18
100
AcDbLine
 10
0.5
 20
16.1259842519685
 30
0.0
 11
0.1653543307086614
 21
16.1259842519685
 31
0.0
  0
LINE
  5
9C
330
1F
100
AcDbEntity
  8
TITLE
  6
SLD-Solid
370
    18
100
AcDbLine
 10
89.5
 20
16.1259842519685
 30
0.0
 11
89.83464566929135
 21
16.1259842519685
 31
0.0
  0
LINE
  5
9D
330
1F
100
AcDbEntity
  8
TITLE
  6
SLD-Solid
370
    18
100
AcDbLine
 10
0.5
 20
18.09448818897638
 30
0.0
 11
0.1653543307086614
 21
18.09448818897638
 31
0.0
  0
LINE
  5
9E
330
1F
100
AcDbEntity
  8
TITLE
  6
SLD-Solid
370
    18
100
AcDbLine
 10
89.5
 20
18.09448818897638
 30
0.0
 11
89.83464566929135
 21
18.09448818897638
 31
0.0
  0
LINE
  5
9F
330
1F
100
AcDbEntity
  8
TITLE
  6
SLD-Solid
370
    18
100
AcDbLine
 10
0.5
 20
20.06299212598426
 30
0.0
 11
0.1653543307086614
 21
20.06299212598426
 31
0.0
  0
LINE
  5
A0
330
1F
100
AcDbEntity
  8
TITLE
  6
SLD-Solid
370
    18
100
AcDbLine
 10
89.5
 20
20.06299212598426
 30
0.0
 11
89.83464566929135
 21
20.06299212598426
 31
0.0
  0
LINE
  5
A1
330
1F
100
AcDbEntity
  8
TITLE
  6
SLD-Solid
370
    18
100
AcDbLine
 10
0.5
 20
22.03149606299213
 30
0.0
 11
0.1653543307086614
 21
22.03149606299213
 31
0.0
  0
LINE
  5
A2
330
1F
100
AcDbEntity
  8
TITLE
  6
SLD-Solid
370
    18
100
AcDbLine
 10
89.5
 20
22.03149606299213
 30
0.0
 11
89.83464566929135
 21
22.03149606299213
 31
0.0
  0
LINE
  5
A3
330
1F
100
AcDbEntity
  8
TITLE
  6
SLD-Solid
370
    18
100
AcDbLine
 10
0.5
 20
24.0
 30
0.0
 11
0.1653543307086614
 21
24.0
 31
0.0
  0
LINE
  5
A4
330
1F
100
AcDbEntity
  8
TITLE
  6
SLD-Solid
370
    18
100
AcDbLine
 10
89.5
 20
24.0
 30
0.0
 11
89.83464566929135
 21
24.0
 31
0.0
  0
LINE
  5
A5
330
1F
100
AcDbEntity
  8
TITLE
  6
SLD-Solid
370
    18
100
AcDbLine
 10
0.5
 20
25.96850393700788
 30
0.0
 11
0.1653543307086614
 21
25.96850393700788
 31
0.0
  0
LINE
  5
A6
330
1F
100
AcDbEntity
  8
TITLE
  6
SLD-Solid
370
    18
100
AcDbLine
 10
89.5
 20
25.96850393700788
 30
0.0
 11
89.83464566929135
 21
25.96850393700788
 31
0.0
  0
LINE
  5
A7
330
1F
100
AcDbEntity
  8
TITLE
  6
SLD-Solid
370
    18
100
AcDbLine
 10
0.5
 20
27.93700787401575
 30
0.0
 11
0.1653543307086614
 21
27.93700787401575
 31
0.0
  0
LINE
  5
A8
330
1F
100
AcDbEntity
  8
TITLE
  6
SLD-Solid
370
    18
100
AcDbLine
 10
89.5
 20
27.93700787401575
 30
0.0
 11
89.83464566929135
 21
27.93700787401575
 31
0.0
  0
LINE
  5
A9
330
1F
100
AcDbEntity
  8
TITLE
  6
SLD-Solid
370
    18
100
AcDbLine
 10
0.5
 20
29.90551181102363
 30
0.0
 11
0.1653543307086614
 21
29.90551181102363
 31
0.0
  0
LINE
  5
AA
330
1F
100
AcDbEntity
  8
TITLE
  6
SLD-Solid
370
    18
100
AcDbLine
 10
89.5
 20
29.90551181102363
 30
0.0
 11
89.83464566929135
 21
29.90551181102363
 31
0.0
  0
LINE
  5
AB
330
1F
100
AcDbEntity
  8
TITLE
  6
SLD-Solid
370
    18
100
AcDbLine
 10
0.5
 20
31.8740157480315
 30
0.0
 11
0.1653543307086614
 21
31.8740157480315
 31
0.0
  0
LINE
  5
AC
330
1F
100
AcDbEntity
  8
TITLE
  6
SLD-Solid
370
    18
100
AcDbLine
 10
89.5
 20
31.8740157480315
 30
0.0
 11
89.83464566929135
 21
31.8740157480315
 31
0.0
  0
LINE
  5
AD
330
1F
100
AcDbEntity
  8
TITLE
  6
SLD-Solid
370
    18
100
AcDbLine
 10
0.5
 20
33.84251968503937
 30
0.0
 11
0.1653543307086614
 21
33.84251968503937
 31
0.0
  0
LINE
  5
AE
330
1F
100
AcDbEntity
  8
TITLE
  6
SLD-Solid
370
    18
100
AcDbLine
 10
89.5
 20
33.84251968503937
 30
0.0
 11
89.83464566929135
 21
33.84251968503937
 31
0.0
  0
LINE
  5
AF
330
1F
100
AcDbEntity
  8
TITLE
  6
SLD-Solid
370
    18
100
AcDbLine
 10
0.5
 20
35.81102362204725
 30
0.0
 11
0.1653543307086614
 21
35.81102362204725
 31
0.0
  0
LINE
  5
B0
330
1F
100
AcDbEntity
  8
TITLE
  6
SLD-Solid
370
    18
100
AcDbLine
 10
89.5
 20
35.81102362204725
 30
0.0
 11
89.83464566929135
 21
35.81102362204725
 31
0.0
  0
LINE
  5
B1
330
1F
100
AcDbEntity
  8
TITLE
  6
SLD-Solid
370
    18
100
AcDbLine
 10
0.5
 20
37.77952755905512
 30
0.0
 11
0.1653543307086614
 21
37.77952755905512
 31
0.0
  0
LINE
  5
B2
330
1F
100
AcDbEntity
  8
TITLE
  6
SLD-Solid
370
    18
100
AcDbLine
 10
89.5
 20
37.77952755905512
 30
0.0
 11
89.83464566929135
 21
37.77952755905512
 31
0.0
  0
LINE
  5
B3
330
1F
100
AcDbEntity
  8
TITLE
  6
SLD-Solid
370
    18
100
AcDbLine
 10
0.5
 20
39.74803149606299
 30
0.0
 11
0.1653543307086614
 21
39.74803149606299
 31
0.0
  0
LINE
  5
B4
330
1F
100
AcDbEntity
  8
TITLE
  6
SLD-Solid
370
    18
100
AcDbLine
 10
89.5
 20
39.74803149606299
 30
0.0
 11
89.83464566929135
 21
39.74803149606299
 31
0.0
  0
LINE
  5
B5
330
1F
100
AcDbEntity
  8
TITLE
  6
SLD-Solid
370
    18
100
AcDbLine
 10
0.5
 20
41.71653543307087
 30
0.0
 11
0.1653543307086614
 21
41.71653543307087
 31
0.0
  0
LINE
  5
B6
330
1F
100
AcDbEntity
  8
TITLE
  6
SLD-Solid
370
    18
100
AcDbLine
 10
89.5
 20
41.71653543307087
 30
0.0
 11
89.83464566929135
 21
41.71653543307087
 31
0.0
  0
LINE
  5
B7
330
1F
100
AcDbEntity
  8
TITLE
  6
SLD-Solid
370
    18
100
AcDbLine
 10
0.5
 20
43.68503937007874
 30
0.0
 11
0.1653543307086614
 21
43.68503937007874
 31
0.0
  0
LINE
  5
B8
330
1F
100
AcDbEntity
  8
TITLE
  6
SLD-Solid
370
    18
100
AcDbLine
 10
89.5
 20
43.68503937007874
 30
0.0
 11
89.83464566929135
 21
43.68503937007874
 31
0.0
  0
LINE
  5
B9
330
1F
100
AcDbEntity
  8
TITLE
  6
SLD-Solid
370
    18
100
AcDbLine
 10
0.5
 20
45.65354330708662
 30
0.0
 11
0.1653543307086614
 21
45.65354330708662
 31
0.0
  0
LINE
  5
BA
330
1F
100
AcDbEntity
  8
TITLE
  6
SLD-Solid
370
    18
100
AcDbLine
 10
89.5
 20
45.65354330708662
 30
0.0
 11
89.83464566929135
 21
45.65354330708662
 31
0.0
  0
LINE
  5
BB
330
1F
100
AcDbEntity
  8
TITLE
  6
SLD-Solid
370
    18
100
AcDbLine
 10
1.692913385826769
 20
47.50000000000001
 30
0.0
 11
1.692913385826769
 21
47.83464566929134
 31
0.0
  0
LINE
  5
BC
330
1F
100
AcDbEntity
  8
TITLE
  6
SLD-Solid
370
    18
100
AcDbLine
 10
1.692913385826769
 20
0.5
 30
0.0
 11
1.692913385826769
 21
0.1653543307086614
 31
0.0
  0
LINE
  5
BD
330
1F
100
AcDbEntity
  8
TITLE
  6
SLD-Solid
370
    18
100
AcDbLine
 10
3.661417322834644
 20
47.50000000000001
 30
0.0
 11
3.661417322834644
 21
47.83464566929134
 31
0.0
  0
LINE
  5
BE
330
1F
100
AcDbEntity
  8
TITLE
  6
SLD-Solid
370
    18
100
AcDbLine
 10
3.661417322834644
 20
0.5
 30
0.0
 11
3.661417322834644
 21
0.1653543307086614
 31
0.0
  0
LINE
  5
BF
330
1F
100
AcDbEntity
  8
TITLE
  6
SLD-Solid
370
    18
100
AcDbLine
 10
5.62992125984252
 20
47.50000000000001
 30
0.0
 11
5.62992125984252
 21
47.83464566929134
 31
0.0
  0
LINE
  5
C0
330
1F
100
AcDbEntity
  8
TITLE
  6
SLD-Solid
370
    18
100
AcDbLine
 10
5.62992125984252
 20
0.5
 30
0.0
 11
5.62992125984252
 21
0.1653543307086614
 31
0.0
  0
LINE
  5
C1
330
1F
100
AcDbEntity
  8
TITLE
  6
SLD-Solid
370
    18
100
AcDbLine
 10
7.598425196850392
 20
47.50000000000001
 30
0.0
 11
7.598425196850392
 21
47.83464566929134
 31
0.0
  0
LINE
  5
C2
330
1F
100
AcDbEntity
  8
TITLE
  6
SLD-Solid
370
    18
100
AcDbLine
 10
7.598425196850392
 20
0.5
 30
0.0
 11
7.598425196850392
 21
0.1653543307086614
 31
0.0
  0
LINE
  5
C3
330
1F
100
AcDbEntity
  8
TITLE
  6
SLD-Solid
370
    18
100
AcDbLine
 10
9.566929133858268
 20
47.50000000000001
 30
0.0
 11
9.566929133858268
 21
47.83464566929134
 31
0.0
  0
LINE
  5
C4
330
1F
100
AcDbEntity
  8
TITLE
  6
SLD-Solid
370
    18
100
AcDbLine
 10
9.566929133858268
 20
0.5
 30
0.0
 11
9.566929133858268
 21
0.1653543307086614
 31
0.0
  0
LINE
  5
C5
330
1F
100
AcDbEntity
  8
TITLE
  6
SLD-Solid
370
    18
100
AcDbLine
 10
11.53543307086614
 20
47.50000000000001
 30
0.0
 11
11.53543307086614
 21
47.83464566929134
 31
0.0
  0
LINE
  5
C6
330
1F
100
AcDbEntity
  8
TITLE
  6
SLD-Solid
370
    18
100
AcDbLine
 10
11.53543307086614
 20
0.5
 30
0.0
 11
11.53543307086614
 21
0.1653543307086614
 31
0.0
  0
LINE
  5
C7
330
1F
100
AcDbEntity
  8
TITLE
  6
SLD-Solid
370
    18
100
AcDbLine
 10
13.50393700787401
 20
47.50000000000001
 30
0.0
 11
13.50393700787401
 21
47.83464566929134
 31
0.0
  0
LINE
  5
C8
330
1F
100
AcDbEntity
  8
TITLE
  6
SLD-Solid
370
    18
100
AcDbLine
 10
13.50393700787401
 20
0.5
 30
0.0
 11
13.50393700787401
 21
0.1653543307086614
 31
0.0
  0
LINE
  5
C9
330
1F
100
AcDbEntity
  8
TITLE
  6
SLD-Solid
370
    18
100
AcDbLine
 10
15.47244094488189
 20
47.50000000000001
 30
0.0
 11
15.47244094488189
 21
47.83464566929134
 31
0.0
  0
LINE
  5
CA
330
1F
100
AcDbEntity
  8
TITLE
  6
SLD-Solid
370
    18
100
AcDbLine
 10
15.47244094488189
 20
0.5
 30
0.0
 11
15.47244094488189
 21
0.1653543307086614
 31
0.0
  0
LINE
  5
CB
330
1F
100
AcDbEntity
  8
TITLE
  6
SLD-Solid
370
    18
100
AcDbLine
 10
17.44094488188976
 20
47.50000000000001
 30
0.0
 11
17.44094488188976
 21
47.83464566929134
 31
0.0
  0
LINE
  5
CC
330
1F
100
AcDbEntity
  8
TITLE
  6
SLD-Solid
370
    18
100
AcDbLine
 10
17.44094488188976
 20
0.5
 30
0.0
 11
17.44094488188976
 21
0.1653543307086614
 31
0.0
  0
LINE
  5
CD
330
1F
100
AcDbEntity
  8
TITLE
  6
SLD-Solid
370
    18
100
AcDbLine
 10
19.40944881889764
 20
47.50000000000001
 30
0.0
 11
19.40944881889764
 21
47.83464566929134
 31
0.0
  0
LINE
  5
CE
330
1F
100
AcDbEntity
  8
TITLE
  6
SLD-Solid
370
    18
100
AcDbLine
 10
19.40944881889764
 20
0.5
 30
0.0
 11
19.40944881889764
 21
0.1653543307086614
 31
0.0
  0
LINE
  5
CF
330
1F
100
AcDbEntity
  8
TITLE
  6
SLD-Solid
370
    18
100
AcDbLine
 10
21.37795275590551
 20
47.50000000000001
 30
0.0
 11
21.37795275590551
 21
47.83464566929134
 31
0.0
  0
LINE
  5
D0
330
1F
100
AcDbEntity
  8
TITLE
  6
SLD-Solid
370
    18
100
AcDbLine
 10
21.37795275590551
 20
0.5
 30
0.0
 11
21.37795275590551
 21
0.1653543307086614
 31
0.0
  0
LINE
  5
D1
330
1F
100
AcDbEntity
  8
TITLE
  6
SLD-Solid
370
    18
100
AcDbLine
 10
23.34645669291339
 20
47.50000000000001
 30
0.0
 11
23.34645669291339
 21
47.83464566929134
 31
0.0
  0
LINE
  5
D2
330
1F
100
AcDbEntity
  8
TITLE
  6
SLD-Solid
370
    18
100
AcDbLine
 10
23.34645669291339
 20
0.5
 30
0.0
 11
23.34645669291339
 21
0.1653543307086614
 31
0.0
  0
LINE
  5
D3
330
1F
100
AcDbEntity
  8
TITLE
  6
SLD-Solid
370
    18
100
AcDbLine
 10
25.31496062992126
 20
47.50000000000001
 30
0.0
 11
25.31496062992126
 21
47.83464566929134
 31
0.0
  0
LINE
  5
D4
330
1F
100
AcDbEntity
  8
TITLE
  6
SLD-Solid
370
    18
100
AcDbLine
 10
25.31496062992126
 20
0.5
 30
0.0
 11
25.31496062992126
 21
0.1653543307086614
 31
0.0
  0
LINE
  5
D5
330
1F
100
AcDbEntity
  8
TITLE
  6
SLD-Solid
370
    18
100
AcDbLine
 10
27.28346456692914
 20
47.50000000000001
 30
0.0
 11
27.28346456692914
 21
47.83464566929134
 31
0.0
  0
LINE
  5
D6
330
1F
100
AcDbEntity
  8
TITLE
  6
SLD-Solid
370
    18
100
AcDbLine
 10
27.28346456692914
 20
0.5
 30
0.0
 11
27.28346456692914
 21
0.1653543307086614
 31
0.0
  0
LINE
  5
D7
330
1F
100
AcDbEntity
  8
TITLE
  6
SLD-Solid
370
    18
100
AcDbLine
 10
29.25196850393701
 20
47.50000000000001
 30
0.0
 11
29.25196850393701
 21
47.83464566929134
 31
0.0
  0
LINE
  5
D8
330
1F
100
AcDbEntity
  8
TITLE
  6
SLD-Solid
370
    18
100
AcDbLine
 10
29.25196850393701
 20
0.5
 30
0.0
 11
29.25196850393701
 21
0.1653543307086614
 31
0.0
  0
LINE
  5
D9
330
1F
100
AcDbEntity
  8
TITLE
  6
SLD-Solid
370
    18
100
AcDbLine
 10
31.22047244094488
 20
47.50000000000001
 30
0.0
 11
31.22047244094488
 21
47.83464566929134
 31
0.0
  0
LINE
  5
DA
330
1F
100
AcDbEntity
  8
TITLE
  6
SLD-Solid
370
    18
100
AcDbLine
 10
31.22047244094488
 20
0.5
 30
0.0
 11
31.22047244094488
 21
0.1653543307086614
 31
0.0
  0
LINE
  5
DB
330
1F
100
AcDbEntity
  8
TITLE
  6
SLD-Solid
370
    18
100
AcDbLine
 10
33.18897637795276
 20
47.50000000000001
 30
0.0
 11
33.18897637795276
 21
47.83464566929134
 31
0.0
  0
LINE
  5
DC
330
1F
100
AcDbEntity
  8
TITLE
  6
SLD-Solid
370
    18
100
AcDbLine
 10
33.18897637795276
 20
0.5
 30
0.0
 11
33.18897637795276
 21
0.1653543307086614
 31
0.0
  0
LINE
  5
DD
330
1F
100
AcDbEntity
  8
TITLE
  6
SLD-Solid
370
    18
100
AcDbLine
 10
35.15748031496063
 20
47.50000000000001
 30
0.0
 11
35.15748031496063
 21
47.83464566929134
 31
0.0
  0
LINE
  5
DE
330
1F
100
AcDbEntity
  8
TITLE
  6
SLD-Solid
370
    18
100
AcDbLine
 10
35.15748031496063
 20
0.5
 30
0.0
 11
35.15748031496063
 21
0.1653543307086614
 31
0.0
  0
LINE
  5
DF
330
1F
100
AcDbEntity
  8
TITLE
  6
SLD-Solid
370
    18
100
AcDbLine
 10
37.12598425196851
 20
47.50000000000001
 30
0.0
 11
37.12598425196851
 21
47.83464566929134
 31
0.0
  0
LINE
  5
E0
330
1F
100
AcDbEntity
  8
TITLE
  6
SLD-Solid
370
    18
100
AcDbLine
 10
37.12598425196851
 20
0.5
 30
0.0
 11
37.12598425196851
 21
0.1653543307086614
 31
0.0
  0
LINE
  5
E1
330
1F
100
AcDbEntity
  8
TITLE
  6
SLD-Solid
370
    18
100
AcDbLine
 10
39.09448818897638
 20
47.50000000000001
 30
0.0
 11
39.09448818897638
 21
47.83464566929134
 31
0.0
  0
LINE
  5
E2
330
1F
100
AcDbEntity
  8
TITLE
  6
SLD-Solid
370
    18
100
AcDbLine
 10
39.09448818897638
 20
0.5
 30
0.0
 11
39.09448818897638
 21
0.1653543307086614
 31
0.0
  0
LINE
  5
E3
330
1F
100
AcDbEntity
  8
TITLE
  6
SLD-Solid
370
    18
100
AcDbLine
 10
41.06299212598425
 20
47.50000000000001
 30
0.0
 11
41.06299212598425
 21
47.83464566929134
 31
0.0
  0
LINE
  5
E4
330
1F
100
AcDbEntity
  8
TITLE
  6
SLD-Solid
370
    18
100
AcDbLine
 10
41.06299212598425
 20
0.5
 30
0.0
 11
41.06299212598425
 21
0.1653543307086614
 31
0.0
  0
LINE
  5
E5
330
1F
100
AcDbEntity
  8
TITLE
  6
SLD-Solid
370
    18
100
AcDbLine
 10
43.03149606299213
 20
47.50000000000001
 30
0.0
 11
43.03149606299213
 21
47.83464566929134
 31
0.0
  0
LINE
  5
E6
330
1F
100
AcDbEntity
  8
TITLE
  6
SLD-Solid
370
    18
100
AcDbLine
 10
43.03149606299213
 20
0.5
 30
0.0
 11
43.03149606299213
 21
0.1653543307086614
 31
0.0
  0
LINE
  5
E7
330
1F
100
AcDbEntity
  8
TITLE
  6
SLD-Solid
370
    18
100
AcDbLine
 10
45.0
 20
47.50000000000001
 30
0.0
 11
45.0
 21
47.83464566929134
 31
0.0
  0
LINE
  5
E8
330
1F
100
AcDbEntity
  8
TITLE
  6
SLD-Solid
370
    18
100
AcDbLine
 10
45.0
 20
0.5
 30
0.0
 11
45.0
 21
0.1653543307086614
 31
0.0
  0
LINE
  5
E9
330
1F
100
AcDbEntity
  8
TITLE
  6
SLD-Solid
370
    18
100
AcDbLine
 10
46.96850393700788
 20
47.50000000000001
 30
0.0
 11
46.96850393700788
 21
47.83464566929134
 31
0.0
  0
LINE
  5
EA
330
1F
100
AcDbEntity
  8
TITLE
  6
SLD-Solid
370
    18
100
AcDbLine
 10
46.96850393700788
 20
0.5
 30
0.0
 11
46.96850393700788
 21
0.1653543307086614
 31
0.0
  0
LINE
  5
EB
330
1F
100
AcDbEntity
  8
TITLE
  6
SLD-Solid
370
    18
100
AcDbLine
 10
48.93700787401576
 20
47.50000000000001
 30
0.0
 11
48.93700787401576
 21
47.83464566929134
 31
0.0
  0
LINE
  5
EC
330
1F
100
AcDbEntity
  8
TITLE
  6
SLD-Solid
370
    18
100
AcDbLine
 10
48.93700787401576
 20
0.5
 30
0.0
 11
48.93700787401576
 21
0.1653543307086614
 31
0.0
  0
LINE
  5
ED
330
1F
100
AcDbEntity
  8
TITLE
  6
SLD-Solid
370
    18
100
AcDbLine
 10
50.90551181102363
 20
47.50000000000001
 30
0.0
 11
50.90551181102363
 21
47.83464566929134
 31
0.0
  0
LINE
  5
EE
330
1F
100
AcDbEntity
  8
TITLE
  6
SLD-Solid
370
    18
100
AcDbLine
 10
50.90551181102363
 20
0.5
 30
0.0
 11
50.90551181102363
 21
0.1653543307086614
 31
0.0
  0
LINE
  5
EF
330
1F
100
AcDbEntity
  8
TITLE
  6
SLD-Solid
370
    18
100
AcDbLine
 10
52.8740157480315
 20
47.50000000000001
 30
0.0
 11
52.8740157480315
 21
47.83464566929134
 31
0.0
  0
LINE
  5
F0
330
1F
100
AcDbEntity
  8
TITLE
  6
SLD-Solid
370
    18
100
AcDbLine
 10
52.8740157480315
 20
0.5
 30
0.0
 11
52.8740157480315
 21
0.1653543307086614
 31
0.0
  0
LINE
  5
F1
330
1F
100
AcDbEntity
  8
TITLE
  6
SLD-Solid
370
    18
100
AcDbLine
 10
54.84251968503937
 20
47.50000000000001
 30
0.0
 11
54.84251968503937
 21
47.83464566929134
 31
0.0
  0
LINE
  5
F2
330
1F
100
AcDbEntity
  8
TITLE
  6
SLD-Solid
370
    18
100
AcDbLine
 10
54.84251968503937
 20
0.5
 30
0.0
 11
54.84251968503937
 21
0.1653543307086614
 31
0.0
  0
LINE
  5
F3
330
1F
100
AcDbEntity
  8
TITLE
  6
SLD-Solid
370
    18
100
AcDbLine
 10
56.81102362204725
 20
47.50000000000001
 30
0.0
 11
56.81102362204725
 21
47.83464566929134
 31
0.0
  0
LINE
  5
F4
330
1F
100
AcDbEntity
  8
TITLE
  6
SLD-Solid
370
    18
100
AcDbLine
 10
56.81102362204725
 20
0.5
 30
0.0
 11
56.81102362204725
 21
0.1653543307086614
 31
0.0
  0
LINE
  5
F5
330
1F
100
AcDbEntity
  8
TITLE
  6
SLD-Solid
370
    18
100
AcDbLine
 10
58.77952755905513
 20
47.50000000000001
 30
0.0
 11
58.77952755905513
 21
47.83464566929134
 31
0.0
  0
LINE
  5
F6
330
1F
100
AcDbEntity
  8
TITLE
  6
SLD-Solid
370
    18
100
AcDbLine
 10
58.77952755905513
 20
0.5
 30
0.0
 11
58.77952755905513
 21
0.1653543307086614
 31
0.0
  0
LINE
  5
F7
330
1F
100
AcDbEntity
  8
TITLE
  6
SLD-Solid
370
    18
100
AcDbLine
 10
60.748031496063
 20
47.50000000000001
 30
0.0
 11
60.748031496063
 21
47.83464566929134
 31
0.0
  0
LINE
  5
F8
330
1F
100
AcDbEntity
  8
TITLE
  6
SLD-Solid
370
    18
100
AcDbLine
 10
60.748031496063
 20
0.5
 30
0.0
 11
60.748031496063
 21
0.1653543307086614
 31
0.0
  0
LINE
  5
F9
330
1F
100
AcDbEntity
  8
TITLE
  6
SLD-Solid
370
    18
100
AcDbLine
 10
62.71653543307087
 20
47.50000000000001
 30
0.0
 11
62.71653543307087
 21
47.83464566929134
 31
0.0
  0
LINE
  5
FA
330
1F
100
AcDbEntity
  8
TITLE
  6
SLD-Solid
370
    18
100
AcDbLine
 10
62.71653543307087
 20
0.5
 30
0.0
 11
62.71653543307087
 21
0.1653543307086614
 31
0.0
  0
LINE
  5
FB
330
1F
100
AcDbEntity
  8
TITLE
  6
SLD-Solid
370
    18
100
AcDbLine
 10
64.68503937007874
 20
47.50000000000001
 30
0.0
 11
64.68503937007874
 21
47.83464566929134
 31
0.0
  0
LINE
  5
FC
330
1F
100
AcDbEntity
  8
TITLE
  6
SLD-Solid
370
    18
100
AcDbLine
 10
64.68503937007874
 20
0.5
 30
0.0
 11
64.68503937007874
 21
0.1653543307086614
 31
0.0
  0
LINE
  5
FD
330
1F
100
AcDbEntity
  8
TITLE
  6
SLD-Solid
370
    18
100
AcDbLine
 10
66.65354330708662
 20
47.50000000000001
 30
0.0
 11
66.65354330708662
 21
47.83464566929134
 31
0.0
  0
LINE
  5
FE
330
1F
100
AcDbEntity
  8
TITLE
  6
SLD-Solid
370
    18
100
AcDbLine
 10
66.65354330708662
 20
0.5
 30
0.0
 11
66.65354330708662
 21
0.1653543307086614
 31
0.0
  0
LINE
  5
FF
330
1F
100
AcDbEntity
  8
TITLE
  6
SLD-Solid
370
    18
100
AcDbLine
 10
68.62204724409449
 20
47.50000000000001
 30
0.0
 11
68.62204724409449
 21
47.83464566929134
 31
0.0
  0
LINE
  5
100
330
1F
100
AcDbEntity
  8
TITLE
  6
SLD-Solid
370
    18
100
AcDbLine
 10
68.62204724409449
 20
0.5
 30
0.0
 11
68.62204724409449
 21
0.1653543307086614
 31
0.0
  0
LINE
  5
101
330
1F
100
AcDbEntity
  8
TITLE
  6
SLD-Solid
370
    18
100
AcDbLine
 10
70.59055118110237
 20
47.50000000000001
 30
0.0
 11
70.59055118110237
 21
47.83464566929134
 31
0.0
  0
LINE
  5
102
330
1F
100
AcDbEntity
  8
TITLE
  6
SLD-Solid
370
    18
100
AcDbLine
 10
70.59055118110237
 20
0.5
 30
0.0
 11
70.59055118110237
 21
0.1653543307086614
 31
0.0
  0
LINE
  5
103
330
1F
100
AcDbEntity
  8
TITLE
  6
SLD-Solid
370
    18
100
AcDbLine
 10
72.55905511811024
 20
47.50000000000001
 30
0.0
 11
72.55905511811024
 21
47.83464566929134
 31
0.0
  0
LINE
  5
104
330
1F
100
AcDbEntity
  8
TITLE
  6
SLD-Solid
370
    18
100
AcDbLine
 10
72.55905511811024
 20
0.5
 30
0.0
 11
72.55905511811024
 21
0.1653543307086614
 31
0.0
  0
LINE
  5
105
330
1F
100
AcDbEntity
  8
TITLE
  6
SLD-Solid
370
    18
100
AcDbLine
 10
74.52755905511812
 20
47.50000000000001
 30
0.0
 11
74.52755905511812
 21
47.83464566929134
 31
0.0
  0
LINE
  5
106
330
1F
100
AcDbEntity
  8
TITLE
  6
SLD-Solid
370
    18
100
AcDbLine
 10
74.52755905511812
 20
0.5
 30
0.0
 11
74.52755905511812
 21
0.1653543307086614
 31
0.0
  0
LINE
  5
107
330
1F
100
AcDbEntity
  8
TITLE
  6
SLD-Solid
370
    18
100
AcDbLine
 10
76.49606299212599
 20
47.50000000000001
 30
0.0
 11
76.49606299212599
 21
47.83464566929134
 31
0.0
  0
LINE
  5
108
330
1F
100
AcDbEntity
  8
TITLE
  6
SLD-Solid
370
    18
100
AcDbLine
 10
76.49606299212599
 20
0.5
 30
0.0
 11
76.49606299212599
 21
0.1653543307086614
 31
0.0
  0
LINE
  5
109
330
1F
100
AcDbEntity
  8
TITLE
  6
SLD-Solid
370
    18
100
AcDbLine
 10
78.46456692913387
 20
47.50000000000001
 30
0.0
 11
78.46456692913387
 21
47.83464566929134
 31
0.0
  0
LINE
  5
10A
330
1F
100
AcDbEntity
  8
TITLE
  6
SLD-Solid
370
    18
100
AcDbLine
 10
78.46456692913387
 20
0.5
 30
0.0
 11
78.46456692913387
 21
0.1653543307086614
 31
0.0
  0
LINE
  5
10B
330
1F
100
AcDbEntity
  8
TITLE
  6
SLD-Solid
370
    18
100
AcDbLine
 10
80.43307086614175
 20
47.50000000000001
 30
0.0
 11
80.43307086614175
 21
47.83464566929134
 31
0.0
  0
LINE
  5
10C
330
1F
100
AcDbEntity
  8
TITLE
  6
SLD-Solid
370
    18
100
AcDbLine
 10
80.43307086614175
 20
0.5
 30
0.0
 11
80.43307086614175
 21
0.1653543307086614
 31
0.0
  0
LINE
  5
10D
330
1F
100
AcDbEntity
  8
TITLE
  6
SLD-Solid
370
    18
100
AcDbLine
 10
82.40157480314961
 20
47.50000000000001
 30
0.0
 11
82.40157480314961
 21
47.83464566929134
 31
0.0
  0
LINE
  5
10E
330
1F
100
AcDbEntity
  8
TITLE
  6
SLD-Solid
370
    18
100
AcDbLine
 10
82.40157480314961
 20
0.5
 30
0.0
 11
82.40157480314961
 21
0.1653543307086614
 31
0.0
  0
LINE
  5
10F
330
1F
100
AcDbEntity
  8
TITLE
  6
SLD-Solid
370
    18
100
AcDbLine
 10
84.37007874015748
 20
47.50000000000001
 30
0.0
 11
84.37007874015748
 21
47.83464566929134
 31
0.0
  0
LINE
  5
110
330
1F
100
AcDbEntity
  8
TITLE
  6
SLD-Solid
370
    18
100
AcDbLine
 10
84.37007874015748
 20
0.5
 30
0.0
 11
84.37007874015748
 21
0.1653543307086614
 31
0.0
  0
LINE
  5
111
330
1F
100
AcDbEntity
  8
TITLE
  6
SLD-Solid
370
    18
100
AcDbLine
 10
86.33858267716536
 20
47.50000000000001
 30
0.0
 11
86.33858267716536
 21
47.83464566929134
 31
0.0
  0
LINE
  5
112
330
1F
100
AcDbEntity
  8
TITLE
  6
SLD-Solid
370
    18
100
AcDbLine
 10
86.33858267716536
 20
0.5
 30
0.0
 11
86.33858267716536
 21
0.1653543307086614
 31
0.0
  0
LINE
  5
113
330
1F
100
AcDbEntity
  8
TITLE
  6
SLD-Solid
370
    18
100
AcDbLine
 10
88.30708661417324
 20
47.50000000000001
 30
0.0
 11
88.30708661417324
 21
47.83464566929134
 31
0.0
  0
LINE
  5
114
330
1F
100
AcDbEntity
  8
TITLE
  6
SLD-Solid
370
    18
100
AcDbLine
 10
88.30708661417324
 20
0.5
 30
0.0
 11
88.30708661417324
 21
0.1653543307086614
 31
0.0
  0
MTEXT
  5
116
330
1F
100
AcDbEntity
  8
NOTES
100
AcDbMText
 10
66.40829780303407
 20
1.07029033469434
 30
0.0
 40
0.25
 41
0.0
 71
     1
 72
     1
  1
UNLESS OTHERWISE SPECIFIED DIMENSIONS ARE IN INCHES.
  7
SLDTEXTSTYLE0
 73
     1
 44
1.0
  0
MTEXT
  5
117
330
1F
100
AcDbEntity
  8
NOTES
100
AcDbMText
 10
66.43682511324813
 20
3.219304550135194
 30
0.0
 40
0.25
 41
0.0
 71
     1
 72
     1
  1
DATE:
  7
SLDTEXTSTYLE0
 73
     1
 44
1.0
  0
MTEXT
  5
118
330
1F
100
AcDbEntity
  8
NOTES
100
AcDbMText
 10
68.71306699756624
 20
2.172214814147056
 30
0.0
 40
0.25
 41
0.0
 71
     2
 72
     1
  1
DO NOT SCALE DRAWING
  7
SLDTEXTSTYLE0
 73
     1
 44
1.0
  0
MTEXT
  5
11A
330
1F
100
AcDbEntity
  8
NOTES
100
AcDbMText
 10
72.83073730750537
 20
3.268275555297615
 30
0.0
 40
0.25
 41
0.0
 71
     1
 72
     1
  1
TITLE:
  7
SLDTEXTSTYLE1
 73
     1
 44
1.0
  0
MTEXT
  5
11B
330
1F
100
AcDbEntity
  8
NOTES
100
AcDbMText
 10
80.15618310516095
 20
3.268275555297599
 30
0.0
 40
0.25
 41
0.0
 71
     1
 72
     1
  1
DWG NO.
  7
SLDTEXTSTYLE1
 73
     1
 44
1.0
  0
MTEXT
  5
11C
330
1F
100
AcDbEntity
  8
NOTES
100
AcDbMText
 10
80.18317532028495
 20
1.064581557673834
 30
0.0
 40
0.25
 41
0.0
 71
     1
 72
     1
  1
SCALE:     1:1
  7
SLDTEXTSTYLE1
 73
     1
 44
1.0
  0
MTEXT
  5
11D
330
1F
100
AcDbEntity
  8
NOTES
100
AcDbMText
 10
84.18652902353816
 20
2.651034429460867
 30
0.0
 40
0.25
 41
0.0
 71
     2
 72
     1
  1
1001-W-24 CAD
  7
SLDTEXTSTYLE1
 73
     1
 44
1.0
  0
MTEXT
  5
11E
330
1F
100
AcDbEntity
  8
NOTES
100
AcDbMText
 10
75.95721022133498
 20
2.638886144139308
 30
0.0
 40
0.25
 41
0.0
 71
     2
 72
     1
  1
1001-W-24
  7
SLDTEXTSTYLE1
 73
     1
 44
1.0
  0
INSERT
  5
124
330
1F
100
AcDbEntity
  8
NOTES
100
AcDbBlockReference
  2
SW_NOTE_0
 10
80.26613155701669
 20
4.610522783800339
 30
0.0
  0
INSERT
  5
12E
330
1F
100
AcDbEntity
  8
NOTES
100
AcDbBlockReference
  2
SW_NOTE_0_1
 10
66.61597262459081
 20
5.148152684778705
 30
0.0
  0
INSERT
  5
134
330
1F
100
AcDbEntity
  8
NOTES
100
AcDbBlockReference
  2
SW_NOTE_0_2
 10
68.37014953434323
 20
2.894259835614683
 30
0.0
  0
MTEXT
  5
135
330
1F
100
AcDbEntity
  8
TITLE
100
AcDbMText
 10
0.3276279775836454
 20
1.503106290974172
 30
0.0
 40
0.125
 41
0.0
 71
     2
 72
     1
  1
A
  7
SLDTEXTSTYLE1
 73
     1
 44
1.0
  0
MTEXT
  5
136
330
1F
100
AcDbEntity
  8
TITLE
100
AcDbMText
 10
89.66227364687498
 20
1.503106290974173
 30
0.0
 40
0.125
 41
0.0
 71
     2
 72
     1
  1
A
  7
SLDTEXTSTYLE1
 73
     1
 44
1.0
  0
MTEXT
  5
137
330
1F
100
AcDbEntity
  8
TITLE
100
AcDbMText
 10
0.3317512413046844
 20
3.410586605934804
 30
0.0
 40
0.125
 41
0.0
 71
     2
 72
     1
  1
B
  7
SLDTEXTSTYLE1
 73
     1
 44
1.0
  0
MTEXT
  5
138
330
1F
100
AcDbEntity
  8
TITLE
100
AcDbMText
 10
89.66639691059602
 20
3.410586605934804
 30
0.0
 40
0.125
 41
0.0
 71
     2
 72
     1
  1
B
  7
SLDTEXTSTYLE1
 73
     1
 44
1.0
  0
MTEXT
  5
139
330
1F
100
AcDbEntity
  8
TITLE
100
AcDbMText
 10
0.3313750816934456
 20
5.379090542942677
 30
0.0
 40
0.125
 41
0.0
 71
     2
 72
     1
  1
C
  7
SLDTEXTSTYLE1
 73
     1
 44
1.0
  0
MTEXT
  5
13A
330
1F
100
AcDbEntity
  8
TITLE
100
AcDbMText
 10
89.66602075098477
 20
5.379090542942677
 30
0.0
 40
0.125
 41
0.0
 71
     2
 72
     1
  1
C
  7
SLDTEXTSTYLE1
 73
     1
 44
1.0
  0
MTEXT
  5
13B
330
1F
100
AcDbEntity
  8
TITLE
100
AcDbMText
 10
0.3311870028448152
 20
7.34759447995055
 30
0.0
 40
0.125
 41
0.0
 71
     2
 72
     1
  1
D
  7
SLDTEXTSTYLE1
 73
     1
 44
1.0
  0
MTEXT
  5
13C
330
1F
100
AcDbEntity
  8
TITLE
100
AcDbMText
 10
89.66583267213615
 20
7.34759447995055
 30
0.0
 40
0.125
 41
0.0
 71
     2
 72
     1
  1
D
  7
SLDTEXTSTYLE1
 73
     1
 44
1.0
  0
MTEXT
  5
13D
330
1F
100
AcDbEntity
  8
TITLE
100
AcDbMText
 10
0.3329231160377541
 20
9.316098416958424
 30
0.0
 40
0.125
 41
0.0
 71
     2
 72
     1
  1
E
  7
SLDTEXTSTYLE1
 73
     1
 44
1.0
  0
MTEXT
  5
13E
330
1F
100
AcDbEntity
  8
TITLE
100
AcDbMText
 10
89.66756878532908
 20
9.316098416958424
 30
0.0
 40
0.125
 41
0.0
 71
     2
 72
     1
  1
E
  7
SLDTEXTSTYLE1
 73
     1
 44
1.0
  0
MTEXT
  5
13F
330
1F
100
AcDbEntity
  8
TITLE
100
AcDbMText
 10
0.3313461474003637
 20
11.2846023539663
 30
0.0
 40
0.125
 41
0.0
 71
     2
 72
     1
  1
F
  7
SLDTEXTSTYLE1
 73
     1
 44
1.0
  0
MTEXT
  5
140
330
1F
100
AcDbEntity
  8
TITLE
100
AcDbMText
 10
89.6659918166917
 20
11.2846023539663
 30
0.0
 40
0.125
 41
0.0
 71
     2
 72
     1
  1
F
  7
SLDTEXTSTYLE1
 73
     1
 44
1.0
  0
MTEXT
  5
141
330
1F
100
AcDbEntity
  8
TITLE
100
AcDbMText
 10
0.332257605436456
 20
13.25310629097417
 30
0.0
 40
0.125
 41
0.0
 71
     2
 72
     1
  1
G
  7
SLDTEXTSTYLE1
 73
     1
 44
1.0
  0
MTEXT
  5
142
330
1F
100
AcDbEntity
  8
TITLE
100
AcDbMText
 10
89.6669032747278
 20
13.25310629097417
 30
0.0
 40
0.125
 41
0.0
 71
     2
 72
     1
  1
G
  7
SLDTEXTSTYLE1
 73
     1
 44
1.0
  0
MTEXT
  5
143
330
1F
100
AcDbEntity
  8
TITLE
100
AcDbMText
 10
0.3323733456814148
 20
15.22161022798205
 30
0.0
 40
0.125
 41
0.0
 71
     2
 72
     1
  1
H
  7
SLDTEXTSTYLE1
 73
     1
 44
1.0
  0
MTEXT
  5
144
330
1F
100
AcDbEntity
  8
TITLE
100
AcDbMText
 10
89.66701901497274
 20
15.22161022798205
 30
0.0
 40
0.125
 41
0.0
 71
     2
 72
     1
  1
H
  7
SLDTEXTSTYLE1
 73
     1
 44
1.0
  0
MTEXT
  5
145
330
1F
100
AcDbEntity
  8
TITLE
100
AcDbMText
 10
0.3315776305595839
 20
17.19011416498992
 30
0.0
 40
0.125
 41
0.0
 71
     2
 72
     1
  1
J
  7
SLDTEXTSTYLE1
 73
     1
 44
1.0
  0
MTEXT
  5
146
330
1F
100
AcDbEntity
  8
TITLE
100
AcDbMText
 10
89.66622329985091
 20
17.19011416498992
 30
0.0
 40
0.125
 41
0.0
 71
     2
 72
     1
  1
J
  7
SLDTEXTSTYLE1
 73
     1
 44
1.0
  0
MTEXT
  5
147
330
1F
100
AcDbEntity
  8
TITLE
100
AcDbMText
 10
0.3323154765159243
 20
19.1586181019978
 30
0.0
 40
0.125
 41
0.0
 71
     2
 72
     1
  1
K
  7
SLDTEXTSTYLE1
 73
     1
 44
1.0
  0
MTEXT
  5
148
330
1F
100
AcDbEntity
  8
TITLE
100
AcDbMText
 10
89.66696114580725
 20
19.1586181019978
 30
0.0
 40
0.125
 41
0.0
 71
     2
 72
     1
  1
K
  7
SLDTEXTSTYLE1
 73
     1
 44
1.0
  0
MTEXT
  5
149
330
1F
100
AcDbEntity
  8
TITLE
100
AcDbMText
 10
0.3312448739242835
 20
21.12712203900567
 30
0.0
 40
0.125
 41
0.0
 71
     2
 72
     1
  1
L
  7
SLDTEXTSTYLE1
 73
     1
 44
1.0
  0
MTEXT
  5
14A
330
1F
100
AcDbEntity
  8
TITLE
100
AcDbMText
 10
89.66589054321562
 20
21.12712203900567
 30
0.0
 40
0.125
 41
0.0
 71
     2
 72
     1
  1
L
  7
SLDTEXTSTYLE1
 73
     1
 44
1.0
  0
MTEXT
  5
14B
330
1F
100
AcDbEntity
  8
TITLE
100
AcDbMText
 10
0.3283224192293962
 20
23.09562597601355
 30
0.0
 40
0.125
 41
0.0
 71
     2
 72
     1
  1
M
  7
SLDTEXTSTYLE1
 73
     1
 44
1.0
  0
MTEXT
  5
14C
330
1F
100
AcDbEntity
  8
TITLE
100
AcDbMText
 10
89.66296808852074
 20
23.09562597601355
 30
0.0
 40
0.125
 41
0.0
 71
     2
 72
     1
  1
M
  7
SLDTEXTSTYLE1
 73
     1
 44
1.0
  0
MTEXT
  5
14D
330
1F
100
AcDbEntity
  8
TITLE
100
AcDbMText
 10
0.3315342275836453
 20
25.06412991302142
 30
0.0
 40
0.125
 41
0.0
 71
     2
 72
     1
  1
N
  7
SLDTEXTSTYLE1
 73
     1
 44
1.0
  0
MTEXT
  5
14E
330
1F
100
AcDbEntity
  8
TITLE
100
AcDbMText
 10
89.66617989687497
 20
25.06412991302143
 30
0.0
 40
0.125
 41
0.0
 71
     2
 72
     1
  1
N
  7
SLDTEXTSTYLE1
 73
     1
 44
1.0
  0
MTEXT
  5
14F
330
1F
100
AcDbEntity
  8
TITLE
100
AcDbMText
 10
0.3321997349363143
 20
27.0326338500293
 30
0.0
 40
0.125
 41
0.0
 71
     2
 72
     1
  1
P
  7
SLDTEXTSTYLE1
 73
     1
 44
1.0
  0
MTEXT
  5
150
330
1F
100
AcDbEntity
  8
TITLE
100
AcDbMText
 10
89.66684540422764
 20
27.0326338500293
 30
0.0
 40
0.125
 41
0.0
 71
     2
 72
     1
  1
P
  7
SLDTEXTSTYLE1
 73
     1
 44
1.0
  0
MTEXT
  5
151
330
1F
100
AcDbEntity
  8
TITLE
100
AcDbMText
 10
0.3309265867271644
 20
29.00113778703717
 30
0.0
 40
0.125
 41
0.0
 71
     2
 72
     1
  1
R
  7
SLDTEXTSTYLE1
 73
     1
 44
1.0
  0
MTEXT
  5
152
330
1F
100
AcDbEntity
  8
TITLE
100
AcDbMText
 10
89.66557225601849
 20
29.00113778703717
 30
0.0
 40
0.125
 41
0.0
 71
     2
 72
     1
  1
R
  7
SLDTEXTSTYLE1
 73
     1
 44
1.0
  0
MTEXT
  5
153
330
1F
100
AcDbEntity
  8
TITLE
100
AcDbMText
 10
0.3323010070777432
 20
30.96964172404504
 30
0.0
 40
0.125
 41
0.0
 71
     2
 72
     1
  1
T
  7
SLDTEXTSTYLE1
 73
     1
 44
1.0
  0
MTEXT
  5
154
330
1F
100
AcDbEntity
  8
TITLE
100
AcDbMText
 10
89.66694667636908
 20
30.96964172404504
 30
0.0
 40
0.125
 41
0.0
 71
     2
 72
     1
  1
T
  7
SLDTEXTSTYLE1
 73
     1
 44
1.0
  0
MTEXT
  5
155
330
1F
100
AcDbEntity
  8
TITLE
100
AcDbMText
 10
0.3328507755201046
 20
32.93814566105291
 30
0.0
 40
0.125
 41
0.0
 71
     2
 72
     1
  1
U
  7
SLDTEXTSTYLE1
 73
     1
 44
1.0
  0
MTEXT
  5
156
330
1F
100
AcDbEntity
  8
TITLE
100
AcDbMText
 10
89.66749644481143
 20
32.93814566105291
 30
0.0
 40
0.125
 41
0.0
 71
     2
 72
     1
  1
U
  7
SLDTEXTSTYLE1
 73
     1
 44
1.0
  0
MTEXT
  5
157
330
1F
100
AcDbEntity
  8
TITLE
100
AcDbMText
 10
0.3307529773167151
 20
34.90664959806079
 30
0.0
 40
0.125
 41
0.0
 71
     2
 72
     1
  1
V
  7
SLDTEXTSTYLE1
 73
     1
 44
1.0
  0
MTEXT
  5
158
330
1F
100
AcDbEntity
  8
TITLE
100
AcDbMText
 10
89.66539864660804
 20
34.9066495980608
 30
0.0
 40
0.125
 41
0.0
 71
     2
 72
     1
  1
V
  7
SLDTEXTSTYLE1
 73
     1
 44
1.0
  0
MTEXT
  5
159
330
1F
100
AcDbEntity
  8
TITLE
100
AcDbMText
 10
0.3327784409203867
 20
36.87515353506866
 30
0.0
 40
0.125
 41
0.0
 71
     2
 72
     1
  1
W
  7
SLDTEXTSTYLE1
 73
     1
 44
1.0
  0
MTEXT
  5
15A
330
1F
100
AcDbEntity
  8
TITLE
100
AcDbMText
 10
89.66742411021173
 20
36.87515353506866
 30
0.0
 40
0.125
 41
0.0
 71
     2
 72
     1
  1
W
  7
SLDTEXTSTYLE1
 73
     1
 44
1.0
  0
MTEXT
  5
15B
330
1F
100
AcDbEntity
  8
TITLE
100
AcDbMText
 10
0.3321997349363143
 20
38.84365747207654
 30
0.0
 40
0.125
 41
0.0
 71
     2
 72
     1
  1
Y
  7
SLDTEXTSTYLE1
 73
     1
 44
1.0
  0
MTEXT
  5
15C
330
1F
100
AcDbEntity
  8
TITLE
100
AcDbMText
 10
89.66684540422764
 20
38.84365747207654
 30
0.0
 40
0.125
 41
0.0
 71
     2
 72
     1
  1
Y
  7
SLDTEXTSTYLE1
 73
     1
 44
1.0
  0
MTEXT
  5
15D
330
1F
100
AcDbEntity
  8
TITLE
100
AcDbMText
 10
0.32257878981296
 20
40.81216140908442
 30
0.0
 40
0.125
 41
0.0
 71
     2
 72
     1
  1
AA
  7
SLDTEXTSTYLE1
 73
     1
 44
1.0
  0
MTEXT
  5
15E
330
1F
100
AcDbEntity
  8
TITLE
100
AcDbMText
 10
89.65722445910428
 20
40.81216140908442
 30
0.0
 40
0.125
 41
0.0
 71
     2
 72
     1
  1
AA
  7
SLDTEXTSTYLE1
 73
     1
 44
1.0
  0
MTEXT
  5
15F
330
1F
100
AcDbEntity
  8
TITLE
100
AcDbMText
 10
0.3267020535339989
 20
42.78066534609228
 30
0.0
 40
0.125
 41
0.0
 71
     2
 72
     1
  1
AB
  7
SLDTEXTSTYLE1
 73
     1
 44
1.0
  0
MTEXT
  5
160
330
1F
100
AcDbEntity
  8
TITLE
100
AcDbMText
 10
89.66134772282533
 20
42.78066534609228
 30
0.0
 40
0.125
 41
0.0
 71
     2
 72
     1
  1
AB
  7
SLDTEXTSTYLE1
 73
     1
 44
1.0
  0
MTEXT
  5
161
330
1F
100
AcDbEntity
  8
TITLE
100
AcDbMText
 10
0.3263258985060407
 20
44.74916928310017
 30
0.0
 40
0.125
 41
0.0
 71
     2
 72
     1
  1
AC
  7
SLDTEXTSTYLE1
 73
     1
 44
1.0
  0
MTEXT
  5
162
330
1F
100
AcDbEntity
  8
TITLE
100
AcDbMText
 10
89.66097156779738
 20
44.74916928310017
 30
0.0
 40
0.125
 41
0.0
 71
     2
 72
     1
  1
AC
  7
SLDTEXTSTYLE1
 73
     1
 44
1.0
  0
MTEXT
  5
163
330
1F
100
AcDbEntity
  8
TITLE
100
AcDbMText
 10
0.3261378196574102
 20
46.65664959806079
 30
0.0
 40
0.125
 41
0.0
 71
     2
 72
     1
  1
AD
  7
SLDTEXTSTYLE1
 73
     1
 44
1.0
  0
MTEXT
  5
164
330
1F
100
AcDbEntity
  8
TITLE
100
AcDbMText
 10
89.66078348894874
 20
46.6566495980608
 30
0.0
 40
0.125
 41
0.0
 71
     2
 72
     1
  1
AD
  7
SLDTEXTSTYLE1
 73
     1
 44
1.0
  0
MTEXT
  5
165
330
1F
100
AcDbEntity
  8
TITLE
100
AcDbMText
 10
1.093939331543491
 20
0.4125551098718104
 30
0.0
 40
0.125
 41
0.0
 71
     2
 72
     1
  1
46
  7
SLDTEXTSTYLE1
 73
     1
 44
1.0
  0
MTEXT
  5
166
330
1F
100
AcDbEntity
  8
TITLE
100
AcDbMText
 10
1.093939331543491
 20
47.74720077916316
 30
0.0
 40
0.125
 41
0.0
 71
     2
 72
     1
  1
46
  7
SLDTEXTSTYLE1
 73
     1
 44
1.0
  0
MTEXT
  5
167
330
1F
100
AcDbEntity
  8
TITLE
100
AcDbMText
 10
2.674647992960813
 20
0.4125551098718104
 30
0.0
 40
0.125
 41
0.0
 71
     2
 72
     1
  1
45
  7
SLDTEXTSTYLE1
 73
     1
 44
1.0
  0
MTEXT
  5
168
330
1F
100
AcDbEntity
  8
TITLE
100
AcDbMText
 10
2.674647992960813
 20
47.74720077916316
 30
0.0
 40
0.125
 41
0.0
 71
     2
 72
     1
  1
45
  7
SLDTEXTSTYLE1
 73
     1
 44
1.0
  0
MTEXT
  5
169
330
1F
100
AcDbEntity
  8
TITLE
100
AcDbMText
 10
4.643151929968689
 20
0.4125551098718104
 30
0.0
 40
0.125
 41
0.0
 71
     2
 72
     1
  1
44
  7
SLDTEXTSTYLE1
 73
     1
 44
1.0
  0
MTEXT
  5
16A
330
1F
100
AcDbEntity
  8
TITLE
100
AcDbMText
 10
4.643151929968689
 20
47.74720077916316
 30
0.0
 40
0.125
 41
0.0
 71
     2
 72
     1
  1
44
  7
SLDTEXTSTYLE1
 73
     1
 44
1.0
  0
MTEXT
  5
16B
330
1F
100
AcDbEntity
  8
TITLE
100
AcDbMText
 10
6.611655866976564
 20
0.4125551098718104
 30
0.0
 40
0.125
 41
0.0
 71
     2
 72
     1
  1
43
  7
SLDTEXTSTYLE1
 73
     1
 44
1.0
  0
MTEXT
  5
16C
330
1F
100
AcDbEntity
  8
TITLE
100
AcDbMText
 10
6.611655866976562
 20
47.74720077916316
 30
0.0
 40
0.125
 41
0.0
 71
     2
 72
     1
  1
43
  7
SLDTEXTSTYLE1
 73
     1
 44
1.0
  0
MTEXT
  5
16D
330
1F
100
AcDbEntity
  8
TITLE
100
AcDbMText
 10
8.580159803984436
 20
0.4125551098718104
 30
0.0
 40
0.125
 41
0.0
 71
     2
 72
     1
  1
42
  7
SLDTEXTSTYLE1
 73
     1
 44
1.0
  0
MTEXT
  5
16E
330
1F
100
AcDbEntity
  8
TITLE
100
AcDbMText
 10
8.580159803984436
 20
47.74720077916316
 30
0.0
 40
0.125
 41
0.0
 71
     2
 72
     1
  1
42
  7
SLDTEXTSTYLE1
 73
     1
 44
1.0
  0
MTEXT
  5
16F
330
1F
100
AcDbEntity
  8
TITLE
100
AcDbMText
 10
10.54866374099231
 20
0.4125551098718104
 30
0.0
 40
0.125
 41
0.0
 71
     2
 72
     1
  1
41
  7
SLDTEXTSTYLE1
 73
     1
 44
1.0
  0
MTEXT
  5
170
330
1F
100
AcDbEntity
  8
TITLE
100
AcDbMText
 10
10.54866374099231
 20
47.74720077916316
 30
0.0
 40
0.125
 41
0.0
 71
     2
 72
     1
  1
41
  7
SLDTEXTSTYLE1
 73
     1
 44
1.0
  0
MTEXT
  5
171
330
1F
100
AcDbEntity
  8
TITLE
100
AcDbMText
 10
12.51716767800018
 20
0.4125551098718104
 30
0.0
 40
0.125
 41
0.0
 71
     2
 72
     1
  1
40
  7
SLDTEXTSTYLE1
 73
     1
 44
1.0
  0
MTEXT
  5
172
330
1F
100
AcDbEntity
  8
TITLE
100
AcDbMText
 10
12.51716767800018
 20
47.74720077916316
 30
0.0
 40
0.125
 41
0.0
 71
     2
 72
     1
  1
40
  7
SLDTEXTSTYLE1
 73
     1
 44
1.0
  0
MTEXT
  5
173
330
1F
100
AcDbEntity
  8
TITLE
100
AcDbMText
 10
14.48567161500806
 20
0.4125551098718104
 30
0.0
 40
0.125
 41
0.0
 71
     2
 72
     1
  1
39
  7
SLDTEXTSTYLE1
 73
     1
 44
1.0
  0
MTEXT
  5
174
330
1F
100
AcDbEntity
  8
TITLE
100
AcDbMText
 10
14.48567161500806
 20
47.74720077916316
 30
0.0
 40
0.125
 41
0.0
 71
     2
 72
     1
  1
39
  7
SLDTEXTSTYLE1
 73
     1
 44
1.0
  0
MTEXT
  5
175
330
1F
100
AcDbEntity
  8
TITLE
100
AcDbMText
 10
16.45417555201593
 20
0.4125551098718105
 30
0.0
 40
0.125
 41
0.0
 71
     2
 72
     1
  1
38
  7
SLDTEXTSTYLE1
 73
     1
 44
1.0
  0
MTEXT
  5
176
330
1F
100
AcDbEntity
  8
TITLE
100
AcDbMText
 10
16.45417555201593
 20
47.74720077916316
 30
0.0
 40
0.125
 41
0.0
 71
     2
 72
     1
  1
38
  7
SLDTEXTSTYLE1
 73
     1
 44
1.0
  0
MTEXT
  5
177
330
1F
100
AcDbEntity
  8
TITLE
100
AcDbMText
 10
18.42267948902381
 20
0.4125551098718104
 30
0.0
 40
0.125
 41
0.0
 71
     2
 72
     1
  1
37
  7
SLDTEXTSTYLE1
 73
     1
 44
1.0
  0
MTEXT
  5
178
330
1F
100
AcDbEntity
  8
TITLE
100
AcDbMText
 10
18.42267948902381
 20
47.74720077916316
 30
0.0
 40
0.125
 41
0.0
 71
     2
 72
     1
  1
37
  7
SLDTEXTSTYLE1
 73
     1
 44
1.0
  0
MTEXT
  5
179
330
1F
100
AcDbEntity
  8
TITLE
100
AcDbMText
 10
20.39118342603168
 20
0.4125551098718104
 30
0.0
 40
0.125
 41
0.0
 71
     2
 72
     1
  1
36
  7
SLDTEXTSTYLE1
 73
     1
 44
1.0
  0
MTEXT
  5
17A
330
1F
100
AcDbEntity
  8
TITLE
100
AcDbMText
 10
20.39118342603168
 20
47.74720077916315
 30
0.0
 40
0.125
 41
0.0
 71
     2
 72
     1
  1
36
  7
SLDTEXTSTYLE1
 73
     1
 44
1.0
  0
MTEXT
  5
17B
330
1F
100
AcDbEntity
  8
TITLE
100
AcDbMText
 10
22.35968736303955
 20
0.4125551098718104
 30
0.0
 40
0.125
 41
0.0
 71
     2
 72
     1
  1
35
  7
SLDTEXTSTYLE1
 73
     1
 44
1.0
  0
MTEXT
  5
17C
330
1F
100
AcDbEntity
  8
TITLE
100
AcDbMText
 10
22.35968736303955
 20
47.74720077916316
 30
0.0
 40
0.125
 41
0.0
 71
     2
 72
     1
  1
35
  7
SLDTEXTSTYLE1
 73
     1
 44
1.0
  0
MTEXT
  5
17D
330
1F
100
AcDbEntity
  8
TITLE
100
AcDbMText
 10
24.32819130004744
 20
0.4125551098718104
 30
0.0
 40
0.125
 41
0.0
 71
     2
 72
     1
  1
34
  7
SLDTEXTSTYLE1
 73
     1
 44
1.0
  0
MTEXT
  5
17E
330
1F
100
AcDbEntity
  8
TITLE
100
AcDbMText
 10
24.32819130004743
 20
47.74720077916316
 30
0.0
 40
0.125
 41
0.0
 71
     2
 72
     1
  1
34
  7
SLDTEXTSTYLE1
 73
     1
 44
1.0
  0
MTEXT
  5
17F
330
1F
100
AcDbEntity
  8
TITLE
100
AcDbMText
 10
26.29669523705531
 20
0.4125551098718104
 30
0.0
 40
0.125
 41
0.0
 71
     2
 72
     1
  1
33
  7
SLDTEXTSTYLE1
 73
     1
 44
1.0
  0
MTEXT
  5
180
330
1F
100
AcDbEntity
  8
TITLE
100
AcDbMText
 10
26.29669523705531
 20
47.74720077916316
 30
0.0
 40
0.125
 41
0.0
 71
     2
 72
     1
  1
33
  7
SLDTEXTSTYLE1
 73
     1
 44
1.0
  0
MTEXT
  5
181
330
1F
100
AcDbEntity
  8
TITLE
100
AcDbMText
 10
28.26519917406318
 20
0.4125551098718104
 30
0.0
 40
0.125
 41
0.0
 71
     2
 72
     1
  1
32
  7
SLDTEXTSTYLE1
 73
     1
 44
1.0
  0
MTEXT
  5
182
330
1F
100
AcDbEntity
  8
TITLE
100
AcDbMText
 10
28.26519917406318
 20
47.74720077916316
 30
0.0
 40
0.125
 41
0.0
 71
     2
 72
     1
  1
32
  7
SLDTEXTSTYLE1
 73
     1
 44
1.0
  0
MTEXT
  5
183
330
1F
100
AcDbEntity
  8
TITLE
100
AcDbMText
 10
30.23370311107105
 20
0.4125551098718104
 30
0.0
 40
0.125
 41
0.0
 71
     2
 72
     1
  1
31
  7
SLDTEXTSTYLE1
 73
     1
 44
1.0
  0
MTEXT
  5
184
330
1F
100
AcDbEntity
  8
TITLE
100
AcDbMText
 10
30.23370311107106
 20
47.74720077916316
 30
0.0
 40
0.125
 41
0.0
 71
     2
 72
     1
  1
31
  7
SLDTEXTSTYLE1
 73
     1
 44
1.0
  0
MTEXT
  5
185
330
1F
100
AcDbEntity
  8
TITLE
100
AcDbMText
 10
32.20220704807893
 20
0.4125551098718104
 30
0.0
 40
0.125
 41
0.0
 71
     2
 72
     1
  1
30
  7
SLDTEXTSTYLE1
 73
     1
 44
1.0
  0
MTEXT
  5
186
330
1F
100
AcDbEntity
  8
TITLE
100
AcDbMText
 10
32.20220704807893
 20
47.74720077916316
 30
0.0
 40
0.125
 41
0.0
 71
     2
 72
     1
  1
30
  7
SLDTEXTSTYLE1
 73
     1
 44
1.0
  0
MTEXT
  5
187
330
1F
100
AcDbEntity
  8
TITLE
100
AcDbMText
 10
34.1707109850868
 20
0.4125551098718104
 30
0.0
 40
0.125
 41
0.0
 71
     2
 72
     1
  1
29
  7
SLDTEXTSTYLE1
 73
     1
 44
1.0
  0
MTEXT
  5
188
330
1F
100
AcDbEntity
  8
TITLE
100
AcDbMText
 10
34.1707109850868
 20
47.74720077916316
 30
0.0
 40
0.125
 41
0.0
 71
     2
 72
     1
  1
29
  7
SLDTEXTSTYLE1
 73
     1
 44
1.0
  0
MTEXT
  5
189
330
1F
100
AcDbEntity
  8
TITLE
100
AcDbMText
 10
36.13921492209468
 20
0.4125551098718104
 30
0.0
 40
0.125
 41
0.0
 71
     2
 72
     1
  1
28
  7
SLDTEXTSTYLE1
 73
     1
 44
1.0
  0
MTEXT
  5
18A
330
1F
100
AcDbEntity
  8
TITLE
100
AcDbMText
 10
36.13921492209468
 20
47.74720077916316
 30
0.0
 40
0.125
 41
0.0
 71
     2
 72
     1
  1
28
  7
SLDTEXTSTYLE1
 73
     1
 44
1.0
  0
MTEXT
  5
18B
330
1F
100
AcDbEntity
  8
TITLE
100
AcDbMText
 10
38.10771885910255
 20
0.4125551098718104
 30
0.0
 40
0.125
 41
0.0
 71
     2
 72
     1
  1
27
  7
SLDTEXTSTYLE1
 73
     1
 44
1.0
  0
MTEXT
  5
18C
330
1F
100
AcDbEntity
  8
TITLE
100
AcDbMText
 10
38.10771885910255
 20
47.74720077916316
 30
0.0
 40
0.125
 41
0.0
 71
     2
 72
     1
  1
27
  7
SLDTEXTSTYLE1
 73
     1
 44
1.0
  0
MTEXT
  5
18D
330
1F
100
AcDbEntity
  8
TITLE
100
AcDbMText
 10
40.07622279611042
 20
0.4125551098718104
 30
0.0
 40
0.125
 41
0.0
 71
     2
 72
     1
  1
26
  7
SLDTEXTSTYLE1
 73
     1
 44
1.0
  0
MTEXT
  5
18E
330
1F
100
AcDbEntity
  8
TITLE
100
AcDbMText
 10
40.07622279611042
 20
47.74720077916316
 30
0.0
 40
0.125
 41
0.0
 71
     2
 72
     1
  1
26
  7
SLDTEXTSTYLE1
 73
     1
 44
1.0
  0
MTEXT
  5
18F
330
1F
100
AcDbEntity
  8
TITLE
100
AcDbMText
 10
42.0447267331183
 20
0.4125551098718105
 30
0.0
 40
0.125
 41
0.0
 71
     2
 72
     1
  1
25
  7
SLDTEXTSTYLE1
 73
     1
 44
1.0
  0
MTEXT
  5
190
330
1F
100
AcDbEntity
  8
TITLE
100
AcDbMText
 10
42.0447267331183
 20
47.74720077916316
 30
0.0
 40
0.125
 41
0.0
 71
     2
 72
     1
  1
25
  7
SLDTEXTSTYLE1
 73
     1
 44
1.0
  0
MTEXT
  5
191
330
1F
100
AcDbEntity
  8
TITLE
100
AcDbMText
 10
44.01323067012616
 20
0.4125551098718104
 30
0.0
 40
0.125
 41
0.0
 71
     2
 72
     1
  1
24
  7
SLDTEXTSTYLE1
 73
     1
 44
1.0
  0
MTEXT
  5
192
330
1F
100
AcDbEntity
  8
TITLE
100
AcDbMText
 10
44.01323067012617
 20
47.74720077916316
 30
0.0
 40
0.125
 41
0.0
 71
     2
 72
     1
  1
24
  7
SLDTEXTSTYLE1
 73
     1
 44
1.0
  0
MTEXT
  5
193
330
1F
100
AcDbEntity
  8
TITLE
100
AcDbMText
 10
45.98173460713405
 20
0.4125551098718104
 30
0.0
 40
0.125
 41
0.0
 71
     2
 72
     1
  1
23
  7
SLDTEXTSTYLE1
 73
     1
 44
1.0
  0
MTEXT
  5
194
330
1F
100
AcDbEntity
  8
TITLE
100
AcDbMText
 10
45.98173460713405
 20
47.74720077916316
 30
0.0
 40
0.125
 41
0.0
 71
     2
 72
     1
  1
23
  7
SLDTEXTSTYLE1
 73
     1
 44
1.0
  0
MTEXT
  5
195
330
1F
100
AcDbEntity
  8
TITLE
100
AcDbMText
 10
47.95023854414192
 20
0.4125551098718105
 30
0.0
 40
0.125
 41
0.0
 71
     2
 72
     1
  1
22
  7
SLDTEXTSTYLE1
 73
     1
 44
1.0
  0
MTEXT
  5
196
330
1F
100
AcDbEntity
  8
TITLE
100
AcDbMText
 10
47.95023854414192
 20
47.74720077916317
 30
0.0
 40
0.125
 41
0.0
 71
     2
 72
     1
  1
22
  7
SLDTEXTSTYLE1
 73
     1
 44
1.0
  0
MTEXT
  5
197
330
1F
100
AcDbEntity
  8
TITLE
100
AcDbMText
 10
49.91874248114981
 20
0.4125551098718104
 30
0.0
 40
0.125
 41
0.0
 71
     2
 72
     1
  1
21
  7
SLDTEXTSTYLE1
 73
     1
 44
1.0
  0
MTEXT
  5
198
330
1F
100
AcDbEntity
  8
TITLE
100
AcDbMText
 10
49.91874248114981
 20
47.74720077916316
 30
0.0
 40
0.125
 41
0.0
 71
     2
 72
     1
  1
21
  7
SLDTEXTSTYLE1
 73
     1
 44
1.0
  0
MTEXT
  5
199
330
1F
100
AcDbEntity
  8
TITLE
100
AcDbMText
 10
51.88724641815767
 20
0.4125551098718104
 30
0.0
 40
0.125
 41
0.0
 71
     2
 72
     1
  1
20
  7
SLDTEXTSTYLE1
 73
     1
 44
1.0
  0
MTEXT
  5
19A
330
1F
100
AcDbEntity
  8
TITLE
100
AcDbMText
 10
51.88724641815767
 20
47.74720077916315
 30
0.0
 40
0.125
 41
0.0
 71
     2
 72
     1
  1
20
  7
SLDTEXTSTYLE1
 73
     1
 44
1.0
  0
MTEXT
  5
19B
330
1F
100
AcDbEntity
  8
TITLE
100
AcDbMText
 10
53.85575035516554
 20
0.4125551098718104
 30
0.0
 40
0.125
 41
0.0
 71
     2
 72
     1
  1
19
  7
SLDTEXTSTYLE1
 73
     1
 44
1.0
  0
MTEXT
  5
19C
330
1F
100
AcDbEntity
  8
TITLE
100
AcDbMText
 10
53.85575035516554
 20
47.74720077916316
 30
0.0
 40
0.125
 41
0.0
 71
     2
 72
     1
  1
19
  7
SLDTEXTSTYLE1
 73
     1
 44
1.0
  0
MTEXT
  5
19D
330
1F
100
AcDbEntity
  8
TITLE
100
AcDbMText
 10
55.82425429217342
 20
0.4125551098718104
 30
0.0
 40
0.125
 41
0.0
 71
     2
 72
     1
  1
18
  7
SLDTEXTSTYLE1
 73
     1
 44
1.0
  0
MTEXT
  5
19E
330
1F
100
AcDbEntity
  8
TITLE
100
AcDbMText
 10
55.82425429217341
 20
47.74720077916316
 30
0.0
 40
0.125
 41
0.0
 71
     2
 72
     1
  1
18
  7
SLDTEXTSTYLE1
 73
     1
 44
1.0
  0
MTEXT
  5
19F
330
1F
100
AcDbEntity
  8
TITLE
100
AcDbMText
 10
57.79275822918129
 20
0.4125551098718104
 30
0.0
 40
0.125
 41
0.0
 71
     2
 72
     1
  1
17
  7
SLDTEXTSTYLE1
 73
     1
 44
1.0
  0
MTEXT
  5
1A0
330
1F
100
AcDbEntity
  8
TITLE
100
AcDbMText
 10
57.79275822918129
 20
47.74720077916316
 30
0.0
 40
0.125
 41
0.0
 71
     2
 72
     1
  1
17
  7
SLDTEXTSTYLE1
 73
     1
 44
1.0
  0
MTEXT
  5
1A1
330
1F
100
AcDbEntity
  8
TITLE
100
AcDbMText
 10
59.76126216618918
 20
0.4125551098718104
 30
0.0
 40
0.125
 41
0.0
 71
     2
 72
     1
  1
16
  7
SLDTEXTSTYLE1
 73
     1
 44
1.0
  0
MTEXT
  5
1A2
330
1F
100
AcDbEntity
  8
TITLE
100
AcDbMText
 10
59.76126216618918
 20
47.74720077916316
 30
0.0
 40
0.125
 41
0.0
 71
     2
 72
     1
  1
16
  7
SLDTEXTSTYLE1
 73
     1
 44
1.0
  0
MTEXT
  5
1A3
330
1F
100
AcDbEntity
  8
TITLE
100
AcDbMText
 10
61.72976610319703
 20
0.4125551098718104
 30
0.0
 40
0.125
 41
0.0
 71
     2
 72
     1
  1
15
  7
SLDTEXTSTYLE1
 73
     1
 44
1.0
  0
MTEXT
  5
1A4
330
1F
100
AcDbEntity
  8
TITLE
100
AcDbMText
 10
61.72976610319704
 20
47.74720077916316
 30
0.0
 40
0.125
 41
0.0
 71
     2
 72
     1
  1
15
  7
SLDTEXTSTYLE1
 73
     1
 44
1.0
  0
MTEXT
  5
1A5
330
1F
100
AcDbEntity
  8
TITLE
100
AcDbMText
 10
63.69827004020492
 20
0.4125551098718105
 30
0.0
 40
0.125
 41
0.0
 71
     2
 72
     1
  1
14
  7
SLDTEXTSTYLE1
 73
     1
 44
1.0
  0
MTEXT
  5
1A6
330
1F
100
AcDbEntity
  8
TITLE
100
AcDbMText
 10
63.69827004020491
 20
47.74720077916316
 30
0.0
 40
0.125
 41
0.0
 71
     2
 72
     1
  1
14
  7
SLDTEXTSTYLE1
 73
     1
 44
1.0
  0
MTEXT
  5
1A7
330
1F
100
AcDbEntity
  8
TITLE
100
AcDbMText
 10
65.6667739772128
 20
0.4125551098718104
 30
0.0
 40
0.125
 41
0.0
 71
     2
 72
     1
  1
13
  7
SLDTEXTSTYLE1
 73
     1
 44
1.0
  0
MTEXT
  5
1A8
330
1F
100
AcDbEntity
  8
TITLE
100
AcDbMText
 10
65.6667739772128
 20
47.74720077916316
 30
0.0
 40
0.125
 41
0.0
 71
     2
 72
     1
  1
13
  7
SLDTEXTSTYLE1
 73
     1
 44
1.0
  0
MTEXT
  5
1A9
330
1F
100
AcDbEntity
  8
TITLE
100
AcDbMText
 10
67.63527791422067
 20
0.4125551098718104
 30
0.0
 40
0.125
 41
0.0
 71
     2
 72
     1
  1
12
  7
SLDTEXTSTYLE1
 73
     1
 44
1.0
  0
MTEXT
  5
1AA
330
1F
100
AcDbEntity
  8
TITLE
100
AcDbMText
 10
67.63527791422067
 20
47.74720077916316
 30
0.0
 40
0.125
 41
0.0
 71
     2
 72
     1
  1
12
  7
SLDTEXTSTYLE1
 73
     1
 44
1.0
  0
MTEXT
  5
1AB
330
1F
100
AcDbEntity
  8
TITLE
100
AcDbMText
 10
69.60378185122853
 20
0.4125551098718104
 30
0.0
 40
0.125
 41
0.0
 71
     2
 72
     1
  1
11
  7
SLDTEXTSTYLE1
 73
     1
 44
1.0
  0
MTEXT
  5
1AC
330
1F
100
AcDbEntity
  8
TITLE
100
AcDbMText
 10
69.60378185122855
 20
47.74720077916316
 30
0.0
 40
0.125
 41
0.0
 71
     2
 72
     1
  1
11
  7
SLDTEXTSTYLE1
 73
     1
 44
1.0
  0
MTEXT
  5
1AD
330
1F
100
AcDbEntity
  8
TITLE
100
AcDbMText
 10
71.57228578823641
 20
0.4125551098718104
 30
0.0
 40
0.125
 41
0.0
 71
     2
 72
     1
  1
10
  7
SLDTEXTSTYLE1
 73
     1
 44
1.0
  0
MTEXT
  5
1AE
330
1F
100
AcDbEntity
  8
TITLE
100
AcDbMText
 10
71.57228578823641
 20
47.74720077916316
 30
0.0
 40
0.125
 41
0.0
 71
     2
 72
     1
  1
10
  7
SLDTEXTSTYLE1
 73
     1
 44
1.0
  0
MTEXT
  5
1AF
330
1F
100
AcDbEntity
  8
TITLE
100
AcDbMText
 10
73.54204840592922
 20
0.4125551098718104
 30
0.0
 40
0.125
 41
0.0
 71
     2
 72
     1
  1
9
  7
SLDTEXTSTYLE1
 73
     1
 44
1.0
  0
MTEXT
  5
1B0
330
1F
100
AcDbEntity
  8
TITLE
100
AcDbMText
 10
73.54204840592922
 20
47.74720077916316
 30
0.0
 40
0.125
 41
0.0
 71
     2
 72
     1
  1
9
  7
SLDTEXTSTYLE1
 73
     1
 44
1.0
  0
MTEXT
  5
1B1
330
1F
100
AcDbEntity
  8
TITLE
100
AcDbMText
 10
75.5105523429371
 20
0.4125551098718104
 30
0.0
 40
0.125
 41
0.0
 71
     2
 72
     1
  1
8
  7
SLDTEXTSTYLE1
 73
     1
 44
1.0
  0
MTEXT
  5
1B2
330
1F
100
AcDbEntity
  8
TITLE
100
AcDbMText
 10
75.5105523429371
 20
47.74720077916316
 30
0.0
 40
0.125
 41
0.0
 71
     2
 72
     1
  1
8
  7
SLDTEXTSTYLE1
 73
     1
 44
1.0
  0
MTEXT
  5
1B3
330
1F
100
AcDbEntity
  8
TITLE
100
AcDbMText
 10
77.47905627994498
 20
0.4125551098718105
 30
0.0
 40
0.125
 41
0.0
 71
     2
 72
     1
  1
7
  7
SLDTEXTSTYLE1
 73
     1
 44
1.0
  0
MTEXT
  5
1B4
330
1F
100
AcDbEntity
  8
TITLE
100
AcDbMText
 10
77.47905627994497
 20
47.74720077916316
 30
0.0
 40
0.125
 41
0.0
 71
     2
 72
     1
  1
7
  7
SLDTEXTSTYLE1
 73
     1
 44
1.0
  0
MTEXT
  5
1B5
330
1F
100
AcDbEntity
  8
TITLE
100
AcDbMText
 10
79.44756021695287
 20
0.4125551098718104
 30
0.0
 40
0.125
 41
0.0
 71
     2
 72
     1
  1
6
  7
SLDTEXTSTYLE1
 73
     1
 44
1.0
  0
MTEXT
  5
1B6
330
1F
100
AcDbEntity
  8
TITLE
100
AcDbMText
 10
79.44756021695287
 20
47.74720077916316
 30
0.0
 40
0.125
 41
0.0
 71
     2
 72
     1
  1
6
  7
SLDTEXTSTYLE1
 73
     1
 44
1.0
  0
MTEXT
  5
1B7
330
1F
100
AcDbEntity
  8
TITLE
100
AcDbMText
 10
81.41606415396073
 20
0.4125551098718105
 30
0.0
 40
0.125
 41
0.0
 71
     2
 72
     1
  1
5
  7
SLDTEXTSTYLE1
 73
     1
 44
1.0
  0
MTEXT
  5
1B8
330
1F
100
AcDbEntity
  8
TITLE
100
AcDbMText
 10
81.41606415396073
 20
47.74720077916316
 30
0.0
 40
0.125
 41
0.0
 71
     2
 72
     1
  1
5
  7
SLDTEXTSTYLE1
 73
     1
 44
1.0
  0
MTEXT
  5
1B9
330
1F
100
AcDbEntity
  8
TITLE
100
AcDbMText
 10
83.3845680909686
 20
0.4125551098718104
 30
0.0
 40
0.125
 41
0.0
 71
     2
 72
     1
  1
4
  7
SLDTEXTSTYLE1
 73
     1
 44
1.0
  0
MTEXT
  5
1BA
330
1F
100
AcDbEntity
  8
TITLE
100
AcDbMText
 10
83.3845680909686
 20
47.74720077916316
 30
0.0
 40
0.125
 41
0.0
 71
     2
 72
     1
  1
4
  7
SLDTEXTSTYLE1
 73
     1
 44
1.0
  0
MTEXT
  5
1BB
330
1F
100
AcDbEntity
  8
TITLE
100
AcDbMText
 10
85.35307202797648
 20
0.4125551098718104
 30
0.0
 40
0.125
 41
0.0
 71
     2
 72
     1
  1
3
  7
SLDTEXTSTYLE1
 73
     1
 44
1.0
  0
MTEXT
  5
1BC
330
1F
100
AcDbEntity
  8
TITLE
100
AcDbMText
 10
85.35307202797648
 20
47.74720077916316
 30
0.0
 40
0.125
 41
0.0
 71
     2
 72
     1
  1
3
  7
SLDTEXTSTYLE1
 73
     1
 44
1.0
  0
MTEXT
  5
1BD
330
1F
100
AcDbEntity
  8
TITLE
100
AcDbMText
 10
87.32157596498435
 20
0.4125551098718104
 30
0.0
 40
0.125
 41
0.0
 71
     2
 72
     1
  1
2
  7
SLDTEXTSTYLE1
 73
     1
 44
1.0
  0
MTEXT
  5
1BE
330
1F
100
AcDbEntity
  8
TITLE
100
AcDbMText
 10
87.32157596498435
 20
47.74720077916316
 30
0.0
 40
0.125
 41
0.0
 71
     2
 72
     1
  1
2
  7
SLDTEXTSTYLE1
 73
     1
 44
1.0
  0
MTEXT
  5
1BF
330
1F
100
AcDbEntity
  8
TITLE
100
AcDbMText
 10
88.90228462640165
 20
0.4125551098718104
 30
0.0
 40
0.125
 41
0.0
 71
     2
 72
     1
  1
1
  7
SLDTEXTSTYLE1
 73
     1
 44
1.0
  0
MTEXT
  5
1C0
330
1F
100
AcDbEntity
  8
TITLE
100
AcDbMText
 10
88.90228462640168
 20
47.74720077916316
 30
0.0
 40
0.125
 41
0.0
 71
     2
 72
     1
  1
1
  7
SLDTEXTSTYLE1
 73
     1
 44
1.0
  0
LINE
  5
1C1
330
1F
100
AcDbEntity
  8
0
  6
SLD-Solid
 62
     7
370
    25
100
AcDbLine
 10
14.90087235620011
 20
15.85835512849034
 30
0.0
 11
35.90087235620012
 21
15.85835512849034
 31
0.0
  0
LINE
  5
1C2
330
1F
100
AcDbEntity
  8
0
  6
SLD-Solid
 62
     7
370
    25
100
AcDbLine
 10
35.90087235620012
 20
17.10835512849034
 30
0.0
 11
14.90087235620011
 21
17.10835512849034
 31
0.0
  0
LINE
  5
1C3
330
1F
100
AcDbEntity
  8
0
  6
SLD-Solid
 62
     7
370
    25
100
AcDbLine
 10
14.90087235620011
 20
17.10835512849034
 30
0.0
 11
13.40087235620011
 21
17.10835512849034
 31
0.0
  0
LINE
  5
1C4
330
1F
100
AcDbEntity
  8
0
  6
SLD-Solid
 62
     7
370
    25
100
AcDbLine
 10
13.40087235620011
 20
15.85835512849034
 30
0.0
 11
14.90087235620011
 21
15.85835512849034
 31
0.0
  0
LINE
  5
1C5
330
1F
100
AcDbEntity
  8
0
  6
SLD-Solid
 62
     7
370
    25
100
AcDbLine
 10
37.40087235620012
 20
17.10835512849034
 30
0.0
 11
35.90087235620012
 21
17.10835512849034
 31
0.0
  0
LINE
  5
1C6
330
1F
100
AcDbEntity
  8
0
  6
SLD-Solid
 62
     7
370
    25
100
AcDbLine
 10
35.90087235620012
 20
15.85835512849034
 30
0.0
 11
37.40087235620012
 21
15.85835512849034
 31
0.0
  0
ARC
  5
1C7
330
1F
100
AcDbEntity
  8
0
  6
SLD-Solid
 62
     7
370
    25
100
AcDbCircle
 10
13.40087235620011
 20
16.48335512849034
 30
0.0
 40
0.6552474081942723
100
AcDbArc
 50
72.5231148986309
 51
270.0000000000008
  0
ARC
  5
1C8
330
1F
100
AcDbEntity
  8
0
  6
SLD-Solid
 62
     7
370
    25
100
AcDbCircle
 10
13.40087235620011
 20
16.48335512849034
 30
0.0
 40
0.6552474081942723
100
AcDbArc
 50
270.0000000000008
 51
287.47688510137
  0
ARC
  5
1C9
330
1F
100
AcDbEntity
  8
0
  6
SLD-Solid
 62
     7
370
    25
100
AcDbCircle
 10
37.40087235620012
 20
16.48335512849034
 30
0.0
 40
0.6552474081942741
100
AcDbArc
 50
252.5231148986319
 51
90.0
  0
ARC
  5
1CA
330
1F
100
AcDbEntity
  8
0
  6
SLD-Solid
 62
     7
370
    25
100
AcDbCircle
 10
37.40087235620012
 20
16.48335512849034
 30
0.0
 40
0.6552474081942741
100
AcDbArc
 50
90.0
 51
107.4768851013688
  0
ARC
  5
1CB
330
1F
100
AcDbEntity
  8
0
  6
SLD-Solid
 62
     7
370
    25
100
AcDbCircle
 10
13.40087235620011
 20
16.48335512849034
 30
0.0
 40
0.625
100
AcDbArc
 50
90.0
 51
270.0000000000008
  0
ARC
  5
1CC
330
1F
100
AcDbEntity
  8
0
  6
SLD-Solid
 62
     7
370
    25
100
AcDbCircle
 10
37.40087235620012
 20
16.48335512849034
 30
0.0
 40
0.625
100
AcDbArc
 50
270.0000000000008
 51
90.0
  0
ARC
  5
1CD
330
1F
100
AcDbEntity
  8
0
  6
SLD-Solid
 62
     7
370
    25
100
AcDbCircle
 10
13.40087235620011
 20
16.48335512849034
 30
0.0
 40
0.6799999999999995
100
AcDbArc
 50
66.79742694276372
 51
293.2025730572372
  0
ARC
  5
1CE
330
1F
100
AcDbEntity
  8
0
  6
SLD-Solid
 62
     7
370
    25
100
AcDbCircle
 10
13.40087235620011
 20
16.48335512849034
 30
0.0
 40
1.565097172078314
100
AcDbArc
 50
228.9403361979504
 51
336.4633106029779
  0
ARC
  5
1CF
330
1F
100
AcDbEntity
  8
0
  6
SLD-Solid
 62
     7
370
    25
100
AcDbCircle
 10
13.40087235620011
 20
16.48335512849034
 30
0.0
 40
1.565097172078314
100
AcDbArc
 50
23.53668939702309
 51
228.9403361979504
  0
ARC
  5
1D0
330
1F
100
AcDbEntity
  8
0
  6
SLD-Solid
 62
     7
370
    25
100
AcDbCircle
 10
37.40087235620012
 20
16.48335512849034
 30
0.0
 40
0.6800000000000016
100
AcDbArc
 50
41.51141791336103
 51
113.2025730572367
  0
ARC
  5
1D1
330
1F
100
AcDbEntity
  8
0
  6
SLD-Solid
 62
     7
370
    25
100
AcDbCircle
 10
37.40087235620012
 20
16.48335512849034
 30
0.0
 40
0.6799999999999988
100
AcDbArc
 50
246.797426942764
 51
41.51141791336103
  0
ARC
  5
1D2
330
1F
100
AcDbEntity
  8
0
  6
SLD-Solid
 62
     7
370
    25
100
AcDbCircle
 10
37.40087235620012
 20
16.48335512849034
 30
0.0
 40
1.565097172078316
100
AcDbArc
 50
221.5114179133616
 51
156.4633106029769
  0
ARC
  5
1D3
330
1F
100
AcDbEntity
  8
0
  6
SLD-Solid
 62
     7
370
    25
100
AcDbCircle
 10
37.40087235620012
 20
16.48335512849034
 30
0.0
 40
1.565097172078315
100
AcDbArc
 50
203.5366893970237
 51
221.5114179133616
  0
DIMENSION
  5
1E7
330
1F
100
AcDbEntity
  8
DIMS
100
AcDbDimension
  2
_D_1
 10
34.88650230948195
 20
15.85835512849034
 30
0.0
 11
34.88650230948195
 21
14.36555335598591
 31
0.0
 70
    32
  1
<>
 71
     2
 42
-1.0
  3
SLDDIMSTYLE1
100
AcDbAlignedDimension
 13
35.90087235620012
 23
17.10835512849034
 33
0.0
 14
35.90087235620012
 24
15.85835512849034
 34
0.0
 50
90.0000000000002
100
AcDbRotatedDimension
  0
DIMENSION
  5
1F7
330
1F
100
AcDbEntity
  8
DIMS
100
AcDbDimension
  2
_D_2
 10
13.40087235620011
 20
20.26743840595134
 30
0.0
 11
26.23579978683694
 21
20.26743840595135
 31
0.0
 70
    32
  1
<>
 71
     2
 42
-1.0
  3
SLDDIMSTYLE0
100
AcDbAlignedDimension
 13
37.40087235620012
 23
16.48335512849034
 33
0.0
 14
13.40087235620011
 24
16.48335512849034
 34
0.0
 50
0.0000000000000424
100
AcDbRotatedDimension
  0
MTEXT
  5
202
330
1F
100
AcDbEntity
  8
NOTES
100
AcDbMText
 10
13.81362054411578
 20
14.45897602196743
 30
0.0
 40
0.5
 41
0.0
 71
     1
 72
     1
  1
Front view
  7
SLDTEXTSTYLE1
 73
     1
 44
1.0
  0
LINE
  5
203
330
1F
100
AcDbEntity
  8
0
  6
SLD-Solid
 62
     7
370
    25
100
AcDbLine
 10
57.49388949997319
 20
15.85835512849034
 30
0.0
 11
57.65095250137067
 21
15.85835512849034
 31
0.0
  0
LINE
  5
204
330
1F
100
AcDbEntity
  8
0
  6
SLD-Solid
 62
     7
370
    25
100
AcDbLine
 10
57.65095250137067
 20
17.10835512849034
 30
0.0
 11
57.49388949997319
 21
17.10835512849034
 31
0.0
  0
LINE
  5
205
330
1F
100
AcDbEntity
  8
0
  6
SLD-Solid
 62
     7
370
    25
100
AcDbLine
 10
57.49388949997319
 20
17.10835512849034
 30
0.0
 11
55.99388949997319
 21
17.10835512849034
 31
0.0
  0
LINE
  5
206
330
1F
100
AcDbEntity
  8
0
  6
SLD-Solid
 62
     7
370
    25
100
AcDbLine
 10
55.99388949997319
 20
15.85835512849034
 30
0.0
 11
57.49388949997319
 21
15.85835512849034
 31
0.0
  0
LINE
  5
207
330
1F
100
AcDbEntity
  8
0
  6
SLD-Solid
 62
     7
370
    25
100
AcDbLine
 10
58.1176680175886
 20
18.04845230056865
 30
0.0
 11
57.70403302905205
 21
18.03400784848025
 31
0.0
  0
LINE
  5
208
330
1F
100
AcDbEntity
  8
0
  6
SLD-Solid
 62
     7
370
    25
100
AcDbLine
 10
57.70403302905205
 20
14.93270240850043
 30
0.0
 11
58.1176680175886
 21
14.91825795641203
 31
0.0
  0
LINE
  5
209
330
1F
100
AcDbEntity
  8
0
  6
SLD-Solid
 62
     7
370
    25
100
AcDbLine
 10
58.1176680175886
 20
14.91825795641203
 30
0.0
 11
58.11888949997319
 21
14.9532366353577
 31
0.0
  0
LINE
  5
20A
330
1F
100
AcDbEntity
  8
0
  6
SLD-Solid
 62
     7
370
    25
100
AcDbLine
 10
58.11888949997319
 20
18.01347362162299
 30
0.0
 11
58.1176680175886
 21
18.04845230056865
 31
0.0
  0
ARC
  5
20B
330
1F
100
AcDbEntity
  8
0
  6
SLD-Solid
 62
     7
370
    25
100
AcDbCircle
 10
57.70595250137067
 20
14.98766890398648
 30
0.0
 40
0.055
100
AcDbArc
 50
180.0
 51
268.0000000000128
  0
ARC
  5
20C
330
1F
100
AcDbEntity
  8
0
  6
SLD-Solid
 62
     7
370
    25
100
AcDbCircle
 10
57.70595250137067
 20
17.9790413529942
 30
0.0
 40
0.0549999999999983
100
AcDbArc
 50
91.99999999998802
 51
180.0
  0
ARC
  5
20D
330
1F
100
AcDbEntity
  8
0
  6
SLD-Solid
 62
     7
370
    25
100
AcDbCircle
 10
55.99388949997319
 20
16.48335512849034
 30
0.0
 40
0.625
100
AcDbArc
 50
90.0
 51
270.0000000000008
  0
LINE
  5
20E
330
1F
100
AcDbEntity
  8
0
  6
SLD-Solid
 62
     7
370
    25
100
AcDbLine
 10
58.1176680175886
 20
14.91825795641203
 30
0.0
 11
58.1176680175886
 21
18.04845230056865
 31
0.0
  0
LINE
  5
20F
330
1F
100
AcDbEntity
  8
0
  6
SLD-Solid
 62
     7
370
    25
100
AcDbLine
 10
58.11888949997319
 20
14.9532366353577
 30
0.0
 11
58.11888949997319
 21
18.01347362162299
 31
0.0
  0
LINE
  5
210
330
1F
100
AcDbEntity
  8
0
  6
SLD-Solid
 62
     7
370
    25
100
AcDbLine
 10
57.65095250137068
 20
17.47465002121481
 30
0.0
 11
57.65095250137068
 21
17.9790413529942
 31
0.0
  0
LINE
  5
211
330
1F
100
AcDbEntity
  8
0
  6
SLD-Solid
 62
     7
370
    25
100
AcDbLine
 10
57.65095250137068
 20
14.98766890398648
 30
0.0
 11
57.65095250137068
 21
17.47465002121481
 31
0.0
  0
DIMENSION
  5
212
330
1F
100
AcDbEntity
  8
DIMS
100
AcDbDimension
  2
_D_3
 10
58.1188894999731
 20
19.3225565161875
 30
0.0
 11
56.92471645838134
 21
19.3225565161875
 31
0.0
 70
    32
  1
<>
 71
     2
 42
-1.0
  3
SLDDIMSTYLE2
100
AcDbAlignedDimension
 13
55.36888949997311
 23
16.48335512849034
 33
0.0
 14
58.1188894999731
 24
17.49822021293614
 34
0.0
100
AcDbRotatedDimension
  0
DIMENSION
  5
222
330
1F
100
AcDbEntity
  8
DIMS
100
AcDbDimension
  2
_D_4
 10
57.6509525013706
 20
18.43326619783465
 30
0.0
 11
60.09082054170945
 21
18.43326619783465
 31
0.0
 70
    32
  1
<>
 71
     2
 42
-1.0
  3
SLDDIMSTYLE1
100
AcDbAlignedDimension
 13
58.1188894999731
 23
17.97085512849034
 33
0.0
 14
57.6509525013706
 24
17.9790413529942
 34
0.0
100
AcDbRotatedDimension
  0
MTEXT
  5
230
330
1F
100
AcDbEntity
  8
NOTES
100
AcDbMText
 10
55.44589720849418
 20
13.99443064262489
 30
0.0
 40
0.5
 41
0.0
 71
     1
 72
     1
  1
side view
  7
SLDTEXTSTYLE1
 73
     1
 44
1.0
  0
SPLINE
  5
231
330
1F
100
AcDbEntity
  8
0
  6
SLD-Solid
 62
     7
370
    25
100
AcDbSpline
210
0.0
220
0.0
230
1.0
 70
    12
 71
     3
 72
    25
 73
    21
 74
     0
 42
0.00000001
 43
0.00000001
 40
0.0
 40
0.0
 40
0.0
 40
0.0
 40
0.0299263981434808
 40
0.0860295894238747
 40
0.1428761399335687
 40
0.2006677724135179
 40
0.2593456224579205
 40
0.3187975281041548
 40
0.3788792060917167
 40
0.4394288160407396
 40
0.5002759494010943
 40
0.5612468821272306
 40
0.6221383392496105
 40
0.6827498352033293
 40
0.7429153489000657
 40
0.8024795895351923
 40
0.8613065642802756
 40
0.9192936690600043
 40
0.9763932311445365
 40
1.0
 40
1.0
 40
1.0
 40
1.0
 10
80.62882458850244
 20
22.30872231058266
 30
0.0
 41
1.0
 10
80.61907808294633
 20
22.30325346302238
 30
0.0
 41
1.0
 10
80.59105974718506
 20
22.28753213538459
 30
0.0
 41
1.0
 10
80.53684147349588
 20
22.26162601180427
 30
0.0
 41
1.0
 10
80.46374973637056
 20
22.2324740675835
 30
0.0
 41
1.0
 10
80.3815890269111
 20
22.20576948167984
 30
0.0
 41
1.0
 10
80.29154428660124
 20
22.18248953262561
 30
0.0
 41
1.0
 10
80.19484938199199
 20
22.16347224016837
 30
0.0
 41
1.0
 10
80.09297375266691
 20
22.14939102488128
 30
0.0
 41
1.0
 10
79.9874956229661
 20
22.14074121492028
 30
0.0
 41
1.0
 10
79.88008506982602
 20
22.13783649188085
 30
0.0
 41
1.0
 10
79.77247928030923
 20
22.14080499396667
 30
0.0
 41
1.0
 10
79.66644941694341
 20
22.14958154075701
 30
0.0
 41
1.0
 10
79.5637475042204
 20
22.16390184597349
 30
0.0
 41
1.0
 10
79.4660472631587
 20
22.18330459589028
 30
0.0
 41
1.0
 10
79.37492911665476
 20
22.20713147453146
 30
0.0
 41
1.0
 10
79.29178015159978
 20
22.23452784459226
 30
0.0
 41
1.0
 10
79.21801591750969
 20
22.26442457414308
 30
0.0
 41
1.0
 10
79.16621971928994
 20
22.28966929933215
 30
0.0
 41
1.0
 10
79.14009499018081
 20
22.30441048365514
 30
0.0
 41
1.0
 10
79.13245345284032
 20
22.30872231058266
 30
0.0
 41
1.0
  0
SPLINE
  5
232
330
1F
100
AcDbEntity
  8
0
  6
SLD-Solid
 62
     7
370
    25
100
AcDbSpline
210
0.0
220
0.0
230
1.0
 70
    12
 71
     3
 72
    26
 73
    22
 74
     0
 42
0.00000001
 43
0.00000001
 40
0.0
 40
0.0
 40
0.0
 40
0.0
 40
0.0315368870639625
 40
0.0870998342856346
 40
0.1426391836259023
 40
0.1981184970500378
 40
0.2534360463420811
 40
0.3085562758037053
 40
0.3634889875597636
 40
0.418272546508298
 40
0.472962209900678
 40
0.5276228392726334
 40
0.5823244460439987
 40
0.6371159357898161
 40
0.6920708862483951
 40
0.747261201290286
 40
0.8027528461509025
 40
0.8585984211468919
 40
0.9148246141790202
 40
0.9714127012306836
 40
1.0
 40
1.0
 40
1.0
 40
1.0
 10
78.5075042449428
 20
21.22616123260681
 30
0.0
 41
1.0
 10
78.53205939085817
 20
21.21238778210216
 30
0.0
 41
1.0
 10
78.59987677358683
 20
21.17434771638283
 30
0.0
 41
1.0
 10
78.71679349328744
 20
21.11851996280904
 30
0.0
 41
1.0
 10
78.85942216836952
 20
21.06094573683588
 30
0.0
 41
1.0
 10
79.00772549495969
 20
21.0116311718942
 30
0.0
 41
1.0
 10
79.16061674901421
 20
20.97049983518259
 30
0.0
 41
1.0
 10
79.31716350227323
 20
20.9376288451368
 30
0.0
 41
1.0
 10
79.47647136515961
 20
20.91300658994349
 30
0.0
 41
1.0
 10
79.63771856895738
 20
20.8966200714269
 30
0.0
 41
1.0
 10
79.80011843822183
 20
20.88845283684501
 30
0.0
 41
1.0
 10
79.96290874066827
 20
20.88849668268616
 30
0.0
 41
1.0
 10
80.12531807336796
 20
20.8967533962593
 30
0.0
 41
1.0
 10
80.286585830035
 20
20.91323380966348
 30
0.0
 41
1.0
 10
80.44595907184025
 20
20.93796251621262
 30
0.0
 41
1.0
 10
80.60271350923978
 20
20.97098443907231
 30
0.0
 41
1.0
 10
80.75610318619867
 20
21.01238214733099
 30
0.0
 41
1.0
 10
80.90539774179697
 20
21.06221691394787
 30
0.0
 41
1.0
 10
81.04963563427339
 20
21.12073665625979
 30
0.0
 41
1.0
 10
81.1652739513147
 20
21.17639560873083
 30
0.0
 41
1.0
 10
81.23153476853595
 20
21.21365568420745
 30
0.0
 41
1.0
 10
81.25377379639997
 20
21.22616123260681
 30
0.0
 41
1.0
  0
LINE
  5
233
330
1F
100
AcDbEntity
  8
0
  6
SLD-Solid
 62
     7
370
    25
100
AcDbLine
 10
81.25377379639997
 20
21.22616123260681
 30
0.0
 11
81.49879927823471
 21
21.36761143241784
 31
0.0
  0
LINE
  5
234
330
1F
100
AcDbEntity
  8
0
  6
SLD-Solid
 62
     7
370
    25
100
AcDbLine
 10
80.87385007033718
 20
22.4501725103937
 30
0.0
 11
80.62882458850244
 21
22.30872231058266
 31
0.0
  0
LINE
  5
235
330
1F
100
AcDbEntity
  8
0
  6
SLD-Solid
 62
     7
370
    25
100
AcDbLine
 10
63.65826184002531
 20
29.79844640674527
 30
0.0
 11
78.5075042449428
 21
21.22616123260681
 31
0.0
  0
LINE
  5
236
330
1F
100
AcDbEntity
  8
0
  6
SLD-Solid
 62
     7
370
    25
100
AcDbLine
 10
79.13245345284032
 20
22.30872231058266
 30
0.0
 11
64.28321104792286
 21
30.88100748472112
 31
0.0
  0
SPLINE
  5
237
330
1F
100
AcDbEntity
  8
0
  6
SLD-Solid
 62
     7
370
    25
100
AcDbSpline
210
0.0
220
0.0
230
1.0
 70
    12
 71
     3
 72
    14
 73
    10
 74
     0
 42
0.00000001
 43
0.00000001
 40
0.0
 40
0.0
 40
0.0
 40
0.0
 40
0.0944995916446265
 40
0.2699489047179292
 40
0.4446274145234447
 40
0.6198744293492173
 40
0.7976584280850781
 40
0.9817070769773406
 40
0.9999999999999999
 40
0.9999999999999999
 40
0.9999999999999999
 40
0.9999999999999999
 10
64.28321104792285
 20
30.88100748472112
 30
0.0
 41
1.0
 10
64.27406654011011
 20
30.88644328334289
 30
0.0
 41
1.0
 10
64.24794420640184
 20
30.90197126456141
 30
0.0
 41
1.0
 10
64.21297675756905
 20
30.9266775995237
 30
0.0
 41
1.0
 10
64.18213097990169
 20
30.95262323150396
 30
0.0
 41
1.0
 10
64.16193327302442
 20
30.97368124272358
 30
0.0
 41
1.0
 10
64.15157590220821
 20
30.98693786260865
 30
0.0
 41
1.0
 10
64.14873439812689
 20
30.99264385522626
 30
0.0
 41
1.0
 10
64.14935401449856
 20
30.99114474816091
 30
0.0
 41
1.0
 10
64.1494100316308
 20
30.99100921965884
 30
0.0
 41
1.0
  0
SPLINE
  5
238
330
1F
100
AcDbEntity
  8
0
  6
SLD-Solid
 62
     7
370
    25
100
AcDbSpline
210
0.0
220
0.0
230
1.0
 70
    12
 71
     3
 72
    11
 73
     7
 74
     0
 42
0.00000001
 43
0.00000001
 40
0.0
 40
0.0
 40
0.0
 40
0.0
 40
0.1568690130998795
 40
0.5386247510976235
 40
0.9038390744155579
 40
1.0
 40
1.0
 40
1.0
 40
1.0
 10
64.18394339599378
 20
30.95177159168445
 30
0.0
 41
1.0
 10
64.18699620085579
 20
30.95473837092153
 30
0.0
 41
1.0
 10
64.19747829815759
 20
30.96492509101722
 30
0.0
 41
1.0
 10
64.22605795718218
 20
30.98703437692055
 30
0.0
 41
1.0
 10
64.25831702793265
 20
31.00848746385859
 30
0.0
 41
1.0
 10
64.27891745745588
 20
31.02054542547089
 30
0.0
 41
1.0
 10
64.28321104792286
 20
31.02305857447933
 30
0.0
 41
1.0
  0
SPLINE
  5
239
330
1F
100
AcDbEntity
  8
0
  6
SLD-Solid
 62
     7
370
    25
100
AcDbSpline
210
0.0
220
0.0
230
1.0
 70
    12
 71
     3
 72
    30
 73
    26
 74
     0
 42
0.00000001
 43
0.00000001
 40
0.0
 40
0.0
 40
0.0
 40
0.0
 40
0.0280655516010275
 40
0.0780730962645098
 40
0.1279620894207058
 40
0.1771871411281107
 40
0.2254265851042054
 40
0.2724686465524529
 40
0.3182447487374211
 40
0.3628141939317983
 40
0.4063233212257056
 40
0.4489661527215305
 40
0.4909582838971312
 40
0.5325236596997487
 40
0.5738692362262163
 40
0.6151744684755169
 40
0.6566727022166572
 40
0.6985948047911683
 40
0.7411629932014712
 40
0.7845783066040087
 40
0.8290000318489124
 40
0.8745180552356739
 40
0.9211248248001008
 40
0.9687008578919788
 40
0.9999999999999999
 40
0.9999999999999999
 40
0.9999999999999999
 40
0.9999999999999999
 10
63.65826184002533
 20
32.10561965245518
 30
0.0
 41
1.0
 10
63.63401060767169
 20
32.0912112168065
 30
0.0
 41
1.0
 10
63.56654823155333
 20
32.05112965349315
 30
0.0
 41
1.0
 10
63.46249185929404
 20
31.97869268427481
 30
0.0
 41
1.0
 10
63.34983271303896
 20
31.88624362928176
 30
0.0
 41
1.0
 10
63.24832394051636
 20
31.78638015394183
 30
0.0
 41
1.0
 10
63.15910275684272
 20
31.68040016556025
 30
0.0
 41
1.0
 10
63.08298396838102
 20
31.56942584714762
 30
0.0
 41
1.0
 10
63.02037007364643
 20
31.45464094296736
 30
0.0
 41
1.0
 10
62.97137422555732
 20
31.33715079026039
 30
0.0
 41
1.0
 10
62.93590250174657
 20
31.21797568236708
 30
0.0
 41
1.0
 10
62.91373857460015
 20
31.09805414852957
 30
0.0
 41
1.0
 10
62.90459427712869
 20
30.97825307940774
 30
0.0
 41
1.0
 10
62.90814090472247
 20
30.85938531622495
 30
0.0
 41
1.0
 10
62.9240193061578
 20
30.74222711567344
 30
0.0
 41
1.0
 10
62.95185207865676
 20
30.62745168072559
 30
0.0
 41
1.0
 10
62.99128646185324
 20
30.51560238566788
 30
0.0
 41
1.0
 10
63.04205050999146
 20
30.407080066445
 30
0.0
 41
1.0
 10
63.10396296536349
 20
30.3022211581292
 30
0.0
 41
1.0
 10
63.17692463769253
 20
30.20133522095974
 30
0.0
 41
1.0
 10
63.26089476195113
 20
30.10477293861739
 30
0.0
 41
1.0
 10
63.35576038931652
 20
30.01291833378902
 30
0.0
 41
1.0
 10
63.46143769401003
 20
29.92644862934899
 30
0.0
 41
1.0
 10
63.56315937707789
 20
29.8551170401412
 30
0.0
 41
1.0
 10
63.63124442276014
 20
29.81454582311881
 30
0.0
 41
1.0
 10
63.65826184002531
 20
29.79844640674527
 30
0.0
 41
1.0
  0
LINE
  5
23A
330
1F
100
AcDbEntity
  8
0
  6
SLD-Solid
 62
     7
370
    25
100
AcDbLine
 10
63.90328732186006
 20
32.24706985226622
 30
0.0
 11
63.65826184002533
 21
32.10561965245518
 31
0.0
  0
LINE
  5
23B
330
1F
100
AcDbEntity
  8
0
  6
SLD-Solid
 62
     7
370
    25
100
AcDbLine
 10
64.28321104792286
 20
31.02305857447933
 30
0.0
 11
64.52823652975759
 21
31.16450877429036
 31
0.0
  0
SPLINE
  5
23C
330
1F
100
AcDbEntity
  8
0
  6
SLD-Solid
 62
     7
370
    25
100
AcDbSpline
210
0.0
220
0.0
230
1.0
 70
    12
 71
     3
 72
    20
 73
    16
 74
     0
 42
0.00000001
 43
0.00000001
 40
0.0
 40
0.0
 40
0.0
 40
0.0
 40
0.0351157447811486
 40
0.1198061665810315
 40
0.2051521555479485
 40
0.2911325584117727
 40
0.3776162708829888
 40
0.4644340414088644
 40
0.5514326704913873
 40
0.6384990665071558
 40
0.7255462527519816
 40
0.8125445190279557
 40
0.8994834054589437
 40
0.9863641165349099
 40
1.0
 40
1.0
 40
1.0
 40
1.0
 10
63.19069995639994
 20
32.86015398404571
 30
0.0
 41
1.0
 10
63.1828673370617
 20
32.85121371291913
 30
0.0
 41
1.0
 10
63.15614439260899
 20
32.82071173671028
 30
0.0
 41
1.0
 10
63.11873424513485
 20
32.75880779574373
 30
0.0
 41
1.0
 10
63.07866365770958
 20
32.67529332175697
 30
0.0
 41
1.0
 10
63.04747304544008
 20
32.5828529448122
 30
0.0
 41
1.0
 10
63.0248574131784
 20
32.48293399773067
 30
0.0
 41
1.0
 10
63.01119859474844
 20
32.37618291051275
 30
0.0
 41
1.0
 10
63.00657138956385
 20
32.26357971899287
 30
0.0
 41
1.0
 10
63.01098246150262
 20
32.14608495130811
 30
0.0
 41
1.0
 10
63.02441833536284
 20
32.02469609225935
 30
0.0
 41
1.0
 10
63.04647302654627
 20
31.90039443280374
 30
0.0
 41
1.0
 10
63.07786969539166
 20
31.77421421144224
 30
0.0
 41
1.0
 10
63.10444399716784
 20
31.68270899414227
 30
0.0
 41
1.0
 10
63.12278570431938
 20
31.63375447365119
 30
0.0
 41
1.0
 10
63.12527390422718
 20
31.62711339971157
 30
0.0
 41
1.0
  0
LINE
  5
23D
330
1F
100
AcDbEntity
  8
0
  6
SLD-Solid
 62
     7
370
    25
100
AcDbLine
 10
63.61024171268606
 20
33.16284841365259
 30
0.0
 11
63.32515540948884
 21
32.98159811542628
 31
0.0
  0
LINE
  5
23E
330
1F
100
AcDbEntity
  8
0
  6
SLD-Solid
 62
     7
370
    25
100
AcDbLine
 10
65.09608198276794
 20
30.41174708252356
 30
0.0
 11
65.17473443849917
 21
30.45277388225273
 31
0.0
  0
SPLINE
  5
23F
330
1F
100
AcDbEntity
  8
0
  6
SLD-Solid
 62
     7
370
    25
100
AcDbSpline
210
0.0
220
0.0
230
1.0
 70
    12
 71
     3
 72
    18
 73
    14
 74
     0
 42
0.00000001
 43
0.00000001
 40
0.0
 40
0.0
 40
0.0
 40
0.0
 40
0.0036623948349838
 40
0.1108245081130194
 40
0.2187688033749491
 40
0.3275517969882691
 40
0.4370555517932423
 40
0.5470754717282962
 40
0.6574025131597999
 40
0.7678699955754512
 40
0.8783525833542474
 40
0.9887855005592048
 40
1.0
 40
1.0
 40
1.0
 40
1.0
 10
80.16286632579649
 20
23.06714089236182
 30
0.0
 41
1.0
 10
80.16219557995994
 20
23.06644054104429
 30
0.0
 41
1.0
 10
80.14189873028859
 20
23.04524782595764
 30
0.0
 41
1.0
 10
80.10895400425342
 20
22.9946860792847
 30
0.0
 41
1.0
 10
80.06507325067665
 20
22.91534948850855
 30
0.0
 41
1.0
 10
80.03034905703922
 20
22.82627350214658
 30
0.0
 41
1.0
 10
80.00396843540713
 20
22.72954395450671
 30
0.0
 41
1.0
 10
79.98647869123926
 20
22.62557324031986
 30
0.0
 41
1.0
 10
79.97803659814072
 20
22.51534358505467
 30
0.0
 41
1.0
 10
79.97841577039124
 20
22.39985860714011
 30
0.0
 41
1.0
 10
79.98870476728078
 20
22.27984084479327
 30
0.0
 41
1.0
 10
79.99980356002611
 20
22.19396998105253
 30
0.0
 41
1.0
 10
80.00990563579337
 20
22.14787951937658
 30
0.0
 41
1.0
 10
80.01083693155094
 20
22.14363050636058
 30
0.0
 41
1.0
  0
SPLINE
  5
240
330
1F
100
AcDbEntity
  8
0
  6
SLD-Solid
 62
     7
370
    25
100
AcDbSpline
210
0.0
220
0.0
230
1.0
 70
    12
 71
     3
 72
    20
 73
    16
 74
     0
 42
0.00000001
 43
0.00000001
 40
0.0
 40
0.0
 40
0.0
 40
0.0
 40
0.0101955581240501
 40
0.0994369912189875
 40
0.1887456918653642
 40
0.2781341897719191
 40
0.367610861375225
 40
0.4571760805493392
 40
0.5468159363633052
 40
0.6364863346923828
 40
0.7260866177957165
 40
0.8154791970209033
 40
0.9044806994948122
 40
0.992895850087849
 40
1.0
 40
1.0
 40
1.0
 40
1.0
 10
80.60063624233354
 20
20.97204801835053
 30
0.0
 41
1.0
 10
80.60396324796925
 20
20.9681344782151
 30
0.0
 41
1.0
 10
80.63641144022702
 20
20.92996583150179
 30
0.0
 41
1.0
 10
80.70176099003336
 20
20.8641332262083
 30
0.0
 41
1.0
 10
80.79609776620636
 20
20.77601234675493
 30
0.0
 41
1.0
 10
80.89331518633145
 20
20.6971609144168
 30
0.0
 41
1.0
 10
80.99216431616424
 20
20.62735212614612
 30
0.0
 41
1.0
 10
81.09205068422733
 20
20.56741981728567
 30
0.0
 41
1.0
 10
81.19218248780963
 20
20.51785135872752
 30
0.0
 41
1.0
 10
81.29180306208129
 20
20.47911807408781
 30
0.0
 41
1.0
 10
81.39005131050911
 20
20.45174783101189
 30
0.0
 41
1.0
 10
81.4862410539048
 20
20.43562655331552
 30
0.0
 41
1.0
 10
81.57885630878442
 20
20.43257502075718
 30
0.0
 41
1.0
 10
81.64180695665988
 20
20.43539080155702
 30
0.0
 41
1.0
 10
81.67224970423092
 20
20.4425897973714
 30
0.0
 41
1.0
 10
81.67451385232809
 20
20.44312521529439
 30
0.0
 41
1.0
  0
LINE
  5
241
330
1F
100
AcDbEntity
  8
0
  6
SLD-Solid
 62
     7
370
    25
100
AcDbLine
 10
80.58080446116318
 20
23.36595107178007
 30
0.0
 11
80.29571815796595
 21
23.18470077355376
 31
0.0
  0
LINE
  5
242
330
1F
100
AcDbEntity
  8
0
  6
SLD-Solid
 62
     7
370
    25
100
AcDbLine
 10
81.845772010191
 20
20.49963781486847
 30
0.0
 11
82.14529718697628
 21
20.65587654038021
 31
0.0
  0
LINE
  5
243
330
1F
100
AcDbEntity
  8
0
  6
SLD-Solid
 62
     7
370
    25
100
AcDbLine
 10
63.83209767167769
 20
32.20597294198826
 30
0.0
 11
63.86506445559075
 21
32.2492135452403
 31
0.0
  0
LWPOLYLINE
  5
244
330
1F
100
AcDbEntity
  8
0
  6
SLD-Solid
 62
     7
370
    25
100
AcDbPolyline
 90
        3
 70
   128
 43
0.0
 10
64.51097838246274
 20
31.13033657393162
 10
64.498623038989
 20
31.12769472628896
 10
64.45704687957522
 20
31.12341186401243
  0
LWPOLYLINE
  5
245
330
1F
100
AcDbEntity
  8
0
  6
SLD-Solid
 62
     7
370
    25
100
AcDbPolyline
 90
        3
 70
   128
 43
0.0
 10
81.4815411311919
 20
21.33343923211998
 10
81.44029721868851
 20
21.32711542000987
 10
81.42760962805234
 20
21.3265145221399
  0
LWPOLYLINE
  5
246
330
1F
100
AcDbEntity
  8
0
  6
SLD-Solid
 62
     7
370
    25
100
AcDbPolyline
 90
        3
 70
   128
 43
0.0
 10
80.80266042015481
 20
22.40907560011573
 10
80.81804011483936
 20
22.43163681215376
 10
80.83562720421052
 20
22.45231620351766
  0
ARC
  5
247
330
1F
100
AcDbEntity
  8
0
  6
SLD-Solid
 62
     7
370
    25
100
AcDbCircle
 10
63.61046545313391
 20
32.53141130686745
 30
0.0
 40
0.5326763964237025
100
AcDbArc
 50
104.7027460708248
 51
140.7311128319871
  0
LWPOLYLINE
  5
248
330
1F
100
AcDbEntity
  8
0
  6
SLD-Solid
 62
     7
370
    25
100
AcDbPolyline
 90
       36
 70
   128
 43
0.0
 10
65.17473443849917
 20
30.45277388225273
 10
65.21075451006406
 20
30.47342484369993
 10
65.27993137021747
 20
30.52519160418124
 10
65.34124642923459
 20
30.58867500436037
 10
65.39414440844607
 20
30.66330012873466
 10
65.43814625556072
 20
30.74839116062179
 10
65.47285348303723
 20
30.84317750246032
 10
65.497951776849
 20
30.94680075446053
 10
65.51321384296072
 20
31.05832248840584
 10
65.5185014657383
 20
31.17673274620408
 10
65.51376675965105
 20
31.30095918622436
 10
65.49905260293046
 20
31.4298767945889
 10
65.47449224925836
 20
31.56231807347297
 10
65.44030812100088
 20
31.69708361414595
 10
65.39680979491703
 20
31.83295295900255
 10
65.34439119858375
 20
31.96869565421586
 10
65.28352704292661
 20
32.10308239291776
 10
65.21476852316432
 20
32.23489614799226
 10
65.13873832709936
 20
32.36294319366154
 10
65.05612499596084
 20
32.48606391605144
 10
64.96767668886858
 20
32.60314331483428
 10
64.87419440738815
 20
32.71312110084449
 10
64.7765247415367
 20
32.81500129822148
 10
64.67555220293274
 20
32.90786126412127
 10
64.57219121452184
 20
32.99086004431295
 10
64.46737782942088
 20
33.06324598899042
 10
64.3620612538761
 20
33.12436355982945
 10
64.25719525110432
 20
33.17365926664421
 10
64.15372950386553
 20
33.21068667988018
 10
64.05260101398879
 20
33.23511047354925
 10
63.95472561673856
 20
33.24670946199383
 10
63.86098968686873
 20
33.24537860297843
 10
63.77224211147554
 20
33.23112994896836
 10
63.68928660234469
 20
33.20409253798081
 10
63.61287441741281
 20
33.16451122499655
 10
63.61024171268606
 20
33.16284841365259
  0
LWPOLYLINE
  5
249
330
1F
100
AcDbEntity
  8
0
  6
SLD-Solid
 62
     7
370
    25
100
AcDbPolyline
 90
       15
 70
   128
 43
0.0
 10
64.39762904935188
 20
31.86479800644749
 10
64.34281662308695
 20
31.94408293142881
 10
64.28269058507445
 20
32.01694253851396
 10
64.21847492805917
 20
32.08189361621245
 10
64.15147689763523
 20
32.13761394788578
 10
64.08306038049574
 20
32.18296922826526
 10
64.0146181396327
 20
32.21703615463618
 10
63.94754346169897
 20
32.23912122261853
 10
63.88320179370986
 20
32.24877484391627
 10
63.82290294647959
 20
32.24580049863852
 10
63.76787443065025
 20
32.23025873587784
 10
63.71923646811499
 20
32.20246594110528
 10
63.67797918753075
 20
32.16298789547463
 10
63.64494246815401
 20
32.11262825814962
 10
63.63939432769624
 20
32.10135937097368
  0
LWPOLYLINE
  5
24A
330
1F
100
AcDbEntity
  8
0
  6
SLD-Solid
 62
     7
370
    25
100
AcDbPolyline
 90
       16
 70
   128
 43
0.0
 10
64.26465959854724
 20
31.00936123652623
 10
64.28039172096169
 20
31.00813089142638
 10
64.34069056819195
 20
31.01110523670412
 10
64.39571908402128
 20
31.02664699946481
 10
64.44435704655655
 20
31.05443979423736
 10
64.4856143271408
 20
31.09391783986802
 10
64.51865104651753
 20
31.14427747719303
 10
64.54279467235025
 20
31.20449352922165
 10
64.5575537100415
 20
31.27334017078333
 10
64.56262770814541
 20
31.3494158827932
 10
64.5579133746928
 20
31.43117198313897
 10
64.54350667991774
 20
31.51694415338272
 10
64.51970090258038
 20
31.60498631948482
 10
64.48698065965712
 20
31.69350619683605
 10
64.44601204093648
 20
31.7807017760038
 10
64.39762904935188
 20
31.86479800644749
  0
ARC
  5
24B
330
1F
100
AcDbEntity
  8
0
  6
SLD-Solid
 62
     7
370
    25
100
AcDbCircle
 10
63.90417827722661
 20
32.00725088570031
 30
0.0
 40
0.2635495717972963
100
AcDbArc
 50
124.6262413036433
 51
157.8344090816864
  0
ARC
  5
24C
330
1F
100
AcDbEntity
  8
0
  6
SLD-Solid
 62
     7
370
    25
100
AcDbCircle
 10
64.32092696409273
 20
31.28570907583658
 30
0.0
 40
0.2640342114079471
100
AcDbArc
 50
262.1915717688847
 51
295.3370247804311
  0
ARC
  5
24D
330
1F
100
AcDbEntity
  8
0
  6
SLD-Solid
 62
     7
370
    25
100
AcDbCircle
 10
80.57996584490307
 20
22.73622952496279
 30
0.0
 40
0.530748179198994
100
AcDbArc
 50
104.7672559060449
 51
140.399239608256
  0
ARC
  5
24E
330
1F
100
AcDbEntity
  8
0
  6
SLD-Solid
 62
     7
370
    25
100
AcDbCircle
 10
81.59951056697159
 20
20.97008952786743
 30
0.0
 40
0.5307967257111157
100
AcDbArc
 50
279.2995521371075
 51
315.3503569121842
  0
LWPOLYLINE
  5
24F
330
1F
100
AcDbEntity
  8
0
  6
SLD-Solid
 62
     7
370
    25
100
AcDbPolyline
 90
       36
 70
   128
 43
0.0
 10
82.14529718697628
 20
20.65587654038021
 10
82.15445902344615
 20
20.66077202324769
 10
82.22633074677366
 20
20.70817646833847
 10
82.29055949620276
 20
20.7674797429846
 10
82.34656360623255
 20
20.83814478754753
 10
82.3938358949702
 20
20.91953164844096
 10
82.43194825724855
 20
21.01090327364955
 10
82.46055554161298
 20
21.11143218758619
 10
82.47939867606634
 20
21.22020798483897
 10
82.4883070142651
 20
21.33624557494362
 10
82.48719988091905
 20
21.45849410351528
 10
82.47608730239918
 20
21.58584646894856
 10
82.45506991593741
 20
21.7171493485011
 10
82.42433805824018
 20
21.85121364296291
 10
82.38417004176969
 20
21.98682524532298
 10
82.33492963430332
 20
22.12275603591035
 10
82.27706276459612
 20
22.25777500443607
 10
82.2110934839811
 20
22.39065939821296
 10
82.13761922047905
 20
22.52020579559333
 10
82.05730536839808
 20
22.64524100434172
 10
81.97087926241947
 20
22.76463268624555
 10
81.87912359074245
 20
22.87729961174523
 10
81.7828693069384
 20
22.98222145171654
 10
81.68298810470681
 20
23.07844801772913
 10
81.58038452368206
 20
23.16510786710016
 10
81.47598775778249
 20
23.24141619481409
 10
81.3707432402863
 20
23.30668194083853
 10
81.26560408184147
 20
23.36031404847083
 10
81.16152243894808
 20
23.40182681703912
 10
81.05944089108162
 20
23.43084430048284
 10
80.96028390454725
 20
23.44710371197846
 10
80.86494946036991
 20
23.45045780377765
 10
80.77430092203895
 20
23.44087620070567
 10
80.68915921675477
 20
23.41844567524368
 10
80.61029540098495
 20
23.38336936170374
 10
80.58080446116318
 20
23.36595107178007
  0
LWPOLYLINE
  5
250
330
1F
100
AcDbEntity
  8
0
  6
SLD-Solid
 62
     7
370
    25
100
AcDbPolyline
 90
       16
 70
   128
 43
0.0
 10
81.41241834104306
 20
21.9916991413984
 10
81.3634004139139
 20
22.07542290830022
 10
81.3080505908637
 20
22.15418223854978
 10
81.24749563467408
 20
22.22637381930634
 10
81.18296826962695
 20
22.29052803816903
 10
81.11578208679316
 20
22.34533890024728
 10
81.04730480310623
 20
22.38969061445066
 10
80.97893041858984
 20
22.42268030777779
 10
80.91205083853733
 20
22.44363640520691
 10
80.84802753833372
 20
22.45213230102679
 10
80.78816384774329
 20
22.44799504329867
 10
80.7336784188738
 20
22.43130885465902
 10
80.685680417934
 20
22.40241341778956
 10
80.64514694580824
 20
22.36189696045738
 10
80.61290314710013
 20
22.31058428089396
 10
80.6078679503643
 20
22.2999124488958
  0
LWPOLYLINE
  5
251
330
1F
100
AcDbEntity
  8
0
  6
SLD-Solid
 62
     7
370
    25
100
AcDbPolyline
 90
       15
 70
   128
 43
0.0
 10
81.24094538986465
 20
21.2119275679589
 10
81.25669147329202
 20
21.21097875057081
 10
81.31655516388247
 20
21.21511600829893
 10
81.37104059275198
 20
21.23180219693858
 10
81.41903859369178
 20
21.26069763380804
 10
81.45957206581751
 20
21.30121409114022
 10
81.49181586452562
 20
21.35252677070364
 10
81.51511359905783
 20
21.41359109431594
 10
81.52899099472417
 20
21.48316396844334
 10
81.533165547768
 20
21.55982909000022
 10
81.52755227632775
 20
21.64202577819562
 10
81.51226545042259
 20
21.72808074549356
 10
81.48761626574442
 20
21.81624216092189
 10
81.45410650861088
 20
21.90471531229902
 10
81.41241834104306
 20
21.9916991413984
  0
ARC
  5
252
330
1F
100
AcDbEntity
  8
0
  6
SLD-Solid
 62
     7
370
    25
100
AcDbCircle
 10
80.87576699104967
 20
22.20952954017898
 30
0.0
 40
0.2648108664986923
100
AcDbArc
 50
124.7076002740452
 51
157.7530500997472
  0
ARC
  5
253
330
1F
100
AcDbEntity
  8
0
  6
SLD-Solid
 62
     7
370
    25
100
AcDbCircle
 10
81.29168677248938
 20
21.48753353669723
 30
0.0
 40
0.26279489748581
100
AcDbArc
 50
262.111144542331
 51
295.4174520216025
  0
LINE
  5
25A
330
1F
100
AcDbEntity
  8
0
  6
SLD-Solid
 62
     7
370
    25
100
AcDbLine
 10
12.77587235620011
 20
31.62885442965866
 30
0.0
 11
12.77587235620011
 21
31.47179142826118
 31
0.0
  0
LINE
  5
25B
330
1F
100
AcDbEntity
  8
0
  6
SLD-Solid
 62
     7
370
    25
100
AcDbLine
 10
14.02587235620011
 20
31.47179142826118
 30
0.0
 11
14.02587235620011
 21
31.62885442965866
 31
0.0
  0
LINE
  5
25C
330
1F
100
AcDbEntity
  8
0
  6
SLD-Solid
 62
     7
370
    25
100
AcDbLine
 10
38.02587235620011
 20
31.47179142826118
 30
0.0
 11
38.02587235620011
 21
31.62885442965866
 31
0.0
  0
LINE
  5
25D
330
1F
100
AcDbEntity
  8
0
  6
SLD-Solid
 62
     7
370
    25
100
AcDbLine
 10
36.77587235620012
 20
31.62885442965866
 30
0.0
 11
36.77587235620012
 21
31.47179142826118
 31
0.0
  0
ARC
  5
25E
330
1F
100
AcDbEntity
  8
0
  6
SLD-Solid
 62
     7
370
    25
100
AcDbCircle
 10
35.90087235620012
 20
31.47179142826118
 30
0.0
 40
0.875
100
AcDbArc
 50
270.0000000000008
 51
0.0
  0
ARC
  5
25F
330
1F
100
AcDbEntity
  8
0
  6
SLD-Solid
 62
     7
370
    25
100
AcDbCircle
 10
35.90087235620012
 20
31.47179142826118
 30
0.0
 40
2.125
100
AcDbArc
 50
270.0000000000008
 51
0.0
  0
ARC
  5
260
330
1F
100
AcDbEntity
  8
0
  6
SLD-Solid
 62
     7
370
    25
100
AcDbCircle
 10
14.90087235620011
 20
31.47179142826118
 30
0.0
 40
0.8750000000000036
100
AcDbArc
 50
180.0
 51
270.0000000000008
  0
ARC
  5
261
330
1F
100
AcDbEntity
  8
0
  6
SLD-Solid
 62
     7
370
    25
100
AcDbCircle
 10
14.90087235620011
 20
31.47179142826118
 30
0.0
 40
2.125
100
AcDbArc
 50
180.0
 51
270.0000000000009
  0
LINE
  5
262
330
1F
100
AcDbEntity
  8
0
  6
SLD-Solid
 62
     7
370
    25
100
AcDbLine
 10
14.90087235620011
 20
29.34679142826118
 30
0.0
 11
35.90087235620012
 21
29.34679142826118
 31
0.0
  0
LINE
  5
263
330
1F
100
AcDbEntity
  8
0
  6
SLD-Solid
 62
     7
370
    25
100
AcDbLine
 10
35.90087235620012
 20
30.59679142826117
 30
0.0
 11
14.90087235620011
 21
30.59679142826117
 31
0.0
  0
LINE
  5
264
330
1F
100
AcDbEntity
  8
0
  6
SLD-Solid
 62
     7
370
    25
100
AcDbLine
 10
11.8357751841218
 20
32.09556994587659
 30
0.0
 11
11.85021963621021
 21
31.68193495734003
 31
0.0
  0
LINE
  5
265
330
1F
100
AcDbEntity
  8
0
  6
SLD-Solid
 62
     7
370
    25
100
AcDbLine
 10
14.95152507619002
 20
31.68193495734003
 30
0.0
 11
14.96596952827843
 21
32.09556994587659
 31
0.0
  0
LINE
  5
266
330
1F
100
AcDbEntity
  8
0
  6
SLD-Solid
 62
     7
370
    25
100
AcDbLine
 10
14.96596952827843
 20
32.09556994587659
 30
0.0
 11
14.93099084933276
 21
32.09679142826118
 31
0.0
  0
LINE
  5
267
330
1F
100
AcDbEntity
  8
0
  6
SLD-Solid
 62
     7
370
    25
100
AcDbLine
 10
11.87075386306747
 20
32.09679142826118
 30
0.0
 11
11.8357751841218
 21
32.09556994587659
 31
0.0
  0
ARC
  5
268
330
1F
100
AcDbEntity
  8
0
  6
SLD-Solid
 62
     7
370
    25
100
AcDbCircle
 10
14.89655858070397
 20
31.68385442965867
 30
0.0
 40
0.0549999999999985
100
AcDbArc
 50
270.0000000000008
 51
358.0000000000054
  0
ARC
  5
269
330
1F
100
AcDbEntity
  8
0
  6
SLD-Solid
 62
     7
370
    25
100
AcDbCircle
 10
11.90518613169626
 20
31.68385442965867
 30
0.0
 40
0.0550000000000003
100
AcDbArc
 50
181.9999999999962
 51
270.0000000000008
  0
LINE
  5
26A
330
1F
100
AcDbEntity
  8
0
  6
SLD-Solid
 62
     7
370
    25
100
AcDbLine
 10
35.8357751841218
 20
32.09556994587659
 30
0.0
 11
35.85021963621021
 21
31.68193495734003
 31
0.0
  0
LINE
  5
26B
330
1F
100
AcDbEntity
  8
0
  6
SLD-Solid
 62
     7
370
    25
100
AcDbLine
 10
38.95152507619002
 20
31.68193495734003
 30
0.0
 11
38.96596952827843
 21
32.09556994587659
 31
0.0
  0
LINE
  5
26C
330
1F
100
AcDbEntity
  8
0
  6
SLD-Solid
 62
     7
370
    25
100
AcDbLine
 10
38.96596952827843
 20
32.09556994587659
 30
0.0
 11
38.93099084933277
 21
32.09679142826118
 31
0.0
  0
LINE
  5
26D
330
1F
100
AcDbEntity
  8
0
  6
SLD-Solid
 62
     7
370
    25
100
AcDbLine
 10
35.87075386306747
 20
32.09679142826118
 30
0.0
 11
35.8357751841218
 21
32.09556994587659
 31
0.0
  0
ARC
  5
26E
330
1F
100
AcDbEntity
  8
0
  6
SLD-Solid
 62
     7
370
    25
100
AcDbCircle
 10
38.89655858070397
 20
31.68385442965867
 30
0.0
 40
0.0549999999999985
100
AcDbArc
 50
270.0000000000008
 51
358.0000000000054
  0
ARC
  5
26F
330
1F
100
AcDbEntity
  8
0
  6
SLD-Solid
 62
     7
370
    25
100
AcDbCircle
 10
35.90518613169625
 20
31.68385442965867
 30
0.0
 40
0.0549999999999962
100
AcDbArc
 50
181.9999999999965
 51
270.0000000000008
  0
LINE
  5
270
330
1F
100
AcDbEntity
  8
0
  6
SLD-Solid
 62
     7
370
    25
100
AcDbLine
 10
14.96596952827843
 20
32.09556994587659
 30
0.0
 11
11.8357751841218
 21
32.09556994587659
 31
0.0
  0
LINE
  5
271
330
1F
100
AcDbEntity
  8
0
  6
SLD-Solid
 62
     7
370
    25
100
AcDbLine
 10
12.24712323336126
 20
32.09679142826118
 30
0.0
 11
11.87075386306747
 21
32.09679142826118
 31
0.0
  0
LINE
  5
272
330
1F
100
AcDbEntity
  8
0
  6
SLD-Solid
 62
     7
370
    25
100
AcDbLine
 10
14.93099084933276
 20
32.09679142826118
 30
0.0
 11
12.24712323336126
 21
32.09679142826118
 31
0.0
  0
LINE
  5
273
330
1F
100
AcDbEntity
  8
0
  6
SLD-Solid
 62
     7
370
    25
100
AcDbLine
 10
14.38330573823784
 20
31.62885442965867
 30
0.0
 11
11.90518613169626
 21
31.62885442965867
 31
0.0
  0
LINE
  5
274
330
1F
100
AcDbEntity
  8
0
  6
SLD-Solid
 62
     7
370
    25
100
AcDbLine
 10
14.89655858070397
 20
31.62885442965867
 30
0.0
 11
14.38330573823784
 21
31.62885442965867
 31
0.0
  0
LINE
  5
275
330
1F
100
AcDbEntity
  8
0
  6
SLD-Solid
 62
     7
370
    25
100
AcDbLine
 10
38.96596952827843
 20
32.09556994587659
 30
0.0
 11
35.8357751841218
 21
32.09556994587659
 31
0.0
  0
LINE
  5
276
330
1F
100
AcDbEntity
  8
0
  6
SLD-Solid
 62
     7
370
    25
100
AcDbLine
 10
36.38675681334366
 20
32.09679142826118
 30
0.0
 11
35.87075386306747
 21
32.09679142826118
 31
0.0
  0
LINE
  5
277
330
1F
100
AcDbEntity
  8
0
  6
SLD-Solid
 62
     7
370
    25
100
AcDbLine
 10
38.93099084933277
 20
32.09679142826118
 30
0.0
 11
36.38675681334366
 21
32.09679142826118
 31
0.0
  0
LINE
  5
278
330
1F
100
AcDbEntity
  8
0
  6
SLD-Solid
 62
     7
370
    25
100
AcDbLine
 10
38.52087758736155
 20
31.62885442965867
 30
0.0
 11
35.90518613169625
 21
31.62885442965867
 31
0.0
  0
LINE
  5
279
330
1F
100
AcDbEntity
  8
0
  6
SLD-Solid
 62
     7
370
    25
100
AcDbLine
 10
38.89655858070397
 20
31.62885442965867
 30
0.0
 11
38.52087758736155
 21
31.62885442965867
 31
0.0
  0
DIMENSION
  5
27A
330
1F
100
AcDbEntity
  8
DIMS
100
AcDbDimension
  2
_D_5
 10
38.96604066138266
 20
33.67097966004791
 30
0.0
 11
25.34724085153404
 21
33.67159457786748
 31
0.0
 70
    32
  1
<>
 71
     2
 42
-1.0
  3
SLDDIMSTYLE2
100
AcDbAlignedDimension
 13
11.91337235620011
 23
32.09679142826118
 33
0.0
 14
38.96596952827843
 24
32.09556994587659
 34
0.0
 50
359.9974129735163
100
AcDbRotatedDimension
  0
DIMENSION
  5
289
330
1F
100
AcDbEntity
  8
DIMS
100
AcDbDimension
  2
_D_6
 10
38.96596952827843
 20
32.7267126881037
 30
0.0
 11
37.49908669994095
 21
32.7267126881037
 31
0.0
 70
    32
  1
<>
 71
     2
 42
-1.0
  3
SLDDIMSTYLE2
100
AcDbAlignedDimension
 13
35.8357751841218
 23
32.09556994587659
 33
0.0
 14
38.96596952827843
 24
32.09556994587659
 34
0.0
100
AcDbRotatedDimension
  0
MTEXT
  5
298
330
1F
100
AcDbEntity
  8
NOTES
100
AcDbMText
 10
14.91691582005435
 20
28.30692910425508
 30
0.0
 40
0.5
 41
0.0
 71
     1
 72
     1
  1
Top view
  7
SLDTEXTSTYLE1
 73
     1
 44
1.0
  0
MTEXT
  5
299
330
1F
100
AcDbEntity
  8
NOTES
100
AcDbMText
 10
41.37255139391418
 20
29.31046769612708
 30
0.0
 40
0.5
 41
0.0
 71
     1
 72
     1
  1
remove caps to access mounting holes
  7
SLDTEXTSTYLE1
 73
     1
 44
1.0
  0
LEADER
  5
29B
330
1F
100
AcDbEntity
  8
NOTES
100
AcDbLeader
  3
SLDDIMSTYLE3
 76
     3
 10
38.91658638171787
 20
31.68430144523527
 30
0.0
 10
40.84842519685035
 20
29.06594488491103
 30
0.0
 10
41.34842519685035
 20
29.06594488491103
 30
0.0
1001
ACAD
1000
DSTYLE
1002
{
1070
   176
1070
     0
1070
    77
1070
     0
1070
    40
1040
1.0
1070
   147
1040
0.0
1002
}
  0
MTEXT
  5
29F
330
1F
100
AcDbEntity
  8
NOTES
100
AcDbMText
 10
71.26850572190585
 20
22.48230871797195
 30
0.0
 40
0.5
 41
0.0
 71
     1
 72
     1
  1
3D view
  7
SLDTEXTSTYLE1
 73
     1
 44
1.0
  0
MTEXT
  5
2A0
330
1F
100
AcDbEntity
  8
NOTES
100
AcDbMText
 10
71.26850572190585
 20
21.48230865672466
 30
0.0
 40
0.5
 41
0.0
 71
     1
 72
     1
  1
Code 1001-W-24
  7
SLDTEXTSTYLE1
 73
     1
 44
1.0
  0
ENDSEC
  0
SECTION
  2
OBJECTS
  0
DICTIONARY
  5
C
330
0
100
AcDbDictionary
281
     1
  3
ACAD_COLOR
350
6C
  3
ACAD_GROUP
350
D
  3
ACAD_LAYOUT
350
1A
  3
ACAD_MATERIAL
350
6B
  3
ACAD_MLINESTYLE
350
17
  3
ACAD_PLOTSETTINGS
350
19
  3
ACAD_PLOTSTYLENAME
350
E
  3
ACAD_SCALELIST
350
47
  3
ACAD_TABLESTYLE
350
92
  3
AcDbVariableDictionary
350
59
  0
DICTIONARY
  5
6C
102
{ACAD_REACTORS
330
C
102
}
330
C
100
AcDbDictionary
281
     1
  0
DICTIONARY
  5
D
102
{ACAD_REACTORS
330
C
102
}
330
C
100
AcDbDictionary
281
     1
  0
DICTIONARY
  5
1A
102
{ACAD_REACTORS
330
C
102
}
330
C
100
AcDbDictionary
281
     1
  3
Layout1
350
74
  3
Layout2
350
26
  3
Model
350
22
  0
DICTIONARY
  5
6B
102
{ACAD_REACTORS
330
C
102
}
330
C
100
AcDbDictionary
281
     1
  0
DICTIONARY
  5
17
102
{ACAD_REACTORS
330
C
102
}
330
C
100
AcDbDictionary
281
     1
  3
Standard
350
18
  0
DICTIONARY
  5
19
102
{ACAD_REACTORS
330
C
102
}
330
C
100
AcDbDictionary
281
     1
  0
ACDBDICTIONARYWDFLT
  5
E
102
{ACAD_REACTORS
330
C
102
}
330
C
100
AcDbDictionary
281
     1
  3
Normal
350
F
100
AcDbDictionaryWithDefault
340
F
  0
DICTIONARY
  5
47
102
{ACAD_REACTORS
330
C
102
}
330
C
100
AcDbDictionary
281
     1
  3
A0
350
48
  3
A1
350
49
  3
A2
350
4A
  3
A3
350
4B
  3
A4
350
4C
  3
A5
350
4D
  3
A6
350
4E
  3
A7
350
4F
  3
A8
350
50
  3
A9
350
51
  3
B0
350
52
  3
B1
350
53
  3
B2
350
54
  3
B3
350
55
  3
B4
350
56
  3
B5
350
57
  3
B6
350
58
  3
B7
350
2B1
  3
B8
350
2B2
  3
B9
350
5B
  3
C0
350
5C
  3
C1
350
5D
  3
C2
350
2B3
  3
C3
350
5F
  3
C4
350
60
  3
C5
350
61
  3
C6
350
62
  3
C7
350
63
  3
C8
350
64
  3
C9
350
65
  3
D0
350
66
  3
D1
350
67
  3
D2
350
68
  0
DICTIONARY
  5
92
102
{ACAD_REACTORS
330
C
102
}
330
C
100
AcDbDictionary
281
     1
  3
Standard
350
93
  0
DICTIONARY
  5
59
102
{ACAD_REACTORS
330
C
102
}
330
C
100
AcDbDictionary
281
     1
  3
CTABLESTYLE
350
98
  3
HIDETEXT
350
29E
  0
LAYOUT
  5
74
102
{ACAD_REACTORS
330
1A
102
}
330
1A
100
AcDbPlotSettings
  1

  2
none_device
  4

  6

 40
0.0
 41
0.0
 42
0.0
 43
0.0
 44
0.0
 45
0.0
 46
0.0
 47
0.0
 48
0.0
 49
0.0
140
0.0
141
0.0
142
1.0
143
1.0
 70
   688
 72
     0
 73
     0
 74
     5
  7

 75
    16
 76
     0
 77
     2
 78
   300
147
1.0
148
0.0
149
0.0
100
AcDbLayout
  1
Layout1
 70
     1
 71
     1
 10
0.0
 20
0.0
 11
12.0
 21
9.0
 12
0.0
 22
0.0
 32
0.0
 14
1.000000000000000E+20
 24
1.000000000000000E+20
 34
1.000000000000000E+20
 15
-1.000000000000000E+20
 25
-1.000000000000000E+20
 35
-1.000000000000000E+20
146
0.0
 13
0.0
 23
0.0
 33
0.0
 16
1.0
 26
0.0
 36
0.0
 17
0.0
 27
1.0
 37
0.0
 76
     0
330
73
  0
LAYOUT
  5
26
102
{ACAD_REACTORS
330
1A
102
}
330
1A
100
AcDbPlotSettings
  1

  2
none_device
  4

  6

 40
0.0
 41
0.0
 42
0.0
 43
0.0
 44
0.0
 45
0.0
 46
0.0
 47
0.0
 48
0.0
 49
0.0
140
0.0
141
0.0
142
1.0
143
1.0
 70
   688
 72
     0
 73
     0
 74
     5
  7

 75
    16
 76
     0
 77
     2
 78
   300
147
1.0
148
0.0
149
0.0
100
AcDbLayout
  1
Layout2
 70
     1
 71
     2
 10
0.0
 20
0.0
 11
0.0
 21
0.0
 12
0.0
 22
0.0
 32
0.0
 14
0.0
 24
0.0
 34
0.0
 15
0.0
 25
0.0
 35
0.0
146
0.0
 13
0.0
 23
0.0
 33
0.0
 16
1.0
 26
0.0
 36
0.0
 17
0.0
 27
1.0
 37
0.0
 76
     0
330
23
  0
LAYOUT
  5
22
102
{ACAD_REACTORS
330
1A
102
}
330
1A
100
AcDbPlotSettings
  1

  2
none_device
  4
Letter_(8.50_x_11.00_Inches)
  6

 40
6.35
 41
6.35
 42
6.35000508
 43
6.35000508
 44
215.9
 45
279.4
 46
0.0
 47
0.0
 48
0.0
 49
0.0
140
0.0
141
0.0
142
1.0
143
1.0
 70
 11952
 72
     0
 73
     0
 74
     0
  7

 75
     0
 76
     0
 77
     2
 78
   300
147
1.0
148
0.0
149
0.0
100
AcDbLayout
  1
Model
 70
     1
 71
     0
 10
0.0
 20
0.0
 11
90.0
 21
48.00000000000001
 12
0.0
 22
0.0
 32
0.0
 14
0.1653543307086614
 24
0.1653543307086614
 34
-12.0005652926802
 15
89.83464566929135
 25
47.83464566929134
 35
0.0000000000000048
146
0.0
 13
0.0
 23
0.0
 33
0.0
 16
1.0
 26
0.0
 36
0.0
 17
0.0
 27
1.0
 37
0.0
 76
     0
330
1F
  0
MLINESTYLE
  5
18
102
{ACAD_REACTORS
330
17
102
}
330
17
100
AcDbMlineStyle
  2
Standard
 70
     0
  3

 62
   256
 51
90.0
 52
90.0
 71
     2
 49
0.5
 62
   256
  6
BYLAYER
 49
-0.5
 62
   256
  6
BYLAYER
  0
ACDBPLACEHOLDER
  5
F
102
{ACAD_REACTORS
330
E
102
}
330
E
  0
ACAD_PROXY_OBJECT
  5
48
102
{ACAD_REACTORS
330
47
102
}
330
47
100
AcDbProxyObject
 90
      499
 91
      505
 95
   393239
 70
     0
 93
       41
310
903313A31580
  0
ACAD_PROXY_OBJECT
  5
49
102
{ACAD_REACTORS
330
47
102
}
330
47
100
AcDbProxyObject
 90
      499
 91
      505
 95
   393239
 70
     0
 93
      105
310
903313A324000000000000004000
  0
ACAD_PROXY_OBJECT
  5
4A
102
{ACAD_REACTORS
330
47
102
}
330
47
100
AcDbProxyObject
 90
      499
 91
      505
 95
   393239
 70
     0
 93
      105
310
903313A344000000000000104000
  0
ACAD_PROXY_OBJECT
  5
4B
102
{ACAD_REACTORS
330
47
102
}
330
47
100
AcDbProxyObject
 90
      499
 91
      505
 95
   393239
 70
     0
 93
      105
310
903313A354000000000000144000
  0
ACAD_PROXY_OBJECT
  5
4C
102
{ACAD_REACTORS
330
47
102
}
330
47
100
AcDbProxyObject
 90
      499
 91
      505
 95
   393239
 70
     0
 93
      105
310
903313A384000000000000204000
  0
ACAD_PROXY_OBJECT
  5
4D
102
{ACAD_REACTORS
330
47
102
}
330
47
100
AcDbProxyObject
 90
      499
 91
      505
 95
   393239
 70
     0
 93
      113
310
904313A31304000000000000244000
  0
ACAD_PROXY_OBJECT
  5
4E
102
{ACAD_REACTORS
330
47
102
}
330
47
100
AcDbProxyObject
 90
      499
 91
      505
 95
   393239
 70
     0
 93
      113
310
904313A31364000000000000304000
  0
ACAD_PROXY_OBJECT
  5
4F
102
{ACAD_REACTORS
330
47
102
}
330
47
100
AcDbProxyObject
 90
      499
 91
      505
 95
   393239
 70
     0
 93
      113
310
904313A32304000000000000344000
  0
ACAD_PROXY_OBJECT
  5
50
102
{ACAD_REACTORS
330
47
102
}
330
47
100
AcDbProxyObject
 90
      499
 91
      505
 95
   393239
 70
     0
 93
      113
310
904313A333040000000000003E4000
  0
ACAD_PROXY_OBJECT
  5
51
102
{ACAD_REACTORS
330
47
102
}
330
47
100
AcDbProxyObject
 90
      499
 91
      505
 95
   393239
 70
     0
 93
      113
310
904313A34304000000000000444000
  0
ACAD_PROXY_OBJECT
  5
52
102
{ACAD_REACTORS
330
47
102
}
330
47
100
AcDbProxyObject
 90
      499
 91
      505
 95
   393239
 70
     0
 93
      113
310
904313A35304000000000000494000
  0
ACAD_PROXY_OBJECT
  5
53
102
{ACAD_REACTORS
330
47
102
}
330
47
100
AcDbProxyObject
 90
      499
 91
      505
 95
   393239
 70
     0
 93
      121
310
905313A3130304000000000000594000
  0
ACAD_PROXY_OBJECT
  5
54
102
{ACAD_REACTORS
330
47
102
}
330
47
100
AcDbProxyObject
 90
      499
 91
      505
 95
   393239
 70
     0
 93
      105
310
903323A310000000000000010100
  0
ACAD_PROXY_OBJECT
  5
55
102
{ACAD_REACTORS
330
47
102
}
330
47
100
AcDbProxyObject
 90
      499
 91
      505
 95
   393239
 70
     0
 93
      105
310
903343A310000000000000410100
  0
ACAD_PROXY_OBJECT
  5
56
102
{ACAD_REACTORS
330
47
102
}
330
47
100
AcDbProxyObject
 90
      499
 91
      505
 95
   393239
 70
     0
 93
      105
310
903383A310000000000000810100
  0
ACAD_PROXY_OBJECT
  5
57
102
{ACAD_REACTORS
330
47
102
}
330
47
100
AcDbProxyObject
 90
      499
 91
      505
 95
   393239
 70
     0
 93
      113
310
90431303A310000000000000910100
  0
ACAD_PROXY_OBJECT
  5
58
102
{ACAD_REACTORS
330
47
102
}
330
47
100
AcDbProxyObject
 90
      499
 91
      505
 95
   393239
 70
     0
 93
      121
310
9053130303A310000000000001650100
  0
ACAD_PROXY_OBJECT
  5
2B1
102
{ACAD_REACTORS
330
47
102
}
330
47
100
AcDbProxyObject
 90
      499
 91
      505
 95
   393239
 70
     0
 93
      257
310
90E312F31323822203D2031272D3022000000000000200FC000000000000284000
  0
ACAD_PROXY_OBJECT
  5
2B2
102
{ACAD_REACTORS
330
47
102
}
330
47
100
AcDbProxyObject
 90
      499
 91
      505
 95
   393239
 70
     0
 93
      249
310
90D312F363422203D2031272D3022000000000000240FC000000000000284000
  0
ACAD_PROXY_OBJECT
  5
5B
102
{ACAD_REACTORS
330
47
102
}
330
47
100
AcDbProxyObject
 90
      499
 91
      505
 95
   393239
 70
     0
 93
      249
310
90D312F333222203D2031272D3022000000000000280FC000000000000284000
  0
ACAD_PROXY_OBJECT
  5
5C
102
{ACAD_REACTORS
330
47
102
}
330
47
100
AcDbProxyObject
 90
      499
 91
      505
 95
   393239
 70
     0
 93
      249
310
90D312F313622203D2031272D30220000000000002C0FC000000000000284000
  0
ACAD_PROXY_OBJECT
  5
5D
102
{ACAD_REACTORS
330
47
102
}
330
47
100
AcDbProxyObject
 90
      499
 91
      505
 95
   393239
 70
     0
 93
      249
310
90D332F333222203D2031272D30220000000000002E0FC000000000000284000
  0
ACAD_PROXY_OBJECT
  5
2B3
102
{ACAD_REACTORS
330
47
102
}
330
47
100
AcDbProxyObject
 90
      499
 91
      505
 95
   393239
 70
     0
 93
      241
310
90C312F3822203D2031272D3022000000000000300FC000000000000284000
  0
ACAD_PROXY_OBJECT
  5
5F
102
{ACAD_REACTORS
330
47
102
}
330
47
100
AcDbProxyObject
 90
      499
 91
      505
 95
   393239
 70
     0
 93
      249
310
90D332F313622203D2031272D3022000000000000320FC000000000000284000
  0
ACAD_PROXY_OBJECT
  5
60
102
{ACAD_REACTORS
330
47
102
}
330
47
100
AcDbProxyObject
 90
      499
 91
      505
 95
   393239
 70
     0
 93
      241
310
90C312F3422203D2031272D3022000000000000340FC000000000000284000
  0
ACAD_PROXY_OBJECT
  5
61
102
{ACAD_REACTORS
330
47
102
}
330
47
100
AcDbProxyObject
 90
      499
 91
      505
 95
   393239
 70
     0
 93
      241
310
90C332F3822203D2031272D3022000000000000360FC000000000000284000
  0
ACAD_PROXY_OBJECT
  5
62
102
{ACAD_REACTORS
330
47
102
}
330
47
100
AcDbProxyObject
 90
      499
 91
      505
 95
   393239
 70
     0
 93
      241
310
90C312F3222203D2031272D3022000000000000380FC000000000000284000
  0
ACAD_PROXY_OBJECT
  5
63
102
{ACAD_REACTORS
330
47
102
}
330
47
100
AcDbProxyObject
 90
      499
 91
      505
 95
   393239
 70
     0
 93
      241
310
90C332F3422203D2031272D30220000000000003A0FC000000000000284000
  0
ACAD_PROXY_OBJECT
  5
64
102
{ACAD_REACTORS
330
47
102
}
330
47
100
AcDbProxyObject
 90
      499
 91
      505
 95
   393239
 70
     0
 93
      161
310
90A3122203D2031272D30224000000000000284000
  0
ACAD_PROXY_OBJECT
  5
65
102
{ACAD_REACTORS
330
47
102
}
330
47
100
AcDbProxyObject
 90
      499
 91
      505
 95
   393239
 70
     0
 93
      257
310
90E312D312F3222203D2031272D30220000000000003E0FC000000000000284000
  0
ACAD_PROXY_OBJECT
  5
66
102
{ACAD_REACTORS
330
47
102
}
330
47
100
AcDbProxyObject
 90
      499
 91
      505
 95
   393239
 70
     0
 93
      225
310
90A3322203D2031272D302200000000000002100000000000000284000
  0
ACAD_PROXY_OBJECT
  5
67
102
{ACAD_REACTORS
330
47
102
}
330
47
100
AcDbProxyObject
 90
      499
 91
      505
 95
   393239
 70
     0
 93
      225
310
90A3622203D2031272D302200000000000006100000000000000284000
  0
ACAD_PROXY_OBJECT
  5
68
102
{ACAD_REACTORS
330
47
102
}
330
47
100
AcDbProxyObject
 90
      499
 91
      505
 95
   393239
 70
     0
 93
      249
310
90D31272D3022203D2031272D30220000000000000A100000000000000284000
  0
TABLESTYLE
  5
93
102
{ACAD_REACTORS
330
92
102
}
330
92
100
AcDbTableStyle
  3
Standard
 70
     0
 71
     0
 40
0.06
 41
0.06
280
     0
281
     0
  7
Standard
140
0.18
170
     2
 62
     0
 63
     7
283
     0
274
    -2
284
     1
 64
     0
275
    -2
285
     1
 65
     0
276
    -2
286
     1
 66
     0
277
    -2
287
     1
 67
     0
278
    -2
288
     1
 68
     0
279
    -2
289
     1
 69
     0
  7
Standard
140
0.25
170
     5
 62
     0
 63
     7
283
     0
274
    -2
284
     1
 64
     0
275
    -2
285
     1
 65
     0
276
    -2
286
     1
 66
     0
277
    -2
287
     1
 67
     0
278
    -2
288
     1
 68
     0
279
    -2
289
     1
 69
     0
  7
Standard
140
0.18
170
     5
 62
     0
 63
     7
283
     0
274
    -2
284
     1
 64
     0
275
    -2
285
     1
 65
     0
276
    -2
286
     1
 66
     0
277
    -2
287
     1
 67
     0
278
    -2
288
     1
 68
     0
279
    -2
289
     1
 69
     0
  0
DICTIONARYVAR
  5
98
102
{ACAD_REACTORS
330
59
102
}
330
59
100
DictionaryVariables
280
     0
  1
STANDARD
  0
DICTIONARYVAR
  5
29E
102
{ACAD_REACTORS
330
59
102
}
330
59
100
DictionaryVariables
280
     0
  1
2
  0
ENDSEC
  0
EOF
