  0
SECTION
  2
HEADER
  9
$ACADVER
  1
AC1015
  9
$ACADMAINTVER
 70
     6
  9
$DWGCODEPAGE
  3
ANSI_1252
  9
$INSBASE
 10
0.0
 20
0.0
 30
0.0
  9
$EXTMIN
 10
0.0
 20
0.0
 30
0.0
  9
$EXTMAX
 10
90.0
 20
48.0
 30
0.0
  9
$LIMMIN
 10
0.0
 20
0.0
  9
$LIMMAX
 10
90.0
 20
48.0
  9
$ORTHOMODE
 70
     0
  9
$REGENMODE
 70
     1
  9
$FILLMODE
 70
     1
  9
$QTEXTMODE
 70
     0
  9
$MIRRTEXT
 70
     1
  9
$LTSCALE
 40
1.0
  9
$ATTMODE
 70
     1
  9
$TEXTSIZE
 40
0.5
  9
$TRACEWID
 40
0.05
  9
$TEXTSTYLE
  7
STANDARD
  9
$CLAYER
  8
0
  9
$CELTYPE
  6
ByLayer
  9
$CECOLOR
 62
   256
  9
$CELTSCALE
 40
1.0
  9
$DISPSILH
 70
     0
  9
$DIMSCALE
 40
1.0
  9
$DIMASZ
 40
0.3
  9
$DIMEXO
 40
0.1666666667
  9
$DIMDLI
 40
0.38
  9
$DIMRND
 40
0.0
  9
$DIMDLE
 40
0.0
  9
$DIMEXE
 40
0.375
  9
$DIMTP
 40
0.0
  9
$DIMTM
 40
0.0
  9
$DIMTXT
 40
0.5
  9
$DIMCEN
 40
0.09
  9
$DIMTSZ
 40
0.0
  9
$DIMTOL
 70
     0
  9
$DIMLIM
 70
     0
  9
$DIMTIH
 70
     1
  9
$DIMTOH
 70
     1
  9
$DIMSE1
 70
     0
  9
$DIMSE2
 70
     0
  9
$DIMTAD
 70
     0
  9
$DIMZIN
 70
     1
  9
$DIMBLK
  1

  9
$DIMASO
 70
     1
  9
$DIMSHO
 70
     1
  9
$DIMPOST
  1

  9
$DIMAPOST
  1

  9
$DIMALT
 70
     0
  9
$DIMALTD
 70
     2
  9
$DIMALTF
 40
25.4
  9
$DIMLFAC
 40
1.0
  9
$DIMTOFL
 70
     0
  9
$DIMTVP
 40
0.0
  9
$DIMTIX
 70
     0
  9
$DIMSOXD
 70
     0
  9
$DIMSAH
 70
     0
  9
$DIMBLK1
  1

  9
$DIMBLK2
  1

  9
$DIMSTYLE
  2
Standard
  9
$DIMCLRD
 70
     0
  9
$DIMCLRE
 70
     0
  9
$DIMCLRT
 70
     0
  9
$DIMTFAC
 40
1.0
  9
$DIMGAP
 40
0.125
  9
$DIMJUST
 70
     0
  9
$DIMSD1
 70
     0
  9
$DIMSD2
 70
     0
  9
$DIMTOLJ
 70
     1
  9
$DIMTZIN
 70
     1
  9
$DIMALTZ
 70
     0
  9
$DIMALTTZ
 70
     0
  9
$DIMUPT
 70
     0
  9
$DIMDEC
 70
     2
  9
$DIMTDEC
 70
     2
  9
$DIMALTU
 70
     2
  9
$DIMALTTD
 70
     2
  9
$DIMTXSTY
  7
STANDARD
  9
$DIMAUNIT
 70
     0
  9
$DIMADEC
 70
     2
  9
$DIMALTRND
 40
0.0
  9
$DIMAZIN
 70
     0
  9
$DIMDSEP
 70
    46
  9
$DIMATFIT
 70
     3
  9
$DIMFRAC
 70
     0
  9
$DIMLDRBLK
  1

  9
$DIMLUNIT
 70
     2
  9
$DIMLWD
 70
    -2
  9
$DIMLWE
 70
    -2
  9
$DIMTMOVE
 70
     0
  9
$LUNITS
 70
     2
  9
$LUPREC
 70
     4
  9
$SKETCHINC
 40
0.1
  9
$FILLETRAD
 40
0.5
  9
$AUNITS
 70
     0
  9
$AUPREC
 70
     2
  9
$MENU
  1
.
  9
$ELEVATION
 40
0.0
  9
$PELEVATION
 40
0.0
  9
$THICKNESS
 40
0.0
  9
$LIMCHECK
 70
     0
  9
$CHAMFERA
 40
0.0
  9
$CHAMFERB
 40
0.0
  9
$CHAMFERC
 40
0.0
  9
$CHAMFERD
 40
0.0
  9
$SKPOLY
 70
     0
  9
$TDCREATE
 40
2459468.326907558
  9
$TDUCREATE
 40
2459468.493574224
  9
$TDUPDATE
 40
2459468.326911828
  9
$TDUUPDATE
 40
2459468.493578495
  9
$TDINDWG
 40
0.0000000116
  9
$TDUSRTIMER
 40
0.0000000116
  9
$USRTIMER
 70
     1
  9
$ANGBASE
 50
0.0
  9
$ANGDIR
 70
     0
  9
$PDMODE
 70
     0
  9
$PDSIZE
 40
-1.0
  9
$PLINEWID
 40
0.0
  9
$SPLFRAME
 70
     0
  9
$SPLINETYPE
 70
     6
  9
$SPLINESEGS
 70
     8
  9
$HANDSEED
  5
2C2
  9
$SURFTAB1
 70
     6
  9
$SURFTAB2
 70
     6
  9
$SURFTYPE
 70
     6
  9
$SURFU
 70
     6
  9
$SURFV
 70
     6
  9
$UCSBASE
  2

  9
$UCSNAME
  2

  9
$UCSORG
 10
0.0
 20
0.0
 30
0.0
  9
$UCSXDIR
 10
1.0
 20
0.0
 30
0.0
  9
$UCSYDIR
 10
0.0
 20
1.0
 30
0.0
  9
$UCSORTHOREF
  2

  9
$UCSORTHOVIEW
 70
     0
  9
$UCSORGTOP
 10
0.0
 20
0.0
 30
0.0
  9
$UCSORGBOTTOM
 10
0.0
 20
0.0
 30
0.0
  9
$UCSORGLEFT
 10
0.0
 20
0.0
 30
0.0
  9
$UCSORGRIGHT
 10
0.0
 20
0.0
 30
0.0
  9
$UCSORGFRONT
 10
0.0
 20
0.0
 30
0.0
  9
$UCSORGBACK
 10
0.0
 20
0.0
 30
0.0
  9
$PUCSBASE
  2

  9
$PUCSNAME
  2

  9
$PUCSORG
 10
0.0
 20
0.0
 30
0.0
  9
$PUCSXDIR
 10
1.0
 20
0.0
 30
0.0
  9
$PUCSYDIR
 10
0.0
 20
1.0
 30
0.0
  9
$PUCSORTHOREF
  2

  9
$PUCSORTHOVIEW
 70
     0
  9
$PUCSORGTOP
 10
0.0
 20
0.0
 30
0.0
  9
$PUCSORGBOTTOM
 10
0.0
 20
0.0
 30
0.0
  9
$PUCSORGLEFT
 10
0.0
 20
0.0
 30
0.0
  9
$PUCSORGRIGHT
 10
0.0
 20
0.0
 30
0.0
  9
$PUCSORGFRONT
 10
0.0
 20
0.0
 30
0.0
  9
$PUCSORGBACK
 10
0.0
 20
0.0
 30
0.0
  9
$USERI1
 70
     0
  9
$USERI2
 70
     0
  9
$USERI3
 70
     0
  9
$USERI4
 70
     0
  9
$USERI5
 70
     0
  9
$USERR1
 40
0.0
  9
$USERR2
 40
0.0
  9
$USERR3
 40
0.0
  9
$USERR4
 40
0.0
  9
$USERR5
 40
0.0
  9
$WORLDVIEW
 70
     1
  9
$SHADEDGE
 70
     3
  9
$SHADEDIF
 70
    70
  9
$TILEMODE
 70
     1
  9
$MAXACTVP
 70
    64
  9
$PINSBASE
 10
0.0
 20
0.0
 30
0.0
  9
$PLIMCHECK
 70
     0
  9
$PEXTMIN
 10
1.0000000000E+20
 20
1.0000000000E+20
 30
1.0000000000E+20
  9
$PEXTMAX
 10
-1.0000000000E+20
 20
-1.0000000000E+20
 30
-1.0000000000E+20
  9
$PLIMMIN
 10
0.0
 20
0.0
  9
$PLIMMAX
 10
12.0
 20
9.0
  9
$UNITMODE
 70
     0
  9
$VISRETAIN
 70
     1
  9
$PLINEGEN
 70
     0
  9
$PSLTSCALE
 70
     1
  9
$TREEDEPTH
 70
  3020
  9
$CMLSTYLE
  2
Standard
  9
$CMLJUST
 70
     0
  9
$CMLSCALE
 40
1.0
  9
$PROXYGRAPHICS
 70
     1
  9
$MEASUREMENT
 70
     0
  9
$CELWEIGHT
370
    -1
  9
$ENDCAPS
280
     0
  9
$JOINSTYLE
280
     0
  9
$LWDISPLAY
290
     1
  9
$INSUNITS
 70
     1
  9
$HYPERLINKBASE
  1

  9
$STYLESHEET
  1

  9
$XEDIT
290
     1
  9
$CEPSNTYPE
380
     0
  9
$PSTYLEMODE
290
     1
  9
$FINGERPRINTGUID
  2
{1c786c5b-a31f-43bb-aa5b-ee87053ebb8e}
  9
$VERSIONGUID
  2
{FAEB1C32-E019-11D5-929B-00C0DF256EC4}
  9
$EXTNAMES
290
     1
  9
$PSVPSCALE
 40
0.0
  9
$OLESTARTUP
290
     0
  0
ENDSEC
  0
SECTION
  2
CLASSES
  0
CLASS
  1
ACDBDICTIONARYWDFLT
  2
AcDbDictionaryWithDefault
  3
ObjectDBX Classes
 90
        0
280
     0
281
     0
  0
CLASS
  1
VISUALSTYLE
  2
AcDbVisualStyle
  3
ObjectDBX Classes
 90
     4095
280
     0
281
     0
  0
CLASS
  1
MATERIAL
  2
AcDbMaterial
  3
ObjectDBX Classes
 90
     1153
280
     0
281
     0
  0
CLASS
  1
SCALE
  2
AcDbScale
  3
ObjectDBX Classes
 90
     1153
280
     0
281
     0
  0
CLASS
  1
TABLESTYLE
  2
AcDbTableStyle
  3
ObjectDBX Classes
 90
     4095
280
     0
281
     0
  0
CLASS
  1
MLEADERSTYLE
  2
AcDbMLeaderStyle
  3
ACDB_MLEADERSTYLE_CLASS
 90
     4095
280
     0
281
     0
  0
CLASS
  1
SUN
  2
AcDbSun
  3
SCENEOE
 90
     1153
280
     0
281
     0
  0
CLASS
  1
ACDBPLACEHOLDER
  2
AcDbPlaceHolder
  3
ObjectDBX Classes
 90
        0
280
     0
281
     0
  0
CLASS
  1
LAYOUT
  2
AcDbLayout
  3
ObjectDBX Classes
 90
        0
280
     0
281
     0
  0
ENDSEC
  0
SECTION
  2
TABLES
  0
TABLE
  2
VPORT
  5
8
330
0
100
AcDbSymbolTable
 70
     1
  0
VPORT
  5
29
330
8
100
AcDbSymbolTableRecord
100
AcDbViewportTableRecord
  2
*Active
 70
     0
 10
0.0
 20
0.0
 11
1.0
 21
1.0
 12
45.0
 22
24.0
 13
0.0
 23
0.0
 14
0.5
 24
0.5
 15
0.5
 25
0.5
 16
0.0
 26
0.0
 36
1.0
 17
0.0
 27
0.0
 37
0.0
 40
48.0
 41
1.875
 42
50.0
 43
0.0
 44
0.0
 50
0.0
 51
0.0
 71
     0
 72
  2000
 73
     1
 74
     3
 75
     0
 76
     0
 77
     0
 78
     0
281
     0
 65
     1
110
0.0
120
0.0
130
0.0
111
1.0
121
0.0
131
0.0
112
0.0
122
1.0
132
0.0
 79
     0
146
0.0
  0
ENDTAB
  0
TABLE
  2
LTYPE
  5
5
330
0
100
AcDbSymbolTable
 70
     8
  0
LTYPE
  5
14
330
5
100
AcDbSymbolTableRecord
100
AcDbLinetypeTableRecord
  2
ByBlock
 70
     0
  3

 72
    65
 73
     0
 40
0.0
  0
LTYPE
  5
15
330
5
100
AcDbSymbolTableRecord
100
AcDbLinetypeTableRecord
  2
ByLayer
 70
     0
  3

 72
    65
 73
     0
 40
0.0
  0
LTYPE
  5
16
330
5
100
AcDbSymbolTableRecord
100
AcDbLinetypeTableRecord
  2
Continuous
 70
     0
  3
Solid line
 72
    65
 73
     0
 40
0.0
  0
LTYPE
  5
6E
330
5
100
AcDbSymbolTableRecord
100
AcDbLinetypeTableRecord
  2
SLD-Solid
 70
     0
  3
SolidWorks Line Style
 72
    65
 73
     0
 40
0.0
  0
LTYPE
  5
6F
330
5
100
AcDbSymbolTableRecord
100
AcDbLinetypeTableRecord
  2
SLD-Dashed
 70
     0
  3
SolidWorks Line Style
 72
    65
 73
     2
 40
0.075
 49
0.05
 74
     0
 49
-0.025
 74
     0
  0
LTYPE
  5
70
330
5
100
AcDbSymbolTableRecord
100
AcDbLinetypeTableRecord
  2
SLD-Phantom
 70
     0
  3
SolidWorks Line Style
 72
    65
 73
     6
 40
0.5
 49
0.25
 74
     0
 49
-0.05
 74
     0
 49
0.05
 74
     0
 49
-0.05
 74
     0
 49
0.05
 74
     0
 49
-0.05
 74
     0
  0
LTYPE
  5
71
330
5
100
AcDbSymbolTableRecord
100
AcDbLinetypeTableRecord
  2
SLD-Chain
 70
     0
  3
SolidWorks Line Style
 72
    65
 73
     4
 40
0.4
 49
0.25
 74
     0
 49
-0.05
 74
     0
 49
0.05
 74
     0
 49
-0.05
 74
     0
  0
LTYPE
  5
72
330
5
100
AcDbSymbolTableRecord
100
AcDbLinetypeTableRecord
  2
SLD-Center
 70
     0
  3
SolidWorks Line Style
 72
    65
 73
     4
 40
0.75
 49
0.6
 74
     0
 49
-0.05
 74
     0
 49
0.05
 74
     0
 49
-0.05
 74
     0
  0
LTYPE
  5
73
330
5
100
AcDbSymbolTableRecord
100
AcDbLinetypeTableRecord
  2
SLD-Stitch
 70
     0
  3
SolidWorks Line Style
 72
    65
 73
     2
 40
0.025
 49
0.0
 74
     0
 49
-0.025
 74
     0
  0
LTYPE
  5
74
330
5
100
AcDbSymbolTableRecord
100
AcDbLinetypeTableRecord
  2
SLD-Thin-Thick-Chain
 70
     0
  3
SolidWorks Line Style
 72
    65
 73
     4
 40
0.4
 49
0.25
 74
     0
 49
-0.05
 74
     0
 49
0.05
 74
     0
 49
-0.05
 74
     0
  0
ENDTAB
  0
TABLE
  2
LAYER
  5
2
330
0
100
AcDbSymbolTable
 70
     6
  0
LAYER
  5
10
330
2
100
AcDbSymbolTableRecord
100
AcDbLayerTableRecord
  2
0
 70
     0
 62
     7
  6
Continuous
370
    -3
390
F
  0
LAYER
  5
75
330
2
100
AcDbSymbolTableRecord
100
AcDbLayerTableRecord
  2
FORMAT
 70
     0
 62
     7
  6
SLD-Solid
370
    -3
390
F
  0
LAYER
  5
76
330
2
100
AcDbSymbolTableRecord
100
AcDbLayerTableRecord
  2
NOTES
 70
     0
 62
     1
  6
SLD-Solid
370
    -3
390
F
  0
LAYER
  5
77
330
2
100
AcDbSymbolTableRecord
100
AcDbLayerTableRecord
  2
OBJECT
 70
     0
 62
     7
  6
SLD-Solid
370
    25
390
F
  0
LAYER
  5
78
330
2
100
AcDbSymbolTableRecord
100
AcDbLayerTableRecord
  2
DIMS
 70
     0
 62
     5
  6
SLD-Solid
370
    -3
390
F
  0
LAYER
  5
79
330
2
100
AcDbSymbolTableRecord
100
AcDbLayerTableRecord
  2
TITLE
 70
     0
 62
     8
  6
SLD-Solid
370
    -3
390
F
  0
ENDTAB
  0
TABLE
  2
STYLE
  5
3
330
0
100
AcDbSymbolTable
 70
     5
  0
STYLE
  5
11
330
3
100
AcDbSymbolTableRecord
100
AcDbTextStyleTableRecord
  2
STANDARD
 70
     0
 40
0.0
 41
1.0
 50
0.0
 71
     0
 42
0.5
  3
GOTHIC.TTF
  4

1001
ACAD
1000
CENTURY GOTHIC
1071
       34
  0
STYLE
  5
115
330
3
100
AcDbSymbolTableRecord
100
AcDbTextStyleTableRecord
  2
SLDTEXTSTYLE0
 70
     0
 40
0.0
 41
0.948
 50
0.0
 71
     0
 42
0.5
  3
ARIAL.TTF
  4

1001
ACAD
1000
Arial
1071
      290
  0
STYLE
  5
119
330
3
100
AcDbSymbolTableRecord
100
AcDbTextStyleTableRecord
  2
SLDTEXTSTYLE1
 70
     0
 40
0.0
 41
0.913
 50
0.0
 71
     0
 42
0.5
  3
GOTHIC.TTF
  4

1001
ACAD
1000
Century Gothic
1071
      290
  0
STYLE
  5
128
330
3
100
AcDbSymbolTableRecord
100
AcDbTextStyleTableRecord
  2
SLDTEXTSTYLE2
 70
     0
 40
0.0
 41
0.87
 50
0.0
 71
     0
 42
0.5
  3
ARIALNB.TTF
  4

1001
ACAD
1000
Arial Narrow
1071
 33554722
  0
STYLE
  5
12A
330
3
100
AcDbSymbolTableRecord
100
AcDbTextStyleTableRecord
  2
SLDTEXTSTYLE3
 70
     0
 40
0.0
 41
0.87
 50
0.0
 71
     0
 42
0.5
  3
ARIALN.TTF
  4

1001
ACAD
1000
Arial Narrow
1071
      290
  0
ENDTAB
  0
TABLE
  2
VIEW
  5
6
330
0
100
AcDbSymbolTable
 70
     0
  0
ENDTAB
  0
TABLE
  2
UCS
  5
7
330
0
100
AcDbSymbolTable
 70
     0
  0
ENDTAB
  0
TABLE
  2
APPID
  5
9
330
0
100
AcDbSymbolTable
 70
     1
  0
APPID
  5
12
330
9
100
AcDbSymbolTableRecord
100
AcDbRegAppTableRecord
  2
ACAD
 70
     0
  0
ENDTAB
  0
TABLE
  2
DIMSTYLE
  5
A
330
0
100
AcDbSymbolTable
 70
     5
100
AcDbDimStyleTable
  0
DIMSTYLE
105
27
330
A
100
AcDbSymbolTableRecord
100
AcDbDimStyleTableRecord
  2
Standard
 70
     0
178
     0
340
11
  0
DIMSTYLE
105
1D7
102
{ACAD_REACTORS
330
1D6
330
1F7
102
}
330
A
100
AcDbSymbolTableRecord
100
AcDbDimStyleTableRecord
  2
SLDDIMSTYLE0
 70
     0
 41
0.3
 44
0.0
 45
0.000000001
 78
    12
 79
     3
140
0.5
147
0.125
173
     1
178
     0
271
     2
272
     2
276
     2
277
     5
284
    12
340
119
341
1D8
343
1D8
344
1D8
  0
DIMSTYLE
105
1E9
102
{ACAD_REACTORS
330
1E8
330
225
330
2AF
102
}
330
A
100
AcDbSymbolTableRecord
100
AcDbDimStyleTableRecord
  2
SLDDIMSTYLE1
 70
     0
 41
0.3
 44
0.0
 45
0.000000001
 78
    12
 79
     3
140
0.5
147
0.125
172
     1
173
     1
178
     0
271
     6
272
     2
276
     2
277
     5
284
    12
289
     0
340
119
341
1D8
343
1D8
344
1D8
  0
DIMSTYLE
105
216
102
{ACAD_REACTORS
330
215
330
291
330
2A0
102
}
330
A
100
AcDbSymbolTableRecord
100
AcDbDimStyleTableRecord
  2
SLDDIMSTYLE2
 70
     0
 41
0.3
 44
0.0
 45
0.000000001
 78
    12
 79
     3
140
0.5
147
0.125
173
     1
178
     0
271
     6
272
     2
276
     2
277
     5
284
    12
340
119
341
1D8
343
1D8
344
1D8
  0
DIMSTYLE
105
2BF
330
A
100
AcDbSymbolTableRecord
100
AcDbDimStyleTableRecord
  2
SLDDIMSTYLE3
 70
     0
 41
0.3
 44
0.0
 45
0.000000001
146
0.3
147
0.0
173
     1
178
     0
271
     0
272
     0
276
     2
277
     5
340
11
341
1D8
343
1D8
344
1D8
  0
ENDTAB
  0
TABLE
  2
BLOCK_RECORD
  5
1
330
0
100
AcDbSymbolTable
 70
    14
  0
BLOCK_RECORD
  5
1F
330
1
100
AcDbSymbolTableRecord
100
AcDbBlockTableRecord
  2
*Model_Space
340
22
  0
BLOCK_RECORD
  5
1B
330
1
100
AcDbSymbolTableRecord
100
AcDbBlockTableRecord
  2
*Paper_Space
340
1E
  0
BLOCK_RECORD
  5
23
330
1
100
AcDbSymbolTableRecord
100
AcDbBlockTableRecord
  2
*Paper_Space0
340
26
  0
BLOCK_RECORD
  5
11F
330
1
100
AcDbSymbolTableRecord
100
AcDbBlockTableRecord
  2
SW_NOTE_0
340
0
102
{BLKREFS
331
124
102
}
  0
BLOCK_RECORD
  5
125
330
1
100
AcDbSymbolTableRecord
100
AcDbBlockTableRecord
  2
SW_NOTE_0_1
340
0
102
{BLKREFS
331
12E
102
}
  0
BLOCK_RECORD
  5
12F
330
1
100
AcDbSymbolTableRecord
100
AcDbBlockTableRecord
  2
SW_NOTE_0_2
340
0
102
{BLKREFS
331
134
102
}
  0
BLOCK_RECORD
  5
1D8
330
1
100
AcDbSymbolTableRecord
100
AcDbBlockTableRecord
  2
_Open90
340
0
102
{BLKREFS
331
1E1
331
1E2
331
1ED
331
1EE
331
1FB
331
1FC
331
21A
331
21B
331
229
331
22A
331
295
331
296
331
2A4
331
2A5
331
2B3
331
2B4
102
}
  0
BLOCK_RECORD
  5
1DE
330
1
100
AcDbSymbolTableRecord
100
AcDbBlockTableRecord
  2
_D
340
0
  0
BLOCK_RECORD
  5
1EA
330
1
100
AcDbSymbolTableRecord
100
AcDbBlockTableRecord
  2
_D_1
340
0
  0
BLOCK_RECORD
  5
1F8
330
1
100
AcDbSymbolTableRecord
100
AcDbBlockTableRecord
  2
_D_2
340
0
  0
BLOCK_RECORD
  5
217
330
1
100
AcDbSymbolTableRecord
100
AcDbBlockTableRecord
  2
_D_3
340
0
  0
BLOCK_RECORD
  5
226
330
1
100
AcDbSymbolTableRecord
100
AcDbBlockTableRecord
  2
_D_4
340
0
  0
BLOCK_RECORD
  5
263
330
1
100
AcDbSymbolTableRecord
100
AcDbBlockTableRecord
  2
SW_NOTE_0_3
340
0
102
{BLKREFS
331
268
102
}
  0
BLOCK_RECORD
  5
292
330
1
100
AcDbSymbolTableRecord
100
AcDbBlockTableRecord
  2
_D_5
340
0
  0
BLOCK_RECORD
  5
2A1
330
1
100
AcDbSymbolTableRecord
100
AcDbBlockTableRecord
  2
_D_6
340
0
  0
BLOCK_RECORD
  5
2B0
330
1
100
AcDbSymbolTableRecord
100
AcDbBlockTableRecord
  2
_D_7
340
0
  0
ENDTAB
  0
ENDSEC
  0
SECTION
  2
BLOCKS
  0
BLOCK
  5
20
330
1F
100
AcDbEntity
  8
0
100
AcDbBlockBegin
  2
*Model_Space
 70
     0
 10
0.0
 20
0.0
 30
0.0
  3
*Model_Space
  1

  0
ENDBLK
  5
21
330
1F
100
AcDbEntity
  8
0
100
AcDbBlockEnd
  0
BLOCK
  5
1C
330
1B
100
AcDbEntity
 67
     1
  8
0
100
AcDbBlockBegin
  2
*Paper_Space
 70
     0
 10
0.0
 20
0.0
 30
0.0
  3
*Paper_Space
  1

  0
ENDBLK
  5
1D
330
1B
100
AcDbEntity
 67
     1
  8
0
100
AcDbBlockEnd
  0
BLOCK
  5
24
330
23
100
AcDbEntity
  8
0
100
AcDbBlockBegin
  2
*Paper_Space0
 70
     0
 10
0.0
 20
0.0
 30
0.0
  3
*Paper_Space0
  1

  0
ENDBLK
  5
25
330
23
100
AcDbEntity
  8
0
100
AcDbBlockEnd
  0
BLOCK
  5
120
330
11F
100
AcDbEntity
  8
0
100
AcDbBlockBegin
  2
SW_NOTE_0
 70
     0
 10
0.0
 20
0.0
 30
0.0
  3
SW_NOTE_0
  1

  0
MTEXT
  5
122
330
11F
100
AcDbEntity
  8
NOTES
 62
     0
100
AcDbMText
 10
0.0
 20
0.3759780908
 30
0.0
 40
0.2916666667
 41
0.0
 71
     1
 72
     1
  1
FROST PRODUCTS LTD.
  7
SLDTEXTSTYLE0
 73
     1
 44
1.0
  0
MTEXT
  5
123
330
11F
100
AcDbEntity
  8
NOTES
 62
     0
100
AcDbMText
 10
0.0
 20
-0.0495142709
 30
0.0
 40
0.2291666667
 41
0.0
 71
     1
 72
     1
  1
5280 JOHN LUCAS DRIVE, BURLINGTON, ON, L7L 5Z9
  7
SLDTEXTSTYLE0
 73
     1
 44
1.0
  0
ENDBLK
  5
121
330
11F
100
AcDbEntity
  8
0
100
AcDbBlockEnd
  0
BLOCK
  5
126
330
125
100
AcDbEntity
  8
0
100
AcDbBlockBegin
  2
SW_NOTE_0_1
 70
     0
 10
0.0
 20
0.0
 30
0.0
  3
SW_NOTE_0_1
  1

  0
MTEXT
  5
129
330
125
100
AcDbEntity
  8
NOTES
 62
     0
100
AcDbMText
 10
0.0
 20
0.2381282771
 30
0.0
 40
0.184729064
 41
0.0
 71
     1
 72
     1
  1
PROPRIETARY AND CONFIDENTIAL
  7
SLDTEXTSTYLE2
 73
     1
 44
1.0
  0
MTEXT
  5
12B
330
125
100
AcDbEntity
  8
NOTES
 62
     0
100
AcDbMText
 10
0.0
 20
-0.0504364796
 30
0.0
 40
0.25
 41
0.0
 71
     1
 72
     1
  1
THE INFORMATION CONTAINED IN THIS DRAWING IS THE SOLE PROPERTY OF 
  7
SLDTEXTSTYLE3
 73
     1
 44
1.0
  0
MTEXT
  5
12C
330
125
100
AcDbEntity
  8
NOTES
 62
     0
100
AcDbMText
 10
0.0
 20
-0.4231398941
 30
0.0
 40
0.25
 41
0.0
 71
     1
 72
     1
  1
FROST PRODUCTS LTD.  ANY REPRODUCTION IN PART OR AS A WHOLE WITHOUT 
  7
SLDTEXTSTYLE3
 73
     1
 44
1.0
  0
MTEXT
  5
12D
330
125
100
AcDbEntity
  8
NOTES
 62
     0
100
AcDbMText
 10
0.0
 20
-0.7958433086
 30
0.0
 40
0.25
 41
0.0
 71
     1
 72
     1
  1
THE WRITTEN PERMISSION OF FROST PRODUCTS LTD. IS PROHIBITED.
  7
SLDTEXTSTYLE3
 73
     1
 44
1.0
  0
ENDBLK
  5
127
330
125
100
AcDbEntity
  8
0
100
AcDbBlockEnd
  0
BLOCK
  5
130
330
12F
100
AcDbEntity
  8
0
100
AcDbBlockBegin
  2
SW_NOTE_0_2
 70
     0
 10
0.0
 20
0.0
 30
0.0
  3
SW_NOTE_0_2
  1

  0
MTEXT
  5
132
330
12F
100
AcDbEntity
  8
NOTES
 62
     0
100
AcDbMText
 10
1.19921875
 20
0.3193359375
 30
0.0
 40
0.25
 41
0.0
 71
     2
 72
     1
  1
September 10, 
  7
SLDTEXTSTYLE1
 73
     1
 44
1.0
  0
MTEXT
  5
133
330
12F
100
AcDbEntity
  8
NOTES
 62
     0
100
AcDbMText
 10
1.1468748961
 20
-0.0139973918
 30
0.0
 40
0.25
 41
0.0
 71
     2
 72
     1
  1
2021
  7
SLDTEXTSTYLE1
 73
     1
 44
1.0
  0
ENDBLK
  5
131
330
12F
100
AcDbEntity
  8
0
100
AcDbBlockEnd
  0
BLOCK
  5
1D9
330
1D8
100
AcDbEntity
  8
0
100
AcDbBlockBegin
  2
_Open90
 70
     0
 10
0.0
 20
0.0
 30
0.0
  3
_Open90
  1

  0
LINE
  5
1DB
330
1D8
100
AcDbEntity
  8
0
  6
ByBlock
 62
     0
370
    -2
100
AcDbLine
 10
-0.5
 20
0.5
 30
0.0
 11
0.0
 21
0.0
 31
0.0
  0
LINE
  5
1DC
330
1D8
100
AcDbEntity
  8
0
  6
ByBlock
 62
     0
370
    -2
100
AcDbLine
 10
0.0
 20
0.0
 30
0.0
 11
-0.5
 21
-0.5
 31
0.0
  0
LINE
  5
1DD
330
1D8
100
AcDbEntity
  8
0
  6
ByBlock
 62
     0
370
    -2
100
AcDbLine
 10
0.0
 20
0.0
 30
0.0
 11
-1.0
 21
0.0
 31
0.0
  0
ENDBLK
  5
1DA
330
1D8
100
AcDbEntity
  8
0
100
AcDbBlockEnd
  0
BLOCK
  5
1DF
330
1DE
100
AcDbEntity
  8
0
100
AcDbBlockBegin
  2
_D
 70
     0
 10
0.0
 20
0.0
 30
0.0
  3
_D
  1

  0
INSERT
  5
1E1
330
1DE
100
AcDbEntity
  8
DIMS
100
AcDbBlockReference
  2
_Open90
 10
15.4008723562
 20
18.4096683103
 30
0.0
 41
0.3
 42
0.3
 50
180.0
  0
INSERT
  5
1E2
330
1DE
100
AcDbEntity
  8
DIMS
100
AcDbBlockReference
  2
_Open90
 10
29.4008723562
 20
18.4096683103
 30
0.0
 41
0.3
 42
0.3
 50
0.0
  0
LINE
  5
1E3
330
1DE
100
AcDbEntity
  8
DIMS
100
AcDbLine
 10
15.4008723562
 20
17.2750217952
 30
0.0
 11
15.4008723562
 21
18.7846683103
 31
0.0
  0
LINE
  5
1E4
330
1DE
100
AcDbEntity
  8
DIMS
100
AcDbLine
 10
29.4008723562
 20
17.2750217952
 30
0.0
 11
29.4008723562
 21
18.7846683103
 31
0.0
  0
LINE
  5
1E5
330
1DE
100
AcDbEntity
  8
DIMS
100
AcDbLine
 10
15.4008723562
 20
18.4096683103
 30
0.0
 11
20.5495697587
 21
18.4096683103
 31
0.0
  0
LINE
  5
1E6
330
1DE
100
AcDbEntity
  8
DIMS
100
AcDbLine
 10
29.4008723562
 20
18.4096683103
 30
0.0
 11
24.8974863045
 21
18.4096683103
 31
0.0
  0
MTEXT
  5
1E7
330
1DE
100
AcDbEntity
  8
DIMS
100
AcDbMText
 10
20.5495697587
 20
18.6514652283
 30
0.0
 40
0.5
 41
0.0
 71
     1
 72
     1
  1
peened area
  7
SLDTEXTSTYLE1
 73
     1
 44
1.0
  0
ENDBLK
  5
1E0
330
1DE
100
AcDbEntity
  8
0
100
AcDbBlockEnd
  0
BLOCK
  5
1EB
330
1EA
100
AcDbEntity
  8
0
100
AcDbBlockBegin
  2
_D_1
 70
     0
 10
0.0
 20
0.0
 30
0.0
  3
_D_1
  1

  0
INSERT
  5
1ED
330
1EA
100
AcDbEntity
  8
DIMS
100
AcDbBlockReference
  2
_Open90
 10
29.717605019
 20
17.1083551285
 30
-1.375
 41
0.3
 42
0.3
 50
270.0
  0
INSERT
  5
1EE
330
1EA
100
AcDbEntity
  8
DIMS
100
AcDbBlockReference
  2
_Open90
 10
29.717605019
 20
15.8583551285
 30
-1.375
 41
0.3
 42
0.3
 50
90.0
  0
LINE
  5
1EF
330
1EA
100
AcDbEntity
  8
DIMS
100
AcDbLine
 10
28.6221188302
 20
14.6922663504
 30
0.0
 11
29.1380910797
 21
14.6922663504
 31
0.0
  0
LINE
  5
1F0
330
1EA
100
AcDbEntity
  8
DIMS
100
AcDbLine
 10
29.417605019
 20
14.6409816521
 30
0.0
 11
29.717605019
 21
14.6409816521
 31
0.0
  0
LINE
  5
1F1
330
1EA
100
AcDbEntity
  8
DIMS
100
AcDbLine
 10
29.717605019
 20
14.6409816521
 30
0.0
 11
29.717605019
 21
15.8583551285
 31
0.0
  0
LINE
  5
1F2
330
1EA
100
AcDbEntity
  8
DIMS
100
AcDbLine
 10
29.717605019
 20
17.1083551285
 30
0.0
 11
29.717605019
 21
17.4083551285
 31
0.0
  0
MTEXT
  5
1F3
330
1EA
100
AcDbEntity
  8
DIMS
100
AcDbMText
 10
28.1794104828
 20
14.9216674109
 30
0.0
 40
0.5
 41
0.0
 71
     1
 72
     1
  1
1
  7
SLDTEXTSTYLE1
 73
     1
 44
1.0
  0
MTEXT
  5
1F4
330
1EA
100
AcDbEntity
  8
DIMS
100
AcDbMText
 10
28.6953827322
 20
15.2869799099
 30
0.0
 40
0.5
 41
0.0
 71
     1
 72
     1
  1
1
  7
SLDTEXTSTYLE1
 73
     1
 44
1.0
  0
MTEXT
  5
1F5
330
1EA
100
AcDbEntity
  8
DIMS
100
AcDbMText
 10
28.6953827322
 20
14.6257993314
 30
0.0
 40
0.5
 41
0.0
 71
     1
 72
     1
  1
4
  7
SLDTEXTSTYLE1
 73
     1
 44
1.0
  0
MTEXT
  5
1F6
330
1EA
100
AcDbEntity
  8
DIMS
100
AcDbMText
 10
29.2113549817
 20
14.9216674109
 30
0.0
 40
0.5
 41
0.0
 71
     1
 72
     1
  1
"
  7
SLDTEXTSTYLE1
 73
     1
 44
1.0
  0
ENDBLK
  5
1EC
330
1EA
100
AcDbEntity
  8
0
100
AcDbBlockEnd
  0
BLOCK
  5
1F9
330
1F8
100
AcDbEntity
  8
0
100
AcDbBlockBegin
  2
_D_2
 70
     0
 10
0.0
 20
0.0
 30
0.0
  3
_D_2
  1

  0
INSERT
  5
1FB
330
1F8
100
AcDbEntity
  8
DIMS
100
AcDbBlockReference
  2
_Open90
 10
31.4008723562
 20
20.267438406
 30
-1.375
 41
0.3
 42
0.3
 50
0.0
  0
INSERT
  5
1FC
330
1F8
100
AcDbEntity
  8
DIMS
100
AcDbBlockReference
  2
_Open90
 10
13.4008723562
 20
20.267438406
 30
-1.375
 41
0.3
 42
0.3
 50
180.0
  0
LINE
  5
1FD
330
1F8
100
AcDbEntity
  8
DIMS
100
AcDbLine
 10
31.4008723562
 20
16.6500217952
 30
0.0
 11
31.4008723562
 21
20.642438406
 31
0.0
  0
LINE
  5
1FE
330
1F8
100
AcDbEntity
  8
DIMS
100
AcDbLine
 10
13.4008723562
 20
16.6500217952
 30
0.0
 11
13.4008723562
 21
20.642438406
 31
0.0
  0
LINE
  5
1FF
330
1F8
100
AcDbEntity
  8
DIMS
100
AcDbLine
 10
31.4008723562
 20
20.267438406
 30
0.0
 11
23.4996373567
 21
20.267438406
 31
0.0
  0
LINE
  5
200
330
1F8
100
AcDbEntity
  8
DIMS
100
AcDbLine
 10
13.4008723562
 20
20.267438406
 30
0.0
 11
22.5544985017
 21
20.267438406
 31
0.0
  0
MTEXT
  5
201
330
1F8
100
AcDbEntity
  8
DIMS
100
AcDbMText
 10
22.5544985017
 20
20.509235324
 30
0.0
 40
0.5
 41
0.0
 71
     1
 72
     1
  1
18"
  7
SLDTEXTSTYLE1
 73
     1
 44
1.0
  0
ENDBLK
  5
1FA
330
1F8
100
AcDbEntity
  8
0
100
AcDbBlockEnd
  0
BLOCK
  5
218
330
217
100
AcDbEntity
  8
0
100
AcDbBlockBegin
  2
_D_3
 70
     0
 10
0.0
 20
0.0
 30
0.0
  3
_D_3
  1

  0
INSERT
  5
21A
330
217
100
AcDbEntity
  8
DIMS
100
AcDbBlockReference
  2
_Open90
 10
55.3688895
 20
19.0863360437
 30
-12.0005652927
 41
0.3
 42
0.3
 50
180.0
  0
INSERT
  5
21B
330
217
100
AcDbEntity
  8
DIMS
100
AcDbBlockReference
  2
_Open90
 10
58.1188895
 20
19.0863360437
 30
-12.0005652927
 41
0.3
 42
0.3
 50
0.0
  0
LINE
  5
21C
330
217
100
AcDbEntity
  8
DIMS
100
AcDbLine
 10
56.7994061151
 20
19.1376207421
 30
0.0
 11
57.3153783645
 21
19.1376207421
 31
0.0
  0
LINE
  5
21D
330
217
100
AcDbEntity
  8
DIMS
100
AcDbLine
 10
55.3688895
 20
16.6500217952
 30
0.0
 11
55.3688895
 21
19.4613360437
 31
0.0
  0
LINE
  5
21E
330
217
100
AcDbEntity
  8
DIMS
100
AcDbLine
 10
58.1188895
 20
17.6648868796
 30
0.0
 11
58.1188895
 21
19.4613360437
 31
0.0
  0
LINE
  5
21F
330
217
100
AcDbEntity
  8
DIMS
100
AcDbLine
 10
55.3688895
 20
19.0863360437
 30
0.0
 11
56.3566977676
 21
19.0863360437
 31
0.0
  0
LINE
  5
220
330
217
100
AcDbEntity
  8
DIMS
100
AcDbLine
 10
58.1188895
 20
19.0863360437
 30
0.0
 11
57.5948923039
 21
19.0863360437
 31
0.0
  0
MTEXT
  5
221
330
217
100
AcDbEntity
  8
DIMS
100
AcDbMText
 10
56.3566977676
 20
19.3670218026
 30
0.0
 40
0.5
 41
0.0
 71
     1
 72
     1
  1
2
  7
SLDTEXTSTYLE1
 73
     1
 44
1.0
  0
MTEXT
  5
222
330
217
100
AcDbEntity
  8
DIMS
100
AcDbMText
 10
56.872670017
 20
19.7323343016
 30
0.0
 40
0.5
 41
0.0
 71
     1
 72
     1
  1
3
  7
SLDTEXTSTYLE1
 73
     1
 44
1.0
  0
MTEXT
  5
223
330
217
100
AcDbEntity
  8
DIMS
100
AcDbMText
 10
56.872670017
 20
19.0711537231
 30
0.0
 40
0.5
 41
0.0
 71
     1
 72
     1
  1
4
  7
SLDTEXTSTYLE1
 73
     1
 44
1.0
  0
MTEXT
  5
224
330
217
100
AcDbEntity
  8
DIMS
100
AcDbMText
 10
57.3886422665
 20
19.3670218026
 30
0.0
 40
0.5
 41
0.0
 71
     1
 72
     1
  1
"
  7
SLDTEXTSTYLE1
 73
     1
 44
1.0
  0
ENDBLK
  5
219
330
217
100
AcDbEntity
  8
0
100
AcDbBlockEnd
  0
BLOCK
  5
227
330
226
100
AcDbEntity
  8
0
100
AcDbBlockBegin
  2
_D_4
 70
     0
 10
0.0
 20
0.0
 30
0.0
  3
_D_4
  1

  0
INSERT
  5
229
330
226
100
AcDbEntity
  8
DIMS
100
AcDbBlockReference
  2
_Open90
 10
58.1176680176
 20
17.8455505283
 30
-12.0005652927
 41
0.3
 42
0.3
 50
180.0
  0
INSERT
  5
22A
330
226
100
AcDbEntity
  8
DIMS
100
AcDbBlockReference
  2
_Open90
 10
57.6488895
 20
17.8455505283
 30
-12.0005652927
 41
0.3
 42
0.3
 50
0.0
  0
LINE
  5
22B
330
226
100
AcDbEntity
  8
DIMS
100
AcDbLine
 10
59.6929695496
 20
17.8968352267
 30
0.0
 11
60.208941799
 21
17.8968352267
 31
0.0
  0
LINE
  5
22C
330
226
100
AcDbEntity
  8
DIMS
100
AcDbLine
 10
58.1176680176
 20
17.8817856339
 30
0.0
 11
58.1176680176
 21
17.4705505283
 31
0.0
  0
LINE
  5
22D
330
226
100
AcDbEntity
  8
DIMS
100
AcDbLine
 10
57.6488895
 20
17.8466884618
 30
0.0
 11
57.6488895
 21
17.4705505283
 31
0.0
  0
LINE
  5
22E
330
226
100
AcDbEntity
  8
DIMS
100
AcDbLine
 10
58.1176680176
 20
17.8455505283
 30
0.0
 11
59.6197056476
 21
17.8455505283
 31
0.0
  0
LINE
  5
22F
330
226
100
AcDbEntity
  8
DIMS
100
AcDbLine
 10
57.6488895
 20
17.8455505283
 30
0.0
 11
57.3488895
 21
17.8455505283
 31
0.0
  0
MTEXT
  5
230
330
226
100
AcDbEntity
  8
DIMS
100
AcDbMText
 10
59.7662334516
 20
18.4915487861
 30
0.0
 40
0.5
 41
0.0
 71
     1
 72
     1
  1
1
  7
SLDTEXTSTYLE1
 73
     1
 44
1.0
  0
MTEXT
  5
231
330
226
100
AcDbEntity
  8
DIMS
100
AcDbMText
 10
59.7662334516
 20
17.8303682076
 30
0.0
 40
0.5
 41
0.0
 71
     1
 72
     1
  1
2
  7
SLDTEXTSTYLE1
 73
     1
 44
1.0
  0
MTEXT
  5
232
330
226
100
AcDbEntity
  8
DIMS
100
AcDbMText
 10
60.282205701
 20
18.1262362871
 30
0.0
 40
0.5
 41
0.0
 71
     1
 72
     1
  1
"
  7
SLDTEXTSTYLE1
 73
     1
 44
1.0
  0
ENDBLK
  5
228
330
226
100
AcDbEntity
  8
0
100
AcDbBlockEnd
  0
BLOCK
  5
264
330
263
100
AcDbEntity
  8
0
100
AcDbBlockBegin
  2
SW_NOTE_0_3
 70
     0
 10
0.0
 20
0.0
 30
0.0
  3
SW_NOTE_0_3
  1

  0
MTEXT
  5
266
330
263
100
AcDbEntity
  8
NOTES
 62
     0
100
AcDbMText
 10
0.0
 20
0.638671875
 30
0.0
 40
0.5
 41
0.0
 71
     1
 72
     1
  1
3D view
  7
SLDTEXTSTYLE1
 73
     1
 44
1.0
  0
MTEXT
  5
267
330
263
100
AcDbEntity
  8
NOTES
 62
     0
100
AcDbMText
 10
0.0
 20
-0.3613281862
 30
0.0
 40
0.5
 41
0.0
 71
     1
 72
     1
  1
code 1001-SP-18
  7
SLDTEXTSTYLE1
 73
     1
 44
1.0
  0
ENDBLK
  5
265
330
263
100
AcDbEntity
  8
0
100
AcDbBlockEnd
  0
BLOCK
  5
293
330
292
100
AcDbEntity
  8
0
100
AcDbBlockBegin
  2
_D_5
 70
     0
 10
0.0
 20
0.0
 30
0.0
  3
_D_5
  1

  0
INSERT
  5
295
330
292
100
AcDbEntity
  8
DIMS
100
AcDbBlockReference
  2
_Open90
 10
11.9134637623
 20
33.6722011414
 30
0.0
 41
0.3
 42
0.3
 50
179.9966756698
  0
INSERT
  5
296
330
292
100
AcDbEntity
  8
DIMS
100
AcDbBlockReference
  2
_Open90
 10
32.9660609344
 20
33.670979659
 30
0.0
 41
0.3
 42
0.3
 50
359.9966756698
  0
LINE
  5
297
330
292
100
AcDbEntity
  8
DIMS
100
AcDbLine
 10
22.1913880656
 20
33.7228792752
 30
0.0
 11
23.0768047605
 21
33.7228792752
 31
0.0
  0
LINE
  5
298
330
292
100
AcDbEntity
  8
DIMS
100
AcDbLine
 10
11.9133820263
 20
32.2634580946
 30
0.0
 11
11.91348552
 21
34.0472011408
 31
0.0
  0
LINE
  5
299
330
292
100
AcDbEntity
  8
DIMS
100
AcDbLine
 10
32.9659791984
 20
32.2622366123
 30
0.0
 11
32.966082692
 21
34.0459796584
 31
0.0
  0
LINE
  5
29A
330
292
100
AcDbEntity
  8
DIMS
100
AcDbLine
 10
11.9134637623
 20
33.6722011414
 30
0.0
 11
21.3792352726
 21
33.6716519325
 31
0.0
  0
LINE
  5
29B
330
292
100
AcDbEntity
  8
DIMS
100
AcDbLine
 10
32.9660609344
 20
33.670979659
 30
0.0
 11
23.3563186998
 21
33.6715372211
 31
0.0
  0
MTEXT
  5
29C
330
292
100
AcDbEntity
  8
DIMS
100
AcDbMText
 10
21.3792352726
 20
33.9522803356
 30
0.0
 40
0.5
 41
0.0
 71
     1
 72
     1
  1
21
  7
SLDTEXTSTYLE1
 73
     1
 44
1.0
  0
MTEXT
  5
29D
330
292
100
AcDbEntity
  8
DIMS
100
AcDbMText
 10
22.4493741903
 20
34.3175928347
 30
0.0
 40
0.5
 41
0.0
 71
     1
 72
     1
  1
1
  7
SLDTEXTSTYLE1
 73
     1
 44
1.0
  0
MTEXT
  5
29E
330
292
100
AcDbEntity
  8
DIMS
100
AcDbMText
 10
22.2646519675
 20
33.6564122561
 30
0.0
 40
0.5
 41
0.0
 71
     1
 72
     1
  1
16
  7
SLDTEXTSTYLE1
 73
     1
 44
1.0
  0
MTEXT
  5
29F
330
292
100
AcDbEntity
  8
DIMS
100
AcDbMText
 10
23.1500687358
 20
33.9522803356
 30
0.0
 40
0.5
 41
0.0
 71
     1
 72
     1
  1
"
  7
SLDTEXTSTYLE1
 73
     1
 44
1.0
  0
ENDBLK
  5
294
330
292
100
AcDbEntity
  8
0
100
AcDbBlockEnd
  0
BLOCK
  5
2A2
330
2A1
100
AcDbEntity
  8
0
100
AcDbBlockBegin
  2
_D_6
 70
     0
 10
0.0
 20
0.0
 30
0.0
  3
_D_6
  1

  0
INSERT
  5
2A4
330
2A1
100
AcDbEntity
  8
DIMS
100
AcDbBlockReference
  2
_Open90
 10
29.8357751841
 20
32.7267126881
 30
0.0
 41
0.3
 42
0.3
 50
180.0
  0
INSERT
  5
2A5
330
2A1
100
AcDbEntity
  8
DIMS
100
AcDbBlockReference
  2
_Open90
 10
32.9659695283
 20
32.7267126881
 30
0.0
 41
0.3
 42
0.3
 50
0.0
  0
LINE
  5
2A6
330
2A1
100
AcDbEntity
  8
DIMS
100
AcDbLine
 10
31.3226977793
 20
32.7779973865
 30
0.0
 11
31.8386700287
 21
32.7779973865
 31
0.0
  0
LINE
  5
2A7
330
2A1
100
AcDbEntity
  8
DIMS
100
AcDbLine
 10
29.8357751841
 20
32.2622366125
 30
0.0
 11
29.8357751841
 21
33.1017126881
 31
0.0
  0
LINE
  5
2A8
330
2A1
100
AcDbEntity
  8
DIMS
100
AcDbLine
 10
32.9659695283
 20
32.2622366125
 30
0.0
 11
32.9659695283
 21
33.1017126881
 31
0.0
  0
LINE
  5
2A9
330
2A1
100
AcDbEntity
  8
DIMS
100
AcDbLine
 10
29.8357751841
 20
32.7267126881
 30
0.0
 11
30.8799894318
 21
32.7267126881
 31
0.0
  0
LINE
  5
2AA
330
2A1
100
AcDbEntity
  8
DIMS
100
AcDbLine
 10
32.9659695283
 20
32.7267126881
 30
0.0
 11
32.1181839681
 21
32.7267126881
 31
0.0
  0
MTEXT
  5
2AB
330
2A1
100
AcDbEntity
  8
DIMS
100
AcDbMText
 10
30.8799894318
 20
33.0073984469
 30
0.0
 40
0.5
 41
0.0
 71
     1
 72
     1
  1
3
  7
SLDTEXTSTYLE1
 73
     1
 44
1.0
  0
MTEXT
  5
2AC
330
2A1
100
AcDbEntity
  8
DIMS
100
AcDbMText
 10
31.3959616812
 20
33.372710946
 30
0.0
 40
0.5
 41
0.0
 71
     1
 72
     1
  1
1
  7
SLDTEXTSTYLE1
 73
     1
 44
1.0
  0
MTEXT
  5
2AD
330
2A1
100
AcDbEntity
  8
DIMS
100
AcDbMText
 10
31.3959616812
 20
32.7115303674
 30
0.0
 40
0.5
 41
0.0
 71
     1
 72
     1
  1
8
  7
SLDTEXTSTYLE1
 73
     1
 44
1.0
  0
MTEXT
  5
2AE
330
2A1
100
AcDbEntity
  8
DIMS
100
AcDbMText
 10
31.9119339307
 20
33.0073984469
 30
0.0
 40
0.5
 41
0.0
 71
     1
 72
     1
  1
"
  7
SLDTEXTSTYLE1
 73
     1
 44
1.0
  0
ENDBLK
  5
2A3
330
2A1
100
AcDbEntity
  8
0
100
AcDbBlockEnd
  0
BLOCK
  5
2B1
330
2B0
100
AcDbEntity
  8
0
100
AcDbBlockBegin
  2
_D_7
 70
     0
 10
0.0
 20
0.0
 30
0.0
  3
_D_7
  1

  0
INSERT
  5
2B3
330
2B0
100
AcDbEntity
  8
DIMS
100
AcDbBlockReference
  2
_Open90
 10
28.3756791082
 20
32.0955699459
 30
0.0
 41
0.3
 42
0.3
 50
270.0
  0
INSERT
  5
2B4
330
2B0
100
AcDbEntity
  8
DIMS
100
AcDbBlockReference
  2
_Open90
 10
28.3756791082
 20
30.5967914283
 30
0.0
 41
0.3
 42
0.3
 50
90.0
  0
LINE
  5
2B5
330
2B0
100
AcDbEntity
  8
DIMS
100
AcDbLine
 10
28.1992901875
 20
31.357002738
 30
0.0
 11
28.715262437
 21
31.357002738
 31
0.0
  0
LINE
  5
2B6
330
2B0
100
AcDbEntity
  8
DIMS
100
AcDbLine
 10
29.6691085175
 20
32.0955699459
 30
0.0
 11
28.0006791082
 21
32.0955699459
 31
0.0
  0
LINE
  5
2B7
330
2B0
100
AcDbEntity
  8
DIMS
100
AcDbLine
 10
28.3756791082
 20
32.0955699459
 30
0.0
 11
28.3756791082
 21
32.3955699459
 31
0.0
  0
LINE
  5
2B8
330
2B0
100
AcDbEntity
  8
DIMS
100
AcDbLine
 10
28.3756791082
 20
30.5967914283
 30
0.0
 11
28.3756791082
 21
30.2967914283
 31
0.0
  0
MTEXT
  5
2B9
330
2B0
100
AcDbEntity
  8
DIMS
100
AcDbMText
 10
27.7565818401
 20
31.5864037984
 30
0.0
 40
0.5
 41
0.0
 71
     1
 72
     1
  1
1
  7
SLDTEXTSTYLE1
 73
     1
 44
1.0
  0
MTEXT
  5
2BA
330
2B0
100
AcDbEntity
  8
DIMS
100
AcDbMText
 10
28.2725540895
 20
31.9517162975
 30
0.0
 40
0.5
 41
0.0
 71
     1
 72
     1
  1
1
  7
SLDTEXTSTYLE1
 73
     1
 44
1.0
  0
MTEXT
  5
2BB
330
2B0
100
AcDbEntity
  8
DIMS
100
AcDbMText
 10
28.2725540895
 20
31.2905357189
 30
0.0
 40
0.5
 41
0.0
 71
     1
 72
     1
  1
2
  7
SLDTEXTSTYLE1
 73
     1
 44
1.0
  0
MTEXT
  5
2BC
330
2B0
100
AcDbEntity
  8
DIMS
100
AcDbMText
 10
28.7885263389
 20
31.5864037984
 30
0.0
 40
0.5
 41
0.0
 71
     1
 72
     1
  1
"
  7
SLDTEXTSTYLE1
 73
     1
 44
1.0
  0
ENDBLK
  5
2B2
330
2B0
100
AcDbEntity
  8
0
100
AcDbBlockEnd
  0
ENDSEC
  0
SECTION
  2
ENTITIES
  0
LINE
  5
7A
330
1F
100
AcDbEntity
  8
TITLE
370
    35
100
AcDbLine
 10
72.5182230965
 20
1.4876117645
 30
0.0
 11
89.4999864512
 21
1.4876117645
 31
0.0
  0
LINE
  5
7B
330
1F
100
AcDbEntity
  8
TITLE
370
    35
100
AcDbLine
 10
89.4999317442
 20
5.4753603936
 30
0.0
 11
79.3105350723
 21
5.4753603936
 31
0.0
  0
LINE
  5
7C
330
1F
100
AcDbEntity
  8
TITLE
  6
SLD-Solid
370
    18
100
AcDbLine
 10
0.5
 20
0.5
 30
0.0
 11
0.5
 21
47.5
 31
0.0
  0
LINE
  5
7D
330
1F
100
AcDbEntity
  8
TITLE
  6
SLD-Solid
370
    18
100
AcDbLine
 10
0.5
 20
47.5
 30
0.0
 11
89.5
 21
47.5
 31
0.0
  0
LINE
  5
7E
330
1F
100
AcDbEntity
  8
TITLE
370
    35
100
AcDbLine
 10
72.5182230965
 20
2.5427877231
 30
0.0
 11
65.5059791203
 21
2.5427877231
 31
0.0
  0
LINE
  5
7F
330
1F
100
AcDbEntity
  8
TITLE
370
    35
100
AcDbLine
 10
72.5182230965
 20
1.4876117645
 30
0.0
 11
65.5059791203
 21
1.4876117645
 31
0.0
  0
LINE
  5
80
330
1F
100
AcDbEntity
  8
TITLE
  6
SLD-Solid
370
    18
100
AcDbLine
 10
89.5
 20
47.5
 30
0.0
 11
89.5
 21
0.5
 31
0.0
  0
LINE
  5
81
330
1F
100
AcDbEntity
  8
TITLE
  6
SLD-Solid
370
    18
100
AcDbLine
 10
89.5
 20
0.5
 30
0.0
 11
0.5
 21
0.5
 31
0.0
  0
LINE
  5
82
330
1F
100
AcDbEntity
  8
TITLE
370
    35
100
AcDbLine
 10
72.5182230965
 20
1.4876117645
 30
0.0
 11
72.5182230965
 21
3.5979636817
 31
0.0
  0
LINE
  5
83
330
1F
100
AcDbEntity
  8
TITLE
370
    35
100
AcDbLine
 10
65.5059791203
 20
3.5979636817
 30
0.0
 11
65.5059791203
 21
0.5
 31
0.0
  0
LINE
  5
84
330
1F
100
AcDbEntity
  8
TITLE
370
    35
100
AcDbLine
 10
65.5059791203
 20
0.5
 30
0.0
 11
89.5
 21
0.5
 31
0.0
  0
LINE
  5
85
330
1F
100
AcDbEntity
  8
TITLE
370
    35
100
AcDbLine
 10
89.4999317442
 20
5.4753603936
 30
0.0
 11
89.5
 21
0.5
 31
0.0
  0
LINE
  5
86
330
1F
100
AcDbEntity
  8
TITLE
  6
SLD-Solid
370
    18
100
AcDbLine
 10
0.4999606299
 20
24.0
 30
0.0
 11
0.5000393701
 21
24.0
 31
0.0
  0
LINE
  5
87
330
1F
100
AcDbEntity
  8
TITLE
370
    35
100
AcDbLine
 10
72.5182230965
 20
3.5979636817
 30
0.0
 11
65.5059791203
 21
3.5979636817
 31
0.0
  0
LINE
  5
88
330
1F
100
AcDbEntity
  8
TITLE
370
    35
100
AcDbLine
 10
72.5182230965
 20
3.5979636817
 30
0.0
 11
89.4997615643
 21
3.5979648343
 31
0.0
  0
LINE
  5
89
330
1F
100
AcDbEntity
  8
TITLE
370
    35
100
AcDbLine
 10
79.3105350723
 20
5.4753603936
 30
0.0
 11
79.3105350723
 21
0.4636772425
 31
0.0
  0
LINE
  5
8A
330
1F
100
AcDbEntity
  8
TITLE
  6
SLD-Solid
370
    18
100
AcDbLine
 10
45.0
 20
47.5000393701
 30
0.0
 11
45.0
 21
47.4999606299
 31
0.0
  0
LINE
  5
8B
330
1F
100
AcDbEntity
  8
TITLE
  6
SLD-Solid
370
    18
100
AcDbLine
 10
89.5000393701
 20
24.0
 30
0.0
 11
89.4999606299
 21
24.0
 31
0.0
  0
LINE
  5
8C
330
1F
100
AcDbEntity
  8
TITLE
  6
SLD-Solid
370
    18
100
AcDbLine
 10
45.0
 20
0.4999606299
 30
0.0
 11
45.0
 21
0.5000393701
 31
0.0
  0
LINE
  5
8D
330
1F
100
AcDbEntity
  8
TITLE
  6
SLD-Solid
370
    18
100
AcDbLine
 10
0.5
 20
2.3464566929
 30
0.0
 11
0.1653543307
 21
2.3464566929
 31
0.0
  0
LINE
  5
8E
330
1F
100
AcDbEntity
  8
TITLE
  6
SLD-Solid
370
    18
100
AcDbLine
 10
89.5
 20
2.3464566929
 30
0.0
 11
89.8346456693
 21
2.3464566929
 31
0.0
  0
LINE
  5
8F
330
1F
100
AcDbEntity
  8
TITLE
  6
SLD-Solid
370
    18
100
AcDbLine
 10
0.5
 20
4.3149606299
 30
0.0
 11
0.1653543307
 21
4.3149606299
 31
0.0
  0
LINE
  5
90
330
1F
100
AcDbEntity
  8
TITLE
  6
SLD-Solid
370
    18
100
AcDbLine
 10
89.5
 20
4.3149606299
 30
0.0
 11
89.8346456693
 21
4.3149606299
 31
0.0
  0
LINE
  5
91
330
1F
100
AcDbEntity
  8
TITLE
  6
SLD-Solid
370
    18
100
AcDbLine
 10
0.5
 20
6.2834645669
 30
0.0
 11
0.1653543307
 21
6.2834645669
 31
0.0
  0
LINE
  5
92
330
1F
100
AcDbEntity
  8
TITLE
  6
SLD-Solid
370
    18
100
AcDbLine
 10
89.5
 20
6.2834645669
 30
0.0
 11
89.8346456693
 21
6.2834645669
 31
0.0
  0
LINE
  5
93
330
1F
100
AcDbEntity
  8
TITLE
  6
SLD-Solid
370
    18
100
AcDbLine
 10
0.5
 20
8.2519685039
 30
0.0
 11
0.1653543307
 21
8.2519685039
 31
0.0
  0
LINE
  5
94
330
1F
100
AcDbEntity
  8
TITLE
  6
SLD-Solid
370
    18
100
AcDbLine
 10
89.5
 20
8.2519685039
 30
0.0
 11
89.8346456693
 21
8.2519685039
 31
0.0
  0
LINE
  5
95
330
1F
100
AcDbEntity
  8
TITLE
  6
SLD-Solid
370
    18
100
AcDbLine
 10
0.5
 20
10.2204724409
 30
0.0
 11
0.1653543307
 21
10.2204724409
 31
0.0
  0
LINE
  5
96
330
1F
100
AcDbEntity
  8
TITLE
  6
SLD-Solid
370
    18
100
AcDbLine
 10
89.5
 20
10.2204724409
 30
0.0
 11
89.8346456693
 21
10.2204724409
 31
0.0
  0
LINE
  5
97
330
1F
100
AcDbEntity
  8
TITLE
  6
SLD-Solid
370
    18
100
AcDbLine
 10
0.5
 20
12.188976378
 30
0.0
 11
0.1653543307
 21
12.188976378
 31
0.0
  0
LINE
  5
98
330
1F
100
AcDbEntity
  8
TITLE
  6
SLD-Solid
370
    18
100
AcDbLine
 10
89.5
 20
12.188976378
 30
0.0
 11
89.8346456693
 21
12.188976378
 31
0.0
  0
LINE
  5
99
330
1F
100
AcDbEntity
  8
TITLE
  6
SLD-Solid
370
    18
100
AcDbLine
 10
0.5
 20
14.157480315
 30
0.0
 11
0.1653543307
 21
14.157480315
 31
0.0
  0
LINE
  5
9A
330
1F
100
AcDbEntity
  8
TITLE
  6
SLD-Solid
370
    18
100
AcDbLine
 10
89.5
 20
14.157480315
 30
0.0
 11
89.8346456693
 21
14.157480315
 31
0.0
  0
LINE
  5
9B
330
1F
100
AcDbEntity
  8
TITLE
  6
SLD-Solid
370
    18
100
AcDbLine
 10
0.5
 20
16.125984252
 30
0.0
 11
0.1653543307
 21
16.125984252
 31
0.0
  0
LINE
  5
9C
330
1F
100
AcDbEntity
  8
TITLE
  6
SLD-Solid
370
    18
100
AcDbLine
 10
89.5
 20
16.125984252
 30
0.0
 11
89.8346456693
 21
16.125984252
 31
0.0
  0
LINE
  5
9D
330
1F
100
AcDbEntity
  8
TITLE
  6
SLD-Solid
370
    18
100
AcDbLine
 10
0.5
 20
18.094488189
 30
0.0
 11
0.1653543307
 21
18.094488189
 31
0.0
  0
LINE
  5
9E
330
1F
100
AcDbEntity
  8
TITLE
  6
SLD-Solid
370
    18
100
AcDbLine
 10
89.5
 20
18.094488189
 30
0.0
 11
89.8346456693
 21
18.094488189
 31
0.0
  0
LINE
  5
9F
330
1F
100
AcDbEntity
  8
TITLE
  6
SLD-Solid
370
    18
100
AcDbLine
 10
0.5
 20
20.062992126
 30
0.0
 11
0.1653543307
 21
20.062992126
 31
0.0
  0
LINE
  5
A0
330
1F
100
AcDbEntity
  8
TITLE
  6
SLD-Solid
370
    18
100
AcDbLine
 10
89.5
 20
20.062992126
 30
0.0
 11
89.8346456693
 21
20.062992126
 31
0.0
  0
LINE
  5
A1
330
1F
100
AcDbEntity
  8
TITLE
  6
SLD-Solid
370
    18
100
AcDbLine
 10
0.5
 20
22.031496063
 30
0.0
 11
0.1653543307
 21
22.031496063
 31
0.0
  0
LINE
  5
A2
330
1F
100
AcDbEntity
  8
TITLE
  6
SLD-Solid
370
    18
100
AcDbLine
 10
89.5
 20
22.031496063
 30
0.0
 11
89.8346456693
 21
22.031496063
 31
0.0
  0
LINE
  5
A3
330
1F
100
AcDbEntity
  8
TITLE
  6
SLD-Solid
370
    18
100
AcDbLine
 10
0.5
 20
24.0
 30
0.0
 11
0.1653543307
 21
24.0
 31
0.0
  0
LINE
  5
A4
330
1F
100
AcDbEntity
  8
TITLE
  6
SLD-Solid
370
    18
100
AcDbLine
 10
89.5
 20
24.0
 30
0.0
 11
89.8346456693
 21
24.0
 31
0.0
  0
LINE
  5
A5
330
1F
100
AcDbEntity
  8
TITLE
  6
SLD-Solid
370
    18
100
AcDbLine
 10
0.5
 20
25.968503937
 30
0.0
 11
0.1653543307
 21
25.968503937
 31
0.0
  0
LINE
  5
A6
330
1F
100
AcDbEntity
  8
TITLE
  6
SLD-Solid
370
    18
100
AcDbLine
 10
89.5
 20
25.968503937
 30
0.0
 11
89.8346456693
 21
25.968503937
 31
0.0
  0
LINE
  5
A7
330
1F
100
AcDbEntity
  8
TITLE
  6
SLD-Solid
370
    18
100
AcDbLine
 10
0.5
 20
27.937007874
 30
0.0
 11
0.1653543307
 21
27.937007874
 31
0.0
  0
LINE
  5
A8
330
1F
100
AcDbEntity
  8
TITLE
  6
SLD-Solid
370
    18
100
AcDbLine
 10
89.5
 20
27.937007874
 30
0.0
 11
89.8346456693
 21
27.937007874
 31
0.0
  0
LINE
  5
A9
330
1F
100
AcDbEntity
  8
TITLE
  6
SLD-Solid
370
    18
100
AcDbLine
 10
0.5
 20
29.905511811
 30
0.0
 11
0.1653543307
 21
29.905511811
 31
0.0
  0
LINE
  5
AA
330
1F
100
AcDbEntity
  8
TITLE
  6
SLD-Solid
370
    18
100
AcDbLine
 10
89.5
 20
29.905511811
 30
0.0
 11
89.8346456693
 21
29.905511811
 31
0.0
  0
LINE
  5
AB
330
1F
100
AcDbEntity
  8
TITLE
  6
SLD-Solid
370
    18
100
AcDbLine
 10
0.5
 20
31.874015748
 30
0.0
 11
0.1653543307
 21
31.874015748
 31
0.0
  0
LINE
  5
AC
330
1F
100
AcDbEntity
  8
TITLE
  6
SLD-Solid
370
    18
100
AcDbLine
 10
89.5
 20
31.874015748
 30
0.0
 11
89.8346456693
 21
31.874015748
 31
0.0
  0
LINE
  5
AD
330
1F
100
AcDbEntity
  8
TITLE
  6
SLD-Solid
370
    18
100
AcDbLine
 10
0.5
 20
33.842519685
 30
0.0
 11
0.1653543307
 21
33.842519685
 31
0.0
  0
LINE
  5
AE
330
1F
100
AcDbEntity
  8
TITLE
  6
SLD-Solid
370
    18
100
AcDbLine
 10
89.5
 20
33.842519685
 30
0.0
 11
89.8346456693
 21
33.842519685
 31
0.0
  0
LINE
  5
AF
330
1F
100
AcDbEntity
  8
TITLE
  6
SLD-Solid
370
    18
100
AcDbLine
 10
0.5
 20
35.811023622
 30
0.0
 11
0.1653543307
 21
35.811023622
 31
0.0
  0
LINE
  5
B0
330
1F
100
AcDbEntity
  8
TITLE
  6
SLD-Solid
370
    18
100
AcDbLine
 10
89.5
 20
35.811023622
 30
0.0
 11
89.8346456693
 21
35.811023622
 31
0.0
  0
LINE
  5
B1
330
1F
100
AcDbEntity
  8
TITLE
  6
SLD-Solid
370
    18
100
AcDbLine
 10
0.5
 20
37.7795275591
 30
0.0
 11
0.1653543307
 21
37.7795275591
 31
0.0
  0
LINE
  5
B2
330
1F
100
AcDbEntity
  8
TITLE
  6
SLD-Solid
370
    18
100
AcDbLine
 10
89.5
 20
37.7795275591
 30
0.0
 11
89.8346456693
 21
37.7795275591
 31
0.0
  0
LINE
  5
B3
330
1F
100
AcDbEntity
  8
TITLE
  6
SLD-Solid
370
    18
100
AcDbLine
 10
0.5
 20
39.7480314961
 30
0.0
 11
0.1653543307
 21
39.7480314961
 31
0.0
  0
LINE
  5
B4
330
1F
100
AcDbEntity
  8
TITLE
  6
SLD-Solid
370
    18
100
AcDbLine
 10
89.5
 20
39.7480314961
 30
0.0
 11
89.8346456693
 21
39.7480314961
 31
0.0
  0
LINE
  5
B5
330
1F
100
AcDbEntity
  8
TITLE
  6
SLD-Solid
370
    18
100
AcDbLine
 10
0.5
 20
41.7165354331
 30
0.0
 11
0.1653543307
 21
41.7165354331
 31
0.0
  0
LINE
  5
B6
330
1F
100
AcDbEntity
  8
TITLE
  6
SLD-Solid
370
    18
100
AcDbLine
 10
89.5
 20
41.7165354331
 30
0.0
 11
89.8346456693
 21
41.7165354331
 31
0.0
  0
LINE
  5
B7
330
1F
100
AcDbEntity
  8
TITLE
  6
SLD-Solid
370
    18
100
AcDbLine
 10
0.5
 20
43.6850393701
 30
0.0
 11
0.1653543307
 21
43.6850393701
 31
0.0
  0
LINE
  5
B8
330
1F
100
AcDbEntity
  8
TITLE
  6
SLD-Solid
370
    18
100
AcDbLine
 10
89.5
 20
43.6850393701
 30
0.0
 11
89.8346456693
 21
43.6850393701
 31
0.0
  0
LINE
  5
B9
330
1F
100
AcDbEntity
  8
TITLE
  6
SLD-Solid
370
    18
100
AcDbLine
 10
0.5
 20
45.6535433071
 30
0.0
 11
0.1653543307
 21
45.6535433071
 31
0.0
  0
LINE
  5
BA
330
1F
100
AcDbEntity
  8
TITLE
  6
SLD-Solid
370
    18
100
AcDbLine
 10
89.5
 20
45.6535433071
 30
0.0
 11
89.8346456693
 21
45.6535433071
 31
0.0
  0
LINE
  5
BB
330
1F
100
AcDbEntity
  8
TITLE
  6
SLD-Solid
370
    18
100
AcDbLine
 10
1.6929133858
 20
47.5
 30
0.0
 11
1.6929133858
 21
47.8346456693
 31
0.0
  0
LINE
  5
BC
330
1F
100
AcDbEntity
  8
TITLE
  6
SLD-Solid
370
    18
100
AcDbLine
 10
1.6929133858
 20
0.5
 30
0.0
 11
1.6929133858
 21
0.1653543307
 31
0.0
  0
LINE
  5
BD
330
1F
100
AcDbEntity
  8
TITLE
  6
SLD-Solid
370
    18
100
AcDbLine
 10
3.6614173228
 20
47.5
 30
0.0
 11
3.6614173228
 21
47.8346456693
 31
0.0
  0
LINE
  5
BE
330
1F
100
AcDbEntity
  8
TITLE
  6
SLD-Solid
370
    18
100
AcDbLine
 10
3.6614173228
 20
0.5
 30
0.0
 11
3.6614173228
 21
0.1653543307
 31
0.0
  0
LINE
  5
BF
330
1F
100
AcDbEntity
  8
TITLE
  6
SLD-Solid
370
    18
100
AcDbLine
 10
5.6299212598
 20
47.5
 30
0.0
 11
5.6299212598
 21
47.8346456693
 31
0.0
  0
LINE
  5
C0
330
1F
100
AcDbEntity
  8
TITLE
  6
SLD-Solid
370
    18
100
AcDbLine
 10
5.6299212598
 20
0.5
 30
0.0
 11
5.6299212598
 21
0.1653543307
 31
0.0
  0
LINE
  5
C1
330
1F
100
AcDbEntity
  8
TITLE
  6
SLD-Solid
370
    18
100
AcDbLine
 10
7.5984251969
 20
47.5
 30
0.0
 11
7.5984251969
 21
47.8346456693
 31
0.0
  0
LINE
  5
C2
330
1F
100
AcDbEntity
  8
TITLE
  6
SLD-Solid
370
    18
100
AcDbLine
 10
7.5984251969
 20
0.5
 30
0.0
 11
7.5984251969
 21
0.1653543307
 31
0.0
  0
LINE
  5
C3
330
1F
100
AcDbEntity
  8
TITLE
  6
SLD-Solid
370
    18
100
AcDbLine
 10
9.5669291339
 20
47.5
 30
0.0
 11
9.5669291339
 21
47.8346456693
 31
0.0
  0
LINE
  5
C4
330
1F
100
AcDbEntity
  8
TITLE
  6
SLD-Solid
370
    18
100
AcDbLine
 10
9.5669291339
 20
0.5
 30
0.0
 11
9.5669291339
 21
0.1653543307
 31
0.0
  0
LINE
  5
C5
330
1F
100
AcDbEntity
  8
TITLE
  6
SLD-Solid
370
    18
100
AcDbLine
 10
11.5354330709
 20
47.5
 30
0.0
 11
11.5354330709
 21
47.8346456693
 31
0.0
  0
LINE
  5
C6
330
1F
100
AcDbEntity
  8
TITLE
  6
SLD-Solid
370
    18
100
AcDbLine
 10
11.5354330709
 20
0.5
 30
0.0
 11
11.5354330709
 21
0.1653543307
 31
0.0
  0
LINE
  5
C7
330
1F
100
AcDbEntity
  8
TITLE
  6
SLD-Solid
370
    18
100
AcDbLine
 10
13.5039370079
 20
47.5
 30
0.0
 11
13.5039370079
 21
47.8346456693
 31
0.0
  0
LINE
  5
C8
330
1F
100
AcDbEntity
  8
TITLE
  6
SLD-Solid
370
    18
100
AcDbLine
 10
13.5039370079
 20
0.5
 30
0.0
 11
13.5039370079
 21
0.1653543307
 31
0.0
  0
LINE
  5
C9
330
1F
100
AcDbEntity
  8
TITLE
  6
SLD-Solid
370
    18
100
AcDbLine
 10
15.4724409449
 20
47.5
 30
0.0
 11
15.4724409449
 21
47.8346456693
 31
0.0
  0
LINE
  5
CA
330
1F
100
AcDbEntity
  8
TITLE
  6
SLD-Solid
370
    18
100
AcDbLine
 10
15.4724409449
 20
0.5
 30
0.0
 11
15.4724409449
 21
0.1653543307
 31
0.0
  0
LINE
  5
CB
330
1F
100
AcDbEntity
  8
TITLE
  6
SLD-Solid
370
    18
100
AcDbLine
 10
17.4409448819
 20
47.5
 30
0.0
 11
17.4409448819
 21
47.8346456693
 31
0.0
  0
LINE
  5
CC
330
1F
100
AcDbEntity
  8
TITLE
  6
SLD-Solid
370
    18
100
AcDbLine
 10
17.4409448819
 20
0.5
 30
0.0
 11
17.4409448819
 21
0.1653543307
 31
0.0
  0
LINE
  5
CD
330
1F
100
AcDbEntity
  8
TITLE
  6
SLD-Solid
370
    18
100
AcDbLine
 10
19.4094488189
 20
47.5
 30
0.0
 11
19.4094488189
 21
47.8346456693
 31
0.0
  0
LINE
  5
CE
330
1F
100
AcDbEntity
  8
TITLE
  6
SLD-Solid
370
    18
100
AcDbLine
 10
19.4094488189
 20
0.5
 30
0.0
 11
19.4094488189
 21
0.1653543307
 31
0.0
  0
LINE
  5
CF
330
1F
100
AcDbEntity
  8
TITLE
  6
SLD-Solid
370
    18
100
AcDbLine
 10
21.3779527559
 20
47.5
 30
0.0
 11
21.3779527559
 21
47.8346456693
 31
0.0
  0
LINE
  5
D0
330
1F
100
AcDbEntity
  8
TITLE
  6
SLD-Solid
370
    18
100
AcDbLine
 10
21.3779527559
 20
0.5
 30
0.0
 11
21.3779527559
 21
0.1653543307
 31
0.0
  0
LINE
  5
D1
330
1F
100
AcDbEntity
  8
TITLE
  6
SLD-Solid
370
    18
100
AcDbLine
 10
23.3464566929
 20
47.5
 30
0.0
 11
23.3464566929
 21
47.8346456693
 31
0.0
  0
LINE
  5
D2
330
1F
100
AcDbEntity
  8
TITLE
  6
SLD-Solid
370
    18
100
AcDbLine
 10
23.3464566929
 20
0.5
 30
0.0
 11
23.3464566929
 21
0.1653543307
 31
0.0
  0
LINE
  5
D3
330
1F
100
AcDbEntity
  8
TITLE
  6
SLD-Solid
370
    18
100
AcDbLine
 10
25.3149606299
 20
47.5
 30
0.0
 11
25.3149606299
 21
47.8346456693
 31
0.0
  0
LINE
  5
D4
330
1F
100
AcDbEntity
  8
TITLE
  6
SLD-Solid
370
    18
100
AcDbLine
 10
25.3149606299
 20
0.5
 30
0.0
 11
25.3149606299
 21
0.1653543307
 31
0.0
  0
LINE
  5
D5
330
1F
100
AcDbEntity
  8
TITLE
  6
SLD-Solid
370
    18
100
AcDbLine
 10
27.2834645669
 20
47.5
 30
0.0
 11
27.2834645669
 21
47.8346456693
 31
0.0
  0
LINE
  5
D6
330
1F
100
AcDbEntity
  8
TITLE
  6
SLD-Solid
370
    18
100
AcDbLine
 10
27.2834645669
 20
0.5
 30
0.0
 11
27.2834645669
 21
0.1653543307
 31
0.0
  0
LINE
  5
D7
330
1F
100
AcDbEntity
  8
TITLE
  6
SLD-Solid
370
    18
100
AcDbLine
 10
29.2519685039
 20
47.5
 30
0.0
 11
29.2519685039
 21
47.8346456693
 31
0.0
  0
LINE
  5
D8
330
1F
100
AcDbEntity
  8
TITLE
  6
SLD-Solid
370
    18
100
AcDbLine
 10
29.2519685039
 20
0.5
 30
0.0
 11
29.2519685039
 21
0.1653543307
 31
0.0
  0
LINE
  5
D9
330
1F
100
AcDbEntity
  8
TITLE
  6
SLD-Solid
370
    18
100
AcDbLine
 10
31.2204724409
 20
47.5
 30
0.0
 11
31.2204724409
 21
47.8346456693
 31
0.0
  0
LINE
  5
DA
330
1F
100
AcDbEntity
  8
TITLE
  6
SLD-Solid
370
    18
100
AcDbLine
 10
31.2204724409
 20
0.5
 30
0.0
 11
31.2204724409
 21
0.1653543307
 31
0.0
  0
LINE
  5
DB
330
1F
100
AcDbEntity
  8
TITLE
  6
SLD-Solid
370
    18
100
AcDbLine
 10
33.188976378
 20
47.5
 30
0.0
 11
33.188976378
 21
47.8346456693
 31
0.0
  0
LINE
  5
DC
330
1F
100
AcDbEntity
  8
TITLE
  6
SLD-Solid
370
    18
100
AcDbLine
 10
33.188976378
 20
0.5
 30
0.0
 11
33.188976378
 21
0.1653543307
 31
0.0
  0
LINE
  5
DD
330
1F
100
AcDbEntity
  8
TITLE
  6
SLD-Solid
370
    18
100
AcDbLine
 10
35.157480315
 20
47.5
 30
0.0
 11
35.157480315
 21
47.8346456693
 31
0.0
  0
LINE
  5
DE
330
1F
100
AcDbEntity
  8
TITLE
  6
SLD-Solid
370
    18
100
AcDbLine
 10
35.157480315
 20
0.5
 30
0.0
 11
35.157480315
 21
0.1653543307
 31
0.0
  0
LINE
  5
DF
330
1F
100
AcDbEntity
  8
TITLE
  6
SLD-Solid
370
    18
100
AcDbLine
 10
37.125984252
 20
47.5
 30
0.0
 11
37.125984252
 21
47.8346456693
 31
0.0
  0
LINE
  5
E0
330
1F
100
AcDbEntity
  8
TITLE
  6
SLD-Solid
370
    18
100
AcDbLine
 10
37.125984252
 20
0.5
 30
0.0
 11
37.125984252
 21
0.1653543307
 31
0.0
  0
LINE
  5
E1
330
1F
100
AcDbEntity
  8
TITLE
  6
SLD-Solid
370
    18
100
AcDbLine
 10
39.094488189
 20
47.5
 30
0.0
 11
39.094488189
 21
47.8346456693
 31
0.0
  0
LINE
  5
E2
330
1F
100
AcDbEntity
  8
TITLE
  6
SLD-Solid
370
    18
100
AcDbLine
 10
39.094488189
 20
0.5
 30
0.0
 11
39.094488189
 21
0.1653543307
 31
0.0
  0
LINE
  5
E3
330
1F
100
AcDbEntity
  8
TITLE
  6
SLD-Solid
370
    18
100
AcDbLine
 10
41.062992126
 20
47.5
 30
0.0
 11
41.062992126
 21
47.8346456693
 31
0.0
  0
LINE
  5
E4
330
1F
100
AcDbEntity
  8
TITLE
  6
SLD-Solid
370
    18
100
AcDbLine
 10
41.062992126
 20
0.5
 30
0.0
 11
41.062992126
 21
0.1653543307
 31
0.0
  0
LINE
  5
E5
330
1F
100
AcDbEntity
  8
TITLE
  6
SLD-Solid
370
    18
100
AcDbLine
 10
43.031496063
 20
47.5
 30
0.0
 11
43.031496063
 21
47.8346456693
 31
0.0
  0
LINE
  5
E6
330
1F
100
AcDbEntity
  8
TITLE
  6
SLD-Solid
370
    18
100
AcDbLine
 10
43.031496063
 20
0.5
 30
0.0
 11
43.031496063
 21
0.1653543307
 31
0.0
  0
LINE
  5
E7
330
1F
100
AcDbEntity
  8
TITLE
  6
SLD-Solid
370
    18
100
AcDbLine
 10
45.0
 20
47.5
 30
0.0
 11
45.0
 21
47.8346456693
 31
0.0
  0
LINE
  5
E8
330
1F
100
AcDbEntity
  8
TITLE
  6
SLD-Solid
370
    18
100
AcDbLine
 10
45.0
 20
0.5
 30
0.0
 11
45.0
 21
0.1653543307
 31
0.0
  0
LINE
  5
E9
330
1F
100
AcDbEntity
  8
TITLE
  6
SLD-Solid
370
    18
100
AcDbLine
 10
46.968503937
 20
47.5
 30
0.0
 11
46.968503937
 21
47.8346456693
 31
0.0
  0
LINE
  5
EA
330
1F
100
AcDbEntity
  8
TITLE
  6
SLD-Solid
370
    18
100
AcDbLine
 10
46.968503937
 20
0.5
 30
0.0
 11
46.968503937
 21
0.1653543307
 31
0.0
  0
LINE
  5
EB
330
1F
100
AcDbEntity
  8
TITLE
  6
SLD-Solid
370
    18
100
AcDbLine
 10
48.937007874
 20
47.5
 30
0.0
 11
48.937007874
 21
47.8346456693
 31
0.0
  0
LINE
  5
EC
330
1F
100
AcDbEntity
  8
TITLE
  6
SLD-Solid
370
    18
100
AcDbLine
 10
48.937007874
 20
0.5
 30
0.0
 11
48.937007874
 21
0.1653543307
 31
0.0
  0
LINE
  5
ED
330
1F
100
AcDbEntity
  8
TITLE
  6
SLD-Solid
370
    18
100
AcDbLine
 10
50.905511811
 20
47.5
 30
0.0
 11
50.905511811
 21
47.8346456693
 31
0.0
  0
LINE
  5
EE
330
1F
100
AcDbEntity
  8
TITLE
  6
SLD-Solid
370
    18
100
AcDbLine
 10
50.905511811
 20
0.5
 30
0.0
 11
50.905511811
 21
0.1653543307
 31
0.0
  0
LINE
  5
EF
330
1F
100
AcDbEntity
  8
TITLE
  6
SLD-Solid
370
    18
100
AcDbLine
 10
52.874015748
 20
47.5
 30
0.0
 11
52.874015748
 21
47.8346456693
 31
0.0
  0
LINE
  5
F0
330
1F
100
AcDbEntity
  8
TITLE
  6
SLD-Solid
370
    18
100
AcDbLine
 10
52.874015748
 20
0.5
 30
0.0
 11
52.874015748
 21
0.1653543307
 31
0.0
  0
LINE
  5
F1
330
1F
100
AcDbEntity
  8
TITLE
  6
SLD-Solid
370
    18
100
AcDbLine
 10
54.842519685
 20
47.5
 30
0.0
 11
54.842519685
 21
47.8346456693
 31
0.0
  0
LINE
  5
F2
330
1F
100
AcDbEntity
  8
TITLE
  6
SLD-Solid
370
    18
100
AcDbLine
 10
54.842519685
 20
0.5
 30
0.0
 11
54.842519685
 21
0.1653543307
 31
0.0
  0
LINE
  5
F3
330
1F
100
AcDbEntity
  8
TITLE
  6
SLD-Solid
370
    18
100
AcDbLine
 10
56.811023622
 20
47.5
 30
0.0
 11
56.811023622
 21
47.8346456693
 31
0.0
  0
LINE
  5
F4
330
1F
100
AcDbEntity
  8
TITLE
  6
SLD-Solid
370
    18
100
AcDbLine
 10
56.811023622
 20
0.5
 30
0.0
 11
56.811023622
 21
0.1653543307
 31
0.0
  0
LINE
  5
F5
330
1F
100
AcDbEntity
  8
TITLE
  6
SLD-Solid
370
    18
100
AcDbLine
 10
58.7795275591
 20
47.5
 30
0.0
 11
58.7795275591
 21
47.8346456693
 31
0.0
  0
LINE
  5
F6
330
1F
100
AcDbEntity
  8
TITLE
  6
SLD-Solid
370
    18
100
AcDbLine
 10
58.7795275591
 20
0.5
 30
0.0
 11
58.7795275591
 21
0.1653543307
 31
0.0
  0
LINE
  5
F7
330
1F
100
AcDbEntity
  8
TITLE
  6
SLD-Solid
370
    18
100
AcDbLine
 10
60.7480314961
 20
47.5
 30
0.0
 11
60.7480314961
 21
47.8346456693
 31
0.0
  0
LINE
  5
F8
330
1F
100
AcDbEntity
  8
TITLE
  6
SLD-Solid
370
    18
100
AcDbLine
 10
60.7480314961
 20
0.5
 30
0.0
 11
60.7480314961
 21
0.1653543307
 31
0.0
  0
LINE
  5
F9
330
1F
100
AcDbEntity
  8
TITLE
  6
SLD-Solid
370
    18
100
AcDbLine
 10
62.7165354331
 20
47.5
 30
0.0
 11
62.7165354331
 21
47.8346456693
 31
0.0
  0
LINE
  5
FA
330
1F
100
AcDbEntity
  8
TITLE
  6
SLD-Solid
370
    18
100
AcDbLine
 10
62.7165354331
 20
0.5
 30
0.0
 11
62.7165354331
 21
0.1653543307
 31
0.0
  0
LINE
  5
FB
330
1F
100
AcDbEntity
  8
TITLE
  6
SLD-Solid
370
    18
100
AcDbLine
 10
64.6850393701
 20
47.5
 30
0.0
 11
64.6850393701
 21
47.8346456693
 31
0.0
  0
LINE
  5
FC
330
1F
100
AcDbEntity
  8
TITLE
  6
SLD-Solid
370
    18
100
AcDbLine
 10
64.6850393701
 20
0.5
 30
0.0
 11
64.6850393701
 21
0.1653543307
 31
0.0
  0
LINE
  5
FD
330
1F
100
AcDbEntity
  8
TITLE
  6
SLD-Solid
370
    18
100
AcDbLine
 10
66.6535433071
 20
47.5
 30
0.0
 11
66.6535433071
 21
47.8346456693
 31
0.0
  0
LINE
  5
FE
330
1F
100
AcDbEntity
  8
TITLE
  6
SLD-Solid
370
    18
100
AcDbLine
 10
66.6535433071
 20
0.5
 30
0.0
 11
66.6535433071
 21
0.1653543307
 31
0.0
  0
LINE
  5
FF
330
1F
100
AcDbEntity
  8
TITLE
  6
SLD-Solid
370
    18
100
AcDbLine
 10
68.6220472441
 20
47.5
 30
0.0
 11
68.6220472441
 21
47.8346456693
 31
0.0
  0
LINE
  5
100
330
1F
100
AcDbEntity
  8
TITLE
  6
SLD-Solid
370
    18
100
AcDbLine
 10
68.6220472441
 20
0.5
 30
0.0
 11
68.6220472441
 21
0.1653543307
 31
0.0
  0
LINE
  5
101
330
1F
100
AcDbEntity
  8
TITLE
  6
SLD-Solid
370
    18
100
AcDbLine
 10
70.5905511811
 20
47.5
 30
0.0
 11
70.5905511811
 21
47.8346456693
 31
0.0
  0
LINE
  5
102
330
1F
100
AcDbEntity
  8
TITLE
  6
SLD-Solid
370
    18
100
AcDbLine
 10
70.5905511811
 20
0.5
 30
0.0
 11
70.5905511811
 21
0.1653543307
 31
0.0
  0
LINE
  5
103
330
1F
100
AcDbEntity
  8
TITLE
  6
SLD-Solid
370
    18
100
AcDbLine
 10
72.5590551181
 20
47.5
 30
0.0
 11
72.5590551181
 21
47.8346456693
 31
0.0
  0
LINE
  5
104
330
1F
100
AcDbEntity
  8
TITLE
  6
SLD-Solid
370
    18
100
AcDbLine
 10
72.5590551181
 20
0.5
 30
0.0
 11
72.5590551181
 21
0.1653543307
 31
0.0
  0
LINE
  5
105
330
1F
100
AcDbEntity
  8
TITLE
  6
SLD-Solid
370
    18
100
AcDbLine
 10
74.5275590551
 20
47.5
 30
0.0
 11
74.5275590551
 21
47.8346456693
 31
0.0
  0
LINE
  5
106
330
1F
100
AcDbEntity
  8
TITLE
  6
SLD-Solid
370
    18
100
AcDbLine
 10
74.5275590551
 20
0.5
 30
0.0
 11
74.5275590551
 21
0.1653543307
 31
0.0
  0
LINE
  5
107
330
1F
100
AcDbEntity
  8
TITLE
  6
SLD-Solid
370
    18
100
AcDbLine
 10
76.4960629921
 20
47.5
 30
0.0
 11
76.4960629921
 21
47.8346456693
 31
0.0
  0
LINE
  5
108
330
1F
100
AcDbEntity
  8
TITLE
  6
SLD-Solid
370
    18
100
AcDbLine
 10
76.4960629921
 20
0.5
 30
0.0
 11
76.4960629921
 21
0.1653543307
 31
0.0
  0
LINE
  5
109
330
1F
100
AcDbEntity
  8
TITLE
  6
SLD-Solid
370
    18
100
AcDbLine
 10
78.4645669291
 20
47.5
 30
0.0
 11
78.4645669291
 21
47.8346456693
 31
0.0
  0
LINE
  5
10A
330
1F
100
AcDbEntity
  8
TITLE
  6
SLD-Solid
370
    18
100
AcDbLine
 10
78.4645669291
 20
0.5
 30
0.0
 11
78.4645669291
 21
0.1653543307
 31
0.0
  0
LINE
  5
10B
330
1F
100
AcDbEntity
  8
TITLE
  6
SLD-Solid
370
    18
100
AcDbLine
 10
80.4330708661
 20
47.5
 30
0.0
 11
80.4330708661
 21
47.8346456693
 31
0.0
  0
LINE
  5
10C
330
1F
100
AcDbEntity
  8
TITLE
  6
SLD-Solid
370
    18
100
AcDbLine
 10
80.4330708661
 20
0.5
 30
0.0
 11
80.4330708661
 21
0.1653543307
 31
0.0
  0
LINE
  5
10D
330
1F
100
AcDbEntity
  8
TITLE
  6
SLD-Solid
370
    18
100
AcDbLine
 10
82.4015748031
 20
47.5
 30
0.0
 11
82.4015748031
 21
47.8346456693
 31
0.0
  0
LINE
  5
10E
330
1F
100
AcDbEntity
  8
TITLE
  6
SLD-Solid
370
    18
100
AcDbLine
 10
82.4015748031
 20
0.5
 30
0.0
 11
82.4015748031
 21
0.1653543307
 31
0.0
  0
LINE
  5
10F
330
1F
100
AcDbEntity
  8
TITLE
  6
SLD-Solid
370
    18
100
AcDbLine
 10
84.3700787402
 20
47.5
 30
0.0
 11
84.3700787402
 21
47.8346456693
 31
0.0
  0
LINE
  5
110
330
1F
100
AcDbEntity
  8
TITLE
  6
SLD-Solid
370
    18
100
AcDbLine
 10
84.3700787402
 20
0.5
 30
0.0
 11
84.3700787402
 21
0.1653543307
 31
0.0
  0
LINE
  5
111
330
1F
100
AcDbEntity
  8
TITLE
  6
SLD-Solid
370
    18
100
AcDbLine
 10
86.3385826772
 20
47.5
 30
0.0
 11
86.3385826772
 21
47.8346456693
 31
0.0
  0
LINE
  5
112
330
1F
100
AcDbEntity
  8
TITLE
  6
SLD-Solid
370
    18
100
AcDbLine
 10
86.3385826772
 20
0.5
 30
0.0
 11
86.3385826772
 21
0.1653543307
 31
0.0
  0
LINE
  5
113
330
1F
100
AcDbEntity
  8
TITLE
  6
SLD-Solid
370
    18
100
AcDbLine
 10
88.3070866142
 20
47.5
 30
0.0
 11
88.3070866142
 21
47.8346456693
 31
0.0
  0
LINE
  5
114
330
1F
100
AcDbEntity
  8
TITLE
  6
SLD-Solid
370
    18
100
AcDbLine
 10
88.3070866142
 20
0.5
 30
0.0
 11
88.3070866142
 21
0.1653543307
 31
0.0
  0
MTEXT
  5
116
330
1F
100
AcDbEntity
  8
NOTES
100
AcDbMText
 10
66.408297803
 20
1.0702903347
 30
0.0
 40
0.25
 41
0.0
 71
     1
 72
     1
  1
UNLESS OTHERWISE SPECIFIED DIMENSIONS ARE IN INCHES.
  7
SLDTEXTSTYLE0
 73
     1
 44
1.0
  0
MTEXT
  5
117
330
1F
100
AcDbEntity
  8
NOTES
100
AcDbMText
 10
66.4368251132
 20
3.2193045501
 30
0.0
 40
0.25
 41
0.0
 71
     1
 72
     1
  1
DATE:
  7
SLDTEXTSTYLE0
 73
     1
 44
1.0
  0
MTEXT
  5
118
330
1F
100
AcDbEntity
  8
NOTES
100
AcDbMText
 10
68.7130669976
 20
2.1722148141
 30
0.0
 40
0.25
 41
0.0
 71
     2
 72
     1
  1
DO NOT SCALE DRAWING
  7
SLDTEXTSTYLE0
 73
     1
 44
1.0
  0
MTEXT
  5
11A
330
1F
100
AcDbEntity
  8
NOTES
100
AcDbMText
 10
72.8307373075
 20
3.2682755553
 30
0.0
 40
0.25
 41
0.0
 71
     1
 72
     1
  1
TITLE:
  7
SLDTEXTSTYLE1
 73
     1
 44
1.0
  0
MTEXT
  5
11B
330
1F
100
AcDbEntity
  8
NOTES
100
AcDbMText
 10
80.1561831052
 20
3.2682755553
 30
0.0
 40
0.25
 41
0.0
 71
     1
 72
     1
  1
DWG NO.
  7
SLDTEXTSTYLE1
 73
     1
 44
1.0
  0
MTEXT
  5
11C
330
1F
100
AcDbEntity
  8
NOTES
100
AcDbMText
 10
80.1831753203
 20
1.0645815577
 30
0.0
 40
0.25
 41
0.0
 71
     1
 72
     1
  1
SCALE:     1:1
  7
SLDTEXTSTYLE1
 73
     1
 44
1.0
  0
MTEXT
  5
11D
330
1F
100
AcDbEntity
  8
NOTES
100
AcDbMText
 10
84.1931840933
 20
2.6510344295
 30
0.0
 40
0.25
 41
0.0
 71
     2
 72
     1
  1
1001-SP-18 CAD
  7
SLDTEXTSTYLE1
 73
     1
 44
1.0
  0
MTEXT
  5
11E
330
1F
100
AcDbEntity
  8
NOTES
100
AcDbMText
 10
75.9638653645
 20
2.6388861441
 30
0.0
 40
0.25
 41
0.0
 71
     2
 72
     1
  1
1001-SP-18
  7
SLDTEXTSTYLE1
 73
     1
 44
1.0
  0
INSERT
  5
124
330
1F
100
AcDbEntity
  8
NOTES
100
AcDbBlockReference
  2
SW_NOTE_0
 10
80.266131557
 20
4.6105227838
 30
0.0
  0
INSERT
  5
12E
330
1F
100
AcDbEntity
  8
NOTES
100
AcDbBlockReference
  2
SW_NOTE_0_1
 10
66.6159726246
 20
5.1481526848
 30
0.0
  0
INSERT
  5
134
330
1F
100
AcDbEntity
  8
NOTES
100
AcDbBlockReference
  2
SW_NOTE_0_2
 10
68.3701495343
 20
2.8942598356
 30
0.0
  0
MTEXT
  5
135
330
1F
100
AcDbEntity
  8
TITLE
100
AcDbMText
 10
0.3276279776
 20
1.503106291
 30
0.0
 40
0.125
 41
0.0
 71
     2
 72
     1
  1
A
  7
SLDTEXTSTYLE1
 73
     1
 44
1.0
  0
MTEXT
  5
136
330
1F
100
AcDbEntity
  8
TITLE
100
AcDbMText
 10
89.6622736469
 20
1.503106291
 30
0.0
 40
0.125
 41
0.0
 71
     2
 72
     1
  1
A
  7
SLDTEXTSTYLE1
 73
     1
 44
1.0
  0
MTEXT
  5
137
330
1F
100
AcDbEntity
  8
TITLE
100
AcDbMText
 10
0.3317512413
 20
3.4105866059
 30
0.0
 40
0.125
 41
0.0
 71
     2
 72
     1
  1
B
  7
SLDTEXTSTYLE1
 73
     1
 44
1.0
  0
MTEXT
  5
138
330
1F
100
AcDbEntity
  8
TITLE
100
AcDbMText
 10
89.6663969106
 20
3.4105866059
 30
0.0
 40
0.125
 41
0.0
 71
     2
 72
     1
  1
B
  7
SLDTEXTSTYLE1
 73
     1
 44
1.0
  0
MTEXT
  5
139
330
1F
100
AcDbEntity
  8
TITLE
100
AcDbMText
 10
0.3313750817
 20
5.3790905429
 30
0.0
 40
0.125
 41
0.0
 71
     2
 72
     1
  1
C
  7
SLDTEXTSTYLE1
 73
     1
 44
1.0
  0
MTEXT
  5
13A
330
1F
100
AcDbEntity
  8
TITLE
100
AcDbMText
 10
89.666020751
 20
5.3790905429
 30
0.0
 40
0.125
 41
0.0
 71
     2
 72
     1
  1
C
  7
SLDTEXTSTYLE1
 73
     1
 44
1.0
  0
MTEXT
  5
13B
330
1F
100
AcDbEntity
  8
TITLE
100
AcDbMText
 10
0.3311870028
 20
7.34759448
 30
0.0
 40
0.125
 41
0.0
 71
     2
 72
     1
  1
D
  7
SLDTEXTSTYLE1
 73
     1
 44
1.0
  0
MTEXT
  5
13C
330
1F
100
AcDbEntity
  8
TITLE
100
AcDbMText
 10
89.6658326721
 20
7.34759448
 30
0.0
 40
0.125
 41
0.0
 71
     2
 72
     1
  1
D
  7
SLDTEXTSTYLE1
 73
     1
 44
1.0
  0
MTEXT
  5
13D
330
1F
100
AcDbEntity
  8
TITLE
100
AcDbMText
 10
0.332923116
 20
9.316098417
 30
0.0
 40
0.125
 41
0.0
 71
     2
 72
     1
  1
E
  7
SLDTEXTSTYLE1
 73
     1
 44
1.0
  0
MTEXT
  5
13E
330
1F
100
AcDbEntity
  8
TITLE
100
AcDbMText
 10
89.6675687853
 20
9.316098417
 30
0.0
 40
0.125
 41
0.0
 71
     2
 72
     1
  1
E
  7
SLDTEXTSTYLE1
 73
     1
 44
1.0
  0
MTEXT
  5
13F
330
1F
100
AcDbEntity
  8
TITLE
100
AcDbMText
 10
0.3313461474
 20
11.284602354
 30
0.0
 40
0.125
 41
0.0
 71
     2
 72
     1
  1
F
  7
SLDTEXTSTYLE1
 73
     1
 44
1.0
  0
MTEXT
  5
140
330
1F
100
AcDbEntity
  8
TITLE
100
AcDbMText
 10
89.6659918167
 20
11.284602354
 30
0.0
 40
0.125
 41
0.0
 71
     2
 72
     1
  1
F
  7
SLDTEXTSTYLE1
 73
     1
 44
1.0
  0
MTEXT
  5
141
330
1F
100
AcDbEntity
  8
TITLE
100
AcDbMText
 10
0.3322576054
 20
13.253106291
 30
0.0
 40
0.125
 41
0.0
 71
     2
 72
     1
  1
G
  7
SLDTEXTSTYLE1
 73
     1
 44
1.0
  0
MTEXT
  5
142
330
1F
100
AcDbEntity
  8
TITLE
100
AcDbMText
 10
89.6669032747
 20
13.253106291
 30
0.0
 40
0.125
 41
0.0
 71
     2
 72
     1
  1
G
  7
SLDTEXTSTYLE1
 73
     1
 44
1.0
  0
MTEXT
  5
143
330
1F
100
AcDbEntity
  8
TITLE
100
AcDbMText
 10
0.3323733457
 20
15.221610228
 30
0.0
 40
0.125
 41
0.0
 71
     2
 72
     1
  1
H
  7
SLDTEXTSTYLE1
 73
     1
 44
1.0
  0
MTEXT
  5
144
330
1F
100
AcDbEntity
  8
TITLE
100
AcDbMText
 10
89.667019015
 20
15.221610228
 30
0.0
 40
0.125
 41
0.0
 71
     2
 72
     1
  1
H
  7
SLDTEXTSTYLE1
 73
     1
 44
1.0
  0
MTEXT
  5
145
330
1F
100
AcDbEntity
  8
TITLE
100
AcDbMText
 10
0.3315776306
 20
17.190114165
 30
0.0
 40
0.125
 41
0.0
 71
     2
 72
     1
  1
J
  7
SLDTEXTSTYLE1
 73
     1
 44
1.0
  0
MTEXT
  5
146
330
1F
100
AcDbEntity
  8
TITLE
100
AcDbMText
 10
89.6662232999
 20
17.190114165
 30
0.0
 40
0.125
 41
0.0
 71
     2
 72
     1
  1
J
  7
SLDTEXTSTYLE1
 73
     1
 44
1.0
  0
MTEXT
  5
147
330
1F
100
AcDbEntity
  8
TITLE
100
AcDbMText
 10
0.3323154765
 20
19.158618102
 30
0.0
 40
0.125
 41
0.0
 71
     2
 72
     1
  1
K
  7
SLDTEXTSTYLE1
 73
     1
 44
1.0
  0
MTEXT
  5
148
330
1F
100
AcDbEntity
  8
TITLE
100
AcDbMText
 10
89.6669611458
 20
19.158618102
 30
0.0
 40
0.125
 41
0.0
 71
     2
 72
     1
  1
K
  7
SLDTEXTSTYLE1
 73
     1
 44
1.0
  0
MTEXT
  5
149
330
1F
100
AcDbEntity
  8
TITLE
100
AcDbMText
 10
0.3312448739
 20
21.127122039
 30
0.0
 40
0.125
 41
0.0
 71
     2
 72
     1
  1
L
  7
SLDTEXTSTYLE1
 73
     1
 44
1.0
  0
MTEXT
  5
14A
330
1F
100
AcDbEntity
  8
TITLE
100
AcDbMText
 10
89.6658905432
 20
21.127122039
 30
0.0
 40
0.125
 41
0.0
 71
     2
 72
     1
  1
L
  7
SLDTEXTSTYLE1
 73
     1
 44
1.0
  0
MTEXT
  5
14B
330
1F
100
AcDbEntity
  8
TITLE
100
AcDbMText
 10
0.3283224192
 20
23.095625976
 30
0.0
 40
0.125
 41
0.0
 71
     2
 72
     1
  1
M
  7
SLDTEXTSTYLE1
 73
     1
 44
1.0
  0
MTEXT
  5
14C
330
1F
100
AcDbEntity
  8
TITLE
100
AcDbMText
 10
89.6629680885
 20
23.095625976
 30
0.0
 40
0.125
 41
0.0
 71
     2
 72
     1
  1
M
  7
SLDTEXTSTYLE1
 73
     1
 44
1.0
  0
MTEXT
  5
14D
330
1F
100
AcDbEntity
  8
TITLE
100
AcDbMText
 10
0.3315342276
 20
25.064129913
 30
0.0
 40
0.125
 41
0.0
 71
     2
 72
     1
  1
N
  7
SLDTEXTSTYLE1
 73
     1
 44
1.0
  0
MTEXT
  5
14E
330
1F
100
AcDbEntity
  8
TITLE
100
AcDbMText
 10
89.6661798969
 20
25.064129913
 30
0.0
 40
0.125
 41
0.0
 71
     2
 72
     1
  1
N
  7
SLDTEXTSTYLE1
 73
     1
 44
1.0
  0
MTEXT
  5
14F
330
1F
100
AcDbEntity
  8
TITLE
100
AcDbMText
 10
0.3321997349
 20
27.03263385
 30
0.0
 40
0.125
 41
0.0
 71
     2
 72
     1
  1
P
  7
SLDTEXTSTYLE1
 73
     1
 44
1.0
  0
MTEXT
  5
150
330
1F
100
AcDbEntity
  8
TITLE
100
AcDbMText
 10
89.6668454042
 20
27.03263385
 30
0.0
 40
0.125
 41
0.0
 71
     2
 72
     1
  1
P
  7
SLDTEXTSTYLE1
 73
     1
 44
1.0
  0
MTEXT
  5
151
330
1F
100
AcDbEntity
  8
TITLE
100
AcDbMText
 10
0.3309265867
 20
29.001137787
 30
0.0
 40
0.125
 41
0.0
 71
     2
 72
     1
  1
R
  7
SLDTEXTSTYLE1
 73
     1
 44
1.0
  0
MTEXT
  5
152
330
1F
100
AcDbEntity
  8
TITLE
100
AcDbMText
 10
89.665572256
 20
29.001137787
 30
0.0
 40
0.125
 41
0.0
 71
     2
 72
     1
  1
R
  7
SLDTEXTSTYLE1
 73
     1
 44
1.0
  0
MTEXT
  5
153
330
1F
100
AcDbEntity
  8
TITLE
100
AcDbMText
 10
0.3323010071
 20
30.969641724
 30
0.0
 40
0.125
 41
0.0
 71
     2
 72
     1
  1
T
  7
SLDTEXTSTYLE1
 73
     1
 44
1.0
  0
MTEXT
  5
154
330
1F
100
AcDbEntity
  8
TITLE
100
AcDbMText
 10
89.6669466764
 20
30.969641724
 30
0.0
 40
0.125
 41
0.0
 71
     2
 72
     1
  1
T
  7
SLDTEXTSTYLE1
 73
     1
 44
1.0
  0
MTEXT
  5
155
330
1F
100
AcDbEntity
  8
TITLE
100
AcDbMText
 10
0.3328507755
 20
32.9381456611
 30
0.0
 40
0.125
 41
0.0
 71
     2
 72
     1
  1
U
  7
SLDTEXTSTYLE1
 73
     1
 44
1.0
  0
MTEXT
  5
156
330
1F
100
AcDbEntity
  8
TITLE
100
AcDbMText
 10
89.6674964448
 20
32.9381456611
 30
0.0
 40
0.125
 41
0.0
 71
     2
 72
     1
  1
U
  7
SLDTEXTSTYLE1
 73
     1
 44
1.0
  0
MTEXT
  5
157
330
1F
100
AcDbEntity
  8
TITLE
100
AcDbMText
 10
0.3307529773
 20
34.9066495981
 30
0.0
 40
0.125
 41
0.0
 71
     2
 72
     1
  1
V
  7
SLDTEXTSTYLE1
 73
     1
 44
1.0
  0
MTEXT
  5
158
330
1F
100
AcDbEntity
  8
TITLE
100
AcDbMText
 10
89.6653986466
 20
34.9066495981
 30
0.0
 40
0.125
 41
0.0
 71
     2
 72
     1
  1
V
  7
SLDTEXTSTYLE1
 73
     1
 44
1.0
  0
MTEXT
  5
159
330
1F
100
AcDbEntity
  8
TITLE
100
AcDbMText
 10
0.3327784409
 20
36.8751535351
 30
0.0
 40
0.125
 41
0.0
 71
     2
 72
     1
  1
W
  7
SLDTEXTSTYLE1
 73
     1
 44
1.0
  0
MTEXT
  5
15A
330
1F
100
AcDbEntity
  8
TITLE
100
AcDbMText
 10
89.6674241102
 20
36.8751535351
 30
0.0
 40
0.125
 41
0.0
 71
     2
 72
     1
  1
W
  7
SLDTEXTSTYLE1
 73
     1
 44
1.0
  0
MTEXT
  5
15B
330
1F
100
AcDbEntity
  8
TITLE
100
AcDbMText
 10
0.3321997349
 20
38.8436574721
 30
0.0
 40
0.125
 41
0.0
 71
     2
 72
     1
  1
Y
  7
SLDTEXTSTYLE1
 73
     1
 44
1.0
  0
MTEXT
  5
15C
330
1F
100
AcDbEntity
  8
TITLE
100
AcDbMText
 10
89.6668454042
 20
38.8436574721
 30
0.0
 40
0.125
 41
0.0
 71
     2
 72
     1
  1
Y
  7
SLDTEXTSTYLE1
 73
     1
 44
1.0
  0
MTEXT
  5
15D
330
1F
100
AcDbEntity
  8
TITLE
100
AcDbMText
 10
0.3225787898
 20
40.8121614091
 30
0.0
 40
0.125
 41
0.0
 71
     2
 72
     1
  1
AA
  7
SLDTEXTSTYLE1
 73
     1
 44
1.0
  0
MTEXT
  5
15E
330
1F
100
AcDbEntity
  8
TITLE
100
AcDbMText
 10
89.6572244591
 20
40.8121614091
 30
0.0
 40
0.125
 41
0.0
 71
     2
 72
     1
  1
AA
  7
SLDTEXTSTYLE1
 73
     1
 44
1.0
  0
MTEXT
  5
15F
330
1F
100
AcDbEntity
  8
TITLE
100
AcDbMText
 10
0.3267020535
 20
42.7806653461
 30
0.0
 40
0.125
 41
0.0
 71
     2
 72
     1
  1
AB
  7
SLDTEXTSTYLE1
 73
     1
 44
1.0
  0
MTEXT
  5
160
330
1F
100
AcDbEntity
  8
TITLE
100
AcDbMText
 10
89.6613477228
 20
42.7806653461
 30
0.0
 40
0.125
 41
0.0
 71
     2
 72
     1
  1
AB
  7
SLDTEXTSTYLE1
 73
     1
 44
1.0
  0
MTEXT
  5
161
330
1F
100
AcDbEntity
  8
TITLE
100
AcDbMText
 10
0.3263258985
 20
44.7491692831
 30
0.0
 40
0.125
 41
0.0
 71
     2
 72
     1
  1
AC
  7
SLDTEXTSTYLE1
 73
     1
 44
1.0
  0
MTEXT
  5
162
330
1F
100
AcDbEntity
  8
TITLE
100
AcDbMText
 10
89.6609715678
 20
44.7491692831
 30
0.0
 40
0.125
 41
0.0
 71
     2
 72
     1
  1
AC
  7
SLDTEXTSTYLE1
 73
     1
 44
1.0
  0
MTEXT
  5
163
330
1F
100
AcDbEntity
  8
TITLE
100
AcDbMText
 10
0.3261378197
 20
46.6566495981
 30
0.0
 40
0.125
 41
0.0
 71
     2
 72
     1
  1
AD
  7
SLDTEXTSTYLE1
 73
     1
 44
1.0
  0
MTEXT
  5
164
330
1F
100
AcDbEntity
  8
TITLE
100
AcDbMText
 10
89.6607834889
 20
46.6566495981
 30
0.0
 40
0.125
 41
0.0
 71
     2
 72
     1
  1
AD
  7
SLDTEXTSTYLE1
 73
     1
 44
1.0
  0
MTEXT
  5
165
330
1F
100
AcDbEntity
  8
TITLE
100
AcDbMText
 10
1.0939393315
 20
0.4125551099
 30
0.0
 40
0.125
 41
0.0
 71
     2
 72
     1
  1
46
  7
SLDTEXTSTYLE1
 73
     1
 44
1.0
  0
MTEXT
  5
166
330
1F
100
AcDbEntity
  8
TITLE
100
AcDbMText
 10
1.0939393315
 20
47.7472007792
 30
0.0
 40
0.125
 41
0.0
 71
     2
 72
     1
  1
46
  7
SLDTEXTSTYLE1
 73
     1
 44
1.0
  0
MTEXT
  5
167
330
1F
100
AcDbEntity
  8
TITLE
100
AcDbMText
 10
2.674647993
 20
0.4125551099
 30
0.0
 40
0.125
 41
0.0
 71
     2
 72
     1
  1
45
  7
SLDTEXTSTYLE1
 73
     1
 44
1.0
  0
MTEXT
  5
168
330
1F
100
AcDbEntity
  8
TITLE
100
AcDbMText
 10
2.674647993
 20
47.7472007792
 30
0.0
 40
0.125
 41
0.0
 71
     2
 72
     1
  1
45
  7
SLDTEXTSTYLE1
 73
     1
 44
1.0
  0
MTEXT
  5
169
330
1F
100
AcDbEntity
  8
TITLE
100
AcDbMText
 10
4.64315193
 20
0.4125551099
 30
0.0
 40
0.125
 41
0.0
 71
     2
 72
     1
  1
44
  7
SLDTEXTSTYLE1
 73
     1
 44
1.0
  0
MTEXT
  5
16A
330
1F
100
AcDbEntity
  8
TITLE
100
AcDbMText
 10
4.64315193
 20
47.7472007792
 30
0.0
 40
0.125
 41
0.0
 71
     2
 72
     1
  1
44
  7
SLDTEXTSTYLE1
 73
     1
 44
1.0
  0
MTEXT
  5
16B
330
1F
100
AcDbEntity
  8
TITLE
100
AcDbMText
 10
6.611655867
 20
0.4125551099
 30
0.0
 40
0.125
 41
0.0
 71
     2
 72
     1
  1
43
  7
SLDTEXTSTYLE1
 73
     1
 44
1.0
  0
MTEXT
  5
16C
330
1F
100
AcDbEntity
  8
TITLE
100
AcDbMText
 10
6.611655867
 20
47.7472007792
 30
0.0
 40
0.125
 41
0.0
 71
     2
 72
     1
  1
43
  7
SLDTEXTSTYLE1
 73
     1
 44
1.0
  0
MTEXT
  5
16D
330
1F
100
AcDbEntity
  8
TITLE
100
AcDbMText
 10
8.580159804
 20
0.4125551099
 30
0.0
 40
0.125
 41
0.0
 71
     2
 72
     1
  1
42
  7
SLDTEXTSTYLE1
 73
     1
 44
1.0
  0
MTEXT
  5
16E
330
1F
100
AcDbEntity
  8
TITLE
100
AcDbMText
 10
8.580159804
 20
47.7472007792
 30
0.0
 40
0.125
 41
0.0
 71
     2
 72
     1
  1
42
  7
SLDTEXTSTYLE1
 73
     1
 44
1.0
  0
MTEXT
  5
16F
330
1F
100
AcDbEntity
  8
TITLE
100
AcDbMText
 10
10.548663741
 20
0.4125551099
 30
0.0
 40
0.125
 41
0.0
 71
     2
 72
     1
  1
41
  7
SLDTEXTSTYLE1
 73
     1
 44
1.0
  0
MTEXT
  5
170
330
1F
100
AcDbEntity
  8
TITLE
100
AcDbMText
 10
10.548663741
 20
47.7472007792
 30
0.0
 40
0.125
 41
0.0
 71
     2
 72
     1
  1
41
  7
SLDTEXTSTYLE1
 73
     1
 44
1.0
  0
MTEXT
  5
171
330
1F
100
AcDbEntity
  8
TITLE
100
AcDbMText
 10
12.517167678
 20
0.4125551099
 30
0.0
 40
0.125
 41
0.0
 71
     2
 72
     1
  1
40
  7
SLDTEXTSTYLE1
 73
     1
 44
1.0
  0
MTEXT
  5
172
330
1F
100
AcDbEntity
  8
TITLE
100
AcDbMText
 10
12.517167678
 20
47.7472007792
 30
0.0
 40
0.125
 41
0.0
 71
     2
 72
     1
  1
40
  7
SLDTEXTSTYLE1
 73
     1
 44
1.0
  0
MTEXT
  5
173
330
1F
100
AcDbEntity
  8
TITLE
100
AcDbMText
 10
14.485671615
 20
0.4125551099
 30
0.0
 40
0.125
 41
0.0
 71
     2
 72
     1
  1
39
  7
SLDTEXTSTYLE1
 73
     1
 44
1.0
  0
MTEXT
  5
174
330
1F
100
AcDbEntity
  8
TITLE
100
AcDbMText
 10
14.485671615
 20
47.7472007792
 30
0.0
 40
0.125
 41
0.0
 71
     2
 72
     1
  1
39
  7
SLDTEXTSTYLE1
 73
     1
 44
1.0
  0
MTEXT
  5
175
330
1F
100
AcDbEntity
  8
TITLE
100
AcDbMText
 10
16.454175552
 20
0.4125551099
 30
0.0
 40
0.125
 41
0.0
 71
     2
 72
     1
  1
38
  7
SLDTEXTSTYLE1
 73
     1
 44
1.0
  0
MTEXT
  5
176
330
1F
100
AcDbEntity
  8
TITLE
100
AcDbMText
 10
16.454175552
 20
47.7472007792
 30
0.0
 40
0.125
 41
0.0
 71
     2
 72
     1
  1
38
  7
SLDTEXTSTYLE1
 73
     1
 44
1.0
  0
MTEXT
  5
177
330
1F
100
AcDbEntity
  8
TITLE
100
AcDbMText
 10
18.422679489
 20
0.4125551099
 30
0.0
 40
0.125
 41
0.0
 71
     2
 72
     1
  1
37
  7
SLDTEXTSTYLE1
 73
     1
 44
1.0
  0
MTEXT
  5
178
330
1F
100
AcDbEntity
  8
TITLE
100
AcDbMText
 10
18.422679489
 20
47.7472007792
 30
0.0
 40
0.125
 41
0.0
 71
     2
 72
     1
  1
37
  7
SLDTEXTSTYLE1
 73
     1
 44
1.0
  0
MTEXT
  5
179
330
1F
100
AcDbEntity
  8
TITLE
100
AcDbMText
 10
20.391183426
 20
0.4125551099
 30
0.0
 40
0.125
 41
0.0
 71
     2
 72
     1
  1
36
  7
SLDTEXTSTYLE1
 73
     1
 44
1.0
  0
MTEXT
  5
17A
330
1F
100
AcDbEntity
  8
TITLE
100
AcDbMText
 10
20.391183426
 20
47.7472007792
 30
0.0
 40
0.125
 41
0.0
 71
     2
 72
     1
  1
36
  7
SLDTEXTSTYLE1
 73
     1
 44
1.0
  0
MTEXT
  5
17B
330
1F
100
AcDbEntity
  8
TITLE
100
AcDbMText
 10
22.359687363
 20
0.4125551099
 30
0.0
 40
0.125
 41
0.0
 71
     2
 72
     1
  1
35
  7
SLDTEXTSTYLE1
 73
     1
 44
1.0
  0
MTEXT
  5
17C
330
1F
100
AcDbEntity
  8
TITLE
100
AcDbMText
 10
22.359687363
 20
47.7472007792
 30
0.0
 40
0.125
 41
0.0
 71
     2
 72
     1
  1
35
  7
SLDTEXTSTYLE1
 73
     1
 44
1.0
  0
MTEXT
  5
17D
330
1F
100
AcDbEntity
  8
TITLE
100
AcDbMText
 10
24.3281913
 20
0.4125551099
 30
0.0
 40
0.125
 41
0.0
 71
     2
 72
     1
  1
34
  7
SLDTEXTSTYLE1
 73
     1
 44
1.0
  0
MTEXT
  5
17E
330
1F
100
AcDbEntity
  8
TITLE
100
AcDbMText
 10
24.3281913
 20
47.7472007792
 30
0.0
 40
0.125
 41
0.0
 71
     2
 72
     1
  1
34
  7
SLDTEXTSTYLE1
 73
     1
 44
1.0
  0
MTEXT
  5
17F
330
1F
100
AcDbEntity
  8
TITLE
100
AcDbMText
 10
26.2966952371
 20
0.4125551099
 30
0.0
 40
0.125
 41
0.0
 71
     2
 72
     1
  1
33
  7
SLDTEXTSTYLE1
 73
     1
 44
1.0
  0
MTEXT
  5
180
330
1F
100
AcDbEntity
  8
TITLE
100
AcDbMText
 10
26.2966952371
 20
47.7472007792
 30
0.0
 40
0.125
 41
0.0
 71
     2
 72
     1
  1
33
  7
SLDTEXTSTYLE1
 73
     1
 44
1.0
  0
MTEXT
  5
181
330
1F
100
AcDbEntity
  8
TITLE
100
AcDbMText
 10
28.2651991741
 20
0.4125551099
 30
0.0
 40
0.125
 41
0.0
 71
     2
 72
     1
  1
32
  7
SLDTEXTSTYLE1
 73
     1
 44
1.0
  0
MTEXT
  5
182
330
1F
100
AcDbEntity
  8
TITLE
100
AcDbMText
 10
28.2651991741
 20
47.7472007792
 30
0.0
 40
0.125
 41
0.0
 71
     2
 72
     1
  1
32
  7
SLDTEXTSTYLE1
 73
     1
 44
1.0
  0
MTEXT
  5
183
330
1F
100
AcDbEntity
  8
TITLE
100
AcDbMText
 10
30.2337031111
 20
0.4125551099
 30
0.0
 40
0.125
 41
0.0
 71
     2
 72
     1
  1
31
  7
SLDTEXTSTYLE1
 73
     1
 44
1.0
  0
MTEXT
  5
184
330
1F
100
AcDbEntity
  8
TITLE
100
AcDbMText
 10
30.2337031111
 20
47.7472007792
 30
0.0
 40
0.125
 41
0.0
 71
     2
 72
     1
  1
31
  7
SLDTEXTSTYLE1
 73
     1
 44
1.0
  0
MTEXT
  5
185
330
1F
100
AcDbEntity
  8
TITLE
100
AcDbMText
 10
32.2022070481
 20
0.4125551099
 30
0.0
 40
0.125
 41
0.0
 71
     2
 72
     1
  1
30
  7
SLDTEXTSTYLE1
 73
     1
 44
1.0
  0
MTEXT
  5
186
330
1F
100
AcDbEntity
  8
TITLE
100
AcDbMText
 10
32.2022070481
 20
47.7472007792
 30
0.0
 40
0.125
 41
0.0
 71
     2
 72
     1
  1
30
  7
SLDTEXTSTYLE1
 73
     1
 44
1.0
  0
MTEXT
  5
187
330
1F
100
AcDbEntity
  8
TITLE
100
AcDbMText
 10
34.1707109851
 20
0.4125551099
 30
0.0
 40
0.125
 41
0.0
 71
     2
 72
     1
  1
29
  7
SLDTEXTSTYLE1
 73
     1
 44
1.0
  0
MTEXT
  5
188
330
1F
100
AcDbEntity
  8
TITLE
100
AcDbMText
 10
34.1707109851
 20
47.7472007792
 30
0.0
 40
0.125
 41
0.0
 71
     2
 72
     1
  1
29
  7
SLDTEXTSTYLE1
 73
     1
 44
1.0
  0
MTEXT
  5
189
330
1F
100
AcDbEntity
  8
TITLE
100
AcDbMText
 10
36.1392149221
 20
0.4125551099
 30
0.0
 40
0.125
 41
0.0
 71
     2
 72
     1
  1
28
  7
SLDTEXTSTYLE1
 73
     1
 44
1.0
  0
MTEXT
  5
18A
330
1F
100
AcDbEntity
  8
TITLE
100
AcDbMText
 10
36.1392149221
 20
47.7472007792
 30
0.0
 40
0.125
 41
0.0
 71
     2
 72
     1
  1
28
  7
SLDTEXTSTYLE1
 73
     1
 44
1.0
  0
MTEXT
  5
18B
330
1F
100
AcDbEntity
  8
TITLE
100
AcDbMText
 10
38.1077188591
 20
0.4125551099
 30
0.0
 40
0.125
 41
0.0
 71
     2
 72
     1
  1
27
  7
SLDTEXTSTYLE1
 73
     1
 44
1.0
  0
MTEXT
  5
18C
330
1F
100
AcDbEntity
  8
TITLE
100
AcDbMText
 10
38.1077188591
 20
47.7472007792
 30
0.0
 40
0.125
 41
0.0
 71
     2
 72
     1
  1
27
  7
SLDTEXTSTYLE1
 73
     1
 44
1.0
  0
MTEXT
  5
18D
330
1F
100
AcDbEntity
  8
TITLE
100
AcDbMText
 10
40.0762227961
 20
0.4125551099
 30
0.0
 40
0.125
 41
0.0
 71
     2
 72
     1
  1
26
  7
SLDTEXTSTYLE1
 73
     1
 44
1.0
  0
MTEXT
  5
18E
330
1F
100
AcDbEntity
  8
TITLE
100
AcDbMText
 10
40.0762227961
 20
47.7472007792
 30
0.0
 40
0.125
 41
0.0
 71
     2
 72
     1
  1
26
  7
SLDTEXTSTYLE1
 73
     1
 44
1.0
  0
MTEXT
  5
18F
330
1F
100
AcDbEntity
  8
TITLE
100
AcDbMText
 10
42.0447267331
 20
0.4125551099
 30
0.0
 40
0.125
 41
0.0
 71
     2
 72
     1
  1
25
  7
SLDTEXTSTYLE1
 73
     1
 44
1.0
  0
MTEXT
  5
190
330
1F
100
AcDbEntity
  8
TITLE
100
AcDbMText
 10
42.0447267331
 20
47.7472007792
 30
0.0
 40
0.125
 41
0.0
 71
     2
 72
     1
  1
25
  7
SLDTEXTSTYLE1
 73
     1
 44
1.0
  0
MTEXT
  5
191
330
1F
100
AcDbEntity
  8
TITLE
100
AcDbMText
 10
44.0132306701
 20
0.4125551099
 30
0.0
 40
0.125
 41
0.0
 71
     2
 72
     1
  1
24
  7
SLDTEXTSTYLE1
 73
     1
 44
1.0
  0
MTEXT
  5
192
330
1F
100
AcDbEntity
  8
TITLE
100
AcDbMText
 10
44.0132306701
 20
47.7472007792
 30
0.0
 40
0.125
 41
0.0
 71
     2
 72
     1
  1
24
  7
SLDTEXTSTYLE1
 73
     1
 44
1.0
  0
MTEXT
  5
193
330
1F
100
AcDbEntity
  8
TITLE
100
AcDbMText
 10
45.9817346071
 20
0.4125551099
 30
0.0
 40
0.125
 41
0.0
 71
     2
 72
     1
  1
23
  7
SLDTEXTSTYLE1
 73
     1
 44
1.0
  0
MTEXT
  5
194
330
1F
100
AcDbEntity
  8
TITLE
100
AcDbMText
 10
45.9817346071
 20
47.7472007792
 30
0.0
 40
0.125
 41
0.0
 71
     2
 72
     1
  1
23
  7
SLDTEXTSTYLE1
 73
     1
 44
1.0
  0
MTEXT
  5
195
330
1F
100
AcDbEntity
  8
TITLE
100
AcDbMText
 10
47.9502385441
 20
0.4125551099
 30
0.0
 40
0.125
 41
0.0
 71
     2
 72
     1
  1
22
  7
SLDTEXTSTYLE1
 73
     1
 44
1.0
  0
MTEXT
  5
196
330
1F
100
AcDbEntity
  8
TITLE
100
AcDbMText
 10
47.9502385441
 20
47.7472007792
 30
0.0
 40
0.125
 41
0.0
 71
     2
 72
     1
  1
22
  7
SLDTEXTSTYLE1
 73
     1
 44
1.0
  0
MTEXT
  5
197
330
1F
100
AcDbEntity
  8
TITLE
100
AcDbMText
 10
49.9187424811
 20
0.4125551099
 30
0.0
 40
0.125
 41
0.0
 71
     2
 72
     1
  1
21
  7
SLDTEXTSTYLE1
 73
     1
 44
1.0
  0
MTEXT
  5
198
330
1F
100
AcDbEntity
  8
TITLE
100
AcDbMText
 10
49.9187424811
 20
47.7472007792
 30
0.0
 40
0.125
 41
0.0
 71
     2
 72
     1
  1
21
  7
SLDTEXTSTYLE1
 73
     1
 44
1.0
  0
MTEXT
  5
199
330
1F
100
AcDbEntity
  8
TITLE
100
AcDbMText
 10
51.8872464182
 20
0.4125551099
 30
0.0
 40
0.125
 41
0.0
 71
     2
 72
     1
  1
20
  7
SLDTEXTSTYLE1
 73
     1
 44
1.0
  0
MTEXT
  5
19A
330
1F
100
AcDbEntity
  8
TITLE
100
AcDbMText
 10
51.8872464182
 20
47.7472007792
 30
0.0
 40
0.125
 41
0.0
 71
     2
 72
     1
  1
20
  7
SLDTEXTSTYLE1
 73
     1
 44
1.0
  0
MTEXT
  5
19B
330
1F
100
AcDbEntity
  8
TITLE
100
AcDbMText
 10
53.8557503552
 20
0.4125551099
 30
0.0
 40
0.125
 41
0.0
 71
     2
 72
     1
  1
19
  7
SLDTEXTSTYLE1
 73
     1
 44
1.0
  0
MTEXT
  5
19C
330
1F
100
AcDbEntity
  8
TITLE
100
AcDbMText
 10
53.8557503552
 20
47.7472007792
 30
0.0
 40
0.125
 41
0.0
 71
     2
 72
     1
  1
19
  7
SLDTEXTSTYLE1
 73
     1
 44
1.0
  0
MTEXT
  5
19D
330
1F
100
AcDbEntity
  8
TITLE
100
AcDbMText
 10
55.8242542922
 20
0.4125551099
 30
0.0
 40
0.125
 41
0.0
 71
     2
 72
     1
  1
18
  7
SLDTEXTSTYLE1
 73
     1
 44
1.0
  0
MTEXT
  5
19E
330
1F
100
AcDbEntity
  8
TITLE
100
AcDbMText
 10
55.8242542922
 20
47.7472007792
 30
0.0
 40
0.125
 41
0.0
 71
     2
 72
     1
  1
18
  7
SLDTEXTSTYLE1
 73
     1
 44
1.0
  0
MTEXT
  5
19F
330
1F
100
AcDbEntity
  8
TITLE
100
AcDbMText
 10
57.7927582292
 20
0.4125551099
 30
0.0
 40
0.125
 41
0.0
 71
     2
 72
     1
  1
17
  7
SLDTEXTSTYLE1
 73
     1
 44
1.0
  0
MTEXT
  5
1A0
330
1F
100
AcDbEntity
  8
TITLE
100
AcDbMText
 10
57.7927582292
 20
47.7472007792
 30
0.0
 40
0.125
 41
0.0
 71
     2
 72
     1
  1
17
  7
SLDTEXTSTYLE1
 73
     1
 44
1.0
  0
MTEXT
  5
1A1
330
1F
100
AcDbEntity
  8
TITLE
100
AcDbMText
 10
59.7612621662
 20
0.4125551099
 30
0.0
 40
0.125
 41
0.0
 71
     2
 72
     1
  1
16
  7
SLDTEXTSTYLE1
 73
     1
 44
1.0
  0
MTEXT
  5
1A2
330
1F
100
AcDbEntity
  8
TITLE
100
AcDbMText
 10
59.7612621662
 20
47.7472007792
 30
0.0
 40
0.125
 41
0.0
 71
     2
 72
     1
  1
16
  7
SLDTEXTSTYLE1
 73
     1
 44
1.0
  0
MTEXT
  5
1A3
330
1F
100
AcDbEntity
  8
TITLE
100
AcDbMText
 10
61.7297661032
 20
0.4125551099
 30
0.0
 40
0.125
 41
0.0
 71
     2
 72
     1
  1
15
  7
SLDTEXTSTYLE1
 73
     1
 44
1.0
  0
MTEXT
  5
1A4
330
1F
100
AcDbEntity
  8
TITLE
100
AcDbMText
 10
61.7297661032
 20
47.7472007792
 30
0.0
 40
0.125
 41
0.0
 71
     2
 72
     1
  1
15
  7
SLDTEXTSTYLE1
 73
     1
 44
1.0
  0
MTEXT
  5
1A5
330
1F
100
AcDbEntity
  8
TITLE
100
AcDbMText
 10
63.6982700402
 20
0.4125551099
 30
0.0
 40
0.125
 41
0.0
 71
     2
 72
     1
  1
14
  7
SLDTEXTSTYLE1
 73
     1
 44
1.0
  0
MTEXT
  5
1A6
330
1F
100
AcDbEntity
  8
TITLE
100
AcDbMText
 10
63.6982700402
 20
47.7472007792
 30
0.0
 40
0.125
 41
0.0
 71
     2
 72
     1
  1
14
  7
SLDTEXTSTYLE1
 73
     1
 44
1.0
  0
MTEXT
  5
1A7
330
1F
100
AcDbEntity
  8
TITLE
100
AcDbMText
 10
65.6667739772
 20
0.4125551099
 30
0.0
 40
0.125
 41
0.0
 71
     2
 72
     1
  1
13
  7
SLDTEXTSTYLE1
 73
     1
 44
1.0
  0
MTEXT
  5
1A8
330
1F
100
AcDbEntity
  8
TITLE
100
AcDbMText
 10
65.6667739772
 20
47.7472007792
 30
0.0
 40
0.125
 41
0.0
 71
     2
 72
     1
  1
13
  7
SLDTEXTSTYLE1
 73
     1
 44
1.0
  0
MTEXT
  5
1A9
330
1F
100
AcDbEntity
  8
TITLE
100
AcDbMText
 10
67.6352779142
 20
0.4125551099
 30
0.0
 40
0.125
 41
0.0
 71
     2
 72
     1
  1
12
  7
SLDTEXTSTYLE1
 73
     1
 44
1.0
  0
MTEXT
  5
1AA
330
1F
100
AcDbEntity
  8
TITLE
100
AcDbMText
 10
67.6352779142
 20
47.7472007792
 30
0.0
 40
0.125
 41
0.0
 71
     2
 72
     1
  1
12
  7
SLDTEXTSTYLE1
 73
     1
 44
1.0
  0
MTEXT
  5
1AB
330
1F
100
AcDbEntity
  8
TITLE
100
AcDbMText
 10
69.6037818512
 20
0.4125551099
 30
0.0
 40
0.125
 41
0.0
 71
     2
 72
     1
  1
11
  7
SLDTEXTSTYLE1
 73
     1
 44
1.0
  0
MTEXT
  5
1AC
330
1F
100
AcDbEntity
  8
TITLE
100
AcDbMText
 10
69.6037818512
 20
47.7472007792
 30
0.0
 40
0.125
 41
0.0
 71
     2
 72
     1
  1
11
  7
SLDTEXTSTYLE1
 73
     1
 44
1.0
  0
MTEXT
  5
1AD
330
1F
100
AcDbEntity
  8
TITLE
100
AcDbMText
 10
71.5722857882
 20
0.4125551099
 30
0.0
 40
0.125
 41
0.0
 71
     2
 72
     1
  1
10
  7
SLDTEXTSTYLE1
 73
     1
 44
1.0
  0
MTEXT
  5
1AE
330
1F
100
AcDbEntity
  8
TITLE
100
AcDbMText
 10
71.5722857882
 20
47.7472007792
 30
0.0
 40
0.125
 41
0.0
 71
     2
 72
     1
  1
10
  7
SLDTEXTSTYLE1
 73
     1
 44
1.0
  0
MTEXT
  5
1AF
330
1F
100
AcDbEntity
  8
TITLE
100
AcDbMText
 10
73.5420484059
 20
0.4125551099
 30
0.0
 40
0.125
 41
0.0
 71
     2
 72
     1
  1
9
  7
SLDTEXTSTYLE1
 73
     1
 44
1.0
  0
MTEXT
  5
1B0
330
1F
100
AcDbEntity
  8
TITLE
100
AcDbMText
 10
73.5420484059
 20
47.7472007792
 30
0.0
 40
0.125
 41
0.0
 71
     2
 72
     1
  1
9
  7
SLDTEXTSTYLE1
 73
     1
 44
1.0
  0
MTEXT
  5
1B1
330
1F
100
AcDbEntity
  8
TITLE
100
AcDbMText
 10
75.5105523429
 20
0.4125551099
 30
0.0
 40
0.125
 41
0.0
 71
     2
 72
     1
  1
8
  7
SLDTEXTSTYLE1
 73
     1
 44
1.0
  0
MTEXT
  5
1B2
330
1F
100
AcDbEntity
  8
TITLE
100
AcDbMText
 10
75.5105523429
 20
47.7472007792
 30
0.0
 40
0.125
 41
0.0
 71
     2
 72
     1
  1
8
  7
SLDTEXTSTYLE1
 73
     1
 44
1.0
  0
MTEXT
  5
1B3
330
1F
100
AcDbEntity
  8
TITLE
100
AcDbMText
 10
77.4790562799
 20
0.4125551099
 30
0.0
 40
0.125
 41
0.0
 71
     2
 72
     1
  1
7
  7
SLDTEXTSTYLE1
 73
     1
 44
1.0
  0
MTEXT
  5
1B4
330
1F
100
AcDbEntity
  8
TITLE
100
AcDbMText
 10
77.4790562799
 20
47.7472007792
 30
0.0
 40
0.125
 41
0.0
 71
     2
 72
     1
  1
7
  7
SLDTEXTSTYLE1
 73
     1
 44
1.0
  0
MTEXT
  5
1B5
330
1F
100
AcDbEntity
  8
TITLE
100
AcDbMText
 10
79.447560217
 20
0.4125551099
 30
0.0
 40
0.125
 41
0.0
 71
     2
 72
     1
  1
6
  7
SLDTEXTSTYLE1
 73
     1
 44
1.0
  0
MTEXT
  5
1B6
330
1F
100
AcDbEntity
  8
TITLE
100
AcDbMText
 10
79.447560217
 20
47.7472007792
 30
0.0
 40
0.125
 41
0.0
 71
     2
 72
     1
  1
6
  7
SLDTEXTSTYLE1
 73
     1
 44
1.0
  0
MTEXT
  5
1B7
330
1F
100
AcDbEntity
  8
TITLE
100
AcDbMText
 10
81.416064154
 20
0.4125551099
 30
0.0
 40
0.125
 41
0.0
 71
     2
 72
     1
  1
5
  7
SLDTEXTSTYLE1
 73
     1
 44
1.0
  0
MTEXT
  5
1B8
330
1F
100
AcDbEntity
  8
TITLE
100
AcDbMText
 10
81.416064154
 20
47.7472007792
 30
0.0
 40
0.125
 41
0.0
 71
     2
 72
     1
  1
5
  7
SLDTEXTSTYLE1
 73
     1
 44
1.0
  0
MTEXT
  5
1B9
330
1F
100
AcDbEntity
  8
TITLE
100
AcDbMText
 10
83.384568091
 20
0.4125551099
 30
0.0
 40
0.125
 41
0.0
 71
     2
 72
     1
  1
4
  7
SLDTEXTSTYLE1
 73
     1
 44
1.0
  0
MTEXT
  5
1BA
330
1F
100
AcDbEntity
  8
TITLE
100
AcDbMText
 10
83.384568091
 20
47.7472007792
 30
0.0
 40
0.125
 41
0.0
 71
     2
 72
     1
  1
4
  7
SLDTEXTSTYLE1
 73
     1
 44
1.0
  0
MTEXT
  5
1BB
330
1F
100
AcDbEntity
  8
TITLE
100
AcDbMText
 10
85.353072028
 20
0.4125551099
 30
0.0
 40
0.125
 41
0.0
 71
     2
 72
     1
  1
3
  7
SLDTEXTSTYLE1
 73
     1
 44
1.0
  0
MTEXT
  5
1BC
330
1F
100
AcDbEntity
  8
TITLE
100
AcDbMText
 10
85.353072028
 20
47.7472007792
 30
0.0
 40
0.125
 41
0.0
 71
     2
 72
     1
  1
3
  7
SLDTEXTSTYLE1
 73
     1
 44
1.0
  0
MTEXT
  5
1BD
330
1F
100
AcDbEntity
  8
TITLE
100
AcDbMText
 10
87.321575965
 20
0.4125551099
 30
0.0
 40
0.125
 41
0.0
 71
     2
 72
     1
  1
2
  7
SLDTEXTSTYLE1
 73
     1
 44
1.0
  0
MTEXT
  5
1BE
330
1F
100
AcDbEntity
  8
TITLE
100
AcDbMText
 10
87.321575965
 20
47.7472007792
 30
0.0
 40
0.125
 41
0.0
 71
     2
 72
     1
  1
2
  7
SLDTEXTSTYLE1
 73
     1
 44
1.0
  0
MTEXT
  5
1BF
330
1F
100
AcDbEntity
  8
TITLE
100
AcDbMText
 10
88.9022846264
 20
0.4125551099
 30
0.0
 40
0.125
 41
0.0
 71
     2
 72
     1
  1
1
  7
SLDTEXTSTYLE1
 73
     1
 44
1.0
  0
MTEXT
  5
1C0
330
1F
100
AcDbEntity
  8
TITLE
100
AcDbMText
 10
88.9022846264
 20
47.7472007792
 30
0.0
 40
0.125
 41
0.0
 71
     2
 72
     1
  1
1
  7
SLDTEXTSTYLE1
 73
     1
 44
1.0
  0
LINE
  5
1C1
330
1F
100
AcDbEntity
  8
0
  6
SLD-Solid
 62
     7
370
    25
100
AcDbLine
 10
31.4008723562
 20
17.1083551285
 30
0.0
 11
29.9008723562
 21
17.1083551285
 31
0.0
  0
LINE
  5
1C2
330
1F
100
AcDbEntity
  8
0
  6
SLD-Solid
 62
     7
370
    25
100
AcDbLine
 10
29.9008723562
 20
15.8583551285
 30
0.0
 11
31.4008723562
 21
15.8583551285
 31
0.0
  0
LINE
  5
1C3
330
1F
100
AcDbEntity
  8
0
  6
SLD-Solid
 62
     7
370
    25
100
AcDbLine
 10
14.9008723562
 20
15.8583551285
 30
0.0
 11
29.9008723562
 21
15.8583551285
 31
0.0
  0
LINE
  5
1C4
330
1F
100
AcDbEntity
  8
0
  6
SLD-Solid
 62
     7
370
    25
100
AcDbLine
 10
29.9008723562
 20
17.1083551285
 30
0.0
 11
14.9008723562
 21
17.1083551285
 31
0.0
  0
LINE
  5
1C5
330
1F
100
AcDbEntity
  8
0
  6
SLD-Solid
 62
     7
370
    25
100
AcDbLine
 10
14.9008723562
 20
17.1083551285
 30
0.0
 11
13.4008723562
 21
17.1083551285
 31
0.0
  0
LINE
  5
1C6
330
1F
100
AcDbEntity
  8
0
  6
SLD-Solid
 62
     7
370
    25
100
AcDbLine
 10
13.4008723562
 20
15.8583551285
 30
0.0
 11
14.9008723562
 21
15.8583551285
 31
0.0
  0
LINE
  5
1C7
330
1F
100
AcDbEntity
  8
0
  6
SLD-Solid
 62
     7
370
    25
100
AcDbLine
 10
14.9008723562
 20
15.8583551285
 30
0.0
 11
29.9008723562
 21
15.8583551285
 31
0.0
  0
LINE
  5
1C8
330
1F
100
AcDbEntity
  8
0
  6
SLD-Solid
 62
     7
370
    25
100
AcDbLine
 10
29.9008723562
 20
17.1083551285
 30
0.0
 11
14.9008723562
 21
17.1083551285
 31
0.0
  0
ARC
  5
1C9
330
1F
100
AcDbEntity
  8
0
  6
SLD-Solid
 62
     7
370
    25
100
AcDbCircle
 10
31.4008723562
 20
16.4833551285
 30
0.0
 40
0.625
100
AcDbArc
 50
270.0
 51
90.0
  0
ARC
  5
1CA
330
1F
100
AcDbEntity
  8
0
  6
SLD-Solid
 62
     7
370
    25
100
AcDbCircle
 10
13.4008723562
 20
16.4833551285
 30
0.0
 40
0.625
100
AcDbArc
 50
90.0
 51
270.0
  0
ARC
  5
1CB
330
1F
100
AcDbEntity
  8
0
  6
SLD-Solid
 62
     7
370
    25
100
AcDbCircle
 10
13.4008723562
 20
16.4833551285
 30
0.0
 40
1.530000000000001
100
AcDbArc
 50
24.1104367824
 51
180.0
  0
ARC
  5
1CC
330
1F
100
AcDbEntity
  8
0
  6
SLD-Solid
 62
     7
370
    25
100
AcDbCircle
 10
13.4008723562
 20
16.4833551285
 30
0.0
 40
1.530000000000001
100
AcDbArc
 50
180.0
 51
335.8895632176
  0
ARC
  5
1CD
330
1F
100
AcDbEntity
  8
0
  6
SLD-Solid
 62
     7
370
    25
100
AcDbCircle
 10
31.4008723562
 20
16.4833551285
 30
0.0
 40
1.530000000000001
100
AcDbArc
 50
204.1104367824
 51
155.8895632176
  0
ARC
  5
1CE
330
1F
100
AcDbEntity
  8
0
  6
SLD-Solid
 62
     7
370
    25
100
AcDbCircle
 10
13.4008723562
 20
16.4833551285
 30
0.0
 40
0.6799999999999995
100
AcDbArc
 50
66.7974269428
 51
293.2025730572
  0
ARC
  5
1CF
330
1F
100
AcDbEntity
  8
0
  6
SLD-Solid
 62
     7
370
    25
100
AcDbCircle
 10
13.4008723562
 20
16.4833551285
 30
0.0
 40
1.565097172078314
100
AcDbArc
 50
228.940336198
 51
336.463310603
  0
ARC
  5
1D0
330
1F
100
AcDbEntity
  8
0
  6
SLD-Solid
 62
     7
370
    25
100
AcDbCircle
 10
13.4008723562
 20
16.4833551285
 30
0.0
 40
1.565097172078314
100
AcDbArc
 50
23.536689397
 51
228.940336198
  0
ARC
  5
1D1
330
1F
100
AcDbEntity
  8
0
  6
SLD-Solid
 62
     7
370
    25
100
AcDbCircle
 10
31.4008723562
 20
16.4833551285
 30
0.0
 40
0.6800000000000003
100
AcDbArc
 50
41.5114179134
 51
113.2025730572
  0
ARC
  5
1D2
330
1F
100
AcDbEntity
  8
0
  6
SLD-Solid
 62
     7
370
    25
100
AcDbCircle
 10
31.4008723562
 20
16.4833551285
 30
0.0
 40
0.6799999999999988
100
AcDbArc
 50
246.7974269428
 51
41.5114179134
  0
ARC
  5
1D3
330
1F
100
AcDbEntity
  8
0
  6
SLD-Solid
 62
     7
370
    25
100
AcDbCircle
 10
31.4008723562
 20
16.4833551285
 30
0.0
 40
1.565097172078313
100
AcDbArc
 50
221.5114179134
 51
156.463310603
  0
ARC
  5
1D4
330
1F
100
AcDbEntity
  8
0
  6
SLD-Solid
 62
     7
370
    25
100
AcDbCircle
 10
31.4008723562
 20
16.4833551285
 30
0.0
 40
1.565097172078313
100
AcDbArc
 50
203.536689397
 51
221.5114179134
  0
HATCH
  5
1D5
330
1F
100
AcDbEntity
  8
0
  6
Continuous
 62
     7
100
AcDbHatch
 10
0.0
 20
0.0
 30
0.0
210
0.0
220
0.0
230
1.0
  2
DOTS
 70
     0
 71
     0
 91
        1
 92
        0
 93
        4
 72
     1
 10
29.40087235620011
 20
15.85835512849034
 11
29.40087235620011
 21
17.10835512849034
 72
     1
 10
29.40087235620011
 20
17.10835512849034
 11
15.40087235620011
 21
17.10835512849034
 72
     1
 10
15.40087235620011
 20
17.10835512849034
 11
15.40087235620011
 21
15.85835512849034
 72
     1
 10
15.40087235620011
 20
15.85835512849034
 11
29.40087235620011
 21
15.85835512849034
 97
        0
 75
     0
 76
     1
 52
0.0
 41
2.6666666667
 77
     0
 78
     1
 53
0.0
 43
0.0
 44
0.0
 45
0.0833333333333333
 46
0.1666666666666667
 79
     2
 49
0.0
 49
-0.1666666666666667
 98
        1
 10
0.0
 20
0.0
  0
DIMENSION
  5
1D6
330
1F
100
AcDbEntity
  8
DIMS
100
AcDbDimension
  2
_D
 10
29.4008723562
 20
18.4096683103
 30
0.0
 11
22.7235280316
 21
18.4096683103
 31
0.0
 70
   160
  1
peened area
 71
     2
 42
-1.0
  3
SLDDIMSTYLE0
100
AcDbAlignedDimension
 13
15.4008723562
 23
17.1083551285
 33
0.0
 14
29.4008723562
 24
17.1083551285
 34
0.0
 50
0.0
100
AcDbRotatedDimension
  0
DIMENSION
  5
1E8
330
1F
100
AcDbEntity
  8
DIMS
100
AcDbDimension
  2
_D_1
 10
29.717605019
 20
15.8583551285
 30
0.0
 11
29.717605019
 21
14.6409816521
 31
0.0
 70
   160
  1
<>
 71
     2
 42
-1.0
  3
SLDDIMSTYLE1
100
AcDbAlignedDimension
 13
31.4008723562
 23
17.1083551285
 33
0.0
 14
29.9008723562
 24
15.8583551285
 34
0.0
 50
90.0
100
AcDbRotatedDimension
  0
DIMENSION
  5
1F7
330
1F
100
AcDbEntity
  8
DIMS
100
AcDbDimension
  2
_D_2
 10
13.4008723562
 20
20.267438406
 30
0.0
 11
23.0270679292
 21
20.267438406
 31
0.0
 70
   160
  1
<>
 71
     2
 42
-1.0
  3
SLDDIMSTYLE0
100
AcDbAlignedDimension
 13
31.4008723562
 23
16.4833551285
 33
0.0
 14
13.4008723562
 24
16.4833551285
 34
0.0
 50
0.0
100
AcDbRotatedDimension
  0
MTEXT
  5
202
330
1F
100
AcDbEntity
  8
NOTES
100
AcDbMText
 10
13.8136205441
 20
14.458976022
 30
0.0
 40
0.5
 41
0.0
 71
     1
 72
     1
  1
Front view
  7
SLDTEXTSTYLE1
 73
     1
 44
1.0
  0
LINE
  5
203
330
1F
100
AcDbEntity
  8
0
  6
SLD-Solid
 62
     7
370
    25
100
AcDbLine
 10
57.6629691929
 20
18.0133551285
 30
0.0
 11
57.6488895
 21
18.0133551285
 31
0.0
  0
LINE
  5
204
330
1F
100
AcDbEntity
  8
0
  6
SLD-Solid
 62
     7
370
    25
100
AcDbLine
 10
57.6488895
 20
14.9533551285
 30
0.0
 11
57.6629691929
 21
14.9533551285
 31
0.0
  0
LINE
  5
205
330
1F
100
AcDbEntity
  8
0
  6
SLD-Solid
 62
     7
370
    25
100
AcDbLine
 10
57.4938895
 20
17.1083551285
 30
0.0
 11
55.9938895
 21
17.1083551285
 31
0.0
  0
LINE
  5
206
330
1F
100
AcDbEntity
  8
0
  6
SLD-Solid
 62
     7
370
    25
100
AcDbLine
 10
55.9938895
 20
15.8583551285
 30
0.0
 11
57.4938895
 21
15.8583551285
 31
0.0
  0
LINE
  5
207
330
1F
100
AcDbEntity
  8
0
  6
SLD-Solid
 62
     7
370
    25
100
AcDbLine
 10
57.4938895
 20
15.8583551285
 30
0.0
 11
57.6488895
 21
15.8583551285
 31
0.0
  0
LINE
  5
208
330
1F
100
AcDbEntity
  8
0
  6
SLD-Solid
 62
     7
370
    25
100
AcDbLine
 10
57.6488895
 20
17.1083551285
 30
0.0
 11
57.4938895
 21
17.1083551285
 31
0.0
  0
LINE
  5
209
330
1F
100
AcDbEntity
  8
0
  6
SLD-Solid
 62
     7
370
    25
100
AcDbLine
 10
57.4938895
 20
15.8583551285
 30
0.0
 11
57.6488895
 21
15.8583551285
 31
0.0
  0
LINE
  5
20A
330
1F
100
AcDbEntity
  8
0
  6
SLD-Solid
 62
     7
370
    25
100
AcDbLine
 10
57.6488895
 20
17.1083551285
 30
0.0
 11
57.4938895
 21
17.1083551285
 31
0.0
  0
LINE
  5
20B
330
1F
100
AcDbEntity
  8
0
  6
SLD-Solid
 62
     7
370
    25
100
AcDbLine
 10
58.1176680176
 20
14.9182579564
 30
0.0
 11
58.1188895
 21
14.9532366354
 31
0.0
  0
LINE
  5
20C
330
1F
100
AcDbEntity
  8
0
  6
SLD-Solid
 62
     7
370
    25
100
AcDbLine
 10
58.1188895
 20
18.0134736216
 30
0.0
 11
58.1176680176
 21
18.0484523006
 31
0.0
  0
LINE
  5
20D
330
1F
100
AcDbEntity
  8
0
  6
SLD-Solid
 62
     7
370
    25
100
AcDbLine
 10
58.1176680176
 20
18.0484523006
 30
0.0
 11
57.7040330291
 21
18.0340078485
 31
0.0
  0
LINE
  5
20E
330
1F
100
AcDbEntity
  8
0
  6
SLD-Solid
 62
     7
370
    25
100
AcDbLine
 10
57.7040330291
 20
14.9327024085
 30
0.0
 11
58.1176680176
 21
14.9182579564
 31
0.0
  0
ARC
  5
20F
330
1F
100
AcDbEntity
  8
0
  6
SLD-Solid
 62
     7
370
    25
100
AcDbCircle
 10
57.7059525014
 20
14.987668904
 30
0.0
 40
0.055
100
AcDbArc
 50
218.6005300927
 51
268.0
  0
ARC
  5
210
330
1F
100
AcDbEntity
  8
0
  6
SLD-Solid
 62
     7
370
    25
100
AcDbCircle
 10
57.7059525014
 20
17.979041353
 30
0.0
 40
0.0549999999999983
100
AcDbArc
 50
92.0
 51
141.3994699073
  0
LINE
  5
211
330
1F
100
AcDbEntity
  8
0
  6
SLD-Solid
 62
     7
370
    25
100
AcDbLine
 10
57.6488895
 20
18.0133551285
 30
0.0
 11
57.6488895
 21
14.9533551285
 31
0.0
  0
ARC
  5
212
330
1F
100
AcDbEntity
  8
0
  6
SLD-Solid
 62
     7
370
    25
100
AcDbCircle
 10
55.9938895
 20
16.4833551285
 30
0.0
 40
0.625
100
AcDbArc
 50
90.0
 51
270.0
  0
LINE
  5
213
330
1F
100
AcDbEntity
  8
0
  6
SLD-Solid
 62
     7
370
    25
100
AcDbLine
 10
58.1188895
 20
14.9532366354
 30
0.0
 11
58.1188895
 21
18.0134736216
 31
0.0
  0
LINE
  5
214
330
1F
100
AcDbEntity
  8
0
  6
SLD-Solid
 62
     7
370
    25
100
AcDbLine
 10
58.1176680176
 20
14.9182579564
 30
0.0
 11
58.1176680176
 21
18.0484523006
 31
0.0
  0
DIMENSION
  5
215
330
1F
100
AcDbEntity
  8
DIMS
100
AcDbDimension
  2
_D_3
 10
58.1188895
 20
19.0863360437
 30
0.0
 11
56.9757950357
 21
19.0863360437
 31
0.0
 70
   160
  1
<>
 71
     2
 42
-1.0
  3
SLDDIMSTYLE2
100
AcDbAlignedDimension
 13
55.3688895
 23
16.4833551285
 33
0.0
 14
58.1188895
 24
17.4982202129
 34
0.0
100
AcDbRotatedDimension
  0
DIMENSION
  5
225
330
1F
100
AcDbEntity
  8
DIMS
100
AcDbDimension
  2
_D_4
 10
57.6488895
 20
17.8455505283
 30
0.0
 11
60.0540806563
 21
17.8455505283
 31
0.0
 70
   160
  1
<>
 71
     2
 42
-1.0
  3
SLDDIMSTYLE1
100
AcDbAlignedDimension
 13
58.1176680176
 23
18.0484523006
 33
0.0
 14
57.6488895
 24
18.0133551285
 34
0.0
100
AcDbRotatedDimension
  0
MTEXT
  5
233
330
1F
100
AcDbEntity
  8
NOTES
100
AcDbMText
 10
55.4458972085
 20
13.9944306426
 30
0.0
 40
0.5
 41
0.0
 71
     1
 72
     1
  1
side view
  7
SLDTEXTSTYLE1
 73
     1
 44
1.0
  0
SPLINE
  5
234
330
1F
100
AcDbEntity
  8
0
  6
SLD-Solid
 62
     7
370
    25
100
AcDbSpline
210
0.0
220
0.0
230
1.0
 70
     8
 71
     3
 72
    25
 73
    21
 74
     0
 42
0.00000001
 43
0.00000001
 40
0.0
 40
0.0
 40
0.0
 40
0.0
 40
0.0299263981434812
 40
0.0860295894239388
 40
0.1428761399335943
 40
0.2006677724135477
 40
0.259345622457944
 40
0.3187975281041822
 40
0.3788792060917479
 40
0.4394288160407612
 40
0.5002759494011291
 40
0.561246882127275
 40
0.6221383392496688
 40
0.6827498352033825
 40
0.7429153489001189
 40
0.8024795895352449
 40
0.8613065642803273
 40
0.9192936690600545
 40
0.9763932311445849
 40
0.9999999999999999
 40
0.9999999999999999
 40
0.9999999999999999
 40
0.9999999999999999
 10
76.38618390138315
 20
24.75794664605079
 30
0.0
 10
76.37643739582705
 20
24.75247779849051
 30
0.0
 10
76.34841906006577
 20
24.7367564708527
 30
0.0
 10
76.29420078637656
 20
24.71085034727239
 30
0.0
 10
76.22110904925121
 20
24.68169840305161
 30
0.0
 10
76.13894833979178
 20
24.65499381714796
 30
0.0
 10
76.04890359948192
 20
24.63171386809373
 30
0.0
 10
75.95220869487265
 20
24.6126965756365
 30
0.0
 10
75.85033306554757
 20
24.59861536034941
 30
0.0
 10
75.74485493584676
 20
24.58996555038841
 30
0.0
 10
75.63744438270668
 20
24.58706082734898
 30
0.0
 10
75.52983859318987
 20
24.5900293294348
 30
0.0
 10
75.42380872982403
 20
24.59880587622515
 30
0.0
 10
75.32110681710103
 20
24.61312618144164
 30
0.0
 10
75.22340657603934
 20
24.63252893135843
 30
0.0
 10
75.13228842953541
 20
24.65635580999961
 30
0.0
 10
75.0491394644804
 20
24.68375218006042
 30
0.0
 10
74.97537523039034
 20
24.71364890961123
 30
0.0
 10
74.92357903217062
 20
24.7388936348003
 30
0.0
 10
74.89745430306151
 20
24.75363481912328
 30
0.0
 10
74.88981276572105
 20
24.75794664605079
 30
0.0
  0
SPLINE
  5
235
330
1F
100
AcDbEntity
  8
0
  6
SLD-Solid
 62
     7
370
    25
100
AcDbSpline
210
0.0
220
0.0
230
1.0
 70
     8
 71
     3
 72
    26
 73
    22
 74
     0
 42
0.00000001
 43
0.00000001
 40
0.0
 40
0.0
 40
0.0
 40
0.0
 40
0.0315368870639624
 40
0.0870998342856291
 40
0.1426391836259004
 40
0.1981184970500325
 40
0.253436046342073
 40
0.3085562758036984
 40
0.3634889875597592
 40
0.4182725465082988
 40
0.4729622099006614
 40
0.5276228392726292
 40
0.5823244460440019
 40
0.6371159357898174
 40
0.6920708862484037
 40
0.7472612012902703
 40
0.8027528461509148
 40
0.8585984211468896
 40
0.914824614179015
 40
0.9714127012306564
 40
1.0
 40
1.0
 40
1.0
 40
1.0
 10
74.26486355782352
 20
23.67538556807494
 30
0.0
 10
74.28941870373887
 20
23.66161211757029
 30
0.0
 10
74.35723608646754
 20
23.62357205185097
 30
0.0
 10
74.47415280616815
 20
23.56774429827717
 30
0.0
 10
74.61678148125023
 20
23.51017007230402
 30
0.0
 10
74.7650848078404
 20
23.46085550736233
 30
0.0
 10
74.9179760618949
 20
23.41972417065072
 30
0.0
 10
75.07452281515393
 20
23.38685318060493
 30
0.0
 10
75.23383067804032
 20
23.36223092541162
 30
0.0
 10
75.39507788183809
 20
23.34584440689503
 30
0.0
 10
75.55747775110252
 20
23.33767717231314
 30
0.0
 10
75.72026805354896
 20
23.33772101815428
 30
0.0
 10
75.88267738624869
 20
23.34597773172743
 30
0.0
 10
76.04394514291575
 20
23.3624581451316
 30
0.0
 10
76.20331838472094
 20
23.38718685168076
 30
0.0
 10
76.3600728221205
 20
23.42020877454044
 30
0.0
 10
76.51346249907938
 20
23.46160648279912
 30
0.0
 10
76.66275705467768
 20
23.51144124941601
 30
0.0
 10
76.80699494715408
 20
23.5699609917279
 30
0.0
 10
76.9226332641954
 20
23.62561994419895
 30
0.0
 10
76.98889408141665
 20
23.66288001967557
 30
0.0
 10
77.01113310928069
 20
23.67538556807493
 30
0.0
  0
LINE
  5
236
330
1F
100
AcDbEntity
  8
0
  6
SLD-Solid
 62
     7
370
    25
100
AcDbLine
 10
76.0532780723
 20
25.6107398829
 30
0.0
 11
76.0433222259
 21
25.6049924952
 31
0.0
  0
LINE
  5
237
330
1F
100
AcDbEntity
  8
0
  6
SLD-Solid
 62
     7
370
    25
100
AcDbLine
 10
77.5731978869
 20
22.9548829763
 30
0.0
 11
77.5831537332
 21
22.960630364
 31
0.0
  0
LINE
  5
238
330
1F
100
AcDbEntity
  8
0
  6
SLD-Solid
 62
     7
370
    25
100
AcDbLine
 10
77.0111331093
 20
23.6753855681
 30
0.0
 11
77.1207346604
 21
23.7386571967
 31
0.0
  0
LINE
  5
239
330
1F
100
AcDbEntity
  8
0
  6
SLD-Solid
 62
     7
370
    25
100
AcDbLine
 10
76.4957854525
 20
24.8212182747
 30
0.0
 11
76.3861839014
 21
24.7579466461
 31
0.0
  0
LINE
  5
23A
330
1F
100
AcDbEntity
  8
0
  6
SLD-Solid
 62
     7
370
    25
100
AcDbLine
 10
63.65826184
 20
29.7984464067
 30
0.0
 11
74.2648635578
 21
23.6753855681
 31
0.0
  0
LINE
  5
23B
330
1F
100
AcDbEntity
  8
0
  6
SLD-Solid
 62
     7
370
    25
100
AcDbLine
 10
74.8898127657
 20
24.7579466461
 30
0.0
 11
64.2832110479
 21
30.8810074847
 31
0.0
  0
SPLINE
  5
23C
330
1F
100
AcDbEntity
  8
0
  6
SLD-Solid
 62
     7
370
    25
100
AcDbSpline
210
0.0
220
0.0
230
1.0
 70
     8
 71
     3
 72
    14
 73
    10
 74
     0
 42
0.00000001
 43
0.00000001
 40
0.0
 40
0.0
 40
0.0
 40
0.0
 40
0.0944995916446265
 40
0.2699489047179292
 40
0.4446274145234447
 40
0.6198744293492173
 40
0.7976584280850781
 40
0.9817070769773406
 40
0.9999999999999999
 40
0.9999999999999999
 40
0.9999999999999999
 40
0.9999999999999999
 10
64.28321104792285
 20
30.88100748472112
 30
0.0
 10
64.27406654011011
 20
30.88644328334289
 30
0.0
 10
64.24794420640184
 20
30.90197126456141
 30
0.0
 10
64.21297675756905
 20
30.9266775995237
 30
0.0
 10
64.18213097990169
 20
30.95262323150396
 30
0.0
 10
64.16193327302442
 20
30.97368124272358
 30
0.0
 10
64.15157590220821
 20
30.98693786260865
 30
0.0
 10
64.14873439812689
 20
30.99264385522626
 30
0.0
 10
64.14935401449856
 20
30.99114474816091
 30
0.0
 10
64.1494100316308
 20
30.99100921965884
 30
0.0
  0
SPLINE
  5
23D
330
1F
100
AcDbEntity
  8
0
  6
SLD-Solid
 62
     7
370
    25
100
AcDbSpline
210
0.0
220
0.0
230
1.0
 70
     8
 71
     3
 72
    11
 73
     7
 74
     0
 42
0.00000001
 43
0.00000001
 40
0.0
 40
0.0
 40
0.0
 40
0.0
 40
0.1568690130998795
 40
0.5386247510976235
 40
0.9038390744155579
 40
1.0
 40
1.0
 40
1.0
 40
1.0
 10
64.18394339599378
 20
30.95177159168445
 30
0.0
 10
64.18699620085579
 20
30.95473837092153
 30
0.0
 10
64.19747829815759
 20
30.96492509101722
 30
0.0
 10
64.22605795718218
 20
30.98703437692055
 30
0.0
 10
64.25831702793265
 20
31.00848746385859
 30
0.0
 10
64.27891745745588
 20
31.02054542547089
 30
0.0
 10
64.28321104792286
 20
31.02305857447933
 30
0.0
  0
SPLINE
  5
23E
330
1F
100
AcDbEntity
  8
0
  6
SLD-Solid
 62
     7
370
    25
100
AcDbSpline
210
0.0
220
0.0
230
1.0
 70
     8
 71
     3
 72
    30
 73
    26
 74
     0
 42
0.00000001
 43
0.00000001
 40
0.0
 40
0.0
 40
0.0
 40
0.0
 40
0.0280655516010275
 40
0.0780730962645098
 40
0.1279620894207058
 40
0.1771871411281107
 40
0.2254265851042054
 40
0.2724686465524529
 40
0.3182447487374211
 40
0.3628141939317983
 40
0.4063233212257056
 40
0.4489661527215305
 40
0.4909582838971312
 40
0.5325236596997487
 40
0.5738692362262163
 40
0.6151744684755169
 40
0.6566727022166572
 40
0.6985948047911683
 40
0.7411629932014712
 40
0.7845783066040087
 40
0.8290000318489124
 40
0.8745180552356739
 40
0.9211248248001008
 40
0.9687008578919788
 40
0.9999999999999999
 40
0.9999999999999999
 40
0.9999999999999999
 40
0.9999999999999999
 10
63.65826184002533
 20
32.10561965245518
 30
0.0
 10
63.63401060767169
 20
32.0912112168065
 30
0.0
 10
63.56654823155333
 20
32.05112965349315
 30
0.0
 10
63.46249185929404
 20
31.97869268427481
 30
0.0
 10
63.34983271303896
 20
31.88624362928176
 30
0.0
 10
63.24832394051636
 20
31.78638015394183
 30
0.0
 10
63.15910275684272
 20
31.68040016556025
 30
0.0
 10
63.08298396838102
 20
31.56942584714762
 30
0.0
 10
63.02037007364643
 20
31.45464094296736
 30
0.0
 10
62.97137422555732
 20
31.33715079026039
 30
0.0
 10
62.93590250174657
 20
31.21797568236708
 30
0.0
 10
62.91373857460015
 20
31.09805414852957
 30
0.0
 10
62.90459427712869
 20
30.97825307940774
 30
0.0
 10
62.90814090472247
 20
30.85938531622495
 30
0.0
 10
62.9240193061578
 20
30.74222711567344
 30
0.0
 10
62.95185207865676
 20
30.62745168072559
 30
0.0
 10
62.99128646185324
 20
30.51560238566788
 30
0.0
 10
63.04205050999146
 20
30.407080066445
 30
0.0
 10
63.10396296536349
 20
30.3022211581292
 30
0.0
 10
63.17692463769253
 20
30.20133522095974
 30
0.0
 10
63.26089476195113
 20
30.10477293861739
 30
0.0
 10
63.35576038931652
 20
30.01291833378902
 30
0.0
 10
63.46143769401003
 20
29.92644862934899
 30
0.0
 10
63.56315937707789
 20
29.8551170401412
 30
0.0
 10
63.63124442276014
 20
29.81454582311881
 30
0.0
 10
63.65826184002531
 20
29.79844640674527
 30
0.0
  0
LINE
  5
23F
330
1F
100
AcDbEntity
  8
0
  6
SLD-Solid
 62
     7
370
    25
100
AcDbLine
 10
63.3253560109
 20
32.9584128893
 30
0.0
 11
63.3154001646
 21
32.9526655016
 31
0.0
  0
LINE
  5
240
330
1F
100
AcDbEntity
  8
0
  6
SLD-Solid
 62
     7
370
    25
100
AcDbLine
 10
63.7678633911
 20
32.1688912811
 30
0.0
 11
63.65826184
 21
32.1056196525
 31
0.0
  0
LINE
  5
241
330
1F
100
AcDbEntity
  8
0
  6
SLD-Solid
 62
     7
370
    25
100
AcDbLine
 10
64.2832110479
 20
31.0230585745
 30
0.0
 11
64.392812599
 21
31.0863302031
 31
0.0
  0
SPLINE
  5
242
330
1F
100
AcDbEntity
  8
0
  6
SLD-Solid
 62
     7
370
    25
100
AcDbSpline
210
0.0
220
0.0
230
1.0
 70
     8
 71
     3
 72
    25
 73
    21
 74
     0
 42
0.00000001
 43
0.00000001
 40
0.0
 40
0.0
 40
0.0
 40
0.0
 40
0.0299263981434812
 40
0.0860295894239371
 40
0.1428761399336008
 40
0.2006677724135521
 40
0.2593456224579462
 40
0.3187975281041924
 40
0.378879206091767
 40
0.4394288160407888
 40
0.5002759494011524
 40
0.5612468821272903
 40
0.6221383392496772
 40
0.6827498352033902
 40
0.7429153489001277
 40
0.8024795895352561
 40
0.8613065642803371
 40
0.9192936690600657
 40
0.9763932311445963
 40
1.0
 40
1.0
 40
1.0
 40
1.0
 10
76.38618390138315
 20
24.75794664605079
 30
0.0
 10
76.37643739582704
 20
24.75247779849051
 30
0.0
 10
76.34841906006577
 20
24.7367564708527
 30
0.0
 10
76.29420078637656
 20
24.71085034727239
 30
0.0
 10
76.22110904925121
 20
24.68169840305161
 30
0.0
 10
76.13894833979178
 20
24.65499381714796
 30
0.0
 10
76.0489035994819
 20
24.63171386809374
 30
0.0
 10
75.95220869487264
 20
24.61269657563649
 30
0.0
 10
75.85033306554755
 20
24.5986153603494
 30
0.0
 10
75.74485493584673
 20
24.5899655503884
 30
0.0
 10
75.63744438270663
 20
24.58706082734899
 30
0.0
 10
75.52983859318984
 20
24.5900293294348
 30
0.0
 10
75.42380872982402
 20
24.59880587622515
 30
0.0
 10
75.32110681710101
 20
24.61312618144164
 30
0.0
 10
75.22340657603932
 20
24.63252893135843
 30
0.0
 10
75.1322884295354
 20
24.65635580999962
 30
0.0
 10
75.0491394644804
 20
24.68375218006042
 30
0.0
 10
74.97537523039033
 20
24.71364890961124
 30
0.0
 10
74.92357903217062
 20
24.7388936348003
 30
0.0
 10
74.89745430306151
 20
24.75363481912328
 30
0.0
 10
74.88981276572105
 20
24.75794664605079
 30
0.0
  0
SPLINE
  5
243
330
1F
100
AcDbEntity
  8
0
  6
SLD-Solid
 62
     7
370
    25
100
AcDbSpline
210
0.0
220
0.0
230
1.0
 70
     8
 71
     3
 72
    26
 73
    22
 74
     0
 42
0.00000001
 43
0.00000001
 40
0.0
 40
0.0
 40
0.0
 40
0.0
 40
0.0315368870639624
 40
0.08709983428563
 40
0.1426391836258983
 40
0.1981184970500391
 40
0.2534360463420791
 40
0.308556275803709
 40
0.3634889875597669
 40
0.4182725465083086
 40
0.47296220990067
 40
0.5276228392726369
 40
0.5823244460440076
 40
0.6371159357898231
 40
0.6920708862484014
 40
0.7472612012902731
 40
0.8027528461509014
 40
0.8585984211468815
 40
0.9148246141790211
 40
0.9714127012306658
 40
1.0
 40
1.0
 40
1.0
 40
1.0
 10
74.26486355782352
 20
23.67538556807494
 30
0.0
 10
74.28941870373887
 20
23.66161211757029
 30
0.0
 10
74.35723608646754
 20
23.62357205185097
 30
0.0
 10
74.47415280616815
 20
23.56774429827717
 30
0.0
 10
74.61678148125023
 20
23.51017007230401
 30
0.0
 10
74.7650848078404
 20
23.46085550736233
 30
0.0
 10
74.91797606189493
 20
23.41972417065072
 30
0.0
 10
75.07452281515397
 20
23.38685318060492
 30
0.0
 10
75.23383067804033
 20
23.36223092541163
 30
0.0
 10
75.39507788183812
 20
23.34584440689503
 30
0.0
 10
75.55747775110255
 20
23.33767717231314
 30
0.0
 10
75.72026805354899
 20
23.33772101815429
 30
0.0
 10
75.8826773862487
 20
23.34597773172744
 30
0.0
 10
76.04394514291576
 20
23.36245814513161
 30
0.0
 10
76.20331838472096
 20
23.38718685168076
 30
0.0
 10
76.3600728221205
 20
23.42020877454044
 30
0.0
 10
76.51346249907937
 20
23.46160648279912
 30
0.0
 10
76.66275705467768
 20
23.511441249416
 30
0.0
 10
76.80699494715408
 20
23.56996099172791
 30
0.0
 10
76.9226332641954
 20
23.62561994419896
 30
0.0
 10
76.98889408141665
 20
23.66288001967558
 30
0.0
 10
77.01113310928069
 20
23.67538556807494
 30
0.0
  0
LINE
  5
244
330
1F
100
AcDbEntity
  8
0
  6
SLD-Solid
 62
     7
370
    25
100
AcDbLine
 10
77.0111331093
 20
23.6753855681
 30
0.0
 11
77.1207346604
 21
23.7386571967
 31
0.0
  0
LINE
  5
245
330
1F
100
AcDbEntity
  8
0
  6
SLD-Solid
 62
     7
370
    25
100
AcDbLine
 10
76.4957854525
 20
24.8212182747
 30
0.0
 11
76.3861839014
 21
24.7579466461
 31
0.0
  0
LINE
  5
246
330
1F
100
AcDbEntity
  8
0
  6
SLD-Solid
 62
     7
370
    25
100
AcDbLine
 10
63.65826184
 20
29.7984464067
 30
0.0
 11
74.2648635578
 21
23.6753855681
 31
0.0
  0
LINE
  5
247
330
1F
100
AcDbEntity
  8
0
  6
SLD-Solid
 62
     7
370
    25
100
AcDbLine
 10
74.8898127657
 20
24.7579466461
 30
0.0
 11
64.2832110479
 21
30.8810074847
 31
0.0
  0
SPLINE
  5
248
330
1F
100
AcDbEntity
  8
0
  6
SLD-Solid
 62
     7
370
    25
100
AcDbSpline
210
0.0
220
0.0
230
1.0
 70
     8
 71
     3
 72
    14
 73
    10
 74
     0
 42
0.00000001
 43
0.00000001
 40
0.0
 40
0.0
 40
0.0
 40
0.0
 40
0.0944995916446265
 40
0.2699489047179292
 40
0.4446274145234447
 40
0.6198744293492173
 40
0.7976584280850781
 40
0.9817070769773406
 40
0.9999999999999999
 40
0.9999999999999999
 40
0.9999999999999999
 40
0.9999999999999999
 10
64.28321104792285
 20
30.88100748472112
 30
0.0
 10
64.27406654011011
 20
30.88644328334289
 30
0.0
 10
64.24794420640184
 20
30.90197126456141
 30
0.0
 10
64.21297675756905
 20
30.9266775995237
 30
0.0
 10
64.18213097990169
 20
30.95262323150396
 30
0.0
 10
64.16193327302442
 20
30.97368124272358
 30
0.0
 10
64.15157590220821
 20
30.98693786260865
 30
0.0
 10
64.14873439812689
 20
30.99264385522626
 30
0.0
 10
64.14935401449856
 20
30.99114474816091
 30
0.0
 10
64.1494100316308
 20
30.99100921965884
 30
0.0
  0
SPLINE
  5
249
330
1F
100
AcDbEntity
  8
0
  6
SLD-Solid
 62
     7
370
    25
100
AcDbSpline
210
0.0
220
0.0
230
1.0
 70
     8
 71
     3
 72
    11
 73
     7
 74
     0
 42
0.00000001
 43
0.00000001
 40
0.0
 40
0.0
 40
0.0
 40
0.0
 40
0.1568690130998795
 40
0.5386247510976235
 40
0.9038390744155579
 40
1.0
 40
1.0
 40
1.0
 40
1.0
 10
64.18394339599378
 20
30.95177159168445
 30
0.0
 10
64.18699620085579
 20
30.95473837092153
 30
0.0
 10
64.19747829815759
 20
30.96492509101722
 30
0.0
 10
64.22605795718218
 20
30.98703437692055
 30
0.0
 10
64.25831702793265
 20
31.00848746385859
 30
0.0
 10
64.27891745745588
 20
31.02054542547089
 30
0.0
 10
64.28321104792286
 20
31.02305857447933
 30
0.0
  0
SPLINE
  5
24A
330
1F
100
AcDbEntity
  8
0
  6
SLD-Solid
 62
     7
370
    25
100
AcDbSpline
210
0.0
220
0.0
230
1.0
 70
     8
 71
     3
 72
    30
 73
    26
 74
     0
 42
0.00000001
 43
0.00000001
 40
0.0
 40
0.0
 40
0.0
 40
0.0
 40
0.0280655516010275
 40
0.0780730962645098
 40
0.1279620894207058
 40
0.1771871411281107
 40
0.2254265851042054
 40
0.2724686465524529
 40
0.3182447487374211
 40
0.3628141939317983
 40
0.4063233212257056
 40
0.4489661527215305
 40
0.4909582838971312
 40
0.5325236596997487
 40
0.5738692362262163
 40
0.6151744684755169
 40
0.6566727022166572
 40
0.6985948047911683
 40
0.7411629932014712
 40
0.7845783066040087
 40
0.8290000318489124
 40
0.8745180552356739
 40
0.9211248248001008
 40
0.9687008578919788
 40
0.9999999999999999
 40
0.9999999999999999
 40
0.9999999999999999
 40
0.9999999999999999
 10
63.65826184002533
 20
32.10561965245518
 30
0.0
 10
63.63401060767169
 20
32.0912112168065
 30
0.0
 10
63.56654823155333
 20
32.05112965349315
 30
0.0
 10
63.46249185929404
 20
31.97869268427481
 30
0.0
 10
63.34983271303896
 20
31.88624362928176
 30
0.0
 10
63.24832394051636
 20
31.78638015394183
 30
0.0
 10
63.15910275684272
 20
31.68040016556025
 30
0.0
 10
63.08298396838102
 20
31.56942584714762
 30
0.0
 10
63.02037007364643
 20
31.45464094296736
 30
0.0
 10
62.97137422555732
 20
31.33715079026039
 30
0.0
 10
62.93590250174657
 20
31.21797568236708
 30
0.0
 10
62.91373857460015
 20
31.09805414852957
 30
0.0
 10
62.90459427712869
 20
30.97825307940774
 30
0.0
 10
62.90814090472247
 20
30.85938531622495
 30
0.0
 10
62.9240193061578
 20
30.74222711567344
 30
0.0
 10
62.95185207865676
 20
30.62745168072559
 30
0.0
 10
62.99128646185324
 20
30.51560238566788
 30
0.0
 10
63.04205050999146
 20
30.407080066445
 30
0.0
 10
63.10396296536349
 20
30.3022211581292
 30
0.0
 10
63.17692463769253
 20
30.20133522095974
 30
0.0
 10
63.26089476195113
 20
30.10477293861739
 30
0.0
 10
63.35576038931652
 20
30.01291833378902
 30
0.0
 10
63.46143769401003
 20
29.92644862934899
 30
0.0
 10
63.56315937707789
 20
29.8551170401412
 30
0.0
 10
63.63124442276014
 20
29.81454582311881
 30
0.0
 10
63.65826184002531
 20
29.79844640674527
 30
0.0
  0
LINE
  5
24B
330
1F
100
AcDbEntity
  8
0
  6
SLD-Solid
 62
     7
370
    25
100
AcDbLine
 10
63.7678633911
 20
32.1688912811
 30
0.0
 11
63.65826184
 21
32.1056196525
 31
0.0
  0
LINE
  5
24C
330
1F
100
AcDbEntity
  8
0
  6
SLD-Solid
 62
     7
370
    25
100
AcDbLine
 10
64.2832110479
 20
31.0230585745
 30
0.0
 11
64.392812599
 21
31.0863302031
 31
0.0
  0
SPLINE
  5
24D
330
1F
100
AcDbEntity
  8
0
  6
SLD-Solid
 62
     7
370
    25
100
AcDbSpline
210
0.0
220
0.0
230
1.0
 70
     8
 71
     3
 72
    10
 73
     6
 74
     0
 42
0.00000001
 43
0.00000001
 40
0.0
 40
0.0
 40
0.0
 40
0.0
 40
0.1917943991923078
 40
0.6543546742963563
 40
1.0
 40
1.0
 40
1.0
 40
1.0
 10
63.19069995639994
 20
32.86015398404571
 30
0.0
 10
63.18288066558551
 20
32.85120144460257
 30
0.0
 10
63.15620319473314
 20
32.82065761195621
 30
0.0
 10
63.12217425565837
 20
32.76600142044698
 30
0.0
 10
63.10000800779625
 20
32.71682899439811
 30
0.0
 10
63.09052816757457
 20
32.69579942073478
 30
0.0
  0
LINE
  5
24E
330
1F
100
AcDbEntity
  8
0
  6
SLD-Solid
 62
     7
370
    25
100
AcDbLine
 10
63.6102417127
 20
33.1628484137
 30
0.0
 11
63.3251554095
 21
32.9815981154
 31
0.0
  0
LINE
  5
24F
330
1F
100
AcDbEntity
  8
0
  6
SLD-Solid
 62
     7
370
    25
100
AcDbLine
 10
65.0960819828
 20
30.4117470825
 30
0.0
 11
65.1747344385
 21
30.4527738823
 31
0.0
  0
SPLINE
  5
250
330
1F
100
AcDbEntity
  8
0
  6
SLD-Solid
 62
     7
370
    25
100
AcDbSpline
210
0.0
220
0.0
230
1.0
 70
     8
 71
     3
 72
    11
 73
     7
 74
     0
 42
0.00000001
 43
0.00000001
 40
0.0
 40
0.0
 40
0.0
 40
0.0
 40
0.0153164970986695
 40
0.4634790440288634
 40
0.9149127533068522
 40
1.0
 40
1.0
 40
1.0
 40
1.0
 10
75.92022563867721
 20
25.51636522782995
 30
0.0
 10
75.9195547926093
 20
25.51566496851366
 30
0.0
 10
75.8992549099248
 20
25.4944750373958
 30
0.0
 10
75.86684771699363
 20
25.44341989510788
 30
0.0
 10
75.8331786330702
 20
25.38737057733405
 30
0.0
 10
75.81971400622488
 20
25.35224202171223
 30
0.0
 10
75.817578641309
 20
25.34667095865327
 30
0.0
  0
SPLINE
  5
251
330
1F
100
AcDbEntity
  8
0
  6
SLD-Solid
 62
     7
370
    25
100
AcDbSpline
210
0.0
220
0.0
230
1.0
 70
     8
 71
     3
 72
    11
 73
     7
 74
     0
 42
0.00000001
 43
0.00000001
 40
0.0
 40
0.0
 40
0.0
 40
0.0
 40
0.1236638979315062
 40
0.5463546108321018
 40
0.9662605899063323
 40
1.0
 40
1.0
 40
1.0
 40
1.0
 10
77.21524034687384
 20
22.89161560818073
 30
0.0
 10
77.2245921733419
 20
22.88995740683749
 30
0.0
 10
77.26590911058868
 20
22.88263137260497
 30
0.0
 10
77.33608793333475
 20
22.88240112560504
 30
0.0
 10
77.39916810075312
 20
22.88460650688936
 30
0.0
 10
77.42960914387807
 20
22.89181353541488
 30
0.0
 10
77.43187316520881
 20
22.89234955076252
 30
0.0
  0
LINE
  5
252
330
1F
100
AcDbEntity
  8
0
  6
SLD-Solid
 62
     7
370
    25
100
AcDbLine
 10
76.338163774
 20
25.8151754072
 30
0.0
 11
76.0530774708
 21
25.633925109
 31
0.0
  0
LINE
  5
253
330
1F
100
AcDbEntity
  8
0
  6
SLD-Solid
 62
     7
370
    25
100
AcDbLine
 10
77.6031313231
 20
22.9488621503
 30
0.0
 11
77.9026564999
 21
23.1051008758
 31
0.0
  0
LWPOLYLINE
  5
254
330
1F
100
AcDbEntity
  8
0
  6
SLD-Solid
 62
     7
370
    25
100
AcDbPolyline
 90
       56
 70
   128
 43
0.0
 10
75.7263866812
 20
24.9044899413
 10
75.7312854876
 20
25.0204161429
 10
75.7459375425
 20
25.1296364573
 10
75.7702101546
 20
25.2311617686
 10
75.8038835073
 20
25.3240726477
 10
75.8466526496
 20
25.4075276794
 10
75.8981302574
 20
25.4807710819
 10
75.9578501417
 20
25.5431395517
 10
76.0252714699
 20
25.5940682702
 10
76.0997836639
 20
25.6330960191
 10
76.1807119298
 20
25.6598693571
 10
76.2673233688
 20
25.6741458206
 10
76.3588336142
 20
25.6757961198
 10
76.454413935
 20
25.6648053093
 10
76.5531987411
 20
25.6412729236
 10
76.654293422
 20
25.6054120756
 10
76.7567824485
 20
25.5575475268
 10
76.8597376643
 20
25.4981127459
 10
76.9622266908
 20
25.4276459834
 10
77.0633213717
 20
25.3467853973
 10
77.1621061778
 20
25.2562632736
 10
77.2576864986
 20
25.1568993946
 10
77.349196744
 20
25.049593615
 10
77.435808183
 20
24.9353177126
 10
77.5167364489
 20
24.8151065877
 10
77.591248643
 20
24.6900488907
 10
77.6586699711
 20
24.5612771637
 10
77.7183898554
 20
24.4299575832
 10
77.7698674633
 20
24.2972793997
 10
77.8126366055
 20
24.1644441674
 10
77.8463099583
 20
24.0326548628
 10
77.8705825703
 20
23.9031049902
 10
77.8852346252
 20
23.7769677733
 10
77.8901334316
 20
23.6553855302
 10
77.8852346252
 20
23.5394593286
 10
77.8705825703
 20
23.4302390141
 10
77.8463099583
 20
23.3287137029
 10
77.8126366055
 20
23.2358028238
 10
77.7698674633
 20
23.1523477921
 10
77.7183898554
 20
23.0791043896
 10
77.6586699711
 20
23.0167359198
 10
77.591248643
 20
22.9658072013
 10
77.5167364489
 20
22.9267794524
 10
77.435808183
 20
22.9000061144
 10
77.349196744
 20
22.8857296509
 10
77.2576864986
 20
22.8840793517
 10
77.1621061778
 20
22.8950701622
 10
77.0633213717
 20
22.9186025479
 10
76.9622266908
 20
22.9544633958
 10
76.8597376643
 20
23.0023279447
 10
76.7567824485
 20
23.0617627256
 10
76.654293422
 20
23.1322294881
 10
76.5531987411
 20
23.2130900742
 10
76.454413935
 20
23.3036121979
 10
76.3588336142
 20
23.4029760769
 10
76.3460650793
 20
23.417197142
  0
ARC
  5
255
330
1F
100
AcDbEntity
  8
0
  6
SLD-Solid
 62
     7
370
    25
100
AcDbCircle
 10
77.4449606076
 20
24.9148434479
 30
0.0
 40
1.718605113298653
100
AcDbArc
 50
180.3451728476
 51
190.8021574355
  0
LWPOLYLINE
  5
256
330
1F
100
AcDbEntity
  8
0
  6
SLD-Solid
 62
     7
370
    25
100
AcDbPolyline
 90
       23
 70
   128
 43
0.0
 10
76.4957854525
 20
24.8212182747
 10
76.5327138896
 20
24.8380054728
 10
76.5872891873
 20
24.8494671822
 10
76.6468006091
 20
24.8482065447
 10
76.7099187681
 20
24.8342517212
 10
76.775233709
 20
24.8079144391
 10
76.8412864039
 20
24.76978303
 10
76.9066013448
 20
24.7207092865
 10
76.9697195038
 20
24.6617894348
 10
77.0292309255
 20
24.5943396472
 10
77.0838062232
 20
24.5198666404
 10
77.1322262749
 20
24.4400340184
 10
77.1734094565
 20
24.3566251099
 10
77.206435804
 20
24.2715031323
 10
77.2305675632
 20
24.1865695697
 10
77.2452656706
 20
24.1037216977
 10
77.2502017947
 20
24.0248102008
 10
77.2452656706
 20
23.9515978314
 10
77.2305675632
 20
23.8857200329
 10
77.206435804
 20
23.8286484065
 10
77.1734094565
 20
23.781657838
 10
77.1322262749
 20
23.745798019
 10
77.1207346604
 20
23.7386571967
  0
LWPOLYLINE
  5
257
330
1F
100
AcDbEntity
  8
0
  6
SLD-Solid
 62
     7
370
    25
100
AcDbPolyline
 90
       40
 70
   128
 43
0.0
 10
62.9984646198
 20
32.2521629477
 10
63.0033634263
 20
32.3680891493
 10
63.0180154811
 20
32.4773094637
 10
63.0422880932
 20
32.578834775
 10
63.0759614459
 20
32.6717456541
 10
63.1187305882
 20
32.7552006858
 10
63.1702081961
 20
32.8284440883
 10
63.2299280804
 20
32.8908125581
 10
63.2973494085
 20
32.9417412766
 10
63.3718616025
 20
32.9807690255
 10
63.4527898685
 20
33.0075423635
 10
63.5394013075
 20
33.021818827
 10
63.6309115528
 20
33.0234691262
 10
63.7264918737
 20
33.0124783157
 10
63.8252766798
 20
32.98894593
 10
63.9263713606
 20
32.953085082
 10
64.0288603872
 20
32.9052205332
 10
64.1318156029
 20
32.8457857523
 10
64.2343046295
 20
32.7753189898
 10
64.3353993104
 20
32.6944584037
 10
64.4341841165
 20
32.60393628
 10
64.5297644373
 20
32.504572401
 10
64.6212746827
 20
32.3972666214
 10
64.7078861216
 20
32.282990719
 10
64.7888143876
 20
32.1627795941
 10
64.8633265816
 20
32.0377218971
 10
64.9307479098
 20
31.9089501701
 10
64.990467794
 20
31.7776305896
 10
65.0419454019
 20
31.6449524061
 10
65.0847145442
 20
31.5121171738
 10
65.1183878969
 20
31.3803278692
 10
65.142660509
 20
31.2507779966
 10
65.1573125639
 20
31.1246407797
 10
65.1622113703
 20
31.0030585366
 10
65.1573125639
 20
30.887132335
 10
65.142660509
 20
30.7779120205
 10
65.1183878969
 20
30.6763867093
 10
65.0847145442
 20
30.5834758302
 10
65.0419454019
 20
30.5000207985
 10
65.0148387465
 20
30.4586478045
  0
ARC
  5
258
330
1F
100
AcDbEntity
  8
0
  6
SLD-Solid
 62
     7
370
    25
100
AcDbCircle
 10
64.9288533205
 20
32.2820099584
 30
0.0
 40
1.930619429022937
100
AcDbArc
 50
180.8858171889
 51
200.0877165089
  0
LWPOLYLINE
  5
259
330
1F
100
AcDbEntity
  8
0
  6
SLD-Solid
 62
     7
370
    25
100
AcDbPolyline
 90
       23
 70
   128
 43
0.0
 10
63.7678633911
 20
32.1688912811
 10
63.8047918282
 20
32.1856784793
 10
63.8593671259
 20
32.1971401886
 10
63.9188785477
 20
32.1958795511
 10
63.9819967067
 20
32.1819247276
 10
64.0473116476
 20
32.1555874456
 10
64.1133643425
 20
32.1174560364
 10
64.1786792834
 20
32.0683822929
 10
64.2417974424
 20
32.0094624412
 10
64.3013088642
 20
31.9420126536
 10
64.3558841619
 20
31.8675396468
 10
64.4043042135
 20
31.7877070248
 10
64.4454873952
 20
31.7042981163
 10
64.4785137426
 20
31.6191761387
 10
64.5026455019
 20
31.5342425761
 10
64.5173436092
 20
31.4513947041
 10
64.5222797333
 20
31.3724832072
 10
64.5173436092
 20
31.2992708378
 10
64.5026455019
 20
31.2333930393
 10
64.4785137426
 20
31.1763214129
 10
64.4454873952
 20
31.1293308444
 10
64.4043042135
 20
31.0934710254
 10
64.392812599
 20
31.0863302031
  0
ARC
  5
25A
330
1F
100
AcDbEntity
  8
0
  6
SLD-Solid
 62
     7
370
    25
100
AcDbCircle
 10
63.6104654531
 20
32.5314113069
 30
0.0
 40
0.5326763964237025
100
AcDbArc
 50
104.7027460708
 51
140.731112832
  0
LWPOLYLINE
  5
25B
330
1F
100
AcDbEntity
  8
0
  6
SLD-Solid
 62
     7
370
    25
100
AcDbPolyline
 90
       36
 70
   128
 43
0.0
 10
65.1747344385
 20
30.4527738823
 10
65.2107545101
 20
30.4734248437
 10
65.2799313702
 20
30.5251916042
 10
65.3412464292
 20
30.5886750044
 10
65.3941444084
 20
30.6633001287
 10
65.4381462556
 20
30.7483911606
 10
65.472853483
 20
30.8431775025
 10
65.4979517768
 20
30.9468007545
 10
65.513213843
 20
31.0583224884
 10
65.5185014657
 20
31.1767327462
 10
65.5137667597
 20
31.3009591862
 10
65.4990526029
 20
31.4298767946
 10
65.4744922493
 20
31.5623180735
 10
65.440308121
 20
31.6970836141
 10
65.3968097949
 20
31.832952959
 10
65.3443911986
 20
31.9686956542
 10
65.2835270429
 20
32.1030823929
 10
65.2147685232
 20
32.234896148
 10
65.1387383271
 20
32.3629431937
 10
65.056124996
 20
32.4860639161
 10
64.9676766889
 20
32.6031433148
 10
64.8741944074
 20
32.7131211008
 10
64.7765247415
 20
32.8150012982
 10
64.6755522029
 20
32.9078612641
 10
64.5721912145
 20
32.9908600443
 10
64.4673778294
 20
33.063245989
 10
64.3620612539
 20
33.1243635598
 10
64.2571952511
 20
33.1736592666
 10
64.1537295039
 20
33.2106866799
 10
64.052601014
 20
33.2351104735
 10
63.9547256167
 20
33.246709462
 10
63.8609896869
 20
33.245378603
 10
63.7722421115
 20
33.231129949
 10
63.6892866023
 20
33.204092538
 10
63.6128744174
 20
33.164511225
 10
63.6102417127
 20
33.1628484137
  0
LWPOLYLINE
  5
25C
330
1F
100
AcDbEntity
  8
0
  6
SLD-Solid
 62
     7
370
    25
100
AcDbPolyline
 90
       15
 70
   128
 43
0.0
 10
64.3976290494
 20
31.8647980064
 10
64.3428166231
 20
31.9440829314
 10
64.2826905851
 20
32.0169425385
 10
64.2184749281
 20
32.0818936162
 10
64.1514768976
 20
32.1376139479
 10
64.0830603805
 20
32.1829692283
 10
64.0146181396
 20
32.2170361546
 10
63.9475434617
 20
32.2391212226
 10
63.8832017937
 20
32.2487748439
 10
63.8229029465
 20
32.2458004986
 10
63.7678744307
 20
32.2302587359
 10
63.7192364681
 20
32.2024659411
 10
63.6779791875
 20
32.1629878955
 10
63.6449424682
 20
32.1126282581
 10
63.6393943277
 20
32.101359371
  0
LWPOLYLINE
  5
25D
330
1F
100
AcDbEntity
  8
0
  6
SLD-Solid
 62
     7
370
    25
100
AcDbPolyline
 90
       16
 70
   128
 43
0.0
 10
64.2646595985
 20
31.0093612365
 10
64.280391721
 20
31.0081308914
 10
64.3406905682
 20
31.0111052367
 10
64.395719084
 20
31.0266469995
 10
64.4443570466
 20
31.0544397942
 10
64.4856143271
 20
31.0939178399
 10
64.5186510465
 20
31.1442774772
 10
64.5427946724
 20
31.2044935292
 10
64.55755371
 20
31.2733401708
 10
64.5626277081
 20
31.3494158828
 10
64.5579133747
 20
31.4311719831
 10
64.5435066799
 20
31.5169441534
 10
64.5197009026
 20
31.6049863195
 10
64.4869806597
 20
31.6935061968
 10
64.4460120409
 20
31.780701776
 10
64.3976290494
 20
31.8647980064
  0
ARC
  5
25E
330
1F
100
AcDbEntity
  8
0
  6
SLD-Solid
 62
     7
370
    25
100
AcDbCircle
 10
76.3373251578
 20
25.1854538604
 30
0.0
 40
0.5307481791989389
100
AcDbArc
 50
104.767255906
 51
140.3992396083
  0
ARC
  5
25F
330
1F
100
AcDbEntity
  8
0
  6
SLD-Solid
 62
     7
370
    25
100
AcDbCircle
 10
77.3568698799
 20
23.4193138633
 30
0.0
 40
0.5307967257113555
100
AcDbArc
 50
279.2995521371
 51
315.3503569122
  0
LWPOLYLINE
  5
260
330
1F
100
AcDbEntity
  8
0
  6
SLD-Solid
 62
     7
370
    25
100
AcDbPolyline
 90
       36
 70
   128
 43
0.0
 10
77.9026564999
 20
23.1051008758
 10
77.9118183363
 20
23.1099963587
 10
77.9836900597
 20
23.1574008038
 10
78.0479188091
 20
23.2167040785
 10
78.1039229191
 20
23.287369123
 10
78.1511952079
 20
23.3687559839
 10
78.1893075701
 20
23.4601276091
 10
78.2179148545
 20
23.5606565231
 10
78.2367579889
 20
23.6694323203
 10
78.2456663271
 20
23.7854699104
 10
78.2445591938
 20
23.907718439
 10
78.2334466153
 20
24.0350708044
 10
78.2124292288
 20
24.166373684
 10
78.1816973711
 20
24.3004379784
 10
78.1415293547
 20
24.4360495808
 10
78.0922889472
 20
24.5719803714
 10
78.0344220775
 20
24.7069993399
 10
77.9684527969
 20
24.8398837337
 10
77.8949785334
 20
24.9694301311
 10
77.8146646813
 20
25.0944653398
 10
77.7282385753
 20
25.2138570217
 10
77.6364829036
 20
25.3265239472
 10
77.5402286198
 20
25.4314457872
 10
77.4403474176
 20
25.5276723532
 10
77.3377438366
 20
25.6143322026
 10
77.2333470707
 20
25.6906405303
 10
77.1281025532
 20
25.7559062763
 10
77.0229633947
 20
25.8095383839
 10
76.9188817518
 20
25.8510511525
 10
76.816800204
 20
25.880068636
 10
76.7176432174
 20
25.8963280474
 10
76.6223087733
 20
25.8996821392
 10
76.5316602349
 20
25.8901005362
 10
76.4465185296
 20
25.8676700107
 10
76.3676547139
 20
25.8325936972
 10
76.338163774
 20
25.8151754072
  0
LWPOLYLINE
  5
261
330
1F
100
AcDbEntity
  8
0
  6
SLD-Solid
 62
     7
370
    25
100
AcDbPolyline
 90
       16
 70
   128
 43
0.0
 10
77.1697776539
 20
24.4409234769
 10
77.1207597268
 20
24.5246472438
 10
77.0654099037
 20
24.603406574
 10
77.0048549476
 20
24.6755981548
 10
76.9403275825
 20
24.7397523736
 10
76.8731413997
 20
24.7945632357
 10
76.804664116
 20
24.8389149499
 10
76.7362897315
 20
24.8719046432
 10
76.6694101514
 20
24.8928607407
 10
76.6053868512
 20
24.9013566365
 10
76.5455231606
 20
24.8972193788
 10
76.4910377318
 20
24.8805331901
 10
76.4430397308
 20
24.8516377533
 10
76.4025062587
 20
24.8111212959
 10
76.37026246
 20
24.7598086164
 10
76.3652272632
 20
24.7491367844
  0
LWPOLYLINE
  5
262
330
1F
100
AcDbEntity
  8
0
  6
SLD-Solid
 62
     7
370
    25
100
AcDbPolyline
 90
       15
 70
   128
 43
0.0
 10
76.9983047027
 20
23.6611519034
 10
77.0140507862
 20
23.660203086
 10
77.0739144768
 20
23.6643403438
 10
77.1283999056
 20
23.6810265324
 10
77.1763979066
 20
23.7099219693
 10
77.2169313787
 20
23.7504384266
 10
77.2491751774
 20
23.8017511062
 10
77.2724729119
 20
23.8628154298
 10
77.2863503076
 20
23.9323883039
 10
77.2905248606
 20
24.0090534255
 10
77.2849115892
 20
24.0912501137
 10
77.2696247633
 20
24.177305081
 10
77.2449755786
 20
24.2654664964
 10
77.2114658215
 20
24.3539396478
 10
77.1697776539
 20
24.4409234769
  0
INSERT
  5
268
330
1F
100
AcDbEntity
  8
NOTES
100
AcDbBlockReference
  2
SW_NOTE_0_3
 10
71.2685057219
 20
21.843636843
 30
0.0
  0
LINE
  5
269
330
1F
100
AcDbEntity
  8
0
  6
SLD-Solid
 62
     7
370
    25
100
AcDbLine
 10
29.8708723562
 20
31.6408711211
 30
0.0
 11
29.8708723562
 21
31.6267914283
 31
0.0
  0
LINE
  5
26A
330
1F
100
AcDbEntity
  8
0
  6
SLD-Solid
 62
     7
370
    25
100
AcDbLine
 10
32.9308723562
 20
31.6267914283
 30
0.0
 11
32.9308723562
 21
31.6408711211
 31
0.0
  0
LINE
  5
26B
330
1F
100
AcDbEntity
  8
0
  6
SLD-Solid
 62
     7
370
    25
100
AcDbLine
 10
11.8708723562
 20
31.6408711211
 30
0.0
 11
11.8708723562
 21
31.6267914283
 31
0.0
  0
LINE
  5
26C
330
1F
100
AcDbEntity
  8
0
  6
SLD-Solid
 62
     7
370
    25
100
AcDbLine
 10
14.9308723562
 20
31.6267914283
 30
0.0
 11
14.9308723562
 21
31.6408711211
 31
0.0
  0
LINE
  5
26D
330
1F
100
AcDbEntity
  8
0
  6
SLD-Solid
 62
     7
370
    25
100
AcDbLine
 10
12.7758723562
 20
31.6267914283
 30
0.0
 11
12.7758723562
 21
31.4717914283
 31
0.0
  0
LINE
  5
26E
330
1F
100
AcDbEntity
  8
0
  6
SLD-Solid
 62
     7
370
    25
100
AcDbLine
 10
14.0258723562
 20
31.4717914283
 30
0.0
 11
14.0258723562
 21
31.6267914283
 31
0.0
  0
LINE
  5
26F
330
1F
100
AcDbEntity
  8
0
  6
SLD-Solid
 62
     7
370
    25
100
AcDbLine
 10
32.0258723562
 20
31.4717914283
 30
0.0
 11
32.0258723562
 21
31.6267914283
 31
0.0
  0
LINE
  5
270
330
1F
100
AcDbEntity
  8
0
  6
SLD-Solid
 62
     7
370
    25
100
AcDbLine
 10
30.7758723562
 20
31.6267914283
 30
0.0
 11
30.7758723562
 21
31.4717914283
 31
0.0
  0
ARC
  5
271
330
1F
100
AcDbEntity
  8
0
  6
SLD-Solid
 62
     7
370
    25
100
AcDbCircle
 10
14.9008723562
 20
31.4717914283
 30
0.0
 40
0.8750000000000036
100
AcDbArc
 50
180.0
 51
270.0
  0
ARC
  5
272
330
1F
100
AcDbEntity
  8
0
  6
SLD-Solid
 62
     7
370
    25
100
AcDbCircle
 10
14.9008723562
 20
31.4717914283
 30
0.0
 40
2.125
100
AcDbArc
 50
180.0
 51
270.0
  0
ARC
  5
273
330
1F
100
AcDbEntity
  8
0
  6
SLD-Solid
 62
     7
370
    25
100
AcDbCircle
 10
29.9008723562
 20
31.4717914283
 30
0.0
 40
0.8750000000000036
100
AcDbArc
 50
270.0
 51
0.0
  0
ARC
  5
274
330
1F
100
AcDbEntity
  8
0
  6
SLD-Solid
 62
     7
370
    25
100
AcDbCircle
 10
29.9008723562
 20
31.4717914283
 30
0.0
 40
2.125000000000004
100
AcDbArc
 50
270.0
 51
0.0
  0
LINE
  5
275
330
1F
100
AcDbEntity
  8
0
  6
SLD-Solid
 62
     7
370
    25
100
AcDbLine
 10
14.9008723562
 20
29.3467914283
 30
0.0
 11
29.9008723562
 21
29.3467914283
 31
0.0
  0
LINE
  5
276
330
1F
100
AcDbEntity
  8
0
  6
SLD-Solid
 62
     7
370
    25
100
AcDbLine
 10
29.9008723562
 20
30.5967914283
 30
0.0
 11
14.9008723562
 21
30.5967914283
 31
0.0
  0
LINE
  5
277
330
1F
100
AcDbEntity
  8
0
  6
SLD-Solid
 62
     7
370
    25
100
AcDbLine
 10
32.0258723562
 20
31.4717914283
 30
0.0
 11
32.0258723562
 21
31.6267914283
 31
0.0
  0
LINE
  5
278
330
1F
100
AcDbEntity
  8
0
  6
SLD-Solid
 62
     7
370
    25
100
AcDbLine
 10
30.7758723562
 20
31.6267914283
 30
0.0
 11
30.7758723562
 21
31.4717914283
 31
0.0
  0
LINE
  5
279
330
1F
100
AcDbEntity
  8
0
  6
SLD-Solid
 62
     7
370
    25
100
AcDbLine
 10
12.7758723562
 20
31.6267914283
 30
0.0
 11
12.7758723562
 21
31.4717914283
 31
0.0
  0
LINE
  5
27A
330
1F
100
AcDbEntity
  8
0
  6
SLD-Solid
 62
     7
370
    25
100
AcDbLine
 10
14.0258723562
 20
31.4717914283
 30
0.0
 11
14.0258723562
 21
31.6267914283
 31
0.0
  0
LINE
  5
27B
330
1F
100
AcDbEntity
  8
0
  6
SLD-Solid
 62
     7
370
    25
100
AcDbLine
 10
14.9008723562
 20
29.3467914283
 30
0.0
 11
29.9008723562
 21
29.3467914283
 31
0.0
  0
LINE
  5
27C
330
1F
100
AcDbEntity
  8
0
  6
SLD-Solid
 62
     7
370
    25
100
AcDbLine
 10
29.9008723562
 20
30.5967914283
 30
0.0
 11
14.9008723562
 21
30.5967914283
 31
0.0
  0
LINE
  5
27D
330
1F
100
AcDbEntity
  8
0
  6
SLD-Solid
 62
     7
370
    25
100
AcDbLine
 10
14.9659695283
 20
32.0955699459
 30
0.0
 11
14.9309908493
 21
32.0967914283
 31
0.0
  0
LINE
  5
27E
330
1F
100
AcDbEntity
  8
0
  6
SLD-Solid
 62
     7
370
    25
100
AcDbLine
 10
11.8707538631
 20
32.0967914283
 30
0.0
 11
11.8357751841
 21
32.0955699459
 31
0.0
  0
LINE
  5
27F
330
1F
100
AcDbEntity
  8
0
  6
SLD-Solid
 62
     7
370
    25
100
AcDbLine
 10
11.8357751841
 20
32.0955699459
 30
0.0
 11
11.8502196362
 21
31.6819349573
 31
0.0
  0
LINE
  5
280
330
1F
100
AcDbEntity
  8
0
  6
SLD-Solid
 62
     7
370
    25
100
AcDbLine
 10
14.9515250762
 20
31.6819349573
 30
0.0
 11
14.9659695283
 21
32.0955699459
 31
0.0
  0
ARC
  5
281
330
1F
100
AcDbEntity
  8
0
  6
SLD-Solid
 62
     7
370
    25
100
AcDbCircle
 10
14.8965585807
 20
31.6838544297
 30
0.0
 40
0.0549999999999989
100
AcDbArc
 50
308.6005300927
 51
358.0
  0
ARC
  5
282
330
1F
100
AcDbEntity
  8
0
  6
SLD-Solid
 62
     7
370
    25
100
AcDbCircle
 10
11.9051861317
 20
31.6838544297
 30
0.0
 40
0.0550000000000003
100
AcDbArc
 50
182.0
 51
231.3994699073
  0
LINE
  5
283
330
1F
100
AcDbEntity
  8
0
  6
SLD-Solid
 62
     7
370
    25
100
AcDbLine
 10
32.9659695283
 20
32.0955699459
 30
0.0
 11
32.9309908493
 21
32.0967914283
 31
0.0
  0
LINE
  5
284
330
1F
100
AcDbEntity
  8
0
  6
SLD-Solid
 62
     7
370
    25
100
AcDbLine
 10
29.8707538631
 20
32.0967914283
 30
0.0
 11
29.8357751841
 21
32.0955699459
 31
0.0
  0
LINE
  5
285
330
1F
100
AcDbEntity
  8
0
  6
SLD-Solid
 62
     7
370
    25
100
AcDbLine
 10
29.8357751841
 20
32.0955699459
 30
0.0
 11
29.8502196362
 21
31.6819349573
 31
0.0
  0
LINE
  5
286
330
1F
100
AcDbEntity
  8
0
  6
SLD-Solid
 62
     7
370
    25
100
AcDbLine
 10
32.9515250762
 20
31.6819349573
 30
0.0
 11
32.9659695283
 21
32.0955699459
 31
0.0
  0
ARC
  5
287
330
1F
100
AcDbEntity
  8
0
  6
SLD-Solid
 62
     7
370
    25
100
AcDbCircle
 10
32.8965585807
 20
31.6838544297
 30
0.0
 40
0.0549999999999985
100
AcDbArc
 50
308.6005300927
 51
358.0
  0
ARC
  5
288
330
1F
100
AcDbEntity
  8
0
  6
SLD-Solid
 62
     7
370
    25
100
AcDbCircle
 10
29.9051861317
 20
31.6838544297
 30
0.0
 40
0.0549999999999985
100
AcDbArc
 50
182.0
 51
231.3994699073
  0
LINE
  5
289
330
1F
100
AcDbEntity
  8
0
  6
SLD-Solid
 62
     7
370
    25
100
AcDbLine
 10
29.8708723562
 20
31.6267914283
 30
0.0
 11
32.9308723562
 21
31.6267914283
 31
0.0
  0
LINE
  5
28A
330
1F
100
AcDbEntity
  8
0
  6
SLD-Solid
 62
     7
370
    25
100
AcDbLine
 10
11.8708723562
 20
31.6267914283
 30
0.0
 11
14.9308723562
 21
31.6267914283
 31
0.0
  0
LINE
  5
28B
330
1F
100
AcDbEntity
  8
0
  6
SLD-Solid
 62
     7
370
    25
100
AcDbLine
 10
12.2471232334
 20
32.0967914283
 30
0.0
 11
11.8707538631
 21
32.0967914283
 31
0.0
  0
LINE
  5
28C
330
1F
100
AcDbEntity
  8
0
  6
SLD-Solid
 62
     7
370
    25
100
AcDbLine
 10
14.9309908493
 20
32.0967914283
 30
0.0
 11
12.2471232334
 21
32.0967914283
 31
0.0
  0
LINE
  5
28D
330
1F
100
AcDbEntity
  8
0
  6
SLD-Solid
 62
     7
370
    25
100
AcDbLine
 10
14.9659695283
 20
32.0955699459
 30
0.0
 11
11.8357751841
 21
32.0955699459
 31
0.0
  0
LINE
  5
28E
330
1F
100
AcDbEntity
  8
0
  6
SLD-Solid
 62
     7
370
    25
100
AcDbLine
 10
30.3867568133
 20
32.0967914283
 30
0.0
 11
29.8707538631
 21
32.0967914283
 31
0.0
  0
LINE
  5
28F
330
1F
100
AcDbEntity
  8
0
  6
SLD-Solid
 62
     7
370
    25
100
AcDbLine
 10
32.9309908493
 20
32.0967914283
 30
0.0
 11
30.3867568133
 21
32.0967914283
 31
0.0
  0
LINE
  5
290
330
1F
100
AcDbEntity
  8
0
  6
SLD-Solid
 62
     7
370
    25
100
AcDbLine
 10
32.9659695283
 20
32.0955699459
 30
0.0
 11
29.8357751841
 21
32.0955699459
 31
0.0
  0
DIMENSION
  5
291
330
1F
100
AcDbEntity
  8
DIMS
100
AcDbDimension
  2
_D_5
 10
32.9660609344
 20
33.670979659
 30
0.0
 11
22.3677769862
 21
33.6715945768
 31
0.0
 70
   160
  1
<>
 71
     2
 42
-1.0
  3
SLDDIMSTYLE2
100
AcDbAlignedDimension
 13
11.9133723562
 23
32.0967914283
 33
0.0
 14
32.9659695283
 24
32.0955699459
 34
0.0
 50
-0.0033243302
100
AcDbRotatedDimension
  0
DIMENSION
  5
2A0
330
1F
100
AcDbEntity
  8
DIMS
100
AcDbDimension
  2
_D_6
 10
32.9659695283
 20
32.7267126881
 30
0.0
 11
31.4990866999
 21
32.7267126881
 31
0.0
 70
   160
  1
<>
 71
     2
 42
-1.0
  3
SLDDIMSTYLE2
100
AcDbAlignedDimension
 13
29.8357751841
 23
32.0955699459
 33
0.0
 14
32.9659695283
 24
32.0955699459
 34
0.0
100
AcDbRotatedDimension
  0
DIMENSION
  5
2AF
330
1F
100
AcDbEntity
  8
DIMS
100
AcDbDimension
  2
_D_7
 10
28.3756791082
 20
30.5967914283
 30
0.0
 11
28.3756791082
 21
31.3057180396
 31
0.0
 70
   160
  1
<>
 71
     2
 42
-1.0
  3
SLDDIMSTYLE1
100
AcDbAlignedDimension
 13
29.8357751841
 23
32.0955699459
 33
0.0
 14
29.9008723562
 24
30.5967914283
 34
0.0
 50
90.0
100
AcDbRotatedDimension
  0
MTEXT
  5
2BD
330
1F
100
AcDbEntity
  8
NOTES
100
AcDbMText
 10
14.9169158201
 20
28.3069291043
 30
0.0
 40
0.5
 41
0.0
 71
     1
 72
     1
  1
Top view
  7
SLDTEXTSTYLE1
 73
     1
 44
1.0
  0
MTEXT
  5
2BE
330
1F
100
AcDbEntity
  8
NOTES
100
AcDbMText
 10
35.3725513939
 20
29.3104676961
 30
0.0
 40
0.5
 41
0.0
 71
     1
 72
     1
  1
remove caps to access mounting holes
  7
SLDTEXTSTYLE1
 73
     1
 44
1.0
  0
LEADER
  5
2C0
330
1F
100
AcDbEntity
  8
NOTES
100
AcDbLeader
  3
SLDDIMSTYLE3
 76
     3
 10
32.9165863817
 20
31.6843014452
 30
0.0
 10
34.8494094488
 20
29.0659448849
 30
0.0
 10
35.3494094488
 20
29.0659448849
 30
0.0
  0
ENDSEC
  0
SECTION
  2
OBJECTS
  0
DICTIONARY
  5
C
330
0
100
AcDbDictionary
281
     1
  3
ACAD_GROUP
350
D
  3
ACAD_LAYOUT
350
1A
  3
ACAD_MLINESTYLE
350
17
  3
ACAD_PLOTSETTINGS
350
19
  3
ACAD_PLOTSTYLENAME
350
E
  3
ACAD_SCALELIST
350
47
  3
DWGPROPS
350
2C1
  0
DICTIONARY
  5
D
102
{ACAD_REACTORS
330
C
102
}
330
C
100
AcDbDictionary
281
     1
  0
DICTIONARY
  5
1A
102
{ACAD_REACTORS
330
C
102
}
330
C
100
AcDbDictionary
281
     1
  3
Layout1
350
1E
  3
Layout2
350
26
  3
Model
350
22
  0
DICTIONARY
  5
17
102
{ACAD_REACTORS
330
C
102
}
330
C
100
AcDbDictionary
281
     1
  3
Standard
350
18
  0
DICTIONARY
  5
19
102
{ACAD_REACTORS
330
C
102
}
330
C
100
AcDbDictionary
281
     1
  0
ACDBDICTIONARYWDFLT
  5
E
102
{ACAD_REACTORS
330
C
102
}
330
C
100
AcDbDictionary
281
     1
  3
Normal
350
F
100
AcDbDictionaryWithDefault
340
F
  0
DICTIONARY
  5
47
102
{ACAD_REACTORS
330
C
102
}
330
C
100
AcDbDictionary
281
     1
  3
A0
350
48
  3
A1
350
49
  3
A2
350
4A
  3
A3
350
4B
  3
A4
350
4C
  3
A5
350
4D
  3
A6
350
4E
  3
A7
350
4F
  3
A8
350
50
  3
A9
350
51
  3
B0
350
52
  3
B1
350
53
  3
B2
350
54
  3
B3
350
55
  3
B4
350
56
  3
B5
350
57
  3
B6
350
58
  3
B7
350
59
  3
B8
350
5A
  3
B9
350
5B
  3
C0
350
5C
  3
C1
350
5D
  3
C2
350
5E
  3
C3
350
5F
  3
C4
350
60
  3
C5
350
61
  3
C6
350
62
  3
C7
350
63
  3
C8
350
64
  3
C9
350
65
  3
D0
350
66
  3
D1
350
67
  3
D2
350
68
  0
XRECORD
  5
2C1
102
{ACAD_REACTORS
330
C
102
}
330
C
100
AcDbXrecord
280
     1
  1
DWGPROPS COOKIE
  2

  3

  4

  6

  7

  8
carl
  9

300
=
301
=
302
=
303
=
304
=
305
=
306
=
307
=
308
=
309
=
 40
0.0
 41
2459468.493574224
 42
2459468.493578495
  1

 90
        0
  0
LAYOUT
  5
1E
102
{ACAD_REACTORS
330
1A
102
}
330
1A
100
AcDbPlotSettings
  1

  2
none_device
  4

  6

 40
0.0
 41
0.0
 42
0.0
 43
0.0
 44
0.0
 45
0.0
 46
0.0
 47
0.0
 48
0.0
 49
0.0
140
0.0
141
0.0
142
1.0
143
1.0
 70
   688
 72
     0
 73
     0
 74
     5
  7

 75
    16
147
1.0
148
0.0
149
0.0
100
AcDbLayout
  1
Layout1
 70
     1
 71
     1
 10
0.0
 20
0.0
 11
12.0
 21
9.0
 12
0.0
 22
0.0
 32
0.0
 14
1.0000000000E+20
 24
1.0000000000E+20
 34
1.0000000000E+20
 15
-1.0000000000E+20
 25
-1.0000000000E+20
 35
-1.0000000000E+20
146
0.0
 13
0.0
 23
0.0
 33
0.0
 16
1.0
 26
0.0
 36
0.0
 17
0.0
 27
1.0
 37
0.0
 76
     0
330
1B
  0
LAYOUT
  5
26
102
{ACAD_REACTORS
330
1A
102
}
330
1A
100
AcDbPlotSettings
  1

  2
none_device
  4

  6

 40
0.0
 41
0.0
 42
0.0
 43
0.0
 44
0.0
 45
0.0
 46
0.0
 47
0.0
 48
0.0
 49
0.0
140
0.0
141
0.0
142
1.0
143
1.0
 70
   688
 72
     0
 73
     0
 74
     5
  7

 75
    16
147
1.0
148
0.0
149
0.0
100
AcDbLayout
  1
Layout2
 70
     1
 71
     2
 10
0.0
 20
0.0
 11
0.0
 21
0.0
 12
0.0
 22
0.0
 32
0.0
 14
0.0
 24
0.0
 34
0.0
 15
0.0
 25
0.0
 35
0.0
146
0.0
 13
0.0
 23
0.0
 33
0.0
 16
1.0
 26
0.0
 36
0.0
 17
0.0
 27
1.0
 37
0.0
 76
     0
330
23
  0
LAYOUT
  5
22
102
{ACAD_REACTORS
330
1A
102
}
330
1A
100
AcDbPlotSettings
  1

  2
none_device
  4
Letter_(8.50_x_11.00_Inches)
  6

 40
6.35
 41
6.35
 42
6.35000508
 43
6.35000508
 44
215.9
 45
279.4
 46
0.0
 47
0.0
 48
0.0
 49
0.0
140
0.0
141
0.0
142
1.0
143
1.0
 70
  1712
 72
     0
 73
     0
 74
     0
  7

 75
     0
147
1.0
148
0.0
149
0.0
100
AcDbLayout
  1
Model
 70
     1
 71
     0
 10
0.0
 20
0.0
 11
90.0
 21
48.0
 12
0.0
 22
0.0
 32
0.0
 14
0.0
 24
0.0
 34
0.0
 15
90.0
 25
48.0
 35
0.0
146
0.0
 13
0.0
 23
0.0
 33
0.0
 16
1.0
 26
0.0
 36
0.0
 17
0.0
 27
1.0
 37
0.0
 76
     0
330
1F
331
29
  0
MLINESTYLE
  5
18
102
{ACAD_REACTORS
330
17
102
}
330
17
100
AcDbMlineStyle
  2
Standard
 70
     0
  3

 62
   256
 51
90.0
 52
90.0
 71
     2
 49
0.5
 62
   256
  6
BYLAYER
 49
-0.5
 62
   256
  6
BYLAYER
  0
ACDBPLACEHOLDER
  5
F
102
{ACAD_REACTORS
330
E
102
}
330
E
  0
SCALE
  5
48
102
{ACAD_REACTORS
330
47
102
}
330
47
100
AcDbScale
 70
     0
300
1:1
140
1.0
141
1.0
290
     1
  0
SCALE
  5
49
102
{ACAD_REACTORS
330
47
102
}
330
47
100
AcDbScale
 70
     0
300
1:2
140
1.0
141
2.0
290
     0
  0
SCALE
  5
4A
102
{ACAD_REACTORS
330
47
102
}
330
47
100
AcDbScale
 70
     0
300
1:4
140
1.0
141
4.0
290
     0
  0
SCALE
  5
4B
102
{ACAD_REACTORS
330
47
102
}
330
47
100
AcDbScale
 70
     0
300
1:5
140
1.0
141
5.0
290
     0
  0
SCALE
  5
4C
102
{ACAD_REACTORS
330
47
102
}
330
47
100
AcDbScale
 70
     0
300
1:8
140
1.0
141
8.0
290
     0
  0
SCALE
  5
4D
102
{ACAD_REACTORS
330
47
102
}
330
47
100
AcDbScale
 70
     0
300
1:10
140
1.0
141
10.0
290
     0
  0
SCALE
  5
4E
102
{ACAD_REACTORS
330
47
102
}
330
47
100
AcDbScale
 70
     0
300
1:16
140
1.0
141
16.0
290
     0
  0
SCALE
  5
4F
102
{ACAD_REACTORS
330
47
102
}
330
47
100
AcDbScale
 70
     0
300
1:20
140
1.0
141
20.0
290
     0
  0
SCALE
  5
50
102
{ACAD_REACTORS
330
47
102
}
330
47
100
AcDbScale
 70
     0
300
1:30
140
1.0
141
30.0
290
     0
  0
SCALE
  5
51
102
{ACAD_REACTORS
330
47
102
}
330
47
100
AcDbScale
 70
     0
300
1:40
140
1.0
141
40.0
290
     0
  0
SCALE
  5
52
102
{ACAD_REACTORS
330
47
102
}
330
47
100
AcDbScale
 70
     0
300
1:50
140
1.0
141
50.0
290
     0
  0
SCALE
  5
53
102
{ACAD_REACTORS
330
47
102
}
330
47
100
AcDbScale
 70
     0
300
1:100
140
1.0
141
100.0
290
     0
  0
SCALE
  5
54
102
{ACAD_REACTORS
330
47
102
}
330
47
100
AcDbScale
 70
     0
300
2:1
140
2.0
141
1.0
290
     0
  0
SCALE
  5
55
102
{ACAD_REACTORS
330
47
102
}
330
47
100
AcDbScale
 70
     0
300
4:1
140
4.0
141
1.0
290
     0
  0
SCALE
  5
56
102
{ACAD_REACTORS
330
47
102
}
330
47
100
AcDbScale
 70
     0
300
8:1
140
8.0
141
1.0
290
     0
  0
SCALE
  5
57
102
{ACAD_REACTORS
330
47
102
}
330
47
100
AcDbScale
 70
     0
300
10:1
140
10.0
141
1.0
290
     0
  0
SCALE
  5
58
102
{ACAD_REACTORS
330
47
102
}
330
47
100
AcDbScale
 70
     0
300
100:1
140
100.0
141
1.0
290
     0
  0
SCALE
  5
59
102
{ACAD_REACTORS
330
47
102
}
330
47
100
AcDbScale
 70
     0
300
1/128" = 1'-0"
140
0.0078125
141
12.0
290
     0
  0
SCALE
  5
5A
102
{ACAD_REACTORS
330
47
102
}
330
47
100
AcDbScale
 70
     0
300
1/64" = 1'-0"
140
0.015625
141
12.0
290
     0
  0
SCALE
  5
5B
102
{ACAD_REACTORS
330
47
102
}
330
47
100
AcDbScale
 70
     0
300
1/32" = 1'-0"
140
0.03125
141
12.0
290
     0
  0
SCALE
  5
5C
102
{ACAD_REACTORS
330
47
102
}
330
47
100
AcDbScale
 70
     0
300
1/16" = 1'-0"
140
0.0625
141
12.0
290
     0
  0
SCALE
  5
5D
102
{ACAD_REACTORS
330
47
102
}
330
47
100
AcDbScale
 70
     0
300
3/32" = 1'-0"
140
0.09375
141
12.0
290
     0
  0
SCALE
  5
5E
102
{ACAD_REACTORS
330
47
102
}
330
47
100
AcDbScale
 70
     0
300
1/8" = 1'-0"
140
0.125
141
12.0
290
     0
  0
SCALE
  5
5F
102
{ACAD_REACTORS
330
47
102
}
330
47
100
AcDbScale
 70
     0
300
3/16" = 1'-0"
140
0.1875
141
12.0
290
     0
  0
SCALE
  5
60
102
{ACAD_REACTORS
330
47
102
}
330
47
100
AcDbScale
 70
     0
300
1/4" = 1'-0"
140
0.25
141
12.0
290
     0
  0
SCALE
  5
61
102
{ACAD_REACTORS
330
47
102
}
330
47
100
AcDbScale
 70
     0
300
3/8" = 1'-0"
140
0.375
141
12.0
290
     0
  0
SCALE
  5
62
102
{ACAD_REACTORS
330
47
102
}
330
47
100
AcDbScale
 70
     0
300
1/2" = 1'-0"
140
0.5
141
12.0
290
     0
  0
SCALE
  5
63
102
{ACAD_REACTORS
330
47
102
}
330
47
100
AcDbScale
 70
     0
300
3/4" = 1'-0"
140
0.75
141
12.0
290
     0
  0
SCALE
  5
64
102
{ACAD_REACTORS
330
47
102
}
330
47
100
AcDbScale
 70
     0
300
1" = 1'-0"
140
1.0
141
12.0
290
     0
  0
SCALE
  5
65
102
{ACAD_REACTORS
330
47
102
}
330
47
100
AcDbScale
 70
     0
300
1-1/2" = 1'-0"
140
1.5
141
12.0
290
     0
  0
SCALE
  5
66
102
{ACAD_REACTORS
330
47
102
}
330
47
100
AcDbScale
 70
     0
300
3" = 1'-0"
140
3.0
141
12.0
290
     0
  0
SCALE
  5
67
102
{ACAD_REACTORS
330
47
102
}
330
47
100
AcDbScale
 70
     0
300
6" = 1'-0"
140
6.0
141
12.0
290
     0
  0
SCALE
  5
68
102
{ACAD_REACTORS
330
47
102
}
330
47
100
AcDbScale
 70
     0
300
1'-0" = 1'-0"
140
12.0
141
12.0
290
     0
  0
ENDSEC
  0
EOF
